  0
SECTION
  2
HEADER
  9
$ACADVER
  1
AC1015
  9
$ACADMAINTVER
 70
    20
  9
$DWGCODEPAGE
  3
ANSI_1252
  9
$INSBASE
 10
0.0
 20
0.0
 30
0.0
  9
$EXTMIN
 10
-52.0451874555843
 20
17.11300426667406
 30
0.0
  9
$EXTMAX
 10
39.47619654200299
 20
64.76526861943935
 30
0.0
  9
$LIMMIN
 10
0.0
 20
0.0
  9
$LIMMAX
 10
12.0
 20
9.0
  9
$ORTHOMODE
 70
     0
  9
$REGENMODE
 70
     1
  9
$FILLMODE
 70
     1
  9
$QTEXTMODE
 70
     0
  9
$MIRRTEXT
 70
     0
  9
$LTSCALE
 40
1.0
  9
$ATTMODE
 70
     1
  9
$TEXTSIZE
 40
0.2
  9
$TRACEWID
 40
0.05
  9
$TEXTSTYLE
  7
Standard
  9
$CLAYER
  8
0
  9
$CELTYPE
  6
ByLayer
  9
$CECOLOR
 62
   256
  9
$CELTSCALE
 40
1.0
  9
$DISPSILH
 70
     0
  9
$DIMSCALE
 40
1.0
  9
$DIMASZ
 40
0.18
  9
$DIMEXO
 40
0.0625
  9
$DIMDLI
 40
0.38
  9
$DIMRND
 40
0.0
  9
$DIMDLE
 40
0.0
  9
$DIMEXE
 40
0.18
  9
$DIMTP
 40
0.0
  9
$DIMTM
 40
0.0
  9
$DIMTXT
 40
0.18
  9
$DIMCEN
 40
0.09
  9
$DIMTSZ
 40
0.0
  9
$DIMTOL
 70
     0
  9
$DIMLIM
 70
     0
  9
$DIMTIH
 70
     1
  9
$DIMTOH
 70
     1
  9
$DIMSE1
 70
     0
  9
$DIMSE2
 70
     0
  9
$DIMTAD
 70
     0
  9
$DIMZIN
 70
     0
  9
$DIMBLK
  1

  9
$DIMASO
 70
     1
  9
$DIMSHO
 70
     1
  9
$DIMPOST
  1

  9
$DIMAPOST
  1

  9
$DIMALT
 70
     0
  9
$DIMALTD
 70
     2
  9
$DIMALTF
 40
25.4
  9
$DIMLFAC
 40
1.0
  9
$DIMTOFL
 70
     0
  9
$DIMTVP
 40
0.0
  9
$DIMTIX
 70
     0
  9
$DIMSOXD
 70
     0
  9
$DIMSAH
 70
     0
  9
$DIMBLK1
  1

  9
$DIMBLK2
  1

  9
$DIMSTYLE
  2
Standard
  9
$DIMCLRD
 70
     0
  9
$DIMCLRE
 70
     0
  9
$DIMCLRT
 70
     0
  9
$DIMTFAC
 40
1.0
  9
$DIMGAP
 40
0.09
  9
$DIMJUST
 70
     0
  9
$DIMSD1
 70
     0
  9
$DIMSD2
 70
     0
  9
$DIMTOLJ
 70
     1
  9
$DIMTZIN
 70
     0
  9
$DIMALTZ
 70
     0
  9
$DIMALTTZ
 70
     0
  9
$DIMUPT
 70
     0
  9
$DIMDEC
 70
     3
  9
$DIMTDEC
 70
     3
  9
$DIMALTU
 70
     2
  9
$DIMALTTD
 70
     2
  9
$DIMTXSTY
  7
Standard
  9
$DIMAUNIT
 70
     0
  9
$DIMADEC
 70
     0
  9
$DIMALTRND
 40
0.0
  9
$DIMAZIN
 70
     0
  9
$DIMDSEP
 70
    46
  9
$DIMATFIT
 70
     3
  9
$DIMFRAC
 70
     0
  9
$DIMLDRBLK
  1

  9
$DIMLUNIT
 70
     2
  9
$DIMLWD
 70
    -2
  9
$DIMLWE
 70
    -2
  9
$DIMTMOVE
 70
     0
  9
$LUNITS
 70
     2
  9
$LUPREC
 70
     4
  9
$SKETCHINC
 40
0.1
  9
$FILLETRAD
 40
0.0
  9
$AUNITS
 70
     0
  9
$AUPREC
 70
     0
  9
$MENU
  1
.
  9
$ELEVATION
 40
0.0
  9
$PELEVATION
 40
0.0
  9
$THICKNESS
 40
0.0
  9
$LIMCHECK
 70
     0
  9
$CHAMFERA
 40
0.0
  9
$CHAMFERB
 40
0.0
  9
$CHAMFERC
 40
0.0
  9
$CHAMFERD
 40
0.0
  9
$SKPOLY
 70
     0
  9
$TDCREATE
 40
2455093.474418935
  9
$TDUCREATE
 40
2455093.641085602
  9
$TDUPDATE
 40
2456027.466552037
  9
$TDUUPDATE
 40
2456027.633218704
  9
$TDINDWG
 40
0.1182113194
  9
$TDUSRTIMER
 40
0.1182107755
  9
$USRTIMER
 70
     1
  9
$ANGBASE
 50
0.0
  9
$ANGDIR
 70
     0
  9
$PDMODE
 70
     0
  9
$PDSIZE
 40
0.0
  9
$PLINEWID
 40
0.0
  9
$SPLFRAME
 70
     0
  9
$SPLINETYPE
 70
     6
  9
$SPLINESEGS
 70
     8
  9
$HANDSEED
  5
22DD
  9
$SURFTAB1
 70
     6
  9
$SURFTAB2
 70
     6
  9
$SURFTYPE
 70
     6
  9
$SURFU
 70
     6
  9
$SURFV
 70
     6
  9
$UCSBASE
  2

  9
$UCSNAME
  2

  9
$UCSORG
 10
0.0
 20
0.0
 30
0.0
  9
$UCSXDIR
 10
1.0
 20
0.0
 30
0.0
  9
$UCSYDIR
 10
0.0
 20
1.0
 30
0.0
  9
$UCSORTHOREF
  2

  9
$UCSORTHOVIEW
 70
     0
  9
$UCSORGTOP
 10
0.0
 20
0.0
 30
0.0
  9
$UCSORGBOTTOM
 10
0.0
 20
0.0
 30
0.0
  9
$UCSORGLEFT
 10
0.0
 20
0.0
 30
0.0
  9
$UCSORGRIGHT
 10
0.0
 20
0.0
 30
0.0
  9
$UCSORGFRONT
 10
0.0
 20
0.0
 30
0.0
  9
$UCSORGBACK
 10
0.0
 20
0.0
 30
0.0
  9
$PUCSBASE
  2

  9
$PUCSNAME
  2

  9
$PUCSORG
 10
0.0
 20
0.0
 30
0.0
  9
$PUCSXDIR
 10
1.0
 20
0.0
 30
0.0
  9
$PUCSYDIR
 10
0.0
 20
1.0
 30
0.0
  9
$PUCSORTHOREF
  2

  9
$PUCSORTHOVIEW
 70
     0
  9
$PUCSORGTOP
 10
0.0
 20
0.0
 30
0.0
  9
$PUCSORGBOTTOM
 10
0.0
 20
0.0
 30
0.0
  9
$PUCSORGLEFT
 10
0.0
 20
0.0
 30
0.0
  9
$PUCSORGRIGHT
 10
0.0
 20
0.0
 30
0.0
  9
$PUCSORGFRONT
 10
0.0
 20
0.0
 30
0.0
  9
$PUCSORGBACK
 10
0.0
 20
0.0
 30
0.0
  9
$USERI1
 70
     0
  9
$USERI2
 70
     0
  9
$USERI3
 70
     0
  9
$USERI4
 70
     0
  9
$USERI5
 70
     0
  9
$USERR1
 40
0.0
  9
$USERR2
 40
0.0
  9
$USERR3
 40
0.0
  9
$USERR4
 40
0.0
  9
$USERR5
 40
0.0
  9
$WORLDVIEW
 70
     1
  9
$SHADEDGE
 70
     3
  9
$SHADEDIF
 70
    70
  9
$TILEMODE
 70
     1
  9
$MAXACTVP
 70
    64
  9
$PINSBASE
 10
0.0
 20
0.0
 30
0.0
  9
$PLIMCHECK
 70
     0
  9
$PEXTMIN
 10
0.0
 20
0.0
 30
0.0
  9
$PEXTMAX
 10
0.0
 20
0.0
 30
0.0
  9
$PLIMMIN
 10
0.0
 20
0.0
  9
$PLIMMAX
 10
12.0
 20
9.0
  9
$UNITMODE
 70
     0
  9
$VISRETAIN
 70
     1
  9
$PLINEGEN
 70
     0
  9
$PSLTSCALE
 70
     1
  9
$TREEDEPTH
 70
  3020
  9
$CMLSTYLE
  2
Standard
  9
$CMLJUST
 70
     0
  9
$CMLSCALE
 40
1.0
  9
$PROXYGRAPHICS
 70
     1
  9
$MEASUREMENT
 70
     0
  9
$CELWEIGHT
370
    -1
  9
$ENDCAPS
280
     0
  9
$JOINSTYLE
280
     0
  9
$LWDISPLAY
290
     0
  9
$INSUNITS
 70
     1
  9
$HYPERLINKBASE
  1

  9
$STYLESHEET
  1

  9
$XEDIT
290
     1
  9
$CEPSNTYPE
380
     0
  9
$PSTYLEMODE
290
     1
  9
$FINGERPRINTGUID
  2
{FDEAD576-A652-11D2-9A35-0060089B3A3F}
  9
$VERSIONGUID
  2
{6C4EBE08-37EC-48ED-95E0-4DF75D4B257F}
  9
$EXTNAMES
290
     1
  9
$PSVPSCALE
 40
0.0
  9
$OLESTARTUP
290
     0
  0
ENDSEC
  0
SECTION
  2
CLASSES
  0
CLASS
  1
ACDBDICTIONARYWDFLT
  2
AcDbDictionaryWithDefault
  3
ObjectDBX Classes
 90
        0
280
     0
281
     0
  0
CLASS
  1
ACDBPLACEHOLDER
  2
AcDbPlaceHolder
  3
ObjectDBX Classes
 90
        0
280
     0
281
     0
  0
CLASS
  1
LAYOUT
  2
AcDbLayout
  3
ObjectDBX Classes
 90
        0
280
     0
281
     0
  0
CLASS
  1
DICTIONARYVAR
  2
AcDbDictionaryVar
  3
ObjectDBX Classes
 90
        0
280
     0
281
     0
  0
ENDSEC
  0
SECTION
  2
TABLES
  0
TABLE
  2
VPORT
  5
8
330
0
100
AcDbSymbolTable
 70
     5
  0
VPORT
  5
22D3
330
8
100
AcDbSymbolTableRecord
100
AcDbViewportTableRecord
  2
*Active
 70
     0
 10
0.0
 20
0.0
 11
1.0
 21
1.0
 12
-11.02735733780794
 22
32.88177689021179
 13
0.0
 23
0.0
 14
0.5
 24
0.5
 15
0.5
 25
0.5
 16
0.0
 26
0.0
 36
1.0
 17
0.0
 27
0.0
 37
0.0
 40
70.08177413776282
 41
2.060331825037707
 42
50.0
 43
0.0
 44
0.0
 50
0.0
 51
0.0
 71
     0
 72
  1000
 73
     1
 74
     3
 75
     0
 76
     0
 77
     0
 78
     0
281
     0
 65
     1
110
0.0
120
0.0
130
0.0
111
1.0
121
0.0
131
0.0
112
0.0
122
1.0
132
0.0
 79
     0
146
0.0
  0
ENDTAB
  0
TABLE
  2
LTYPE
  5
5
330
0
100
AcDbSymbolTable
 70
     2
  0
LTYPE
  5
14
330
5
100
AcDbSymbolTableRecord
100
AcDbLinetypeTableRecord
  2
ByBlock
 70
     0
  3

 72
    65
 73
     0
 40
0.0
  0
LTYPE
  5
15
330
5
100
AcDbSymbolTableRecord
100
AcDbLinetypeTableRecord
  2
ByLayer
 70
     0
  3

 72
    65
 73
     0
 40
0.0
  0
LTYPE
  5
16
330
5
100
AcDbSymbolTableRecord
100
AcDbLinetypeTableRecord
  2
Continuous
 70
     0
  3
Solid line
 72
    65
 73
     0
 40
0.0
  0
LTYPE
  5
15A
330
5
100
AcDbSymbolTableRecord
100
AcDbLinetypeTableRecord
  2
PHANTOM
 70
     0
  3
______  __  __  ______  __  __  ______  __  __ 
 72
    65
 73
     6
 40
2.5
 49
1.25
 74
     0
 49
-0.25
 74
     0
 49
0.25
 74
     0
 49
-0.25
 74
     0
 49
0.25
 74
     0
 49
-0.25
 74
     0
  0
ENDTAB
  0
TABLE
  2
LAYER
  5
2
102
{ACAD_XDICTIONARY
360
1BEA
102
}
330
0
100
AcDbSymbolTable
 70
    10
  0
LAYER
  5
10
330
2
100
AcDbSymbolTableRecord
100
AcDbLayerTableRecord
  2
0
 70
     0
 62
     7
  6
Continuous
370
    -3
390
F
  0
LAYER
  5
15B
330
2
100
AcDbSymbolTableRecord
100
AcDbLayerTableRecord
  2
DEFPOINTS
 70
     0
 62
     7
  6
Continuous
290
     0
370
    -3
390
F
  0
LAYER
  5
15C
330
2
100
AcDbSymbolTableRecord
100
AcDbLayerTableRecord
  2
OBJ
 70
     0
 62
     7
  6
Continuous
370
    -3
390
F
  0
LAYER
  5
15D
330
2
100
AcDbSymbolTableRecord
100
AcDbLayerTableRecord
  2
DIM
 70
     0
 62
     7
  6
Continuous
370
    -3
390
F
  0
LAYER
  5
15E
330
2
100
AcDbSymbolTableRecord
100
AcDbLayerTableRecord
  2
TXT
 70
     0
 62
     7
  6
Continuous
370
    -3
390
F
  0
LAYER
  5
15F
330
2
100
AcDbSymbolTableRecord
100
AcDbLayerTableRecord
  2
TEXT
 70
     0
 62
    -7
  6
Continuous
370
    -3
390
F
  0
LAYER
  5
160
330
2
100
AcDbSymbolTableRecord
100
AcDbLayerTableRecord
  2
DIMENSION
 70
     0
 62
     7
  6
Continuous
370
    -3
390
F
  0
LAYER
  5
161
330
2
100
AcDbSymbolTableRecord
100
AcDbLayerTableRecord
  2
THERMOSTATCVR
 70
     0
 62
     7
  6
Continuous
370
    -3
390
F
  0
LAYER
  5
162
330
2
100
AcDbSymbolTableRecord
100
AcDbLayerTableRecord
  2
BORDER
 70
     0
 62
     7
  6
Continuous
370
    -3
390
F
  0
LAYER
  5
2088
330
2
100
AcDbSymbolTableRecord
100
AcDbLayerTableRecord
  2
1000V2CVR
 70
     0
 62
     4
  6
Continuous
370
    -3
390
F
  0
ENDTAB
  0
TABLE
  2
STYLE
  5
3
330
0
100
AcDbSymbolTable
 70
     1
  0
STYLE
  5
11
330
3
100
AcDbSymbolTableRecord
100
AcDbTextStyleTableRecord
  2
Standard
 70
     0
 40
0.0
 41
1.0
 50
0.0
 71
     0
 42
0.2
  3
txt
  4

  0
ENDTAB
  0
TABLE
  2
VIEW
  5
6
330
0
100
AcDbSymbolTable
 70
     0
  0
ENDTAB
  0
TABLE
  2
UCS
  5
7
330
0
100
AcDbSymbolTable
 70
     0
  0
ENDTAB
  0
TABLE
  2
APPID
  5
9
330
0
100
AcDbSymbolTable
 70
     1
  0
APPID
  5
12
330
9
100
AcDbSymbolTableRecord
100
AcDbRegAppTableRecord
  2
ACAD
 70
     0
  0
ENDTAB
  0
TABLE
  2
DIMSTYLE
  5
A
330
0
100
AcDbSymbolTable
 70
     1
100
AcDbDimStyleTable
 71
     1
340
27
  0
DIMSTYLE
105
27
102
{ACAD_REACTORS
330
1C35
330
1C36
330
1C3A
330
1C3B
330
1C3C
330
1C3F
330
1C43
330
1C44
330
1C5D
330
1C5E
330
1C5F
330
1C60
330
1C61
330
1C62
330
1C63
330
1C64
330
1C65
330
1C66
330
1C67
330
1C68
330
1C33
330
1C3D
330
1C3E
330
1C6A
330
1C69
330
1C34
102
}
330
A
100
AcDbSymbolTableRecord
100
AcDbDimStyleTableRecord
  2
Standard
 70
     0
271
     3
272
     3
340
11
  0
ENDTAB
  0
TABLE
  2
BLOCK_RECORD
  5
1
330
0
100
AcDbSymbolTable
 70
   128
  0
BLOCK_RECORD
  5
1F
330
1
100
AcDbSymbolTableRecord
100
AcDbBlockTableRecord
  2
*Model_Space
340
22
  0
BLOCK_RECORD
  5
58
330
1
100
AcDbSymbolTableRecord
100
AcDbBlockTableRecord
  2
*Paper_Space
340
59
  0
BLOCK_RECORD
  5
5D
330
1
100
AcDbSymbolTableRecord
100
AcDbBlockTableRecord
  2
*Paper_Space0
340
5E
  0
BLOCK_RECORD
  5
18ED
330
1
100
AcDbSymbolTableRecord
100
AcDbBlockTableRecord
  2
*D1
340
0
  0
BLOCK_RECORD
  5
18F5
330
1
100
AcDbSymbolTableRecord
100
AcDbBlockTableRecord
  2
*D2
340
0
  0
BLOCK_RECORD
  5
18FD
330
1
100
AcDbSymbolTableRecord
100
AcDbBlockTableRecord
  2
*D3
340
0
  0
BLOCK_RECORD
  5
1905
330
1
100
AcDbSymbolTableRecord
100
AcDbBlockTableRecord
  2
*D4
340
0
  0
BLOCK_RECORD
  5
190D
330
1
100
AcDbSymbolTableRecord
100
AcDbBlockTableRecord
  2
*D5
340
0
  0
BLOCK_RECORD
  5
1917
330
1
100
AcDbSymbolTableRecord
100
AcDbBlockTableRecord
  2
*D6
340
0
  0
BLOCK_RECORD
  5
1921
330
1
100
AcDbSymbolTableRecord
100
AcDbBlockTableRecord
  2
*D7
340
0
  0
BLOCK_RECORD
  5
192B
330
1
100
AcDbSymbolTableRecord
100
AcDbBlockTableRecord
  2
*D8
340
0
  0
BLOCK_RECORD
  5
1933
330
1
100
AcDbSymbolTableRecord
100
AcDbBlockTableRecord
  2
*D9
340
0
  0
BLOCK_RECORD
  5
193D
330
1
100
AcDbSymbolTableRecord
100
AcDbBlockTableRecord
  2
*D10
340
0
  0
BLOCK_RECORD
  5
1945
330
1
100
AcDbSymbolTableRecord
100
AcDbBlockTableRecord
  2
*D11
340
0
  0
BLOCK_RECORD
  5
194D
330
1
100
AcDbSymbolTableRecord
100
AcDbBlockTableRecord
  2
*D12
340
0
  0
BLOCK_RECORD
  5
1955
330
1
100
AcDbSymbolTableRecord
100
AcDbBlockTableRecord
  2
*D13
340
0
  0
BLOCK_RECORD
  5
195F
330
1
100
AcDbSymbolTableRecord
100
AcDbBlockTableRecord
  2
*D14
340
0
  0
BLOCK_RECORD
  5
1976
330
1
100
AcDbSymbolTableRecord
100
AcDbBlockTableRecord
  2
*D15
340
0
  0
BLOCK_RECORD
  5
197E
330
1
100
AcDbSymbolTableRecord
100
AcDbBlockTableRecord
  2
*D16
340
0
  0
BLOCK_RECORD
  5
1986
330
1
100
AcDbSymbolTableRecord
100
AcDbBlockTableRecord
  2
*D17
340
0
  0
BLOCK_RECORD
  5
1990
330
1
100
AcDbSymbolTableRecord
100
AcDbBlockTableRecord
  2
*D18
340
0
  0
BLOCK_RECORD
  5
199A
330
1
100
AcDbSymbolTableRecord
100
AcDbBlockTableRecord
  2
*D19
340
0
  0
BLOCK_RECORD
  5
19A4
330
1
100
AcDbSymbolTableRecord
100
AcDbBlockTableRecord
  2
*D20
340
0
  0
BLOCK_RECORD
  5
19AE
330
1
100
AcDbSymbolTableRecord
100
AcDbBlockTableRecord
  2
*D21
340
0
  0
BLOCK_RECORD
  5
19B6
330
1
100
AcDbSymbolTableRecord
100
AcDbBlockTableRecord
  2
*D22
340
0
  0
BLOCK_RECORD
  5
1AFF
330
1
100
AcDbSymbolTableRecord
100
AcDbBlockTableRecord
  2
*D23
340
0
  0
BLOCK_RECORD
  5
1B07
330
1
100
AcDbSymbolTableRecord
100
AcDbBlockTableRecord
  2
*D24
340
0
  0
BLOCK_RECORD
  5
1B0F
330
1
100
AcDbSymbolTableRecord
100
AcDbBlockTableRecord
  2
*D25
340
0
  0
BLOCK_RECORD
  5
1B19
330
1
100
AcDbSymbolTableRecord
100
AcDbBlockTableRecord
  2
*D26
340
0
  0
BLOCK_RECORD
  5
1B23
330
1
100
AcDbSymbolTableRecord
100
AcDbBlockTableRecord
  2
*D27
340
0
  0
BLOCK_RECORD
  5
1B2D
330
1
100
AcDbSymbolTableRecord
100
AcDbBlockTableRecord
  2
*D28
340
0
  0
BLOCK_RECORD
  5
1B37
330
1
100
AcDbSymbolTableRecord
100
AcDbBlockTableRecord
  2
*D29
340
0
  0
BLOCK_RECORD
  5
1B41
330
1
100
AcDbSymbolTableRecord
100
AcDbBlockTableRecord
  2
*D30
340
0
  0
BLOCK_RECORD
  5
1B4B
330
1
100
AcDbSymbolTableRecord
100
AcDbBlockTableRecord
  2
*D31
340
0
  0
BLOCK_RECORD
  5
1B53
330
1
100
AcDbSymbolTableRecord
100
AcDbBlockTableRecord
  2
*D32
340
0
  0
BLOCK_RECORD
  5
1B5B
330
1
100
AcDbSymbolTableRecord
100
AcDbBlockTableRecord
  2
*D33
340
0
  0
BLOCK_RECORD
  5
1B63
330
1
100
AcDbSymbolTableRecord
100
AcDbBlockTableRecord
  2
*D34
340
0
  0
BLOCK_RECORD
  5
1B6D
330
1
100
AcDbSymbolTableRecord
100
AcDbBlockTableRecord
  2
*D35
340
0
  0
BLOCK_RECORD
  5
1B75
330
1
100
AcDbSymbolTableRecord
100
AcDbBlockTableRecord
  2
*D36
340
0
  0
BLOCK_RECORD
  5
1B7F
330
1
100
AcDbSymbolTableRecord
100
AcDbBlockTableRecord
  2
*D37
340
0
  0
BLOCK_RECORD
  5
1B89
330
1
100
AcDbSymbolTableRecord
100
AcDbBlockTableRecord
  2
*D38
340
0
  0
BLOCK_RECORD
  5
1B93
330
1
100
AcDbSymbolTableRecord
100
AcDbBlockTableRecord
  2
*D39
340
0
  0
BLOCK_RECORD
  5
1B9B
330
1
100
AcDbSymbolTableRecord
100
AcDbBlockTableRecord
  2
*D40
340
0
  0
BLOCK_RECORD
  5
1BA3
330
1
100
AcDbSymbolTableRecord
100
AcDbBlockTableRecord
  2
*D41
340
0
  0
BLOCK_RECORD
  5
1BAB
330
1
100
AcDbSymbolTableRecord
100
AcDbBlockTableRecord
  2
*D42
340
0
  0
BLOCK_RECORD
  5
1BB3
330
1
100
AcDbSymbolTableRecord
100
AcDbBlockTableRecord
  2
*D43
340
0
  0
BLOCK_RECORD
  5
1BBB
330
1
100
AcDbSymbolTableRecord
100
AcDbBlockTableRecord
  2
*D44
340
0
  0
BLOCK_RECORD
  5
1BC3
330
1
100
AcDbSymbolTableRecord
100
AcDbBlockTableRecord
  2
*D45
340
0
  0
BLOCK_RECORD
  5
1BCD
330
1
100
AcDbSymbolTableRecord
100
AcDbBlockTableRecord
  2
*D46
340
0
  0
BLOCK_RECORD
  5
1BD5
330
1
100
AcDbSymbolTableRecord
100
AcDbBlockTableRecord
  2
*D47
340
0
  0
BLOCK_RECORD
  5
1BDF
330
1
100
AcDbSymbolTableRecord
100
AcDbBlockTableRecord
  2
*D48
340
0
  0
BLOCK_RECORD
  5
1C76
330
1
100
AcDbSymbolTableRecord
100
AcDbBlockTableRecord
  2
*D49
340
0
  0
BLOCK_RECORD
  5
1C81
330
1
100
AcDbSymbolTableRecord
100
AcDbBlockTableRecord
  2
*D50
340
0
  0
BLOCK_RECORD
  5
1C8B
330
1
100
AcDbSymbolTableRecord
100
AcDbBlockTableRecord
  2
*D51
340
0
  0
BLOCK_RECORD
  5
1C93
330
1
100
AcDbSymbolTableRecord
100
AcDbBlockTableRecord
  2
*D52
340
0
  0
BLOCK_RECORD
  5
1C9D
330
1
100
AcDbSymbolTableRecord
100
AcDbBlockTableRecord
  2
*D53
340
0
  0
BLOCK_RECORD
  5
1CA5
330
1
100
AcDbSymbolTableRecord
100
AcDbBlockTableRecord
  2
*D54
340
0
  0
BLOCK_RECORD
  5
1CAD
330
1
100
AcDbSymbolTableRecord
100
AcDbBlockTableRecord
  2
*D55
340
0
  0
BLOCK_RECORD
  5
1CB7
330
1
100
AcDbSymbolTableRecord
100
AcDbBlockTableRecord
  2
*D56
340
0
  0
BLOCK_RECORD
  5
1CC1
330
1
100
AcDbSymbolTableRecord
100
AcDbBlockTableRecord
  2
*D57
340
0
  0
BLOCK_RECORD
  5
1CCB
330
1
100
AcDbSymbolTableRecord
100
AcDbBlockTableRecord
  2
*D58
340
0
  0
BLOCK_RECORD
  5
1CD5
330
1
100
AcDbSymbolTableRecord
100
AcDbBlockTableRecord
  2
*D59
340
0
  0
BLOCK_RECORD
  5
1CDD
330
1
100
AcDbSymbolTableRecord
100
AcDbBlockTableRecord
  2
*D60
340
0
  0
BLOCK_RECORD
  5
1CE5
330
1
100
AcDbSymbolTableRecord
100
AcDbBlockTableRecord
  2
*D61
340
0
  0
BLOCK_RECORD
  5
1CED
330
1
100
AcDbSymbolTableRecord
100
AcDbBlockTableRecord
  2
*D62
340
0
  0
BLOCK_RECORD
  5
1CF5
330
1
100
AcDbSymbolTableRecord
100
AcDbBlockTableRecord
  2
*D63
340
0
  0
BLOCK_RECORD
  5
1CFD
330
1
100
AcDbSymbolTableRecord
100
AcDbBlockTableRecord
  2
*D64
340
0
  0
BLOCK_RECORD
  5
1D05
330
1
100
AcDbSymbolTableRecord
100
AcDbBlockTableRecord
  2
*D65
340
0
  0
BLOCK_RECORD
  5
1D0F
330
1
100
AcDbSymbolTableRecord
100
AcDbBlockTableRecord
  2
*D66
340
0
  0
BLOCK_RECORD
  5
1D19
330
1
100
AcDbSymbolTableRecord
100
AcDbBlockTableRecord
  2
*D67
340
0
  0
BLOCK_RECORD
  5
1D23
330
1
100
AcDbSymbolTableRecord
100
AcDbBlockTableRecord
  2
*D68
340
0
  0
BLOCK_RECORD
  5
1D2B
330
1
100
AcDbSymbolTableRecord
100
AcDbBlockTableRecord
  2
*D69
340
0
  0
BLOCK_RECORD
  5
1D35
330
1
100
AcDbSymbolTableRecord
100
AcDbBlockTableRecord
  2
*D70
340
0
  0
BLOCK_RECORD
  5
1D3D
330
1
100
AcDbSymbolTableRecord
100
AcDbBlockTableRecord
  2
*D71
340
0
  0
BLOCK_RECORD
  5
1D47
330
1
100
AcDbSymbolTableRecord
100
AcDbBlockTableRecord
  2
*D72
340
0
  0
BLOCK_RECORD
  5
1D4F
330
1
100
AcDbSymbolTableRecord
100
AcDbBlockTableRecord
  2
*D73
340
0
  0
BLOCK_RECORD
  5
1D59
330
1
100
AcDbSymbolTableRecord
100
AcDbBlockTableRecord
  2
*D74
340
0
  0
BLOCK_RECORD
  5
1F9D
330
1
100
AcDbSymbolTableRecord
100
AcDbBlockTableRecord
  2
*D75
340
0
  0
BLOCK_RECORD
  5
1FA5
330
1
100
AcDbSymbolTableRecord
100
AcDbBlockTableRecord
  2
*D76
340
0
  0
BLOCK_RECORD
  5
1FAD
330
1
100
AcDbSymbolTableRecord
100
AcDbBlockTableRecord
  2
*D77
340
0
  0
BLOCK_RECORD
  5
1FB7
330
1
100
AcDbSymbolTableRecord
100
AcDbBlockTableRecord
  2
*D78
340
0
  0
BLOCK_RECORD
  5
1FC1
330
1
100
AcDbSymbolTableRecord
100
AcDbBlockTableRecord
  2
*D79
340
0
  0
BLOCK_RECORD
  5
1FCB
330
1
100
AcDbSymbolTableRecord
100
AcDbBlockTableRecord
  2
*D80
340
0
  0
BLOCK_RECORD
  5
1FD5
330
1
100
AcDbSymbolTableRecord
100
AcDbBlockTableRecord
  2
*D81
340
0
  0
BLOCK_RECORD
  5
1FDF
330
1
100
AcDbSymbolTableRecord
100
AcDbBlockTableRecord
  2
*D82
340
0
  0
BLOCK_RECORD
  5
1FE9
330
1
100
AcDbSymbolTableRecord
100
AcDbBlockTableRecord
  2
*D83
340
0
  0
BLOCK_RECORD
  5
1FF1
330
1
100
AcDbSymbolTableRecord
100
AcDbBlockTableRecord
  2
*D84
340
0
  0
BLOCK_RECORD
  5
1FF9
330
1
100
AcDbSymbolTableRecord
100
AcDbBlockTableRecord
  2
*D85
340
0
  0
BLOCK_RECORD
  5
2001
330
1
100
AcDbSymbolTableRecord
100
AcDbBlockTableRecord
  2
*D86
340
0
  0
BLOCK_RECORD
  5
200B
330
1
100
AcDbSymbolTableRecord
100
AcDbBlockTableRecord
  2
*D87
340
0
  0
BLOCK_RECORD
  5
2013
330
1
100
AcDbSymbolTableRecord
100
AcDbBlockTableRecord
  2
*D88
340
0
  0
BLOCK_RECORD
  5
201D
330
1
100
AcDbSymbolTableRecord
100
AcDbBlockTableRecord
  2
*D89
340
0
  0
BLOCK_RECORD
  5
2027
330
1
100
AcDbSymbolTableRecord
100
AcDbBlockTableRecord
  2
*D90
340
0
  0
BLOCK_RECORD
  5
2031
330
1
100
AcDbSymbolTableRecord
100
AcDbBlockTableRecord
  2
*D91
340
0
  0
BLOCK_RECORD
  5
2039
330
1
100
AcDbSymbolTableRecord
100
AcDbBlockTableRecord
  2
*D92
340
0
  0
BLOCK_RECORD
  5
2041
330
1
100
AcDbSymbolTableRecord
100
AcDbBlockTableRecord
  2
*D93
340
0
  0
BLOCK_RECORD
  5
2049
330
1
100
AcDbSymbolTableRecord
100
AcDbBlockTableRecord
  2
*D94
340
0
  0
BLOCK_RECORD
  5
2051
330
1
100
AcDbSymbolTableRecord
100
AcDbBlockTableRecord
  2
*D95
340
0
  0
BLOCK_RECORD
  5
2059
330
1
100
AcDbSymbolTableRecord
100
AcDbBlockTableRecord
  2
*D96
340
0
  0
BLOCK_RECORD
  5
2061
330
1
100
AcDbSymbolTableRecord
100
AcDbBlockTableRecord
  2
*D97
340
0
  0
BLOCK_RECORD
  5
206B
330
1
100
AcDbSymbolTableRecord
100
AcDbBlockTableRecord
  2
*D98
340
0
  0
BLOCK_RECORD
  5
2073
330
1
100
AcDbSymbolTableRecord
100
AcDbBlockTableRecord
  2
*D99
340
0
  0
BLOCK_RECORD
  5
207D
330
1
100
AcDbSymbolTableRecord
100
AcDbBlockTableRecord
  2
*D100
340
0
  0
BLOCK_RECORD
  5
2113
330
1
100
AcDbSymbolTableRecord
100
AcDbBlockTableRecord
  2
*D102
340
0
  0
BLOCK_RECORD
  5
211B
330
1
100
AcDbSymbolTableRecord
100
AcDbBlockTableRecord
  2
*D103
340
0
  0
BLOCK_RECORD
  5
2123
330
1
100
AcDbSymbolTableRecord
100
AcDbBlockTableRecord
  2
*D104
340
0
  0
BLOCK_RECORD
  5
212B
330
1
100
AcDbSymbolTableRecord
100
AcDbBlockTableRecord
  2
*D105
340
0
  0
BLOCK_RECORD
  5
2133
330
1
100
AcDbSymbolTableRecord
100
AcDbBlockTableRecord
  2
*D106
340
0
  0
BLOCK_RECORD
  5
213D
330
1
100
AcDbSymbolTableRecord
100
AcDbBlockTableRecord
  2
*D107
340
0
  0
BLOCK_RECORD
  5
2147
330
1
100
AcDbSymbolTableRecord
100
AcDbBlockTableRecord
  2
*D108
340
0
  0
BLOCK_RECORD
  5
2151
330
1
100
AcDbSymbolTableRecord
100
AcDbBlockTableRecord
  2
*D109
340
0
  0
BLOCK_RECORD
  5
2159
330
1
100
AcDbSymbolTableRecord
100
AcDbBlockTableRecord
  2
*D110
340
0
  0
BLOCK_RECORD
  5
2163
330
1
100
AcDbSymbolTableRecord
100
AcDbBlockTableRecord
  2
*D111
340
0
  0
BLOCK_RECORD
  5
216B
330
1
100
AcDbSymbolTableRecord
100
AcDbBlockTableRecord
  2
*D112
340
0
  0
BLOCK_RECORD
  5
2173
330
1
100
AcDbSymbolTableRecord
100
AcDbBlockTableRecord
  2
*D113
340
0
  0
BLOCK_RECORD
  5
217B
330
1
100
AcDbSymbolTableRecord
100
AcDbBlockTableRecord
  2
*D114
340
0
  0
BLOCK_RECORD
  5
2185
330
1
100
AcDbSymbolTableRecord
100
AcDbBlockTableRecord
  2
*D115
340
0
  0
BLOCK_RECORD
  5
218F
330
1
100
AcDbSymbolTableRecord
100
AcDbBlockTableRecord
  2
*D116
340
0
  0
BLOCK_RECORD
  5
219A
330
1
100
AcDbSymbolTableRecord
100
AcDbBlockTableRecord
  2
*D117
340
0
  0
BLOCK_RECORD
  5
21A4
330
1
100
AcDbSymbolTableRecord
100
AcDbBlockTableRecord
  2
*D118
340
0
  0
BLOCK_RECORD
  5
21AC
330
1
100
AcDbSymbolTableRecord
100
AcDbBlockTableRecord
  2
*D119
340
0
  0
BLOCK_RECORD
  5
21B6
330
1
100
AcDbSymbolTableRecord
100
AcDbBlockTableRecord
  2
*D120
340
0
  0
BLOCK_RECORD
  5
21BE
330
1
100
AcDbSymbolTableRecord
100
AcDbBlockTableRecord
  2
*D121
340
0
  0
BLOCK_RECORD
  5
21C6
330
1
100
AcDbSymbolTableRecord
100
AcDbBlockTableRecord
  2
*D122
340
0
  0
BLOCK_RECORD
  5
21D0
330
1
100
AcDbSymbolTableRecord
100
AcDbBlockTableRecord
  2
*D123
340
0
  0
BLOCK_RECORD
  5
21DA
330
1
100
AcDbSymbolTableRecord
100
AcDbBlockTableRecord
  2
*D124
340
0
  0
BLOCK_RECORD
  5
21E4
330
1
100
AcDbSymbolTableRecord
100
AcDbBlockTableRecord
  2
*D125
340
0
  0
BLOCK_RECORD
  5
21EE
330
1
100
AcDbSymbolTableRecord
100
AcDbBlockTableRecord
  2
*D126
340
0
  0
BLOCK_RECORD
  5
21F6
330
1
100
AcDbSymbolTableRecord
100
AcDbBlockTableRecord
  2
*D127
340
0
  0
ENDTAB
  0
ENDSEC
  0
SECTION
  2
BLOCKS
  0
BLOCK
  5
20
330
1F
100
AcDbEntity
  8
0
100
AcDbBlockBegin
  2
*Model_Space
 70
     0
 10
0.0
 20
0.0
 30
0.0
  3
*Model_Space
  1

  0
ENDBLK
  5
21
330
1F
100
AcDbEntity
  8
0
100
AcDbBlockEnd
  0
BLOCK
  5
5A
330
58
100
AcDbEntity
 67
     1
  8
0
100
AcDbBlockBegin
  2
*Paper_Space
 70
     0
 10
0.0
 20
0.0
 30
0.0
  3
*Paper_Space
  1

  0
ENDBLK
  5
5B
330
58
100
AcDbEntity
 67
     1
  8
0
100
AcDbBlockEnd
  0
BLOCK
  5
5F
330
5D
100
AcDbEntity
  8
0
100
AcDbBlockBegin
  2
*Paper_Space0
 70
     0
 10
0.0
 20
0.0
 30
0.0
  3
*Paper_Space0
  1

  0
ENDBLK
  5
60
330
5D
100
AcDbEntity
  8
0
100
AcDbBlockEnd
  0
BLOCK
  5
18F3
330
18ED
100
AcDbEntity
  8
0
100
AcDbBlockBegin
  2
*D1
 70
     1
 10
0.0
 20
0.0
 30
0.0
  3
*D1
  1

  0
LINE
  5
1A4A
330
18ED
100
AcDbEntity
  8
0
 62
     0
370
    -2
100
AcDbLine
 10
13.51486191626006
 20
34.30663644305667
 30
0.0
 11
10.91460456293899
 21
34.30663644305667
 31
0.0
  0
MTEXT
  5
1A4B
330
18ED
100
AcDbEntity
  8
0
 62
     0
370
     9
100
AcDbMText
 10
9.28960456293899
 20
34.30663644305667
 30
0.0
 40
0.75
 41
0.0
 71
     5
 72
     1
  1
\A1;0.000
 73
     1
 44
1.0
1001
ACAD
1000
MTEXTBEGIN
1070
    73
1070
     1
1070
    44
1040
1.0
1070
    74
1070
     0
1000
MTEXTEND
  0
POINT
  5
1A4C
330
18ED
100
AcDbEntity
  8
DEFPOINTS
 62
     0
100
AcDbPoint
 10
13.88986191626006
 20
34.30663644305667
 30
0.0
  0
POINT
  5
1A4D
330
18ED
100
AcDbEntity
  8
DEFPOINTS
 62
     0
100
AcDbPoint
 10
10.91460456293899
 20
34.30663644305667
 30
0.0
  0
POINT
  5
1A4E
330
18ED
100
AcDbEntity
  8
DEFPOINTS
 62
     0
100
AcDbPoint
 10
13.88982583379247
 20
34.30668158313937
 30
0.0
  0
ENDBLK
  5
18F4
330
18ED
100
AcDbEntity
  8
0
100
AcDbBlockEnd
  0
BLOCK
  5
18FB
330
18F5
100
AcDbEntity
  8
0
100
AcDbBlockBegin
  2
*D2
 70
     1
 10
0.0
 20
0.0
 30
0.0
  3
*D2
  1

  0
LINE
  5
1A4F
330
18F5
100
AcDbEntity
  8
0
 62
     0
370
    -2
100
AcDbLine
 10
13.88986191626006
 20
33.93163644305668
 30
0.0
 11
13.88986191626006
 21
31.33572730498096
 31
0.0
  0
MTEXT
  5
1A50
330
18F5
100
AcDbEntity
  8
0
 62
     0
370
     9
100
AcDbMText
 10
13.88986191626005
 20
29.71072730498096
 30
0.0
 40
0.75
 41
0.0
 71
     5
 72
     1
  1
\A1;0.000
 11
0.0000000000000001
 21
1.0
 31
0.0
 73
     1
 44
1.0
1001
ACAD
1000
MTEXTBEGIN
1070
    73
1070
     1
1070
    44
1040
1.0
1070
    74
1070
     0
1000
MTEXTEND
  0
POINT
  5
1A51
330
18F5
100
AcDbEntity
  8
DEFPOINTS
 62
     0
100
AcDbPoint
 10
13.88986191626006
 20
34.30663644305667
 30
0.0
  0
POINT
  5
1A52
330
18F5
100
AcDbEntity
  8
DEFPOINTS
 62
     0
100
AcDbPoint
 10
13.88986191626006
 20
31.33572730498096
 30
0.0
  0
POINT
  5
1A53
330
18F5
100
AcDbEntity
  8
DEFPOINTS
 62
     0
100
AcDbPoint
 10
13.88982583379247
 20
34.30668158313937
 30
0.0
  0
ENDBLK
  5
18FC
330
18F5
100
AcDbEntity
  8
0
100
AcDbBlockEnd
  0
BLOCK
  5
1903
330
18FD
100
AcDbEntity
  8
0
100
AcDbBlockBegin
  2
*D3
 70
     1
 10
0.0
 20
0.0
 30
0.0
  3
*D3
  1

  0
LINE
  5
1A54
330
18FD
100
AcDbEntity
  8
0
 62
     0
370
    -2
100
AcDbLine
 10
15.84236191626006
 20
36.30663644305677
 30
0.0
 11
10.93001939470734
 21
36.30663644305677
 31
0.0
  0
MTEXT
  5
1A55
330
18FD
100
AcDbEntity
  8
0
 62
     0
370
     9
100
AcDbMText
 10
9.242519394707343
 20
36.30663644305677
 30
0.0
 40
0.75
 41
0.0
 71
     5
 72
     1
  1
\A1;2.000
 73
     1
 44
1.0
1001
ACAD
1000
MTEXTBEGIN
1070
    73
1070
     1
1070
    44
1040
1.0
1070
    74
1070
     0
1000
MTEXTEND
  0
POINT
  5
1A56
330
18FD
100
AcDbEntity
  8
DEFPOINTS
 62
     0
100
AcDbPoint
 10
16.21736191626006
 20
36.30663644305677
 30
0.0
  0
POINT
  5
1A57
330
18FD
100
AcDbEntity
  8
DEFPOINTS
 62
     0
100
AcDbPoint
 10
10.93001939470734
 20
36.30663644305677
 30
0.0
  0
POINT
  5
1A58
330
18FD
100
AcDbEntity
  8
DEFPOINTS
 62
     0
100
AcDbPoint
 10
13.88982583379247
 20
34.30668158313937
 30
0.0
  0
ENDBLK
  5
1904
330
18FD
100
AcDbEntity
  8
0
100
AcDbBlockEnd
  0
BLOCK
  5
190B
330
1905
100
AcDbEntity
  8
0
100
AcDbBlockBegin
  2
*D4
 70
     1
 10
0.0
 20
0.0
 30
0.0
  3
*D4
  1

  0
LINE
  5
1A59
330
1905
100
AcDbEntity
  8
0
 62
     0
370
    -2
100
AcDbLine
 10
14.34236191625997
 20
45.99363644305674
 30
0.0
 11
10.93001939470734
 21
45.99363644305674
 31
0.0
  0
MTEXT
  5
1A5A
330
1905
100
AcDbEntity
  8
0
 62
     0
370
     9
100
AcDbMText
 10
8.930019394707342
 20
45.99363644305674
 30
0.0
 40
0.75
 41
0.0
 71
     5
 72
     1
  1
\A1;11.687
 73
     1
 44
1.0
1001
ACAD
1000
MTEXTBEGIN
1070
    73
1070
     1
1070
    44
1040
1.0
1070
    74
1070
     0
1000
MTEXTEND
  0
POINT
  5
1A5B
330
1905
100
AcDbEntity
  8
DEFPOINTS
 62
     0
100
AcDbPoint
 10
14.71736191625997
 20
45.99363644305674
 30
0.0
  0
POINT
  5
1A5C
330
1905
100
AcDbEntity
  8
DEFPOINTS
 62
     0
100
AcDbPoint
 10
10.93001939470734
 20
45.99363644305674
 30
0.0
  0
POINT
  5
1A5D
330
1905
100
AcDbEntity
  8
DEFPOINTS
 62
     0
100
AcDbPoint
 10
13.88982583379247
 20
34.30668158313937
 30
0.0
  0
ENDBLK
  5
190C
330
1905
100
AcDbEntity
  8
0
100
AcDbBlockEnd
  0
BLOCK
  5
1915
330
190D
100
AcDbEntity
  8
0
100
AcDbBlockBegin
  2
*D5
 70
     1
 10
0.0
 20
0.0
 30
0.0
  3
*D5
  1

  0
LINE
  5
1A5E
330
190D
100
AcDbEntity
  8
0
 62
     0
370
    -2
100
AcDbLine
 10
16.54436191625997
 20
47.11893644305685
 30
0.0
 11
13.93001939470734
 21
47.11893644305685
 31
0.0
  0
LINE
  5
1A5F
330
190D
100
AcDbEntity
  8
0
 62
     0
370
    -2
100
AcDbLine
 10
13.93001939470734
 20
47.11893644305685
 30
0.0
 11
12.43001939470734
 21
47.36729387932767
 31
0.0
  0
LINE
  5
1A60
330
190D
100
AcDbEntity
  8
0
 62
     0
370
    -2
100
AcDbLine
 10
12.43001939470734
 20
47.36729387932767
 30
0.0
 11
10.93001939470734
 21
47.36729387932767
 31
0.0
  0
MTEXT
  5
1A61
330
190D
100
AcDbEntity
  8
0
 62
     0
370
     9
100
AcDbMText
 10
8.930019394707342
 20
47.36729387932767
 30
0.0
 40
0.75
 41
0.0
 71
     5
 72
     1
  1
\A1;12.812
 73
     1
 44
1.0
1001
ACAD
1000
MTEXTBEGIN
1070
    73
1070
     1
1070
    44
1040
1.0
1070
    74
1070
     0
1000
MTEXTEND
  0
POINT
  5
1A62
330
190D
100
AcDbEntity
  8
DEFPOINTS
 62
     0
100
AcDbPoint
 10
16.91936191625997
 20
47.11893644305685
 30
0.0
  0
POINT
  5
1A63
330
190D
100
AcDbEntity
  8
DEFPOINTS
 62
     0
100
AcDbPoint
 10
10.93001939470734
 20
47.36729387932767
 30
0.0
  0
POINT
  5
1A64
330
190D
100
AcDbEntity
  8
DEFPOINTS
 62
     0
100
AcDbPoint
 10
13.88982583379247
 20
34.30668158313937
 30
0.0
  0
ENDBLK
  5
1916
330
190D
100
AcDbEntity
  8
0
100
AcDbBlockEnd
  0
BLOCK
  5
191F
330
1917
100
AcDbEntity
  8
0
100
AcDbBlockBegin
  2
*D6
 70
     1
 10
0.0
 20
0.0
 30
0.0
  3
*D6
  1

  0
LINE
  5
1A65
330
1917
100
AcDbEntity
  8
0
 62
     0
370
    -2
100
AcDbLine
 10
16.54436191625986
 20
41.4436364430568
 30
0.0
 11
13.93001939470734
 21
41.4436364430568
 31
0.0
  0
LINE
  5
1A66
330
1917
100
AcDbEntity
  8
0
 62
     0
370
    -2
100
AcDbLine
 10
13.93001939470734
 20
41.4436364430568
 30
0.0
 11
12.43001939470734
 21
41.46321364373448
 31
0.0
  0
LINE
  5
1A67
330
1917
100
AcDbEntity
  8
0
 62
     0
370
    -2
100
AcDbLine
 10
12.43001939470734
 20
41.46321364373448
 30
0.0
 11
10.93001939470734
 21
41.46321364373448
 31
0.0
  0
MTEXT
  5
1A68
330
1917
100
AcDbEntity
  8
0
 62
     0
370
     9
100
AcDbMText
 10
9.180019394707343
 20
41.46321364373448
 30
0.0
 40
0.75
 41
0.0
 71
     5
 72
     1
  1
\A1;7.137
 73
     1
 44
1.0
1001
ACAD
1000
MTEXTBEGIN
1070
    73
1070
     1
1070
    44
1040
1.0
1070
    74
1070
     0
1000
MTEXTEND
  0
POINT
  5
1A69
330
1917
100
AcDbEntity
  8
DEFPOINTS
 62
     0
100
AcDbPoint
 10
16.91936191625986
 20
41.4436364430568
 30
0.0
  0
POINT
  5
1A6A
330
1917
100
AcDbEntity
  8
DEFPOINTS
 62
     0
100
AcDbPoint
 10
10.93001939470734
 20
41.46321364373448
 30
0.0
  0
POINT
  5
1A6B
330
1917
100
AcDbEntity
  8
DEFPOINTS
 62
     0
100
AcDbPoint
 10
13.88982583379247
 20
34.30668158313937
 30
0.0
  0
ENDBLK
  5
1920
330
1917
100
AcDbEntity
  8
0
100
AcDbBlockEnd
  0
BLOCK
  5
1929
330
1921
100
AcDbEntity
  8
0
100
AcDbBlockBegin
  2
*D7
 70
     1
 10
0.0
 20
0.0
 30
0.0
  3
*D7
  1

  0
LINE
  5
1A6C
330
1921
100
AcDbEntity
  8
0
 62
     0
370
    -2
100
AcDbLine
 10
21.15236191625998
 20
39.15963644305693
 30
0.0
 11
13.93001939470734
 21
39.15963644305693
 31
0.0
  0
LINE
  5
1A6D
330
1921
100
AcDbEntity
  8
0
 62
     0
370
    -2
100
AcDbLine
 10
13.93001939470734
 20
39.15963644305693
 30
0.0
 11
12.43001939470734
 21
39.15495628095672
 31
0.0
  0
LINE
  5
1A6E
330
1921
100
AcDbEntity
  8
0
 62
     0
370
    -2
100
AcDbLine
 10
12.43001939470734
 20
39.15495628095672
 30
0.0
 11
10.93001939470734
 21
39.15495628095672
 31
0.0
  0
MTEXT
  5
1A6F
330
1921
100
AcDbEntity
  8
0
 62
     0
370
     9
100
AcDbMText
 10
9.055019394707343
 20
39.15495628095672
 30
0.0
 40
0.75
 41
0.0
 71
     5
 72
     1
  1
\A1;4.853
 73
     1
 44
1.0
1001
ACAD
1000
MTEXTBEGIN
1070
    73
1070
     1
1070
    44
1040
1.0
1070
    74
1070
     0
1000
MTEXTEND
  0
POINT
  5
1A70
330
1921
100
AcDbEntity
  8
DEFPOINTS
 62
     0
100
AcDbPoint
 10
21.52736191625998
 20
39.15963644305693
 30
0.0
  0
POINT
  5
1A71
330
1921
100
AcDbEntity
  8
DEFPOINTS
 62
     0
100
AcDbPoint
 10
10.93001939470734
 20
39.15495628095672
 30
0.0
  0
POINT
  5
1A72
330
1921
100
AcDbEntity
  8
DEFPOINTS
 62
     0
100
AcDbPoint
 10
13.88982583379247
 20
34.30668158313937
 30
0.0
  0
ENDBLK
  5
192A
330
1921
100
AcDbEntity
  8
0
100
AcDbBlockEnd
  0
BLOCK
  5
1931
330
192B
100
AcDbEntity
  8
0
100
AcDbBlockBegin
  2
*D8
 70
     1
 10
0.0
 20
0.0
 30
0.0
  3
*D8
  1

  0
LINE
  5
1A73
330
192B
100
AcDbEntity
  8
0
 62
     0
370
    -2
100
AcDbLine
 10
16.21736191626006
 20
35.93163644305678
 30
0.0
 11
16.21736191626006
 21
31.29560484727767
 31
0.0
  0
MTEXT
  5
1A74
330
192B
100
AcDbEntity
  8
0
 62
     0
370
     9
100
AcDbMText
 10
16.21736191626006
 20
29.42060484727767
 30
0.0
 40
0.75
 41
0.0
 71
     5
 72
     1
  1
\A1;2.328
 11
0.0000000000000001
 21
1.0
 31
0.0
 73
     1
 44
1.0
1001
ACAD
1000
MTEXTBEGIN
1070
    73
1070
     1
1070
    44
1040
1.0
1070
    74
1070
     0
1000
MTEXTEND
  0
POINT
  5
1A75
330
192B
100
AcDbEntity
  8
DEFPOINTS
 62
     0
100
AcDbPoint
 10
16.21736191626006
 20
36.30663644305677
 30
0.0
  0
POINT
  5
1A76
330
192B
100
AcDbEntity
  8
DEFPOINTS
 62
     0
100
AcDbPoint
 10
16.21736191626006
 20
31.29560484727767
 30
0.0
  0
POINT
  5
1A77
330
192B
100
AcDbEntity
  8
DEFPOINTS
 62
     0
100
AcDbPoint
 10
13.88982583379247
 20
34.30668158313937
 30
0.0
  0
ENDBLK
  5
1932
330
192B
100
AcDbEntity
  8
0
100
AcDbBlockEnd
  0
BLOCK
  5
193B
330
1933
100
AcDbEntity
  8
0
100
AcDbBlockBegin
  2
*D9
 70
     1
 10
0.0
 20
0.0
 30
0.0
  3
*D9
  1

  0
LINE
  5
1A78
330
1933
100
AcDbEntity
  8
0
 62
     0
370
    -2
100
AcDbLine
 10
21.52736191626006
 20
37.28463644305693
 30
0.0
 11
21.52736191626006
 21
34.29560484727768
 31
0.0
  0
LINE
  5
1A79
330
1933
100
AcDbEntity
  8
0
 62
     0
370
    -2
100
AcDbLine
 10
21.52736191626006
 20
34.29560484727768
 30
0.0
 11
20.86760979179776
 21
32.79560484727767
 31
0.0
  0
LINE
  5
1A7A
330
1933
100
AcDbEntity
  8
0
 62
     0
370
    -2
100
AcDbLine
 10
20.86760979179776
 20
32.79560484727767
 30
0.0
 11
20.86760979179776
 21
31.29560484727767
 31
0.0
  0
MTEXT
  5
1A7B
330
1933
100
AcDbEntity
  8
0
 62
     0
370
     9
100
AcDbMText
 10
20.86760979179776
 20
29.42060484727767
 30
0.0
 40
0.75
 41
0.0
 71
     5
 72
     1
  1
\A1;7.638
 11
0.0000000000000001
 21
1.0
 31
0.0
 73
     1
 44
1.0
1001
ACAD
1000
MTEXTBEGIN
1070
    73
1070
     1
1070
    44
1040
1.0
1070
    74
1070
     0
1000
MTEXTEND
  0
POINT
  5
1A7C
330
1933
100
AcDbEntity
  8
DEFPOINTS
 62
     0
100
AcDbPoint
 10
21.52736191626006
 20
37.65963644305693
 30
0.0
  0
POINT
  5
1A7D
330
1933
100
AcDbEntity
  8
DEFPOINTS
 62
     0
100
AcDbPoint
 10
20.86760979179776
 20
31.29560484727767
 30
0.0
  0
POINT
  5
1A7E
330
1933
100
AcDbEntity
  8
DEFPOINTS
 62
     0
100
AcDbPoint
 10
13.88982583379247
 20
34.30668158313937
 30
0.0
  0
ENDBLK
  5
193C
330
1933
100
AcDbEntity
  8
0
100
AcDbBlockEnd
  0
BLOCK
  5
1943
330
193D
100
AcDbEntity
  8
0
100
AcDbBlockBegin
  2
*D10
 70
     1
 10
0.0
 20
0.0
 30
0.0
  3
*D10
  1

  0
LINE
  5
1A7F
330
193D
100
AcDbEntity
  8
0
 62
     0
370
    -2
100
AcDbLine
 10
25.96736191626006
 20
35.93163644305678
 30
0.0
 11
25.96736191626006
 21
31.23379095605628
 31
0.0
  0
MTEXT
  5
1A80
330
193D
100
AcDbEntity
  8
0
 62
     0
370
     9
100
AcDbMText
 10
25.96736191626006
 20
29.17129095605628
 30
0.0
 40
0.75
 41
0.0
 71
     5
 72
     1
  1
\A1;12.078
 11
0.0000000000000001
 21
1.0
 31
0.0
 73
     1
 44
1.0
1001
ACAD
1000
MTEXTBEGIN
1070
    73
1070
     1
1070
    44
1040
1.0
1070
    74
1070
     0
1000
MTEXTEND
  0
POINT
  5
1A81
330
193D
100
AcDbEntity
  8
DEFPOINTS
 62
     0
100
AcDbPoint
 10
25.96736191626006
 20
36.30663644305677
 30
0.0
  0
POINT
  5
1A82
330
193D
100
AcDbEntity
  8
DEFPOINTS
 62
     0
100
AcDbPoint
 10
25.96736191626006
 20
31.23379095605628
 30
0.0
  0
POINT
  5
1A83
330
193D
100
AcDbEntity
  8
DEFPOINTS
 62
     0
100
AcDbPoint
 10
13.88982583379247
 20
34.30668158313937
 30
0.0
  0
ENDBLK
  5
1944
330
193D
100
AcDbEntity
  8
0
100
AcDbBlockEnd
  0
BLOCK
  5
194B
330
1945
100
AcDbEntity
  8
0
100
AcDbBlockBegin
  2
*D11
 70
     1
 10
0.0
 20
0.0
 30
0.0
  3
*D11
  1

  0
LINE
  5
1A84
330
1945
100
AcDbEntity
  8
0
 62
     0
370
    -2
100
AcDbLine
 10
22.78036191625998
 20
41.68163644305688
 30
0.0
 11
22.78036191625998
 21
31.35704725172147
 31
0.0
  0
MTEXT
  5
1A85
330
1945
100
AcDbEntity
  8
0
 62
     0
370
     9
100
AcDbMText
 10
22.78036191625997
 20
29.60704725172147
 30
0.0
 40
0.75
 41
0.0
 71
     5
 72
     1
  1
\A1;8.891
 11
0.0000000000000001
 21
1.0
 31
0.0
 73
     1
 44
1.0
1001
ACAD
1000
MTEXTBEGIN
1070
    73
1070
     1
1070
    44
1040
1.0
1070
    74
1070
     0
1000
MTEXTEND
  0
POINT
  5
1A86
330
1945
100
AcDbEntity
  8
DEFPOINTS
 62
     0
100
AcDbPoint
 10
22.78036191625998
 20
42.05663644305688
 30
0.0
  0
POINT
  5
1A87
330
1945
100
AcDbEntity
  8
DEFPOINTS
 62
     0
100
AcDbPoint
 10
22.78036191625998
 20
31.35704725172147
 30
0.0
  0
POINT
  5
1A88
330
1945
100
AcDbEntity
  8
DEFPOINTS
 62
     0
100
AcDbPoint
 10
13.88982583379247
 20
34.30668158313937
 30
0.0
  0
ENDBLK
  5
194C
330
1945
100
AcDbEntity
  8
0
100
AcDbBlockEnd
  0
BLOCK
  5
1953
330
194D
100
AcDbEntity
  8
0
100
AcDbBlockBegin
  2
*D12
 70
     1
 10
0.0
 20
0.0
 30
0.0
  3
*D12
  1

  0
LINE
  5
1A89
330
194D
100
AcDbEntity
  8
0
 62
     0
370
    -2
100
AcDbLine
 10
27.53036191625998
 20
41.68163644305688
 30
0.0
 11
27.53036191625998
 21
31.35704725172147
 31
0.0
  0
MTEXT
  5
1A8A
330
194D
100
AcDbEntity
  8
0
 62
     0
370
     9
100
AcDbMText
 10
27.53036191625997
 20
29.35704725172147
 30
0.0
 40
0.75
 41
0.0
 71
     5
 72
     1
  1
\A1;13.641
 11
0.0000000000000001
 21
1.0
 31
0.0
 73
     1
 44
1.0
1001
ACAD
1000
MTEXTBEGIN
1070
    73
1070
     1
1070
    44
1040
1.0
1070
    74
1070
     0
1000
MTEXTEND
  0
POINT
  5
1A8B
330
194D
100
AcDbEntity
  8
DEFPOINTS
 62
     0
100
AcDbPoint
 10
27.53036191625998
 20
42.05663644305688
 30
0.0
  0
POINT
  5
1A8C
330
194D
100
AcDbEntity
  8
DEFPOINTS
 62
     0
100
AcDbPoint
 10
27.53036191625998
 20
31.35704725172147
 30
0.0
  0
POINT
  5
1A8D
330
194D
100
AcDbEntity
  8
DEFPOINTS
 62
     0
100
AcDbPoint
 10
13.88982583379247
 20
34.30668158313937
 30
0.0
  0
ENDBLK
  5
1954
330
194D
100
AcDbEntity
  8
0
100
AcDbBlockEnd
  0
BLOCK
  5
195D
330
1955
100
AcDbEntity
  8
0
100
AcDbBlockBegin
  2
*D13
 70
     1
 10
0.0
 20
0.0
 30
0.0
  3
*D13
  1

  0
LINE
  5
1A8E
330
1955
100
AcDbEntity
  8
0
 62
     0
370
    -2
100
AcDbLine
 10
27.90536191625998
 20
42.05663644305688
 30
0.0
 11
29.03036191625998
 21
42.05663644305688
 31
0.0
  0
LINE
  5
1A8F
330
1955
100
AcDbEntity
  8
0
 62
     0
370
    -2
100
AcDbLine
 10
29.03036191625998
 20
42.05663644305688
 30
0.0
 11
29.81096981792447
 21
43.41525368663645
 31
0.0
  0
LINE
  5
1A90
330
1955
100
AcDbEntity
  8
0
 62
     0
370
    -2
100
AcDbLine
 10
29.81096981792447
 20
43.41525368663645
 30
0.0
 11
31.31096981792448
 21
43.41525368663645
 31
0.0
  0
MTEXT
  5
1A91
330
1955
100
AcDbEntity
  8
0
 62
     0
370
     9
100
AcDbMText
 10
33.12346981792448
 20
43.41525368663645
 30
0.0
 40
0.75
 41
0.0
 71
     5
 72
     1
  1
\A1;7.750
 73
     1
 44
1.0
1001
ACAD
1000
MTEXTBEGIN
1070
    73
1070
     1
1070
    44
1040
1.0
1070
    74
1070
     0
1000
MTEXTEND
  0
POINT
  5
1A92
330
1955
100
AcDbEntity
  8
DEFPOINTS
 62
     0
100
AcDbPoint
 10
27.53036191625998
 20
42.05663644305688
 30
0.0
  0
POINT
  5
1A93
330
1955
100
AcDbEntity
  8
DEFPOINTS
 62
     0
100
AcDbPoint
 10
31.31096981792448
 20
43.41525368663645
 30
0.0
  0
POINT
  5
1A94
330
1955
100
AcDbEntity
  8
DEFPOINTS
 62
     0
100
AcDbPoint
 10
13.88982583379247
 20
34.30668158313937
 30
0.0
  0
ENDBLK
  5
195E
330
1955
100
AcDbEntity
  8
0
100
AcDbBlockEnd
  0
BLOCK
  5
1967
330
195F
100
AcDbEntity
  8
0
100
AcDbBlockBegin
  2
*D14
 70
     1
 10
0.0
 20
0.0
 30
0.0
  3
*D14
  1

  0
LINE
  5
1A95
330
195F
100
AcDbEntity
  8
0
 62
     0
370
    -2
100
AcDbLine
 10
27.90536191626016
 20
47.11893644305674
 30
0.0
 11
29.03036191626016
 21
47.11893644305674
 31
0.0
  0
LINE
  5
1A96
330
195F
100
AcDbEntity
  8
0
 62
     0
370
    -2
100
AcDbLine
 10
29.03036191626016
 20
47.11893644305674
 30
0.0
 11
29.79752676786197
 21
47.11590877130181
 31
0.0
  0
LINE
  5
1A97
330
195F
100
AcDbEntity
  8
0
 62
     0
370
    -2
100
AcDbLine
 10
29.79752676786197
 20
47.11590877130181
 30
0.0
 11
31.29752676786197
 21
47.11590877130181
 31
0.0
  0
MTEXT
  5
1A98
330
195F
100
AcDbEntity
  8
0
 62
     0
370
     9
100
AcDbMText
 10
33.29752676786197
 20
47.11590877130181
 30
0.0
 40
0.75
 41
0.0
 71
     5
 72
     1
  1
\A1;12.812
 73
     1
 44
1.0
1001
ACAD
1000
MTEXTBEGIN
1070
    73
1070
     1
1070
    44
1040
1.0
1070
    74
1070
     0
1000
MTEXTEND
  0
POINT
  5
1A99
330
195F
100
AcDbEntity
  8
DEFPOINTS
 62
     0
100
AcDbPoint
 10
27.53036191626016
 20
47.11893644305674
 30
0.0
  0
POINT
  5
1A9A
330
195F
100
AcDbEntity
  8
DEFPOINTS
 62
     0
100
AcDbPoint
 10
31.29752676786197
 20
47.11590877130181
 30
0.0
  0
POINT
  5
1A9B
330
195F
100
AcDbEntity
  8
DEFPOINTS
 62
     0
100
AcDbPoint
 10
13.88982583379247
 20
34.30668158313937
 30
0.0
  0
ENDBLK
  5
1968
330
195F
100
AcDbEntity
  8
0
100
AcDbBlockEnd
  0
BLOCK
  5
197C
330
1976
100
AcDbEntity
  8
0
100
AcDbBlockBegin
  2
*D15
 70
     1
 10
0.0
 20
0.0
 30
0.0
  3
*D15
  1

  0
LINE
  5
1AA6
330
1976
100
AcDbEntity
  8
0
 62
     0
370
    -2
100
AcDbLine
 10
14.71736191625997
 20
46.36863644305676
 30
0.0
 11
14.71736191625997
 21
49.40148996277457
 31
0.0
  0
MTEXT
  5
1AA7
330
1976
100
AcDbEntity
  8
0
 62
     0
370
     9
100
AcDbMText
 10
14.71736191625996
 20
51.21398996277457
 30
0.0
 40
0.75
 41
0.0
 71
     5
 72
     1
  1
\A1;0.827
 11
0.0000000000000001
 21
1.0
 31
0.0
 73
     1
 44
1.0
1001
ACAD
1000
MTEXTBEGIN
1070
    73
1070
     1
1070
    44
1040
1.0
1070
    74
1070
     0
1000
MTEXTEND
  0
POINT
  5
1AA8
330
1976
100
AcDbEntity
  8
DEFPOINTS
 62
     0
100
AcDbPoint
 10
14.71736191625997
 20
45.99363644305674
 30
0.0
  0
POINT
  5
1AA9
330
1976
100
AcDbEntity
  8
DEFPOINTS
 62
     0
100
AcDbPoint
 10
14.71736191625997
 20
49.40148996277457
 30
0.0
  0
POINT
  5
1AAA
330
1976
100
AcDbEntity
  8
DEFPOINTS
 62
     0
100
AcDbPoint
 10
13.88986191626006
 20
34.30663644305667
 30
0.0
  0
ENDBLK
  5
197D
330
1976
100
AcDbEntity
  8
0
100
AcDbBlockEnd
  0
BLOCK
  5
1984
330
197E
100
AcDbEntity
  8
0
100
AcDbBlockBegin
  2
*D16
 70
     1
 10
0.0
 20
0.0
 30
0.0
  3
*D16
  1

  0
LINE
  5
1AAB
330
197E
100
AcDbEntity
  8
0
 62
     0
370
    -2
100
AcDbLine
 10
28.29486191625998
 20
47.94663644305679
 30
0.0
 11
28.29486191625998
 21
49.55978309249488
 31
0.0
  0
MTEXT
  5
1AAC
330
197E
100
AcDbEntity
  8
0
 62
     0
370
     9
100
AcDbMText
 10
28.29486191625997
 20
51.62228309249488
 30
0.0
 40
0.75
 41
0.0
 71
     5
 72
     1
  1
\A1;14.405
 11
0.0000000000000001
 21
1.0
 31
0.0
 73
     1
 44
1.0
1001
ACAD
1000
MTEXTBEGIN
1070
    73
1070
     1
1070
    44
1040
1.0
1070
    74
1070
     0
1000
MTEXTEND
  0
POINT
  5
1AAD
330
197E
100
AcDbEntity
  8
DEFPOINTS
 62
     0
100
AcDbPoint
 10
28.29486191625998
 20
47.5716364430568
 30
0.0
  0
POINT
  5
1AAE
330
197E
100
AcDbEntity
  8
DEFPOINTS
 62
     0
100
AcDbPoint
 10
28.29486191625998
 20
49.55978309249488
 30
0.0
  0
POINT
  5
1AAF
330
197E
100
AcDbEntity
  8
DEFPOINTS
 62
     0
100
AcDbPoint
 10
13.88982583379257
 20
34.30663644305657
 30
0.0
  0
ENDBLK
  5
1985
330
197E
100
AcDbEntity
  8
0
100
AcDbBlockEnd
  0
BLOCK
  5
198E
330
1986
100
AcDbEntity
  8
0
100
AcDbBlockBegin
  2
*D17
 70
     1
 10
0.0
 20
0.0
 30
0.0
  3
*D17
  1

  0
LINE
  5
1AB0
330
1986
100
AcDbEntity
  8
0
 62
     0
370
    -2
100
AcDbLine
 10
27.46736191626006
 20
46.36863644305676
 30
0.0
 11
27.46736191626006
 21
47.49363644305677
 31
0.0
  0
LINE
  5
1AB1
330
1986
100
AcDbEntity
  8
0
 62
     0
370
    -2
100
AcDbLine
 10
27.46736191626006
 20
47.49363644305677
 30
0.0
 11
25.89804613798786
 21
48.05978309249486
 31
0.0
  0
LINE
  5
1AB2
330
1986
100
AcDbEntity
  8
0
 62
     0
370
    -2
100
AcDbLine
 10
25.89804613798786
 20
48.05978309249486
 30
0.0
 11
25.89804613798786
 21
49.55978309249488
 31
0.0
  0
MTEXT
  5
1AB3
330
1986
100
AcDbEntity
  8
0
 62
     0
370
     9
100
AcDbMText
 10
25.89804613798786
 20
51.68478309249486
 30
0.0
 40
0.75
 41
0.0
 71
     5
 72
     1
  1
\A1;13.578
 11
0.0000000000000001
 21
1.0
 31
0.0
 73
     1
 44
1.0
1001
ACAD
1000
MTEXTBEGIN
1070
    73
1070
     1
1070
    44
1040
1.0
1070
    74
1070
     0
1000
MTEXTEND
  0
POINT
  5
1AB4
330
1986
100
AcDbEntity
  8
DEFPOINTS
 62
     0
100
AcDbPoint
 10
27.46736191626006
 20
45.99363644305674
 30
0.0
  0
POINT
  5
1AB5
330
1986
100
AcDbEntity
  8
DEFPOINTS
 62
     0
100
AcDbPoint
 10
25.89804613798786
 20
49.55978309249488
 30
0.0
  0
POINT
  5
1AB6
330
1986
100
AcDbEntity
  8
DEFPOINTS
 62
     0
100
AcDbPoint
 10
13.88982583379257
 20
34.30663644305657
 30
0.0
  0
ENDBLK
  5
198F
330
1986
100
AcDbEntity
  8
0
100
AcDbBlockEnd
  0
BLOCK
  5
1998
330
1990
100
AcDbEntity
  8
0
100
AcDbBlockBegin
  2
*D18
 70
     1
 10
0.0
 20
0.0
 30
0.0
  3
*D18
  1

  0
LINE
  5
1AB7
330
1990
100
AcDbEntity
  8
0
 62
     0
370
    -2
100
AcDbLine
 10
27.84236191626006
 20
45.99363644305674
 30
0.0
 11
28.96736191626006
 21
45.99363644305674
 31
0.0
  0
LINE
  5
1AB8
330
1990
100
AcDbEntity
  8
0
 62
     0
370
    -2
100
AcDbLine
 10
28.96736191626006
 20
45.99363644305674
 30
0.0
 11
29.73936704143985
 21
45.2349812553439
 31
0.0
  0
LINE
  5
1AB9
330
1990
100
AcDbEntity
  8
0
 62
     0
370
    -2
100
AcDbLine
 10
29.73936704143985
 20
45.2349812553439
 30
0.0
 11
31.23936704143985
 21
45.2349812553439
 31
0.0
  0
MTEXT
  5
1ABA
330
1990
100
AcDbEntity
  8
0
 62
     0
370
     9
100
AcDbMText
 10
33.23936704143986
 20
45.2349812553439
 30
0.0
 40
0.75
 41
0.0
 71
     5
 72
     1
  1
\A1;11.687
 73
     1
 44
1.0
1001
ACAD
1000
MTEXTBEGIN
1070
    73
1070
     1
1070
    44
1040
1.0
1070
    74
1070
     0
1000
MTEXTEND
  0
POINT
  5
1ABB
330
1990
100
AcDbEntity
  8
DEFPOINTS
 62
     0
100
AcDbPoint
 10
27.46736191626006
 20
45.99363644305674
 30
0.0
  0
POINT
  5
1ABC
330
1990
100
AcDbEntity
  8
DEFPOINTS
 62
     0
100
AcDbPoint
 10
31.23936704143985
 20
45.2349812553439
 30
0.0
  0
POINT
  5
1ABD
330
1990
100
AcDbEntity
  8
DEFPOINTS
 62
     0
100
AcDbPoint
 10
13.88982583379257
 20
34.30663644305657
 30
0.0
  0
ENDBLK
  5
1999
330
1990
100
AcDbEntity
  8
0
100
AcDbBlockEnd
  0
BLOCK
  5
19A2
330
199A
100
AcDbEntity
  8
0
100
AcDbBlockBegin
  2
*D19
 70
     1
 10
0.0
 20
0.0
 30
0.0
  3
*D19
  1

  0
LINE
  5
1ABE
330
199A
100
AcDbEntity
  8
0
 62
     0
370
    -2
100
AcDbLine
 10
28.66986191625997
 20
47.5716364430568
 30
0.0
 11
29.31096981792457
 21
47.5716364430568
 31
0.0
  0
LINE
  5
1ABF
330
199A
100
AcDbEntity
  8
0
 62
     0
370
    -2
100
AcDbLine
 10
29.31096981792457
 20
47.5716364430568
 30
0.0
 11
30.31096981792457
 21
48.72366074283085
 31
0.0
  0
LINE
  5
1AC0
330
199A
100
AcDbEntity
  8
0
 62
     0
370
    -2
100
AcDbLine
 10
30.31096981792457
 20
48.72366074283085
 30
0.0
 11
31.31096981792457
 21
48.72366074283085
 31
0.0
  0
MTEXT
  5
1AC1
330
199A
100
AcDbEntity
  8
0
 62
     0
370
     9
100
AcDbMText
 10
33.43596981792457
 20
48.72366074283085
 30
0.0
 40
0.75
 41
0.0
 71
     5
 72
     1
  1
\A1;13.265
 73
     1
 44
1.0
1001
ACAD
1000
MTEXTBEGIN
1070
    73
1070
     1
1070
    44
1040
1.0
1070
    74
1070
     0
1000
MTEXTEND
  0
POINT
  5
1AC2
330
199A
100
AcDbEntity
  8
DEFPOINTS
 62
     0
100
AcDbPoint
 10
28.29486191625998
 20
47.5716364430568
 30
0.0
  0
POINT
  5
1AC3
330
199A
100
AcDbEntity
  8
DEFPOINTS
 62
     0
100
AcDbPoint
 10
31.31096981792457
 20
48.72366074283085
 30
0.0
  0
POINT
  5
1AC4
330
199A
100
AcDbEntity
  8
DEFPOINTS
 62
     0
100
AcDbPoint
 10
13.88982583379257
 20
34.30663644305657
 30
0.0
  0
ENDBLK
  5
19A3
330
199A
100
AcDbEntity
  8
0
100
AcDbBlockEnd
  0
BLOCK
  5
19AC
330
19A4
100
AcDbEntity
  8
0
100
AcDbBlockBegin
  2
*D20
 70
     1
 10
0.0
 20
0.0
 30
0.0
  3
*D20
  1

  0
LINE
  5
1AC5
330
19A4
100
AcDbEntity
  8
0
 62
     0
370
    -2
100
AcDbLine
 10
21.15236191626006
 20
37.65963644305693
 30
0.0
 11
13.93001939470737
 21
37.65963644305693
 31
0.0
  0
LINE
  5
1AC6
330
19A4
100
AcDbEntity
  8
0
 62
     0
370
    -2
100
AcDbLine
 10
13.93001939470737
 20
37.65963644305693
 30
0.0
 11
12.43001939470737
 21
37.65495628095672
 31
0.0
  0
LINE
  5
1AC7
330
19A4
100
AcDbEntity
  8
0
 62
     0
370
    -2
100
AcDbLine
 10
12.43001939470737
 20
37.65495628095672
 30
0.0
 11
10.93001939470737
 21
37.65495628095672
 31
0.0
  0
MTEXT
  5
1AC8
330
19A4
100
AcDbEntity
  8
0
 62
     0
370
     9
100
AcDbMText
 10
9.055019394707374
 20
37.65495628095672
 30
0.0
 40
0.75
 41
0.0
 71
     5
 72
     1
  1
\A1;3.353
 73
     1
 44
1.0
1001
ACAD
1000
MTEXTBEGIN
1070
    73
1070
     1
1070
    44
1040
1.0
1070
    74
1070
     0
1000
MTEXTEND
  0
POINT
  5
1AC9
330
19A4
100
AcDbEntity
  8
DEFPOINTS
 62
     0
100
AcDbPoint
 10
21.52736191626006
 20
37.65963644305693
 30
0.0
  0
POINT
  5
1ACA
330
19A4
100
AcDbEntity
  8
DEFPOINTS
 62
     0
100
AcDbPoint
 10
10.93001939470737
 20
37.65495628095672
 30
0.0
  0
POINT
  5
1ACB
330
19A4
100
AcDbEntity
  8
DEFPOINTS
 62
     0
100
AcDbPoint
 10
13.88982583379257
 20
34.30663644305657
 30
0.0
  0
ENDBLK
  5
19AD
330
19A4
100
AcDbEntity
  8
0
100
AcDbBlockEnd
  0
BLOCK
  5
19B4
330
19AE
100
AcDbEntity
  8
0
100
AcDbBlockBegin
  2
*D21
 70
     1
 10
0.0
 20
0.0
 30
0.0
  3
*D21
  1

  0
LINE
  5
1ACC
330
19AE
100
AcDbEntity
  8
0
 62
     0
370
    -2
100
AcDbLine
 10
21.60686191625997
 20
47.49393644305665
 30
0.0
 11
21.60686191625997
 21
49.55978309249488
 31
0.0
  0
MTEXT
  5
1ACD
330
19AE
100
AcDbEntity
  8
0
 62
     0
370
     9
100
AcDbMText
 10
21.60686191625996
 20
51.30978309249488
 30
0.0
 40
0.75
 41
0.0
 71
     5
 72
     1
  1
\A1;7.717
 11
0.0000000000000001
 21
1.0
 31
0.0
 73
     1
 44
1.0
1001
ACAD
1000
MTEXTBEGIN
1070
    73
1070
     1
1070
    44
1040
1.0
1070
    74
1070
     0
1000
MTEXTEND
  0
POINT
  5
1ACE
330
19AE
100
AcDbEntity
  8
DEFPOINTS
 62
     0
100
AcDbPoint
 10
21.60686191625997
 20
47.11893644305663
 30
0.0
  0
POINT
  5
1ACF
330
19AE
100
AcDbEntity
  8
DEFPOINTS
 62
     0
100
AcDbPoint
 10
21.60686191625997
 20
49.55978309249488
 30
0.0
  0
POINT
  5
1AD0
330
19AE
100
AcDbEntity
  8
DEFPOINTS
 62
     0
100
AcDbPoint
 10
13.88986191626006
 20
34.30663644305667
 30
0.0
  0
ENDBLK
  5
19B5
330
19AE
100
AcDbEntity
  8
0
100
AcDbBlockEnd
  0
BLOCK
  5
19BC
330
19B6
100
AcDbEntity
  8
0
100
AcDbBlockBegin
  2
*D22
 70
     1
 10
0.0
 20
0.0
 30
0.0
  3
*D22
  1

  0
LINE
  5
1AD1
330
19B6
100
AcDbEntity
  8
0
 62
     0
370
    -2
100
AcDbLine
 10
16.91936191625997
 20
47.49393644305683
 30
0.0
 11
16.91936191625997
 21
49.40148996277457
 31
0.0
  0
MTEXT
  5
1AD2
330
19B6
100
AcDbEntity
  8
0
 62
     0
370
     9
100
AcDbMText
 10
16.91936191625996
 20
51.21398996277457
 30
0.0
 40
0.75
 41
0.0
 71
     5
 72
     1
  1
\A1;3.029
 11
0.0000000000000001
 21
1.0
 31
0.0
 73
     1
 44
1.0
1001
ACAD
1000
MTEXTBEGIN
1070
    73
1070
     1
1070
    44
1040
1.0
1070
    74
1070
     0
1000
MTEXTEND
  0
POINT
  5
1AD3
330
19B6
100
AcDbEntity
  8
DEFPOINTS
 62
     0
100
AcDbPoint
 10
16.91936191625997
 20
47.11893644305685
 30
0.0
  0
POINT
  5
1AD4
330
19B6
100
AcDbEntity
  8
DEFPOINTS
 62
     0
100
AcDbPoint
 10
16.91936191625997
 20
49.40148996277457
 30
0.0
  0
POINT
  5
1AD5
330
19B6
100
AcDbEntity
  8
DEFPOINTS
 62
     0
100
AcDbPoint
 10
13.88986191626006
 20
34.30663644305667
 30
0.0
  0
ENDBLK
  5
19BD
330
19B6
100
AcDbEntity
  8
0
100
AcDbBlockEnd
  0
BLOCK
  5
1B00
330
1AFF
100
AcDbEntity
  8
0
100
AcDbBlockBegin
  2
*D23
 70
     1
 10
0.0
 20
0.0
 30
0.0
  3
*D23
  1

  0
LINE
  5
1B01
330
1AFF
100
AcDbEntity
  8
0
 62
     0
370
    -2
100
AcDbLine
 10
103.1854749785819
 20
-88.46543699108151
 30
0.0
 11
103.1854749785819
 21
-86.55788347136379
 31
0.0
  0
MTEXT
  5
1B02
330
1AFF
100
AcDbEntity
  8
0
 62
     0
370
     9
100
AcDbMText
 10
103.185474978582
 20
-84.74538347136377
 30
0.0
 40
0.75
 41
0.0
 71
     5
 72
     1
  1
\A1;3.029
 11
0.0000000000000001
 21
1.0
 31
0.0
 73
     1
 44
1.0
1001
ACAD
1000
MTEXTBEGIN
1070
    73
1070
     1
1070
    44
1040
1.0
1070
    74
1070
     0
1000
MTEXTEND
  0
POINT
  5
1B03
330
1AFF
100
AcDbEntity
  8
DEFPOINTS
 62
     0
100
AcDbPoint
 10
103.1854749785819
 20
-88.84043699108152
 30
0.0
  0
POINT
  5
1B04
330
1AFF
100
AcDbEntity
  8
DEFPOINTS
 62
     0
100
AcDbPoint
 10
103.1854749785819
 20
-86.55788347136379
 30
0.0
  0
POINT
  5
1B05
330
1AFF
100
AcDbEntity
  8
DEFPOINTS
 62
     0
100
AcDbPoint
 10
100.155974978582
 20
-101.6527369910817
 30
0.0
  0
ENDBLK
  5
1B06
330
1AFF
100
AcDbEntity
  8
0
100
AcDbBlockEnd
  0
BLOCK
  5
1B08
330
1B07
100
AcDbEntity
  8
0
100
AcDbBlockBegin
  2
*D24
 70
     1
 10
0.0
 20
0.0
 30
0.0
  3
*D24
  1

  0
LINE
  5
1B09
330
1B07
100
AcDbEntity
  8
0
 62
     0
370
    -2
100
AcDbLine
 10
107.8729749785819
 20
-88.46543699108172
 30
0.0
 11
107.8729749785819
 21
-86.39959034164348
 31
0.0
  0
MTEXT
  5
1B0A
330
1B07
100
AcDbEntity
  8
0
 62
     0
370
     9
100
AcDbMText
 10
107.8729749785819
 20
-84.64959034164346
 30
0.0
 40
0.75
 41
0.0
 71
     5
 72
     1
  1
\A1;7.717
 11
0.0000000000000001
 21
1.0
 31
0.0
 73
     1
 44
1.0
1001
ACAD
1000
MTEXTBEGIN
1070
    73
1070
     1
1070
    44
1040
1.0
1070
    74
1070
     0
1000
MTEXTEND
  0
POINT
  5
1B0B
330
1B07
100
AcDbEntity
  8
DEFPOINTS
 62
     0
100
AcDbPoint
 10
107.8729749785819
 20
-88.84043699108172
 30
0.0
  0
POINT
  5
1B0C
330
1B07
100
AcDbEntity
  8
DEFPOINTS
 62
     0
100
AcDbPoint
 10
107.8729749785819
 20
-86.39959034164348
 30
0.0
  0
POINT
  5
1B0D
330
1B07
100
AcDbEntity
  8
DEFPOINTS
 62
     0
100
AcDbPoint
 10
100.155974978582
 20
-101.6527369910817
 30
0.0
  0
ENDBLK
  5
1B0E
330
1B07
100
AcDbEntity
  8
0
100
AcDbBlockEnd
  0
BLOCK
  5
1B10
330
1B0F
100
AcDbEntity
  8
0
100
AcDbBlockBegin
  2
*D25
 70
     1
 10
0.0
 20
0.0
 30
0.0
  3
*D25
  1

  0
LINE
  5
1B11
330
1B0F
100
AcDbEntity
  8
0
 62
     0
370
    -2
100
AcDbLine
 10
107.418474978582
 20
-98.24423699108162
 30
0.0
 11
100.1961324570294
 21
-98.24423699108162
 31
0.0
  0
LINE
  5
1B12
330
1B0F
100
AcDbEntity
  8
0
 62
     0
370
    -2
100
AcDbLine
 10
100.1961324570294
 20
-98.24423699108162
 30
0.0
 11
98.69613245702941
 21
-98.25795314275403
 31
0.0
  0
LINE
  5
1B13
330
1B0F
100
AcDbEntity
  8
0
 62
     0
370
    -2
100
AcDbLine
 10
98.69613245702941
 20
-98.25795314275403
 30
0.0
 11
97.19613245702941
 21
-98.25795314275403
 31
0.0
  0
MTEXT
  5
1B14
330
1B0F
100
AcDbEntity
  8
0
 62
     0
370
     9
100
AcDbMText
 10
95.38363245702941
 20
-98.25795314275403
 30
0.0
 40
0.75
 41
0.0
 71
     5
 72
     1
  1
\A1;3.409
 73
     1
 44
1.0
1001
ACAD
1000
MTEXTBEGIN
1070
    73
1070
     1
1070
    44
1040
1.0
1070
    74
1070
     0
1000
MTEXTEND
  0
POINT
  5
1B15
330
1B0F
100
AcDbEntity
  8
DEFPOINTS
 62
     0
100
AcDbPoint
 10
107.793474978582
 20
-98.24423699108162
 30
0.0
  0
POINT
  5
1B16
330
1B0F
100
AcDbEntity
  8
DEFPOINTS
 62
     0
100
AcDbPoint
 10
97.19613245702941
 20
-98.25795314275403
 30
0.0
  0
POINT
  5
1B17
330
1B0F
100
AcDbEntity
  8
DEFPOINTS
 62
     0
100
AcDbPoint
 10
100.1559388961145
 20
-101.6527369910818
 30
0.0
  0
ENDBLK
  5
1B18
330
1B0F
100
AcDbEntity
  8
0
100
AcDbBlockEnd
  0
BLOCK
  5
1B1A
330
1B19
100
AcDbEntity
  8
0
100
AcDbBlockBegin
  2
*D26
 70
     1
 10
0.0
 20
0.0
 30
0.0
  3
*D26
  1

  0
LINE
  5
1B1B
330
1B19
100
AcDbEntity
  8
0
 62
     0
370
    -2
100
AcDbLine
 10
114.9359749785819
 20
-88.38773699108157
 30
0.0
 11
115.5609749785819
 21
-88.38773699108157
 31
0.0
  0
LINE
  5
1B1C
330
1B19
100
AcDbEntity
  8
0
 62
     0
370
    -2
100
AcDbLine
 10
115.5609749785819
 20
-88.38773699108157
 30
0.0
 11
116.5054801037618
 21
-87.23571269130751
 31
0.0
  0
LINE
  5
1B1D
330
1B19
100
AcDbEntity
  8
0
 62
     0
370
    -2
100
AcDbLine
 10
116.5054801037618
 20
-87.23571269130751
 30
0.0
 11
117.5054801037618
 21
-87.23571269130751
 31
0.0
  0
MTEXT
  5
1B1E
330
1B19
100
AcDbEntity
  8
0
 62
     0
370
     9
100
AcDbMText
 10
119.6304801037618
 20
-87.23571269130751
 30
0.0
 40
0.75
 41
0.0
 71
     5
 72
     1
  1
\A1;13.265
 73
     1
 44
1.0
1001
ACAD
1000
MTEXTBEGIN
1070
    73
1070
     1
1070
    44
1040
1.0
1070
    74
1070
     0
1000
MTEXTEND
  0
POINT
  5
1B1F
330
1B19
100
AcDbEntity
  8
DEFPOINTS
 62
     0
100
AcDbPoint
 10
114.5609749785819
 20
-88.38773699108157
 30
0.0
  0
POINT
  5
1B20
330
1B19
100
AcDbEntity
  8
DEFPOINTS
 62
     0
100
AcDbPoint
 10
117.5054801037618
 20
-87.23571269130751
 30
0.0
  0
POINT
  5
1B21
330
1B19
100
AcDbEntity
  8
DEFPOINTS
 62
     0
100
AcDbPoint
 10
100.1559388961145
 20
-101.6527369910818
 30
0.0
  0
ENDBLK
  5
1B22
330
1B19
100
AcDbEntity
  8
0
100
AcDbBlockEnd
  0
BLOCK
  5
1B24
330
1B23
100
AcDbEntity
  8
0
100
AcDbBlockBegin
  2
*D27
 70
     1
 10
0.0
 20
0.0
 30
0.0
  3
*D27
  1

  0
LINE
  5
1B25
330
1B23
100
AcDbEntity
  8
0
 62
     0
370
    -2
100
AcDbLine
 10
114.108474978582
 20
-89.96573699108159
 30
0.0
 11
115.233474978582
 21
-89.96573699108159
 31
0.0
  0
LINE
  5
1B26
330
1B23
100
AcDbEntity
  8
0
 62
     0
370
    -2
100
AcDbLine
 10
115.233474978582
 20
-89.96573699108159
 30
0.0
 11
116.0054801037618
 21
-90.72439217879445
 31
0.0
  0
LINE
  5
1B27
330
1B23
100
AcDbEntity
  8
0
 62
     0
370
    -2
100
AcDbLine
 10
116.0054801037618
 20
-90.72439217879445
 30
0.0
 11
117.5054801037618
 21
-90.72439217879445
 31
0.0
  0
MTEXT
  5
1B28
330
1B23
100
AcDbEntity
  8
0
 62
     0
370
     9
100
AcDbMText
 10
119.5054801037618
 20
-90.72439217879445
 30
0.0
 40
0.75
 41
0.0
 71
     5
 72
     1
  1
\A1;11.687
 73
     1
 44
1.0
1001
ACAD
1000
MTEXTBEGIN
1070
    73
1070
     1
1070
    44
1040
1.0
1070
    74
1070
     0
1000
MTEXTEND
  0
POINT
  5
1B29
330
1B23
100
AcDbEntity
  8
DEFPOINTS
 62
     0
100
AcDbPoint
 10
113.733474978582
 20
-89.96573699108159
 30
0.0
  0
POINT
  5
1B2A
330
1B23
100
AcDbEntity
  8
DEFPOINTS
 62
     0
100
AcDbPoint
 10
117.5054801037618
 20
-90.72439217879445
 30
0.0
  0
POINT
  5
1B2B
330
1B23
100
AcDbEntity
  8
DEFPOINTS
 62
     0
100
AcDbPoint
 10
100.1559388961145
 20
-101.6527369910818
 30
0.0
  0
ENDBLK
  5
1B2C
330
1B23
100
AcDbEntity
  8
0
100
AcDbBlockEnd
  0
BLOCK
  5
1B2E
330
1B2D
100
AcDbEntity
  8
0
100
AcDbBlockBegin
  2
*D28
 70
     1
 10
0.0
 20
0.0
 30
0.0
  3
*D28
  1

  0
LINE
  5
1B2F
330
1B2D
100
AcDbEntity
  8
0
 62
     0
370
    -2
100
AcDbLine
 10
113.733474978582
 20
-89.59073699108159
 30
0.0
 11
113.733474978582
 21
-88.4657369910816
 31
0.0
  0
LINE
  5
1B30
330
1B2D
100
AcDbEntity
  8
0
 62
     0
370
    -2
100
AcDbLine
 10
113.733474978582
 20
-88.4657369910816
 30
0.0
 11
112.1641592003098
 21
-87.89959034164349
 31
0.0
  0
LINE
  5
1B31
330
1B2D
100
AcDbEntity
  8
0
 62
     0
370
    -2
100
AcDbLine
 10
112.1641592003098
 20
-87.89959034164349
 30
0.0
 11
112.1641592003098
 21
-86.39959034164348
 31
0.0
  0
MTEXT
  5
1B32
330
1B2D
100
AcDbEntity
  8
0
 62
     0
370
     9
100
AcDbMText
 10
112.1641592003098
 20
-84.27459034164346
 30
0.0
 40
0.75
 41
0.0
 71
     5
 72
     1
  1
\A1;13.578
 11
0.0000000000000001
 21
1.0
 31
0.0
 73
     1
 44
1.0
1001
ACAD
1000
MTEXTBEGIN
1070
    73
1070
     1
1070
    44
1040
1.0
1070
    74
1070
     0
1000
MTEXTEND
  0
POINT
  5
1B33
330
1B2D
100
AcDbEntity
  8
DEFPOINTS
 62
     0
100
AcDbPoint
 10
113.733474978582
 20
-89.96573699108159
 30
0.0
  0
POINT
  5
1B34
330
1B2D
100
AcDbEntity
  8
DEFPOINTS
 62
     0
100
AcDbPoint
 10
112.1641592003098
 20
-86.39959034164348
 30
0.0
  0
POINT
  5
1B35
330
1B2D
100
AcDbEntity
  8
DEFPOINTS
 62
     0
100
AcDbPoint
 10
100.1559388961145
 20
-101.6527369910818
 30
0.0
  0
ENDBLK
  5
1B36
330
1B2D
100
AcDbEntity
  8
0
100
AcDbBlockEnd
  0
BLOCK
  5
1B38
330
1B37
100
AcDbEntity
  8
0
100
AcDbBlockBegin
  2
*D29
 70
     1
 10
0.0
 20
0.0
 30
0.0
  3
*D29
  1

  0
LINE
  5
1B39
330
1B37
100
AcDbEntity
  8
0
 62
     0
370
    -2
100
AcDbLine
 10
114.1714749785821
 20
-88.84043699108159
 30
0.0
 11
115.2964749785821
 21
-88.84043699108159
 31
0.0
  0
LINE
  5
1B3A
330
1B37
100
AcDbEntity
  8
0
 62
     0
370
    -2
100
AcDbLine
 10
115.2964749785821
 20
-88.84043699108159
 30
0.0
 11
116.0054801037618
 21
-88.84346466283655
 31
0.0
  0
LINE
  5
1B3B
330
1B37
100
AcDbEntity
  8
0
 62
     0
370
    -2
100
AcDbLine
 10
116.0054801037618
 20
-88.84346466283655
 30
0.0
 11
117.5054801037618
 21
-88.84346466283655
 31
0.0
  0
MTEXT
  5
1B3C
330
1B37
100
AcDbEntity
  8
0
 62
     0
370
     9
100
AcDbMText
 10
119.5054801037618
 20
-88.84346466283655
 30
0.0
 40
0.75
 41
0.0
 71
     5
 72
     1
  1
\A1;12.812
 73
     1
 44
1.0
1001
ACAD
1000
MTEXTBEGIN
1070
    73
1070
     1
1070
    44
1040
1.0
1070
    74
1070
     0
1000
MTEXTEND
  0
POINT
  5
1B3D
330
1B37
100
AcDbEntity
  8
DEFPOINTS
 62
     0
100
AcDbPoint
 10
113.7964749785821
 20
-88.84043699108159
 30
0.0
  0
POINT
  5
1B3E
330
1B37
100
AcDbEntity
  8
DEFPOINTS
 62
     0
100
AcDbPoint
 10
117.5054801037618
 20
-88.84346466283655
 30
0.0
  0
POINT
  5
1B3F
330
1B37
100
AcDbEntity
  8
DEFPOINTS
 62
     0
100
AcDbPoint
 10
100.1559388961144
 20
-101.652691850999
 30
0.0
  0
ENDBLK
  5
1B40
330
1B37
100
AcDbEntity
  8
0
100
AcDbBlockEnd
  0
BLOCK
  5
1B42
330
1B41
100
AcDbEntity
  8
0
100
AcDbBlockBegin
  2
*D30
 70
     1
 10
0.0
 20
0.0
 30
0.0
  3
*D30
  1

  0
LINE
  5
1B43
330
1B41
100
AcDbEntity
  8
0
 62
     0
370
    -2
100
AcDbLine
 10
114.1714749785819
 20
-93.90273699108147
 30
0.0
 11
115.2964749785819
 21
-93.90273699108147
 31
0.0
  0
LINE
  5
1B44
330
1B41
100
AcDbEntity
  8
0
 62
     0
370
    -2
100
AcDbLine
 10
115.2964749785819
 20
-93.90273699108147
 30
0.0
 11
116.3008815003939
 21
-91.80614529881257
 31
0.0
  0
LINE
  5
1B45
330
1B41
100
AcDbEntity
  8
0
 62
     0
370
    -2
100
AcDbLine
 10
116.3008815003939
 20
-91.80614529881257
 30
0.0
 11
117.8008815003938
 21
-91.80614529881257
 31
0.0
  0
MTEXT
  5
1B46
330
1B41
100
AcDbEntity
  8
0
 62
     0
370
     9
100
AcDbMText
 10
119.6133815003937
 20
-91.80614529881257
 30
0.0
 40
0.75
 41
0.0
 71
     5
 72
     1
  1
\A1;7.750
 73
     1
 44
1.0
1001
ACAD
1000
MTEXTBEGIN
1070
    73
1070
     1
1070
    44
1040
1.0
1070
    74
1070
     0
1000
MTEXTEND
  0
POINT
  5
1B47
330
1B41
100
AcDbEntity
  8
DEFPOINTS
 62
     0
100
AcDbPoint
 10
113.7964749785819
 20
-93.90273699108147
 30
0.0
  0
POINT
  5
1B48
330
1B41
100
AcDbEntity
  8
DEFPOINTS
 62
     0
100
AcDbPoint
 10
117.8008815003938
 20
-91.80614529881257
 30
0.0
  0
POINT
  5
1B49
330
1B41
100
AcDbEntity
  8
DEFPOINTS
 62
     0
100
AcDbPoint
 10
100.1559388961144
 20
-101.652691850999
 30
0.0
  0
ENDBLK
  5
1B4A
330
1B41
100
AcDbEntity
  8
0
100
AcDbBlockEnd
  0
BLOCK
  5
1B4C
330
1B4B
100
AcDbEntity
  8
0
100
AcDbBlockBegin
  2
*D31
 70
     1
 10
0.0
 20
0.0
 30
0.0
  3
*D31
  1

  0
LINE
  5
1B4D
330
1B4B
100
AcDbEntity
  8
0
 62
     0
370
    -2
100
AcDbLine
 10
113.7964749785819
 20
-94.27773699108149
 30
0.0
 11
113.7964749785819
 21
-104.6023261824169
 31
0.0
  0
MTEXT
  5
1B4E
330
1B4B
100
AcDbEntity
  8
0
 62
     0
370
     9
100
AcDbMText
 10
113.796474978582
 20
-106.6023261824169
 30
0.0
 40
0.75
 41
0.0
 71
     5
 72
     1
  1
\A1;13.641
 11
0.0000000000000001
 21
1.0
 31
0.0
 73
     1
 44
1.0
1001
ACAD
1000
MTEXTBEGIN
1070
    73
1070
     1
1070
    44
1040
1.0
1070
    74
1070
     0
1000
MTEXTEND
  0
POINT
  5
1B4F
330
1B4B
100
AcDbEntity
  8
DEFPOINTS
 62
     0
100
AcDbPoint
 10
113.7964749785819
 20
-93.90273699108147
 30
0.0
  0
POINT
  5
1B50
330
1B4B
100
AcDbEntity
  8
DEFPOINTS
 62
     0
100
AcDbPoint
 10
113.7964749785819
 20
-104.6023261824169
 30
0.0
  0
POINT
  5
1B51
330
1B4B
100
AcDbEntity
  8
DEFPOINTS
 62
     0
100
AcDbPoint
 10
100.1559388961144
 20
-101.652691850999
 30
0.0
  0
ENDBLK
  5
1B52
330
1B4B
100
AcDbEntity
  8
0
100
AcDbBlockEnd
  0
BLOCK
  5
1B54
330
1B53
100
AcDbEntity
  8
0
100
AcDbBlockBegin
  2
*D32
 70
     1
 10
0.0
 20
0.0
 30
0.0
  3
*D32
  1

  0
LINE
  5
1B55
330
1B53
100
AcDbEntity
  8
0
 62
     0
370
    -2
100
AcDbLine
 10
109.0464749785818
 20
-88.46543699108172
 30
0.0
 11
109.0464749785819
 21
-86.39959034164348
 31
0.0
  0
MTEXT
  5
1B56
330
1B53
100
AcDbEntity
  8
0
 62
     0
370
     9
100
AcDbMText
 10
109.0464749785819
 20
-84.64959034164346
 30
0.0
 40
0.75
 41
0.0
 71
     5
 72
     1
  1
\A1;8.891
 11
0.0000000000000001
 21
1.0
 31
0.0
 73
     1
 44
1.0
1001
ACAD
1000
MTEXTBEGIN
1070
    73
1070
     1
1070
    44
1040
1.0
1070
    74
1070
     0
1000
MTEXTEND
  0
POINT
  5
1B57
330
1B53
100
AcDbEntity
  8
DEFPOINTS
 62
     0
100
AcDbPoint
 10
109.0464749785818
 20
-88.84043699108174
 30
0.0
  0
POINT
  5
1B58
330
1B53
100
AcDbEntity
  8
DEFPOINTS
 62
     0
100
AcDbPoint
 10
109.0464749785819
 20
-86.39959034164348
 30
0.0
  0
POINT
  5
1B59
330
1B53
100
AcDbEntity
  8
DEFPOINTS
 62
     0
100
AcDbPoint
 10
100.1559388961144
 20
-101.652691850999
 30
0.0
  0
ENDBLK
  5
1B5A
330
1B53
100
AcDbEntity
  8
0
100
AcDbBlockEnd
  0
BLOCK
  5
1B5C
330
1B5B
100
AcDbEntity
  8
0
100
AcDbBlockBegin
  2
*D33
 70
     1
 10
0.0
 20
0.0
 30
0.0
  3
*D33
  1

  0
LINE
  5
1B5D
330
1B5B
100
AcDbEntity
  8
0
 62
     0
370
    -2
100
AcDbLine
 10
112.233474978582
 20
-100.0277369910816
 30
0.0
 11
112.233474978582
 21
-104.7255824780821
 31
0.0
  0
MTEXT
  5
1B5E
330
1B5B
100
AcDbEntity
  8
0
 62
     0
370
     9
100
AcDbMText
 10
112.233474978582
 20
-106.7880824780821
 30
0.0
 40
0.75
 41
0.0
 71
     5
 72
     1
  1
\A1;12.078
 11
0.0000000000000001
 21
1.0
 31
0.0
 73
     1
 44
1.0
1001
ACAD
1000
MTEXTBEGIN
1070
    73
1070
     1
1070
    44
1040
1.0
1070
    74
1070
     0
1000
MTEXTEND
  0
POINT
  5
1B5F
330
1B5B
100
AcDbEntity
  8
DEFPOINTS
 62
     0
100
AcDbPoint
 10
112.233474978582
 20
-99.65273699108159
 30
0.0
  0
POINT
  5
1B60
330
1B5B
100
AcDbEntity
  8
DEFPOINTS
 62
     0
100
AcDbPoint
 10
112.233474978582
 20
-104.7255824780821
 30
0.0
  0
POINT
  5
1B61
330
1B5B
100
AcDbEntity
  8
DEFPOINTS
 62
     0
100
AcDbPoint
 10
100.1559388961144
 20
-101.652691850999
 30
0.0
  0
ENDBLK
  5
1B62
330
1B5B
100
AcDbEntity
  8
0
100
AcDbBlockEnd
  0
BLOCK
  5
1B64
330
1B63
100
AcDbEntity
  8
0
100
AcDbBlockBegin
  2
*D34
 70
     1
 10
0.0
 20
0.0
 30
0.0
  3
*D34
  1

  0
LINE
  5
1B65
330
1B63
100
AcDbEntity
  8
0
 62
     0
370
    -2
100
AcDbLine
 10
107.793474978582
 20
-98.61923699108162
 30
0.0
 11
107.793474978582
 21
-101.6637685868607
 31
0.0
  0
LINE
  5
1B66
330
1B63
100
AcDbEntity
  8
0
 62
     0
370
    -2
100
AcDbLine
 10
107.793474978582
 20
-101.6637685868607
 30
0.0
 11
107.1337228541197
 21
-103.1637685868607
 31
0.0
  0
LINE
  5
1B67
330
1B63
100
AcDbEntity
  8
0
 62
     0
370
    -2
100
AcDbLine
 10
107.1337228541197
 20
-103.1637685868607
 30
0.0
 11
107.1337228541197
 21
-104.6637685868607
 31
0.0
  0
MTEXT
  5
1B68
330
1B63
100
AcDbEntity
  8
0
 62
     0
370
     9
100
AcDbMText
 10
107.1337228541197
 20
-106.5387685868607
 30
0.0
 40
0.75
 41
0.0
 71
     5
 72
     1
  1
\A1;7.638
 11
0.0000000000000001
 21
1.0
 31
0.0
 73
     1
 44
1.0
1001
ACAD
1000
MTEXTBEGIN
1070
    73
1070
     1
1070
    44
1040
1.0
1070
    74
1070
     0
1000
MTEXTEND
  0
POINT
  5
1B69
330
1B63
100
AcDbEntity
  8
DEFPOINTS
 62
     0
100
AcDbPoint
 10
107.793474978582
 20
-98.24423699108162
 30
0.0
  0
POINT
  5
1B6A
330
1B63
100
AcDbEntity
  8
DEFPOINTS
 62
     0
100
AcDbPoint
 10
107.1337228541197
 20
-104.6637685868607
 30
0.0
  0
POINT
  5
1B6B
330
1B63
100
AcDbEntity
  8
DEFPOINTS
 62
     0
100
AcDbPoint
 10
100.1559388961144
 20
-101.652691850999
 30
0.0
  0
ENDBLK
  5
1B6C
330
1B63
100
AcDbEntity
  8
0
100
AcDbBlockEnd
  0
BLOCK
  5
1B6E
330
1B6D
100
AcDbEntity
  8
0
100
AcDbBlockBegin
  2
*D35
 70
     1
 10
0.0
 20
0.0
 30
0.0
  3
*D35
  1

  0
LINE
  5
1B6F
330
1B6D
100
AcDbEntity
  8
0
 62
     0
370
    -2
100
AcDbLine
 10
102.483474978582
 20
-100.0277369910816
 30
0.0
 11
102.483474978582
 21
-104.6637685868607
 31
0.0
  0
MTEXT
  5
1B70
330
1B6D
100
AcDbEntity
  8
0
 62
     0
370
     9
100
AcDbMText
 10
102.483474978582
 20
-106.5387685868607
 30
0.0
 40
0.75
 41
0.0
 71
     5
 72
     1
  1
\A1;2.328
 11
0.0000000000000001
 21
1.0
 31
0.0
 73
     1
 44
1.0
1001
ACAD
1000
MTEXTBEGIN
1070
    73
1070
     1
1070
    44
1040
1.0
1070
    74
1070
     0
1000
MTEXTEND
  0
POINT
  5
1B71
330
1B6D
100
AcDbEntity
  8
DEFPOINTS
 62
     0
100
AcDbPoint
 10
102.483474978582
 20
-99.65273699108159
 30
0.0
  0
POINT
  5
1B72
330
1B6D
100
AcDbEntity
  8
DEFPOINTS
 62
     0
100
AcDbPoint
 10
102.483474978582
 20
-104.6637685868607
 30
0.0
  0
POINT
  5
1B73
330
1B6D
100
AcDbEntity
  8
DEFPOINTS
 62
     0
100
AcDbPoint
 10
100.1559388961144
 20
-101.652691850999
 30
0.0
  0
ENDBLK
  5
1B74
330
1B6D
100
AcDbEntity
  8
0
100
AcDbBlockEnd
  0
BLOCK
  5
1B76
330
1B75
100
AcDbEntity
  8
0
100
AcDbBlockBegin
  2
*D36
 70
     1
 10
0.0
 20
0.0
 30
0.0
  3
*D36
  1

  0
LINE
  5
1B77
330
1B75
100
AcDbEntity
  8
0
 62
     0
370
    -2
100
AcDbLine
 10
107.4184749785819
 20
-96.74423699108146
 30
0.0
 11
100.1961324570292
 21
-96.74423699108146
 31
0.0
  0
LINE
  5
1B78
330
1B75
100
AcDbEntity
  8
0
 62
     0
370
    -2
100
AcDbLine
 10
100.1961324570292
 20
-96.74423699108146
 30
0.0
 11
98.69613245702922
 21
-96.71738772784843
 31
0.0
  0
LINE
  5
1B79
330
1B75
100
AcDbEntity
  8
0
 62
     0
370
    -2
100
AcDbLine
 10
98.69613245702922
 20
-96.71738772784843
 30
0.0
 11
97.19613245702923
 21
-96.71738772784843
 31
0.0
  0
MTEXT
  5
1B7A
330
1B75
100
AcDbEntity
  8
0
 62
     0
370
     9
100
AcDbMText
 10
95.38363245702923
 20
-96.71738772784843
 30
0.0
 40
0.75
 41
0.0
 71
     5
 72
     1
  1
\A1;4.908
 73
     1
 44
1.0
1001
ACAD
1000
MTEXTBEGIN
1070
    73
1070
     1
1070
    44
1040
1.0
1070
    74
1070
     0
1000
MTEXTEND
  0
POINT
  5
1B7B
330
1B75
100
AcDbEntity
  8
DEFPOINTS
 62
     0
100
AcDbPoint
 10
107.7934749785819
 20
-96.74423699108146
 30
0.0
  0
POINT
  5
1B7C
330
1B75
100
AcDbEntity
  8
DEFPOINTS
 62
     0
100
AcDbPoint
 10
97.19613245702923
 20
-96.71738772784843
 30
0.0
  0
POINT
  5
1B7D
330
1B75
100
AcDbEntity
  8
DEFPOINTS
 62
     0
100
AcDbPoint
 10
100.1559388961144
 20
-101.652691850999
 30
0.0
  0
ENDBLK
  5
1B7E
330
1B75
100
AcDbEntity
  8
0
100
AcDbBlockEnd
  0
BLOCK
  5
1B80
330
1B7F
100
AcDbEntity
  8
0
100
AcDbBlockBegin
  2
*D37
 70
     1
 10
0.0
 20
0.0
 30
0.0
  3
*D37
  1

  0
LINE
  5
1B81
330
1B7F
100
AcDbEntity
  8
0
 62
     0
370
    -2
100
AcDbLine
 10
102.8104749785818
 20
-94.51573699108157
 30
0.0
 11
100.1961324570292
 21
-94.51573699108157
 31
0.0
  0
LINE
  5
1B82
330
1B7F
100
AcDbEntity
  8
0
 62
     0
370
    -2
100
AcDbLine
 10
100.1961324570292
 20
-94.51573699108157
 30
0.0
 11
98.69613245702929
 21
-94.49615979040387
 31
0.0
  0
LINE
  5
1B83
330
1B7F
100
AcDbEntity
  8
0
 62
     0
370
    -2
100
AcDbLine
 10
98.69613245702929
 20
-94.49615979040387
 30
0.0
 11
97.19613245702928
 21
-94.49615979040387
 31
0.0
  0
MTEXT
  5
1B84
330
1B7F
100
AcDbEntity
  8
0
 62
     0
370
     9
100
AcDbMText
 10
95.44613245702928
 20
-94.49615979040387
 30
0.0
 40
0.75
 41
0.0
 71
     5
 72
     1
  1
\A1;7.137
 73
     1
 44
1.0
1001
ACAD
1000
MTEXTBEGIN
1070
    73
1070
     1
1070
    44
1040
1.0
1070
    74
1070
     0
1000
MTEXTEND
  0
POINT
  5
1B85
330
1B7F
100
AcDbEntity
  8
DEFPOINTS
 62
     0
100
AcDbPoint
 10
103.1854749785818
 20
-94.51573699108157
 30
0.0
  0
POINT
  5
1B86
330
1B7F
100
AcDbEntity
  8
DEFPOINTS
 62
     0
100
AcDbPoint
 10
97.19613245702928
 20
-94.49615979040387
 30
0.0
  0
POINT
  5
1B87
330
1B7F
100
AcDbEntity
  8
DEFPOINTS
 62
     0
100
AcDbPoint
 10
100.1559388961144
 20
-101.652691850999
 30
0.0
  0
ENDBLK
  5
1B88
330
1B7F
100
AcDbEntity
  8
0
100
AcDbBlockEnd
  0
BLOCK
  5
1B8A
330
1B89
100
AcDbEntity
  8
0
100
AcDbBlockBegin
  2
*D38
 70
     1
 10
0.0
 20
0.0
 30
0.0
  3
*D38
  1

  0
LINE
  5
1B8B
330
1B89
100
AcDbEntity
  8
0
 62
     0
370
    -2
100
AcDbLine
 10
102.810474978582
 20
-88.84043699108152
 30
0.0
 11
100.1961324570292
 21
-88.84043699108152
 31
0.0
  0
LINE
  5
1B8C
330
1B89
100
AcDbEntity
  8
0
 62
     0
370
    -2
100
AcDbLine
 10
100.1961324570292
 20
-88.84043699108152
 30
0.0
 11
98.69613245702929
 21
-88.59207955481069
 31
0.0
  0
LINE
  5
1B8D
330
1B89
100
AcDbEntity
  8
0
 62
     0
370
    -2
100
AcDbLine
 10
98.69613245702929
 20
-88.59207955481069
 30
0.0
 11
97.19613245702928
 21
-88.59207955481069
 31
0.0
  0
MTEXT
  5
1B8E
330
1B89
100
AcDbEntity
  8
0
 62
     0
370
     9
100
AcDbMText
 10
95.19613245702926
 20
-88.59207955481069
 30
0.0
 40
0.75
 41
0.0
 71
     5
 72
     1
  1
\A1;12.812
 73
     1
 44
1.0
1001
ACAD
1000
MTEXTBEGIN
1070
    73
1070
     1
1070
    44
1040
1.0
1070
    74
1070
     0
1000
MTEXTEND
  0
POINT
  5
1B8F
330
1B89
100
AcDbEntity
  8
DEFPOINTS
 62
     0
100
AcDbPoint
 10
103.1854749785819
 20
-88.84043699108152
 30
0.0
  0
POINT
  5
1B90
330
1B89
100
AcDbEntity
  8
DEFPOINTS
 62
     0
100
AcDbPoint
 10
97.19613245702928
 20
-88.59207955481069
 30
0.0
  0
POINT
  5
1B91
330
1B89
100
AcDbEntity
  8
DEFPOINTS
 62
     0
100
AcDbPoint
 10
100.1559388961144
 20
-101.652691850999
 30
0.0
  0
ENDBLK
  5
1B92
330
1B89
100
AcDbEntity
  8
0
100
AcDbBlockEnd
  0
BLOCK
  5
1B94
330
1B93
100
AcDbEntity
  8
0
100
AcDbBlockBegin
  2
*D39
 70
     1
 10
0.0
 20
0.0
 30
0.0
  3
*D39
  1

  0
LINE
  5
1B95
330
1B93
100
AcDbEntity
  8
0
 62
     0
370
    -2
100
AcDbLine
 10
100.608474978582
 20
-89.96573699108159
 30
0.0
 11
97.19613245702928
 21
-89.96573699108159
 31
0.0
  0
MTEXT
  5
1B96
330
1B93
100
AcDbEntity
  8
0
 62
     0
370
     9
100
AcDbMText
 10
95.19613245702926
 20
-89.96573699108159
 30
0.0
 40
0.75
 41
0.0
 71
     5
 72
     1
  1
\A1;11.687
 73
     1
 44
1.0
1001
ACAD
1000
MTEXTBEGIN
1070
    73
1070
     1
1070
    44
1040
1.0
1070
    74
1070
     0
1000
MTEXTEND
  0
POINT
  5
1B97
330
1B93
100
AcDbEntity
  8
DEFPOINTS
 62
     0
100
AcDbPoint
 10
100.9834749785819
 20
-89.96573699108159
 30
0.0
  0
POINT
  5
1B98
330
1B93
100
AcDbEntity
  8
DEFPOINTS
 62
     0
100
AcDbPoint
 10
97.19613245702928
 20
-89.96573699108159
 30
0.0
  0
POINT
  5
1B99
330
1B93
100
AcDbEntity
  8
DEFPOINTS
 62
     0
100
AcDbPoint
 10
100.1559388961144
 20
-101.652691850999
 30
0.0
  0
ENDBLK
  5
1B9A
330
1B93
100
AcDbEntity
  8
0
100
AcDbBlockEnd
  0
BLOCK
  5
1B9C
330
1B9B
100
AcDbEntity
  8
0
100
AcDbBlockBegin
  2
*D40
 70
     1
 10
0.0
 20
0.0
 30
0.0
  3
*D40
  1

  0
LINE
  5
1B9D
330
1B9B
100
AcDbEntity
  8
0
 62
     0
370
    -2
100
AcDbLine
 10
102.1084749785819
 20
-99.65273699108159
 30
0.0
 11
97.19613245702928
 21
-99.65273699108159
 31
0.0
  0
MTEXT
  5
1B9E
330
1B9B
100
AcDbEntity
  8
0
 62
     0
370
     9
100
AcDbMText
 10
95.50863245702926
 20
-99.65273699108159
 30
0.0
 40
0.75
 41
0.0
 71
     5
 72
     1
  1
\A1;2.000
 73
     1
 44
1.0
1001
ACAD
1000
MTEXTBEGIN
1070
    73
1070
     1
1070
    44
1040
1.0
1070
    74
1070
     0
1000
MTEXTEND
  0
POINT
  5
1B9F
330
1B9B
100
AcDbEntity
  8
DEFPOINTS
 62
     0
100
AcDbPoint
 10
102.483474978582
 20
-99.65273699108159
 30
0.0
  0
POINT
  5
1BA0
330
1B9B
100
AcDbEntity
  8
DEFPOINTS
 62
     0
100
AcDbPoint
 10
97.19613245702928
 20
-99.65273699108159
 30
0.0
  0
POINT
  5
1BA1
330
1B9B
100
AcDbEntity
  8
DEFPOINTS
 62
     0
100
AcDbPoint
 10
100.1559388961144
 20
-101.652691850999
 30
0.0
  0
ENDBLK
  5
1BA2
330
1B9B
100
AcDbEntity
  8
0
100
AcDbBlockEnd
  0
BLOCK
  5
1BA4
330
1BA3
100
AcDbEntity
  8
0
100
AcDbBlockBegin
  2
*D41
 70
     1
 10
0.0
 20
0.0
 30
0.0
  3
*D41
  1

  0
LINE
  5
1BA5
330
1BA3
100
AcDbEntity
  8
0
 62
     0
370
    -2
100
AcDbLine
 10
100.155974978582
 20
-102.0277369910817
 30
0.0
 11
100.155974978582
 21
-104.6236461291574
 31
0.0
  0
MTEXT
  5
1BA6
330
1BA3
100
AcDbEntity
  8
0
 62
     0
370
     9
100
AcDbMText
 10
100.155974978582
 20
-106.2486461291574
 30
0.0
 40
0.75
 41
0.0
 71
     5
 72
     1
  1
\A1;0.000
 11
0.0000000000000001
 21
1.0
 31
0.0
 73
     1
 44
1.0
1001
ACAD
1000
MTEXTBEGIN
1070
    73
1070
     1
1070
    44
1040
1.0
1070
    74
1070
     0
1000
MTEXTEND
  0
POINT
  5
1BA7
330
1BA3
100
AcDbEntity
  8
DEFPOINTS
 62
     0
100
AcDbPoint
 10
100.155974978582
 20
-101.6527369910817
 30
0.0
  0
POINT
  5
1BA8
330
1BA3
100
AcDbEntity
  8
DEFPOINTS
 62
     0
100
AcDbPoint
 10
100.155974978582
 20
-104.6236461291574
 30
0.0
  0
POINT
  5
1BA9
330
1BA3
100
AcDbEntity
  8
DEFPOINTS
 62
     0
100
AcDbPoint
 10
100.1559388961144
 20
-101.652691850999
 30
0.0
  0
ENDBLK
  5
1BAA
330
1BA3
100
AcDbEntity
  8
0
100
AcDbBlockEnd
  0
BLOCK
  5
1BAC
330
1BAB
100
AcDbEntity
  8
0
100
AcDbBlockBegin
  2
*D42
 70
     1
 10
0.0
 20
0.0
 30
0.0
  3
*D42
  1

  0
LINE
  5
1BAD
330
1BAB
100
AcDbEntity
  8
0
 62
     0
370
    -2
100
AcDbLine
 10
99.780974978582
 20
-101.6527369910817
 30
0.0
 11
97.18071762526093
 21
-101.6527369910817
 31
0.0
  0
MTEXT
  5
1BAE
330
1BAB
100
AcDbEntity
  8
0
 62
     0
370
     9
100
AcDbMText
 10
95.55571762526092
 20
-101.6527369910817
 30
0.0
 40
0.75
 41
0.0
 71
     5
 72
     1
  1
\A1;0.000
 73
     1
 44
1.0
1001
ACAD
1000
MTEXTBEGIN
1070
    73
1070
     1
1070
    44
1040
1.0
1070
    74
1070
     0
1000
MTEXTEND
  0
POINT
  5
1BAF
330
1BAB
100
AcDbEntity
  8
DEFPOINTS
 62
     0
100
AcDbPoint
 10
100.155974978582
 20
-101.6527369910817
 30
0.0
  0
POINT
  5
1BB0
330
1BAB
100
AcDbEntity
  8
DEFPOINTS
 62
     0
100
AcDbPoint
 10
97.18071762526093
 20
-101.6527369910817
 30
0.0
  0
POINT
  5
1BB1
330
1BAB
100
AcDbEntity
  8
DEFPOINTS
 62
     0
100
AcDbPoint
 10
100.1559388961144
 20
-101.652691850999
 30
0.0
  0
ENDBLK
  5
1BB2
330
1BAB
100
AcDbEntity
  8
0
100
AcDbBlockEnd
  0
BLOCK
  5
1BB4
330
1BB3
100
AcDbEntity
  8
0
100
AcDbBlockBegin
  2
*D43
 70
     1
 10
0.0
 20
0.0
 30
0.0
  3
*D43
  1

  0
LINE
  5
1BB5
330
1BB3
100
AcDbEntity
  8
0
 62
     0
370
    -2
100
AcDbLine
 10
114.5609749785819
 20
-88.01273699108156
 30
0.0
 11
114.5609749785819
 21
-86.39959034164348
 31
0.0
  0
MTEXT
  5
1BB6
330
1BB3
100
AcDbEntity
  8
0
 62
     0
370
     9
100
AcDbMText
 10
114.5609749785819
 20
-84.33709034164346
 30
0.0
 40
0.75
 41
0.0
 71
     5
 72
     1
  1
\A1;14.405
 11
0.0000000000000001
 21
1.0
 31
0.0
 73
     1
 44
1.0
1001
ACAD
1000
MTEXTBEGIN
1070
    73
1070
     1
1070
    44
1040
1.0
1070
    74
1070
     0
1000
MTEXTEND
  0
POINT
  5
1BB7
330
1BB3
100
AcDbEntity
  8
DEFPOINTS
 62
     0
100
AcDbPoint
 10
114.5609749785819
 20
-88.38773699108157
 30
0.0
  0
POINT
  5
1BB8
330
1BB3
100
AcDbEntity
  8
DEFPOINTS
 62
     0
100
AcDbPoint
 10
114.5609749785819
 20
-86.39959034164348
 30
0.0
  0
POINT
  5
1BB9
330
1BB3
100
AcDbEntity
  8
DEFPOINTS
 62
     0
100
AcDbPoint
 10
100.1559388961145
 20
-101.6527369910818
 30
0.0
  0
ENDBLK
  5
1BBA
330
1BB3
100
AcDbEntity
  8
0
100
AcDbBlockEnd
  0
BLOCK
  5
1BBC
330
1BBB
100
AcDbEntity
  8
0
100
AcDbBlockBegin
  2
*D44
 70
     1
 10
0.0
 20
0.0
 30
0.0
  3
*D44
  1

  0
LINE
  5
1BBD
330
1BBB
100
AcDbEntity
  8
0
 62
     0
370
    -2
100
AcDbLine
 10
100.9834749785819
 20
-89.59073699108159
 30
0.0
 11
100.9834749785819
 21
-86.55788347136379
 31
0.0
  0
MTEXT
  5
1BBE
330
1BBB
100
AcDbEntity
  8
0
 62
     0
370
     9
100
AcDbMText
 10
100.983474978582
 20
-84.74538347136377
 30
0.0
 40
0.75
 41
0.0
 71
     5
 72
     1
  1
\A1;0.827
 11
0.0000000000000001
 21
1.0
 31
0.0
 73
     1
 44
1.0
1001
ACAD
1000
MTEXTBEGIN
1070
    73
1070
     1
1070
    44
1040
1.0
1070
    74
1070
     0
1000
MTEXTEND
  0
POINT
  5
1BBF
330
1BBB
100
AcDbEntity
  8
DEFPOINTS
 62
     0
100
AcDbPoint
 10
100.9834749785819
 20
-89.96573699108159
 30
0.0
  0
POINT
  5
1BC0
330
1BBB
100
AcDbEntity
  8
DEFPOINTS
 62
     0
100
AcDbPoint
 10
100.9834749785819
 20
-86.55788347136379
 30
0.0
  0
POINT
  5
1BC1
330
1BBB
100
AcDbEntity
  8
DEFPOINTS
 62
     0
100
AcDbPoint
 10
100.155974978582
 20
-101.6527369910817
 30
0.0
  0
ENDBLK
  5
1BC2
330
1BBB
100
AcDbEntity
  8
0
100
AcDbBlockEnd
  0
BLOCK
  5
1BC4
330
1BC3
100
AcDbEntity
  8
0
100
AcDbBlockBegin
  2
*D45
 70
     1
 10
0.0
 20
0.0
 30
0.0
  3
*D45
  1

  0
LINE
  5
1BC5
330
1BC3
100
AcDbEntity
  8
0
 62
     0
370
    -2
100
AcDbLine
 10
109.9184749785819
 20
-95.99423699108166
 30
0.0
 11
100.1961324570292
 21
-95.99423699108166
 31
0.0
  0
LINE
  5
1BC6
330
1BC3
100
AcDbEntity
  8
0
 62
     0
370
    -2
100
AcDbLine
 10
100.1961324570292
 20
-95.99423699108166
 30
0.0
 11
98.69613245702922
 21
-95.66201168457224
 31
0.0
  0
LINE
  5
1BC7
330
1BC3
100
AcDbEntity
  8
0
 62
     0
370
    -2
100
AcDbLine
 10
98.69613245702922
 20
-95.66201168457224
 30
0.0
 11
97.19613245702923
 21
-95.66201168457224
 31
0.0
  0
MTEXT
  5
1BC8
330
1BC3
100
AcDbEntity
  8
0
 62
     0
370
     9
100
AcDbMText
 10
95.32113245702921
 20
-95.66201168457224
 30
0.0
 40
0.75
 41
0.0
 71
     5
 72
     1
  1
\A1;5.658
 73
     1
 44
1.0
1001
ACAD
1000
MTEXTBEGIN
1070
    73
1070
     1
1070
    44
1040
1.0
1070
    74
1070
     0
1000
MTEXTEND
  0
POINT
  5
1BC9
330
1BC3
100
AcDbEntity
  8
DEFPOINTS
 62
     0
100
AcDbPoint
 10
110.2934749785819
 20
-95.99423699108166
 30
0.0
  0
POINT
  5
1BCA
330
1BC3
100
AcDbEntity
  8
DEFPOINTS
 62
     0
100
AcDbPoint
 10
97.19613245702923
 20
-95.66201168457224
 30
0.0
  0
POINT
  5
1BCB
330
1BC3
100
AcDbEntity
  8
DEFPOINTS
 62
     0
100
AcDbPoint
 10
100.1559388961144
 20
-101.652691850999
 30
0.0
  0
ENDBLK
  5
1BCC
330
1BC3
100
AcDbEntity
  8
0
100
AcDbBlockEnd
  0
BLOCK
  5
1BCE
330
1BCD
100
AcDbEntity
  8
0
100
AcDbBlockBegin
  2
*D46
 70
     1
 10
0.0
 20
0.0
 30
0.0
  3
*D46
  1

  0
LINE
  5
1BCF
330
1BCD
100
AcDbEntity
  8
0
 62
     0
370
    -2
100
AcDbLine
 10
110.2934749785819
 20
-96.36923699108166
 30
0.0
 11
110.2934749785819
 21
-104.6637685868607
 31
0.0
  0
MTEXT
  5
1BD0
330
1BCD
100
AcDbEntity
  8
0
 62
     0
370
     9
100
AcDbMText
 10
110.2934749785819
 20
-106.6012685868607
 30
0.0
 40
0.75
 41
0.0
 71
     5
 72
     1
  1
\A1;10.138
 11
0.0000000000000001
 21
1.0
 31
0.0
 73
     1
 44
1.0
1001
ACAD
1000
MTEXTBEGIN
1070
    73
1070
     1
1070
    44
1040
1.0
1070
    74
1070
     0
1000
MTEXTEND
  0
POINT
  5
1BD1
330
1BCD
100
AcDbEntity
  8
DEFPOINTS
 62
     0
100
AcDbPoint
 10
110.2934749785819
 20
-95.99423699108166
 30
0.0
  0
POINT
  5
1BD2
330
1BCD
100
AcDbEntity
  8
DEFPOINTS
 62
     0
100
AcDbPoint
 10
110.2934749785819
 20
-104.6637685868607
 30
0.0
  0
POINT
  5
1BD3
330
1BCD
100
AcDbEntity
  8
DEFPOINTS
 62
     0
100
AcDbPoint
 10
100.1559388961144
 20
-101.652691850999
 30
0.0
  0
ENDBLK
  5
1BD4
330
1BCD
100
AcDbEntity
  8
0
100
AcDbBlockEnd
  0
BLOCK
  5
1BD6
330
1BD5
100
AcDbEntity
  8
0
100
AcDbBlockBegin
  2
*D47
 70
     1
 10
0.0
 20
0.0
 30
0.0
  3
*D47
  1

  0
LINE
  5
1BD7
330
1BD5
100
AcDbEntity
  8
TXT
 62
     0
370
    -2
100
AcDbLine
 10
117.9279380158279
 20
-95.35558875712942
 30
0.0
 11
111.6636890406371
 21
-95.879614025904
 31
0.0
  0
MTEXT
  5
1BD8
330
1BD5
100
AcDbEntity
  8
TXT
 62
     0
370
     9
100
AcDbMText
 10
118.0179380158279
 20
-92.4805887571294
 30
0.0
 40
0.75
 41
0.0
 71
     1
 72
     1
  1
\A1;\U+22051.250 (1)\POPTIONAL:\PETHERNET\PCONNECTION \PPORT
 73
     1
 44
1.0
1001
ACAD
1000
MTEXTBEGIN
1070
    73
1070
     1
1070
    44
1040
1.0
1070
    74
1070
     0
1000
MTEXTEND
  0
SOLID
  5
1BD9
330
1BD5
100
AcDbEntity
  8
TXT
 62
     0
100
AcDbTrace
 10
111.6532687710755
 20
-95.75504911117173
 30
0.0
 11
111.6741093101987
 21
-96.0041789406363
 31
0.0
 12
110.9162995522433
 22
-95.94213564327359
 32
0.0
 13
110.9162995522433
 23
-95.94213564327359
 33
0.0
  0
LINE
  5
1BDA
330
1BD5
100
AcDbEntity
  8
TXT
 62
     0
370
    -2
100
AcDbLine
 10
110.2034749785818
 20
-95.99423699108161
 30
0.0
 11
110.3834749785818
 21
-95.99423699108161
 31
0.0
  0
LINE
  5
1BDB
330
1BD5
100
AcDbEntity
  8
TXT
 62
     0
370
    -2
100
AcDbLine
 10
110.2934749785818
 20
-96.08423699108159
 30
0.0
 11
110.2934749785819
 21
-95.90423699108161
 31
0.0
  0
POINT
  5
1BDC
330
1BD5
100
AcDbEntity
  8
DEFPOINTS
 62
     0
100
AcDbPoint
 10
110.9162995522433
 20
-95.94213564327359
 30
0.0
  0
POINT
  5
1BDD
330
1BD5
100
AcDbEntity
  8
DEFPOINTS
 62
     0
100
AcDbPoint
 10
109.6706504049204
 20
-96.04633833888961
 30
0.0
  0
ENDBLK
  5
1BDE
330
1BD5
100
AcDbEntity
  8
0
100
AcDbBlockEnd
  0
BLOCK
  5
1BE0
330
1BDF
100
AcDbEntity
  8
0
100
AcDbBlockBegin
  2
*D48
 70
     1
 10
0.0
 20
0.0
 30
0.0
  3
*D48
  1

  0
LINE
  5
1BE1
330
1BDF
100
AcDbEntity
  8
TXT
 62
     0
370
    -2
100
AcDbLine
 10
116.8430615734775
 20
-101.0599097526499
 30
0.0
 11
116.0930615734775
 21
-101.0599097526499
 31
0.0
  0
LINE
  5
1BE2
330
1BDF
100
AcDbEntity
  8
TXT
 62
     0
370
    -2
100
AcDbLine
 10
116.0930615734775
 20
-101.0599097526499
 30
0.0
 11
109.0134048347597
 21
-97.3785840144103
 31
0.0
  0
MTEXT
  5
1BE3
330
1BDF
100
AcDbEntity
  8
TXT
 62
     0
370
     9
100
AcDbMText
 10
116.9330615734775
 20
-99.43490975264992
 30
0.0
 40
0.75
 41
0.0
 71
     1
 72
     1
  1
\A1;\U+22051.250 (1)\PPOWER \PSUPPLY
 73
     1
 44
1.0
1001
ACAD
1000
MTEXTBEGIN
1070
    73
1070
     1
1070
    44
1040
1.0
1070
    74
1070
     0
1000
MTEXTEND
  0
SOLID
  5
1BE4
330
1BDF
100
AcDbEntity
  8
TXT
 62
     0
100
AcDbTrace
 10
109.0710727459714
 20
-97.26768130021234
 30
0.0
 11
108.955736923548
 21
-97.48948672860828
 31
0.0
 12
108.3479885495718
 22
-97.03257654714013
 32
0.0
 13
108.3479885495718
 23
-97.03257654714013
 33
0.0
  0
LINE
  5
1BE5
330
1BDF
100
AcDbEntity
  8
TXT
 62
     0
370
    -2
100
AcDbLine
 10
107.7034749785819
 20
-96.74423699108164
 30
0.0
 11
107.8834749785819
 21
-96.74423699108164
 31
0.0
  0
LINE
  5
1BE6
330
1BDF
100
AcDbEntity
  8
TXT
 62
     0
370
    -2
100
AcDbLine
 10
107.7934749785819
 20
-96.83423699108164
 30
0.0
 11
107.7934749785819
 21
-96.65423699108163
 31
0.0
  0
POINT
  5
1BE7
330
1BDF
100
AcDbEntity
  8
DEFPOINTS
 62
     0
100
AcDbPoint
 10
108.3479885495718
 20
-97.03257654714013
 30
0.0
  0
POINT
  5
1BE8
330
1BDF
100
AcDbEntity
  8
DEFPOINTS
 62
     0
100
AcDbPoint
 10
107.238961407592
 20
-96.45589743502316
 30
0.0
  0
ENDBLK
  5
1BE9
330
1BDF
100
AcDbEntity
  8
0
100
AcDbBlockEnd
  0
BLOCK
  5
1C7F
330
1C76
100
AcDbEntity
  8
0
100
AcDbBlockBegin
  2
*D49
 70
     1
 10
0.0
 20
0.0
 30
0.0
  3
*D49
  1

  0
LINE
  5
1F07
330
1C76
100
AcDbEntity
  8
DIMENSION
 62
     0
370
    -2
100
AcDbLine
 10
28.05132009965256
 20
35.11740428818642
 30
0.0
 11
27.30132009965235
 21
35.11740428818642
 31
0.0
  0
LINE
  5
1F08
330
1C76
100
AcDbEntity
  8
DIMENSION
 62
     0
370
    -2
100
AcDbLine
 10
27.30132009965235
 20
35.11740428818642
 30
0.0
 11
20.22166336093475
 21
38.79873002642602
 31
0.0
  0
MTEXT
  5
1F09
330
1C76
100
AcDbEntity
  8
DIMENSION
 62
     0
370
     9
100
AcDbMText
 10
30.95382009965256
 20
35.11740428818642
 30
0.0
 40
0.75
 41
0.0
 71
     5
 72
     1
  1
\A1;\U+22051.250 (1)\PPOWER \PSUPPLY
 73
     1
 44
1.0
1001
ACAD
1000
MTEXTBEGIN
1070
    73
1070
     1
1070
    44
1040
1.0
1070
    74
1070
     0
1000
MTEXTEND
  0
SOLID
  5
1F0A
330
1C76
100
AcDbEntity
  8
DIMENSION
 62
     0
100
AcDbTrace
 10
20.27933127214645
 20
38.909632740624
 30
0.0
 11
20.16399544972305
 21
38.68782731222804
 31
0.0
 12
19.55624707574684
 22
39.14473749369621
 32
0.0
 13
19.55624707574684
 23
39.14473749369621
 33
0.0
  0
LINE
  5
1F0B
330
1C76
100
AcDbEntity
  8
DIMENSION
 62
     0
370
    -2
100
AcDbLine
 10
18.91173350475695
 20
39.43307704975469
 30
0.0
 11
19.09173350475695
 21
39.43307704975469
 31
0.0
  0
LINE
  5
1F0C
330
1C76
100
AcDbEntity
  8
DIMENSION
 62
     0
370
    -2
100
AcDbLine
 10
19.00173350475695
 20
39.34307704975469
 30
0.0
 11
19.00173350475695
 21
39.52307704975471
 31
0.0
  0
POINT
  5
1F0D
330
1C76
100
AcDbEntity
  8
DEFPOINTS
 62
     0
100
AcDbPoint
 10
19.55624707574684
 20
39.14473749369621
 30
0.0
  0
POINT
  5
1F0E
330
1C76
100
AcDbEntity
  8
DEFPOINTS
 62
     0
100
AcDbPoint
 10
18.44721993376705
 20
39.72141660581318
 30
0.0
  0
ENDBLK
  5
1C80
330
1C76
100
AcDbEntity
  8
0
100
AcDbBlockEnd
  0
BLOCK
  5
1C89
330
1C81
100
AcDbEntity
  8
0
100
AcDbBlockBegin
  2
*D50
 70
     1
 10
0.0
 20
0.0
 30
0.0
  3
*D50
  1

  0
LINE
  5
22A9
330
1C81
100
AcDbEntity
  8
DIMENSION
 62
     0
370
    -2
100
AcDbLine
 10
27.8148884493039
 20
40.82172528370698
 30
0.0
 11
22.86975141452078
 21
40.32146779570662
 31
0.0
  0
MTEXT
  5
22AA
330
1C81
100
AcDbEntity
  8
DIMENSION
 62
     0
370
     9
100
AcDbMText
 10
27.9048884493039
 20
40.82172528370698
 30
0.0
 40
0.75
 41
0.0
 71
     4
 72
     1
  1
\A1;\U+22051.250 (1)\POPTIONAL:\PETHERNET/ALARM\PCONNECTION \PPORT
 73
     1
 44
1.0
1001
ACAD
1000
MTEXTBEGIN
1070
    73
1070
     1
1070
    44
1040
1.0
1070
    74
1070
     0
1000
MTEXTEND
  0
SOLID
  5
22AB
330
1C81
100
AcDbEntity
  8
DIMENSION
 62
     0
100
AcDbTrace
 10
22.85717043761607
 20
40.4458330602306
 30
0.0
 11
22.88233239142551
 21
40.19710253118262
 31
0.0
 12
22.12355982737682
 22
40.2459819342783
 32
0.0
 13
22.12355982737682
 23
40.2459819342783
 33
0.0
  0
LINE
  5
22AC
330
1C81
100
AcDbEntity
  8
DIMENSION
 62
     0
370
    -2
100
AcDbLine
 10
21.41173350475688
 20
40.1830770497547
 30
0.0
 11
21.59173350475688
 21
40.18307704975471
 31
0.0
  0
LINE
  5
22AD
330
1C81
100
AcDbEntity
  8
DIMENSION
 62
     0
370
    -2
100
AcDbLine
 10
21.50173350475688
 20
40.09307704975471
 30
0.0
 11
21.50173350475688
 21
40.27307704975472
 31
0.0
  0
POINT
  5
22AE
330
1C81
100
AcDbEntity
  8
DEFPOINTS
 62
     0
100
AcDbPoint
 10
22.12355982737682
 20
40.2459819342783
 30
0.0
  0
POINT
  5
22AF
330
1C81
100
AcDbEntity
  8
DEFPOINTS
 62
     0
100
AcDbPoint
 10
20.87990718213693
 20
40.12017216523112
 30
0.0
  0
ENDBLK
  5
1C8A
330
1C81
100
AcDbEntity
  8
0
100
AcDbBlockEnd
  0
BLOCK
  5
1C91
330
1C8B
100
AcDbEntity
  8
0
100
AcDbBlockBegin
  2
*D51
 70
     1
 10
0.0
 20
0.0
 30
0.0
  3
*D51
  1

  0
LINE
  5
1F2A
330
1C8B
100
AcDbEntity
  8
DIMENSION
 62
     0
370
    -2
100
AcDbLine
 10
21.50173350475694
 20
39.80807704975466
 30
0.0
 11
21.50173350475691
 21
31.5135454539756
 31
0.0
  0
MTEXT
  5
1F2B
330
1C8B
100
AcDbEntity
  8
DIMENSION
 62
     0
370
     9
100
AcDbMText
 10
21.50173350475691
 20
29.57604545397561
 30
0.0
 40
0.75
 41
0.0
 71
     5
 72
     1
  1
\A1;10.138
 11
0.0000000000000001
 21
1.0
 31
0.0
 73
     1
 44
1.0
1001
ACAD
1000
MTEXTBEGIN
1070
    73
1070
     1
1070
    44
1040
1.0
1070
    74
1070
     0
1000
MTEXTEND
  0
POINT
  5
1F2C
330
1C8B
100
AcDbEntity
  8
DEFPOINTS
 62
     0
100
AcDbPoint
 10
21.50173350475694
 20
40.18307704975465
 30
0.0
  0
POINT
  5
1F2D
330
1C8B
100
AcDbEntity
  8
DEFPOINTS
 62
     0
100
AcDbPoint
 10
21.50173350475691
 20
31.5135454539756
 30
0.0
  0
POINT
  5
1F2E
330
1C8B
100
AcDbEntity
  8
DEFPOINTS
 62
     0
100
AcDbPoint
 10
11.36419742228949
 20
34.52462218983735
 30
0.0
  0
ENDBLK
  5
1C92
330
1C8B
100
AcDbEntity
  8
0
100
AcDbBlockEnd
  0
BLOCK
  5
1C9B
330
1C93
100
AcDbEntity
  8
0
100
AcDbBlockBegin
  2
*D52
 70
     1
 10
0.0
 20
0.0
 30
0.0
  3
*D52
  1

  0
LINE
  5
1F5A
330
1C93
100
AcDbEntity
  8
DIMENSION
 62
     0
370
    -2
100
AcDbLine
 10
21.12673350475694
 20
40.18307704975465
 30
0.0
 11
11.40439098320425
 21
40.18307704975465
 31
0.0
  0
LINE
  5
1F5B
330
1C93
100
AcDbEntity
  8
DIMENSION
 62
     0
370
    -2
100
AcDbLine
 10
11.40439098320425
 20
40.18307704975465
 30
0.0
 11
9.904390983204251
 21
40.51530235626409
 31
0.0
  0
LINE
  5
1F5C
330
1C93
100
AcDbEntity
  8
DIMENSION
 62
     0
370
    -2
100
AcDbLine
 10
9.904390983204251
 20
40.51530235626409
 30
0.0
 11
8.404390983204251
 21
40.51530235626409
 31
0.0
  0
MTEXT
  5
1F5D
330
1C93
100
AcDbEntity
  8
DIMENSION
 62
     0
370
     9
100
AcDbMText
 10
6.529390983204251
 20
40.51530235626409
 30
0.0
 40
0.75
 41
0.0
 71
     5
 72
     1
  1
\A1;5.658
 73
     1
 44
1.0
1001
ACAD
1000
MTEXTBEGIN
1070
    73
1070
     1
1070
    44
1040
1.0
1070
    74
1070
     0
1000
MTEXTEND
  0
POINT
  5
1F5E
330
1C93
100
AcDbEntity
  8
DEFPOINTS
 62
     0
100
AcDbPoint
 10
21.50173350475694
 20
40.18307704975465
 30
0.0
  0
POINT
  5
1F5F
330
1C93
100
AcDbEntity
  8
DEFPOINTS
 62
     0
100
AcDbPoint
 10
8.404390983204251
 20
40.51530235626409
 30
0.0
  0
POINT
  5
1F60
330
1C93
100
AcDbEntity
  8
DEFPOINTS
 62
     0
100
AcDbPoint
 10
11.36419742228949
 20
34.52462218983735
 30
0.0
  0
ENDBLK
  5
1C9C
330
1C93
100
AcDbEntity
  8
0
100
AcDbBlockEnd
  0
BLOCK
  5
1CA3
330
1C9D
100
AcDbEntity
  8
0
100
AcDbBlockBegin
  2
*D53
 70
     1
 10
0.0
 20
0.0
 30
0.0
  3
*D53
  1

  0
LINE
  5
1F7C
330
1C9D
100
AcDbEntity
  8
DIMENSION
 62
     0
370
    -2
100
AcDbLine
 10
12.19173350475699
 20
46.58657704975471
 30
0.0
 11
12.19173350475699
 21
49.61943056947253
 31
0.0
  0
MTEXT
  5
1F7D
330
1C9D
100
AcDbEntity
  8
DIMENSION
 62
     0
370
     9
100
AcDbMText
 10
12.19173350475698
 20
51.43193056947254
 30
0.0
 40
0.75
 41
0.0
 71
     5
 72
     1
  1
\A1;0.827
 11
0.0000000000000001
 21
1.0
 31
0.0
 73
     1
 44
1.0
1001
ACAD
1000
MTEXTBEGIN
1070
    73
1070
     1
1070
    44
1040
1.0
1070
    74
1070
     0
1000
MTEXTEND
  0
POINT
  5
1F7E
330
1C9D
100
AcDbEntity
  8
DEFPOINTS
 62
     0
100
AcDbPoint
 10
12.19173350475699
 20
46.21157704975471
 30
0.0
  0
POINT
  5
1F7F
330
1C9D
100
AcDbEntity
  8
DEFPOINTS
 62
     0
100
AcDbPoint
 10
12.19173350475699
 20
49.61943056947253
 30
0.0
  0
POINT
  5
1F80
330
1C9D
100
AcDbEntity
  8
DEFPOINTS
 62
     0
100
AcDbPoint
 10
11.36423350475701
 20
34.52457704975459
 30
0.0
  0
ENDBLK
  5
1CA4
330
1C9D
100
AcDbEntity
  8
0
100
AcDbBlockEnd
  0
BLOCK
  5
1CAB
330
1CA5
100
AcDbEntity
  8
0
100
AcDbBlockBegin
  2
*D54
 70
     1
 10
0.0
 20
0.0
 30
0.0
  3
*D54
  1

  0
LINE
  5
1F77
330
1CA5
100
AcDbEntity
  8
DIMENSION
 62
     0
370
    -2
100
AcDbLine
 10
25.76923350475698
 20
48.16457704975475
 30
0.0
 11
25.76923350475698
 21
49.77772369919285
 31
0.0
  0
MTEXT
  5
1F78
330
1CA5
100
AcDbEntity
  8
DIMENSION
 62
     0
370
     9
100
AcDbMText
 10
25.76923350475697
 20
51.84022369919285
 30
0.0
 40
0.75
 41
0.0
 71
     5
 72
     1
  1
\A1;14.405
 11
0.0000000000000001
 21
1.0
 31
0.0
 73
     1
 44
1.0
1001
ACAD
1000
MTEXTBEGIN
1070
    73
1070
     1
1070
    44
1040
1.0
1070
    74
1070
     0
1000
MTEXTEND
  0
POINT
  5
1F79
330
1CA5
100
AcDbEntity
  8
DEFPOINTS
 62
     0
100
AcDbPoint
 10
25.76923350475698
 20
47.78957704975475
 30
0.0
  0
POINT
  5
1F7A
330
1CA5
100
AcDbEntity
  8
DEFPOINTS
 62
     0
100
AcDbPoint
 10
25.76923350475698
 20
49.77772369919285
 30
0.0
  0
POINT
  5
1F7B
330
1CA5
100
AcDbEntity
  8
DEFPOINTS
 62
     0
100
AcDbPoint
 10
11.36419742228955
 20
34.52457704975456
 30
0.0
  0
ENDBLK
  5
1CAC
330
1CA5
100
AcDbEntity
  8
0
100
AcDbBlockEnd
  0
BLOCK
  5
1CB5
330
1CAD
100
AcDbEntity
  8
0
100
AcDbBlockBegin
  2
*D55
 70
     1
 10
0.0
 20
0.0
 30
0.0
  3
*D55
  1

  0
LINE
  5
1F70
330
1CAD
100
AcDbEntity
  8
DIMENSION
 62
     0
370
    -2
100
AcDbLine
 10
24.941733504757
 20
46.58657704975471
 30
0.0
 11
24.941733504757
 21
47.71157704975471
 31
0.0
  0
LINE
  5
1F71
330
1CAD
100
AcDbEntity
  8
DIMENSION
 62
     0
370
    -2
100
AcDbLine
 10
24.941733504757
 20
47.71157704975471
 30
0.0
 11
23.37241772648486
 21
48.27772369919284
 31
0.0
  0
LINE
  5
1F72
330
1CAD
100
AcDbEntity
  8
DIMENSION
 62
     0
370
    -2
100
AcDbLine
 10
23.37241772648486
 20
48.27772369919284
 30
0.0
 11
23.37241772648486
 21
49.77772369919285
 31
0.0
  0
MTEXT
  5
1F73
330
1CAD
100
AcDbEntity
  8
DIMENSION
 62
     0
370
     9
100
AcDbMText
 10
23.37241772648486
 20
51.90272369919284
 30
0.0
 40
0.75
 41
0.0
 71
     5
 72
     1
  1
\A1;13.578
 11
0.0000000000000001
 21
1.0
 31
0.0
 73
     1
 44
1.0
1001
ACAD
1000
MTEXTBEGIN
1070
    73
1070
     1
1070
    44
1040
1.0
1070
    74
1070
     0
1000
MTEXTEND
  0
POINT
  5
1F74
330
1CAD
100
AcDbEntity
  8
DEFPOINTS
 62
     0
100
AcDbPoint
 10
24.941733504757
 20
46.21157704975471
 30
0.0
  0
POINT
  5
1F75
330
1CAD
100
AcDbEntity
  8
DEFPOINTS
 62
     0
100
AcDbPoint
 10
23.37241772648486
 20
49.77772369919285
 30
0.0
  0
POINT
  5
1F76
330
1CAD
100
AcDbEntity
  8
DEFPOINTS
 62
     0
100
AcDbPoint
 10
11.36419742228955
 20
34.52457704975456
 30
0.0
  0
ENDBLK
  5
1CB6
330
1CAD
100
AcDbEntity
  8
0
100
AcDbBlockEnd
  0
BLOCK
  5
1CBF
330
1CB7
100
AcDbEntity
  8
0
100
AcDbBlockBegin
  2
*D56
 70
     1
 10
0.0
 20
0.0
 30
0.0
  3
*D56
  1

  0
LINE
  5
1EF9
330
1CB7
100
AcDbEntity
  8
DIMENSION
 62
     0
370
    -2
100
AcDbLine
 10
25.316733504757
 20
46.21157704975471
 30
0.0
 11
26.441733504757
 21
46.21157704975471
 31
0.0
  0
LINE
  5
1EFA
330
1CB7
100
AcDbEntity
  8
DIMENSION
 62
     0
370
    -2
100
AcDbLine
 10
26.441733504757
 20
46.21157704975471
 30
0.0
 11
27.21373862993687
 21
45.45292186204188
 31
0.0
  0
LINE
  5
1EFB
330
1CB7
100
AcDbEntity
  8
DIMENSION
 62
     0
370
    -2
100
AcDbLine
 10
27.21373862993687
 20
45.45292186204188
 30
0.0
 11
28.71373862993687
 21
45.45292186204188
 31
0.0
  0
MTEXT
  5
1EFC
330
1CB7
100
AcDbEntity
  8
DIMENSION
 62
     0
370
     9
100
AcDbMText
 10
30.71373862993687
 20
45.45292186204188
 30
0.0
 40
0.75
 41
0.0
 71
     5
 72
     1
  1
\A1;11.687
 73
     1
 44
1.0
1001
ACAD
1000
MTEXTBEGIN
1070
    73
1070
     1
1070
    44
1040
1.0
1070
    74
1070
     0
1000
MTEXTEND
  0
POINT
  5
1EFD
330
1CB7
100
AcDbEntity
  8
DEFPOINTS
 62
     0
100
AcDbPoint
 10
24.941733504757
 20
46.21157704975471
 30
0.0
  0
POINT
  5
1EFE
330
1CB7
100
AcDbEntity
  8
DEFPOINTS
 62
     0
100
AcDbPoint
 10
28.71373862993687
 20
45.45292186204188
 30
0.0
  0
POINT
  5
1EFF
330
1CB7
100
AcDbEntity
  8
DEFPOINTS
 62
     0
100
AcDbPoint
 10
11.36419742228955
 20
34.52457704975456
 30
0.0
  0
ENDBLK
  5
1CC0
330
1CB7
100
AcDbEntity
  8
0
100
AcDbBlockEnd
  0
BLOCK
  5
1CC9
330
1CC1
100
AcDbEntity
  8
0
100
AcDbBlockBegin
  2
*D57
 70
     1
 10
0.0
 20
0.0
 30
0.0
  3
*D57
  1

  0
LINE
  5
1EF2
330
1CC1
100
AcDbEntity
  8
DIMENSION
 62
     0
370
    -2
100
AcDbLine
 10
26.14423350475698
 20
47.78957704975475
 30
0.0
 11
26.76923350475698
 21
47.78957704975475
 31
0.0
  0
LINE
  5
1EF3
330
1CC1
100
AcDbEntity
  8
DIMENSION
 62
     0
370
    -2
100
AcDbLine
 10
26.76923350475698
 20
47.78957704975475
 30
0.0
 11
27.71373862993687
 21
48.9416013495288
 31
0.0
  0
LINE
  5
1EF4
330
1CC1
100
AcDbEntity
  8
DIMENSION
 62
     0
370
    -2
100
AcDbLine
 10
27.71373862993687
 20
48.9416013495288
 30
0.0
 11
28.71373862993687
 21
48.9416013495288
 31
0.0
  0
MTEXT
  5
1EF5
330
1CC1
100
AcDbEntity
  8
DIMENSION
 62
     0
370
     9
100
AcDbMText
 10
30.83873862993687
 20
48.9416013495288
 30
0.0
 40
0.75
 41
0.0
 71
     5
 72
     1
  1
\A1;13.265
 73
     1
 44
1.0
1001
ACAD
1000
MTEXTBEGIN
1070
    73
1070
     1
1070
    44
1040
1.0
1070
    74
1070
     0
1000
MTEXTEND
  0
POINT
  5
1EF6
330
1CC1
100
AcDbEntity
  8
DEFPOINTS
 62
     0
100
AcDbPoint
 10
25.76923350475698
 20
47.78957704975475
 30
0.0
  0
POINT
  5
1EF7
330
1CC1
100
AcDbEntity
  8
DEFPOINTS
 62
     0
100
AcDbPoint
 10
28.71373862993687
 20
48.9416013495288
 30
0.0
  0
POINT
  5
1EF8
330
1CC1
100
AcDbEntity
  8
DEFPOINTS
 62
     0
100
AcDbPoint
 10
11.36419742228955
 20
34.52457704975456
 30
0.0
  0
ENDBLK
  5
1CCA
330
1CC1
100
AcDbEntity
  8
0
100
AcDbBlockEnd
  0
BLOCK
  5
1CD3
330
1CCB
100
AcDbEntity
  8
0
100
AcDbBlockBegin
  2
*D58
 70
     1
 10
0.0
 20
0.0
 30
0.0
  3
*D58
  1

  0
LINE
  5
1F53
330
1CCB
100
AcDbEntity
  8
DIMENSION
 62
     0
370
    -2
100
AcDbLine
 10
18.626733504757
 20
37.93307704975471
 30
0.0
 11
11.40439098320441
 21
37.93307704975471
 31
0.0
  0
LINE
  5
1F54
330
1CCB
100
AcDbEntity
  8
DIMENSION
 62
     0
370
    -2
100
AcDbLine
 10
11.40439098320441
 20
37.93307704975471
 30
0.0
 11
9.904390983204407
 21
37.91936089808228
 31
0.0
  0
LINE
  5
1F55
330
1CCB
100
AcDbEntity
  8
DIMENSION
 62
     0
370
    -2
100
AcDbLine
 10
9.904390983204407
 20
37.91936089808228
 30
0.0
 11
8.404390983204407
 21
37.91936089808228
 31
0.0
  0
MTEXT
  5
1F56
330
1CCB
100
AcDbEntity
  8
DIMENSION
 62
     0
370
     9
100
AcDbMText
 10
6.591890983204407
 20
37.91936089808228
 30
0.0
 40
0.75
 41
0.0
 71
     5
 72
     1
  1
\A1;3.409
 73
     1
 44
1.0
1001
ACAD
1000
MTEXTBEGIN
1070
    73
1070
     1
1070
    44
1040
1.0
1070
    74
1070
     0
1000
MTEXTEND
  0
POINT
  5
1F57
330
1CCB
100
AcDbEntity
  8
DEFPOINTS
 62
     0
100
AcDbPoint
 10
19.001733504757
 20
37.93307704975471
 30
0.0
  0
POINT
  5
1F58
330
1CCB
100
AcDbEntity
  8
DEFPOINTS
 62
     0
100
AcDbPoint
 10
8.404390983204407
 20
37.91936089808228
 30
0.0
  0
POINT
  5
1F59
330
1CCB
100
AcDbEntity
  8
DEFPOINTS
 62
     0
100
AcDbPoint
 10
11.36419742228955
 20
34.52457704975456
 30
0.0
  0
ENDBLK
  5
1CD4
330
1CCB
100
AcDbEntity
  8
0
100
AcDbBlockEnd
  0
BLOCK
  5
1CDB
330
1CD5
100
AcDbEntity
  8
0
100
AcDbBlockBegin
  2
*D59
 70
     1
 10
0.0
 20
0.0
 30
0.0
  3
*D59
  1

  0
LINE
  5
1F6B
330
1CD5
100
AcDbEntity
  8
DIMENSION
 62
     0
370
    -2
100
AcDbLine
 10
19.08123350475696
 20
47.71187704975461
 30
0.0
 11
19.08123350475696
 21
49.77772369919285
 31
0.0
  0
MTEXT
  5
1F6C
330
1CD5
100
AcDbEntity
  8
DIMENSION
 62
     0
370
     9
100
AcDbMText
 10
19.08123350475695
 20
51.52772369919285
 30
0.0
 40
0.75
 41
0.0
 71
     5
 72
     1
  1
\A1;7.717
 11
0.0000000000000001
 21
1.0
 31
0.0
 73
     1
 44
1.0
1001
ACAD
1000
MTEXTBEGIN
1070
    73
1070
     1
1070
    44
1040
1.0
1070
    74
1070
     0
1000
MTEXTEND
  0
POINT
  5
1F6D
330
1CD5
100
AcDbEntity
  8
DEFPOINTS
 62
     0
100
AcDbPoint
 10
19.08123350475696
 20
47.33687704975461
 30
0.0
  0
POINT
  5
1F6E
330
1CD5
100
AcDbEntity
  8
DEFPOINTS
 62
     0
100
AcDbPoint
 10
19.08123350475696
 20
49.77772369919285
 30
0.0
  0
POINT
  5
1F6F
330
1CD5
100
AcDbEntity
  8
DEFPOINTS
 62
     0
100
AcDbPoint
 10
11.36423350475701
 20
34.52457704975459
 30
0.0
  0
ENDBLK
  5
1CDC
330
1CD5
100
AcDbEntity
  8
0
100
AcDbBlockEnd
  0
BLOCK
  5
1CE3
330
1CDD
100
AcDbEntity
  8
0
100
AcDbBlockBegin
  2
*D60
 70
     1
 10
0.0
 20
0.0
 30
0.0
  3
*D60
  1

  0
LINE
  5
1F66
330
1CDD
100
AcDbEntity
  8
DIMENSION
 62
     0
370
    -2
100
AcDbLine
 10
14.39373350475699
 20
47.7118770497548
 30
0.0
 11
14.39373350475699
 21
49.61943056947253
 31
0.0
  0
MTEXT
  5
1F67
330
1CDD
100
AcDbEntity
  8
DIMENSION
 62
     0
370
     9
100
AcDbMText
 10
14.39373350475698
 20
51.43193056947254
 30
0.0
 40
0.75
 41
0.0
 71
     5
 72
     1
  1
\A1;3.029
 11
0.0000000000000001
 21
1.0
 31
0.0
 73
     1
 44
1.0
1001
ACAD
1000
MTEXTBEGIN
1070
    73
1070
     1
1070
    44
1040
1.0
1070
    74
1070
     0
1000
MTEXTEND
  0
POINT
  5
1F68
330
1CDD
100
AcDbEntity
  8
DEFPOINTS
 62
     0
100
AcDbPoint
 10
14.39373350475699
 20
47.33687704975481
 30
0.0
  0
POINT
  5
1F69
330
1CDD
100
AcDbEntity
  8
DEFPOINTS
 62
     0
100
AcDbPoint
 10
14.39373350475699
 20
49.61943056947253
 30
0.0
  0
POINT
  5
1F6A
330
1CDD
100
AcDbEntity
  8
DEFPOINTS
 62
     0
100
AcDbPoint
 10
11.36423350475701
 20
34.52457704975459
 30
0.0
  0
ENDBLK
  5
1CE4
330
1CDD
100
AcDbEntity
  8
0
100
AcDbBlockEnd
  0
BLOCK
  5
1CEB
330
1CE5
100
AcDbEntity
  8
0
100
AcDbBlockBegin
  2
*D61
 70
     1
 10
0.0
 20
0.0
 30
0.0
  3
*D61
  1

  0
LINE
  5
1F4E
330
1CE5
100
AcDbEntity
  8
DIMENSION
 62
     0
370
    -2
100
AcDbLine
 10
10.98923350475701
 20
34.52457704975459
 30
0.0
 11
8.38897615143594
 21
34.52457704975459
 31
0.0
  0
MTEXT
  5
1F4F
330
1CE5
100
AcDbEntity
  8
DIMENSION
 62
     0
370
     9
100
AcDbMText
 10
6.76397615143594
 20
34.52457704975459
 30
0.0
 40
0.75
 41
0.0
 71
     5
 72
     1
  1
\A1;0.000
 73
     1
 44
1.0
1001
ACAD
1000
MTEXTBEGIN
1070
    73
1070
     1
1070
    44
1040
1.0
1070
    74
1070
     0
1000
MTEXTEND
  0
POINT
  5
1F50
330
1CE5
100
AcDbEntity
  8
DEFPOINTS
 62
     0
100
AcDbPoint
 10
11.36423350475701
 20
34.52457704975459
 30
0.0
  0
POINT
  5
1F51
330
1CE5
100
AcDbEntity
  8
DEFPOINTS
 62
     0
100
AcDbPoint
 10
8.38897615143594
 20
34.52457704975459
 30
0.0
  0
POINT
  5
1F52
330
1CE5
100
AcDbEntity
  8
DEFPOINTS
 62
     0
100
AcDbPoint
 10
11.36419742228949
 20
34.52462218983735
 30
0.0
  0
ENDBLK
  5
1CEC
330
1CE5
100
AcDbEntity
  8
0
100
AcDbBlockEnd
  0
BLOCK
  5
1CF3
330
1CED
100
AcDbEntity
  8
0
100
AcDbBlockBegin
  2
*D62
 70
     1
 10
0.0
 20
0.0
 30
0.0
  3
*D62
  1

  0
LINE
  5
1F25
330
1CED
100
AcDbEntity
  8
DIMENSION
 62
     0
370
    -2
100
AcDbLine
 10
11.36423350475701
 20
34.14957704975459
 30
0.0
 11
11.36423350475701
 21
31.55366791167891
 31
0.0
  0
MTEXT
  5
1F26
330
1CED
100
AcDbEntity
  8
DIMENSION
 62
     0
370
     9
100
AcDbMText
 10
11.364233504757
 20
29.92866791167891
 30
0.0
 40
0.75
 41
0.0
 71
     5
 72
     1
  1
\A1;0.000
 11
0.0000000000000001
 21
1.0
 31
0.0
 73
     1
 44
1.0
1001
ACAD
1000
MTEXTBEGIN
1070
    73
1070
     1
1070
    44
1040
1.0
1070
    74
1070
     0
1000
MTEXTEND
  0
POINT
  5
1F27
330
1CED
100
AcDbEntity
  8
DEFPOINTS
 62
     0
100
AcDbPoint
 10
11.36423350475701
 20
34.52457704975459
 30
0.0
  0
POINT
  5
1F28
330
1CED
100
AcDbEntity
  8
DEFPOINTS
 62
     0
100
AcDbPoint
 10
11.36423350475701
 20
31.55366791167891
 30
0.0
  0
POINT
  5
1F29
330
1CED
100
AcDbEntity
  8
DEFPOINTS
 62
     0
100
AcDbPoint
 10
11.36419742228949
 20
34.52462218983735
 30
0.0
  0
ENDBLK
  5
1CF4
330
1CED
100
AcDbEntity
  8
0
100
AcDbBlockEnd
  0
BLOCK
  5
1CFB
330
1CF5
100
AcDbEntity
  8
0
100
AcDbBlockBegin
  2
*D63
 70
     1
 10
0.0
 20
0.0
 30
0.0
  3
*D63
  1

  0
LINE
  5
1F49
330
1CF5
100
AcDbEntity
  8
DIMENSION
 62
     0
370
    -2
100
AcDbLine
 10
13.31673350475699
 20
36.52457704975472
 30
0.0
 11
8.40439098320428
 21
36.52457704975472
 31
0.0
  0
MTEXT
  5
1F4A
330
1CF5
100
AcDbEntity
  8
DIMENSION
 62
     0
370
     9
100
AcDbMText
 10
6.71689098320428
 20
36.52457704975472
 30
0.0
 40
0.75
 41
0.0
 71
     5
 72
     1
  1
\A1;2.000
 73
     1
 44
1.0
1001
ACAD
1000
MTEXTBEGIN
1070
    73
1070
     1
1070
    44
1040
1.0
1070
    74
1070
     0
1000
MTEXTEND
  0
POINT
  5
1F4B
330
1CF5
100
AcDbEntity
  8
DEFPOINTS
 62
     0
100
AcDbPoint
 10
13.69173350475699
 20
36.52457704975472
 30
0.0
  0
POINT
  5
1F4C
330
1CF5
100
AcDbEntity
  8
DEFPOINTS
 62
     0
100
AcDbPoint
 10
8.40439098320428
 20
36.52457704975472
 30
0.0
  0
POINT
  5
1F4D
330
1CF5
100
AcDbEntity
  8
DEFPOINTS
 62
     0
100
AcDbPoint
 10
11.36419742228949
 20
34.52462218983735
 30
0.0
  0
ENDBLK
  5
1CFC
330
1CF5
100
AcDbEntity
  8
0
100
AcDbBlockEnd
  0
BLOCK
  5
1D03
330
1CFD
100
AcDbEntity
  8
0
100
AcDbBlockBegin
  2
*D64
 70
     1
 10
0.0
 20
0.0
 30
0.0
  3
*D64
  1

  0
LINE
  5
1F44
330
1CFD
100
AcDbEntity
  8
DIMENSION
 62
     0
370
    -2
100
AcDbLine
 10
11.81673350475699
 20
46.21157704975471
 30
0.0
 11
8.40439098320428
 21
46.21157704975471
 31
0.0
  0
MTEXT
  5
1F45
330
1CFD
100
AcDbEntity
  8
DIMENSION
 62
     0
370
     9
100
AcDbMText
 10
6.40439098320428
 20
46.21157704975471
 30
0.0
 40
0.75
 41
0.0
 71
     5
 72
     1
  1
\A1;11.687
 73
     1
 44
1.0
1001
ACAD
1000
MTEXTBEGIN
1070
    73
1070
     1
1070
    44
1040
1.0
1070
    74
1070
     0
1000
MTEXTEND
  0
POINT
  5
1F46
330
1CFD
100
AcDbEntity
  8
DEFPOINTS
 62
     0
100
AcDbPoint
 10
12.19173350475699
 20
46.21157704975471
 30
0.0
  0
POINT
  5
1F47
330
1CFD
100
AcDbEntity
  8
DEFPOINTS
 62
     0
100
AcDbPoint
 10
8.40439098320428
 20
46.21157704975471
 30
0.0
  0
POINT
  5
1F48
330
1CFD
100
AcDbEntity
  8
DEFPOINTS
 62
     0
100
AcDbPoint
 10
11.36419742228949
 20
34.52462218983735
 30
0.0
  0
ENDBLK
  5
1D04
330
1CFD
100
AcDbEntity
  8
0
100
AcDbBlockEnd
  0
BLOCK
  5
1D0D
330
1D05
100
AcDbEntity
  8
0
100
AcDbBlockBegin
  2
*D65
 70
     1
 10
0.0
 20
0.0
 30
0.0
  3
*D65
  1

  0
LINE
  5
1F3D
330
1D05
100
AcDbEntity
  8
DIMENSION
 62
     0
370
    -2
100
AcDbLine
 10
14.01873350475699
 20
47.33687704975481
 30
0.0
 11
11.40439098320428
 21
47.33687704975481
 31
0.0
  0
LINE
  5
1F3E
330
1D05
100
AcDbEntity
  8
DIMENSION
 62
     0
370
    -2
100
AcDbLine
 10
11.40439098320428
 20
47.33687704975481
 30
0.0
 11
9.904390983204278
 21
47.58523448602562
 31
0.0
  0
LINE
  5
1F3F
330
1D05
100
AcDbEntity
  8
DIMENSION
 62
     0
370
    -2
100
AcDbLine
 10
9.904390983204278
 20
47.58523448602562
 30
0.0
 11
8.40439098320428
 21
47.58523448602562
 31
0.0
  0
MTEXT
  5
1F40
330
1D05
100
AcDbEntity
  8
DIMENSION
 62
     0
370
     9
100
AcDbMText
 10
6.40439098320428
 20
47.58523448602562
 30
0.0
 40
0.75
 41
0.0
 71
     5
 72
     1
  1
\A1;12.812
 73
     1
 44
1.0
1001
ACAD
1000
MTEXTBEGIN
1070
    73
1070
     1
1070
    44
1040
1.0
1070
    74
1070
     0
1000
MTEXTEND
  0
POINT
  5
1F41
330
1D05
100
AcDbEntity
  8
DEFPOINTS
 62
     0
100
AcDbPoint
 10
14.39373350475699
 20
47.33687704975481
 30
0.0
  0
POINT
  5
1F42
330
1D05
100
AcDbEntity
  8
DEFPOINTS
 62
     0
100
AcDbPoint
 10
8.40439098320428
 20
47.58523448602562
 30
0.0
  0
POINT
  5
1F43
330
1D05
100
AcDbEntity
  8
DEFPOINTS
 62
     0
100
AcDbPoint
 10
11.36419742228949
 20
34.52462218983735
 30
0.0
  0
ENDBLK
  5
1D0E
330
1D05
100
AcDbEntity
  8
0
100
AcDbBlockEnd
  0
BLOCK
  5
1D17
330
1D0F
100
AcDbEntity
  8
0
100
AcDbBlockBegin
  2
*D66
 70
     1
 10
0.0
 20
0.0
 30
0.0
  3
*D66
  1

  0
LINE
  5
1F36
330
1D0F
100
AcDbEntity
  8
DIMENSION
 62
     0
370
    -2
100
AcDbLine
 10
14.01873350475688
 20
41.66157704975474
 30
0.0
 11
11.40439098320429
 21
41.66157704975474
 31
0.0
  0
LINE
  5
1F37
330
1D0F
100
AcDbEntity
  8
DIMENSION
 62
     0
370
    -2
100
AcDbLine
 10
11.40439098320429
 20
41.66157704975474
 30
0.0
 11
9.904390983204292
 21
41.68115425043246
 31
0.0
  0
LINE
  5
1F38
330
1D0F
100
AcDbEntity
  8
DIMENSION
 62
     0
370
    -2
100
AcDbLine
 10
9.904390983204292
 20
41.68115425043246
 30
0.0
 11
8.404390983204294
 21
41.68115425043246
 31
0.0
  0
MTEXT
  5
1F39
330
1D0F
100
AcDbEntity
  8
DIMENSION
 62
     0
370
     9
100
AcDbMText
 10
6.654390983204294
 20
41.68115425043246
 30
0.0
 40
0.75
 41
0.0
 71
     5
 72
     1
  1
\A1;7.137
 73
     1
 44
1.0
1001
ACAD
1000
MTEXTBEGIN
1070
    73
1070
     1
1070
    44
1040
1.0
1070
    74
1070
     0
1000
MTEXTEND
  0
POINT
  5
1F3A
330
1D0F
100
AcDbEntity
  8
DEFPOINTS
 62
     0
100
AcDbPoint
 10
14.39373350475688
 20
41.66157704975474
 30
0.0
  0
POINT
  5
1F3B
330
1D0F
100
AcDbEntity
  8
DEFPOINTS
 62
     0
100
AcDbPoint
 10
8.404390983204294
 20
41.68115425043246
 30
0.0
  0
POINT
  5
1F3C
330
1D0F
100
AcDbEntity
  8
DEFPOINTS
 62
     0
100
AcDbPoint
 10
11.36419742228949
 20
34.52462218983735
 30
0.0
  0
ENDBLK
  5
1D18
330
1D0F
100
AcDbEntity
  8
0
100
AcDbBlockEnd
  0
BLOCK
  5
1D21
330
1D19
100
AcDbEntity
  8
0
100
AcDbBlockBegin
  2
*D67
 70
     1
 10
0.0
 20
0.0
 30
0.0
  3
*D67
  1

  0
LINE
  5
1F2F
330
1D19
100
AcDbEntity
  8
DIMENSION
 62
     0
370
    -2
100
AcDbLine
 10
18.62673350475691
 20
39.43307704975487
 30
0.0
 11
11.40439098320425
 21
39.43307704975487
 31
0.0
  0
LINE
  5
1F30
330
1D19
100
AcDbEntity
  8
DIMENSION
 62
     0
370
    -2
100
AcDbLine
 10
11.40439098320425
 20
39.43307704975487
 30
0.0
 11
9.904390983204251
 21
39.45992631298788
 31
0.0
  0
LINE
  5
1F31
330
1D19
100
AcDbEntity
  8
DIMENSION
 62
     0
370
    -2
100
AcDbLine
 10
9.904390983204251
 20
39.45992631298788
 30
0.0
 11
8.404390983204251
 21
39.45992631298788
 31
0.0
  0
MTEXT
  5
1F32
330
1D19
100
AcDbEntity
  8
DIMENSION
 62
     0
370
     9
100
AcDbMText
 10
6.591890983204251
 20
39.45992631298788
 30
0.0
 40
0.75
 41
0.0
 71
     5
 72
     1
  1
\A1;4.908
 73
     1
 44
1.0
1001
ACAD
1000
MTEXTBEGIN
1070
    73
1070
     1
1070
    44
1040
1.0
1070
    74
1070
     0
1000
MTEXTEND
  0
POINT
  5
1F33
330
1D19
100
AcDbEntity
  8
DEFPOINTS
 62
     0
100
AcDbPoint
 10
19.00173350475691
 20
39.43307704975487
 30
0.0
  0
POINT
  5
1F34
330
1D19
100
AcDbEntity
  8
DEFPOINTS
 62
     0
100
AcDbPoint
 10
8.404390983204251
 20
39.45992631298788
 30
0.0
  0
POINT
  5
1F35
330
1D19
100
AcDbEntity
  8
DEFPOINTS
 62
     0
100
AcDbPoint
 10
11.36419742228949
 20
34.52462218983735
 30
0.0
  0
ENDBLK
  5
1D22
330
1D19
100
AcDbEntity
  8
0
100
AcDbBlockEnd
  0
BLOCK
  5
1D29
330
1D23
100
AcDbEntity
  8
0
100
AcDbBlockBegin
  2
*D68
 70
     1
 10
0.0
 20
0.0
 30
0.0
  3
*D68
  1

  0
LINE
  5
1F20
330
1D23
100
AcDbEntity
  8
DIMENSION
 62
     0
370
    -2
100
AcDbLine
 10
13.69173350475699
 20
36.14957704975472
 30
0.0
 11
13.69173350475699
 21
31.5135454539756
 31
0.0
  0
MTEXT
  5
1F21
330
1D23
100
AcDbEntity
  8
DIMENSION
 62
     0
370
     9
100
AcDbMText
 10
13.69173350475698
 20
29.63854545397561
 30
0.0
 40
0.75
 41
0.0
 71
     5
 72
     1
  1
\A1;2.328
 11
0.0000000000000001
 21
1.0
 31
0.0
 73
     1
 44
1.0
1001
ACAD
1000
MTEXTBEGIN
1070
    73
1070
     1
1070
    44
1040
1.0
1070
    74
1070
     0
1000
MTEXTEND
  0
POINT
  5
1F22
330
1D23
100
AcDbEntity
  8
DEFPOINTS
 62
     0
100
AcDbPoint
 10
13.69173350475699
 20
36.52457704975472
 30
0.0
  0
POINT
  5
1F23
330
1D23
100
AcDbEntity
  8
DEFPOINTS
 62
     0
100
AcDbPoint
 10
13.69173350475699
 20
31.5135454539756
 30
0.0
  0
POINT
  5
1F24
330
1D23
100
AcDbEntity
  8
DEFPOINTS
 62
     0
100
AcDbPoint
 10
11.36419742228949
 20
34.52462218983735
 30
0.0
  0
ENDBLK
  5
1D2A
330
1D23
100
AcDbEntity
  8
0
100
AcDbBlockEnd
  0
BLOCK
  5
1D33
330
1D2B
100
AcDbEntity
  8
0
100
AcDbBlockBegin
  2
*D69
 70
     1
 10
0.0
 20
0.0
 30
0.0
  3
*D69
  1

  0
LINE
  5
1F19
330
1D2B
100
AcDbEntity
  8
DIMENSION
 62
     0
370
    -2
100
AcDbLine
 10
19.001733504757
 20
37.55807704975471
 30
0.0
 11
19.001733504757
 21
34.5135454539756
 31
0.0
  0
LINE
  5
1F1A
330
1D2B
100
AcDbEntity
  8
DIMENSION
 62
     0
370
    -2
100
AcDbLine
 10
19.001733504757
 20
34.5135454539756
 30
0.0
 11
18.34198138029472
 21
33.0135454539756
 31
0.0
  0
LINE
  5
1F1B
330
1D2B
100
AcDbEntity
  8
DIMENSION
 62
     0
370
    -2
100
AcDbLine
 10
18.34198138029472
 20
33.0135454539756
 30
0.0
 11
18.34198138029472
 21
31.5135454539756
 31
0.0
  0
MTEXT
  5
1F1C
330
1D2B
100
AcDbEntity
  8
DIMENSION
 62
     0
370
     9
100
AcDbMText
 10
18.34198138029471
 20
29.63854545397561
 30
0.0
 40
0.75
 41
0.0
 71
     5
 72
     1
  1
\A1;7.638
 11
0.0000000000000001
 21
1.0
 31
0.0
 73
     1
 44
1.0
1001
ACAD
1000
MTEXTBEGIN
1070
    73
1070
     1
1070
    44
1040
1.0
1070
    74
1070
     0
1000
MTEXTEND
  0
POINT
  5
1F1D
330
1D2B
100
AcDbEntity
  8
DEFPOINTS
 62
     0
100
AcDbPoint
 10
19.001733504757
 20
37.93307704975471
 30
0.0
  0
POINT
  5
1F1E
330
1D2B
100
AcDbEntity
  8
DEFPOINTS
 62
     0
100
AcDbPoint
 10
18.34198138029472
 20
31.5135454539756
 30
0.0
  0
POINT
  5
1F1F
330
1D2B
100
AcDbEntity
  8
DEFPOINTS
 62
     0
100
AcDbPoint
 10
11.36419742228949
 20
34.52462218983735
 30
0.0
  0
ENDBLK
  5
1D34
330
1D2B
100
AcDbEntity
  8
0
100
AcDbBlockEnd
  0
BLOCK
  5
1D3B
330
1D35
100
AcDbEntity
  8
0
100
AcDbBlockBegin
  2
*D70
 70
     1
 10
0.0
 20
0.0
 30
0.0
  3
*D70
  1

  0
LINE
  5
1F14
330
1D35
100
AcDbEntity
  8
DIMENSION
 62
     0
370
    -2
100
AcDbLine
 10
23.441733504757
 20
36.14957704975472
 30
0.0
 11
23.441733504757
 21
31.45173156275421
 31
0.0
  0
MTEXT
  5
1F15
330
1D35
100
AcDbEntity
  8
DIMENSION
 62
     0
370
     9
100
AcDbMText
 10
23.441733504757
 20
29.38923156275422
 30
0.0
 40
0.75
 41
0.0
 71
     5
 72
     1
  1
\A1;12.078
 11
0.0000000000000001
 21
1.0
 31
0.0
 73
     1
 44
1.0
1001
ACAD
1000
MTEXTBEGIN
1070
    73
1070
     1
1070
    44
1040
1.0
1070
    74
1070
     0
1000
MTEXTEND
  0
POINT
  5
1F16
330
1D35
100
AcDbEntity
  8
DEFPOINTS
 62
     0
100
AcDbPoint
 10
23.441733504757
 20
36.52457704975472
 30
0.0
  0
POINT
  5
1F17
330
1D35
100
AcDbEntity
  8
DEFPOINTS
 62
     0
100
AcDbPoint
 10
23.441733504757
 20
31.45173156275421
 30
0.0
  0
POINT
  5
1F18
330
1D35
100
AcDbEntity
  8
DEFPOINTS
 62
     0
100
AcDbPoint
 10
11.36419742228949
 20
34.52462218983735
 30
0.0
  0
ENDBLK
  5
1D3C
330
1D35
100
AcDbEntity
  8
0
100
AcDbBlockEnd
  0
BLOCK
  5
1D45
330
1D3D
100
AcDbEntity
  8
0
100
AcDbBlockBegin
  2
*D71
 70
     1
 10
0.0
 20
0.0
 30
0.0
  3
*D71
  1

  0
LINE
  5
1F61
330
1D3D
100
AcDbEntity
  8
DIMENSION
 62
     0
370
    -2
100
AcDbLine
 10
20.25473350475682
 20
47.71187704975459
 30
0.0
 11
20.25473350475691
 21
49.77772369919285
 31
0.0
  0
MTEXT
  5
1F62
330
1D3D
100
AcDbEntity
  8
DIMENSION
 62
     0
370
     9
100
AcDbMText
 10
20.2547335047569
 20
51.52772369919285
 30
0.0
 40
0.75
 41
0.0
 71
     5
 72
     1
  1
\A1;8.891
 11
0.0000000000000001
 21
1.0
 31
0.0
 73
     1
 44
1.0
1001
ACAD
1000
MTEXTBEGIN
1070
    73
1070
     1
1070
    44
1040
1.0
1070
    74
1070
     0
1000
MTEXTEND
  0
POINT
  5
1F63
330
1D3D
100
AcDbEntity
  8
DEFPOINTS
 62
     0
100
AcDbPoint
 10
20.25473350475682
 20
47.33687704975459
 30
0.0
  0
POINT
  5
1F64
330
1D3D
100
AcDbEntity
  8
DEFPOINTS
 62
     0
100
AcDbPoint
 10
20.25473350475691
 20
49.77772369919285
 30
0.0
  0
POINT
  5
1F65
330
1D3D
100
AcDbEntity
  8
DEFPOINTS
 62
     0
100
AcDbPoint
 10
11.36419742228949
 20
34.52462218983735
 30
0.0
  0
ENDBLK
  5
1D46
330
1D3D
100
AcDbEntity
  8
0
100
AcDbBlockEnd
  0
BLOCK
  5
1D4D
330
1D47
100
AcDbEntity
  8
0
100
AcDbBlockBegin
  2
*D72
 70
     1
 10
0.0
 20
0.0
 30
0.0
  3
*D72
  1

  0
LINE
  5
1F0F
330
1D47
100
AcDbEntity
  8
DIMENSION
 62
     0
370
    -2
100
AcDbLine
 10
25.00473350475699
 20
41.89957704975486
 30
0.0
 11
25.00473350475699
 21
31.5749878584194
 31
0.0
  0
MTEXT
  5
1F10
330
1D47
100
AcDbEntity
  8
DIMENSION
 62
     0
370
     9
100
AcDbMText
 10
25.00473350475699
 20
29.57498785841941
 30
0.0
 40
0.75
 41
0.0
 71
     5
 72
     1
  1
\A1;13.641
 11
0.0000000000000001
 21
1.0
 31
0.0
 73
     1
 44
1.0
1001
ACAD
1000
MTEXTBEGIN
1070
    73
1070
     1
1070
    44
1040
1.0
1070
    74
1070
     0
1000
MTEXTEND
  0
POINT
  5
1F11
330
1D47
100
AcDbEntity
  8
DEFPOINTS
 62
     0
100
AcDbPoint
 10
25.00473350475699
 20
42.27457704975486
 30
0.0
  0
POINT
  5
1F12
330
1D47
100
AcDbEntity
  8
DEFPOINTS
 62
     0
100
AcDbPoint
 10
25.00473350475699
 20
31.5749878584194
 30
0.0
  0
POINT
  5
1F13
330
1D47
100
AcDbEntity
  8
DEFPOINTS
 62
     0
100
AcDbPoint
 10
11.36419742228949
 20
34.52462218983735
 30
0.0
  0
ENDBLK
  5
1D4E
330
1D47
100
AcDbEntity
  8
0
100
AcDbBlockEnd
  0
BLOCK
  5
1D57
330
1D4F
100
AcDbEntity
  8
0
100
AcDbBlockBegin
  2
*D73
 70
     1
 10
0.0
 20
0.0
 30
0.0
  3
*D73
  1

  0
LINE
  5
1EEB
330
1D4F
100
AcDbEntity
  8
DIMENSION
 62
     0
370
    -2
100
AcDbLine
 10
25.37973350475699
 20
42.27457704975486
 30
0.0
 11
26.50473350475699
 21
42.27457704975486
 31
0.0
  0
LINE
  5
1EEC
330
1D4F
100
AcDbEntity
  8
DIMENSION
 62
     0
370
    -2
100
AcDbLine
 10
26.50473350475699
 20
42.27457704975486
 30
0.0
 11
27.50914002656889
 21
44.37116874202375
 31
0.0
  0
LINE
  5
1EED
330
1D4F
100
AcDbEntity
  8
DIMENSION
 62
     0
370
    -2
100
AcDbLine
 10
27.50914002656889
 20
44.37116874202375
 30
0.0
 11
29.00914002656889
 21
44.37116874202375
 31
0.0
  0
MTEXT
  5
1EEE
330
1D4F
100
AcDbEntity
  8
DIMENSION
 62
     0
370
     9
100
AcDbMText
 10
30.82164002656889
 20
44.37116874202375
 30
0.0
 40
0.75
 41
0.0
 71
     5
 72
     1
  1
\A1;7.750
 73
     1
 44
1.0
1001
ACAD
1000
MTEXTBEGIN
1070
    73
1070
     1
1070
    44
1040
1.0
1070
    74
1070
     0
1000
MTEXTEND
  0
POINT
  5
1EEF
330
1D4F
100
AcDbEntity
  8
DEFPOINTS
 62
     0
100
AcDbPoint
 10
25.00473350475699
 20
42.27457704975486
 30
0.0
  0
POINT
  5
1EF0
330
1D4F
100
AcDbEntity
  8
DEFPOINTS
 62
     0
100
AcDbPoint
 10
29.00914002656889
 20
44.37116874202375
 30
0.0
  0
POINT
  5
1EF1
330
1D4F
100
AcDbEntity
  8
DEFPOINTS
 62
     0
100
AcDbPoint
 10
11.36419742228949
 20
34.52462218983735
 30
0.0
  0
ENDBLK
  5
1D58
330
1D4F
100
AcDbEntity
  8
0
100
AcDbBlockEnd
  0
BLOCK
  5
1D61
330
1D59
100
AcDbEntity
  8
0
100
AcDbBlockBegin
  2
*D74
 70
     1
 10
0.0
 20
0.0
 30
0.0
  3
*D74
  1

  0
LINE
  5
1EE4
330
1D59
100
AcDbEntity
  8
DIMENSION
 62
     0
370
    -2
100
AcDbLine
 10
25.37973350475711
 20
47.33687704975474
 30
0.0
 11
26.5047335047571
 21
47.33687704975474
 31
0.0
  0
LINE
  5
1EE5
330
1D59
100
AcDbEntity
  8
DIMENSION
 62
     0
370
    -2
100
AcDbLine
 10
26.5047335047571
 20
47.33687704975474
 30
0.0
 11
27.21373862993687
 21
47.33384937799979
 31
0.0
  0
LINE
  5
1EE6
330
1D59
100
AcDbEntity
  8
DIMENSION
 62
     0
370
    -2
100
AcDbLine
 10
27.21373862993687
 20
47.33384937799979
 30
0.0
 11
28.71373862993687
 21
47.33384937799979
 31
0.0
  0
MTEXT
  5
1EE7
330
1D59
100
AcDbEntity
  8
DIMENSION
 62
     0
370
     9
100
AcDbMText
 10
30.71373862993687
 20
47.33384937799979
 30
0.0
 40
0.75
 41
0.0
 71
     5
 72
     1
  1
\A1;12.812
 73
     1
 44
1.0
1001
ACAD
1000
MTEXTBEGIN
1070
    73
1070
     1
1070
    44
1040
1.0
1070
    74
1070
     0
1000
MTEXTEND
  0
POINT
  5
1EE8
330
1D59
100
AcDbEntity
  8
DEFPOINTS
 62
     0
100
AcDbPoint
 10
25.00473350475711
 20
47.33687704975474
 30
0.0
  0
POINT
  5
1EE9
330
1D59
100
AcDbEntity
  8
DEFPOINTS
 62
     0
100
AcDbPoint
 10
28.71373862993687
 20
47.33384937799979
 30
0.0
  0
POINT
  5
1EEA
330
1D59
100
AcDbEntity
  8
DEFPOINTS
 62
     0
100
AcDbPoint
 10
11.36419742228949
 20
34.52462218983735
 30
0.0
  0
ENDBLK
  5
1D62
330
1D59
100
AcDbEntity
  8
0
100
AcDbBlockEnd
  0
BLOCK
  5
1F9E
330
1F9D
100
AcDbEntity
  8
0
100
AcDbBlockBegin
  2
*D75
 70
     1
 10
0.0
 20
0.0
 30
0.0
  3
*D75
  1

  0
LINE
  5
1F9F
330
1F9D
100
AcDbEntity
  8
0
 62
     0
370
    -2
100
AcDbLine
 10
103.1854749785819
 20
-88.46543699108151
 30
0.0
 11
103.1854749785819
 21
-86.55788347136379
 31
0.0
  0
MTEXT
  5
1FA0
330
1F9D
100
AcDbEntity
  8
0
 62
     0
370
     9
100
AcDbMText
 10
103.185474978582
 20
-84.74538347136377
 30
0.0
 40
0.75
 41
0.0
 71
     5
 72
     1
  1
\A1;3.029
 11
0.0000000000000001
 21
1.0
 31
0.0
 73
     1
 44
1.0
1001
ACAD
1000
MTEXTBEGIN
1070
    73
1070
     1
1070
    44
1040
1.0
1070
    74
1070
     0
1000
MTEXTEND
  0
POINT
  5
1FA1
330
1F9D
100
AcDbEntity
  8
DEFPOINTS
 62
     0
100
AcDbPoint
 10
103.1854749785819
 20
-88.84043699108152
 30
0.0
  0
POINT
  5
1FA2
330
1F9D
100
AcDbEntity
  8
DEFPOINTS
 62
     0
100
AcDbPoint
 10
103.1854749785819
 20
-86.55788347136379
 30
0.0
  0
POINT
  5
1FA3
330
1F9D
100
AcDbEntity
  8
DEFPOINTS
 62
     0
100
AcDbPoint
 10
100.155974978582
 20
-101.6527369910817
 30
0.0
  0
ENDBLK
  5
1FA4
330
1F9D
100
AcDbEntity
  8
0
100
AcDbBlockEnd
  0
BLOCK
  5
1FA6
330
1FA5
100
AcDbEntity
  8
0
100
AcDbBlockBegin
  2
*D76
 70
     1
 10
0.0
 20
0.0
 30
0.0
  3
*D76
  1

  0
LINE
  5
1FA7
330
1FA5
100
AcDbEntity
  8
0
 62
     0
370
    -2
100
AcDbLine
 10
107.8729749785819
 20
-88.46543699108172
 30
0.0
 11
107.8729749785819
 21
-86.39959034164348
 31
0.0
  0
MTEXT
  5
1FA8
330
1FA5
100
AcDbEntity
  8
0
 62
     0
370
     9
100
AcDbMText
 10
107.8729749785819
 20
-84.64959034164346
 30
0.0
 40
0.75
 41
0.0
 71
     5
 72
     1
  1
\A1;7.717
 11
0.0000000000000001
 21
1.0
 31
0.0
 73
     1
 44
1.0
1001
ACAD
1000
MTEXTBEGIN
1070
    73
1070
     1
1070
    44
1040
1.0
1070
    74
1070
     0
1000
MTEXTEND
  0
POINT
  5
1FA9
330
1FA5
100
AcDbEntity
  8
DEFPOINTS
 62
     0
100
AcDbPoint
 10
107.8729749785819
 20
-88.84043699108172
 30
0.0
  0
POINT
  5
1FAA
330
1FA5
100
AcDbEntity
  8
DEFPOINTS
 62
     0
100
AcDbPoint
 10
107.8729749785819
 20
-86.39959034164348
 30
0.0
  0
POINT
  5
1FAB
330
1FA5
100
AcDbEntity
  8
DEFPOINTS
 62
     0
100
AcDbPoint
 10
100.155974978582
 20
-101.6527369910817
 30
0.0
  0
ENDBLK
  5
1FAC
330
1FA5
100
AcDbEntity
  8
0
100
AcDbBlockEnd
  0
BLOCK
  5
1FAE
330
1FAD
100
AcDbEntity
  8
0
100
AcDbBlockBegin
  2
*D77
 70
     1
 10
0.0
 20
0.0
 30
0.0
  3
*D77
  1

  0
LINE
  5
1FAF
330
1FAD
100
AcDbEntity
  8
0
 62
     0
370
    -2
100
AcDbLine
 10
107.418474978582
 20
-98.24423699108162
 30
0.0
 11
100.1961324570294
 21
-98.24423699108162
 31
0.0
  0
LINE
  5
1FB0
330
1FAD
100
AcDbEntity
  8
0
 62
     0
370
    -2
100
AcDbLine
 10
100.1961324570294
 20
-98.24423699108162
 30
0.0
 11
98.69613245702941
 21
-98.25795314275403
 31
0.0
  0
LINE
  5
1FB1
330
1FAD
100
AcDbEntity
  8
0
 62
     0
370
    -2
100
AcDbLine
 10
98.69613245702941
 20
-98.25795314275403
 30
0.0
 11
97.19613245702941
 21
-98.25795314275403
 31
0.0
  0
MTEXT
  5
1FB2
330
1FAD
100
AcDbEntity
  8
0
 62
     0
370
     9
100
AcDbMText
 10
95.38363245702941
 20
-98.25795314275403
 30
0.0
 40
0.75
 41
0.0
 71
     5
 72
     1
  1
\A1;3.409
 73
     1
 44
1.0
1001
ACAD
1000
MTEXTBEGIN
1070
    73
1070
     1
1070
    44
1040
1.0
1070
    74
1070
     0
1000
MTEXTEND
  0
POINT
  5
1FB3
330
1FAD
100
AcDbEntity
  8
DEFPOINTS
 62
     0
100
AcDbPoint
 10
107.793474978582
 20
-98.24423699108162
 30
0.0
  0
POINT
  5
1FB4
330
1FAD
100
AcDbEntity
  8
DEFPOINTS
 62
     0
100
AcDbPoint
 10
97.19613245702941
 20
-98.25795314275403
 30
0.0
  0
POINT
  5
1FB5
330
1FAD
100
AcDbEntity
  8
DEFPOINTS
 62
     0
100
AcDbPoint
 10
100.1559388961145
 20
-101.6527369910818
 30
0.0
  0
ENDBLK
  5
1FB6
330
1FAD
100
AcDbEntity
  8
0
100
AcDbBlockEnd
  0
BLOCK
  5
1FB8
330
1FB7
100
AcDbEntity
  8
0
100
AcDbBlockBegin
  2
*D78
 70
     1
 10
0.0
 20
0.0
 30
0.0
  3
*D78
  1

  0
LINE
  5
1FB9
330
1FB7
100
AcDbEntity
  8
0
 62
     0
370
    -2
100
AcDbLine
 10
114.9359749785819
 20
-88.38773699108157
 30
0.0
 11
115.5609749785819
 21
-88.38773699108157
 31
0.0
  0
LINE
  5
1FBA
330
1FB7
100
AcDbEntity
  8
0
 62
     0
370
    -2
100
AcDbLine
 10
115.5609749785819
 20
-88.38773699108157
 30
0.0
 11
116.5054801037618
 21
-87.23571269130751
 31
0.0
  0
LINE
  5
1FBB
330
1FB7
100
AcDbEntity
  8
0
 62
     0
370
    -2
100
AcDbLine
 10
116.5054801037618
 20
-87.23571269130751
 30
0.0
 11
117.5054801037618
 21
-87.23571269130751
 31
0.0
  0
MTEXT
  5
1FBC
330
1FB7
100
AcDbEntity
  8
0
 62
     0
370
     9
100
AcDbMText
 10
119.6304801037618
 20
-87.23571269130751
 30
0.0
 40
0.75
 41
0.0
 71
     5
 72
     1
  1
\A1;13.265
 73
     1
 44
1.0
1001
ACAD
1000
MTEXTBEGIN
1070
    73
1070
     1
1070
    44
1040
1.0
1070
    74
1070
     0
1000
MTEXTEND
  0
POINT
  5
1FBD
330
1FB7
100
AcDbEntity
  8
DEFPOINTS
 62
     0
100
AcDbPoint
 10
114.5609749785819
 20
-88.38773699108157
 30
0.0
  0
POINT
  5
1FBE
330
1FB7
100
AcDbEntity
  8
DEFPOINTS
 62
     0
100
AcDbPoint
 10
117.5054801037618
 20
-87.23571269130751
 30
0.0
  0
POINT
  5
1FBF
330
1FB7
100
AcDbEntity
  8
DEFPOINTS
 62
     0
100
AcDbPoint
 10
100.1559388961145
 20
-101.6527369910818
 30
0.0
  0
ENDBLK
  5
1FC0
330
1FB7
100
AcDbEntity
  8
0
100
AcDbBlockEnd
  0
BLOCK
  5
1FC2
330
1FC1
100
AcDbEntity
  8
0
100
AcDbBlockBegin
  2
*D79
 70
     1
 10
0.0
 20
0.0
 30
0.0
  3
*D79
  1

  0
LINE
  5
1FC3
330
1FC1
100
AcDbEntity
  8
0
 62
     0
370
    -2
100
AcDbLine
 10
114.108474978582
 20
-89.96573699108159
 30
0.0
 11
115.233474978582
 21
-89.96573699108159
 31
0.0
  0
LINE
  5
1FC4
330
1FC1
100
AcDbEntity
  8
0
 62
     0
370
    -2
100
AcDbLine
 10
115.233474978582
 20
-89.96573699108159
 30
0.0
 11
116.0054801037618
 21
-90.72439217879445
 31
0.0
  0
LINE
  5
1FC5
330
1FC1
100
AcDbEntity
  8
0
 62
     0
370
    -2
100
AcDbLine
 10
116.0054801037618
 20
-90.72439217879445
 30
0.0
 11
117.5054801037618
 21
-90.72439217879445
 31
0.0
  0
MTEXT
  5
1FC6
330
1FC1
100
AcDbEntity
  8
0
 62
     0
370
     9
100
AcDbMText
 10
119.5054801037618
 20
-90.72439217879445
 30
0.0
 40
0.75
 41
0.0
 71
     5
 72
     1
  1
\A1;11.687
 73
     1
 44
1.0
1001
ACAD
1000
MTEXTBEGIN
1070
    73
1070
     1
1070
    44
1040
1.0
1070
    74
1070
     0
1000
MTEXTEND
  0
POINT
  5
1FC7
330
1FC1
100
AcDbEntity
  8
DEFPOINTS
 62
     0
100
AcDbPoint
 10
113.733474978582
 20
-89.96573699108159
 30
0.0
  0
POINT
  5
1FC8
330
1FC1
100
AcDbEntity
  8
DEFPOINTS
 62
     0
100
AcDbPoint
 10
117.5054801037618
 20
-90.72439217879445
 30
0.0
  0
POINT
  5
1FC9
330
1FC1
100
AcDbEntity
  8
DEFPOINTS
 62
     0
100
AcDbPoint
 10
100.1559388961145
 20
-101.6527369910818
 30
0.0
  0
ENDBLK
  5
1FCA
330
1FC1
100
AcDbEntity
  8
0
100
AcDbBlockEnd
  0
BLOCK
  5
1FCC
330
1FCB
100
AcDbEntity
  8
0
100
AcDbBlockBegin
  2
*D80
 70
     1
 10
0.0
 20
0.0
 30
0.0
  3
*D80
  1

  0
LINE
  5
1FCD
330
1FCB
100
AcDbEntity
  8
0
 62
     0
370
    -2
100
AcDbLine
 10
113.733474978582
 20
-89.59073699108159
 30
0.0
 11
113.733474978582
 21
-88.4657369910816
 31
0.0
  0
LINE
  5
1FCE
330
1FCB
100
AcDbEntity
  8
0
 62
     0
370
    -2
100
AcDbLine
 10
113.733474978582
 20
-88.4657369910816
 30
0.0
 11
112.1641592003098
 21
-87.89959034164349
 31
0.0
  0
LINE
  5
1FCF
330
1FCB
100
AcDbEntity
  8
0
 62
     0
370
    -2
100
AcDbLine
 10
112.1641592003098
 20
-87.89959034164349
 30
0.0
 11
112.1641592003098
 21
-86.39959034164348
 31
0.0
  0
MTEXT
  5
1FD0
330
1FCB
100
AcDbEntity
  8
0
 62
     0
370
     9
100
AcDbMText
 10
112.1641592003098
 20
-84.27459034164346
 30
0.0
 40
0.75
 41
0.0
 71
     5
 72
     1
  1
\A1;13.578
 11
0.0000000000000001
 21
1.0
 31
0.0
 73
     1
 44
1.0
1001
ACAD
1000
MTEXTBEGIN
1070
    73
1070
     1
1070
    44
1040
1.0
1070
    74
1070
     0
1000
MTEXTEND
  0
POINT
  5
1FD1
330
1FCB
100
AcDbEntity
  8
DEFPOINTS
 62
     0
100
AcDbPoint
 10
113.733474978582
 20
-89.96573699108159
 30
0.0
  0
POINT
  5
1FD2
330
1FCB
100
AcDbEntity
  8
DEFPOINTS
 62
     0
100
AcDbPoint
 10
112.1641592003098
 20
-86.39959034164348
 30
0.0
  0
POINT
  5
1FD3
330
1FCB
100
AcDbEntity
  8
DEFPOINTS
 62
     0
100
AcDbPoint
 10
100.1559388961145
 20
-101.6527369910818
 30
0.0
  0
ENDBLK
  5
1FD4
330
1FCB
100
AcDbEntity
  8
0
100
AcDbBlockEnd
  0
BLOCK
  5
1FD6
330
1FD5
100
AcDbEntity
  8
0
100
AcDbBlockBegin
  2
*D81
 70
     1
 10
0.0
 20
0.0
 30
0.0
  3
*D81
  1

  0
LINE
  5
1FD7
330
1FD5
100
AcDbEntity
  8
0
 62
     0
370
    -2
100
AcDbLine
 10
114.1714749785821
 20
-88.84043699108159
 30
0.0
 11
115.2964749785821
 21
-88.84043699108159
 31
0.0
  0
LINE
  5
1FD8
330
1FD5
100
AcDbEntity
  8
0
 62
     0
370
    -2
100
AcDbLine
 10
115.2964749785821
 20
-88.84043699108159
 30
0.0
 11
116.0054801037618
 21
-88.84346466283655
 31
0.0
  0
LINE
  5
1FD9
330
1FD5
100
AcDbEntity
  8
0
 62
     0
370
    -2
100
AcDbLine
 10
116.0054801037618
 20
-88.84346466283655
 30
0.0
 11
117.5054801037618
 21
-88.84346466283655
 31
0.0
  0
MTEXT
  5
1FDA
330
1FD5
100
AcDbEntity
  8
0
 62
     0
370
     9
100
AcDbMText
 10
119.5054801037618
 20
-88.84346466283655
 30
0.0
 40
0.75
 41
0.0
 71
     5
 72
     1
  1
\A1;12.812
 73
     1
 44
1.0
1001
ACAD
1000
MTEXTBEGIN
1070
    73
1070
     1
1070
    44
1040
1.0
1070
    74
1070
     0
1000
MTEXTEND
  0
POINT
  5
1FDB
330
1FD5
100
AcDbEntity
  8
DEFPOINTS
 62
     0
100
AcDbPoint
 10
113.7964749785821
 20
-88.84043699108159
 30
0.0
  0
POINT
  5
1FDC
330
1FD5
100
AcDbEntity
  8
DEFPOINTS
 62
     0
100
AcDbPoint
 10
117.5054801037618
 20
-88.84346466283655
 30
0.0
  0
POINT
  5
1FDD
330
1FD5
100
AcDbEntity
  8
DEFPOINTS
 62
     0
100
AcDbPoint
 10
100.1559388961144
 20
-101.652691850999
 30
0.0
  0
ENDBLK
  5
1FDE
330
1FD5
100
AcDbEntity
  8
0
100
AcDbBlockEnd
  0
BLOCK
  5
1FE0
330
1FDF
100
AcDbEntity
  8
0
100
AcDbBlockBegin
  2
*D82
 70
     1
 10
0.0
 20
0.0
 30
0.0
  3
*D82
  1

  0
LINE
  5
1FE1
330
1FDF
100
AcDbEntity
  8
0
 62
     0
370
    -2
100
AcDbLine
 10
114.1714749785819
 20
-93.90273699108147
 30
0.0
 11
115.2964749785819
 21
-93.90273699108147
 31
0.0
  0
LINE
  5
1FE2
330
1FDF
100
AcDbEntity
  8
0
 62
     0
370
    -2
100
AcDbLine
 10
115.2964749785819
 20
-93.90273699108147
 30
0.0
 11
116.3008815003939
 21
-91.80614529881257
 31
0.0
  0
LINE
  5
1FE3
330
1FDF
100
AcDbEntity
  8
0
 62
     0
370
    -2
100
AcDbLine
 10
116.3008815003939
 20
-91.80614529881257
 30
0.0
 11
117.8008815003938
 21
-91.80614529881257
 31
0.0
  0
MTEXT
  5
1FE4
330
1FDF
100
AcDbEntity
  8
0
 62
     0
370
     9
100
AcDbMText
 10
119.6133815003937
 20
-91.80614529881257
 30
0.0
 40
0.75
 41
0.0
 71
     5
 72
     1
  1
\A1;7.750
 73
     1
 44
1.0
1001
ACAD
1000
MTEXTBEGIN
1070
    73
1070
     1
1070
    44
1040
1.0
1070
    74
1070
     0
1000
MTEXTEND
  0
POINT
  5
1FE5
330
1FDF
100
AcDbEntity
  8
DEFPOINTS
 62
     0
100
AcDbPoint
 10
113.7964749785819
 20
-93.90273699108147
 30
0.0
  0
POINT
  5
1FE6
330
1FDF
100
AcDbEntity
  8
DEFPOINTS
 62
     0
100
AcDbPoint
 10
117.8008815003938
 20
-91.80614529881257
 30
0.0
  0
POINT
  5
1FE7
330
1FDF
100
AcDbEntity
  8
DEFPOINTS
 62
     0
100
AcDbPoint
 10
100.1559388961144
 20
-101.652691850999
 30
0.0
  0
ENDBLK
  5
1FE8
330
1FDF
100
AcDbEntity
  8
0
100
AcDbBlockEnd
  0
BLOCK
  5
1FEA
330
1FE9
100
AcDbEntity
  8
0
100
AcDbBlockBegin
  2
*D83
 70
     1
 10
0.0
 20
0.0
 30
0.0
  3
*D83
  1

  0
LINE
  5
1FEB
330
1FE9
100
AcDbEntity
  8
0
 62
     0
370
    -2
100
AcDbLine
 10
113.7964749785819
 20
-94.27773699108149
 30
0.0
 11
113.7964749785819
 21
-104.6023261824169
 31
0.0
  0
MTEXT
  5
1FEC
330
1FE9
100
AcDbEntity
  8
0
 62
     0
370
     9
100
AcDbMText
 10
113.796474978582
 20
-106.6023261824169
 30
0.0
 40
0.75
 41
0.0
 71
     5
 72
     1
  1
\A1;13.641
 11
0.0000000000000001
 21
1.0
 31
0.0
 73
     1
 44
1.0
1001
ACAD
1000
MTEXTBEGIN
1070
    73
1070
     1
1070
    44
1040
1.0
1070
    74
1070
     0
1000
MTEXTEND
  0
POINT
  5
1FED
330
1FE9
100
AcDbEntity
  8
DEFPOINTS
 62
     0
100
AcDbPoint
 10
113.7964749785819
 20
-93.90273699108147
 30
0.0
  0
POINT
  5
1FEE
330
1FE9
100
AcDbEntity
  8
DEFPOINTS
 62
     0
100
AcDbPoint
 10
113.7964749785819
 20
-104.6023261824169
 30
0.0
  0
POINT
  5
1FEF
330
1FE9
100
AcDbEntity
  8
DEFPOINTS
 62
     0
100
AcDbPoint
 10
100.1559388961144
 20
-101.652691850999
 30
0.0
  0
ENDBLK
  5
1FF0
330
1FE9
100
AcDbEntity
  8
0
100
AcDbBlockEnd
  0
BLOCK
  5
1FF2
330
1FF1
100
AcDbEntity
  8
0
100
AcDbBlockBegin
  2
*D84
 70
     1
 10
0.0
 20
0.0
 30
0.0
  3
*D84
  1

  0
LINE
  5
1FF3
330
1FF1
100
AcDbEntity
  8
0
 62
     0
370
    -2
100
AcDbLine
 10
109.0464749785818
 20
-88.46543699108172
 30
0.0
 11
109.0464749785819
 21
-86.39959034164348
 31
0.0
  0
MTEXT
  5
1FF4
330
1FF1
100
AcDbEntity
  8
0
 62
     0
370
     9
100
AcDbMText
 10
109.0464749785819
 20
-84.64959034164346
 30
0.0
 40
0.75
 41
0.0
 71
     5
 72
     1
  1
\A1;8.891
 11
0.0000000000000001
 21
1.0
 31
0.0
 73
     1
 44
1.0
1001
ACAD
1000
MTEXTBEGIN
1070
    73
1070
     1
1070
    44
1040
1.0
1070
    74
1070
     0
1000
MTEXTEND
  0
POINT
  5
1FF5
330
1FF1
100
AcDbEntity
  8
DEFPOINTS
 62
     0
100
AcDbPoint
 10
109.0464749785818
 20
-88.84043699108174
 30
0.0
  0
POINT
  5
1FF6
330
1FF1
100
AcDbEntity
  8
DEFPOINTS
 62
     0
100
AcDbPoint
 10
109.0464749785819
 20
-86.39959034164348
 30
0.0
  0
POINT
  5
1FF7
330
1FF1
100
AcDbEntity
  8
DEFPOINTS
 62
     0
100
AcDbPoint
 10
100.1559388961144
 20
-101.652691850999
 30
0.0
  0
ENDBLK
  5
1FF8
330
1FF1
100
AcDbEntity
  8
0
100
AcDbBlockEnd
  0
BLOCK
  5
1FFA
330
1FF9
100
AcDbEntity
  8
0
100
AcDbBlockBegin
  2
*D85
 70
     1
 10
0.0
 20
0.0
 30
0.0
  3
*D85
  1

  0
LINE
  5
1FFB
330
1FF9
100
AcDbEntity
  8
0
 62
     0
370
    -2
100
AcDbLine
 10
112.233474978582
 20
-100.0277369910816
 30
0.0
 11
112.233474978582
 21
-104.7255824780821
 31
0.0
  0
MTEXT
  5
1FFC
330
1FF9
100
AcDbEntity
  8
0
 62
     0
370
     9
100
AcDbMText
 10
112.233474978582
 20
-106.7880824780821
 30
0.0
 40
0.75
 41
0.0
 71
     5
 72
     1
  1
\A1;12.078
 11
0.0000000000000001
 21
1.0
 31
0.0
 73
     1
 44
1.0
1001
ACAD
1000
MTEXTBEGIN
1070
    73
1070
     1
1070
    44
1040
1.0
1070
    74
1070
     0
1000
MTEXTEND
  0
POINT
  5
1FFD
330
1FF9
100
AcDbEntity
  8
DEFPOINTS
 62
     0
100
AcDbPoint
 10
112.233474978582
 20
-99.65273699108159
 30
0.0
  0
POINT
  5
1FFE
330
1FF9
100
AcDbEntity
  8
DEFPOINTS
 62
     0
100
AcDbPoint
 10
112.233474978582
 20
-104.7255824780821
 30
0.0
  0
POINT
  5
1FFF
330
1FF9
100
AcDbEntity
  8
DEFPOINTS
 62
     0
100
AcDbPoint
 10
100.1559388961144
 20
-101.652691850999
 30
0.0
  0
ENDBLK
  5
2000
330
1FF9
100
AcDbEntity
  8
0
100
AcDbBlockEnd
  0
BLOCK
  5
2002
330
2001
100
AcDbEntity
  8
0
100
AcDbBlockBegin
  2
*D86
 70
     1
 10
0.0
 20
0.0
 30
0.0
  3
*D86
  1

  0
LINE
  5
2003
330
2001
100
AcDbEntity
  8
0
 62
     0
370
    -2
100
AcDbLine
 10
107.793474978582
 20
-98.61923699108162
 30
0.0
 11
107.793474978582
 21
-101.6637685868607
 31
0.0
  0
LINE
  5
2004
330
2001
100
AcDbEntity
  8
0
 62
     0
370
    -2
100
AcDbLine
 10
107.793474978582
 20
-101.6637685868607
 30
0.0
 11
107.1337228541197
 21
-103.1637685868607
 31
0.0
  0
LINE
  5
2005
330
2001
100
AcDbEntity
  8
0
 62
     0
370
    -2
100
AcDbLine
 10
107.1337228541197
 20
-103.1637685868607
 30
0.0
 11
107.1337228541197
 21
-104.6637685868607
 31
0.0
  0
MTEXT
  5
2006
330
2001
100
AcDbEntity
  8
0
 62
     0
370
     9
100
AcDbMText
 10
107.1337228541197
 20
-106.5387685868607
 30
0.0
 40
0.75
 41
0.0
 71
     5
 72
     1
  1
\A1;7.638
 11
0.0000000000000001
 21
1.0
 31
0.0
 73
     1
 44
1.0
1001
ACAD
1000
MTEXTBEGIN
1070
    73
1070
     1
1070
    44
1040
1.0
1070
    74
1070
     0
1000
MTEXTEND
  0
POINT
  5
2007
330
2001
100
AcDbEntity
  8
DEFPOINTS
 62
     0
100
AcDbPoint
 10
107.793474978582
 20
-98.24423699108162
 30
0.0
  0
POINT
  5
2008
330
2001
100
AcDbEntity
  8
DEFPOINTS
 62
     0
100
AcDbPoint
 10
107.1337228541197
 20
-104.6637685868607
 30
0.0
  0
POINT
  5
2009
330
2001
100
AcDbEntity
  8
DEFPOINTS
 62
     0
100
AcDbPoint
 10
100.1559388961144
 20
-101.652691850999
 30
0.0
  0
ENDBLK
  5
200A
330
2001
100
AcDbEntity
  8
0
100
AcDbBlockEnd
  0
BLOCK
  5
200C
330
200B
100
AcDbEntity
  8
0
100
AcDbBlockBegin
  2
*D87
 70
     1
 10
0.0
 20
0.0
 30
0.0
  3
*D87
  1

  0
LINE
  5
200D
330
200B
100
AcDbEntity
  8
0
 62
     0
370
    -2
100
AcDbLine
 10
102.483474978582
 20
-100.0277369910816
 30
0.0
 11
102.483474978582
 21
-104.6637685868607
 31
0.0
  0
MTEXT
  5
200E
330
200B
100
AcDbEntity
  8
0
 62
     0
370
     9
100
AcDbMText
 10
102.483474978582
 20
-106.5387685868607
 30
0.0
 40
0.75
 41
0.0
 71
     5
 72
     1
  1
\A1;2.328
 11
0.0000000000000001
 21
1.0
 31
0.0
 73
     1
 44
1.0
1001
ACAD
1000
MTEXTBEGIN
1070
    73
1070
     1
1070
    44
1040
1.0
1070
    74
1070
     0
1000
MTEXTEND
  0
POINT
  5
200F
330
200B
100
AcDbEntity
  8
DEFPOINTS
 62
     0
100
AcDbPoint
 10
102.483474978582
 20
-99.65273699108159
 30
0.0
  0
POINT
  5
2010
330
200B
100
AcDbEntity
  8
DEFPOINTS
 62
     0
100
AcDbPoint
 10
102.483474978582
 20
-104.6637685868607
 30
0.0
  0
POINT
  5
2011
330
200B
100
AcDbEntity
  8
DEFPOINTS
 62
     0
100
AcDbPoint
 10
100.1559388961144
 20
-101.652691850999
 30
0.0
  0
ENDBLK
  5
2012
330
200B
100
AcDbEntity
  8
0
100
AcDbBlockEnd
  0
BLOCK
  5
2014
330
2013
100
AcDbEntity
  8
0
100
AcDbBlockBegin
  2
*D88
 70
     1
 10
0.0
 20
0.0
 30
0.0
  3
*D88
  1

  0
LINE
  5
2015
330
2013
100
AcDbEntity
  8
0
 62
     0
370
    -2
100
AcDbLine
 10
107.4184749785819
 20
-96.74423699108146
 30
0.0
 11
100.1961324570292
 21
-96.74423699108146
 31
0.0
  0
LINE
  5
2016
330
2013
100
AcDbEntity
  8
0
 62
     0
370
    -2
100
AcDbLine
 10
100.1961324570292
 20
-96.74423699108146
 30
0.0
 11
98.69613245702922
 21
-96.71738772784843
 31
0.0
  0
LINE
  5
2017
330
2013
100
AcDbEntity
  8
0
 62
     0
370
    -2
100
AcDbLine
 10
98.69613245702922
 20
-96.71738772784843
 30
0.0
 11
97.19613245702923
 21
-96.71738772784843
 31
0.0
  0
MTEXT
  5
2018
330
2013
100
AcDbEntity
  8
0
 62
     0
370
     9
100
AcDbMText
 10
95.38363245702923
 20
-96.71738772784843
 30
0.0
 40
0.75
 41
0.0
 71
     5
 72
     1
  1
\A1;4.908
 73
     1
 44
1.0
1001
ACAD
1000
MTEXTBEGIN
1070
    73
1070
     1
1070
    44
1040
1.0
1070
    74
1070
     0
1000
MTEXTEND
  0
POINT
  5
2019
330
2013
100
AcDbEntity
  8
DEFPOINTS
 62
     0
100
AcDbPoint
 10
107.7934749785819
 20
-96.74423699108146
 30
0.0
  0
POINT
  5
201A
330
2013
100
AcDbEntity
  8
DEFPOINTS
 62
     0
100
AcDbPoint
 10
97.19613245702923
 20
-96.71738772784843
 30
0.0
  0
POINT
  5
201B
330
2013
100
AcDbEntity
  8
DEFPOINTS
 62
     0
100
AcDbPoint
 10
100.1559388961144
 20
-101.652691850999
 30
0.0
  0
ENDBLK
  5
201C
330
2013
100
AcDbEntity
  8
0
100
AcDbBlockEnd
  0
BLOCK
  5
201E
330
201D
100
AcDbEntity
  8
0
100
AcDbBlockBegin
  2
*D89
 70
     1
 10
0.0
 20
0.0
 30
0.0
  3
*D89
  1

  0
LINE
  5
201F
330
201D
100
AcDbEntity
  8
0
 62
     0
370
    -2
100
AcDbLine
 10
102.8104749785818
 20
-94.51573699108157
 30
0.0
 11
100.1961324570292
 21
-94.51573699108157
 31
0.0
  0
LINE
  5
2020
330
201D
100
AcDbEntity
  8
0
 62
     0
370
    -2
100
AcDbLine
 10
100.1961324570292
 20
-94.51573699108157
 30
0.0
 11
98.69613245702929
 21
-94.49615979040387
 31
0.0
  0
LINE
  5
2021
330
201D
100
AcDbEntity
  8
0
 62
     0
370
    -2
100
AcDbLine
 10
98.69613245702929
 20
-94.49615979040387
 30
0.0
 11
97.19613245702928
 21
-94.49615979040387
 31
0.0
  0
MTEXT
  5
2022
330
201D
100
AcDbEntity
  8
0
 62
     0
370
     9
100
AcDbMText
 10
95.44613245702928
 20
-94.49615979040387
 30
0.0
 40
0.75
 41
0.0
 71
     5
 72
     1
  1
\A1;7.137
 73
     1
 44
1.0
1001
ACAD
1000
MTEXTBEGIN
1070
    73
1070
     1
1070
    44
1040
1.0
1070
    74
1070
     0
1000
MTEXTEND
  0
POINT
  5
2023
330
201D
100
AcDbEntity
  8
DEFPOINTS
 62
     0
100
AcDbPoint
 10
103.1854749785818
 20
-94.51573699108157
 30
0.0
  0
POINT
  5
2024
330
201D
100
AcDbEntity
  8
DEFPOINTS
 62
     0
100
AcDbPoint
 10
97.19613245702928
 20
-94.49615979040387
 30
0.0
  0
POINT
  5
2025
330
201D
100
AcDbEntity
  8
DEFPOINTS
 62
     0
100
AcDbPoint
 10
100.1559388961144
 20
-101.652691850999
 30
0.0
  0
ENDBLK
  5
2026
330
201D
100
AcDbEntity
  8
0
100
AcDbBlockEnd
  0
BLOCK
  5
2028
330
2027
100
AcDbEntity
  8
0
100
AcDbBlockBegin
  2
*D90
 70
     1
 10
0.0
 20
0.0
 30
0.0
  3
*D90
  1

  0
LINE
  5
2029
330
2027
100
AcDbEntity
  8
0
 62
     0
370
    -2
100
AcDbLine
 10
102.810474978582
 20
-88.84043699108152
 30
0.0
 11
100.1961324570292
 21
-88.84043699108152
 31
0.0
  0
LINE
  5
202A
330
2027
100
AcDbEntity
  8
0
 62
     0
370
    -2
100
AcDbLine
 10
100.1961324570292
 20
-88.84043699108152
 30
0.0
 11
98.69613245702929
 21
-88.59207955481069
 31
0.0
  0
LINE
  5
202B
330
2027
100
AcDbEntity
  8
0
 62
     0
370
    -2
100
AcDbLine
 10
98.69613245702929
 20
-88.59207955481069
 30
0.0
 11
97.19613245702928
 21
-88.59207955481069
 31
0.0
  0
MTEXT
  5
202C
330
2027
100
AcDbEntity
  8
0
 62
     0
370
     9
100
AcDbMText
 10
95.19613245702926
 20
-88.59207955481069
 30
0.0
 40
0.75
 41
0.0
 71
     5
 72
     1
  1
\A1;12.812
 73
     1
 44
1.0
1001
ACAD
1000
MTEXTBEGIN
1070
    73
1070
     1
1070
    44
1040
1.0
1070
    74
1070
     0
1000
MTEXTEND
  0
POINT
  5
202D
330
2027
100
AcDbEntity
  8
DEFPOINTS
 62
     0
100
AcDbPoint
 10
103.1854749785819
 20
-88.84043699108152
 30
0.0
  0
POINT
  5
202E
330
2027
100
AcDbEntity
  8
DEFPOINTS
 62
     0
100
AcDbPoint
 10
97.19613245702928
 20
-88.59207955481069
 30
0.0
  0
POINT
  5
202F
330
2027
100
AcDbEntity
  8
DEFPOINTS
 62
     0
100
AcDbPoint
 10
100.1559388961144
 20
-101.652691850999
 30
0.0
  0
ENDBLK
  5
2030
330
2027
100
AcDbEntity
  8
0
100
AcDbBlockEnd
  0
BLOCK
  5
2032
330
2031
100
AcDbEntity
  8
0
100
AcDbBlockBegin
  2
*D91
 70
     1
 10
0.0
 20
0.0
 30
0.0
  3
*D91
  1

  0
LINE
  5
2033
330
2031
100
AcDbEntity
  8
0
 62
     0
370
    -2
100
AcDbLine
 10
100.608474978582
 20
-89.96573699108159
 30
0.0
 11
97.19613245702928
 21
-89.96573699108159
 31
0.0
  0
MTEXT
  5
2034
330
2031
100
AcDbEntity
  8
0
 62
     0
370
     9
100
AcDbMText
 10
95.19613245702926
 20
-89.96573699108159
 30
0.0
 40
0.75
 41
0.0
 71
     5
 72
     1
  1
\A1;11.687
 73
     1
 44
1.0
1001
ACAD
1000
MTEXTBEGIN
1070
    73
1070
     1
1070
    44
1040
1.0
1070
    74
1070
     0
1000
MTEXTEND
  0
POINT
  5
2035
330
2031
100
AcDbEntity
  8
DEFPOINTS
 62
     0
100
AcDbPoint
 10
100.9834749785819
 20
-89.96573699108159
 30
0.0
  0
POINT
  5
2036
330
2031
100
AcDbEntity
  8
DEFPOINTS
 62
     0
100
AcDbPoint
 10
97.19613245702928
 20
-89.96573699108159
 30
0.0
  0
POINT
  5
2037
330
2031
100
AcDbEntity
  8
DEFPOINTS
 62
     0
100
AcDbPoint
 10
100.1559388961144
 20
-101.652691850999
 30
0.0
  0
ENDBLK
  5
2038
330
2031
100
AcDbEntity
  8
0
100
AcDbBlockEnd
  0
BLOCK
  5
203A
330
2039
100
AcDbEntity
  8
0
100
AcDbBlockBegin
  2
*D92
 70
     1
 10
0.0
 20
0.0
 30
0.0
  3
*D92
  1

  0
LINE
  5
203B
330
2039
100
AcDbEntity
  8
0
 62
     0
370
    -2
100
AcDbLine
 10
102.1084749785819
 20
-99.65273699108159
 30
0.0
 11
97.19613245702928
 21
-99.65273699108159
 31
0.0
  0
MTEXT
  5
203C
330
2039
100
AcDbEntity
  8
0
 62
     0
370
     9
100
AcDbMText
 10
95.50863245702926
 20
-99.65273699108159
 30
0.0
 40
0.75
 41
0.0
 71
     5
 72
     1
  1
\A1;2.000
 73
     1
 44
1.0
1001
ACAD
1000
MTEXTBEGIN
1070
    73
1070
     1
1070
    44
1040
1.0
1070
    74
1070
     0
1000
MTEXTEND
  0
POINT
  5
203D
330
2039
100
AcDbEntity
  8
DEFPOINTS
 62
     0
100
AcDbPoint
 10
102.483474978582
 20
-99.65273699108159
 30
0.0
  0
POINT
  5
203E
330
2039
100
AcDbEntity
  8
DEFPOINTS
 62
     0
100
AcDbPoint
 10
97.19613245702928
 20
-99.65273699108159
 30
0.0
  0
POINT
  5
203F
330
2039
100
AcDbEntity
  8
DEFPOINTS
 62
     0
100
AcDbPoint
 10
100.1559388961144
 20
-101.652691850999
 30
0.0
  0
ENDBLK
  5
2040
330
2039
100
AcDbEntity
  8
0
100
AcDbBlockEnd
  0
BLOCK
  5
2042
330
2041
100
AcDbEntity
  8
0
100
AcDbBlockBegin
  2
*D93
 70
     1
 10
0.0
 20
0.0
 30
0.0
  3
*D93
  1

  0
LINE
  5
2043
330
2041
100
AcDbEntity
  8
0
 62
     0
370
    -2
100
AcDbLine
 10
100.155974978582
 20
-102.0277369910817
 30
0.0
 11
100.155974978582
 21
-104.6236461291574
 31
0.0
  0
MTEXT
  5
2044
330
2041
100
AcDbEntity
  8
0
 62
     0
370
     9
100
AcDbMText
 10
100.155974978582
 20
-106.2486461291574
 30
0.0
 40
0.75
 41
0.0
 71
     5
 72
     1
  1
\A1;0.000
 11
0.0000000000000001
 21
1.0
 31
0.0
 73
     1
 44
1.0
1001
ACAD
1000
MTEXTBEGIN
1070
    73
1070
     1
1070
    44
1040
1.0
1070
    74
1070
     0
1000
MTEXTEND
  0
POINT
  5
2045
330
2041
100
AcDbEntity
  8
DEFPOINTS
 62
     0
100
AcDbPoint
 10
100.155974978582
 20
-101.6527369910817
 30
0.0
  0
POINT
  5
2046
330
2041
100
AcDbEntity
  8
DEFPOINTS
 62
     0
100
AcDbPoint
 10
100.155974978582
 20
-104.6236461291574
 30
0.0
  0
POINT
  5
2047
330
2041
100
AcDbEntity
  8
DEFPOINTS
 62
     0
100
AcDbPoint
 10
100.1559388961144
 20
-101.652691850999
 30
0.0
  0
ENDBLK
  5
2048
330
2041
100
AcDbEntity
  8
0
100
AcDbBlockEnd
  0
BLOCK
  5
204A
330
2049
100
AcDbEntity
  8
0
100
AcDbBlockBegin
  2
*D94
 70
     1
 10
0.0
 20
0.0
 30
0.0
  3
*D94
  1

  0
LINE
  5
204B
330
2049
100
AcDbEntity
  8
0
 62
     0
370
    -2
100
AcDbLine
 10
99.780974978582
 20
-101.6527369910817
 30
0.0
 11
97.18071762526093
 21
-101.6527369910817
 31
0.0
  0
MTEXT
  5
204C
330
2049
100
AcDbEntity
  8
0
 62
     0
370
     9
100
AcDbMText
 10
95.55571762526092
 20
-101.6527369910817
 30
0.0
 40
0.75
 41
0.0
 71
     5
 72
     1
  1
\A1;0.000
 73
     1
 44
1.0
1001
ACAD
1000
MTEXTBEGIN
1070
    73
1070
     1
1070
    44
1040
1.0
1070
    74
1070
     0
1000
MTEXTEND
  0
POINT
  5
204D
330
2049
100
AcDbEntity
  8
DEFPOINTS
 62
     0
100
AcDbPoint
 10
100.155974978582
 20
-101.6527369910817
 30
0.0
  0
POINT
  5
204E
330
2049
100
AcDbEntity
  8
DEFPOINTS
 62
     0
100
AcDbPoint
 10
97.18071762526093
 20
-101.6527369910817
 30
0.0
  0
POINT
  5
204F
330
2049
100
AcDbEntity
  8
DEFPOINTS
 62
     0
100
AcDbPoint
 10
100.1559388961144
 20
-101.652691850999
 30
0.0
  0
ENDBLK
  5
2050
330
2049
100
AcDbEntity
  8
0
100
AcDbBlockEnd
  0
BLOCK
  5
2052
330
2051
100
AcDbEntity
  8
0
100
AcDbBlockBegin
  2
*D95
 70
     1
 10
0.0
 20
0.0
 30
0.0
  3
*D95
  1

  0
LINE
  5
2053
330
2051
100
AcDbEntity
  8
0
 62
     0
370
    -2
100
AcDbLine
 10
114.5609749785819
 20
-88.01273699108156
 30
0.0
 11
114.5609749785819
 21
-86.39959034164348
 31
0.0
  0
MTEXT
  5
2054
330
2051
100
AcDbEntity
  8
0
 62
     0
370
     9
100
AcDbMText
 10
114.5609749785819
 20
-84.33709034164346
 30
0.0
 40
0.75
 41
0.0
 71
     5
 72
     1
  1
\A1;14.405
 11
0.0000000000000001
 21
1.0
 31
0.0
 73
     1
 44
1.0
1001
ACAD
1000
MTEXTBEGIN
1070
    73
1070
     1
1070
    44
1040
1.0
1070
    74
1070
     0
1000
MTEXTEND
  0
POINT
  5
2055
330
2051
100
AcDbEntity
  8
DEFPOINTS
 62
     0
100
AcDbPoint
 10
114.5609749785819
 20
-88.38773699108157
 30
0.0
  0
POINT
  5
2056
330
2051
100
AcDbEntity
  8
DEFPOINTS
 62
     0
100
AcDbPoint
 10
114.5609749785819
 20
-86.39959034164348
 30
0.0
  0
POINT
  5
2057
330
2051
100
AcDbEntity
  8
DEFPOINTS
 62
     0
100
AcDbPoint
 10
100.1559388961145
 20
-101.6527369910818
 30
0.0
  0
ENDBLK
  5
2058
330
2051
100
AcDbEntity
  8
0
100
AcDbBlockEnd
  0
BLOCK
  5
205A
330
2059
100
AcDbEntity
  8
0
100
AcDbBlockBegin
  2
*D96
 70
     1
 10
0.0
 20
0.0
 30
0.0
  3
*D96
  1

  0
LINE
  5
205B
330
2059
100
AcDbEntity
  8
0
 62
     0
370
    -2
100
AcDbLine
 10
100.9834749785819
 20
-89.59073699108159
 30
0.0
 11
100.9834749785819
 21
-86.55788347136379
 31
0.0
  0
MTEXT
  5
205C
330
2059
100
AcDbEntity
  8
0
 62
     0
370
     9
100
AcDbMText
 10
100.983474978582
 20
-84.74538347136377
 30
0.0
 40
0.75
 41
0.0
 71
     5
 72
     1
  1
\A1;0.827
 11
0.0000000000000001
 21
1.0
 31
0.0
 73
     1
 44
1.0
1001
ACAD
1000
MTEXTBEGIN
1070
    73
1070
     1
1070
    44
1040
1.0
1070
    74
1070
     0
1000
MTEXTEND
  0
POINT
  5
205D
330
2059
100
AcDbEntity
  8
DEFPOINTS
 62
     0
100
AcDbPoint
 10
100.9834749785819
 20
-89.96573699108159
 30
0.0
  0
POINT
  5
205E
330
2059
100
AcDbEntity
  8
DEFPOINTS
 62
     0
100
AcDbPoint
 10
100.9834749785819
 20
-86.55788347136379
 30
0.0
  0
POINT
  5
205F
330
2059
100
AcDbEntity
  8
DEFPOINTS
 62
     0
100
AcDbPoint
 10
100.155974978582
 20
-101.6527369910817
 30
0.0
  0
ENDBLK
  5
2060
330
2059
100
AcDbEntity
  8
0
100
AcDbBlockEnd
  0
BLOCK
  5
2062
330
2061
100
AcDbEntity
  8
0
100
AcDbBlockBegin
  2
*D97
 70
     1
 10
0.0
 20
0.0
 30
0.0
  3
*D97
  1

  0
LINE
  5
2063
330
2061
100
AcDbEntity
  8
0
 62
     0
370
    -2
100
AcDbLine
 10
109.9184749785819
 20
-95.99423699108166
 30
0.0
 11
100.1961324570292
 21
-95.99423699108166
 31
0.0
  0
LINE
  5
2064
330
2061
100
AcDbEntity
  8
0
 62
     0
370
    -2
100
AcDbLine
 10
100.1961324570292
 20
-95.99423699108166
 30
0.0
 11
98.69613245702922
 21
-95.66201168457224
 31
0.0
  0
LINE
  5
2065
330
2061
100
AcDbEntity
  8
0
 62
     0
370
    -2
100
AcDbLine
 10
98.69613245702922
 20
-95.66201168457224
 30
0.0
 11
97.19613245702923
 21
-95.66201168457224
 31
0.0
  0
MTEXT
  5
2066
330
2061
100
AcDbEntity
  8
0
 62
     0
370
     9
100
AcDbMText
 10
95.32113245702921
 20
-95.66201168457224
 30
0.0
 40
0.75
 41
0.0
 71
     5
 72
     1
  1
\A1;5.658
 73
     1
 44
1.0
1001
ACAD
1000
MTEXTBEGIN
1070
    73
1070
     1
1070
    44
1040
1.0
1070
    74
1070
     0
1000
MTEXTEND
  0
POINT
  5
2067
330
2061
100
AcDbEntity
  8
DEFPOINTS
 62
     0
100
AcDbPoint
 10
110.2934749785819
 20
-95.99423699108166
 30
0.0
  0
POINT
  5
2068
330
2061
100
AcDbEntity
  8
DEFPOINTS
 62
     0
100
AcDbPoint
 10
97.19613245702923
 20
-95.66201168457224
 30
0.0
  0
POINT
  5
2069
330
2061
100
AcDbEntity
  8
DEFPOINTS
 62
     0
100
AcDbPoint
 10
100.1559388961144
 20
-101.652691850999
 30
0.0
  0
ENDBLK
  5
206A
330
2061
100
AcDbEntity
  8
0
100
AcDbBlockEnd
  0
BLOCK
  5
206C
330
206B
100
AcDbEntity
  8
0
100
AcDbBlockBegin
  2
*D98
 70
     1
 10
0.0
 20
0.0
 30
0.0
  3
*D98
  1

  0
LINE
  5
206D
330
206B
100
AcDbEntity
  8
0
 62
     0
370
    -2
100
AcDbLine
 10
110.2934749785819
 20
-96.36923699108166
 30
0.0
 11
110.2934749785819
 21
-104.6637685868607
 31
0.0
  0
MTEXT
  5
206E
330
206B
100
AcDbEntity
  8
0
 62
     0
370
     9
100
AcDbMText
 10
110.2934749785819
 20
-106.6012685868607
 30
0.0
 40
0.75
 41
0.0
 71
     5
 72
     1
  1
\A1;10.138
 11
0.0000000000000001
 21
1.0
 31
0.0
 73
     1
 44
1.0
1001
ACAD
1000
MTEXTBEGIN
1070
    73
1070
     1
1070
    44
1040
1.0
1070
    74
1070
     0
1000
MTEXTEND
  0
POINT
  5
206F
330
206B
100
AcDbEntity
  8
DEFPOINTS
 62
     0
100
AcDbPoint
 10
110.2934749785819
 20
-95.99423699108166
 30
0.0
  0
POINT
  5
2070
330
206B
100
AcDbEntity
  8
DEFPOINTS
 62
     0
100
AcDbPoint
 10
110.2934749785819
 20
-104.6637685868607
 30
0.0
  0
POINT
  5
2071
330
206B
100
AcDbEntity
  8
DEFPOINTS
 62
     0
100
AcDbPoint
 10
100.1559388961144
 20
-101.652691850999
 30
0.0
  0
ENDBLK
  5
2072
330
206B
100
AcDbEntity
  8
0
100
AcDbBlockEnd
  0
BLOCK
  5
2074
330
2073
100
AcDbEntity
  8
0
100
AcDbBlockBegin
  2
*D99
 70
     1
 10
0.0
 20
0.0
 30
0.0
  3
*D99
  1

  0
LINE
  5
2075
330
2073
100
AcDbEntity
  8
TXT
 62
     0
370
    -2
100
AcDbLine
 10
117.9279380158279
 20
-95.3555887571294
 30
0.0
 11
111.663689040637
 21
-95.879614025904
 31
0.0
  0
MTEXT
  5
2076
330
2073
100
AcDbEntity
  8
TXT
 62
     0
370
     9
100
AcDbMText
 10
118.0179380158279
 20
-95.35558875712942
 30
0.0
 40
0.75
 41
0.0
 71
     4
 72
     1
  1
\A1;\U+22051.250 (1)\POPTIONAL:\PETHERNET/ALARM\PCONNECTION \PPORT
 73
     1
 44
1.0
1001
ACAD
1000
MTEXTBEGIN
1070
    73
1070
     1
1070
    44
1040
1.0
1070
    74
1070
     0
1000
MTEXTEND
  0
SOLID
  5
2077
330
2073
100
AcDbEntity
  8
TXT
 62
     0
100
AcDbTrace
 10
111.6532687710754
 20
-95.75504911117169
 30
0.0
 11
111.6741093101986
 21
-96.00417894063628
 31
0.0
 12
110.9162995522433
 22
-95.94213564327359
 32
0.0
 13
110.9162995522433
 23
-95.94213564327359
 33
0.0
  0
LINE
  5
2078
330
2073
100
AcDbEntity
  8
TXT
 62
     0
370
    -2
100
AcDbLine
 10
110.2034749785818
 20
-95.99423699108161
 30
0.0
 11
110.3834749785818
 21
-95.99423699108161
 31
0.0
  0
LINE
  5
2079
330
2073
100
AcDbEntity
  8
TXT
 62
     0
370
    -2
100
AcDbLine
 10
110.2934749785818
 20
-96.08423699108161
 30
0.0
 11
110.2934749785818
 21
-95.90423699108162
 31
0.0
  0
POINT
  5
207A
330
2073
100
AcDbEntity
  8
DEFPOINTS
 62
     0
100
AcDbPoint
 10
110.9162995522433
 20
-95.94213564327359
 30
0.0
  0
POINT
  5
207B
330
2073
100
AcDbEntity
  8
DEFPOINTS
 62
     0
100
AcDbPoint
 10
109.6706504049204
 20
-96.04633833888961
 30
0.0
  0
ENDBLK
  5
207C
330
2073
100
AcDbEntity
  8
0
100
AcDbBlockEnd
  0
BLOCK
  5
207E
330
207D
100
AcDbEntity
  8
0
100
AcDbBlockBegin
  2
*D100
 70
     1
 10
0.0
 20
0.0
 30
0.0
  3
*D100
  1

  0
LINE
  5
207F
330
207D
100
AcDbEntity
  8
TXT
 62
     0
370
    -2
100
AcDbLine
 10
116.8430615734775
 20
-101.0599097526499
 30
0.0
 11
116.0930615734775
 21
-101.0599097526499
 31
0.0
  0
LINE
  5
2080
330
207D
100
AcDbEntity
  8
TXT
 62
     0
370
    -2
100
AcDbLine
 10
116.0930615734775
 20
-101.0599097526499
 30
0.0
 11
109.0134048347597
 21
-97.3785840144103
 31
0.0
  0
MTEXT
  5
2081
330
207D
100
AcDbEntity
  8
TXT
 62
     0
370
     9
100
AcDbMText
 10
116.9330615734775
 20
-99.43490975264992
 30
0.0
 40
0.75
 41
0.0
 71
     1
 72
     1
  1
\A1;\U+22051.250 (1)\PPOWER \PSUPPLY
 73
     1
 44
1.0
1001
ACAD
1000
MTEXTBEGIN
1070
    73
1070
     1
1070
    44
1040
1.0
1070
    74
1070
     0
1000
MTEXTEND
  0
SOLID
  5
2082
330
207D
100
AcDbEntity
  8
TXT
 62
     0
100
AcDbTrace
 10
109.0710727459714
 20
-97.26768130021234
 30
0.0
 11
108.955736923548
 21
-97.48948672860828
 31
0.0
 12
108.3479885495718
 22
-97.03257654714013
 32
0.0
 13
108.3479885495718
 23
-97.03257654714013
 33
0.0
  0
LINE
  5
2083
330
207D
100
AcDbEntity
  8
TXT
 62
     0
370
    -2
100
AcDbLine
 10
107.7034749785819
 20
-96.74423699108164
 30
0.0
 11
107.8834749785819
 21
-96.74423699108164
 31
0.0
  0
LINE
  5
2084
330
207D
100
AcDbEntity
  8
TXT
 62
     0
370
    -2
100
AcDbLine
 10
107.7934749785819
 20
-96.83423699108164
 30
0.0
 11
107.7934749785819
 21
-96.65423699108163
 31
0.0
  0
POINT
  5
2085
330
207D
100
AcDbEntity
  8
DEFPOINTS
 62
     0
100
AcDbPoint
 10
108.3479885495718
 20
-97.03257654714013
 30
0.0
  0
POINT
  5
2086
330
207D
100
AcDbEntity
  8
DEFPOINTS
 62
     0
100
AcDbPoint
 10
107.238961407592
 20
-96.45589743502316
 30
0.0
  0
ENDBLK
  5
2087
330
207D
100
AcDbEntity
  8
0
100
AcDbBlockEnd
  0
BLOCK
  5
2119
330
2113
100
AcDbEntity
  8
0
100
AcDbBlockBegin
  2
*D102
 70
     1
 10
0.0
 20
0.0
 30
0.0
  3
*D102
  1

  0
LINE
  5
21FE
330
2113
100
AcDbEntity
  8
0
 62
     0
370
    -2
100
AcDbLine
 10
-45.83534493403156
 20
32.3570713422464
 30
0.0
 11
-48.43560228735263
 21
32.3570713422464
 31
0.0
  0
MTEXT
  5
21FF
330
2113
100
AcDbEntity
  8
0
 62
     0
370
     9
100
AcDbMText
 10
-50.06060228735264
 20
32.3570713422464
 30
0.0
 40
0.75
 41
0.0
 71
     5
 72
     1
  1
\A1;0.000
 73
     1
 44
1.0
1001
ACAD
1000
MTEXTBEGIN
1070
    73
1070
     1
1070
    44
1040
1.0
1070
    74
1070
     0
1000
MTEXTEND
  0
POINT
  5
2200
330
2113
100
AcDbEntity
  8
DEFPOINTS
 62
     0
100
AcDbPoint
 10
-45.46034493403157
 20
32.3570713422464
 30
0.0
  0
POINT
  5
2201
330
2113
100
AcDbEntity
  8
DEFPOINTS
 62
     0
100
AcDbPoint
 10
-48.43560228735263
 20
32.3570713422464
 30
0.0
  0
POINT
  5
2202
330
2113
100
AcDbEntity
  8
DEFPOINTS
 62
     0
100
AcDbPoint
 10
-45.46038101649915
 20
32.35711648232911
 30
0.0
  0
ENDBLK
  5
211A
330
2113
100
AcDbEntity
  8
0
100
AcDbBlockEnd
  0
BLOCK
  5
2121
330
211B
100
AcDbEntity
  8
0
100
AcDbBlockBegin
  2
*D103
 70
     1
 10
0.0
 20
0.0
 30
0.0
  3
*D103
  1

  0
LINE
  5
2203
330
211B
100
AcDbEntity
  8
0
 62
     0
370
    -2
100
AcDbLine
 10
-45.46034493403157
 20
31.9820713422464
 30
0.0
 11
-45.46034493403157
 21
29.38616220417069
 31
0.0
  0
MTEXT
  5
2204
330
211B
100
AcDbEntity
  8
0
 62
     0
370
     9
100
AcDbMText
 10
-45.46034493403158
 20
27.76116220417068
 30
0.0
 40
0.75
 41
0.0
 71
     5
 72
     1
  1
\A1;0.000
 11
0.0000000000000001
 21
1.0
 31
0.0
 73
     1
 44
1.0
1001
ACAD
1000
MTEXTBEGIN
1070
    73
1070
     1
1070
    44
1040
1.0
1070
    74
1070
     0
1000
MTEXTEND
  0
POINT
  5
2205
330
211B
100
AcDbEntity
  8
DEFPOINTS
 62
     0
100
AcDbPoint
 10
-45.46034493403157
 20
32.3570713422464
 30
0.0
  0
POINT
  5
2206
330
211B
100
AcDbEntity
  8
DEFPOINTS
 62
     0
100
AcDbPoint
 10
-45.46034493403157
 20
29.38616220417069
 30
0.0
  0
POINT
  5
2207
330
211B
100
AcDbEntity
  8
DEFPOINTS
 62
     0
100
AcDbPoint
 10
-45.46038101649915
 20
32.35711648232911
 30
0.0
  0
ENDBLK
  5
2122
330
211B
100
AcDbEntity
  8
0
100
AcDbBlockEnd
  0
BLOCK
  5
2129
330
2123
100
AcDbEntity
  8
0
100
AcDbBlockBegin
  2
*D104
 70
     1
 10
0.0
 20
0.0
 30
0.0
  3
*D104
  1

  0
LINE
  5
2208
330
2123
100
AcDbEntity
  8
0
 62
     0
370
    -2
100
AcDbLine
 10
-43.50784493403156
 20
34.3570713422465
 30
0.0
 11
-48.42018745558428
 21
34.3570713422465
 31
0.0
  0
MTEXT
  5
2209
330
2123
100
AcDbEntity
  8
0
 62
     0
370
     9
100
AcDbMText
 10
-50.10768745558428
 20
34.3570713422465
 30
0.0
 40
0.75
 41
0.0
 71
     5
 72
     1
  1
\A1;2.000
 73
     1
 44
1.0
1001
ACAD
1000
MTEXTBEGIN
1070
    73
1070
     1
1070
    44
1040
1.0
1070
    74
1070
     0
1000
MTEXTEND
  0
POINT
  5
220A
330
2123
100
AcDbEntity
  8
DEFPOINTS
 62
     0
100
AcDbPoint
 10
-43.13284493403156
 20
34.3570713422465
 30
0.0
  0
POINT
  5
220B
330
2123
100
AcDbEntity
  8
DEFPOINTS
 62
     0
100
AcDbPoint
 10
-48.42018745558428
 20
34.3570713422465
 30
0.0
  0
POINT
  5
220C
330
2123
100
AcDbEntity
  8
DEFPOINTS
 62
     0
100
AcDbPoint
 10
-45.46038101649915
 20
32.35711648232911
 30
0.0
  0
ENDBLK
  5
212A
330
2123
100
AcDbEntity
  8
0
100
AcDbBlockEnd
  0
BLOCK
  5
2131
330
212B
100
AcDbEntity
  8
0
100
AcDbBlockBegin
  2
*D105
 70
     1
 10
0.0
 20
0.0
 30
0.0
  3
*D105
  1

  0
LINE
  5
220D
330
212B
100
AcDbEntity
  8
0
 62
     0
370
    -2
100
AcDbLine
 10
-45.00784493403165
 20
44.0440713422465
 30
0.0
 11
-48.42018745558428
 21
44.0440713422465
 31
0.0
  0
MTEXT
  5
220E
330
212B
100
AcDbEntity
  8
0
 62
     0
370
     9
100
AcDbMText
 10
-50.42018745558428
 20
44.0440713422465
 30
0.0
 40
0.75
 41
0.0
 71
     5
 72
     1
  1
\A1;11.687
 73
     1
 44
1.0
1001
ACAD
1000
MTEXTBEGIN
1070
    73
1070
     1
1070
    44
1040
1.0
1070
    74
1070
     0
1000
MTEXTEND
  0
POINT
  5
220F
330
212B
100
AcDbEntity
  8
DEFPOINTS
 62
     0
100
AcDbPoint
 10
-44.63284493403165
 20
44.0440713422465
 30
0.0
  0
POINT
  5
2210
330
212B
100
AcDbEntity
  8
DEFPOINTS
 62
     0
100
AcDbPoint
 10
-48.42018745558428
 20
44.0440713422465
 30
0.0
  0
POINT
  5
2211
330
212B
100
AcDbEntity
  8
DEFPOINTS
 62
     0
100
AcDbPoint
 10
-45.46038101649915
 20
32.35711648232911
 30
0.0
  0
ENDBLK
  5
2132
330
212B
100
AcDbEntity
  8
0
100
AcDbBlockEnd
  0
BLOCK
  5
213B
330
2133
100
AcDbEntity
  8
0
100
AcDbBlockBegin
  2
*D106
 70
     1
 10
0.0
 20
0.0
 30
0.0
  3
*D106
  1

  0
LINE
  5
2212
330
2133
100
AcDbEntity
  8
0
 62
     0
370
    -2
100
AcDbLine
 10
-42.80584493403165
 20
45.16937134224657
 30
0.0
 11
-45.42018745558428
 21
45.16937134224657
 31
0.0
  0
LINE
  5
2213
330
2133
100
AcDbEntity
  8
0
 62
     0
370
    -2
100
AcDbLine
 10
-45.42018745558428
 20
45.16937134224657
 30
0.0
 11
-46.92018745558428
 21
45.4177287785174
 31
0.0
  0
LINE
  5
2214
330
2133
100
AcDbEntity
  8
0
 62
     0
370
    -2
100
AcDbLine
 10
-46.92018745558428
 20
45.4177287785174
 30
0.0
 11
-48.42018745558428
 21
45.4177287785174
 31
0.0
  0
MTEXT
  5
2215
330
2133
100
AcDbEntity
  8
0
 62
     0
370
     9
100
AcDbMText
 10
-50.42018745558428
 20
45.4177287785174
 30
0.0
 40
0.75
 41
0.0
 71
     5
 72
     1
  1
\A1;12.812
 73
     1
 44
1.0
1001
ACAD
1000
MTEXTBEGIN
1070
    73
1070
     1
1070
    44
1040
1.0
1070
    74
1070
     0
1000
MTEXTEND
  0
POINT
  5
2216
330
2133
100
AcDbEntity
  8
DEFPOINTS
 62
     0
100
AcDbPoint
 10
-42.43084493403165
 20
45.16937134224657
 30
0.0
  0
POINT
  5
2217
330
2133
100
AcDbEntity
  8
DEFPOINTS
 62
     0
100
AcDbPoint
 10
-48.42018745558428
 20
45.4177287785174
 30
0.0
  0
POINT
  5
2218
330
2133
100
AcDbEntity
  8
DEFPOINTS
 62
     0
100
AcDbPoint
 10
-45.46038101649915
 20
32.35711648232911
 30
0.0
  0
ENDBLK
  5
213C
330
2133
100
AcDbEntity
  8
0
100
AcDbBlockEnd
  0
BLOCK
  5
2145
330
213D
100
AcDbEntity
  8
0
100
AcDbBlockBegin
  2
*D107
 70
     1
 10
0.0
 20
0.0
 30
0.0
  3
*D107
  1

  0
LINE
  5
2219
330
213D
100
AcDbEntity
  8
0
 62
     0
370
    -2
100
AcDbLine
 10
-42.80584493403177
 20
39.49407134224653
 30
0.0
 11
-45.42018745558428
 21
39.49407134224653
 31
0.0
  0
LINE
  5
221A
330
213D
100
AcDbEntity
  8
0
 62
     0
370
    -2
100
AcDbLine
 10
-45.42018745558428
 20
39.49407134224653
 30
0.0
 11
-46.92018745558428
 21
39.51364854292421
 31
0.0
  0
LINE
  5
221B
330
213D
100
AcDbEntity
  8
0
 62
     0
370
    -2
100
AcDbLine
 10
-46.92018745558428
 20
39.51364854292421
 30
0.0
 11
-48.42018745558428
 21
39.51364854292421
 31
0.0
  0
MTEXT
  5
221C
330
213D
100
AcDbEntity
  8
0
 62
     0
370
     9
100
AcDbMText
 10
-50.17018745558428
 20
39.51364854292421
 30
0.0
 40
0.75
 41
0.0
 71
     5
 72
     1
  1
\A1;7.137
 73
     1
 44
1.0
1001
ACAD
1000
MTEXTBEGIN
1070
    73
1070
     1
1070
    44
1040
1.0
1070
    74
1070
     0
1000
MTEXTEND
  0
POINT
  5
221D
330
213D
100
AcDbEntity
  8
DEFPOINTS
 62
     0
100
AcDbPoint
 10
-42.43084493403176
 20
39.49407134224653
 30
0.0
  0
POINT
  5
221E
330
213D
100
AcDbEntity
  8
DEFPOINTS
 62
     0
100
AcDbPoint
 10
-48.42018745558428
 20
39.51364854292421
 30
0.0
  0
POINT
  5
221F
330
213D
100
AcDbEntity
  8
DEFPOINTS
 62
     0
100
AcDbPoint
 10
-45.46038101649915
 20
32.35711648232911
 30
0.0
  0
ENDBLK
  5
2146
330
213D
100
AcDbEntity
  8
0
100
AcDbBlockEnd
  0
BLOCK
  5
214F
330
2147
100
AcDbEntity
  8
0
100
AcDbBlockBegin
  2
*D108
 70
     1
 10
0.0
 20
0.0
 30
0.0
  3
*D108
  1

  0
LINE
  5
2220
330
2147
100
AcDbEntity
  8
0
 62
     0
370
    -2
100
AcDbLine
 10
-38.19784493403165
 20
37.26557134224665
 30
0.0
 11
-45.42018745558434
 21
37.26557134224665
 31
0.0
  0
LINE
  5
2221
330
2147
100
AcDbEntity
  8
0
 62
     0
370
    -2
100
AcDbLine
 10
-45.42018745558434
 20
37.26557134224665
 30
0.0
 11
-46.92018745558434
 21
37.29242060547966
 31
0.0
  0
LINE
  5
2222
330
2147
100
AcDbEntity
  8
0
 62
     0
370
    -2
100
AcDbLine
 10
-46.92018745558434
 20
37.29242060547966
 30
0.0
 11
-48.42018745558434
 21
37.29242060547966
 31
0.0
  0
MTEXT
  5
2223
330
2147
100
AcDbEntity
  8
0
 62
     0
370
     9
100
AcDbMText
 10
-50.23268745558434
 20
37.29242060547966
 30
0.0
 40
0.75
 41
0.0
 71
     5
 72
     1
  1
\A1;4.908
 73
     1
 44
1.0
1001
ACAD
1000
MTEXTBEGIN
1070
    73
1070
     1
1070
    44
1040
1.0
1070
    74
1070
     0
1000
MTEXTEND
  0
POINT
  5
2224
330
2147
100
AcDbEntity
  8
DEFPOINTS
 62
     0
100
AcDbPoint
 10
-37.82284493403165
 20
37.26557134224665
 30
0.0
  0
POINT
  5
2225
330
2147
100
AcDbEntity
  8
DEFPOINTS
 62
     0
100
AcDbPoint
 10
-48.42018745558434
 20
37.29242060547966
 30
0.0
  0
POINT
  5
2226
330
2147
100
AcDbEntity
  8
DEFPOINTS
 62
     0
100
AcDbPoint
 10
-45.46038101649915
 20
32.35711648232911
 30
0.0
  0
ENDBLK
  5
2150
330
2147
100
AcDbEntity
  8
0
100
AcDbBlockEnd
  0
BLOCK
  5
2157
330
2151
100
AcDbEntity
  8
0
100
AcDbBlockBegin
  2
*D109
 70
     1
 10
0.0
 20
0.0
 30
0.0
  3
*D109
  1

  0
LINE
  5
2227
330
2151
100
AcDbEntity
  8
0
 62
     0
370
    -2
100
AcDbLine
 10
-43.13284493403156
 20
33.9820713422465
 30
0.0
 11
-43.13284493403156
 21
29.3460397464674
 31
0.0
  0
MTEXT
  5
2228
330
2151
100
AcDbEntity
  8
0
 62
     0
370
     9
100
AcDbMText
 10
-43.13284493403157
 20
27.47103974646739
 30
0.0
 40
0.75
 41
0.0
 71
     5
 72
     1
  1
\A1;2.328
 11
0.0000000000000001
 21
1.0
 31
0.0
 73
     1
 44
1.0
1001
ACAD
1000
MTEXTBEGIN
1070
    73
1070
     1
1070
    44
1040
1.0
1070
    74
1070
     0
1000
MTEXTEND
  0
POINT
  5
2229
330
2151
100
AcDbEntity
  8
DEFPOINTS
 62
     0
100
AcDbPoint
 10
-43.13284493403156
 20
34.3570713422465
 30
0.0
  0
POINT
  5
222A
330
2151
100
AcDbEntity
  8
DEFPOINTS
 62
     0
100
AcDbPoint
 10
-43.13284493403156
 20
29.3460397464674
 30
0.0
  0
POINT
  5
222B
330
2151
100
AcDbEntity
  8
DEFPOINTS
 62
     0
100
AcDbPoint
 10
-45.46038101649915
 20
32.35711648232911
 30
0.0
  0
ENDBLK
  5
2158
330
2151
100
AcDbEntity
  8
0
100
AcDbBlockEnd
  0
BLOCK
  5
2161
330
2159
100
AcDbEntity
  8
0
100
AcDbBlockBegin
  2
*D110
 70
     1
 10
0.0
 20
0.0
 30
0.0
  3
*D110
  1

  0
LINE
  5
222C
330
2159
100
AcDbEntity
  8
0
 62
     0
370
    -2
100
AcDbLine
 10
-37.82284493403157
 20
35.39057134224647
 30
0.0
 11
-37.82284493403157
 21
32.3460397464674
 31
0.0
  0
LINE
  5
222D
330
2159
100
AcDbEntity
  8
0
 62
     0
370
    -2
100
AcDbLine
 10
-37.82284493403157
 20
32.3460397464674
 30
0.0
 11
-38.48259705849386
 21
30.8460397464674
 31
0.0
  0
LINE
  5
222E
330
2159
100
AcDbEntity
  8
0
 62
     0
370
    -2
100
AcDbLine
 10
-38.48259705849386
 20
30.8460397464674
 30
0.0
 11
-38.48259705849386
 21
29.3460397464674
 31
0.0
  0
MTEXT
  5
222F
330
2159
100
AcDbEntity
  8
0
 62
     0
370
     9
100
AcDbMText
 10
-38.48259705849388
 20
27.47103974646739
 30
0.0
 40
0.75
 41
0.0
 71
     5
 72
     1
  1
\A1;7.638
 11
0.0000000000000001
 21
1.0
 31
0.0
 73
     1
 44
1.0
1001
ACAD
1000
MTEXTBEGIN
1070
    73
1070
     1
1070
    44
1040
1.0
1070
    74
1070
     0
1000
MTEXTEND
  0
POINT
  5
2230
330
2159
100
AcDbEntity
  8
DEFPOINTS
 62
     0
100
AcDbPoint
 10
-37.82284493403157
 20
35.76557134224648
 30
0.0
  0
POINT
  5
2231
330
2159
100
AcDbEntity
  8
DEFPOINTS
 62
     0
100
AcDbPoint
 10
-38.48259705849386
 20
29.3460397464674
 30
0.0
  0
POINT
  5
2232
330
2159
100
AcDbEntity
  8
DEFPOINTS
 62
     0
100
AcDbPoint
 10
-45.46038101649915
 20
32.35711648232911
 30
0.0
  0
ENDBLK
  5
2162
330
2159
100
AcDbEntity
  8
0
100
AcDbBlockEnd
  0
BLOCK
  5
2169
330
2163
100
AcDbEntity
  8
0
100
AcDbBlockBegin
  2
*D111
 70
     1
 10
0.0
 20
0.0
 30
0.0
  3
*D111
  1

  0
LINE
  5
2233
330
2163
100
AcDbEntity
  8
0
 62
     0
370
    -2
100
AcDbLine
 10
-33.38284493403157
 20
33.9820713422465
 30
0.0
 11
-33.38284493403157
 21
29.28422585524601
 31
0.0
  0
MTEXT
  5
2234
330
2163
100
AcDbEntity
  8
0
 62
     0
370
     9
100
AcDbMText
 10
-33.38284493403158
 20
27.221725855246
 30
0.0
 40
0.75
 41
0.0
 71
     5
 72
     1
  1
\A1;12.078
 11
0.0000000000000001
 21
1.0
 31
0.0
 73
     1
 44
1.0
1001
ACAD
1000
MTEXTBEGIN
1070
    73
1070
     1
1070
    44
1040
1.0
1070
    74
1070
     0
1000
MTEXTEND
  0
POINT
  5
2235
330
2163
100
AcDbEntity
  8
DEFPOINTS
 62
     0
100
AcDbPoint
 10
-33.38284493403157
 20
34.3570713422465
 30
0.0
  0
POINT
  5
2236
330
2163
100
AcDbEntity
  8
DEFPOINTS
 62
     0
100
AcDbPoint
 10
-33.38284493403157
 20
29.28422585524601
 30
0.0
  0
POINT
  5
2237
330
2163
100
AcDbEntity
  8
DEFPOINTS
 62
     0
100
AcDbPoint
 10
-45.46038101649915
 20
32.35711648232911
 30
0.0
  0
ENDBLK
  5
216A
330
2163
100
AcDbEntity
  8
0
100
AcDbBlockEnd
  0
BLOCK
  5
2171
330
216B
100
AcDbEntity
  8
0
100
AcDbBlockBegin
  2
*D112
 70
     1
 10
0.0
 20
0.0
 30
0.0
  3
*D112
  1

  0
LINE
  5
2238
330
216B
100
AcDbEntity
  8
0
 62
     0
370
    -2
100
AcDbLine
 10
-36.56984493403178
 20
45.54437134224636
 30
0.0
 11
-36.56984493403165
 21
47.6102179916846
 31
0.0
  0
MTEXT
  5
2239
330
216B
100
AcDbEntity
  8
0
 62
     0
370
     9
100
AcDbMText
 10
-36.56984493403166
 20
49.3602179916846
 30
0.0
 40
0.75
 41
0.0
 71
     5
 72
     1
  1
\A1;8.891
 11
0.0000000000000001
 21
1.0
 31
0.0
 73
     1
 44
1.0
1001
ACAD
1000
MTEXTBEGIN
1070
    73
1070
     1
1070
    44
1040
1.0
1070
    74
1070
     0
1000
MTEXTEND
  0
POINT
  5
223A
330
216B
100
AcDbEntity
  8
DEFPOINTS
 62
     0
100
AcDbPoint
 10
-36.56984493403178
 20
45.16937134224636
 30
0.0
  0
POINT
  5
223B
330
216B
100
AcDbEntity
  8
DEFPOINTS
 62
     0
100
AcDbPoint
 10
-36.56984493403165
 20
47.6102179916846
 30
0.0
  0
POINT
  5
223C
330
216B
100
AcDbEntity
  8
DEFPOINTS
 62
     0
100
AcDbPoint
 10
-45.46038101649915
 20
32.35711648232911
 30
0.0
  0
ENDBLK
  5
2172
330
216B
100
AcDbEntity
  8
0
100
AcDbBlockEnd
  0
BLOCK
  5
2179
330
2173
100
AcDbEntity
  8
0
100
AcDbBlockBegin
  2
*D113
 70
     1
 10
0.0
 20
0.0
 30
0.0
  3
*D113
  1

  0
LINE
  5
223D
330
2173
100
AcDbEntity
  8
0
 62
     0
370
    -2
100
AcDbLine
 10
-31.81984493403165
 20
39.73207134224661
 30
0.0
 11
-31.81984493403165
 21
29.40748215091119
 31
0.0
  0
MTEXT
  5
223E
330
2173
100
AcDbEntity
  8
0
 62
     0
370
     9
100
AcDbMText
 10
-31.81984493403166
 20
27.40748215091119
 30
0.0
 40
0.75
 41
0.0
 71
     5
 72
     1
  1
\A1;13.641
 11
0.0000000000000001
 21
1.0
 31
0.0
 73
     1
 44
1.0
1001
ACAD
1000
MTEXTBEGIN
1070
    73
1070
     1
1070
    44
1040
1.0
1070
    74
1070
     0
1000
MTEXTEND
  0
POINT
  5
223F
330
2173
100
AcDbEntity
  8
DEFPOINTS
 62
     0
100
AcDbPoint
 10
-31.81984493403165
 20
40.10707134224661
 30
0.0
  0
POINT
  5
2240
330
2173
100
AcDbEntity
  8
DEFPOINTS
 62
     0
100
AcDbPoint
 10
-31.81984493403165
 20
29.40748215091119
 30
0.0
  0
POINT
  5
2241
330
2173
100
AcDbEntity
  8
DEFPOINTS
 62
     0
100
AcDbPoint
 10
-45.46038101649915
 20
32.35711648232911
 30
0.0
  0
ENDBLK
  5
217A
330
2173
100
AcDbEntity
  8
0
100
AcDbBlockEnd
  0
BLOCK
  5
2183
330
217B
100
AcDbEntity
  8
0
100
AcDbBlockBegin
  2
*D114
 70
     1
 10
0.0
 20
0.0
 30
0.0
  3
*D114
  1

  0
LINE
  5
2242
330
217B
100
AcDbEntity
  8
0
 62
     0
370
    -2
100
AcDbLine
 10
-31.44484493403165
 20
40.10707134224661
 30
0.0
 11
-30.31984493403165
 21
40.10707134224661
 31
0.0
  0
LINE
  5
2243
330
217B
100
AcDbEntity
  8
0
 62
     0
370
    -2
100
AcDbLine
 10
-30.31984493403165
 20
40.10707134224661
 30
0.0
 11
-29.31543841221986
 21
42.20366303451553
 31
0.0
  0
LINE
  5
2244
330
217B
100
AcDbEntity
  8
0
 62
     0
370
    -2
100
AcDbLine
 10
-29.31543841221986
 20
42.20366303451553
 30
0.0
 11
-27.81543841221986
 21
42.20366303451553
 31
0.0
  0
MTEXT
  5
2245
330
217B
100
AcDbEntity
  8
0
 62
     0
370
     9
100
AcDbMText
 10
-26.00293841221986
 20
42.20366303451553
 30
0.0
 40
0.75
 41
0.0
 71
     5
 72
     1
  1
\A1;7.750
 73
     1
 44
1.0
1001
ACAD
1000
MTEXTBEGIN
1070
    73
1070
     1
1070
    44
1040
1.0
1070
    74
1070
     0
1000
MTEXTEND
  0
POINT
  5
2246
330
217B
100
AcDbEntity
  8
DEFPOINTS
 62
     0
100
AcDbPoint
 10
-31.81984493403165
 20
40.10707134224661
 30
0.0
  0
POINT
  5
2247
330
217B
100
AcDbEntity
  8
DEFPOINTS
 62
     0
100
AcDbPoint
 10
-27.81543841221986
 20
42.20366303451553
 30
0.0
  0
POINT
  5
2248
330
217B
100
AcDbEntity
  8
DEFPOINTS
 62
     0
100
AcDbPoint
 10
-45.46038101649915
 20
32.35711648232911
 30
0.0
  0
ENDBLK
  5
2184
330
217B
100
AcDbEntity
  8
0
100
AcDbBlockEnd
  0
BLOCK
  5
218D
330
2185
100
AcDbEntity
  8
0
100
AcDbBlockBegin
  2
*D115
 70
     1
 10
0.0
 20
0.0
 30
0.0
  3
*D115
  1

  0
LINE
  5
2249
330
2185
100
AcDbEntity
  8
0
 62
     0
370
    -2
100
AcDbLine
 10
-31.44484493403147
 20
45.16937134224649
 30
0.0
 11
-30.31984493403147
 21
45.16937134224649
 31
0.0
  0
LINE
  5
224A
330
2185
100
AcDbEntity
  8
0
 62
     0
370
    -2
100
AcDbLine
 10
-30.31984493403147
 20
45.16937134224649
 30
0.0
 11
-29.61083980885178
 21
45.16634367049154
 31
0.0
  0
LINE
  5
224B
330
2185
100
AcDbEntity
  8
0
 62
     0
370
    -2
100
AcDbLine
 10
-29.61083980885178
 20
45.16634367049154
 30
0.0
 11
-28.11083980885178
 21
45.16634367049154
 31
0.0
  0
MTEXT
  5
224C
330
2185
100
AcDbEntity
  8
0
 62
     0
370
     9
100
AcDbMText
 10
-26.11083980885178
 20
45.16634367049154
 30
0.0
 40
0.75
 41
0.0
 71
     5
 72
     1
  1
\A1;12.812
 73
     1
 44
1.0
1001
ACAD
1000
MTEXTBEGIN
1070
    73
1070
     1
1070
    44
1040
1.0
1070
    74
1070
     0
1000
MTEXTEND
  0
POINT
  5
224D
330
2185
100
AcDbEntity
  8
DEFPOINTS
 62
     0
100
AcDbPoint
 10
-31.81984493403147
 20
45.16937134224649
 30
0.0
  0
POINT
  5
224E
330
2185
100
AcDbEntity
  8
DEFPOINTS
 62
     0
100
AcDbPoint
 10
-28.11083980885178
 20
45.16634367049154
 30
0.0
  0
POINT
  5
224F
330
2185
100
AcDbEntity
  8
DEFPOINTS
 62
     0
100
AcDbPoint
 10
-45.46038101649915
 20
32.35711648232911
 30
0.0
  0
ENDBLK
  5
218E
330
2185
100
AcDbEntity
  8
0
100
AcDbBlockEnd
  0
BLOCK
  5
2198
330
218F
100
AcDbEntity
  8
0
100
AcDbBlockBegin
  2
*D116
 70
     1
 10
0.0
 20
0.0
 30
0.0
  3
*D116
  1

  0
LINE
  5
2250
330
218F
100
AcDbEntity
  8
TXT
 62
     0
370
    -2
100
AcDbLine
 10
-28.77325833913607
 20
32.9498985806782
 30
0.0
 11
-29.52325833913624
 21
32.9498985806782
 31
0.0
  0
LINE
  5
2251
330
218F
100
AcDbEntity
  8
TXT
 62
     0
370
    -2
100
AcDbLine
 10
-29.52325833913624
 20
32.9498985806782
 30
0.0
 11
-36.60291507785387
 21
36.63122431891779
 31
0.0
  0
MTEXT
  5
2252
330
218F
100
AcDbEntity
  8
TXT
 62
     0
370
     9
100
AcDbMText
 10
-25.87075833913606
 20
32.9498985806782
 30
0.0
 40
0.75
 41
0.0
 71
     5
 72
     1
  1
\A1;\U+22051.250 (1)\PPOWER \PSUPPLY
 73
     1
 44
1.0
1001
ACAD
1000
MTEXTBEGIN
1070
    73
1070
     1
1070
    44
1040
1.0
1070
    74
1070
     0
1000
MTEXTEND
  0
SOLID
  5
2253
330
218F
100
AcDbEntity
  8
TXT
 62
     0
100
AcDbTrace
 10
-36.54524716664216
 20
36.74212703311577
 30
0.0
 11
-36.66058298906556
 21
36.52032160471981
 31
0.0
 12
-37.26833136304177
 22
36.97723178618797
 32
0.0
 13
-37.26833136304177
 23
36.97723178618797
 33
0.0
  0
LINE
  5
2254
330
218F
100
AcDbEntity
  8
TXT
 62
     0
370
    -2
100
AcDbLine
 10
-37.91284493403168
 20
37.26557134224647
 30
0.0
 11
-37.73284493403167
 21
37.26557134224646
 31
0.0
  0
LINE
  5
2255
330
218F
100
AcDbEntity
  8
TXT
 62
     0
370
    -2
100
AcDbLine
 10
-37.82284493403168
 20
37.17557134224646
 30
0.0
 11
-37.82284493403168
 21
37.35557134224646
 31
0.0
  0
POINT
  5
2256
330
218F
100
AcDbEntity
  8
DEFPOINTS
 62
     0
100
AcDbPoint
 10
-37.26833136304177
 20
36.97723178618797
 30
0.0
  0
POINT
  5
2257
330
218F
100
AcDbEntity
  8
DEFPOINTS
 62
     0
100
AcDbPoint
 10
-38.37735850502158
 20
37.55391089830494
 30
0.0
  0
ENDBLK
  5
2199
330
218F
100
AcDbEntity
  8
0
100
AcDbBlockEnd
  0
BLOCK
  5
21A2
330
219A
100
AcDbEntity
  8
0
100
AcDbBlockBegin
  2
*D117
 70
     1
 10
0.0
 20
0.0
 30
0.0
  3
*D117
  1

  0
LINE
  5
2258
330
219A
100
AcDbEntity
  8
TXT
 62
     0
370
    -2
100
AcDbLine
 10
-27.68838189678564
 20
38.65421957619868
 30
0.0
 11
-33.95263087197648
 21
38.13019430742409
 31
0.0
  0
MTEXT
  5
2259
330
219A
100
AcDbEntity
  8
TXT
 62
     0
370
     9
100
AcDbMText
 10
-27.59838189678564
 20
38.65421957619869
 30
0.0
 40
0.75
 41
0.0
 71
     4
 72
     1
  1
\A1;\U+22051.250 (1)\POPTIONAL:\PETHERNET/ALARM\PCONNECTION \PPORT
 73
     1
 44
1.0
1001
ACAD
1000
MTEXTBEGIN
1070
    73
1070
     1
1070
    44
1040
1.0
1070
    74
1070
     0
1000
MTEXTEND
  0
SOLID
  5
225A
330
219A
100
AcDbEntity
  8
TXT
 62
     0
100
AcDbTrace
 10
-33.96305114153808
 20
38.25475922215639
 30
0.0
 11
-33.94221060241488
 21
38.00562939269179
 31
0.0
 12
-34.70002036037025
 22
38.06767269005449
 32
0.0
 13
-34.70002036037025
 23
38.06767269005449
 33
0.0
  0
LINE
  5
225B
330
219A
100
AcDbEntity
  8
TXT
 62
     0
370
    -2
100
AcDbLine
 10
-35.4128449340317
 20
38.01557134224648
 30
0.0
 11
-35.23284493403169
 21
38.01557134224648
 31
0.0
  0
LINE
  5
225C
330
219A
100
AcDbEntity
  8
TXT
 62
     0
370
    -2
100
AcDbLine
 10
-35.3228449340317
 20
37.92557134224648
 30
0.0
 11
-35.3228449340317
 21
38.10557134224648
 31
0.0
  0
POINT
  5
225D
330
219A
100
AcDbEntity
  8
DEFPOINTS
 62
     0
100
AcDbPoint
 10
-34.70002036037025
 20
38.06767269005449
 30
0.0
  0
POINT
  5
225E
330
219A
100
AcDbEntity
  8
DEFPOINTS
 62
     0
100
AcDbPoint
 10
-35.94566950769314
 20
37.96346999443848
 30
0.0
  0
ENDBLK
  5
21A3
330
219A
100
AcDbEntity
  8
0
100
AcDbBlockEnd
  0
BLOCK
  5
21AA
330
21A4
100
AcDbEntity
  8
0
100
AcDbBlockBegin
  2
*D118
 70
     1
 10
0.0
 20
0.0
 30
0.0
  3
*D118
  1

  0
LINE
  5
225F
330
21A4
100
AcDbEntity
  8
0
 62
     0
370
    -2
100
AcDbLine
 10
-35.32284493403165
 20
37.64057134224643
 30
0.0
 11
-35.32284493403165
 21
29.3460397464674
 31
0.0
  0
MTEXT
  5
2260
330
21A4
100
AcDbEntity
  8
0
 62
     0
370
     9
100
AcDbMText
 10
-35.32284493403166
 20
27.4085397464674
 30
0.0
 40
0.75
 41
0.0
 71
     5
 72
     1
  1
\A1;10.138
 11
0.0000000000000001
 21
1.0
 31
0.0
 73
     1
 44
1.0
1001
ACAD
1000
MTEXTBEGIN
1070
    73
1070
     1
1070
    44
1040
1.0
1070
    74
1070
     0
1000
MTEXTEND
  0
POINT
  5
2261
330
21A4
100
AcDbEntity
  8
DEFPOINTS
 62
     0
100
AcDbPoint
 10
-35.32284493403165
 20
38.01557134224643
 30
0.0
  0
POINT
  5
2262
330
21A4
100
AcDbEntity
  8
DEFPOINTS
 62
     0
100
AcDbPoint
 10
-35.32284493403165
 20
29.3460397464674
 30
0.0
  0
POINT
  5
2263
330
21A4
100
AcDbEntity
  8
DEFPOINTS
 62
     0
100
AcDbPoint
 10
-45.46038101649915
 20
32.35711648232911
 30
0.0
  0
ENDBLK
  5
21AB
330
21A4
100
AcDbEntity
  8
0
100
AcDbBlockEnd
  0
BLOCK
  5
21B4
330
21AC
100
AcDbEntity
  8
0
100
AcDbBlockBegin
  2
*D119
 70
     1
 10
0.0
 20
0.0
 30
0.0
  3
*D119
  1

  0
LINE
  5
2264
330
21AC
100
AcDbEntity
  8
0
 62
     0
370
    -2
100
AcDbLine
 10
-35.69784493403165
 20
38.01557134224643
 30
0.0
 11
-45.42018745558434
 21
38.01557134224643
 31
0.0
  0
LINE
  5
2265
330
21AC
100
AcDbEntity
  8
0
 62
     0
370
    -2
100
AcDbLine
 10
-45.42018745558434
 20
38.01557134224643
 30
0.0
 11
-46.92018745558434
 21
38.34779664875586
 31
0.0
  0
LINE
  5
2266
330
21AC
100
AcDbEntity
  8
0
 62
     0
370
    -2
100
AcDbLine
 10
-46.92018745558434
 20
38.34779664875586
 30
0.0
 11
-48.42018745558434
 21
38.34779664875586
 31
0.0
  0
MTEXT
  5
2267
330
21AC
100
AcDbEntity
  8
0
 62
     0
370
     9
100
AcDbMText
 10
-50.29518745558434
 20
38.34779664875586
 30
0.0
 40
0.75
 41
0.0
 71
     5
 72
     1
  1
\A1;5.658
 73
     1
 44
1.0
1001
ACAD
1000
MTEXTBEGIN
1070
    73
1070
     1
1070
    44
1040
1.0
1070
    74
1070
     0
1000
MTEXTEND
  0
POINT
  5
2268
330
21AC
100
AcDbEntity
  8
DEFPOINTS
 62
     0
100
AcDbPoint
 10
-35.32284493403165
 20
38.01557134224643
 30
0.0
  0
POINT
  5
2269
330
21AC
100
AcDbEntity
  8
DEFPOINTS
 62
     0
100
AcDbPoint
 10
-48.42018745558434
 20
38.34779664875586
 30
0.0
  0
POINT
  5
226A
330
21AC
100
AcDbEntity
  8
DEFPOINTS
 62
     0
100
AcDbPoint
 10
-45.46038101649915
 20
32.35711648232911
 30
0.0
  0
ENDBLK
  5
21B5
330
21AC
100
AcDbEntity
  8
0
100
AcDbBlockEnd
  0
BLOCK
  5
21BC
330
21B6
100
AcDbEntity
  8
0
100
AcDbBlockBegin
  2
*D120
 70
     1
 10
0.0
 20
0.0
 30
0.0
  3
*D120
  1

  0
LINE
  5
226B
330
21B6
100
AcDbEntity
  8
0
 62
     0
370
    -2
100
AcDbLine
 10
-44.63284493403165
 20
44.41907134224649
 30
0.0
 11
-44.63284493403165
 21
47.4519248619643
 31
0.0
  0
MTEXT
  5
226C
330
21B6
100
AcDbEntity
  8
0
 62
     0
370
     9
100
AcDbMText
 10
-44.63284493403166
 20
49.26442486196429
 30
0.0
 40
0.75
 41
0.0
 71
     5
 72
     1
  1
\A1;0.827
 11
0.0000000000000001
 21
1.0
 31
0.0
 73
     1
 44
1.0
1001
ACAD
1000
MTEXTBEGIN
1070
    73
1070
     1
1070
    44
1040
1.0
1070
    74
1070
     0
1000
MTEXTEND
  0
POINT
  5
226D
330
21B6
100
AcDbEntity
  8
DEFPOINTS
 62
     0
100
AcDbPoint
 10
-44.63284493403165
 20
44.0440713422465
 30
0.0
  0
POINT
  5
226E
330
21B6
100
AcDbEntity
  8
DEFPOINTS
 62
     0
100
AcDbPoint
 10
-44.63284493403165
 20
47.4519248619643
 30
0.0
  0
POINT
  5
226F
330
21B6
100
AcDbEntity
  8
DEFPOINTS
 62
     0
100
AcDbPoint
 10
-45.46034493403157
 20
32.3570713422464
 30
0.0
  0
ENDBLK
  5
21BD
330
21B6
100
AcDbEntity
  8
0
100
AcDbBlockEnd
  0
BLOCK
  5
21C4
330
21BE
100
AcDbEntity
  8
0
100
AcDbBlockBegin
  2
*D121
 70
     1
 10
0.0
 20
0.0
 30
0.0
  3
*D121
  1

  0
LINE
  5
2270
330
21BE
100
AcDbEntity
  8
0
 62
     0
370
    -2
100
AcDbLine
 10
-31.05534493403165
 20
45.99707134224653
 30
0.0
 11
-31.05534493403165
 21
47.6102179916846
 31
0.0
  0
MTEXT
  5
2271
330
21BE
100
AcDbEntity
  8
0
 62
     0
370
     9
100
AcDbMText
 10
-31.05534493403166
 20
49.6727179916846
 30
0.0
 40
0.75
 41
0.0
 71
     5
 72
     1
  1
\A1;14.405
 11
0.0000000000000001
 21
1.0
 31
0.0
 73
     1
 44
1.0
1001
ACAD
1000
MTEXTBEGIN
1070
    73
1070
     1
1070
    44
1040
1.0
1070
    74
1070
     0
1000
MTEXTEND
  0
POINT
  5
2272
330
21BE
100
AcDbEntity
  8
DEFPOINTS
 62
     0
100
AcDbPoint
 10
-31.05534493403165
 20
45.62207134224652
 30
0.0
  0
POINT
  5
2273
330
21BE
100
AcDbEntity
  8
DEFPOINTS
 62
     0
100
AcDbPoint
 10
-31.05534493403165
 20
47.6102179916846
 30
0.0
  0
POINT
  5
2274
330
21BE
100
AcDbEntity
  8
DEFPOINTS
 62
     0
100
AcDbPoint
 10
-45.46038101649905
 20
32.3570713422463
 30
0.0
  0
ENDBLK
  5
21C5
330
21BE
100
AcDbEntity
  8
0
100
AcDbBlockEnd
  0
BLOCK
  5
21CE
330
21C6
100
AcDbEntity
  8
0
100
AcDbBlockBegin
  2
*D122
 70
     1
 10
0.0
 20
0.0
 30
0.0
  3
*D122
  1

  0
LINE
  5
2275
330
21C6
100
AcDbEntity
  8
0
 62
     0
370
    -2
100
AcDbLine
 10
-31.88284493403157
 20
44.41907134224649
 30
0.0
 11
-31.88284493403157
 21
45.54407134224649
 31
0.0
  0
LINE
  5
2276
330
21C6
100
AcDbEntity
  8
0
 62
     0
370
    -2
100
AcDbLine
 10
-31.88284493403157
 20
45.54407134224649
 30
0.0
 11
-33.45216071230377
 21
46.11021799168461
 31
0.0
  0
LINE
  5
2277
330
21C6
100
AcDbEntity
  8
0
 62
     0
370
    -2
100
AcDbLine
 10
-33.45216071230377
 20
46.11021799168461
 30
0.0
 11
-33.45216071230377
 21
47.6102179916846
 31
0.0
  0
MTEXT
  5
2278
330
21C6
100
AcDbEntity
  8
0
 62
     0
370
     9
100
AcDbMText
 10
-33.45216071230377
 20
49.7352179916846
 30
0.0
 40
0.75
 41
0.0
 71
     5
 72
     1
  1
\A1;13.578
 11
0.0000000000000001
 21
1.0
 31
0.0
 73
     1
 44
1.0
1001
ACAD
1000
MTEXTBEGIN
1070
    73
1070
     1
1070
    44
1040
1.0
1070
    74
1070
     0
1000
MTEXTEND
  0
POINT
  5
2279
330
21C6
100
AcDbEntity
  8
DEFPOINTS
 62
     0
100
AcDbPoint
 10
-31.88284493403157
 20
44.0440713422465
 30
0.0
  0
POINT
  5
227A
330
21C6
100
AcDbEntity
  8
DEFPOINTS
 62
     0
100
AcDbPoint
 10
-33.45216071230377
 20
47.6102179916846
 30
0.0
  0
POINT
  5
227B
330
21C6
100
AcDbEntity
  8
DEFPOINTS
 62
     0
100
AcDbPoint
 10
-45.46038101649905
 20
32.3570713422463
 30
0.0
  0
ENDBLK
  5
21CF
330
21C6
100
AcDbEntity
  8
0
100
AcDbBlockEnd
  0
BLOCK
  5
21D8
330
21D0
100
AcDbEntity
  8
0
100
AcDbBlockBegin
  2
*D123
 70
     1
 10
0.0
 20
0.0
 30
0.0
  3
*D123
  1

  0
LINE
  5
227C
330
21D0
100
AcDbEntity
  8
0
 62
     0
370
    -2
100
AcDbLine
 10
-31.50784493403157
 20
44.0440713422465
 30
0.0
 11
-30.38284493403157
 21
44.0440713422465
 31
0.0
  0
LINE
  5
227D
330
21D0
100
AcDbEntity
  8
0
 62
     0
370
    -2
100
AcDbLine
 10
-30.38284493403157
 20
44.0440713422465
 30
0.0
 11
-29.61083980885178
 21
43.28541615453365
 31
0.0
  0
LINE
  5
227E
330
21D0
100
AcDbEntity
  8
0
 62
     0
370
    -2
100
AcDbLine
 10
-29.61083980885178
 20
43.28541615453365
 30
0.0
 11
-28.11083980885178
 21
43.28541615453365
 31
0.0
  0
MTEXT
  5
227F
330
21D0
100
AcDbEntity
  8
0
 62
     0
370
     9
100
AcDbMText
 10
-26.11083980885178
 20
43.28541615453365
 30
0.0
 40
0.75
 41
0.0
 71
     5
 72
     1
  1
\A1;11.687
 73
     1
 44
1.0
1001
ACAD
1000
MTEXTBEGIN
1070
    73
1070
     1
1070
    44
1040
1.0
1070
    74
1070
     0
1000
MTEXTEND
  0
POINT
  5
2280
330
21D0
100
AcDbEntity
  8
DEFPOINTS
 62
     0
100
AcDbPoint
 10
-31.88284493403157
 20
44.0440713422465
 30
0.0
  0
POINT
  5
2281
330
21D0
100
AcDbEntity
  8
DEFPOINTS
 62
     0
100
AcDbPoint
 10
-28.11083980885178
 20
43.28541615453365
 30
0.0
  0
POINT
  5
2282
330
21D0
100
AcDbEntity
  8
DEFPOINTS
 62
     0
100
AcDbPoint
 10
-45.46038101649905
 20
32.3570713422463
 30
0.0
  0
ENDBLK
  5
21D9
330
21D0
100
AcDbEntity
  8
0
100
AcDbBlockEnd
  0
BLOCK
  5
21E2
330
21DA
100
AcDbEntity
  8
0
100
AcDbBlockBegin
  2
*D124
 70
     1
 10
0.0
 20
0.0
 30
0.0
  3
*D124
  1

  0
LINE
  5
2283
330
21DA
100
AcDbEntity
  8
0
 62
     0
370
    -2
100
AcDbLine
 10
-30.68034493403165
 20
45.62207134224652
 30
0.0
 11
-30.05534493403165
 21
45.62207134224652
 31
0.0
  0
LINE
  5
2284
330
21DA
100
AcDbEntity
  8
0
 62
     0
370
    -2
100
AcDbLine
 10
-30.05534493403165
 20
45.62207134224652
 30
0.0
 11
-29.11083980885178
 21
46.77409564202058
 31
0.0
  0
LINE
  5
2285
330
21DA
100
AcDbEntity
  8
0
 62
     0
370
    -2
100
AcDbLine
 10
-29.11083980885178
 20
46.77409564202058
 30
0.0
 11
-28.11083980885178
 21
46.77409564202058
 31
0.0
  0
MTEXT
  5
2286
330
21DA
100
AcDbEntity
  8
0
 62
     0
370
     9
100
AcDbMText
 10
-25.98583980885178
 20
46.77409564202058
 30
0.0
 40
0.75
 41
0.0
 71
     5
 72
     1
  1
\A1;13.265
 73
     1
 44
1.0
1001
ACAD
1000
MTEXTBEGIN
1070
    73
1070
     1
1070
    44
1040
1.0
1070
    74
1070
     0
1000
MTEXTEND
  0
POINT
  5
2287
330
21DA
100
AcDbEntity
  8
DEFPOINTS
 62
     0
100
AcDbPoint
 10
-31.05534493403165
 20
45.62207134224652
 30
0.0
  0
POINT
  5
2288
330
21DA
100
AcDbEntity
  8
DEFPOINTS
 62
     0
100
AcDbPoint
 10
-28.11083980885178
 20
46.77409564202058
 30
0.0
  0
POINT
  5
2289
330
21DA
100
AcDbEntity
  8
DEFPOINTS
 62
     0
100
AcDbPoint
 10
-45.46038101649905
 20
32.3570713422463
 30
0.0
  0
ENDBLK
  5
21E3
330
21DA
100
AcDbEntity
  8
0
100
AcDbBlockEnd
  0
BLOCK
  5
21EC
330
21E4
100
AcDbEntity
  8
0
100
AcDbBlockBegin
  2
*D125
 70
     1
 10
0.0
 20
0.0
 30
0.0
  3
*D125
  1

  0
LINE
  5
228A
330
21E4
100
AcDbEntity
  8
0
 62
     0
370
    -2
100
AcDbLine
 10
-38.19784493403157
 20
35.76557134224648
 30
0.0
 11
-45.42018745558415
 21
35.76557134224648
 31
0.0
  0
LINE
  5
228B
330
21E4
100
AcDbEntity
  8
0
 62
     0
370
    -2
100
AcDbLine
 10
-45.42018745558415
 20
35.76557134224648
 30
0.0
 11
-46.92018745558415
 21
35.75185519057406
 31
0.0
  0
LINE
  5
228C
330
21E4
100
AcDbEntity
  8
0
 62
     0
370
    -2
100
AcDbLine
 10
-46.92018745558415
 20
35.75185519057406
 30
0.0
 11
-48.42018745558416
 21
35.75185519057406
 31
0.0
  0
MTEXT
  5
228D
330
21E4
100
AcDbEntity
  8
0
 62
     0
370
     9
100
AcDbMText
 10
-50.23268745558415
 20
35.75185519057406
 30
0.0
 40
0.75
 41
0.0
 71
     5
 72
     1
  1
\A1;3.409
 73
     1
 44
1.0
1001
ACAD
1000
MTEXTBEGIN
1070
    73
1070
     1
1070
    44
1040
1.0
1070
    74
1070
     0
1000
MTEXTEND
  0
POINT
  5
228E
330
21E4
100
AcDbEntity
  8
DEFPOINTS
 62
     0
100
AcDbPoint
 10
-37.82284493403157
 20
35.76557134224648
 30
0.0
  0
POINT
  5
228F
330
21E4
100
AcDbEntity
  8
DEFPOINTS
 62
     0
100
AcDbPoint
 10
-48.42018745558416
 20
35.75185519057406
 30
0.0
  0
POINT
  5
2290
330
21E4
100
AcDbEntity
  8
DEFPOINTS
 62
     0
100
AcDbPoint
 10
-45.46038101649905
 20
32.3570713422463
 30
0.0
  0
ENDBLK
  5
21ED
330
21E4
100
AcDbEntity
  8
0
100
AcDbBlockEnd
  0
BLOCK
  5
21F4
330
21EE
100
AcDbEntity
  8
0
100
AcDbBlockBegin
  2
*D126
 70
     1
 10
0.0
 20
0.0
 30
0.0
  3
*D126
  1

  0
LINE
  5
2291
330
21EE
100
AcDbEntity
  8
0
 62
     0
370
    -2
100
AcDbLine
 10
-37.74334493403165
 20
45.54437134224637
 30
0.0
 11
-37.74334493403165
 21
47.6102179916846
 31
0.0
  0
MTEXT
  5
2292
330
21EE
100
AcDbEntity
  8
0
 62
     0
370
     9
100
AcDbMText
 10
-37.74334493403166
 20
49.3602179916846
 30
0.0
 40
0.75
 41
0.0
 71
     5
 72
     1
  1
\A1;7.717
 11
0.0000000000000001
 21
1.0
 31
0.0
 73
     1
 44
1.0
1001
ACAD
1000
MTEXTBEGIN
1070
    73
1070
     1
1070
    44
1040
1.0
1070
    74
1070
     0
1000
MTEXTEND
  0
POINT
  5
2293
330
21EE
100
AcDbEntity
  8
DEFPOINTS
 62
     0
100
AcDbPoint
 10
-37.74334493403165
 20
45.16937134224638
 30
0.0
  0
POINT
  5
2294
330
21EE
100
AcDbEntity
  8
DEFPOINTS
 62
     0
100
AcDbPoint
 10
-37.74334493403165
 20
47.6102179916846
 30
0.0
  0
POINT
  5
2295
330
21EE
100
AcDbEntity
  8
DEFPOINTS
 62
     0
100
AcDbPoint
 10
-45.46034493403157
 20
32.3570713422464
 30
0.0
  0
ENDBLK
  5
21F5
330
21EE
100
AcDbEntity
  8
0
100
AcDbBlockEnd
  0
BLOCK
  5
21FC
330
21F6
100
AcDbEntity
  8
0
100
AcDbBlockBegin
  2
*D127
 70
     1
 10
0.0
 20
0.0
 30
0.0
  3
*D127
  1

  0
LINE
  5
2296
330
21F6
100
AcDbEntity
  8
0
 62
     0
370
    -2
100
AcDbLine
 10
-42.43084493403165
 20
45.54437134224658
 30
0.0
 11
-42.43084493403165
 21
47.4519248619643
 31
0.0
  0
MTEXT
  5
2297
330
21F6
100
AcDbEntity
  8
0
 62
     0
370
     9
100
AcDbMText
 10
-42.43084493403165
 20
49.26442486196429
 30
0.0
 40
0.75
 41
0.0
 71
     5
 72
     1
  1
\A1;3.029
 11
0.0000000000000001
 21
1.0
 31
0.0
 73
     1
 44
1.0
1001
ACAD
1000
MTEXTBEGIN
1070
    73
1070
     1
1070
    44
1040
1.0
1070
    74
1070
     0
1000
MTEXTEND
  0
POINT
  5
2298
330
21F6
100
AcDbEntity
  8
DEFPOINTS
 62
     0
100
AcDbPoint
 10
-42.43084493403165
 20
45.16937134224657
 30
0.0
  0
POINT
  5
2299
330
21F6
100
AcDbEntity
  8
DEFPOINTS
 62
     0
100
AcDbPoint
 10
-42.43084493403165
 20
47.4519248619643
 30
0.0
  0
POINT
  5
229A
330
21F6
100
AcDbEntity
  8
DEFPOINTS
 62
     0
100
AcDbPoint
 10
-45.46034493403157
 20
32.3570713422464
 30
0.0
  0
ENDBLK
  5
21FD
330
21F6
100
AcDbEntity
  8
0
100
AcDbBlockEnd
  0
ENDSEC
  0
SECTION
  2
ENTITIES
  0
TEXT
  5
D36
330
1F
100
AcDbEntity
  8
TEXT
100
AcDbText
 10
38.38750709288767
 20
17.28331810970429
 30
0.0
 40
0.4765226435276523
  1
2
 72
     1
 11
38.54634797406355
 21
17.52157943146812
 31
0.0
100
AcDbText
 73
     2
  0
TEXT
  5
D37
330
1F
100
AcDbEntity
  8
TEXT
100
AcDbText
 10
33.83407725329952
 20
17.28331810970429
 30
0.0
 40
0.4765226435276523
  1
IQ290917
 72
     1
 11
35.46219628535233
 21
17.52157943146812
 31
0.0
100
AcDbText
 73
     2
  0
TEXT
  5
D38
330
1F
100
AcDbEntity
  8
TEXT
100
AcDbText
 10
34.40760765955589
 20
18.25180738064323
 30
0.0
 40
0.4765226435276523
  1
IQ1000V 
 72
     1
 11
36.11514713219664
 21
18.49006870240706
 31
0.0
100
AcDbText
 73
     2
  0
TEXT
  5
D39
330
1F
100
AcDbEntity
  8
TEXT
100
AcDbText
 10
35.45026814289967
 20
19.34185292771276
 30
0.0
 40
0.1191306608819131
  1
724-837-2204  *  1-888-867-8234
 72
     1
 11
37.24715561120186
 21
19.40141825815372
 31
0.0
100
AcDbText
 73
     2
  0
TEXT
  5
D3A
330
1F
100
AcDbEntity
  8
TEXT
100
AcDbText
 10
36.0955592226767
 20
19.5801142494766
 30
0.0
 40
0.1191306608819131
  1
GREENSBURG, PA  15601
 72
     1
 11
37.24715561120186
 21
19.63967957991756
 31
0.0
100
AcDbText
 73
     2
  0
TEXT
  5
D3B
330
1F
100
AcDbEntity
  8
TEXT
100
AcDbText
 10
36.27425521399957
 20
19.81837557124046
 30
0.0
 40
0.1191306608819131
  1
141 WILSON AVENUE
 72
     1
 11
37.24715561120186
 21
19.87794090168142
 31
0.0
100
AcDbText
 73
     2
  0
TEXT
  5
D3C
330
1F
100
AcDbEntity
  8
TEXT
100
AcDbText
 10
35.67860190959001
 20
20.04472382691606
 30
0.0
 40
0.1191306608819131
  1
INDUSTRIAL COOLING EQUIPMENT
 72
     1
 11
37.24715561120186
 21
20.10428915735701
 31
0.0
100
AcDbText
 73
     2
  0
TEXT
  5
D3D
330
1F
100
AcDbEntity
  8
TEXT
100
AcDbText
 10
36.25440010385259
 20
19.10359160594896
 30
0.0
 40
0.1191306608819131
  1
FAX  724-837-3386
 72
     1
 11
37.24715561120186
 21
19.16315693638992
 31
0.0
100
AcDbText
 73
     2
  0
LINE
  5
D3E
330
1F
100
AcDbEntity
  8
BORDER
100
AcDbLine
 10
33.03126264411247
 20
20.25320248345941
 30
0.0
 11
39.19956602153489
 21
20.25320248345941
 31
0.0
  0
LINE
  5
D3F
330
1F
100
AcDbEntity
  8
BORDER
100
AcDbLine
 10
33.03126264411247
 20
19.06189587464032
 30
0.0
 11
39.19956602153489
 21
19.06189587464032
 31
0.0
  0
LINE
  5
D40
330
1F
100
AcDbEntity
  8
BORDER
100
AcDbLine
 10
33.03126264411247
 20
18.10885058758497
 30
0.0
 11
39.19956602153489
 21
18.10885058758497
 31
0.0
  0
LINE
  5
D41
330
1F
100
AcDbEntity
  8
BORDER
100
AcDbLine
 10
37.89312992659218
 20
18.10885058758497
 30
0.0
 11
37.89312992659218
 21
17.11300426667412
 31
0.0
  0
TEXT
  5
D42
330
1F
100
AcDbEntity
  8
TEXT
100
AcDbText
 10
30.06523442181201
 20
17.2554408070444
 30
0.0
 40
0.2382613217638261
  1
SHEET 1 OF 1
 72
     1
 11
31.37567169151306
 21
17.37457146792632
 31
0.0
100
AcDbText
 73
     2
  0
LINE
  5
D43
330
1F
100
AcDbEntity
  8
BORDER
100
AcDbLine
 10
29.6956041394189
 20
17.63232794405731
 30
0.0
 11
33.03126264411247
 21
17.63232794405731
 31
0.0
  0
TEXT
  5
D44
330
1F
100
AcDbEntity
  8
TEXT
100
AcDbText
 10
30.62879431632719
 20
17.75529749933509
 30
0.0
 40
0.2382613217638261
  1
9-17-09
 72
     1
 11
31.36343339176565
 21
17.87442816021701
 31
0.0
100
AcDbText
 73
     2
  0
TEXT
  5
D45
330
1F
100
AcDbEntity
  8
TEXT
100
AcDbText
 10
29.81473480030081
 20
17.93015459626212
 30
0.0
 40
0.1191306608819131
  1
DATE
100
AcDbText
  0
TEXT
  5
D46
330
1F
100
AcDbEntity
  8
TEXT
100
AcDbText
 10
30.26624000504323
 20
18.15126110285887
 30
0.0
 40
0.1786959913228696
  1
JMH
 72
     1
 11
30.50450132680705
 21
18.24060909852031
 31
0.0
100
AcDbText
 73
     2
  0
TEXT
  5
D47
330
1F
100
AcDbEntity
  8
TEXT
100
AcDbText
 10
29.7646999227304
 20
18.40667723978976
 30
0.0
 40
0.1191306608819131
  1
DRAWN
100
AcDbText
  0
TEXT
  5
D48
330
1F
100
AcDbEntity
  8
TEXT
100
AcDbText
 10
31.4825640526476
 20
18.40667723978976
 30
0.0
 40
0.1191306608819131
  1
SCALE
100
AcDbText
  0
TEXT
  5
D49
330
1F
100
AcDbEntity
  8
TEXT
100
AcDbText
 10
31.89475613929894
 20
18.15126110285887
 30
0.0
 40
0.1786959913228696
  1
NONE
 72
     1
 11
32.2223654567242
 21
18.24060909852031
 31
0.0
100
AcDbText
 73
     2
  0
LINE
  5
D4A
330
1F
100
AcDbEntity
  8
BORDER
100
AcDbLine
 10
29.6956041394189
 20
18.58537323111262
 30
0.0
 11
33.03126264411247
 21
18.58537323111262
 31
0.0
  0
LINE
  5
D4B
330
1F
100
AcDbEntity
  8
BORDER
100
AcDbLine
 10
29.6956041394189
 20
18.10885058758497
 30
0.0
 11
33.03126264411247
 21
18.10885058758497
 31
0.0
  0
LINE
  5
D4C
330
1F
100
AcDbEntity
  8
BORDER
100
AcDbLine
 10
33.03126264411247
 20
17.11300426667406
 30
0.0
 11
33.03126264411247
 21
20.25320248345941
 31
0.0
  0
LINE
  5
D4D
330
1F
100
AcDbEntity
  8
TEXT
100
AcDbLine
 10
33.71304798867991
 20
19.25605027274151
 30
0.0
 11
33.73342873703136
 21
19.24315176831067
 31
0.0
  0
ARC
  5
D4E
330
1F
100
AcDbEntity
  8
TEXT
100
AcDbCircle
 10
33.846100573745
 20
19.39300944884447
 30
0.0
 40
0.0785110321437104
100
AcDbArc
 50
287.1920036507392
 51
335.8997504051537
  0
ARC
  5
D4F
330
1F
100
AcDbEntity
  8
TEXT
100
AcDbCircle
 10
34.00317223809715
 20
19.28723677470662
 30
0.0
 40
0.0365226507342644
100
AcDbArc
 50
67.37252950712522
 51
112.6274704928675
  0
ARC
  5
D50
330
1F
100
AcDbEntity
  8
TEXT
100
AcDbCircle
 10
33.99166642439499
 20
19.35033626296897
 30
0.0
 40
0.0515866508646815
100
AcDbArc
 50
330.1916644163819
 51
19.91318758188135
  0
ARC
  5
D51
330
1F
100
AcDbEntity
  8
TEXT
100
AcDbCircle
 10
33.92303251369155
 20
19.37922488585962
 30
0.0
 40
0.0190173984283666
100
AcDbArc
 50
253.9290889125599
 51
38.652674775114
  0
ARC
  5
D52
330
1F
100
AcDbEntity
  8
TEXT
100
AcDbCircle
 10
34.24624379022375
 20
19.35954064173266
 30
0.0
 40
0.0395140862583034
100
AcDbArc
 50
188.1927496775747
 51
244.8496170020145
  0
ARC
  5
D53
330
1F
100
AcDbEntity
  8
TEXT
100
AcDbCircle
 10
34.24576057230961
 20
19.39778947776111
 30
0.0
 40
0.0757925245173929
100
AcDbArc
 50
257.5730930866191
 51
314.4273867462272
  0
LINE
  5
D54
330
1F
100
AcDbEntity
  8
TEXT
100
AcDbLine
 10
34.37783175777731
 20
19.31352606405001
 30
0.0
 11
34.37903809218174
 21
19.32738911765241
 31
0.0
  0
LINE
  5
D55
330
1F
100
AcDbEntity
  8
TEXT
100
AcDbLine
 10
34.37903809218174
 20
19.32738911765241
 30
0.0
 11
34.35853012893789
 21
19.32618363165427
 31
0.0
  0
ARC
  5
D56
330
1F
100
AcDbEntity
  8
TEXT
100
AcDbCircle
 10
34.35811542643636
 20
19.34289172324592
 30
0.0
 40
0.0167132373524587
100
AcDbArc
 50
155.996471174626
 51
271.4218156194853
  0
ARC
  5
D57
330
1F
100
AcDbEntity
  8
TEXT
100
AcDbCircle
 10
34.50330302869769
 20
19.35106404625512
 30
0.0
 40
0.0391703212610753
100
AcDbArc
 50
203.9135879631559
 51
286.1701931802542
  0
ARC
  5
D58
330
1F
100
AcDbEntity
  8
TEXT
100
AcDbCircle
 10
34.52204470235116
 20
19.36819100619041
 30
0.0
 40
0.0553051754938584
100
AcDbArc
 50
261.857612146283
 51
331.2394802847383
  0
ARC
  5
D59
330
1F
100
AcDbEntity
  8
TEXT
100
AcDbCircle
 10
34.5196993734932
 20
19.37678389362597
 30
0.0
 40
0.0618282368807844
100
AcDbArc
 50
325.2939034707337
 51
356.4132772462207
  0
LINE
  5
D5A
330
1F
100
AcDbEntity
  8
TEXT
100
AcDbLine
 10
33.97942757385274
 20
19.9355199072859
 30
0.0
 11
34.13800791139645
 21
19.9355199072859
 31
0.0
  0
ARC
  5
D5B
330
1F
100
AcDbEntity
  8
TEXT
100
AcDbCircle
 10
34.06597430584881
 20
19.93886952069656
 30
0.0
 40
0.0721114431849059
100
AcDbArc
 50
357.337623744369
 51
85.63084243886235
  0
ARC
  5
D5C
330
1F
100
AcDbEntity
  8
TEXT
100
AcDbCircle
 10
34.04349464627139
 20
19.87738020189076
 30
0.0
 40
0.1362927591323337
100
AcDbArc
 50
78.15621523985544
 51
106.6122408520356
  0
LINE
  5
D5D
330
1F
100
AcDbEntity
  8
TEXT
100
AcDbLine
 10
33.97942757385274
 20
19.95264061309191
 30
0.0
 11
34.08342121701944
 21
19.95264061309191
 31
0.0
  0
ARC
  5
D5E
330
1F
100
AcDbEntity
  8
TEXT
100
AcDbCircle
 10
34.030095703997
 20
19.94274455444316
 30
0.0
 40
0.0516254916596637
100
AcDbArc
 50
103.9179608005983
 51
168.948608895047
  0
ARC
  5
D5F
330
1F
100
AcDbEntity
  8
TEXT
100
AcDbCircle
 10
34.04197407474519
 20
19.95394974429306
 30
0.0
 40
0.0414678119413602
100
AcDbArc
 50
358.1908821763629
 51
69.74957583402916
  0
ARC
  5
D60
330
1F
100
AcDbEntity
  8
TEXT
100
AcDbCircle
 10
34.03700259209689
 20
19.83547571634161
 30
0.0
 40
0.1585606495149262
100
AcDbArc
 50
82.99970676551469
 51
97.00029323448529
  0
ARC
  5
D61
330
1F
100
AcDbEntity
  8
TEXT
100
AcDbCircle
 10
34.0358584536039
 20
19.91457766352773
 30
0.0
 40
0.0985205836205024
100
AcDbArc
 50
108.5416613320802
 51
149.7652339536155
  0
ARC
  5
D62
330
1F
100
AcDbEntity
  8
TEXT
100
AcDbCircle
 10
34.03648900260799
 20
19.91157646461102
 30
0.0
 40
0.1006023315364435
100
AcDbArc
 50
148.4692011102813
 51
195.5802361373362
  0
ARC
  5
D63
330
1F
100
AcDbEntity
  8
TEXT
100
AcDbCircle
 10
34.03462802297406
 20
19.90857901326941
 30
0.0
 40
0.0980337310519116
100
AcDbArc
 50
194.1847393568173
 51
248.6586767321129
  0
ARC
  5
D64
330
1F
100
AcDbEntity
  8
TEXT
100
AcDbCircle
 10
34.0748959434837
 20
19.93434676743246
 30
0.0
 40
0.0954755772808464
100
AcDbArc
 50
179.2959701761241
 51
227.5915484940839
  0
ARC
  5
D65
330
1F
100
AcDbEntity
  8
TEXT
100
AcDbCircle
 10
34.05407446066911
 20
19.91735121342452
 30
0.0
 40
0.0689955412080217
100
AcDbArc
 50
230.8416488637728
 51
280.5326941523483
  0
ARC
  5
D66
330
1F
100
AcDbEntity
  8
TEXT
100
AcDbCircle
 10
34.06309147917474
 20
19.93604579512587
 30
0.0
 40
0.0866022551654911
100
AcDbArc
 50
272.3792098458872
 51
327.3581874363233
  0
ARC
  5
D67
330
1F
100
AcDbEntity
  8
TEXT
100
AcDbCircle
 10
34.03748922610094
 20
19.95423100393052
 30
0.0
 40
0.142281972809932
100
AcDbArc
 50
254.28478308494
 51
294.1819270465997
  0
ARC
  5
D68
330
1F
100
AcDbEntity
  8
TEXT
100
AcDbCircle
 10
34.04903910617485
 20
19.91889598736582
 30
0.0
 40
0.1053899904929513
100
AcDbArc
 50
296.3233923707221
 51
339.8348331475788
  0
ARC
  5
D69
330
1F
100
AcDbEntity
  8
TEXT
100
AcDbCircle
 10
34.14083914535156
 20
19.88391296646781
 30
0.0
 40
0.0072561136392021
100
AcDbArc
 50
349.2952029716974
 51
131.6626905469362
  0
ARC
  5
D6A
330
1F
100
AcDbEntity
  8
TEXT
100
AcDbCircle
 10
33.83310605641305
 20
19.70982671340447
 30
0.0
 40
0.3040587075961159
100
AcDbArc
 50
84.62122141578801
 51
95.37877858421195
  0
ARC
  5
D6B
330
1F
100
AcDbEntity
  8
TEXT
100
AcDbCircle
 10
33.85133770215894
 20
19.94321670211486
 30
0.0
 40
0.0700865058163931
100
AcDbArc
 50
43.16761867319007
 51
81.57335966331345
  0
ARC
  5
D6C
330
1F
100
AcDbEntity
  8
TEXT
100
AcDbCircle
 10
33.87812519173055
 20
19.97286946876311
 30
0.0
 40
0.0304419287183535
100
AcDbArc
 50
321.1558234807585
 51
36.94217904230111
  0
ARC
  5
D6D
330
1F
100
AcDbEntity
  8
TEXT
100
AcDbCircle
 10
33.88390656585399
 20
19.97699969142137
 30
0.0
 40
0.0293387536621269
100
AcDbArc
 50
205.1359642898987
 51
307.6679722285764
  0
ARC
  5
D6E
330
1F
100
AcDbEntity
  8
TEXT
100
AcDbCircle
 10
33.89003549682281
 20
19.97762902218732
 30
0.0
 40
0.0352133809154369
100
AcDbArc
 50
180.010674400693
 51
201.8251852718047
  0
ARC
  5
D6F
330
1F
100
AcDbEntity
  8
TEXT
100
AcDbCircle
 10
33.82019698706324
 20
19.96722332847077
 30
0.0
 40
0.0361530298048119
100
AcDbArc
 50
16.71684440730711
 51
45.97719400399792
  0
ARC
  5
D70
330
1F
100
AcDbEntity
  8
TEXT
100
AcDbCircle
 10
33.82642200561924
 20
19.69982538040856
 30
0.0
 40
0.2940023441726036
100
AcDbArc
 50
86.31431733544653
 51
93.90381943516642
  0
ARC
  5
D71
330
1F
100
AcDbEntity
  8
TEXT
100
AcDbCircle
 10
33.81582518300031
 20
19.92201297637481
 30
0.0
 40
0.0912263868077291
100
AcDbArc
 50
97.06566064011491
 51
142.4986334312247
  0
ARC
  5
D72
330
1F
100
AcDbEntity
  8
TEXT
100
AcDbCircle
 10
33.81499959496717
 20
19.90775204888957
 30
0.0
 40
0.0999540968556711
100
AcDbArc
 50
135.7093780000635
 51
195.2317137751531
  0
ARC
  5
D73
330
1F
100
AcDbEntity
  8
TEXT
100
AcDbCircle
 10
33.8055457238469
 20
19.90472085768576
 30
0.0
 40
0.0900370439644035
100
AcDbArc
 50
194.9511061487655
 51
259.6103135862126
  0
ARC
  5
D74
330
1F
100
AcDbEntity
  8
TEXT
100
AcDbCircle
 10
33.81992458613134
 20
19.90838297466036
 30
0.0
 40
0.0971721394643262
100
AcDbArc
 50
251.6347706403313
 51
316.4182924463649
  0
ARC
  5
D75
330
1F
100
AcDbEntity
  8
TEXT
100
AcDbCircle
 10
33.80771062787385
 20
19.93909028761276
 30
0.0
 40
0.1279381421520933
100
AcDbArc
 50
310.2152586008207
 51
331.3072507285891
  0
ARC
  5
D76
330
1F
100
AcDbEntity
  8
TEXT
100
AcDbCircle
 10
33.84466603850314
 20
19.91924660000371
 30
0.0
 40
0.0832160011433409
100
AcDbArc
 50
117.3722826858103
 51
160.0902491401812
  0
ARC
  5
D77
330
1F
100
AcDbEntity
  8
TEXT
100
AcDbCircle
 10
33.85541490163019
 20
19.92711007552273
 30
0.0
 40
0.0913160925892882
100
AcDbArc
 50
167.0430028911429
 51
212.1309371309446
  0
ARC
  5
D78
330
1F
100
AcDbEntity
  8
TEXT
100
AcDbCircle
 10
33.8359079195838
 20
19.91630368510781
 30
0.0
 40
0.0690602994141865
100
AcDbArc
 50
213.1462108998124
 51
285.6537258536393
  0
ARC
  5
D79
330
1F
100
AcDbEntity
  8
TEXT
100
AcDbCircle
 10
33.83653557548374
 20
19.93334996327116
 30
0.0
 40
0.0854635525039557
100
AcDbArc
 50
282.1628426667851
 51
326.5593609179329
  0
ARC
  5
D7A
330
1F
100
AcDbEntity
  8
TEXT
100
AcDbCircle
 10
33.9104574431857
 20
19.87712088093381
 30
0.0
 40
0.009497043197545
100
AcDbArc
 50
3.288025410275721
 51
105.9275278804377
  0
LINE
  5
D7B
330
1F
100
AcDbEntity
  8
TEXT
100
AcDbLine
 10
33.46288131459639
 20
20.21709293608873
 30
0.0
 11
33.46598453876798
 21
19.96281182707312
 31
0.0
  0
LINE
  5
D7C
330
1F
100
AcDbEntity
  8
TEXT
100
AcDbLine
 10
33.487707107969
 20
20.18608303870551
 30
0.0
 11
33.48925872005484
 21
19.96281182707312
 31
0.0
  0
ARC
  5
D7D
330
1F
100
AcDbEntity
  8
TEXT
100
AcDbCircle
 10
33.47762162941136
 20
19.96238500907906
 30
0.0
 40
0.0116449152956604
100
AcDbArc
 50
177.899482485688
 51
2.100517514311817
  0
LINE
  5
D7E
330
1F
100
AcDbEntity
  8
TEXT
100
AcDbLine
 10
33.54105391153832
 20
20.17487023123557
 30
0.0
 11
33.54105391153832
 21
19.78616802330492
 31
0.0
  0
LINE
  5
D7F
330
1F
100
AcDbEntity
  8
TEXT
100
AcDbLine
 10
33.6537704021736
 20
20.17487023123557
 30
0.0
 11
33.6537704021736
 21
19.78616802330492
 31
0.0
  0
ARC
  5
D80
330
1F
100
AcDbEntity
  8
TEXT
100
AcDbCircle
 10
33.49900987404505
 20
20.18554013465712
 30
0.0
 40
0.0113157971780563
100
AcDbArc
 50
38.20381851856389
 51
177.2500340797979
  0
LINE
  5
D81
330
1F
100
AcDbEntity
  8
TEXT
100
AcDbLine
 10
33.5079020048671
 20
20.19253851127022
 30
0.0
 11
33.54105391153832
 21
20.17487023123557
 31
0.0
  0
LINE
  5
D82
330
1F
100
AcDbEntity
  8
TEXT
100
AcDbLine
 10
33.6869223088447
 20
20.19253851127022
 30
0.0
 11
33.6537704021736
 21
20.17487023123557
 31
0.0
  0
LINE
  5
D83
330
1F
100
AcDbEntity
  8
TEXT
100
AcDbLine
 10
33.70711720574281
 20
20.18608303870551
 30
0.0
 11
33.70698938307564
 21
20.16768983203367
 31
0.0
  0
LINE
  5
D84
330
1F
100
AcDbEntity
  8
TEXT
100
AcDbLine
 10
33.73194299911541
 20
20.21709293608873
 30
0.0
 11
33.73134008800156
 21
20.16768983203367
 31
0.0
  0
ARC
  5
D85
330
1F
100
AcDbEntity
  8
TEXT
100
AcDbCircle
 10
33.69581443966681
 20
20.18554013465712
 30
0.0
 40
0.0113157971780563
100
AcDbArc
 50
2.749965920202086
 51
141.7961814814361
  0
ARC
  5
D86
330
1F
100
AcDbEntity
  8
TEXT
100
AcDbCircle
 10
33.71916473553865
 20
20.15964596380271
 30
0.0
 40
0.0145925674133862
100
AcDbArc
 50
146.5485285753443
 51
33.45147142465568
  0
ARC
  5
D87
330
1F
100
AcDbEntity
  8
TEXT
100
AcDbCircle
 10
34.86606517934225
 20
19.36524365374192
 30
0.0
 40
0.0072561136392021
100
AcDbArc
 50
349.2952029716974
 51
131.6626905469362
  0
ARC
  5
D88
330
1F
100
AcDbEntity
  8
TEXT
100
AcDbCircle
 10
34.77426514016555
 20
19.40022667463987
 30
0.0
 40
0.1053899904929513
100
AcDbArc
 50
296.3233923707221
 51
339.8348331475788
  0
ARC
  5
D89
330
1F
100
AcDbEntity
  8
TEXT
100
AcDbCircle
 10
34.76271526009165
 20
19.43556169120462
 30
0.0
 40
0.142281972809932
100
AcDbArc
 50
254.28478308494
 51
294.1819270465997
  0
ARC
  5
D8A
330
1F
100
AcDbEntity
  8
TEXT
100
AcDbCircle
 10
34.7883175131655
 20
19.41737648239996
 30
0.0
 40
0.0866022551654911
100
AcDbArc
 50
272.3792098458872
 51
327.3581874363233
  0
ARC
  5
D8B
330
1F
100
AcDbEntity
  8
TEXT
100
AcDbCircle
 10
34.77930049465982
 20
19.39868190069862
 30
0.0
 40
0.0689955412080217
100
AcDbArc
 50
230.8416488637728
 51
280.5326941523483
  0
ARC
  5
D8C
330
1F
100
AcDbEntity
  8
TEXT
100
AcDbCircle
 10
34.80012197747444
 20
19.41567745470652
 30
0.0
 40
0.0954755772808464
100
AcDbArc
 50
179.2959701761241
 51
227.5915484940839
  0
ARC
  5
D8D
330
1F
100
AcDbEntity
  8
TEXT
100
AcDbCircle
 10
34.7598540569648
 20
19.38990970054352
 30
0.0
 40
0.0980337310519116
100
AcDbArc
 50
194.1847393568173
 51
248.6586767321129
  0
ARC
  5
D8E
330
1F
100
AcDbEntity
  8
TEXT
100
AcDbCircle
 10
34.7617150365987
 20
19.39290715188506
 30
0.0
 40
0.1006023315364435
100
AcDbArc
 50
148.4692011102813
 51
195.5802361373362
  0
ARC
  5
D8F
330
1F
100
AcDbEntity
  8
TEXT
100
AcDbCircle
 10
34.7610844875946
 20
19.39590835080187
 30
0.0
 40
0.0985205836205024
100
AcDbArc
 50
108.5416613320802
 51
149.7652339536155
  0
ARC
  5
D90
330
1F
100
AcDbEntity
  8
TEXT
100
AcDbCircle
 10
34.76222862608761
 20
19.31680640361576
 30
0.0
 40
0.1585606495149262
100
AcDbArc
 50
82.99970676551469
 51
97.00029323448529
  0
ARC
  5
D91
330
1F
100
AcDbEntity
  8
TEXT
100
AcDbCircle
 10
34.76720010873594
 20
19.43528043156717
 30
0.0
 40
0.0414678119413602
100
AcDbArc
 50
358.1908821763629
 51
69.74957583402916
  0
ARC
  5
D92
330
1F
100
AcDbEntity
  8
TEXT
100
AcDbCircle
 10
34.75532173798769
 20
19.42407524171727
 30
0.0
 40
0.0516254916596637
100
AcDbArc
 50
103.9179608005983
 51
168.948608895047
  0
LINE
  5
D93
330
1F
100
AcDbEntity
  8
TEXT
100
AcDbLine
 10
34.70465360784345
 20
19.43397130036606
 30
0.0
 11
34.8086472510102
 21
19.43397130036606
 31
0.0
  0
ARC
  5
D94
330
1F
100
AcDbEntity
  8
TEXT
100
AcDbCircle
 10
34.76872068026211
 20
19.35871088916486
 30
0.0
 40
0.1362927591323337
100
AcDbArc
 50
78.15621523985544
 51
106.6122408520356
  0
ARC
  5
D95
330
1F
100
AcDbEntity
  8
TEXT
100
AcDbCircle
 10
34.79120033983944
 20
19.42020020797066
 30
0.0
 40
0.0721114431849059
100
AcDbArc
 50
357.337623744369
 51
85.63084243886235
  0
LINE
  5
D96
330
1F
100
AcDbEntity
  8
TEXT
100
AcDbLine
 10
34.70465360784345
 20
19.41685059456002
 30
0.0
 11
34.8632339453872
 21
19.41685059456002
 31
0.0
  0
ARC
  5
D97
330
1F
100
AcDbEntity
  8
TEXT
100
AcDbCircle
 10
33.5494707804091
 20
19.76234407327187
 30
0.0
 40
0.0252670591238626
100
AcDbArc
 50
109.4580308571273
 51
191.0341765876991
  0
ARC
  5
D98
330
1F
100
AcDbEntity
  8
TEXT
100
AcDbCircle
 10
33.51717552376005
 20
19.75609658930606
 30
0.0
 40
0.0076270537189005
100
AcDbArc
 50
155.9249042338167
 51
10.66497725508803
  0
ARC
  5
D99
330
1F
100
AcDbEntity
  8
TEXT
100
AcDbCircle
 10
33.49598026021555
 20
19.75014633866051
 30
0.0
 40
0.0168716583808609
100
AcDbArc
 50
32.48569494743431
 51
175.1979664789355
  0
ARC
  5
D9A
330
1F
100
AcDbEntity
  8
TEXT
100
AcDbCircle
 10
33.47351850511599
 20
19.74886810633502
 30
0.0
 40
0.0062573311860235
100
AcDbArc
 50
158.7719549350953
 51
25.46716058584043
  0
ARC
  5
D9B
330
1F
100
AcDbEntity
  8
TEXT
100
AcDbCircle
 10
33.45887894430159
 20
19.75298633740592
 30
0.0
 40
0.0089995515171226
100
AcDbArc
 50
348.1206509806771
 51
136.2651890953771
  0
ARC
  5
D9C
330
1F
100
AcDbEntity
  8
TEXT
100
AcDbCircle
 10
33.4577984572333
 20
19.74824441489766
 30
0.0
 40
0.0122310176109562
100
AcDbArc
 50
116.3151684036786
 51
258.4674100382161
  0
ARC
  5
D9D
330
1F
100
AcDbEntity
  8
TEXT
100
AcDbCircle
 10
33.46197557161519
 20
19.72997969464797
 30
0.0
 40
0.0091270249800191
100
AcDbArc
 50
356.7423630506751
 51
136.5172760690074
  0
ARC
  5
D9E
330
1F
100
AcDbEntity
  8
TEXT
100
AcDbCircle
 10
33.47433377296135
 20
19.72468781708206
 30
0.0
 40
0.0057723234687715
100
AcDbArc
 50
124.216774595017
 51
319.7988197133694
  0
ARC
  5
D9F
330
1F
100
AcDbEntity
  8
TEXT
100
AcDbCircle
 10
33.49745043103141
 20
19.71424983842755
 30
0.0
 40
0.0198755167570601
100
AcDbArc
 50
160.2627782819638
 51
255.1333022011723
  0
ARC
  5
DA0
330
1F
100
AcDbEntity
  8
TEXT
100
AcDbCircle
 10
33.49731446850206
 20
19.69699637755946
 30
0.0
 40
0.0053352903473315
100
AcDbArc
 50
201.5154657473978
 51
41.96660508022659
  0
ARC
  5
DA1
330
1F
100
AcDbEntity
  8
TEXT
100
AcDbCircle
 10
33.51589863052666
 20
19.71022916321677
 30
0.0
 40
0.0175235894286895
100
AcDbArc
 50
121.2424246402126
 51
213.473239708375
  0
ARC
  5
DA2
330
1F
100
AcDbEntity
  8
TEXT
100
AcDbCircle
 10
33.51168015226015
 20
19.71662698296531
 30
0.0
 40
0.0098698368430065
100
AcDbArc
 50
332.2921775479049
 51
119.5678571759908
  0
ARC
  5
DA3
330
1F
100
AcDbEntity
  8
TEXT
100
AcDbCircle
 10
33.51352992514031
 20
19.69581701707641
 30
0.0
 40
0.0176228482873579
100
AcDbArc
 50
312.9867785858866
 51
66.9911842292667
  0
ARC
  5
DA4
330
1F
100
AcDbEntity
  8
TEXT
100
AcDbCircle
 10
33.58942271103241
 20
19.55928393858756
 30
0.0
 40
0.13916737870747
100
AcDbArc
 50
117.3222180892419
 51
179.3383492613259
  0
ARC
  5
DA5
330
1F
100
AcDbEntity
  8
TEXT
100
AcDbCircle
 10
34.03853998332234
 20
19.51368485670606
 30
0.0
 40
0.5901663608148841
100
AcDbArc
 50
175.4121316267021
 51
191.7939289657072
  0
ARC
  5
DA6
330
1F
100
AcDbEntity
  8
TEXT
100
AcDbCircle
 10
33.45967954747045
 20
19.36611957863277
 30
0.0
 40
0.0269644646910993
100
AcDbArc
 50
15.17145974978864
 51
87.54918714297708
  0
ARC
  5
DA7
330
1F
100
AcDbEntity
  8
TEXT
100
AcDbCircle
 10
35.89408103927873
 20
19.29102808556431
 30
0.0
 40
2.409777428504343
100
AcDbArc
 50
178.0464319449979
 51
181.7502526685598
  0
LINE
  5
DA8
330
1F
100
AcDbEntity
  8
TEXT
100
AcDbLine
 10
33.5112415449179
 20
19.33669203616122
 30
0.0
 11
33.51027504577956
 21
19.22031309859572
 31
0.0
  0
ARC
  5
DA9
330
1F
100
AcDbEntity
  8
TEXT
100
AcDbCircle
 10
33.51527562098605
 20
19.33755482341792
 30
0.0
 40
0.0041253086640827
100
AcDbArc
 50
333.6879001367211
 51
192.0722457553363
  0
LINE
  5
DAA
330
1F
100
AcDbEntity
  8
TEXT
100
AcDbLine
 10
33.51897351814173
 20
19.33572623702381
 30
0.0
 11
33.51897351814173
 21
19.31834182896592
 31
0.0
  0
ARC
  5
DAB
330
1F
100
AcDbEntity
  8
TEXT
100
AcDbCircle
 10
33.52443850418075
 20
19.31960218330376
 30
0.0
 40
0.0056084369894108
100
AcDbArc
 50
192.9866902548923
 51
33.38063139741081
  0
ARC
  5
DAC
330
1F
100
AcDbEntity
  8
TEXT
100
AcDbCircle
 10
33.53906439869223
 20
19.31618439704473
 30
0.0
 40
0.0118807620923067
100
AcDbArc
 50
17.66955929970842
 51
146.8111142491889
  0
ARC
  5
DAD
330
1F
100
AcDbEntity
  8
TEXT
100
AcDbCircle
 10
33.57628580818964
 20
19.33437329859061
 30
0.0
 40
0.029724176251342
100
AcDbArc
 50
209.3802246625999
 51
263.8421008682745
  0
LINE
  5
DAE
330
1F
100
AcDbEntity
  8
TEXT
100
AcDbLine
 10
33.57309733070799
 20
19.30482062924976
 30
0.0
 11
33.57599680823974
 21
19.26425700651716
 31
0.0
  0
ARC
  5
DAF
330
1F
100
AcDbEntity
  8
TEXT
100
AcDbCircle
 10
33.58822388070944
 20
19.26254854879422
 30
0.0
 40
0.01234585472828
100
AcDbArc
 50
172.045705651638
 51
14.81661014794028
  0
LINE
  5
DB0
330
1F
100
AcDbEntity
  8
TEXT
100
AcDbLine
 10
33.60015922704935
 20
19.26570570522332
 30
0.0
 11
33.6020922253262
 21
19.28260721371256
 31
0.0
  0
ARC
  5
DB1
330
1F
100
AcDbEntity
  8
TEXT
100
AcDbCircle
 10
33.6064958821002
 20
19.28312175191427
 30
0.0
 40
0.0044336150649648
100
AcDbArc
 50
318.6510821797589
 51
186.6644145786489
  0
LINE
  5
DB2
330
1F
100
AcDbEntity
  8
TEXT
100
AcDbLine
 10
33.60982419854991
 20
19.28019271586897
 30
0.0
 11
33.61224042651245
 21
19.25797931212387
 31
0.0
  0
ARC
  5
DB3
330
1F
100
AcDbEntity
  8
TEXT
100
AcDbCircle
 10
33.6205130215192
 20
19.25626869754867
 30
0.0
 40
0.0084476050080025
100
AcDbArc
 50
168.3169857564317
 51
15.0499521145176
  0
LINE
  5
DB4
330
1F
100
AcDbEntity
  8
TEXT
100
AcDbLine
 10
33.62867087209835
 20
19.25846221169257
 30
0.0
 11
33.62867087209835
 21
19.27681241888801
 31
0.0
  0
ARC
  5
DB5
330
1F
100
AcDbEntity
  8
TEXT
100
AcDbCircle
 10
33.63967735625365
 20
19.26726175145831
 30
0.0
 40
0.0145725063668744
100
AcDbArc
 50
65.19241843010687
 51
139.0508106988796
  0
ARC
  5
DB6
330
1F
100
AcDbEntity
  8
TEXT
100
AcDbCircle
 10
33.6490670723695
 20
19.26634837669172
 30
0.0
 40
0.0145155523422493
100
AcDbArc
 50
7.606980527162169
 51
103.0413594591622
  0
LINE
  5
DB7
330
1F
100
AcDbEntity
  8
TEXT
100
AcDbLine
 10
33.66345487942744
 20
19.26826990417367
 30
0.0
 11
33.66956908802606
 21
19.18409020656181
 31
0.0
  0
LINE
  5
DB8
330
1F
100
AcDbEntity
  8
TEXT
100
AcDbLine
 10
33.69606404497615
 20
19.18680567497247
 30
0.0
 11
33.69810212776461
 21
19.25333479253876
 31
0.0
  0
ARC
  5
DB9
330
1F
100
AcDbEntity
  8
TEXT
100
AcDbCircle
 10
33.70545756223094
 20
19.25533922442727
 30
0.0
 40
0.0076236581365685
100
AcDbArc
 50
5.351678383090983
 51
195.2435488026414
  0
LINE
  5
DBA
330
1F
100
AcDbEntity
  8
TEXT
100
AcDbLine
 10
33.73342873703136
 20
19.24315176831067
 30
0.0
 11
33.73478745889045
 21
19.20106191360866
 31
0.0
  0
ARC
  5
DBB
330
1F
100
AcDbEntity
  8
TEXT
100
AcDbCircle
 10
33.77186698836946
 20
19.23364760528917
 30
0.0
 40
0.0071112106391556
100
AcDbArc
 50
354.5219056877808
 51
214.944854376383
  0
ARC
  5
DBC
330
1F
100
AcDbEntity
  8
TEXT
100
AcDbCircle
 10
33.79154456548245
 20
19.23248204136177
 30
0.0
 40
0.0126082418920842
100
AcDbArc
 50
177.787775166229
 51
326.380582641936
  0
ARC
  5
DBD
330
1F
100
AcDbEntity
  8
TEXT
100
AcDbCircle
 10
33.92181614354335
 20
19.24752293731671
 30
0.0
 40
0.006895981839807
100
AcDbArc
 50
144.5711585108377
 51
21.75301147887011
  0
LINE
  5
DBE
330
1F
100
AcDbEntity
  8
TEXT
100
AcDbLine
 10
33.9282210630337
 20
19.25007863132392
 30
0.0
 11
33.92870202599566
 21
19.28660535941281
 31
0.0
  0
ARC
  5
DBF
330
1F
100
AcDbEntity
  8
TEXT
100
AcDbCircle
 10
33.92183185039409
 20
19.28243955125197
 30
0.0
 40
0.008034504989648
100
AcDbArc
 50
31.2309986407684
 51
160.1819529381847
  0
ARC
  5
DC0
330
1F
100
AcDbEntity
  8
TEXT
100
AcDbCircle
 10
33.94827166167436
 20
19.27023117053216
 30
0.0
 40
0.0371331494324488
100
AcDbArc
 50
156.2885975497975
 51
210.257104613644
  0
ARC
  5
DC1
330
1F
100
AcDbEntity
  8
TEXT
100
AcDbCircle
 10
34.0533302962078
 20
19.21151943256291
 30
0.0
 40
0.0229265432860344
100
AcDbArc
 50
341.5477100758339
 51
84.99888070834241
  0
ARC
  5
DC2
330
1F
100
AcDbEntity
  8
TEXT
100
AcDbCircle
 10
34.06331199996999
 20
19.18491351657041
 30
0.0
 40
0.0500854783237597
100
AcDbArc
 50
99.17143729878524
 51
127.795528329094
  0
ARC
  5
DC3
330
1F
100
AcDbEntity
  8
TEXT
100
AcDbCircle
 10
33.96614063252024
 20
19.22955241862011
 30
0.0
 40
0.0055530679868961
100
AcDbArc
 50
312.7998628402737
 51
120.0581864533371
  0
ARC
  5
DC4
330
1F
100
AcDbEntity
  8
TEXT
100
AcDbCircle
 10
33.96665380732585
 20
19.24655802090901
 30
0.0
 40
0.0126363720595737
100
AcDbArc
 50
129.1527393458035
 51
254.8870408388506
  0
ARC
  5
DC5
330
1F
100
AcDbEntity
  8
TEXT
100
AcDbCircle
 10
33.91842097377886
 20
19.28703298739902
 30
0.0
 40
0.0506105101745621
100
AcDbArc
 50
322.6907301981538
 51
8.220255073941007
  0
ARC
  5
DC6
330
1F
100
AcDbEntity
  8
TEXT
100
AcDbCircle
 10
33.9730909667337
 20
19.29867826279477
 30
0.0
 40
0.0063569800499908
100
AcDbArc
 50
89.05883162362073
 51
223.9137905963003
  0
ARC
  5
DC7
330
1F
100
AcDbEntity
  8
TEXT
100
AcDbCircle
 10
33.84612196751524
 20
19.44812455483477
 30
0.0
 40
0.1913699298345807
100
AcDbArc
 50
311.607168930111
 51
318.3515702307968
  0
ARC
  5
DC8
330
1F
100
AcDbEntity
  8
TEXT
100
AcDbCircle
 10
33.97235509009845
 20
19.30222608324951
 30
0.0
 40
0.0486181423692393
100
AcDbArc
 50
337.3510782224619
 51
22.64892177753663
  0
ARC
  5
DC9
330
1F
100
AcDbEntity
  8
TEXT
100
AcDbCircle
 10
34.05173969147931
 20
19.27708727619296
 30
0.0
 40
0.0351072024058032
100
AcDbArc
 50
169.4684867573174
 51
223.1418439421434
  0
ARC
  5
DCA
330
1F
100
AcDbEntity
  8
TEXT
100
AcDbCircle
 10
34.02147956603161
 20
19.27324091653956
 30
0.0
 40
0.0206880881602845
100
AcDbArc
 50
282.971262228303
 51
25.3544137863951
  0
ARC
  5
DCB
330
1F
100
AcDbEntity
  8
TEXT
100
AcDbCircle
 10
34.25701353785895
 20
19.32263744492936
 30
0.0
 40
0.2205953031210674
100
AcDbArc
 50
179.4662202071271
 51
190.5890997840366
  0
ARC
  5
DCC
330
1F
100
AcDbEntity
  8
TEXT
100
AcDbCircle
 10
33.87469263099269
 20
19.51704154677451
 30
0.0
 40
0.2227635519976116
100
AcDbArc
 50
317.9732863042361
 51
40.61894937560235
  0
ARC
  5
DCD
330
1F
100
AcDbEntity
  8
TEXT
100
AcDbCircle
 10
34.0225069829734
 20
19.63578276992252
 30
0.0
 40
0.0338153149250802
100
AcDbArc
 50
51.01090143870905
 51
107.577946053111
  0
ARC
  5
DCE
330
1F
100
AcDbEntity
  8
TEXT
100
AcDbCircle
 10
33.96448673121645
 20
19.67070948899701
 30
0.0
 40
0.0478835645034669
100
AcDbArc
 50
356.7791343814141
 51
50.82801334298934
  0
ARC
  5
DCF
330
1F
100
AcDbEntity
  8
TEXT
100
AcDbCircle
 10
33.97651219805182
 20
19.61708742606367
 30
0.0
 40
0.0925550755166906
100
AcDbArc
 50
78.6467194011529
 51
92.88657863164813
  0
ARC
  5
DD0
330
1F
100
AcDbEntity
  8
TEXT
100
AcDbCircle
 10
33.9660687572414
 20
19.72098260263306
 30
0.0
 40
0.0128340171749717
100
AcDbArc
 50
296.7794474250808
 51
150.4674482996619
  0
ARC
  5
DD1
330
1F
100
AcDbEntity
  8
TEXT
100
AcDbCircle
 10
33.94549926355845
 20
19.73931647951127
 30
0.0
 40
0.0152512721277629
100
AcDbArc
 50
174.1982733486934
 51
308.063459648362
  0
ARC
  5
DD2
330
1F
100
AcDbEntity
  8
TEXT
100
AcDbCircle
 10
33.90200549319406
 20
19.71600150185537
 30
0.0
 40
0.0376817154905173
100
AcDbArc
 50
41.27304036069077
 51
94.6199128410392
  0
ARC
  5
DD3
330
1F
100
AcDbEntity
  8
TEXT
100
AcDbCircle
 10
33.88691793364935
 20
19.75001634937872
 30
0.0
 40
0.0125628476510112
100
AcDbArc
 50
136.6395135700794
 51
16.3877599161831
  0
ARC
  5
DD4
330
1F
100
AcDbEntity
  8
TEXT
100
AcDbCircle
 10
33.86754429745145
 20
19.7474210668458
 30
0.0
 40
0.0151907793897462
100
AcDbArc
 50
47.61705801860776
 51
152.6179806585991
  0
ARC
  5
DD5
330
1F
100
AcDbEntity
  8
TEXT
100
AcDbCircle
 10
33.83631263863109
 20
19.74622515157237
 30
0.0
 40
0.0195387287571159
100
AcDbArc
 50
24.75773987532642
 51
121.5483884163395
  0
ARC
  5
DD6
330
1F
100
AcDbEntity
  8
TEXT
100
AcDbCircle
 10
33.81125921777474
 20
19.75721495789536
 30
0.0
 40
0.0158741426060172
100
AcDbArc
 50
20.89289471577904
 51
159.1071052842209
  0
ARC
  5
DD7
330
1F
100
AcDbEntity
  8
TEXT
100
AcDbCircle
 10
33.78852074101925
 20
19.76507955735722
 30
0.0
 40
0.0082093398596359
100
AcDbArc
 50
183.5606974541693
 51
344.4298925613464
  0
ARC
  5
DD8
330
1F
100
AcDbEntity
  8
TEXT
100
AcDbCircle
 10
33.7633332693573
 20
19.74670170211681
 30
0.0
 40
0.0246588929773051
100
AcDbArc
 50
46.43616582623978
 51
130.6283095026657
  0
ARC
  5
DD9
330
1F
100
AcDbEntity
  8
TEXT
100
AcDbCircle
 10
33.73837841636965
 20
19.76275976516796
 30
0.0
 40
0.0092863933892689
100
AcDbArc
 50
163.3756550464644
 51
16.62434495352866
  0
ARC
  5
DDA
330
1F
100
AcDbEntity
  8
TEXT
100
AcDbCircle
 10
33.70328116966055
 20
19.69322102443727
 30
0.0
 40
0.0768022384323864
100
AcDbArc
 50
70.05468846035475
 51
100.2232656721042
  0
ARC
  5
DDB
330
1F
100
AcDbEntity
  8
TEXT
100
AcDbCircle
 10
33.68329408961062
 20
19.72781794176871
 30
0.0
 40
0.0414758697049296
100
AcDbArc
 50
81.18509483549773
 51
120.0392913824102
  0
ARC
  5
DDC
330
1F
100
AcDbEntity
  8
TEXT
100
AcDbCircle
 10
33.65244265420474
 20
19.77271729362277
 30
0.0
 40
0.0135161031237081
100
AcDbArc
 50
318.2823815987275
 51
84.36248438139951
  0
ARC
  5
DDD
330
1F
100
AcDbEntity
  8
TEXT
100
AcDbCircle
 10
33.59163095610764
 20
19.71262681586775
 30
0.0
 40
0.0194377414519579
100
AcDbArc
 50
35.60679995345882
 51
177.5845513854531
  0
LINE
  5
DDE
330
1F
100
AcDbEntity
  8
TEXT
100
AcDbLine
 10
33.60743445546344
 20
19.72394384731881
 30
0.0
 11
33.60619853435081
 21
19.70603578608637
 31
0.0
  0
LINE
  5
DDF
330
1F
100
AcDbEntity
  8
TEXT
100
AcDbLine
 10
33.57221048503295
 20
19.71344602035362
 30
0.0
 11
33.57159252447659
 21
19.66713207092362
 31
0.0
  0
ARC
  5
DE0
330
1F
100
AcDbEntity
  8
TEXT
100
AcDbCircle
 10
33.65002598677035
 20
19.63220657143152
 30
0.0
 40
0.0858580137328502
100
AcDbArc
 50
120.6947626763564
 51
155.9971516553441
  0
ARC
  5
DE1
330
1F
100
AcDbEntity
  8
TEXT
100
AcDbCircle
 10
33.61843686272889
 20
19.65601397167177
 30
0.0
 40
0.0159743735288823
100
AcDbArc
 50
218.6904014524236
 51
353.665941150076
  0
ARC
  5
DE2
330
1F
100
AcDbEntity
  8
TEXT
100
AcDbCircle
 10
33.60961143423216
 20
19.63108608069967
 30
0.0
 40
0.0153798359426252
100
AcDbArc
 50
103.7022990326944
 51
207.0193065629238
  0
ARC
  5
DE3
330
1F
100
AcDbEntity
  8
TEXT
100
AcDbCircle
 10
33.83783696164659
 20
19.50367640822377
 30
0.0
 40
0.2702409520964363
100
AcDbArc
 50
153.5374647244112
 51
193.3327646348719
  0
ARC
  5
DE4
330
1F
100
AcDbEntity
  8
TEXT
100
AcDbCircle
 10
33.52275106923435
 20
19.40617932778452
 30
0.0
 40
0.0628878510816664
100
AcDbArc
 50
346.9852122362369
 51
34.01252680042853
  0
ARC
  5
DE5
330
1F
100
AcDbEntity
  8
TEXT
100
AcDbCircle
 10
33.57534163467259
 20
19.36454546597786
 30
0.0
 40
0.0288105808516282
100
AcDbArc
 50
345.4259909574681
 51
72.46181126870036
  0
ARC
  5
DE6
330
1F
100
AcDbEntity
  8
TEXT
100
AcDbCircle
 10
33.60531910432174
 20
19.30273612752392
 30
0.0
 40
0.0545998876037206
100
AcDbArc
 50
18.24878221232249
 51
92.19784172828999
  0
ARC
  5
DE7
330
1F
100
AcDbEntity
  8
TEXT
100
AcDbCircle
 10
33.66376262850361
 20
19.31690798211831
 30
0.0
 40
0.0072100005161189
100
AcDbArc
 50
156.0593073728619
 51
8.762281217119962
  0
ARC
  5
DE8
330
1F
100
AcDbEntity
  8
TEXT
100
AcDbCircle
 10
33.6793178709557
 20
19.31500627060701
 30
0.0
 40
0.0089473414847218
100
AcDbArc
 50
1.658272028068478
 51
160.4091839300749
  0
ARC
  5
DE9
330
1F
100
AcDbEntity
  8
TEXT
100
AcDbCircle
 10
33.71297229962706
 20
19.33243547890686
 30
0.0
 40
0.0300905984408567
100
AcDbArc
 50
214.7934494581951
 51
299.0409507876107
  0
ARC
  5
DEA
330
1F
100
AcDbEntity
  8
TEXT
100
AcDbCircle
 10
33.74680926032355
 20
19.32407948048756
 30
0.0
 40
0.0263067180384972
100
AcDbArc
 50
223.030562506127
 51
311.2487591160725
  0
ARC
  5
DEB
330
1F
100
AcDbEntity
  8
TEXT
100
AcDbCircle
 10
33.7790725977136
 20
19.30825753360997
 30
0.0
 40
0.0154343664507712
100
AcDbArc
 50
194.8546182240436
 51
330.4510994340804
  0
ARC
  5
DEC
330
1F
100
AcDbEntity
  8
TEXT
100
AcDbCircle
 10
33.80347191859939
 20
19.26378681905427
 30
0.0
 40
0.0384575148254647
100
AcDbArc
 50
33.67851647490053
 51
106.5775508010122
  0
ARC
  5
DED
330
1F
100
AcDbEntity
  8
TEXT
100
AcDbCircle
 10
33.84644722882215
 20
19.30767243655217
 30
0.0
 40
0.0250865133086193
100
AcDbArc
 50
244.0629515517947
 51
24.32612031264302
  0
ARC
  5
DEE
330
1F
100
AcDbEntity
  8
TEXT
100
AcDbCircle
 10
33.90458944052384
 20
19.44728096899156
 30
0.0
 40
0.0653030250867408
100
AcDbArc
 50
300.6537348898137
 51
16.68245916376099
  0
ARC
  5
DEF
330
1F
100
AcDbEntity
  8
TEXT
100
AcDbCircle
 10
33.77808927935319
 20
19.51706847730992
 30
0.0
 40
0.1958235024256409
100
AcDbArc
 50
344.8914411173241
 51
24.57723374822268
  0
ARC
  5
DF0
330
1F
100
AcDbEntity
  8
TEXT
100
AcDbCircle
 10
33.9951483670337
 20
19.61820883427041
 30
0.0
 40
0.0436696173143671
100
AcDbArc
 50
155.9906329013486
 51
206.8057304576932
  0
ARC
  5
DF1
330
1F
100
AcDbEntity
  8
TEXT
100
AcDbCircle
 10
33.94877768604839
 20
19.63561584657656
 30
0.0
 40
0.0064894838433245
100
AcDbArc
 50
3.193725348484568
 51
193.0548754998616
  0
ARC
  5
DF2
330
1F
100
AcDbEntity
  8
TEXT
100
AcDbCircle
 10
33.9337694258356
 20
19.62433904944627
 30
0.0
 40
0.0131038003862086
100
AcDbArc
 50
131.5213803610228
 51
48.47861963898405
  0
ARC
  5
DF3
330
1F
100
AcDbEntity
  8
TEXT
100
AcDbCircle
 10
33.89034135675899
 20
19.65271289530521
 30
0.0
 40
0.0393898268854668
100
AcDbArc
 50
331.8837666959826
 51
33.32508059324375
  0
ARC
  5
DF4
330
1F
100
AcDbEntity
  8
TEXT
100
AcDbCircle
 10
33.9144905242435
 20
19.67192864921632
 30
0.0
 40
0.009092879066983
100
AcDbArc
 50
15.4647115143362
 51
237.0036058083544
  0
ARC
  5
DF5
330
1F
100
AcDbEntity
  8
TEXT
100
AcDbCircle
 10
33.89716776040014
 20
19.65855697143822
 30
0.0
 40
0.0136399916842596
100
AcDbArc
 50
124.5991194751618
 51
24.91162951380403
  0
ARC
  5
DF6
330
1F
100
AcDbEntity
  8
TEXT
100
AcDbCircle
 10
33.85815746992689
 20
19.68404436832071
 30
0.0
 40
0.0343634157900713
100
AcDbArc
 50
335.482723053164
 51
36.54383594003247
  0
ARC
  5
DF7
330
1F
100
AcDbEntity
  8
TEXT
100
AcDbCircle
 10
33.81458831022831
 20
19.57702686043806
 30
0.0
 40
0.1460033326281273
100
AcDbArc
 50
60.82353397560536
 51
101.6183182656847
  0
LINE
  5
DF8
330
1F
100
AcDbEntity
  8
TEXT
100
AcDbLine
 10
33.78518453922094
 20
19.72003871795021
 30
0.0
 11
33.78427017472594
 21
19.68531773071887
 31
0.0
  0
ARC
  5
DF9
330
1F
100
AcDbEntity
  8
TEXT
100
AcDbCircle
 10
33.7708019608103
 20
19.68465811115516
 30
0.0
 40
0.0134843570126824
100
AcDbArc
 50
165.3922446503685
 51
2.80387904420639
  0
LINE
  5
DFA
330
1F
100
AcDbEntity
  8
TEXT
100
AcDbLine
 10
33.75775348506606
 20
19.68805887059937
 30
0.0
 11
33.75592475607581
 21
19.71455644998142
 31
0.0
  0
ARC
  5
DFB
330
1F
100
AcDbEntity
  8
TEXT
100
AcDbCircle
 10
33.7440870492061
 20
19.70862613572007
 30
0.0
 40
0.0132400880348179
100
AcDbArc
 50
26.60941129939518
 51
166.0619000058105
  0
LINE
  5
DFC
330
1F
100
AcDbEntity
  8
TEXT
100
AcDbLine
 10
33.7312367954062
 20
19.71181532189306
 30
0.0
 11
33.7312367954062
 21
19.69993709624622
 31
0.0
  0
ARC
  5
DFD
330
1F
100
AcDbEntity
  8
TEXT
100
AcDbCircle
 10
33.72075539724775
 20
19.6933502145433
 30
0.0
 40
0.0123792858405857
100
AcDbArc
 50
179.1163546128549
 51
32.14670843865726
  0
LINE
  5
DFE
330
1F
100
AcDbEntity
  8
TEXT
100
AcDbLine
 10
33.70837758361031
 20
19.69354112677602
 30
0.0
 11
33.70837758361031
 21
19.64968304198617
 31
0.0
  0
ARC
  5
DFF
330
1F
100
AcDbEntity
  8
TEXT
100
AcDbCircle
 10
33.6919121348981
 20
19.64947182585351
 30
0.0
 40
0.0164668033798353
100
AcDbArc
 50
182.4450201076249
 51
0.7349407504797704
  0
LINE
  5
E00
330
1F
100
AcDbEntity
  8
TEXT
100
AcDbLine
 10
33.67546032260106
 20
19.64876934048481
 30
0.0
 11
33.6827752584456
 21
19.70359193762801
 31
0.0
  0
ARC
  5
E01
330
1F
100
AcDbEntity
  8
TEXT
100
AcDbCircle
 10
33.6742496339208
 20
19.70237512392166
 30
0.0
 40
0.0086120211991529
100
AcDbArc
 50
8.122642540875263
 51
202.9043136183458
  0
LINE
  5
E02
330
1F
100
AcDbEntity
  8
TEXT
100
AcDbLine
 10
33.6663166179992
 20
19.69902338295271
 30
0.0
 11
33.66265916001864
 21
19.67069837698367
 31
0.0
  0
ARC
  5
E03
330
1F
100
AcDbEntity
  8
TEXT
100
AcDbCircle
 10
33.65214391861594
 20
19.67125399127362
 30
0.0
 40
0.0105299102084538
100
AcDbArc
 50
183.0246359049376
 51
356.9753640950624
  0
LINE
  5
E04
330
1F
100
AcDbEntity
  8
TEXT
100
AcDbLine
 10
33.64162867721314
 20
19.67069837698367
 30
0.0
 11
33.63431372148499
 21
19.65425159666152
 31
0.0
  0
LINE
  5
E05
330
1F
100
AcDbEntity
  8
TEXT
100
AcDbLine
 10
34.12872010435471
 20
19.48349916527312
 30
0.0
 11
34.20592661971245
 21
19.48651286847642
 31
0.0
  0
LINE
  5
E06
330
1F
100
AcDbEntity
  8
TEXT
100
AcDbLine
 10
34.2644346734329
 20
19.48349916527312
 30
0.0
 11
34.34164118879074
 21
19.48651286847642
 31
0.0
  0
LINE
  5
E07
330
1F
100
AcDbEntity
  8
TEXT
100
AcDbLine
 10
34.16008523630615
 20
19.45938950427072
 30
0.0
 11
34.16129159059405
 21
19.34245765725297
 31
0.0
  0
LINE
  5
E08
330
1F
100
AcDbEntity
  8
TEXT
100
AcDbLine
 10
34.20592661971245
 20
19.48651286847642
 30
0.0
 11
34.2071329740004
 21
19.35390973885906
 31
0.0
  0
LINE
  5
E09
330
1F
100
AcDbEntity
  8
TEXT
100
AcDbLine
 10
34.34164118879074
 20
19.48651286847642
 30
0.0
 11
34.34284754307864
 21
19.34969054965767
 31
0.0
  0
ARC
  5
E0A
330
1F
100
AcDbEntity
  8
TEXT
100
AcDbCircle
 10
34.1459758469362
 20
19.45971398788492
 30
0.0
 40
0.0141131200663356
100
AcDbArc
 50
358.6825606331185
 51
106.4049357729542
  0
LINE
  5
E0B
330
1F
100
AcDbEntity
  8
TEXT
100
AcDbLine
 10
34.12872010435471
 20
19.48349916527312
 30
0.0
 11
34.12932327155685
 21
19.47506077507817
 31
0.0
  0
LINE
  5
E0C
330
1F
100
AcDbEntity
  8
TEXT
100
AcDbLine
 10
34.14198996175465
 20
19.47325255787306
 30
0.0
 11
34.12932327155685
 21
19.47506077507817
 31
0.0
  0
LINE
  5
E0D
330
1F
100
AcDbEntity
  8
TEXT
100
AcDbLine
 10
34.2644346734329
 20
19.48349916527312
 30
0.0
 11
34.26383150623081
 21
19.4720470718749
 31
0.0
  0
LINE
  5
E0E
330
1F
100
AcDbEntity
  8
TEXT
100
AcDbLine
 10
34.26383150623081
 20
19.4720470718749
 30
0.0
 11
34.28554584364611
 21
19.47084158587676
 31
0.0
  0
LINE
  5
E0F
330
1F
100
AcDbEntity
  8
TEXT
100
AcDbLine
 10
34.29881570104595
 20
19.34366314325111
 30
0.0
 11
34.29821253384381
 21
19.45878676127161
 31
0.0
  0
ARC
  5
E10
330
1F
100
AcDbEntity
  8
TEXT
100
AcDbCircle
 10
34.28959241539214
 20
19.46241133068266
 30
0.0
 40
0.0093511467497255
100
AcDbArc
 50
337.1943218370273
 51
115.6412778855143
  0
ARC
  5
E11
330
1F
100
AcDbEntity
  8
TEXT
100
AcDbCircle
 10
34.20771058711724
 20
19.3430723667404
 30
0.0
 40
0.046423066529269
100
AcDbArc
 50
180.7587023263156
 51
270.0315390907402
  0
ARC
  5
E12
330
1F
100
AcDbEntity
  8
TEXT
100
AcDbCircle
 10
34.2260562798752
 20
19.40161384502772
 30
0.0
 40
0.1065513100484829
100
AcDbArc
 50
260.0995263030862
 51
313.0673878832468
  0
LINE
  5
E13
330
1F
100
AcDbEntity
  8
TEXT
100
AcDbLine
 10
34.29881570104595
 20
19.32377267145012
 30
0.0
 11
34.2994188881317
 21
19.30086849644581
 31
0.0
  0
ARC
  5
E14
330
1F
100
AcDbEntity
  8
TEXT
100
AcDbCircle
 10
34.30655135851774
 20
19.30370693806022
 30
0.0
 40
0.0076765151342194
100
AcDbArc
 50
201.7006027724346
 51
343.0678677067636
  0
ARC
  5
E15
330
1F
100
AcDbEntity
  8
TEXT
100
AcDbCircle
 10
34.37307870310306
 20
19.16315364952337
 30
0.0
 40
0.1504475143673551
100
AcDbArc
 50
88.18956599987521
 51
113.1652090520216
  0
LINE
  5
E16
330
1F
100
AcDbEntity
  8
TEXT
100
AcDbLine
 10
34.4162990716896
 20
19.55325223974372
 30
0.0
 11
34.42077873395485
 21
19.32111723677986
 31
0.0
  0
LINE
  5
E17
330
1F
100
AcDbEntity
  8
TEXT
100
AcDbLine
 10
34.4649281960672
 20
19.58459430554273
 30
0.0
 11
34.4662152884758
 21
19.46883951782526
 31
0.0
  0
ARC
  5
E18
330
1F
100
AcDbEntity
  8
TEXT
100
AcDbCircle
 10
34.37025248353145
 20
19.85837535201751
 30
0.0
 40
0.2896887156120587
100
AcDbArc
 50
273.5403564160214
 51
289.075801678542
  0
LINE
  5
E19
330
1F
100
AcDbEntity
  8
TEXT
100
AcDbLine
 10
34.38814121447735
 20
19.56923949250142
 30
0.0
 11
34.38942111798165
 21
19.55517071337642
 31
0.0
  0
LINE
  5
E1A
330
1F
100
AcDbEntity
  8
TEXT
100
AcDbLine
 10
34.38942111798165
 20
19.55517071337642
 30
0.0
 11
34.4162990716896
 21
19.55325223974372
 31
0.0
  0
LINE
  5
E1B
330
1F
100
AcDbEntity
  8
TEXT
100
AcDbLine
 10
34.46685522034439
 20
19.44517837053676
 30
0.0
 11
34.46749517209664
 21
19.33518602769701
 31
0.0
  0
ARC
  5
E1C
330
1F
100
AcDbEntity
  8
TEXT
100
AcDbCircle
 10
34.54155815588106
 20
19.36926341367627
 30
0.0
 40
0.1248677227562916
100
AcDbArc
 50
71.0798858476193
 51
127.1124618564865
  0
ARC
  5
E1D
330
1F
100
AcDbEntity
  8
TEXT
100
AcDbCircle
 10
34.54164999165195
 20
19.41020427658397
 30
0.0
 40
0.0871131274181384
100
AcDbArc
 50
359.8698564192901
 51
62.37231490188278
  0
ARC
  5
E1E
330
1F
100
AcDbEntity
  8
TEXT
100
AcDbCircle
 10
34.50637237494424
 20
19.41928655693451
 30
0.0
 40
0.0472439574895631
100
AcDbArc
 50
78.87075864991579
 51
146.7670066549792
  0
ARC
  5
E1F
330
1F
100
AcDbEntity
  8
TEXT
100
AcDbCircle
 10
34.52065321270255
 20
19.41087355224041
 30
0.0
 40
0.055011200100543
100
AcDbArc
 50
21.58325850317089
 51
95.38396011116695
  0
ARC
  5
E20
330
1F
100
AcDbEntity
  8
TEXT
100
AcDbCircle
 10
34.51634090063575
 20
19.39207167243902
 30
0.0
 40
0.0678267933239388
100
AcDbArc
 50
343.5952529167608
 51
35.13836089167919
  0
ARC
  5
E21
330
1F
100
AcDbEntity
  8
TEXT
100
AcDbCircle
 10
34.49443287560094
 20
19.41435803987601
 30
0.0
 40
0.1188224723848487
100
AcDbArc
 50
231.6935697703401
 51
269.662604416913
  0
ARC
  5
E22
330
1F
100
AcDbEntity
  8
TEXT
100
AcDbCircle
 10
34.50675116569936
 20
19.43497988494317
 30
0.0
 40
0.140048603082372
100
AcDbArc
 50
264.6664639047648
 51
308.6423664458144
  0
ARC
  5
E23
330
1F
100
AcDbEntity
  8
TEXT
100
AcDbCircle
 10
34.5231071803259
 20
19.40398032141437
 30
0.0
 40
0.1058274236124893
100
AcDbArc
 50
312.208697425784
 51
3.264333629957771
  0
ARC
  5
E24
330
1F
100
AcDbEntity
  8
TEXT
100
AcDbCircle
 10
33.47825103741005
 20
20.21967682852186
 30
0.0
 40
0.0155854059771691
100
AcDbArc
 50
32.93635467158921
 51
189.54308541652
  0
ARC
  5
E25
330
1F
100
AcDbEntity
  8
TEXT
100
AcDbCircle
 10
33.50285740157245
 20
20.22853940644702
 30
0.0
 40
0.0115324736297819
100
AcDbArc
 50
181.931421762249
 51
21.08009584438978
  0
ARC
  5
E26
330
1F
100
AcDbEntity
  8
TEXT
100
AcDbCircle
 10
33.52220475613894
 20
20.23094262466003
 30
0.0
 40
0.0087621083970039
100
AcDbArc
 50
3.320051391017451
 51
168.5145862198258
  0
ARC
  5
E27
330
1F
100
AcDbEntity
  8
TEXT
100
AcDbCircle
 10
33.54083400145274
 20
20.22610939959227
 30
0.0
 40
0.0112327007092578
100
AcDbArc
 50
151.6108765070449
 51
6.217261201770577
  0
ARC
  5
E28
330
1F
100
AcDbEntity
  8
TEXT
100
AcDbCircle
 10
33.56090652059455
 20
20.22780102256032
 30
0.0
 40
0.008918550229311
100
AcDbArc
 50
7.567610287756988
 51
183.0538693842452
  0
ARC
  5
E29
330
1F
100
AcDbEntity
  8
TEXT
100
AcDbCircle
 10
33.57685934653585
 20
20.23282986022887
 30
0.0
 40
0.0080892232142005
100
AcDbArc
 50
208.4553291170986
 51
16.75507449313883
  0
ARC
  5
E2A
330
1F
100
AcDbEntity
  8
TEXT
100
AcDbCircle
 10
33.58914317571315
 20
20.22714452286527
 30
0.0
 40
0.0092125407880352
100
AcDbArc
 50
340.2175703033614
 51
119.5111127021394
  0
ARC
  5
E2B
330
1F
100
AcDbEntity
  8
TEXT
100
AcDbCircle
 10
33.61107534110161
 20
20.22397763636527
 30
0.0
 40
0.013263396534313
100
AcDbArc
 50
179.7887253899368
 51
338.3185482084483
  0
ARC
  5
E2C
330
1F
100
AcDbEntity
  8
TEXT
100
AcDbCircle
 10
33.64149342467815
 20
20.21028772605532
 30
0.0
 40
0.0201151391557355
100
AcDbArc
 50
51.7690922577006
 51
154.0890012254448
  0
ARC
  5
E2D
330
1F
100
AcDbEntity
  8
TEXT
100
AcDbCircle
 10
33.66704374539799
 20
20.22881794664438
 30
0.0
 40
0.0133836717387766
100
AcDbArc
 50
191.7667831442117
 51
294.1224948725127
  0
ARC
  5
E2E
330
1F
100
AcDbEntity
  8
TEXT
100
AcDbCircle
 10
33.6827157864559
 20
20.21990311267867
 30
0.0
 40
0.010722742706218
100
AcDbArc
 50
13.338412263816
 51
197.9246330182951
  0
ARC
  5
E2F
330
1F
100
AcDbEntity
  8
TEXT
100
AcDbCircle
 10
33.70451452053965
 20
20.22298733695106
 30
0.0
 40
0.0113816267680365
100
AcDbArc
 50
183.0745908828774
 51
5.238726745824523
  0
ARC
  5
E30
330
1F
100
AcDbEntity
  8
TEXT
100
AcDbCircle
 10
33.72603582600581
 20
20.22552719514837
 30
0.0
 40
0.0102971559195648
100
AcDbArc
 50
305.0065695458968
 51
188.3798152009864
  0
ARC
  5
E31
330
1F
100
AcDbEntity
  8
TEXT
100
AcDbCircle
 10
33.49666990031045
 20
19.22904017831892
 30
0.0
 40
0.0161635981059232
100
AcDbArc
 50
225.9317407160003
 51
327.3216812937239
  0
ARC
  5
E32
330
1F
100
AcDbEntity
  8
TEXT
100
AcDbCircle
 10
33.68326122646767
 20
19.18110937191222
 30
0.0
 40
0.0140128523261064
100
AcDbArc
 50
167.7181143692787
 51
23.98551077365517
  0
ARC
  5
E33
330
1F
100
AcDbEntity
  8
TEXT
100
AcDbCircle
 10
33.75155364041324
 20
19.19832454217606
 30
0.0
 40
0.0169881736869447
100
AcDbArc
 50
170.7272794785987
 51
21.15794103948668
  0
LINE
  5
E34
330
1F
100
AcDbEntity
  8
TEXT
100
AcDbLine
 10
33.7673966244391
 20
19.20445625501802
 30
0.0
 11
33.76603790258006
 21
19.22957439088106
 31
0.0
  0
LINE
  5
E35
330
1F
100
AcDbEntity
  8
TEXT
100
AcDbLine
 10
33.80204387277629
 20
19.22550118826506
 30
0.0
 11
33.80883746218795
 21
19.19020001638181
 31
0.0
  0
ARC
  5
E36
330
1F
100
AcDbEntity
  8
TEXT
100
AcDbCircle
 10
33.81718548031281
 20
19.18852846557276
 30
0.0
 40
0.0085137235519906
100
AcDbArc
 50
168.6772178130462
 51
20.84321825743645
  0
LINE
  5
E37
330
1F
100
AcDbEntity
  8
TEXT
100
AcDbLine
 10
33.8251420449623
 20
19.19155775058715
 30
0.0
 11
33.8251420449623
 21
19.21531815224487
 31
0.0
  0
ARC
  5
E38
330
1F
100
AcDbEntity
  8
TEXT
100
AcDbCircle
 10
33.83600683815765
 20
19.21424720310751
 30
0.0
 40
0.0109174476519063
100
AcDbArc
 50
354.9255052590734
 51
174.3705062402905
  0
LINE
  5
E39
330
1F
100
AcDbEntity
  8
TEXT
100
AcDbLine
 10
33.84688149528925
 20
19.21328154504076
 30
0.0
 11
33.84959891912386
 21
19.14675242747446
 31
0.0
  0
ARC
  5
E3A
330
1F
100
AcDbEntity
  8
TEXT
100
AcDbCircle
 10
33.8631580389012
 20
19.14814485580182
 30
0.0
 40
0.0136304286721181
100
AcDbArc
 50
185.8633287467241
 51
2.708827809510279
  0
LINE
  5
E3B
330
1F
100
AcDbEntity
  8
TEXT
100
AcDbLine
 10
33.8767732370034
 20
19.14878903467856
 30
0.0
 11
33.87133838933431
 21
19.20377739381141
 31
0.0
  0
LINE
  5
E3C
330
1F
100
AcDbEntity
  8
TEXT
100
AcDbLine
 10
33.87133838933431
 20
19.20377739381141
 30
0.0
 11
33.87745259793285
 21
19.18952115517521
 31
0.0
  0
ARC
  5
E3D
330
1F
100
AcDbEntity
  8
TEXT
100
AcDbCircle
 10
33.88639280305825
 20
19.19441715766697
 30
0.0
 40
0.0101930421407477
100
AcDbArc
 50
208.7068196476631
 51
351.5282258973482
  0
LINE
  5
E3E
330
1F
100
AcDbEntity
  8
TEXT
100
AcDbLine
 10
33.89647462442531
 20
19.19291549658462
 30
0.0
 11
33.89579526349581
 21
19.20309852081272
 31
0.0
  0
ARC
  5
E3F
330
1F
100
AcDbEntity
  8
TEXT
100
AcDbCircle
 10
33.90951207379386
 20
19.19920775203362
 30
0.0
 40
0.0142579439767782
100
AcDbArc
 50
7.472141028409406
 51
164.1640293291662
  0
LINE
  5
E40
330
1F
100
AcDbEntity
  8
TEXT
100
AcDbLine
 10
33.92364894230486
 20
19.20106191360866
 30
0.0
 11
33.93044251183306
 21
19.14471583206256
 31
0.0
  0
ARC
  5
E41
330
1F
100
AcDbEntity
  8
TEXT
100
AcDbCircle
 10
33.94369833746331
 20
19.14132258077286
 30
0.0
 40
0.0136832403858781
100
AcDbArc
 50
165.6416373020933
 51
23.37981978601892
  0
LINE
  5
E42
330
1F
100
AcDbEntity
  8
TEXT
100
AcDbLine
 10
33.95625810785356
 20
19.14675242747446
 30
0.0
 11
33.95419298344981
 21
19.19721099266761
 31
0.0
  0
ARC
  5
E43
330
1F
100
AcDbEntity
  8
TEXT
100
AcDbCircle
 10
33.95807398772986
 20
19.20139761717752
 30
0.0
 40
0.005708766855312
100
AcDbArc
 50
60.02231951668196
 51
227.1694577924197
  0
LINE
  5
E44
330
1F
100
AcDbEntity
  8
TEXT
100
AcDbLine
 10
33.96092644503495
 20
19.20634266584576
 30
0.0
 11
33.98423178382981
 21
19.20278271574447
 31
0.0
  0
ARC
  5
E45
330
1F
100
AcDbEntity
  8
TEXT
100
AcDbCircle
 10
33.98246180373585
 20
19.19260066711572
 30
0.0
 40
0.0103347444966624
100
AcDbArc
 50
327.1504341221716
 51
80.13862259361699
  0
LINE
  5
E46
330
1F
100
AcDbEntity
  8
TEXT
100
AcDbLine
 10
33.99114399844435
 20
19.18699473821352
 30
0.0
 11
33.99460011569335
 21
19.08881318182181
 31
0.0
  0
LINE
  5
E47
330
1F
100
AcDbEntity
  8
TEXT
100
AcDbLine
 10
34.02373019850361
 20
19.09078668933127
 30
0.0
 11
34.0242239266987
 21
19.1904483586669
 31
0.0
  0
ARC
  5
E48
330
1F
100
AcDbEntity
  8
TEXT
100
AcDbCircle
 10
34.03199494297375
 20
19.19113936164457
 30
0.0
 40
0.0078016779645331
100
AcDbArc
 50
32.9443583194599
 51
185.0814072168599
  0
ARC
  5
E49
330
1F
100
AcDbEntity
  8
TEXT
100
AcDbCircle
 10
34.05431565438036
 20
19.21008488026877
 30
0.0
 40
0.0215633143471464
100
AcDbArc
 50
222.9877626572331
 51
344.3358851615569
  0
ARC
  5
E4A
330
1F
100
AcDbEntity
  8
TEXT
100
AcDbCircle
 10
34.02434495324285
 20
19.22869932123601
 30
0.0
 40
0.0092812029874863
100
AcDbArc
 50
193.9319034609807
 51
333.0378283509288
  0
ARC
  5
E4B
330
1F
100
AcDbEntity
  8
TEXT
100
AcDbCircle
 10
34.0073551077141
 20
19.21732288232666
 30
0.0
 40
0.0121358934012065
100
AcDbArc
 50
48.87596376793666
 51
143.7953529790059
  0
ARC
  5
E4C
330
1F
100
AcDbEntity
  8
TEXT
100
AcDbCircle
 10
33.98415646417416
 20
19.23670841276496
 30
0.0
 40
0.0181378640851004
100
AcDbArc
 50
218.2556843178653
 51
317.6564247238852
  0
ARC
  5
E4D
330
1F
100
AcDbEntity
  8
TEXT
100
AcDbCircle
 10
34.00928032078824
 20
19.08810005462697
 30
0.0
 40
0.01469751584536
100
AcDbArc
 50
177.2189023070876
 51
10.53261226457853
  0
LINE
  5
E4E
330
1F
100
AcDbEntity
  8
DIMENSION
100
AcDbLine
 10
29.6956041394189
 20
18.58537323111262
 30
0.0
 11
29.6956041394189
 21
17.11300426667412
 31
0.0
  0
LWPOLYLINE
  5
E4F
330
1F
100
AcDbEntity
  8
BORDER
100
AcDbPolyline
 90
        4
 70
     1
 43
0.0
 10
2.985157810985132
 20
64.76526861943935
 10
39.1995660215349
 20
64.76526861943935
 10
39.1995660215349
 20
17.11300426667412
 10
2.985157810985132
 20
17.11300426667412
  0
TEXT
  5
E50
330
1F
100
AcDbEntity
  8
TEXT
100
AcDbText
 10
26.57115900775147
 20
17.29170025799696
 30
0.0
 40
0.1191306608819131
  1
ICE QUBE, INC.
 72
     1
 11
27.27601541796945
 21
17.35126558843792
 31
0.0
100
AcDbText
 73
     2
  0
TEXT
  5
E51
330
1F
100
AcDbEntity
  8
TEXT
100
AcDbText
 10
25.25079418297693
 20
17.47039624931985
 30
0.0
 40
0.1191306608819131
  1
OR ALTERED WITHOUT AUTHORIZATION OF
 72
     1
 11
27.27601541796945
 21
17.52996157976081
 31
0.0
100
AcDbText
 73
     2
  0
TEXT
  5
E52
330
1F
100
AcDbEntity
  8
TEXT
100
AcDbText
 10
25.1614461873155
 20
17.64909224064271
 30
0.0
 40
0.1191306608819131
  1
QUBE, INC. AND IS NOT TO BE DUPLICATED
 72
     1
 11
27.27601541796945
 21
17.70865757108367
 31
0.0
100
AcDbText
 73
     2
  0
TEXT
  5
E53
330
1F
100
AcDbEntity
  8
TEXT
100
AcDbText
 10
25.27064929312392
 20
17.8277882319656
 30
0.0
 40
0.1191306608819131
  1
THIS DRAWING IS THE PROPERTY OF ICE
 72
     1
 11
27.27601541796945
 21
17.88735356240656
 31
0.0
100
AcDbText
 73
     2
  0
TEXT
  5
E54
330
1F
100
AcDbEntity
  8
TEXT
100
AcDbText
 10
25.09195330180096
 20
18.06604955372938
 30
0.0
 40
0.2382613217638261
  1
PROPRIETARY DRAWING
 72
     1
 11
27.27601541796936
 21
18.1851802146113
 31
0.0
100
AcDbText
 73
     2
  0
LINE
  5
E55
330
1F
100
AcDbEntity
  8
BORDER
100
AcDbLine
 10
29.6956041394189
 20
17.11300426667412
 30
0.0
 11
24.85642669651995
 21
17.11300426667412
 31
0.0
  0
LINE
  5
E56
330
1F
100
AcDbEntity
  8
BORDER
100
AcDbLine
 10
29.6956041394189
 20
17.11300426667412
 30
0.0
 11
29.6956041394189
 21
18.42344153637517
 31
0.0
  0
LINE
  5
E57
330
1F
100
AcDbEntity
  8
THERMOSTATCVR
100
AcDbLine
 10
29.6956041394189
 20
18.58537323111262
 30
0.0
 11
24.9016908100559
 21
18.58537323111262
 31
0.0
  0
LINE
  5
E58
330
1F
100
AcDbEntity
  8
THERMOSTATCVR
100
AcDbLine
 10
24.9016908100559
 20
18.58537323111262
 30
0.0
 11
24.9016908100559
 21
17.11300426667412
 31
0.0
  0
LINE
  5
E61
330
1F
100
AcDbEntity
  8
BORDER
100
AcDbLine
 10
15.3713180544812
 20
18.25665861114056
 30
0.0
 11
2.985157810985132
 21
18.25665861114056
 31
0.0
  0
TEXT
  5
E62
330
1F
100
AcDbEntity
  8
TEXT
100
AcDbText
 10
3.354462859719057
 20
17.97074502502389
 30
0.0
 40
0.1906090574110609
  1
0
 72
     1
 11
3.402115124071823
 21
18.06604955372942
 31
0.0
100
AcDbText
 73
     2
  0
LINE
  5
E63
330
1F
100
AcDbEntity
  8
BORDER
100
AcDbLine
 10
3.819072437158521
 20
17.87544049631837
 30
0.0
 11
3.819072437158522
 21
19.01909484078491
 31
0.0
  0
TEXT
  5
E64
330
1F
100
AcDbEntity
  8
TEXT
100
AcDbText
 10
6.502689124625185
 20
17.97074502502389
 30
0.0
 40
0.1906090574110609
  1
INITIAL RELEASE
 72
     1
 11
7.805184350267434
 21
18.06604955372942
 31
0.0
100
AcDbText
 73
     2
  0
TEXT
  5
E65
330
1F
100
AcDbEntity
  8
TEXT
100
AcDbText
 10
14.16584160165593
 20
17.97074502502389
 30
0.0
 40
0.1906090574110609
  1
JMH
 72
     1
 11
14.41998701153735
 21
18.06604955372942
 31
0.0
100
AcDbText
 73
     2
  0
LINE
  5
E66
330
1F
100
AcDbEntity
  8
BORDER
100
AcDbLine
 10
13.46865596859345
 20
17.87544049631837
 30
0.0
 11
13.46865596859345
 21
19.01909484078491
 31
0.0
  0
TEXT
  5
E67
330
1F
100
AcDbEntity
  8
TEXT
100
AcDbText
 10
12.04226485563403
 20
17.97074502502389
 30
0.0
 40
0.1906090574110609
  1
12-6-07
 72
     1
 11
12.6299761159848
 21
18.06604955372942
 31
0.0
100
AcDbText
 73
     2
  0
LINE
  5
E68
330
1F
100
AcDbEntity
  8
BORDER
100
AcDbLine
 10
11.79129626337616
 20
17.87544049631837
 30
0.0
 11
11.79129626337616
 21
19.01909484078491
 31
0.0
  0
LINE
  5
E69
330
1F
100
AcDbEntity
  8
BORDER
100
AcDbLine
 10
15.3713180544812
 20
17.49422238149622
 30
0.0
 11
2.985157810985132
 21
17.49422238149622
 31
0.0
  0
LINE
  5
E6A
330
1F
100
AcDbEntity
  8
BORDER
100
AcDbLine
 10
15.3713180544812
 20
17.87544049631837
 30
0.0
 11
2.985157810985132
 21
17.87544049631837
 31
0.0
  0
TEXT
  5
E6B
330
1F
100
AcDbEntity
  8
TEXT
100
AcDbText
 10
3.116201537955231
 20
17.58952691020174
 30
0.0
 40
0.1906090574110609
  1
REV
 72
     1
 11
3.402115124071823
 21
17.68483143890727
 31
0.0
100
AcDbText
 73
     2
  0
LINE
  5
E6C
330
1F
100
AcDbEntity
  8
BORDER
100
AcDbLine
 10
2.985157810985132
 20
17.11300426667412
 30
0.0
 11
2.985157810985132
 21
19.40031295560701
 31
0.0
  0
LINE
  5
E6D
330
1F
100
AcDbEntity
  8
BORDER
100
AcDbLine
 10
3.819072437158521
 20
17.49422238149622
 30
0.0
 11
3.819072437158521
 21
17.87544049631837
 31
0.0
  0
TEXT
  5
E6E
330
1F
100
AcDbEntity
  8
TEXT
100
AcDbText
 10
6.852139063212129
 20
17.58952691020174
 30
0.0
 40
0.1906090574110609
  1
DESCRIPTION
 72
     1
 11
7.805184350267434
 21
17.68483143890727
 31
0.0
100
AcDbText
 73
     2
  0
TEXT
  5
E6F
330
1F
100
AcDbEntity
  8
TEXT
100
AcDbText
 10
13.78462348683381
 20
17.58952691020174
 30
0.0
 40
0.1906090574110609
  1
CHECKED
 72
     1
 11
14.41998701153735
 21
17.68483143890727
 31
0.0
100
AcDbText
 73
     2
  0
LINE
  5
E70
330
1F
100
AcDbEntity
  8
BORDER
100
AcDbLine
 10
13.46865596859345
 20
17.49422238149622
 30
0.0
 11
13.46865596859345
 21
17.87544049631837
 31
0.0
  0
TEXT
  5
E71
330
1F
100
AcDbEntity
  8
TEXT
100
AcDbText
 10
12.28052617739785
 20
17.58952691020174
 30
0.0
 40
0.1906090574110609
  1
DATE
 72
     1
 11
12.6299761159848
 21
17.68483143890727
 31
0.0
100
AcDbText
 73
     2
  0
LINE
  5
E72
330
1F
100
AcDbEntity
  8
BORDER
100
AcDbLine
 10
11.79129626337616
 20
17.49422238149622
 30
0.0
 11
11.79129626337616
 21
17.87544049631837
 31
0.0
  0
LINE
  5
E73
330
1F
100
AcDbEntity
  8
BORDER
100
AcDbLine
 10
2.985157810985132
 20
17.49422238149622
 30
0.0
 11
15.3713180544812
 21
17.49422238149622
 31
0.0
  0
LINE
  5
E74
330
1F
100
AcDbEntity
  8
BORDER
100
AcDbLine
 10
15.3713180544812
 20
19.01909484078491
 30
0.0
 11
15.3713180544812
 21
17.11300426667412
 31
0.0
  0
LINE
  5
E75
330
1F
100
AcDbEntity
  8
BORDER
100
AcDbLine
 10
15.3713180544812
 20
17.11300426667412
 30
0.0
 11
2.985157810985132
 21
17.11300426667412
 31
0.0
  0
TEXT
  5
E76
330
1F
100
AcDbEntity
  8
TEXT
100
AcDbText
 10
7.010979944388013
 20
17.20830879537958
 30
0.0
 40
0.1906090574110609
  1
REVISIONS
 72
     1
 11
7.805184350267434
 21
17.30361332408511
 31
0.0
100
AcDbText
 73
     2
  0
TEXT
  5
E82
330
1F
100
AcDbEntity
  8
0
370
     9
100
AcDbText
 10
10.84236191625997
 20
54.74676031406904
 30
0.0
 40
1.5
  1
CUTOUT DRAWING
 72
     1
 11
21.09236191625997
 21
55.49676031406903
 31
0.0
100
AcDbText
 73
     2
  0
TEXT
  5
E83
330
1F
100
AcDbEntity
  8
0
370
     9
100
AcDbText
 10
16.71736191625997
 20
57.11855683174439
 30
0.0
 40
1.5
  1
IQ1000V
 72
     1
 11
21.09236191625997
 21
57.86855683174439
 31
0.0
100
AcDbText
 73
     2
  0
DIMENSION
  5
1C33
330
1F
100
AcDbEntity
  8
DIMENSION
370
     9
100
AcDbDimension
  2
*D49
 10
18.44721993376705
 20
39.72141660581318
 30
0.0
 11
30.95382009965256
 21
35.11740428818642
 31
0.0
 70
   163
  1
<> (1)\PPOWER \PSUPPLY
 71
     5
 42
1.249999999999952
  3
Standard
100
AcDbDiametricDimension
 15
19.55624707574684
 25
39.14473749369621
 35
0.0
 40
0.0
1001
ACAD
1000
DSTYLE
1002
{
1070
    41
1040
0.75
1070
   140
1040
0.75
1070
   288
1070
     1
1002
}
  0
DIMENSION
  5
1C34
330
1F
100
AcDbEntity
  8
DIMENSION
370
     9
100
AcDbDimension
  2
*D50
 10
20.87990718213693
 20
40.12017216523112
 30
0.0
 11
27.8148884493039
 21
40.82172528370698
 31
0.0
 70
   163
  1
<> (1)\POPTIONAL:\PETHERNET/ALARM\PCONNECTION \PPORT
 71
     4
 42
1.249999999999953
  3
Standard
100
AcDbDiametricDimension
 15
22.12355982737682
 25
40.2459819342783
 35
0.0
 40
0.0
1001
ACAD
1000
DSTYLE
1002
{
1070
   140
1040
0.75
1070
    41
1040
0.75
1070
   288
1070
     1
1002
}
  0
DIMENSION
  5
1C35
330
1F
100
AcDbEntity
  8
DIMENSION
370
     9
100
AcDbDimension
  2
*D51
 10
11.36419742228949
 20
34.52462218983735
 30
0.0
 11
21.50173350475691
 21
29.57604545397561
 31
0.0
 70
   102
 71
     5
 42
10.13753608246744
  3
Standard
100
AcDbOrdinateDimension
 13
21.50173350475694
 23
40.18307704975465
 33
0.0
 14
21.50173350475691
 24
31.5135454539756
 34
0.0
1001
ACAD
1000
DSTYLE
1002
{
1070
    41
1040
0.75
1070
    42
1040
0.375
1070
   140
1040
0.75
1070
   147
1040
0.375
1070
   271
1070
     3
1070
   272
1070
     3
1070
   288
1070
     1
1002
}
  0
DIMENSION
  5
1C36
330
1F
100
AcDbEntity
  8
DIMENSION
370
     9
100
AcDbDimension
  2
*D52
 10
11.36419742228949
 20
34.52462218983735
 30
0.0
 11
6.529390983204251
 21
40.51530235626409
 31
0.0
 70
    38
 71
     5
 42
5.658454859917307
  3
Standard
100
AcDbOrdinateDimension
 13
21.50173350475694
 23
40.18307704975465
 33
0.0
 14
8.404390983204251
 24
40.51530235626409
 34
0.0
1001
ACAD
1000
DSTYLE
1002
{
1070
    41
1040
0.75
1070
    42
1040
0.375
1070
   140
1040
0.75
1070
   147
1040
0.375
1070
   271
1070
     3
1070
   272
1070
     3
1070
   288
1070
     1
1002
}
  0
LEADER
  5
1C37
330
1F
100
AcDbEntity
  8
DIMENSION
370
     9
100
AcDbLeader
  3
Standard
 73
     0
 40
0.18
 76
     3
 10
18.56764943116323
 20
37.25112592733824
 30
0.0
 10
14.53277695516094
 20
26.82602844431801
 30
0.0
 10
13.55734783927009
 20
26.82602844431801
 30
0.0
213
0.0
223
0.09
233
0.0
1001
ACAD
1000
DSTYLE
1002
{
1070
    41
1040
0.75
1070
   279
1070
     0
1002
}
  0
MTEXT
  5
1C38
102
{ACAD_REACTORS
330
1C37
102
}
330
1F
100
AcDbEntity
  8
0
100
AcDbMText
 10
50.43509462171491
 20
27.4652042080555
 30
0.0
 40
0.18
 41
0.0
 71
     9
 72
     1
  1
\A1;
 73
     1
 44
1.0
1001
ACAD
1000
MTEXTBEGIN
1070
    73
1070
     1
1070
    44
1040
1.0
1070
    74
1070
     0
1000
MTEXTEND
  0
CIRCLE
  5
1C39
330
1F
100
AcDbEntity
  8
0
370
     9
100
AcDbCircle
 10
21.50173350475694
 20
40.18307704975465
 30
0.0
 40
0.625
  0
DIMENSION
  5
1C3A
330
1F
100
AcDbEntity
  8
DIMENSION
370
     9
100
AcDbDimension
  2
*D53
 10
11.36423350475701
 20
34.52457704975459
 30
0.0
 11
12.19173350475698
 21
51.43193056947254
 31
0.0
 70
   102
 71
     5
 42
0.8274999999999739
  3
Standard
100
AcDbOrdinateDimension
 13
12.19173350475699
 23
46.21157704975471
 33
0.0
 14
12.19173350475699
 24
49.61943056947253
 34
0.0
1001
ACAD
1000
DSTYLE
1002
{
1070
    41
1040
0.75
1070
    42
1040
0.375
1070
   140
1040
0.75
1070
   147
1040
0.375
1070
   288
1070
     1
1002
}
  0
DIMENSION
  5
1C3B
330
1F
100
AcDbEntity
  8
DIMENSION
370
     9
100
AcDbDimension
  2
*D54
 10
11.36419742228955
 20
34.52457704975456
 30
0.0
 11
25.76923350475697
 21
51.84022369919285
 31
0.0
 70
   102
 71
     5
 42
14.40503608246742
  3
Standard
100
AcDbOrdinateDimension
 13
25.76923350475698
 23
47.78957704975475
 33
0.0
 14
25.76923350475698
 24
49.77772369919285
 34
0.0
1001
ACAD
1000
DSTYLE
1002
{
1070
    41
1040
0.75
1070
    42
1040
0.375
1070
   140
1040
0.75
1070
   147
1040
0.375
1070
   288
1070
     1
1002
}
  0
DIMENSION
  5
1C3C
330
1F
100
AcDbEntity
  8
DIMENSION
370
     9
100
AcDbDimension
  2
*D55
 10
11.36419742228955
 20
34.52457704975456
 30
0.0
 11
23.37241772648486
 21
51.90272369919284
 31
0.0
 70
   102
 71
     5
 42
13.57753608246744
  3
Standard
100
AcDbOrdinateDimension
 13
24.941733504757
 23
46.21157704975471
 33
0.0
 14
23.37241772648486
 24
49.77772369919285
 34
0.0
1001
ACAD
1000
DSTYLE
1002
{
1070
    41
1040
0.75
1070
    42
1040
0.375
1070
   140
1040
0.75
1070
   147
1040
0.375
1070
   271
1070
     3
1070
   272
1070
     3
1070
   288
1070
     1
1002
}
  0
DIMENSION
  5
1C3D
330
1F
100
AcDbEntity
  8
DIMENSION
370
     9
100
AcDbDimension
  2
*D56
 10
11.36419742228955
 20
34.52457704975456
 30
0.0
 11
30.71373862993687
 21
45.45292186204188
 31
0.0
 70
    38
 71
     5
 42
11.68700000000016
  3
Standard
100
AcDbOrdinateDimension
 13
24.941733504757
 23
46.21157704975471
 33
0.0
 14
28.71373862993687
 24
45.45292186204188
 34
0.0
1001
ACAD
1000
DSTYLE
1002
{
1070
    41
1040
0.75
1070
    42
1040
0.375
1070
   140
1040
0.75
1070
   147
1040
0.375
1070
   271
1070
     3
1070
   272
1070
     3
1070
   288
1070
     1
1002
}
  0
DIMENSION
  5
1C3E
330
1F
100
AcDbEntity
  8
DIMENSION
370
     9
100
AcDbDimension
  2
*D57
 10
11.36419742228955
 20
34.52457704975456
 30
0.0
 11
30.83873862993687
 21
48.9416013495288
 31
0.0
 70
    38
 71
     5
 42
13.2650000000002
  3
Standard
100
AcDbOrdinateDimension
 13
25.76923350475698
 23
47.78957704975475
 33
0.0
 14
28.71373862993687
 24
48.9416013495288
 34
0.0
1001
ACAD
1000
DSTYLE
1002
{
1070
    41
1040
0.5
1070
    42
1040
0.375
1070
   140
1040
0.75
1070
   147
1040
0.375
1070
   288
1070
     1
1002
}
  0
DIMENSION
  5
1C3F
330
1F
100
AcDbEntity
  8
DIMENSION
370
     9
100
AcDbDimension
  2
*D58
 10
11.36419742228955
 20
34.52457704975456
 30
0.0
 11
6.591890983204407
 21
37.91936089808228
 31
0.0
 70
    38
 71
     5
 42
3.408500000000151
  3
Standard
100
AcDbOrdinateDimension
 13
19.001733504757
 23
37.93307704975471
 33
0.0
 14
8.404390983204407
 24
37.91936089808228
 34
0.0
1001
ACAD
1000
DSTYLE
1002
{
1070
    41
1040
0.75
1070
    42
1040
0.375
1070
   140
1040
0.75
1070
   147
1040
0.375
1070
   271
1070
     3
1070
   272
1070
     3
1070
   288
1070
     1
1002
}
  0
CIRCLE
  5
1C40
330
1F
100
AcDbEntity
  8
0
370
     9
100
AcDbCircle
 10
19.001733504757
 20
37.93307704975471
 30
0.0
 40
0.625
  0
DIMENSION
  5
1C43
330
1F
100
AcDbEntity
  8
DIMENSION
370
     9
100
AcDbDimension
  2
*D59
 10
11.36423350475701
 20
34.52457704975459
 30
0.0
 11
19.08123350475695
 21
51.52772369919285
 31
0.0
 70
   102
 71
     5
 42
7.716999999999947
  3
Standard
100
AcDbOrdinateDimension
 13
19.08123350475696
 23
47.33687704975461
 33
0.0
 14
19.08123350475696
 24
49.77772369919285
 34
0.0
1001
ACAD
1000
DSTYLE
1002
{
1070
    41
1040
0.75
1070
    42
1040
0.375
1070
   140
1040
0.75
1070
   147
1040
0.375
1070
   288
1070
     1
1002
}
  0
DIMENSION
  5
1C44
330
1F
100
AcDbEntity
  8
DIMENSION
370
     9
100
AcDbDimension
  2
*D60
 10
11.36423350475701
 20
34.52457704975459
 30
0.0
 11
14.39373350475698
 21
51.43193056947254
 31
0.0
 70
   102
 71
     5
 42
3.029499999999971
  3
Standard
100
AcDbOrdinateDimension
 13
14.39373350475699
 23
47.33687704975481
 33
0.0
 14
14.39373350475699
 24
49.61943056947253
 34
0.0
1001
ACAD
1000
DSTYLE
1002
{
1070
    41
1040
0.75
1070
    42
1040
0.375
1070
   140
1040
0.75
1070
   147
1040
0.375
1070
   288
1070
     1
1002
}
  0
LINE
  5
1C45
330
1F
100
AcDbEntity
  8
0
  6
PHANTOM
370
     9
100
AcDbLine
 10
11.36423350475701
 20
47.78957704975475
 30
0.0
 11
25.76923350475698
 21
47.78957704975475
 31
0.0
  0
LINE
  5
1C46
330
1F
100
AcDbEntity
  8
0
  6
PHANTOM
370
     9
100
AcDbLine
 10
25.76923350475698
 20
47.78957704975475
 30
0.0
 11
25.76923350475698
 21
34.52457704975471
 31
0.0
  0
LINE
  5
1C47
330
1F
100
AcDbEntity
  8
0
  6
PHANTOM
370
     9
100
AcDbLine
 10
11.36423350475701
 20
34.52457704975459
 30
0.0
 11
25.76923350475698
 21
34.52457704975471
 31
0.0
  0
LINE
  5
1C48
330
1F
100
AcDbEntity
  8
0
  6
PHANTOM
370
     9
100
AcDbLine
 10
11.36423350475701
 20
47.78957704975475
 30
0.0
 11
11.36423350475701
 21
34.52457704975459
 31
0.0
  0
CIRCLE
  5
1C49
330
1F
100
AcDbEntity
  8
0
370
     9
100
AcDbCircle
 10
19.00173350475693
 20
39.43307704975471
 30
0.0
 40
0.625
  0
CIRCLE
  5
1C4A
330
1F
100
AcDbEntity
  8
0
370
     9
100
AcDbCircle
 10
23.441733504757
 20
36.52457704975472
 30
0.0
 40
0.1875
  0
ARC
  5
1C4B
330
1F
100
AcDbEntity
  8
0
370
     9
100
AcDbCircle
 10
24.941733504757
 20
46.21157704975471
 30
0.0
 40
0.1875
100
AcDbArc
 50
289.6333588976294
 51
70.36664110236714
  0
CIRCLE
  5
1C4C
330
1F
100
AcDbEntity
  8
0
370
     9
100
AcDbCircle
 10
13.69173350475699
 20
36.52457704975472
 30
0.0
 40
0.1875
  0
CIRCLE
  5
1C4D
330
1F
100
AcDbEntity
  8
0
370
     9
100
AcDbCircle
 10
12.19173350475699
 20
46.21157704975471
 30
0.0
 40
0.1875
  0
LINE
  5
1C4E
330
1F
100
AcDbEntity
  8
0
370
     9
100
AcDbLine
 10
14.39373350475699
 20
41.66157704975486
 30
0.0
 11
14.39373350475699
 21
47.33687704975474
 31
0.0
  0
LINE
  5
1C4F
330
1F
100
AcDbEntity
  8
0
370
     9
100
AcDbLine
 10
10.87673350475694
 20
35.02707704975492
 30
0.0
 11
11.36423350475701
 21
35.02707704975492
 31
0.0
  0
LINE
  5
1C50
330
1F
100
AcDbEntity
  8
0
370
     9
100
AcDbLine
 10
11.36423350475701
 20
34.65207704975493
 30
0.0
 11
10.87673350475694
 21
34.65207704975493
 31
0.0
  0
LINE
  5
1C51
330
1F
100
AcDbEntity
  8
0
370
     9
100
AcDbLine
 10
10.87673350475694
 20
34.65207704975493
 30
0.0
 11
10.87673350475694
 21
35.02707704975492
 31
0.0
  0
LINE
  5
1C52
330
1F
100
AcDbEntity
  8
0
370
     9
100
AcDbLine
 10
25.00473350475699
 20
42.27457704975486
 30
0.0
 11
20.25473350475696
 21
42.27457704975486
 31
0.0
  0
LINE
  5
1C53
330
1F
100
AcDbEntity
  8
0
370
     9
100
AcDbLine
 10
25.00473350475711
 20
47.33687704975474
 30
0.0
 11
20.25473350475696
 21
47.33687704975461
 31
0.0
  0
LINE
  5
1C54
330
1F
100
AcDbEntity
  8
0
370
     9
100
AcDbLine
 10
20.25473350475698
 20
47.33687704975461
 30
0.0
 11
20.25473350475696
 21
42.27457704975486
 31
0.0
  0
LINE
  5
1C55
330
1F
100
AcDbEntity
  8
0
370
     9
100
AcDbLine
 10
14.39373350475688
 20
41.66157704975474
 30
0.0
 11
14.39373350475699
 21
47.33687704975481
 31
0.0
  0
CIRCLE
  5
1C56
330
1F
100
AcDbEntity
  8
0
370
     9
100
AcDbCircle
 10
19.00173350475693
 20
39.43307704975471
 30
0.0
 40
0.625
  0
CIRCLE
  5
1C57
330
1F
100
AcDbEntity
  8
0
370
     9
100
AcDbCircle
 10
13.69173350475699
 20
36.52457704975472
 30
0.0
 40
0.1875
  0
CIRCLE
  5
1C58
330
1F
100
AcDbEntity
  8
0
370
     9
100
AcDbCircle
 10
12.19173350475699
 20
46.21157704975471
 30
0.0
 40
0.1875
  0
LINE
  5
1C59
330
1F
100
AcDbEntity
  8
0
370
     9
100
AcDbLine
 10
25.00473350475719
 20
46.03497792744688
 30
0.0
 11
25.00473350475699
 21
42.27457704975486
 31
0.0
  0
CIRCLE
  5
1C5A
330
1F
100
AcDbEntity
  8
0
370
     9
100
AcDbCircle
 10
23.441733504757
 20
36.52457704975472
 30
0.0
 40
0.1875
  0
LINE
  5
1C5B
330
1F
100
AcDbEntity
  8
0
370
     9
100
AcDbLine
 10
25.00473350475711
 20
47.33687704975474
 30
0.0
 11
25.00473350475719
 21
46.38817617206288
 31
0.0
  0
ARC
  5
1C5C
330
1F
100
AcDbEntity
  8
0
370
     9
100
AcDbCircle
 10
24.941733504757
 20
46.21157704975471
 30
0.0
 40
0.1875
100
AcDbArc
 50
289.6333588976311
 51
70.36664110236896
  0
DIMENSION
  5
1C5D
330
1F
100
AcDbEntity
  8
DIMENSION
370
     9
100
AcDbDimension
  2
*D61
 10
11.36419742228949
 20
34.52462218983735
 30
0.0
 11
6.76397615143594
 21
34.52457704975459
 31
0.0
 70
    38
 71
     5
 42
0.0000451400827615
  3
Standard
100
AcDbOrdinateDimension
 13
11.36423350475701
 23
34.52457704975459
 33
0.0
 14
8.38897615143594
 24
34.52457704975459
 34
0.0
1001
ACAD
1000
DSTYLE
1002
{
1070
    41
1040
0.75
1070
    42
1040
0.375
1070
   140
1040
0.75
1070
   147
1040
0.375
1070
   271
1070
     3
1070
   272
1070
     3
1070
   288
1070
     1
1002
}
  0
DIMENSION
  5
1C5E
330
1F
100
AcDbEntity
  8
DIMENSION
370
     9
100
AcDbDimension
  2
*D62
 10
11.36419742228949
 20
34.52462218983735
 30
0.0
 11
11.364233504757
 21
29.92866791167891
 31
0.0
 70
   102
 71
     5
 42
0.0000360824675205
  3
Standard
100
AcDbOrdinateDimension
 13
11.36423350475701
 23
34.52457704975459
 33
0.0
 14
11.36423350475701
 24
31.55366791167891
 34
0.0
1001
ACAD
1000
DSTYLE
1002
{
1070
    41
1040
0.75
1070
    42
1040
0.375
1070
   140
1040
0.75
1070
   147
1040
0.375
1070
   271
1070
     3
1070
   272
1070
     3
1070
   288
1070
     1
1002
}
  0
DIMENSION
  5
1C5F
330
1F
100
AcDbEntity
  8
DIMENSION
370
     9
100
AcDbDimension
  2
*D63
 10
11.36419742228949
 20
34.52462218983735
 30
0.0
 11
6.71689098320428
 21
36.52457704975472
 31
0.0
 70
    38
 71
     5
 42
1.999954859917366
  3
Standard
100
AcDbOrdinateDimension
 13
13.69173350475699
 23
36.52457704975472
 33
0.0
 14
8.40439098320428
 24
36.52457704975472
 34
0.0
1001
ACAD
1000
DSTYLE
1002
{
1070
    41
1040
0.75
1070
    42
1040
0.375
1070
   140
1040
0.75
1070
   147
1040
0.375
1070
   271
1070
     3
1070
   272
1070
     3
1070
   288
1070
     1
1002
}
  0
DIMENSION
  5
1C60
330
1F
100
AcDbEntity
  8
DIMENSION
370
     9
100
AcDbDimension
  2
*D64
 10
11.36419742228949
 20
34.52462218983735
 30
0.0
 11
6.40439098320428
 21
46.21157704975471
 31
0.0
 70
    38
 71
     5
 42
11.68695485991736
  3
Standard
100
AcDbOrdinateDimension
 13
12.19173350475699
 23
46.21157704975471
 33
0.0
 14
8.40439098320428
 24
46.21157704975471
 34
0.0
1001
ACAD
1000
DSTYLE
1002
{
1070
    41
1040
0.75
1070
    42
1040
0.375
1070
   140
1040
0.75
1070
   147
1040
0.375
1070
   271
1070
     3
1070
   272
1070
     3
1070
   288
1070
     1
1002
}
  0
DIMENSION
  5
1C61
330
1F
100
AcDbEntity
  8
DIMENSION
370
     9
100
AcDbDimension
  2
*D65
 10
11.36419742228949
 20
34.52462218983735
 30
0.0
 11
6.40439098320428
 21
47.58523448602562
 31
0.0
 70
    38
 71
     5
 42
12.81225485991746
  3
Standard
100
AcDbOrdinateDimension
 13
14.39373350475699
 23
47.33687704975481
 33
0.0
 14
8.40439098320428
 24
47.58523448602562
 34
0.0
1001
ACAD
1000
DSTYLE
1002
{
1070
    41
1040
0.75
1070
    42
1040
0.375
1070
   140
1040
0.75
1070
   147
1040
0.375
1070
   271
1070
     3
1070
   272
1070
     3
1070
   288
1070
     1
1002
}
  0
DIMENSION
  5
1C62
330
1F
100
AcDbEntity
  8
DIMENSION
370
     9
100
AcDbDimension
  2
*D66
 10
11.36419742228949
 20
34.52462218983735
 30
0.0
 11
6.654390983204294
 21
41.68115425043246
 31
0.0
 70
    38
 71
     5
 42
7.136954859917402
  3
Standard
100
AcDbOrdinateDimension
 13
14.39373350475688
 23
41.66157704975474
 33
0.0
 14
8.404390983204294
 24
41.68115425043246
 34
0.0
1001
ACAD
1000
DSTYLE
1002
{
1070
    41
1040
0.75
1070
    42
1040
0.375
1070
   140
1040
0.75
1070
   147
1040
0.375
1070
   271
1070
     3
1070
   272
1070
     3
1070
   288
1070
     1
1002
}
  0
DIMENSION
  5
1C63
330
1F
100
AcDbEntity
  8
DIMENSION
370
     9
100
AcDbDimension
  2
*D67
 10
11.36419742228949
 20
34.52462218983735
 30
0.0
 11
6.591890983204251
 21
39.45992631298788
 31
0.0
 70
    38
 71
     5
 42
4.908454859917512
  3
Standard
100
AcDbOrdinateDimension
 13
19.00173350475691
 23
39.43307704975487
 33
0.0
 14
8.404390983204251
 24
39.45992631298788
 34
0.0
1001
ACAD
1000
DSTYLE
1002
{
1070
    41
1040
0.75
1070
    42
1040
0.375
1070
   140
1040
0.75
1070
   147
1040
0.375
1070
   271
1070
     3
1070
   272
1070
     3
1070
   288
1070
     1
1002
}
  0
DIMENSION
  5
1C64
330
1F
100
AcDbEntity
  8
DIMENSION
370
     9
100
AcDbDimension
  2
*D68
 10
11.36419742228949
 20
34.52462218983735
 30
0.0
 11
13.69173350475698
 21
29.63854545397561
 31
0.0
 70
   102
 71
     5
 42
2.327536082467496
  3
Standard
100
AcDbOrdinateDimension
 13
13.69173350475699
 23
36.52457704975472
 33
0.0
 14
13.69173350475699
 24
31.5135454539756
 34
0.0
1001
ACAD
1000
DSTYLE
1002
{
1070
    41
1040
0.75
1070
    42
1040
0.375
1070
   140
1040
0.75
1070
   147
1040
0.375
1070
   271
1070
     3
1070
   272
1070
     3
1070
   288
1070
     1
1002
}
  0
DIMENSION
  5
1C65
330
1F
100
AcDbEntity
  8
DIMENSION
370
     9
100
AcDbDimension
  2
*D69
 10
11.36419742228949
 20
34.52462218983735
 30
0.0
 11
18.34198138029471
 21
29.63854545397561
 31
0.0
 70
   102
 71
     5
 42
7.637536082467508
  3
Standard
100
AcDbOrdinateDimension
 13
19.001733504757
 23
37.93307704975471
 33
0.0
 14
18.34198138029472
 24
31.5135454539756
 34
0.0
1001
ACAD
1000
DSTYLE
1002
{
1070
    41
1040
0.75
1070
    42
1040
0.375
1070
   140
1040
0.75
1070
   147
1040
0.375
1070
   271
1070
     3
1070
   272
1070
     3
1070
   288
1070
     1
1002
}
  0
DIMENSION
  5
1C66
330
1F
100
AcDbEntity
  8
DIMENSION
370
     9
100
AcDbDimension
  2
*D70
 10
11.36419742228949
 20
34.52462218983735
 30
0.0
 11
23.441733504757
 21
29.38923156275422
 31
0.0
 70
   102
 71
     5
 42
12.07753608246751
  3
Standard
100
AcDbOrdinateDimension
 13
23.441733504757
 23
36.52457704975472
 33
0.0
 14
23.441733504757
 24
31.45173156275421
 34
0.0
1001
ACAD
1000
DSTYLE
1002
{
1070
    41
1040
0.75
1070
    42
1040
0.375
1070
   140
1040
0.75
1070
   147
1040
0.375
1070
   271
1070
     3
1070
   272
1070
     3
1070
   288
1070
     1
1002
}
  0
DIMENSION
  5
1C67
330
1F
100
AcDbEntity
  8
DIMENSION
370
     9
100
AcDbDimension
  2
*D71
 10
11.36419742228949
 20
34.52462218983735
 30
0.0
 11
20.2547335047569
 21
51.52772369919285
 31
0.0
 70
   102
 71
     5
 42
8.890536082467326
  3
Standard
100
AcDbOrdinateDimension
 13
20.25473350475682
 23
47.33687704975459
 33
0.0
 14
20.25473350475691
 24
49.77772369919285
 34
0.0
1001
ACAD
1000
DSTYLE
1002
{
1070
    41
1040
0.75
1070
    42
1040
0.375
1070
   140
1040
0.75
1070
   147
1040
0.375
1070
   271
1070
     3
1070
   272
1070
     3
1070
   288
1070
     1
1002
}
  0
DIMENSION
  5
1C68
330
1F
100
AcDbEntity
  8
DIMENSION
370
     9
100
AcDbDimension
  2
*D72
 10
11.36419742228949
 20
34.52462218983735
 30
0.0
 11
25.00473350475699
 21
29.57498785841941
 31
0.0
 70
   102
 71
     5
 42
13.64053608246749
  3
Standard
100
AcDbOrdinateDimension
 13
25.00473350475699
 23
42.27457704975486
 33
0.0
 14
25.00473350475699
 24
31.5749878584194
 34
0.0
1001
ACAD
1000
DSTYLE
1002
{
1070
    41
1040
0.75
1070
    42
1040
0.375
1070
   140
1040
0.75
1070
   147
1040
0.375
1070
   271
1070
     3
1070
   272
1070
     3
1070
   288
1070
     1
1002
}
  0
DIMENSION
  5
1C69
330
1F
100
AcDbEntity
  8
DIMENSION
370
     9
100
AcDbDimension
  2
*D73
 10
11.36419742228949
 20
34.52462218983735
 30
0.0
 11
30.82164002656889
 21
44.37116874202375
 31
0.0
 70
   166
 71
     5
 42
7.749954859917508
  3
Standard
100
AcDbOrdinateDimension
 13
25.00473350475699
 23
42.27457704975486
 33
0.0
 14
29.00914002656889
 24
44.37116874202375
 34
0.0
1001
ACAD
1000
DSTYLE
1002
{
1070
    41
1040
0.75
1070
    42
1040
0.375
1070
   140
1040
0.75
1070
   147
1040
0.375
1070
   271
1070
     3
1070
   272
1070
     3
1070
   288
1070
     1
1002
}
  0
DIMENSION
  5
1C6A
330
1F
100
AcDbEntity
  8
DIMENSION
370
     9
100
AcDbDimension
  2
*D74
 10
11.36419742228949
 20
34.52462218983735
 30
0.0
 11
30.71373862993687
 21
47.33384937799979
 31
0.0
 70
    38
 71
     5
 42
12.81225485991739
  3
Standard
100
AcDbOrdinateDimension
 13
25.00473350475711
 23
47.33687704975474
 33
0.0
 14
28.71373862993687
 24
47.33384937799979
 34
0.0
1001
ACAD
1000
DSTYLE
1002
{
1070
    41
1040
0.75
1070
    42
1040
0.375
1070
   140
1040
0.75
1070
   147
1040
0.375
1070
   271
1070
     3
1070
   272
1070
     3
1070
   288
1070
     1
1002
}
  0
CIRCLE
  5
1C6B
330
1F
100
AcDbEntity
  8
0
370
     9
100
AcDbCircle
 10
12.19173350475699
 20
46.21157704975471
 30
0.0
 40
0.1875
  0
LINE
  5
1C6C
330
1F
100
AcDbEntity
  8
0
370
     9
100
AcDbLine
 10
14.39373350475699
 20
41.66157704975463
 30
0.0
 11
19.08123350475696
 21
41.66157704975463
 31
0.0
  0
LINE
  5
1C6D
330
1F
100
AcDbEntity
  8
0
370
     9
100
AcDbLine
 10
14.39373350475699
 20
47.33687704975461
 30
0.0
 11
19.08123350475696
 21
47.33687704975461
 31
0.0
  0
LINE
  5
1C6E
330
1F
100
AcDbEntity
  8
0
370
     9
100
AcDbLine
 10
14.39373350475699
 20
47.33687704975461
 30
0.0
 11
14.39373350475699
 21
41.66157704975463
 31
0.0
  0
LINE
  5
1C6F
330
1F
100
AcDbEntity
  8
0
370
     9
100
AcDbLine
 10
19.08123350475696
 20
47.33687704975461
 30
0.0
 11
19.08123350475696
 21
41.66157704975463
 31
0.0
  0
LEADER
  5
1C70
330
1F
100
AcDbEntity
  8
DIMENSION
370
     9
100
AcDbLeader
  3
Standard
 76
     3
 10
23.9350584987847
 20
36.02254030567821
 30
0.0
 10
28.07415441931903
 20
31.81035105007225
 30
0.0
 10
28.71373862993687
 20
31.81035105007225
 30
0.0
1001
ACAD
1000
DSTYLE
1002
{
1070
    41
1040
0.75
1070
   279
1070
     0
1002
}
  0
TEXT
  5
1C71
330
1F
100
AcDbEntity
  8
DIMENSION
370
     9
100
AcDbText
 10
8.445764922786239
 20
26.44608995774197
 30
0.0
 40
0.75
  1
%%c1.250(1) 
100
AcDbText
  0
TEXT
  5
1C72
330
1F
100
AcDbEntity
  8
DIMENSION
370
     9
100
AcDbText
 10
8.848494223726119
 20
25.19608995774197
 30
0.0
 40
0.75
  1
OPTIONAL:
100
AcDbText
  0
TEXT
  5
1C73
330
1F
100
AcDbEntity
  8
DIMENSION
370
     9
100
AcDbText
 10
8.59849422372612
 20
23.94608995774197
 30
0.0
 40
0.75
  1
EXTERNAL 
100
AcDbText
  0
TEXT
  5
1C74
330
1F
100
AcDbEntity
  8
DIMENSION
370
     9
100
AcDbText
 10
7.098494223726119
 20
22.69608995774197
 30
0.0
 40
0.75
  1
HEAT OUPUT
100
AcDbText
  0
TEXT
  5
1C75
330
1F
100
AcDbEntity
  8
DIMENSION
370
     9
100
AcDbText
 10
29.0377215592957
 20
31.48736126574891
 30
0.0
 40
0.75
  1
0.375 DIA. (4)
100
AcDbText
  0
TEXT
  5
1EAC
330
1F
100
AcDbEntity
  8
TEXT
100
AcDbText
 10
12.08991711998679
 20
18.35196313984608
 30
0.0
 40
0.1906090574110609
  1
6-17-11
 72
     1
 11
12.6299761159848
 21
18.44726766855161
 31
0.0
100
AcDbText
 73
     2
  0
TEXT
  5
1EAD
330
1F
100
AcDbEntity
  8
TEXT
100
AcDbText
 10
14.16584160165593
 20
18.35196313984608
 30
0.0
 40
0.1906090574110609
  1
JMH
 72
     1
 11
14.41998701153735
 21
18.44726766855161
 31
0.0
100
AcDbText
 73
     2
  0
TEXT
  5
1EAE
330
1F
100
AcDbEntity
  8
TEXT
100
AcDbText
 10
6.026166481097532
 20
18.35196313984608
 30
0.0
 40
0.1906090574110609
  1
ADDED ETHERNET HOLE
 72
     1
 11
7.805184350267434
 21
18.44726766855161
 31
0.0
100
AcDbText
 73
     2
  0
TEXT
  5
1EAF
330
1F
100
AcDbEntity
  8
TEXT
100
AcDbText
 10
3.370346947836646
 20
18.35196313984608
 30
0.0
 40
0.1906090574110609
  1
1
 72
     1
 11
3.402115124071823
 21
18.44726766855161
 31
0.0
100
AcDbText
 73
     2
  0
LINE
  5
1EB0
330
1F
100
AcDbEntity
  8
BORDER
100
AcDbLine
 10
15.3713180544812
 20
18.63787672596274
 30
0.0
 11
2.985157810985132
 21
18.63787672596274
 31
0.0
  0
MTEXT
  5
20D5
102
{ACAD_REACTORS
330
20D4
102
}
330
1F
100
AcDbEntity
  8
0
100
AcDbMText
 10
-43.35723059951847
 20
24.56852273680981
 30
0.0
 40
0.18
 41
0.0
 71
     9
 72
     1
  1
\A1;
 73
     1
 44
1.0
1001
ACAD
1000
MTEXTBEGIN
1070
    73
1070
     1
1070
    44
1040
1.0
1070
    74
1070
     0
1000
MTEXTEND
  0
TEXT
  5
22B0
330
1F
100
AcDbEntity
  8
TEXT
100
AcDbText
 10
3.338578771601468
 20
18.73318125466825
 30
0.0
 40
0.1906090574110609
  1
2
 72
     1
 11
3.402115124071822
 21
18.82848578337378
 31
0.0
100
AcDbText
 73
     2
  0
TEXT
  5
22B1
330
1F
100
AcDbEntity
  8
TEXT
100
AcDbText
 10
4.120075906986919
 20
18.73318125466825
 30
0.0
 40
0.1906090574110609
  1
ADDED ALARM TO  ETHERNET CONN PORT NOTE
 72
     1
 11
7.805184350267433
 21
18.82848578337378
 31
0.0
100
AcDbText
 73
     2
  0
TEXT
  5
22B2
330
1F
100
AcDbEntity
  8
TEXT
100
AcDbText
 10
12.12168529622197
 20
18.73318125466825
 30
0.0
 40
0.1906090574110609
  1
4-9-12
 72
     1
 11
12.6299761159848
 21
18.82848578337378
 31
0.0
100
AcDbText
 73
     2
  0
TEXT
  5
22B3
330
1F
100
AcDbEntity
  8
TEXT
100
AcDbText
 10
14.16584160165593
 20
18.73318125466825
 30
0.0
 40
0.1906090574110609
  1
JJH
 72
     1
 11
14.41998701153735
 21
18.82848578337378
 31
0.0
100
AcDbText
 73
     2
  0
LINE
  5
22B4
330
1F
100
AcDbEntity
  8
BORDER
100
AcDbLine
 10
15.3713180544812
 20
19.01909484078491
 30
0.0
 11
2.985157810985131
 21
19.01909484078491
 31
0.0
  0
ENDSEC
  0
SECTION
  2
OBJECTS
  0
DICTIONARY
  5
C
330
0
100
AcDbDictionary
281
     1
  3
ACAD_COLOR
350
73
  3
ACAD_GROUP
350
D
  3
ACAD_LAYOUT
350
1A
  3
ACAD_MATERIAL
350
72
  3
ACAD_MLINESTYLE
350
17
  3
ACAD_PLOTSETTINGS
350
19
  3
ACAD_PLOTSTYLENAME
350
E
  3
ACDBHEADERROUNDTRIPXREC
350
22D4
  3
AcDbVariableDictionary
350
66
  0
DICTIONARY
  5
1BEA
330
2
100
AcDbDictionary
280
     1
281
     1
  3
ACAD_LAYERSTATES
360
1BEB
  0
DICTIONARY
  5
73
102
{ACAD_REACTORS
330
C
102
}
330
C
100
AcDbDictionary
281
     1
  0
DICTIONARY
  5
D
102
{ACAD_REACTORS
330
C
102
}
330
C
100
AcDbDictionary
281
     1
  0
DICTIONARY
  5
1A
102
{ACAD_REACTORS
330
C
102
}
330
C
100
AcDbDictionary
281
     1
  3
Layout1
350
59
  3
Layout2
350
5E
  3
Model
350
22
  0
DICTIONARY
  5
72
102
{ACAD_REACTORS
330
C
102
}
330
C
100
AcDbDictionary
281
     1
  0
DICTIONARY
  5
17
102
{ACAD_REACTORS
330
C
102
}
330
C
100
AcDbDictionary
281
     1
  3
Standard
350
18
  0
DICTIONARY
  5
19
102
{ACAD_REACTORS
330
C
102
}
330
C
100
AcDbDictionary
281
     1
  0
ACDBDICTIONARYWDFLT
  5
E
102
{ACAD_REACTORS
330
C
102
}
330
C
100
AcDbDictionary
281
     1
  3
Normal
350
F
100
AcDbDictionaryWithDefault
340
F
  0
DICTIONARY
  5
22D4
102
{ACAD_REACTORS
330
C
102
}
330
C
100
AcDbDictionary
281
     1
  3
COLORDICT
350
22D6
  3
MATERIALDICT
350
22D5
  0
DICTIONARY
  5
66
102
{ACAD_REACTORS
330
C
102
}
330
C
100
AcDbDictionary
281
     1
  3
DIMASSOC
350
67
  3
HIDETEXT
350
6B
  3
PROJECTNAME
350
1AE1
  0
DICTIONARY
  5
1BEB
102
{ACAD_REACTORS
330
1BEA
102
}
330
1BEA
100
AcDbDictionary
281
     1
  0
LAYOUT
  5
59
102
{ACAD_XDICTIONARY
360
22D9
102
}
102
{ACAD_REACTORS
330
1A
102
}
330
1A
100
AcDbPlotSettings
  1

  2
None
  4

  6

 40
0.0
 41
0.0
 42
0.0
 43
0.0
 44
0.0
 45
0.0
 46
0.0
 47
0.0
 48
0.0
 49
0.0
140
0.0
141
0.0
142
1.0
143
1.0
 70
   688
 72
     0
 73
     0
 74
     5
  7

 75
    16
147
1.0
148
0.0
149
0.0
100
AcDbLayout
  1
Layout1
 70
     1
 71
     1
 10
0.0
 20
0.0
 11
12.0
 21
9.0
 12
0.0
 22
0.0
 32
0.0
 14
0.0
 24
0.0
 34
0.0
 15
0.0
 25
0.0
 35
0.0
146
0.0
 13
0.0
 23
0.0
 33
0.0
 16
1.0
 26
0.0
 36
0.0
 17
0.0
 27
1.0
 37
0.0
 76
     0
330
58
  0
LAYOUT
  5
5E
102
{ACAD_XDICTIONARY
360
22DB
102
}
102
{ACAD_REACTORS
330
1A
102
}
330
1A
100
AcDbPlotSettings
  1

  2
None
  4

  6

 40
0.0
 41
0.0
 42
0.0
 43
0.0
 44
0.0
 45
0.0
 46
0.0
 47
0.0
 48
0.0
 49
0.0
140
0.0
141
0.0
142
1.0
143
1.0
 70
   688
 72
     0
 73
     0
 74
     5
  7

 75
    16
147
1.0
148
0.0
149
0.0
100
AcDbLayout
  1
Layout2
 70
     1
 71
     2
 10
0.0
 20
0.0
 11
12.0
 21
9.0
 12
0.0
 22
0.0
 32
0.0
 14
0.0
 24
0.0
 34
0.0
 15
0.0
 25
0.0
 35
0.0
146
0.0
 13
0.0
 23
0.0
 33
0.0
 16
1.0
 26
0.0
 36
0.0
 17
0.0
 27
1.0
 37
0.0
 76
     0
330
5D
  0
LAYOUT
  5
22
102
{ACAD_XDICTIONARY
360
22D7
102
}
102
{ACAD_REACTORS
330
1A
102
}
330
1A
100
AcDbPlotSettings
  1

  2
none_device
  4
ANSI_A_(8.50_x_11.00_Inches)
  6

 40
6.349999904632567
 41
19.04999923706055
 42
6.350006103515625
 43
19.04998779296875
 44
215.8999938964844
 45
279.3999938964844
 46
0.0
 47
0.0
 48
0.0
 49
0.0
140
0.0
141
0.0
142
1.0
143
2.584895464708373
 70
 11952
 72
     0
 73
     1
 74
     0
  7

 75
     0
147
0.3868628397755418
148
0.0
149
0.0
100
AcDbLayout
  1
Model
 70
     1
 71
     0
 10
0.0
 20
0.0
 11
12.0
 21
9.0
 12
0.0
 22
0.0
 32
0.0
 14
0.0
 24
0.0
 34
0.0
 15
0.0
 25
0.0
 35
0.0
146
0.0
 13
0.0
 23
0.0
 33
0.0
 16
1.0
 26
0.0
 36
0.0
 17
0.0
 27
1.0
 37
0.0
 76
     0
330
1F
  0
MLINESTYLE
  5
18
102
{ACAD_REACTORS
330
17
102
}
330
17
100
AcDbMlineStyle
  2
STANDARD
 70
     0
  3

 62
   256
 51
90.0
 52
90.0
 71
     2
 49
0.5
 62
   256
  6
BYLAYER
 49
-0.5
 62
   256
  6
BYLAYER
  0
ACDBPLACEHOLDER
  5
F
102
{ACAD_REACTORS
330
E
102
}
330
E
  0
XRECORD
  5
22D6
102
{ACAD_REACTORS
330
22D4
102
}
330
22D4
100
AcDbXrecord
280
     1
340
73
  0
XRECORD
  5
22D5
102
{ACAD_REACTORS
330
22D4
102
}
330
22D4
100
AcDbXrecord
280
     1
340
72
  0
DICTIONARYVAR
  5
67
102
{ACAD_REACTORS
330
66
102
}
330
66
100
DictionaryVariables
280
     0
  1
2
  0
DICTIONARYVAR
  5
6B
102
{ACAD_REACTORS
330
66
102
}
330
66
100
DictionaryVariables
280
     0
  1
1
  0
DICTIONARYVAR
  5
1AE1
102
{ACAD_REACTORS
330
66
102
}
330
66
100
DictionaryVariables
280
     0
  1

  0
DICTIONARY
  5
22D9
330
59
100
AcDbDictionary
280
     1
281
     1
  3
ACAD_XREC_ROUNDTRIP
360
22DA
  0
DICTIONARY
  5
22DB
330
5E
100
AcDbDictionary
280
     1
281
     1
  3
ACAD_XREC_ROUNDTRIP
360
22DC
  0
DICTIONARY
  5
22D7
330
22
100
AcDbDictionary
280
     1
281
     1
  3
ACAD_XREC_ROUNDTRIP
360
22D8
  0
XRECORD
  5
22DA
102
{ACAD_REACTORS
330
22D9
102
}
330
22D9
100
AcDbXrecord
280
     1
102
SHADEPLOT
 70
     0
102
SHADEPLOTRESLEVEL
 70
     2
102
SHADEPLOTCUSTOMDPI
 70
   300
  0
XRECORD
  5
22DC
102
{ACAD_REACTORS
330
22DB
102
}
330
22DB
100
AcDbXrecord
280
     1
102
SHADEPLOT
 70
     0
102
SHADEPLOTRESLEVEL
 70
     2
102
SHADEPLOTCUSTOMDPI
 70
   300
  0
XRECORD
  5
22D8
102
{ACAD_REACTORS
330
22D7
102
}
330
22D7
100
AcDbXrecord
280
     1
102
SHADEPLOT
 70
     0
102
SHADEPLOTRESLEVEL
 70
     2
102
SHADEPLOTCUSTOMDPI
 70
   300
  0
ENDSEC
  0
EOF
