  0
SECTION
  2
HEADER
  9
$ACADVER
  1
AC1015
  9
$ACADMAINTVER
 70
    20
  9
$DWGCODEPAGE
  3
ANSI_1252
  9
$INSBASE
 10
0.0
 20
0.0
 30
0.0
  9
$EXTMIN
 10
11.96228396901799
 20
11.21320831557025
 30
0.0
  9
$EXTMAX
 10
70.40743107806476
 20
88.11750519057037
 30
0.0
  9
$LIMMIN
 10
0.0
 20
0.0
  9
$LIMMAX
 10
12.0
 20
9.0
  9
$ORTHOMODE
 70
     1
  9
$REGENMODE
 70
     1
  9
$FILLMODE
 70
     1
  9
$QTEXTMODE
 70
     0
  9
$MIRRTEXT
 70
     0
  9
$LTSCALE
 40
1.0
  9
$ATTMODE
 70
     1
  9
$TEXTSIZE
 40
0.2
  9
$TRACEWID
 40
0.05
  9
$TEXTSTYLE
  7
Standard
  9
$CLAYER
  8
0
  9
$CELTYPE
  6
ByLayer
  9
$CECOLOR
 62
   256
  9
$CELTSCALE
 40
1.0
  9
$DISPSILH
 70
     0
  9
$DIMSCALE
 40
1.0
  9
$DIMASZ
 40
1.0
  9
$DIMEXO
 40
0.375
  9
$DIMDLI
 40
0.38
  9
$DIMRND
 40
0.0
  9
$DIMDLE
 40
0.0
  9
$DIMEXE
 40
0.18
  9
$DIMTP
 40
0.0
  9
$DIMTM
 40
0.0
  9
$DIMTXT
 40
1.0
  9
$DIMCEN
 40
0.09
  9
$DIMTSZ
 40
0.0
  9
$DIMTOL
 70
     0
  9
$DIMLIM
 70
     0
  9
$DIMTIH
 70
     1
  9
$DIMTOH
 70
     1
  9
$DIMSE1
 70
     0
  9
$DIMSE2
 70
     0
  9
$DIMTAD
 70
     0
  9
$DIMZIN
 70
     0
  9
$DIMBLK
  1

  9
$DIMASO
 70
     1
  9
$DIMSHO
 70
     1
  9
$DIMPOST
  1

  9
$DIMAPOST
  1

  9
$DIMALT
 70
     0
  9
$DIMALTD
 70
     2
  9
$DIMALTF
 40
25.4
  9
$DIMLFAC
 40
1.0
  9
$DIMTOFL
 70
     0
  9
$DIMTVP
 40
0.0
  9
$DIMTIX
 70
     0
  9
$DIMSOXD
 70
     0
  9
$DIMSAH
 70
     0
  9
$DIMBLK1
  1

  9
$DIMBLK2
  1

  9
$DIMSTYLE
  2
Standard
  9
$DIMCLRD
 70
     0
  9
$DIMCLRE
 70
     0
  9
$DIMCLRT
 70
     0
  9
$DIMTFAC
 40
1.0
  9
$DIMGAP
 40
0.09
  9
$DIMJUST
 70
     0
  9
$DIMSD1
 70
     0
  9
$DIMSD2
 70
     0
  9
$DIMTOLJ
 70
     1
  9
$DIMTZIN
 70
     0
  9
$DIMALTZ
 70
     0
  9
$DIMALTTZ
 70
     0
  9
$DIMUPT
 70
     0
  9
$DIMDEC
 70
     3
  9
$DIMTDEC
 70
     3
  9
$DIMALTU
 70
     2
  9
$DIMALTTD
 70
     2
  9
$DIMTXSTY
  7
Standard
  9
$DIMAUNIT
 70
     0
  9
$DIMADEC
 70
     0
  9
$DIMALTRND
 40
0.0
  9
$DIMAZIN
 70
     0
  9
$DIMDSEP
 70
    46
  9
$DIMATFIT
 70
     3
  9
$DIMFRAC
 70
     0
  9
$DIMLDRBLK
  1

  9
$DIMLUNIT
 70
     2
  9
$DIMLWD
 70
    -2
  9
$DIMLWE
 70
    -2
  9
$DIMTMOVE
 70
     0
  9
$LUNITS
 70
     2
  9
$LUPREC
 70
     4
  9
$SKETCHINC
 40
0.1
  9
$FILLETRAD
 40
0.0
  9
$AUNITS
 70
     0
  9
$AUPREC
 70
     0
  9
$MENU
  1
.
  9
$ELEVATION
 40
0.0
  9
$PELEVATION
 40
0.0
  9
$THICKNESS
 40
0.0
  9
$LIMCHECK
 70
     0
  9
$CHAMFERA
 40
0.0
  9
$CHAMFERB
 40
0.0
  9
$CHAMFERC
 40
0.0
  9
$CHAMFERD
 40
0.0
  9
$SKPOLY
 70
     0
  9
$TDCREATE
 40
2455093.711623426
  9
$TDUCREATE
 40
2455093.878290092
  9
$TDUPDATE
 40
2455775.431554896
  9
$TDUUPDATE
 40
2455775.598221562
  9
$TDINDWG
 40
0.0507506597
  9
$TDUSRTIMER
 40
0.0507504861
  9
$USRTIMER
 70
     1
  9
$ANGBASE
 50
0.0
  9
$ANGDIR
 70
     0
  9
$PDMODE
 70
     0
  9
$PDSIZE
 40
0.0
  9
$PLINEWID
 40
0.0
  9
$SPLFRAME
 70
     0
  9
$SPLINETYPE
 70
     6
  9
$SPLINESEGS
 70
     8
  9
$HANDSEED
  5
D7E
  9
$SURFTAB1
 70
     6
  9
$SURFTAB2
 70
     6
  9
$SURFTYPE
 70
     6
  9
$SURFU
 70
     6
  9
$SURFV
 70
     6
  9
$UCSBASE
  2

  9
$UCSNAME
  2

  9
$UCSORG
 10
0.0
 20
0.0
 30
0.0
  9
$UCSXDIR
 10
1.0
 20
0.0
 30
0.0
  9
$UCSYDIR
 10
0.0
 20
1.0
 30
0.0
  9
$UCSORTHOREF
  2

  9
$UCSORTHOVIEW
 70
     0
  9
$UCSORGTOP
 10
0.0
 20
0.0
 30
0.0
  9
$UCSORGBOTTOM
 10
0.0
 20
0.0
 30
0.0
  9
$UCSORGLEFT
 10
0.0
 20
0.0
 30
0.0
  9
$UCSORGRIGHT
 10
0.0
 20
0.0
 30
0.0
  9
$UCSORGFRONT
 10
0.0
 20
0.0
 30
0.0
  9
$UCSORGBACK
 10
0.0
 20
0.0
 30
0.0
  9
$PUCSBASE
  2

  9
$PUCSNAME
  2

  9
$PUCSORG
 10
0.0
 20
0.0
 30
0.0
  9
$PUCSXDIR
 10
1.0
 20
0.0
 30
0.0
  9
$PUCSYDIR
 10
0.0
 20
1.0
 30
0.0
  9
$PUCSORTHOREF
  2

  9
$PUCSORTHOVIEW
 70
     0
  9
$PUCSORGTOP
 10
0.0
 20
0.0
 30
0.0
  9
$PUCSORGBOTTOM
 10
0.0
 20
0.0
 30
0.0
  9
$PUCSORGLEFT
 10
0.0
 20
0.0
 30
0.0
  9
$PUCSORGRIGHT
 10
0.0
 20
0.0
 30
0.0
  9
$PUCSORGFRONT
 10
0.0
 20
0.0
 30
0.0
  9
$PUCSORGBACK
 10
0.0
 20
0.0
 30
0.0
  9
$USERI1
 70
     0
  9
$USERI2
 70
     0
  9
$USERI3
 70
     0
  9
$USERI4
 70
     0
  9
$USERI5
 70
     0
  9
$USERR1
 40
0.0
  9
$USERR2
 40
0.0
  9
$USERR3
 40
0.0
  9
$USERR4
 40
0.0
  9
$USERR5
 40
0.0
  9
$WORLDVIEW
 70
     1
  9
$SHADEDGE
 70
     3
  9
$SHADEDIF
 70
    70
  9
$TILEMODE
 70
     1
  9
$MAXACTVP
 70
    64
  9
$PINSBASE
 10
0.0
 20
0.0
 30
0.0
  9
$PLIMCHECK
 70
     0
  9
$PEXTMIN
 10
0.0
 20
0.0
 30
0.0
  9
$PEXTMAX
 10
0.0
 20
0.0
 30
0.0
  9
$PLIMMIN
 10
0.0
 20
0.0
  9
$PLIMMAX
 10
12.0
 20
9.0
  9
$UNITMODE
 70
     0
  9
$VISRETAIN
 70
     1
  9
$PLINEGEN
 70
     0
  9
$PSLTSCALE
 70
     1
  9
$TREEDEPTH
 70
  3020
  9
$CMLSTYLE
  2
Standard
  9
$CMLJUST
 70
     0
  9
$CMLSCALE
 40
1.0
  9
$PROXYGRAPHICS
 70
     1
  9
$MEASUREMENT
 70
     0
  9
$CELWEIGHT
370
    -1
  9
$ENDCAPS
280
     0
  9
$JOINSTYLE
280
     0
  9
$LWDISPLAY
290
     0
  9
$INSUNITS
 70
     1
  9
$HYPERLINKBASE
  1

  9
$STYLESHEET
  1

  9
$XEDIT
290
     1
  9
$CEPSNTYPE
380
     0
  9
$PSTYLEMODE
290
     1
  9
$FINGERPRINTGUID
  2
{FDEAD576-A652-11D2-9A35-0060089B3A3F}
  9
$VERSIONGUID
  2
{0C7BD099-F2C4-4F8E-AF1F-85D3D63D65D1}
  9
$EXTNAMES
290
     1
  9
$PSVPSCALE
 40
0.0
  9
$OLESTARTUP
290
     0
  0
ENDSEC
  0
SECTION
  2
CLASSES
  0
CLASS
  1
ACDBDICTIONARYWDFLT
  2
AcDbDictionaryWithDefault
  3
ObjectDBX Classes
 90
        0
280
     0
281
     0
  0
CLASS
  1
ACDBPLACEHOLDER
  2
AcDbPlaceHolder
  3
ObjectDBX Classes
 90
        0
280
     0
281
     0
  0
CLASS
  1
LAYOUT
  2
AcDbLayout
  3
ObjectDBX Classes
 90
        0
280
     0
281
     0
  0
CLASS
  1
DICTIONARYVAR
  2
AcDbDictionaryVar
  3
ObjectDBX Classes
 90
        0
280
     0
281
     0
  0
ENDSEC
  0
SECTION
  2
TABLES
  0
TABLE
  2
VPORT
  5
8
330
0
100
AcDbSymbolTable
 70
     9
  0
VPORT
  5
D74
330
8
100
AcDbSymbolTableRecord
100
AcDbViewportTableRecord
  2
*Active
 70
     0
 10
0.0
 20
0.0
 11
1.0
 21
1.0
 12
44.65096814730189
 22
44.04024186004903
 13
0.0
 23
0.0
 14
0.5
 24
0.5
 15
0.5
 25
0.5
 16
0.0
 26
0.0
 36
1.0
 17
0.0
 27
0.0
 37
0.0
 40
78.92357724603783
 41
2.028571428571428
 42
50.0
 43
0.0
 44
0.0
 50
0.0
 51
0.0
 71
     0
 72
  1000
 73
     1
 74
     3
 75
     0
 76
     0
 77
     0
 78
     0
281
     0
 65
     1
110
0.0
120
0.0
130
0.0
111
1.0
121
0.0
131
0.0
112
0.0
122
1.0
132
0.0
 79
     0
146
0.0
  0
ENDTAB
  0
TABLE
  2
LTYPE
  5
5
330
0
100
AcDbSymbolTable
 70
     4
  0
LTYPE
  5
14
330
5
100
AcDbSymbolTableRecord
100
AcDbLinetypeTableRecord
  2
ByBlock
 70
     0
  3

 72
    65
 73
     0
 40
0.0
  0
LTYPE
  5
15
330
5
100
AcDbSymbolTableRecord
100
AcDbLinetypeTableRecord
  2
ByLayer
 70
     0
  3

 72
    65
 73
     0
 40
0.0
  0
LTYPE
  5
16
330
5
100
AcDbSymbolTableRecord
100
AcDbLinetypeTableRecord
  2
Continuous
 70
     0
  3
Solid line
 72
    65
 73
     0
 40
0.0
  0
LTYPE
  5
96
330
5
100
AcDbSymbolTableRecord
100
AcDbLinetypeTableRecord
  2
DASHDOT
 70
     0
  3
__ . __ . __ . __ . __ . __ . __ . __ . __ . __
 72
    65
 73
     4
 40
1.0
 49
0.5
 74
     0
 49
-0.25
 74
     0
 49
0.0
 74
     0
 49
-0.25
 74
     0
  0
LTYPE
  5
97
330
5
100
AcDbSymbolTableRecord
100
AcDbLinetypeTableRecord
  2
DASHED
 70
     0
  3
__ __ __ __ __ __ __ __ __ __ __ __ __ __ __ __
 72
    65
 73
     2
 40
0.75
 49
0.5
 74
     0
 49
-0.25
 74
     0
  0
LTYPE
  5
98
330
5
100
AcDbSymbolTableRecord
100
AcDbLinetypeTableRecord
  2
HIDDEN
 70
     0
  3
__ __ __ __ __ __ __ __ __ __ __ __ __ __ __ __
 72
    65
 73
     2
 40
0.375
 49
0.25
 74
     0
 49
-0.125
 74
     0
  0
ENDTAB
  0
TABLE
  2
LAYER
  5
2
102
{ACAD_XDICTIONARY
360
A1
102
}
330
0
100
AcDbSymbolTable
 70
     8
  0
LAYER
  5
10
330
2
100
AcDbSymbolTableRecord
100
AcDbLayerTableRecord
  2
0
 70
     0
 62
     7
  6
Continuous
370
    -3
390
F
  0
LAYER
  5
99
330
2
100
AcDbSymbolTableRecord
100
AcDbLayerTableRecord
  2
Defpoints
 70
     0
 62
     7
  6
Continuous
290
     0
370
    -3
390
F
  0
LAYER
  5
9A
330
2
100
AcDbSymbolTableRecord
100
AcDbLayerTableRecord
  2
OBJ
 70
     0
 62
     7
  6
Continuous
370
    -3
390
F
  0
LAYER
  5
9B
330
2
100
AcDbSymbolTableRecord
100
AcDbLayerTableRecord
  2
DIM
 70
     0
 62
     7
  6
Continuous
370
    -3
390
F
  0
LAYER
  5
9C
330
2
100
AcDbSymbolTableRecord
100
AcDbLayerTableRecord
  2
TEXT
 70
     0
 62
    -7
  6
Continuous
370
    -3
390
F
  0
LAYER
  5
9D
330
2
100
AcDbSymbolTableRecord
100
AcDbLayerTableRecord
  2
TEMPLATE
 70
     0
 62
     7
  6
Continuous
370
    -3
390
F
  0
LAYER
  5
9E
330
2
100
AcDbSymbolTableRecord
100
AcDbLayerTableRecord
  2
GASKET
 70
     0
 62
     7
  6
Continuous
370
    -3
390
F
  0
LAYER
  5
9F
330
2
100
AcDbSymbolTableRecord
100
AcDbLayerTableRecord
  2
BORDER
 70
     0
 62
     7
  6
Continuous
370
    -3
390
F
  0
ENDTAB
  0
TABLE
  2
STYLE
  5
3
330
0
100
AcDbSymbolTable
 70
     1
  0
STYLE
  5
11
330
3
100
AcDbSymbolTableRecord
100
AcDbTextStyleTableRecord
  2
Standard
 70
     0
 40
0.0
 41
1.0
 50
0.0
 71
     0
 42
0.2
  3
txt
  4

  0
ENDTAB
  0
TABLE
  2
VIEW
  5
6
330
0
100
AcDbSymbolTable
 70
     0
  0
ENDTAB
  0
TABLE
  2
UCS
  5
7
330
0
100
AcDbSymbolTable
 70
     0
  0
ENDTAB
  0
TABLE
  2
APPID
  5
9
330
0
100
AcDbSymbolTable
 70
     1
  0
APPID
  5
12
330
9
100
AcDbSymbolTableRecord
100
AcDbRegAppTableRecord
  2
ACAD
 70
     0
  0
ENDTAB
  0
TABLE
  2
DIMSTYLE
  5
A
330
0
100
AcDbSymbolTable
 70
     2
100
AcDbDimStyleTable
 71
     1
340
27
  0
DIMSTYLE
105
27
102
{ACAD_REACTORS
330
C44
330
C45
330
C46
330
C47
330
C48
330
C49
102
}
330
A
100
AcDbSymbolTableRecord
100
AcDbDimStyleTableRecord
  2
Standard
 70
     0
 41
1.0
 42
0.375
140
1.0
271
     3
272
     3
340
11
  0
DIMSTYLE
105
A0
330
A
100
AcDbSymbolTableRecord
100
AcDbDimStyleTableRecord
  2
Copy(4) of STANDARD
 70
     0
271
     3
272
     3
288
     1
340
11
  0
ENDTAB
  0
TABLE
  2
BLOCK_RECORD
  5
1
330
0
100
AcDbSymbolTable
 70
    15
  0
BLOCK_RECORD
  5
1F
330
1
100
AcDbSymbolTableRecord
100
AcDbBlockTableRecord
  2
*Model_Space
340
22
  0
BLOCK_RECORD
  5
58
330
1
100
AcDbSymbolTableRecord
100
AcDbBlockTableRecord
  2
*Paper_Space
340
59
  0
BLOCK_RECORD
  5
5D
330
1
100
AcDbSymbolTableRecord
100
AcDbBlockTableRecord
  2
*Paper_Space0
340
5E
  0
BLOCK_RECORD
  5
89
330
1
100
AcDbSymbolTableRecord
100
AcDbBlockTableRecord
  2
*D1
340
0
  0
BLOCK_RECORD
  5
B0F
330
1
100
AcDbSymbolTableRecord
100
AcDbBlockTableRecord
  2
*D2
340
0
  0
BLOCK_RECORD
  5
B8C
330
1
100
AcDbSymbolTableRecord
100
AcDbBlockTableRecord
  2
*D3
340
0
  0
BLOCK_RECORD
  5
B96
330
1
100
AcDbSymbolTableRecord
100
AcDbBlockTableRecord
  2
*D4
340
0
  0
BLOCK_RECORD
  5
B9E
330
1
100
AcDbSymbolTableRecord
100
AcDbBlockTableRecord
  2
*D5
340
0
  0
BLOCK_RECORD
  5
BA9
330
1
100
AcDbSymbolTableRecord
100
AcDbBlockTableRecord
  2
*D6
340
0
  0
BLOCK_RECORD
  5
BB3
330
1
100
AcDbSymbolTableRecord
100
AcDbBlockTableRecord
  2
*D7
340
0
  0
BLOCK_RECORD
  5
BBB
330
1
100
AcDbSymbolTableRecord
100
AcDbBlockTableRecord
  2
*D8
340
0
  0
BLOCK_RECORD
  5
C99
330
1
100
AcDbSymbolTableRecord
100
AcDbBlockTableRecord
  2
*D9
340
0
  0
BLOCK_RECORD
  5
CA1
330
1
100
AcDbSymbolTableRecord
100
AcDbBlockTableRecord
  2
*D10
340
0
  0
BLOCK_RECORD
  5
CA9
330
1
100
AcDbSymbolTableRecord
100
AcDbBlockTableRecord
  2
*D11
340
0
  0
BLOCK_RECORD
  5
CB3
330
1
100
AcDbSymbolTableRecord
100
AcDbBlockTableRecord
  2
*D12
340
0
  0
BLOCK_RECORD
  5
CBE
330
1
100
AcDbSymbolTableRecord
100
AcDbBlockTableRecord
  2
*D13
340
0
  0
BLOCK_RECORD
  5
CC6
330
1
100
AcDbSymbolTableRecord
100
AcDbBlockTableRecord
  2
*D14
340
0
  0
ENDTAB
  0
ENDSEC
  0
SECTION
  2
BLOCKS
  0
BLOCK
  5
20
330
1F
100
AcDbEntity
  8
0
100
AcDbBlockBegin
  2
*Model_Space
 70
     0
 10
0.0
 20
0.0
 30
0.0
  3
*Model_Space
  1

  0
ENDBLK
  5
21
330
1F
100
AcDbEntity
  8
0
100
AcDbBlockEnd
  0
BLOCK
  5
5A
330
58
100
AcDbEntity
 67
     1
  8
0
100
AcDbBlockBegin
  2
*Paper_Space
 70
     0
 10
0.0
 20
0.0
 30
0.0
  3
*Paper_Space
  1

  0
ENDBLK
  5
5B
330
58
100
AcDbEntity
 67
     1
  8
0
100
AcDbBlockEnd
  0
BLOCK
  5
5F
330
5D
100
AcDbEntity
  8
0
100
AcDbBlockBegin
  2
*Paper_Space0
 70
     0
 10
0.0
 20
0.0
 30
0.0
  3
*Paper_Space0
  1

  0
ENDBLK
  5
60
330
5D
100
AcDbEntity
  8
0
100
AcDbBlockEnd
  0
BLOCK
  5
8A
330
89
100
AcDbEntity
  8
0
100
AcDbBlockBegin
  2
*D1
 70
     1
 10
0.0
 20
0.0
 30
0.0
  3
*D1
  1

  0
LINE
  5
8B
330
89
100
AcDbEntity
  8
0
 62
     0
370
    -2
100
AcDbLine
 10
323.3066971182627
 20
42.98950379732263
 30
0.0
 11
323.3066971182627
 21
40.98493488095955
 31
0.0
  0
LINE
  5
8C
330
89
100
AcDbEntity
  8
0
 62
     0
370
    -2
100
AcDbLine
 10
323.7447617447132
 20
43.17850467767664
 30
0.0
 11
323.7447617447132
 21
40.98493488095955
 31
0.0
  0
LINE
  5
8D
330
89
100
AcDbEntity
  8
0
 62
     0
370
    -2
100
AcDbLine
 10
324.7447617447132
 20
41.16493488095954
 30
0.0
 11
325.7447617447132
 21
41.16493488095954
 31
0.0
  0
LINE
  5
8E
330
89
100
AcDbEntity
  8
0
 62
     0
370
    -2
100
AcDbLine
 10
322.3066971182626
 20
41.16493488095954
 30
0.0
 11
321.140030451596
 21
41.16493488095954
 31
0.0
  0
SOLID
  5
8F
330
89
100
AcDbEntity
  8
0
 62
     0
100
AcDbTrace
 10
324.7447617447132
 20
41.3316015476262
 30
0.0
 11
324.7447617447132
 21
40.99826821429288
 31
0.0
 12
323.7447617447132
 22
41.16493488095954
 32
0.0
 13
323.7447617447132
 23
41.16493488095954
 33
0.0
  0
SOLID
  5
90
330
89
100
AcDbEntity
  8
0
 62
     0
100
AcDbTrace
 10
322.3066971182626
 20
41.3316015476262
 30
0.0
 11
322.3066971182626
 21
40.99826821429288
 31
0.0
 12
323.3066971182627
 22
41.16493488095954
 32
0.0
 13
323.3066971182627
 23
41.16493488095954
 33
0.0
  0
MTEXT
  5
91
330
89
100
AcDbEntity
  8
0
 62
     0
100
AcDbMText
 10
319.015030451596
 20
41.16493488095954
 30
0.0
 40
1.0
 41
0.0
 71
     5
 72
     1
  1
\A1;0.500
 73
     1
 44
1.0
1001
ACAD
1000
MTEXTBEGIN
1070
    73
1070
     1
1070
    44
1040
1.0
1070
    74
1070
     0
1000
MTEXTEND
  0
POINT
  5
92
330
89
100
AcDbEntity
  8
Defpoints
 62
     0
100
AcDbPoint
 10
323.3066971182627
 20
43.36450379732265
 30
0.0
  0
POINT
  5
93
330
89
100
AcDbEntity
  8
Defpoints
 62
     0
100
AcDbPoint
 10
323.7447617447132
 20
43.55350467767664
 30
0.0
  0
POINT
  5
94
330
89
100
AcDbEntity
  8
Defpoints
 62
     0
100
AcDbPoint
 10
323.7447617447132
 20
41.16493488095954
 30
0.0
  0
ENDBLK
  5
95
330
89
100
AcDbEntity
  8
0
100
AcDbBlockEnd
  0
BLOCK
  5
B1A
330
B0F
100
AcDbEntity
  8
0
100
AcDbBlockBegin
  2
*D2
 70
     1
 10
0.0
 20
0.0
 30
0.0
  3
*D2
  1

  0
LINE
  5
B26
330
B0F
100
AcDbEntity
  8
0
 62
     0
370
    -2
100
AcDbLine
 10
73.77898473674587
 20
83.08855198635436
 30
0.0
 11
73.77898473674587
 21
81.08398306999125
 31
0.0
  0
LINE
  5
B27
330
B0F
100
AcDbEntity
  8
0
 62
     0
370
    -2
100
AcDbLine
 10
74.21704936319639
 20
83.27755286670836
 30
0.0
 11
74.21704936319639
 21
81.08398306999125
 31
0.0
  0
LINE
  5
B28
330
B0F
100
AcDbEntity
  8
0
 62
     0
370
    -2
100
AcDbLine
 10
75.2170493631964
 20
81.26398306999126
 30
0.0
 11
76.21704936319639
 21
81.26398306999126
 31
0.0
  0
LINE
  5
B29
330
B0F
100
AcDbEntity
  8
0
 62
     0
370
    -2
100
AcDbLine
 10
72.77898473674587
 20
81.26398306999126
 30
0.0
 11
71.3273180700792
 21
81.26398306999126
 31
0.0
  0
SOLID
  5
B2A
330
B0F
100
AcDbEntity
  8
0
 62
     0
100
AcDbTrace
 10
75.2170493631964
 20
81.43064973665794
 30
0.0
 11
75.2170493631964
 21
81.0973164033246
 31
0.0
 12
74.21704936319639
 22
81.26398306999126
 32
0.0
 13
74.21704936319639
 23
81.26398306999126
 33
0.0
  0
SOLID
  5
B2B
330
B0F
100
AcDbEntity
  8
0
 62
     0
100
AcDbTrace
 10
72.77898473674587
 20
81.43064973665794
 30
0.0
 11
72.77898473674587
 21
81.0973164033246
 31
0.0
 12
73.77898473674587
 22
81.26398306999126
 32
0.0
 13
73.77898473674587
 23
81.26398306999126
 33
0.0
  0
MTEXT
  5
B2C
330
B0F
100
AcDbEntity
  8
0
 62
     0
100
AcDbMText
 10
69.4873180700792
 20
81.26398306999126
 30
0.0
 40
1.0
 41
0.0
 71
     5
 72
     1
  1
\A1;0.500
 73
     1
 44
1.0
1001
ACAD
1000
MTEXTBEGIN
1070
    73
1070
     1
1070
    44
1040
1.0
1070
    74
1070
     0
1000
MTEXTEND
  0
POINT
  5
B2D
330
B0F
100
AcDbEntity
  8
Defpoints
 62
     0
100
AcDbPoint
 10
73.77898473674587
 20
83.46355198635436
 30
0.0
  0
POINT
  5
B2E
330
B0F
100
AcDbEntity
  8
Defpoints
 62
     0
100
AcDbPoint
 10
74.21704936319639
 20
83.65255286670835
 30
0.0
  0
POINT
  5
B2F
330
B0F
100
AcDbEntity
  8
Defpoints
 62
     0
100
AcDbPoint
 10
74.21704936319639
 20
81.26398306999126
 30
0.0
  0
ENDBLK
  5
B1B
330
B0F
100
AcDbEntity
  8
0
100
AcDbBlockEnd
  0
BLOCK
  5
B8D
330
B8C
100
AcDbEntity
  8
0
100
AcDbBlockBegin
  2
*D3
 70
     1
 10
0.0
 20
0.0
 30
0.0
  3
*D3
  1

  0
LINE
  5
B8E
330
B8C
100
AcDbEntity
  8
0
 62
     0
370
    -2
100
AcDbLine
 10
446.4750784939499
 20
12.25334206746174
 30
0.0
 11
438.6419331262841
 21
12.25334206746174
 31
0.0
  0
LINE
  5
B8F
330
B8C
100
AcDbEntity
  8
0
 62
     0
370
    -2
100
AcDbLine
 10
438.6419331262841
 20
12.25334206746174
 30
0.0
 11
436.6419331262841
 21
11.46544130717257
 31
0.0
  0
LINE
  5
B90
330
B8C
100
AcDbEntity
  8
0
 62
     0
370
    -2
100
AcDbLine
 10
436.6419331262841
 20
11.46544130717257
 30
0.0
 11
434.6419331262841
 21
11.46544130717257
 31
0.0
  0
MTEXT
  5
B91
330
B8C
100
AcDbEntity
  8
0
 62
     0
100
AcDbMText
 10
431.9335997929508
 20
11.46544130717257
 30
0.0
 40
1.0
 41
0.0
 71
     5
 72
     1
  1
\A1;16.937
 73
     1
 44
1.0
1001
ACAD
1000
MTEXTBEGIN
1070
    73
1070
     1
1070
    44
1040
1.0
1070
    74
1070
     0
1000
MTEXTEND
  0
POINT
  5
B92
330
B8C
100
AcDbEntity
  8
Defpoints
 62
     0
100
AcDbPoint
 10
446.8500784939499
 20
12.25334206746174
 30
0.0
  0
POINT
  5
B93
330
B8C
100
AcDbEntity
  8
Defpoints
 62
     0
100
AcDbPoint
 10
434.6419331262841
 20
11.46544130717257
 30
0.0
  0
POINT
  5
B94
330
B8C
100
AcDbEntity
  8
Defpoints
 62
     0
100
AcDbPoint
 10
436.7250721137123
 20
-4.683691435961349
 30
0.0
  0
ENDBLK
  5
B95
330
B8C
100
AcDbEntity
  8
0
100
AcDbBlockEnd
  0
BLOCK
  5
B97
330
B96
100
AcDbEntity
  8
0
100
AcDbBlockBegin
  2
*D4
 70
     1
 10
0.0
 20
0.0
 30
0.0
  3
*D4
  1

  0
LINE
  5
B98
330
B96
100
AcDbEntity
  8
0
 62
     0
370
    -2
100
AcDbLine
 10
446.8500784939499
 20
12.62834206746174
 30
0.0
 11
446.8500784939499
 21
13.73775099764452
 31
0.0
  0
MTEXT
  5
B99
330
B96
100
AcDbEntity
  8
0
 62
     0
100
AcDbMText
 10
446.8500784939499
 20
16.19608433097793
 30
0.0
 40
1.0
 41
0.0
 71
     5
 72
     1
  1
\A1;10.125
 11
0.0000000000000001
 21
1.0
 31
0.0
 73
     1
 44
1.0
1001
ACAD
1000
MTEXTBEGIN
1070
    73
1070
     1
1070
    44
1040
1.0
1070
    74
1070
     0
1000
MTEXTEND
  0
POINT
  5
B9A
330
B96
100
AcDbEntity
  8
Defpoints
 62
     0
100
AcDbPoint
 10
446.8500784939499
 20
12.25334206746174
 30
0.0
  0
POINT
  5
B9B
330
B96
100
AcDbEntity
  8
Defpoints
 62
     0
100
AcDbPoint
 10
446.8500784939499
 20
13.73775099764452
 30
0.0
  0
POINT
  5
B9C
330
B96
100
AcDbEntity
  8
Defpoints
 62
     0
100
AcDbPoint
 10
436.7250721137123
 20
-4.683691435961349
 30
0.0
  0
ENDBLK
  5
B9D
330
B96
100
AcDbEntity
  8
0
100
AcDbBlockEnd
  0
BLOCK
  5
B9F
330
B9E
100
AcDbEntity
  8
0
100
AcDbBlockBegin
  2
*D5
 70
     1
 10
0.0
 20
0.0
 30
0.0
  3
*D5
  1

  0
LINE
  5
BA0
330
B9E
100
AcDbEntity
  8
0
 62
     0
370
    -2
100
AcDbLine
 10
457.8930628348778
 20
20.80796093313461
 30
0.0
 11
456.8930628348779
 21
20.80796093313461
 31
0.0
  0
LINE
  5
BA1
330
B9E
100
AcDbEntity
  8
0
 62
     0
370
    -2
100
AcDbLine
 10
456.8930628348779
 20
20.80796093313461
 30
0.0
 11
448.0871301146349
 21
13.30706322970582
 31
0.0
  0
MTEXT
  5
BA2
330
B9E
100
AcDbEntity
  8
0
 62
     0
100
AcDbMText
 10
458.2680628348779
 20
16.97462759980125
 30
0.0
 40
1.0
 41
0.0
 71
     7
 72
     1
  1
\A1;\U+22051.250 (1)\POPTIONAL:\PETHERNET\PCONNECTION \PPORT
 73
     1
 44
1.0
1001
ACAD
1000
MTEXTBEGIN
1070
    73
1070
     1
1070
    44
1040
1.0
1070
    74
1070
     0
1000
MTEXTEND
  0
SOLID
  5
BA3
330
B9E
100
AcDbEntity
  8
0
 62
     0
100
AcDbTrace
 10
447.9790561492763
 20
13.43394031900684
 30
0.0
 11
448.1952040799932
 21
13.1801861404048
 31
0.0
 12
447.3258675788286
 22
12.65861943755561
 32
0.0
 13
447.3258675788286
 23
12.65861943755561
 33
0.0
  0
LINE
  5
BA4
330
B9E
100
AcDbEntity
  8
0
 62
     0
370
    -2
100
AcDbLine
 10
446.7600784939499
 20
12.25334206746174
 30
0.0
 11
446.9400784939499
 21
12.25334206746171
 31
0.0
  0
LINE
  5
BA5
330
B9E
100
AcDbEntity
  8
0
 62
     0
370
    -2
100
AcDbLine
 10
446.8500784939499
 20
12.16334206746174
 30
0.0
 11
446.8500784939498
 21
12.34334206746169
 31
0.0
  0
POINT
  5
BA6
330
B9E
100
AcDbEntity
  8
Defpoints
 62
     0
100
AcDbPoint
 10
447.3258675788286
 20
12.65861943755561
 30
0.0
  0
POINT
  5
BA7
330
B9E
100
AcDbEntity
  8
Defpoints
 62
     0
100
AcDbPoint
 10
446.3742894090712
 20
11.84806469736784
 30
0.0
  0
ENDBLK
  5
BA8
330
B9E
100
AcDbEntity
  8
0
100
AcDbBlockEnd
  0
BLOCK
  5
BAA
330
BA9
100
AcDbEntity
  8
0
100
AcDbBlockBegin
  2
*D6
 70
     1
 10
0.0
 20
0.0
 30
0.0
  3
*D6
  1

  0
LINE
  5
BAB
330
BA9
100
AcDbEntity
  8
0
 62
     0
370
    -2
100
AcDbLine
 10
439.5601349183306
 20
19.79676280743017
 30
0.0
 11
437.9351349183306
 21
19.79676280743017
 31
0.0
  0
LINE
  5
BAC
330
BA9
100
AcDbEntity
  8
0
 62
     0
370
    -2
100
AcDbLine
 10
437.9351349183306
 20
19.79676280743017
 30
0.0
 11
436.4651004042935
 21
18.66006119018925
 31
0.0
  0
LINE
  5
BAD
330
BA9
100
AcDbEntity
  8
0
 62
     0
370
    -2
100
AcDbLine
 10
436.4651004042935
 20
18.66006119018925
 30
0.0
 11
434.4651004042933
 21
18.66006119018925
 31
0.0
  0
MTEXT
  5
BAE
330
BA9
100
AcDbEntity
  8
0
 62
     0
100
AcDbMText
 10
431.6734337376267
 20
18.66006119018925
 30
0.0
 40
1.0
 41
0.0
 71
     5
 72
     1
  1
\A1;24.480
 73
     1
 44
1.0
1001
ACAD
1000
MTEXTBEGIN
1070
    73
1070
     1
1070
    44
1040
1.0
1070
    74
1070
     0
1000
MTEXTEND
  0
POINT
  5
BAF
330
BA9
100
AcDbEntity
  8
Defpoints
 62
     0
100
AcDbPoint
 10
439.9351349183306
 20
19.79676280743017
 30
0.0
  0
POINT
  5
BB0
330
BA9
100
AcDbEntity
  8
Defpoints
 62
     0
100
AcDbPoint
 10
434.4651004042933
 20
18.66006119018925
 30
0.0
  0
POINT
  5
BB1
330
BA9
100
AcDbEntity
  8
Defpoints
 62
     0
100
AcDbPoint
 10
436.7250721137123
 20
-4.683691435961349
 30
0.0
  0
ENDBLK
  5
BB2
330
BA9
100
AcDbEntity
  8
0
100
AcDbBlockEnd
  0
BLOCK
  5
BB4
330
BB3
100
AcDbEntity
  8
0
100
AcDbBlockBegin
  2
*D7
 70
     1
 10
0.0
 20
0.0
 30
0.0
  3
*D7
  1

  0
LINE
  5
BB5
330
BB3
100
AcDbEntity
  8
0
 62
     0
370
    -2
100
AcDbLine
 10
439.5601349183305
 20
22.63426280743022
 30
0.0
 11
434.7177846658571
 21
22.63426280743022
 31
0.0
  0
MTEXT
  5
BB6
330
BB3
100
AcDbEntity
  8
0
 62
     0
100
AcDbMText
 10
432.0094513325237
 20
22.63426280743022
 30
0.0
 40
1.0
 41
0.0
 71
     5
 72
     1
  1
\A1;27.318
 73
     1
 44
1.0
1001
ACAD
1000
MTEXTBEGIN
1070
    73
1070
     1
1070
    44
1040
1.0
1070
    74
1070
     0
1000
MTEXTEND
  0
POINT
  5
BB7
330
BB3
100
AcDbEntity
  8
Defpoints
 62
     0
100
AcDbPoint
 10
439.9351349183305
 20
22.63426280743022
 30
0.0
  0
POINT
  5
BB8
330
BB3
100
AcDbEntity
  8
Defpoints
 62
     0
100
AcDbPoint
 10
434.7177846658571
 20
22.63426280743022
 30
0.0
  0
POINT
  5
BB9
330
BB3
100
AcDbEntity
  8
Defpoints
 62
     0
100
AcDbPoint
 10
436.7250721137123
 20
-4.683691435961349
 30
0.0
  0
ENDBLK
  5
BBA
330
BB3
100
AcDbEntity
  8
0
100
AcDbBlockEnd
  0
BLOCK
  5
BBC
330
BBB
100
AcDbEntity
  8
0
100
AcDbBlockBegin
  2
*D8
 70
     1
 10
0.0
 20
0.0
 30
0.0
  3
*D8
  1

  0
LINE
  5
BBD
330
BBB
100
AcDbEntity
  8
0
 62
     0
370
    -2
100
AcDbLine
 10
449.35007849395
 20
9.628342067461744
 30
0.0
 11
449.35007849395
 21
7.646435449735918
 31
0.0
  0
MTEXT
  5
BBE
330
BBB
100
AcDbEntity
  8
0
 62
     0
100
AcDbMText
 10
449.35007849395
 20
4.938102116402657
 30
0.0
 40
1.0
 41
0.0
 71
     5
 72
     1
  1
\A1;12.625
 11
0.0000000000000001
 21
1.0
 31
0.0
 73
     1
 44
1.0
1001
ACAD
1000
MTEXTBEGIN
1070
    73
1070
     1
1070
    44
1040
1.0
1070
    74
1070
     0
1000
MTEXTEND
  0
POINT
  5
BBF
330
BBB
100
AcDbEntity
  8
Defpoints
 62
     0
100
AcDbPoint
 10
449.35007849395
 20
10.00334206746174
 30
0.0
  0
POINT
  5
BC0
330
BBB
100
AcDbEntity
  8
Defpoints
 62
     0
100
AcDbPoint
 10
449.35007849395
 20
7.646435449735918
 30
0.0
  0
POINT
  5
BC1
330
BBB
100
AcDbEntity
  8
Defpoints
 62
     0
100
AcDbPoint
 10
436.7250721137123
 20
-4.683691435961349
 30
0.0
  0
ENDBLK
  5
BC2
330
BBB
100
AcDbEntity
  8
0
100
AcDbBlockEnd
  0
BLOCK
  5
C9F
330
C99
100
AcDbEntity
  8
0
100
AcDbBlockBegin
  2
*D9
 70
     1
 10
0.0
 20
0.0
 30
0.0
  3
*D9
  1

  0
LINE
  5
D16
330
C99
100
AcDbEntity
  8
0
 62
     0
370
    -2
100
AcDbLine
 10
44.18486390377892
 20
49.72739025649346
 30
0.0
 11
44.18486390377892
 21
47.74548363876763
 31
0.0
  0
MTEXT
  5
D17
330
C99
100
AcDbEntity
  8
0
 62
     0
100
AcDbMText
 10
44.18486390377892
 20
45.32215030543429
 30
0.0
 40
1.0
 41
0.0
 71
     5
 72
     1
  1
\A1;12.625
 11
0.0000000000000001
 21
1.0
 31
0.0
 73
     1
 44
1.0
1001
ACAD
1000
MTEXTBEGIN
1070
    73
1070
     1
1070
    44
1040
1.0
1070
    74
1070
     0
1000
MTEXTEND
  0
POINT
  5
D18
330
C99
100
AcDbEntity
  8
Defpoints
 62
     0
100
AcDbPoint
 10
44.18486390377892
 20
50.10239025649346
 30
0.0
  0
POINT
  5
D19
330
C99
100
AcDbEntity
  8
Defpoints
 62
     0
100
AcDbPoint
 10
44.18486390377892
 20
47.74548363876763
 30
0.0
  0
POINT
  5
D1A
330
C99
100
AcDbEntity
  8
Defpoints
 62
     0
100
AcDbPoint
 10
31.55985752354138
 20
35.41535675307037
 30
0.0
  0
ENDBLK
  5
CA0
330
C99
100
AcDbEntity
  8
0
100
AcDbBlockEnd
  0
BLOCK
  5
CA7
330
CA1
100
AcDbEntity
  8
0
100
AcDbBlockBegin
  2
*D10
 70
     1
 10
0.0
 20
0.0
 30
0.0
  3
*D10
  1

  0
LINE
  5
D11
330
CA1
100
AcDbEntity
  8
0
 62
     0
370
    -2
100
AcDbLine
 10
34.39492032815946
 20
62.73331099646192
 30
0.0
 11
29.55257007568605
 21
62.73331099646192
 31
0.0
  0
MTEXT
  5
D12
330
CA1
100
AcDbEntity
  8
0
 62
     0
100
AcDbMText
 10
27.12923674235272
 20
62.73331099646192
 30
0.0
 40
1.0
 41
0.0
 71
     5
 72
     1
  1
\A1;27.318
 73
     1
 44
1.0
1001
ACAD
1000
MTEXTBEGIN
1070
    73
1070
     1
1070
    44
1040
1.0
1070
    74
1070
     0
1000
MTEXTEND
  0
POINT
  5
D13
330
CA1
100
AcDbEntity
  8
Defpoints
 62
     0
100
AcDbPoint
 10
34.76992032815946
 20
62.73331099646192
 30
0.0
  0
POINT
  5
D14
330
CA1
100
AcDbEntity
  8
Defpoints
 62
     0
100
AcDbPoint
 10
29.55257007568605
 20
62.73331099646192
 30
0.0
  0
POINT
  5
D15
330
CA1
100
AcDbEntity
  8
Defpoints
 62
     0
100
AcDbPoint
 10
31.55985752354138
 20
35.41535675307037
 30
0.0
  0
ENDBLK
  5
CA8
330
CA1
100
AcDbEntity
  8
0
100
AcDbBlockEnd
  0
BLOCK
  5
CB1
330
CA9
100
AcDbEntity
  8
0
100
AcDbBlockBegin
  2
*D11
 70
     1
 10
0.0
 20
0.0
 30
0.0
  3
*D11
  1

  0
LINE
  5
D0A
330
CA9
100
AcDbEntity
  8
0
 62
     0
370
    -2
100
AcDbLine
 10
34.39492032815952
 20
59.89581099646189
 30
0.0
 11
32.76992032815952
 21
59.89581099646189
 31
0.0
  0
LINE
  5
D0B
330
CA9
100
AcDbEntity
  8
0
 62
     0
370
    -2
100
AcDbLine
 10
32.76992032815952
 20
59.89581099646189
 30
0.0
 11
31.29988581412238
 21
58.75910937922096
 31
0.0
  0
LINE
  5
D0C
330
CA9
100
AcDbEntity
  8
0
 62
     0
370
    -2
100
AcDbLine
 10
31.29988581412238
 20
58.75910937922096
 30
0.0
 11
29.29988581412238
 21
58.75910937922096
 31
0.0
  0
MTEXT
  5
D0D
330
CA9
100
AcDbEntity
  8
0
 62
     0
100
AcDbMText
 10
26.79321914745572
 20
58.75910937922096
 30
0.0
 40
1.0
 41
0.0
 71
     5
 72
     1
  1
\A1;24.480
 73
     1
 44
1.0
1001
ACAD
1000
MTEXTBEGIN
1070
    73
1070
     1
1070
    44
1040
1.0
1070
    74
1070
     0
1000
MTEXTEND
  0
POINT
  5
D0E
330
CA9
100
AcDbEntity
  8
Defpoints
 62
     0
100
AcDbPoint
 10
34.76992032815952
 20
59.89581099646189
 30
0.0
  0
POINT
  5
D0F
330
CA9
100
AcDbEntity
  8
Defpoints
 62
     0
100
AcDbPoint
 10
29.29988581412238
 20
58.75910937922096
 30
0.0
  0
POINT
  5
D10
330
CA9
100
AcDbEntity
  8
Defpoints
 62
     0
100
AcDbPoint
 10
31.55985752354138
 20
35.41535675307037
 30
0.0
  0
ENDBLK
  5
CB2
330
CA9
100
AcDbEntity
  8
0
100
AcDbBlockEnd
  0
BLOCK
  5
CBC
330
CB3
100
AcDbEntity
  8
0
100
AcDbBlockBegin
  2
*D12
 70
     1
 10
0.0
 20
0.0
 30
0.0
  3
*D12
  1

  0
LINE
  5
D02
330
CB3
100
AcDbEntity
  8
0
 62
     0
370
    -2
100
AcDbLine
 10
53.0128482447068
 20
60.90700912216629
 30
0.0
 11
51.72784824470686
 21
60.90700912216629
 31
0.0
  0
LINE
  5
D03
330
CB3
100
AcDbEntity
  8
0
 62
     0
370
    -2
100
AcDbLine
 10
51.72784824470686
 20
60.90700912216629
 30
0.0
 11
42.92191552446374
 21
53.40611141873754
 31
0.0
  0
MTEXT
  5
D04
330
CB3
100
AcDbEntity
  8
0
 62
     0
100
AcDbMText
 10
53.10284824470677
 20
57.07367578883295
 30
0.0
 40
1.0
 41
0.0
 71
     7
 72
     1
  1
\A1;\U+22051.250 (1)\POPTIONAL:\PETHERNET\PCONNECTION \PPORT
 73
     1
 44
1.0
1001
ACAD
1000
MTEXTBEGIN
1070
    73
1070
     1
1070
    44
1040
1.0
1070
    74
1070
     0
1000
MTEXTEND
  0
SOLID
  5
D05
330
CB3
100
AcDbEntity
  8
0
 62
     0
100
AcDbTrace
 10
42.81384155910539
 20
53.53298850803854
 30
0.0
 11
43.02998948982213
 21
53.27923432943652
 31
0.0
 12
42.1606529886577
 22
52.75766762658733
 32
0.0
 13
42.1606529886577
 23
52.75766762658733
 33
0.0
  0
LINE
  5
D06
330
CB3
100
AcDbEntity
  8
0
 62
     0
370
    -2
100
AcDbLine
 10
41.59486390377892
 20
52.35239025649345
 30
0.0
 11
41.77486390377892
 21
52.35239025649345
 31
0.0
  0
LINE
  5
D07
330
CB3
100
AcDbEntity
  8
0
 62
     0
370
    -2
100
AcDbLine
 10
41.68486390377892
 20
52.26239025649342
 30
0.0
 11
41.68486390377892
 21
52.44239025649346
 31
0.0
  0
POINT
  5
D08
330
CB3
100
AcDbEntity
  8
Defpoints
 62
     0
100
AcDbPoint
 10
42.1606529886577
 20
52.75766762658733
 30
0.0
  0
POINT
  5
D09
330
CB3
100
AcDbEntity
  8
Defpoints
 62
     0
100
AcDbPoint
 10
41.20907481890013
 20
51.94711288639958
 30
0.0
  0
ENDBLK
  5
CBD
330
CB3
100
AcDbEntity
  8
0
100
AcDbBlockEnd
  0
BLOCK
  5
CC4
330
CBE
100
AcDbEntity
  8
0
100
AcDbBlockBegin
  2
*D13
 70
     1
 10
0.0
 20
0.0
 30
0.0
  3
*D13
  1

  0
LINE
  5
CFD
330
CBE
100
AcDbEntity
  8
0
 62
     0
370
    -2
100
AcDbLine
 10
41.68486390377893
 20
52.72739025649347
 30
0.0
 11
41.68486390377893
 21
53.83679918667624
 31
0.0
  0
MTEXT
  5
CFE
330
CBE
100
AcDbEntity
  8
0
 62
     0
100
AcDbMText
 10
41.68486390377892
 20
56.01013252000957
 30
0.0
 40
1.0
 41
0.0
 71
     5
 72
     1
  1
\A1;10.125
 11
0.0000000000000001
 21
1.0
 31
0.0
 73
     1
 44
1.0
1001
ACAD
1000
MTEXTBEGIN
1070
    73
1070
     1
1070
    44
1040
1.0
1070
    74
1070
     0
1000
MTEXTEND
  0
POINT
  5
CFF
330
CBE
100
AcDbEntity
  8
Defpoints
 62
     0
100
AcDbPoint
 10
41.68486390377893
 20
52.35239025649345
 30
0.0
  0
POINT
  5
D00
330
CBE
100
AcDbEntity
  8
Defpoints
 62
     0
100
AcDbPoint
 10
41.68486390377893
 20
53.83679918667624
 30
0.0
  0
POINT
  5
D01
330
CBE
100
AcDbEntity
  8
Defpoints
 62
     0
100
AcDbPoint
 10
31.55985752354138
 20
35.41535675307037
 30
0.0
  0
ENDBLK
  5
CC5
330
CBE
100
AcDbEntity
  8
0
100
AcDbBlockEnd
  0
BLOCK
  5
CCE
330
CC6
100
AcDbEntity
  8
0
100
AcDbBlockBegin
  2
*D14
 70
     1
 10
0.0
 20
0.0
 30
0.0
  3
*D14
  1

  0
LINE
  5
CF6
330
CC6
100
AcDbEntity
  8
0
 62
     0
370
    -2
100
AcDbLine
 10
41.30986390377893
 20
52.35239025649345
 30
0.0
 11
33.47671853611303
 21
52.35239025649345
 31
0.0
  0
LINE
  5
CF7
330
CC6
100
AcDbEntity
  8
0
 62
     0
370
    -2
100
AcDbLine
 10
33.47671853611303
 20
52.35239025649345
 30
0.0
 11
31.47671853611303
 21
51.56448949620428
 31
0.0
  0
LINE
  5
CF8
330
CC6
100
AcDbEntity
  8
0
 62
     0
370
    -2
100
AcDbLine
 10
31.47671853611303
 20
51.56448949620428
 30
0.0
 11
29.47671853611304
 21
51.56448949620428
 31
0.0
  0
MTEXT
  5
CF9
330
CC6
100
AcDbEntity
  8
0
 62
     0
100
AcDbMText
 10
27.05338520277969
 20
51.56448949620428
 30
0.0
 40
1.0
 41
0.0
 71
     5
 72
     1
  1
\A1;16.937
 73
     1
 44
1.0
1001
ACAD
1000
MTEXTBEGIN
1070
    73
1070
     1
1070
    44
1040
1.0
1070
    74
1070
     0
1000
MTEXTEND
  0
POINT
  5
CFA
330
CC6
100
AcDbEntity
  8
Defpoints
 62
     0
100
AcDbPoint
 10
41.68486390377893
 20
52.35239025649345
 30
0.0
  0
POINT
  5
CFB
330
CC6
100
AcDbEntity
  8
Defpoints
 62
     0
100
AcDbPoint
 10
29.47671853611304
 20
51.56448949620428
 30
0.0
  0
POINT
  5
CFC
330
CC6
100
AcDbEntity
  8
Defpoints
 62
     0
100
AcDbPoint
 10
31.55985752354138
 20
35.41535675307037
 30
0.0
  0
ENDBLK
  5
CCF
330
CC6
100
AcDbEntity
  8
0
100
AcDbBlockEnd
  0
ENDSEC
  0
SECTION
  2
ENTITIES
  0
TEXT
  5
5DB
330
1F
100
AcDbEntity
  8
TEXT
100
AcDbText
 10
60.63081334954786
 20
13.0338403370815
 30
0.0
 40
0.7687499999999993
  1
IQ25,35,45,6000V
 41
0.9139053760337285
 72
     5
 11
70.23253170650221
 21
13.0338403370815
 31
0.0
100
AcDbText
  0
TEXT
  5
5E0
330
1F
100
AcDbEntity
  8
TEXT
100
AcDbText
 10
12.58392703542426
 20
13.2127200343204
 30
0.0
 40
0.3076171875
  1
1
 72
     1
 11
12.63519656667426
 21
13.3665286280704
 31
0.0
100
AcDbText
 73
     2
  0
TEXT
  5
5E1
330
1F
100
AcDbEntity
  8
TEXT
100
AcDbText
 10
17.48529422292428
 20
13.2127200343204
 30
0.0
 40
0.3076171875
  1
UPDATED DRAWING
 72
     1
 11
19.74115359792428
 21
13.3665286280704
 31
0.0
100
AcDbText
 73
     2
  0
TEXT
  5
5E2
330
1F
100
AcDbEntity
  8
TEXT
100
AcDbText
 10
30.00639241133499
 20
13.2127200343204
 30
0.0
 40
0.3076171875
  1
JJH
 72
     1
 11
30.41654866133499
 21
13.3665286280704
 31
0.0
100
AcDbText
 73
     2
  0
TEXT
  5
5E3
330
1F
100
AcDbEntity
  8
TEXT
100
AcDbText
 10
26.45105350026796
 20
13.2127200343204
 30
0.0
 40
0.3076171875
  1
10-24-06
 72
     1
 11
27.52771365651796
 21
13.3665286280704
 31
0.0
100
AcDbText
 73
     2
  0
LINE
  5
5E4
330
1F
100
AcDbEntity
  8
BORDER
100
AcDbLine
 10
31.95186804115184
 20
13.0589114405704
 30
0.0
 11
11.96228396901801
 21
13.0589114405704
 31
0.0
  0
TEXT
  5
5E5
330
1F
100
AcDbEntity
  8
TEXT
100
AcDbText
 10
12.55829226979926
 20
12.59748565932031
 30
0.0
 40
0.3076171875
  1
0
 72
     1
 11
12.63519656667426
 21
12.75129425307031
 31
0.0
100
AcDbText
 73
     2
  0
LINE
  5
5E6
330
1F
100
AcDbEntity
  8
BORDER
100
AcDbLine
 10
13.30810916433049
 20
12.44367706557034
 30
0.0
 11
13.30810916433049
 21
15.51984894057066
 31
0.0
  0
TEXT
  5
5E7
330
1F
100
AcDbEntity
  8
TEXT
100
AcDbText
 10
17.63910281667428
 20
12.59748565932031
 30
0.0
 40
0.3076171875
  1
INITIAL RELEASE
 72
     1
 11
19.74115359792428
 21
12.75129425307031
 31
0.0
100
AcDbText
 73
     2
  0
TEXT
  5
5E8
330
1F
100
AcDbEntity
  8
TEXT
100
AcDbText
 10
30.00639241133499
 20
12.59748565932031
 30
0.0
 40
0.3076171875
  1
GFD
 72
     1
 11
30.41654866133499
 21
12.75129425307031
 31
0.0
100
AcDbText
 73
     2
  0
LINE
  5
5E9
330
1F
100
AcDbEntity
  8
BORDER
100
AcDbLine
 10
28.88122928151802
 20
12.44367706557034
 30
0.0
 11
28.88122928151802
 21
15.51984894057066
 31
0.0
  0
TEXT
  5
5EA
330
1F
100
AcDbEntity
  8
TEXT
100
AcDbText
 10
26.57922732839296
 20
12.59748565932031
 30
0.0
 40
0.3076171875
  1
7-16-05
 72
     1
 11
27.52771365651796
 21
12.75129425307031
 31
0.0
100
AcDbText
 73
     2
  0
LINE
  5
5EB
330
1F
100
AcDbEntity
  8
BORDER
100
AcDbLine
 10
26.17419803151805
 20
12.44367706557034
 30
0.0
 11
26.17419803151805
 21
15.51984894057066
 31
0.0
  0
LINE
  5
5EC
330
1F
100
AcDbEntity
  8
BORDER
100
AcDbLine
 10
31.95186804115184
 20
11.82844269057031
 30
0.0
 11
11.96228396901801
 21
11.82844269057031
 31
0.0
  0
LINE
  5
5ED
330
1F
100
AcDbEntity
  8
BORDER
100
AcDbLine
 10
31.95186804115184
 20
12.44367706557034
 30
0.0
 11
11.96228396901801
 21
12.44367706557034
 31
0.0
  0
TEXT
  5
5EE
330
1F
100
AcDbEntity
  8
TEXT
100
AcDbText
 10
12.17377078542426
 20
11.98225128432025
 30
0.0
 40
0.3076171875
  1
REV
 72
     1
 11
12.63519656667426
 21
12.13605987807025
 31
0.0
100
AcDbText
 73
     2
  0
LINE
  5
5EF
330
1F
100
AcDbEntity
  8
BORDER
100
AcDbLine
 10
11.96228396901801
 20
11.21320831557032
 30
0.0
 11
11.96228396901801
 21
14.90461456557059
 31
0.0
  0
LINE
  5
5F0
330
1F
100
AcDbEntity
  8
BORDER
100
AcDbLine
 10
13.30810916433049
 20
11.82844269057031
 30
0.0
 11
13.30810916433049
 21
12.44367706557034
 31
0.0
  0
TEXT
  5
5F1
330
1F
100
AcDbEntity
  8
TEXT
100
AcDbText
 10
18.20306766042428
 20
11.98225128432025
 30
0.0
 40
0.3076171875
  1
DESCRIPTION
 72
     1
 11
19.74115359792428
 21
12.13605987807025
 31
0.0
100
AcDbText
 73
     2
  0
TEXT
  5
5F2
330
1F
100
AcDbEntity
  8
TEXT
100
AcDbText
 10
29.39115803633498
 20
11.98225128432025
 30
0.0
 40
0.3076171875
  1
CHECKED
 72
     1
 11
30.41654866133499
 21
12.13605987807025
 31
0.0
100
AcDbText
 73
     2
  0
LINE
  5
5F3
330
1F
100
AcDbEntity
  8
BORDER
100
AcDbLine
 10
28.88122928151802
 20
11.82844269057031
 30
0.0
 11
28.88122928151802
 21
12.44367706557034
 31
0.0
  0
TEXT
  5
5F4
330
1F
100
AcDbEntity
  8
TEXT
100
AcDbText
 10
26.96374881276796
 20
11.98225128432025
 30
0.0
 40
0.3076171875
  1
DATE
 72
     1
 11
27.52771365651796
 21
12.13605987807025
 31
0.0
100
AcDbText
 73
     2
  0
LINE
  5
5F5
330
1F
100
AcDbEntity
  8
BORDER
100
AcDbLine
 10
26.17419803151805
 20
11.82844269057031
 30
0.0
 11
26.17419803151805
 21
12.44367706557034
 31
0.0
  0
LINE
  5
5F6
330
1F
100
AcDbEntity
  8
BORDER
100
AcDbLine
 10
11.96228396901801
 20
11.82844269057031
 30
0.0
 11
31.95186804115184
 21
11.82844269057031
 31
0.0
  0
LINE
  5
5F7
330
1F
100
AcDbEntity
  8
BORDER
100
AcDbLine
 10
31.95186804115183
 20
15.51984894057066
 30
0.0
 11
31.95186804115184
 21
11.21320831557032
 31
0.0
  0
LINE
  5
5F8
330
1F
100
AcDbEntity
  8
BORDER
100
AcDbLine
 10
31.95186804115184
 20
11.21320831557032
 30
0.0
 11
11.96228396901801
 21
11.21320831557032
 31
0.0
  0
TEXT
  5
5F9
330
1F
100
AcDbEntity
  8
TEXT
100
AcDbText
 10
18.45941531667428
 20
11.36701690932025
 30
0.0
 40
0.3076171875
  1
REVISIONS
 72
     1
 11
19.74115359792428
 21
11.52082550307025
 31
0.0
100
AcDbText
 73
     2
  0
TEXT
  5
5FA
330
1F
100
AcDbEntity
  8
TEXT
100
AcDbText
 10
69.09687801669602
 20
11.48807177744808
 30
0.0
 40
0.76904296875
  1
4
 72
     1
 11
69.35322567294602
 21
11.87259326182308
 31
0.0
100
AcDbText
 73
     2
  0
TEXT
  5
5FB
330
1F
100
AcDbEntity
  8
TEXT
100
AcDbText
 10
61.62008550403513
 20
11.48807177744808
 30
0.0
 40
0.76904296875
  1
IQ290924
 72
     1
 11
64.37582280872263
 21
11.87259326182308
 31
0.0
100
AcDbText
 73
     2
  0
TEXT
  5
5FC
330
1F
100
AcDbEntity
  8
TEXT
100
AcDbText
 10
64.35657240329466
 20
14.81026800299769
 30
0.0
 40
0.1922607421875
  1
724-837-2204  *  1-888-867-8234
 72
     1
 11
67.25650526462279
 21
14.90639837409144
 31
0.0
100
AcDbText
 73
     2
  0
TEXT
  5
5FD
330
1F
100
AcDbEntity
  8
TEXT
100
AcDbText
 10
65.39798475681029
 20
15.19478948737269
 30
0.0
 40
0.1922607421875
  1
GREENSBURG, PA  15601
 72
     1
 11
67.25650526462279
 21
15.29091985846644
 31
0.0
100
AcDbText
 73
     2
  0
TEXT
  5
5FE
330
1F
100
AcDbEntity
  8
TEXT
100
AcDbText
 10
65.68637587009154
 20
15.57931097174769
 30
0.0
 40
0.1922607421875
  1
141 WILSON AVENUE
 72
     1
 11
67.25650526462279
 21
15.67544134284144
 31
0.0
100
AcDbText
 73
     2
  0
TEXT
  5
5FF
330
1F
100
AcDbEntity
  8
TEXT
100
AcDbText
 10
64.72507215915404
 20
15.94460638190395
 30
0.0
 40
0.1922607421875
  1
INDUSTRIAL COOLING EQUIPMENT
 72
     1
 11
67.25650526462279
 21
16.0407367529977
 31
0.0
100
AcDbText
 73
     2
  0
TEXT
  5
600
330
1F
100
AcDbEntity
  8
TEXT
100
AcDbText
 10
65.65433241306029
 20
14.42574651862269
 30
0.0
 40
0.1922607421875
  1
FAX  724-837-3386
 72
     1
 11
67.25650526462279
 21
14.52187688971644
 31
0.0
100
AcDbText
 73
     2
  0
LINE
  5
601
330
1F
100
AcDbEntity
  8
BORDER
100
AcDbLine
 10
60.45262534961825
 20
16.2810626807321
 30
0.0
 11
70.40743107806476
 21
16.28106268073208
 31
0.0
  0
LINE
  5
602
330
1F
100
AcDbEntity
  8
BORDER
100
AcDbLine
 10
60.45262534961825
 20
14.35845525885708
 30
0.0
 11
70.40743107806476
 21
14.35845525885708
 31
0.0
  0
LINE
  5
603
330
1F
100
AcDbEntity
  8
BORDER
100
AcDbLine
 10
60.45262534961825
 20
12.82036932135708
 30
0.0
 11
70.40743107806476
 21
12.82036932135708
 31
0.0
  0
LINE
  5
604
330
1F
100
AcDbEntity
  8
BORDER
100
AcDbLine
 10
68.29902026782699
 20
12.82036932135708
 30
0.0
 11
68.29902026782699
 21
11.21320831557032
 31
0.0
  0
TEXT
  5
605
330
1F
100
AcDbEntity
  8
TEXT
100
AcDbText
 10
55.60177083813758
 20
11.44308158886102
 30
0.0
 40
0.384521484375
  1
SHEET 1 OF 2
 72
     1
 11
57.78072591626258
 21
11.63534233104852
 31
0.0
100
AcDbText
 73
     2
  0
LINE
  5
606
330
1F
100
AcDbEntity
  8
BORDER
100
AcDbLine
 10
55.06932456836825
 20
12.05132635260708
 30
0.0
 11
60.45262534961825
 21
12.05132635260708
 31
0.0
  0
TEXT
  5
607
330
1F
100
AcDbEntity
  8
TEXT
100
AcDbText
 10
56.575367048837
 20
12.24978255010609
 30
0.0
 40
0.384521484375
  1
7-16-05
 72
     1
 11
57.76097495899325
 21
12.44204329229359
 31
0.0
100
AcDbText
 73
     2
  0
TEXT
  5
608
330
1F
100
AcDbEntity
  8
TEXT
100
AcDbText
 10
55.26158531055575
 20
12.53197820807583
 30
0.0
 40
0.1922607421875
  1
DATE
100
AcDbText
  0
TEXT
  5
609
330
1F
100
AcDbEntity
  8
TEXT
100
AcDbText
 10
55.99025352344625
 20
12.88881414557579
 30
0.0
 40
0.28839111328125
  1
GFD
 72
     1
 11
56.37477500782125
 21
13.03300970221642
 31
0.0
100
AcDbText
 73
     2
  0
TEXT
  5
60A
330
1F
100
AcDbEntity
  8
TEXT
100
AcDbText
 10
55.18083579883702
 20
13.30102117682583
 30
0.0
 40
0.1922607421875
  1
DRAWN
100
AcDbText
  0
TEXT
  5
60B
330
1F
100
AcDbEntity
  8
TEXT
100
AcDbText
 10
57.95323570118075
 20
13.30102117682583
 30
0.0
 40
0.1922607421875
  1
SCALE
100
AcDbText
  0
TEXT
  5
60C
330
1F
100
AcDbEntity
  8
TEXT
100
AcDbText
 10
58.61845786914949
 20
12.88881414557579
 30
0.0
 40
0.28839111328125
  1
NONE
 72
     1
 11
59.14717491016512
 21
13.03300970221642
 31
0.0
100
AcDbText
 73
     2
  0
LINE
  5
60D
330
1F
100
AcDbEntity
  8
BORDER
100
AcDbLine
 10
55.06932456836825
 20
13.58941229010708
 30
0.0
 11
60.45262534961825
 21
13.58941229010708
 31
0.0
  0
LINE
  5
60E
330
1F
100
AcDbEntity
  8
BORDER
100
AcDbLine
 10
55.06932456836825
 20
12.82036932135708
 30
0.0
 11
60.45262534961825
 21
12.82036932135708
 31
0.0
  0
LINE
  5
60F
330
1F
100
AcDbEntity
  8
BORDER
100
AcDbLine
 10
60.45262534961825
 20
11.21320831557025
 30
0.0
 11
60.45262534961825
 21
16.28106268073208
 31
0.0
  0
LINE
  5
610
330
1F
100
AcDbEntity
  8
TEXT
100
AcDbLine
 10
61.55293450083703
 20
14.67179414576978
 30
0.0
 11
61.58582626669627
 21
14.65097770761159
 31
0.0
  0
ARC
  5
611
330
1F
100
AcDbEntity
  8
TEXT
100
AcDbCircle
 10
61.76766334197001
 20
14.89282769542029
 30
0.0
 40
0.1267061661381931
100
AcDbArc
 50
287.1920036507392
 51
335.899750405153
  0
ARC
  5
612
330
1F
100
AcDbEntity
  8
TEXT
100
AcDbCircle
 10
62.0211557220291
 20
14.72212493357583
 30
0.0
 40
0.0589426087695834
100
AcDbArc
 50
67.37252950712535
 51
112.6274704928676
  0
ARC
  5
613
330
1F
100
AcDbEntity
  8
TEXT
100
AcDbCircle
 10
62.00258689797095
 20
14.82395895644754
 30
0.0
 40
0.083253863520847
100
AcDbArc
 50
330.1916644163821
 51
19.91318758188127
  0
ARC
  5
614
330
1F
100
AcDbEntity
  8
TEXT
100
AcDbCircle
 10
61.89182106729901
 20
14.87058127883384
 30
0.0
 40
0.0306915038433088
100
AcDbArc
 50
253.9290889125597
 51
38.65267477511391
  0
ARC
  5
615
330
1F
100
AcDbEntity
  8
TEXT
100
AcDbCircle
 10
62.41344026633169
 20
14.83881357640331
 30
0.0
 40
0.0637703803088338
100
AcDbArc
 50
188.1927496775748
 51
244.8496170020148
  0
ARC
  5
616
330
1F
100
AcDbEntity
  8
TEXT
100
AcDbCircle
 10
62.41266041810357
 20
14.90054201430669
 30
0.0
 40
0.1223188632389314
100
AcDbArc
 50
257.573093086619
 51
314.427386746227
  0
LINE
  5
617
330
1F
100
AcDbEntity
  8
TEXT
100
AcDbLine
 10
62.62580541328472
 20
14.76455228387613
 30
0.0
 11
62.62775227353212
 21
14.78692537368232
 31
0.0
  0
LINE
  5
618
330
1F
100
AcDbEntity
  8
TEXT
100
AcDbLine
 10
62.62775227353212
 20
14.78692537368232
 30
0.0
 11
62.5946552000766
 21
14.78497988264762
 31
0.0
  0
ARC
  5
619
330
1F
100
AcDbEntity
  8
TEXT
100
AcDbCircle
 10
62.59398592643908
 20
14.81194447821156
 30
0.0
 40
0.0269729001245506
100
AcDbArc
 50
155.9964711746288
 51
271.4218156194853
  0
ARC
  5
61A
330
1F
100
AcDbEntity
  8
TEXT
100
AcDbCircle
 10
62.82829904080069
 20
14.82513350004288
 30
0.0
 40
0.0632155901900191
100
AcDbArc
 50
203.9135879631564
 51
286.1701931802543
  0
ARC
  5
61B
330
1F
100
AcDbEntity
  8
TEXT
100
AcDbCircle
 10
62.85854556222327
 20
14.85277409234881
 30
0.0
 40
0.0892550583413536
100
AcDbArc
 50
261.8576121462839
 51
331.2394802847371
  0
ARC
  5
61C
330
1F
100
AcDbEntity
  8
TEXT
100
AcDbCircle
 10
62.85476051928331
 20
14.86664184816972
 30
0.0
 40
0.0997823954206648
100
AcDbArc
 50
325.2939034707337
 51
356.4132772462207
  0
LINE
  5
61D
330
1F
100
AcDbEntity
  8
TEXT
100
AcDbLine
 10
61.98283505179327
 20
15.7683660548341
 30
0.0
 11
62.23876222592972
 21
15.7683660548341
 31
0.0
  0
ARC
  5
61E
330
1F
100
AcDbEntity
  8
TEXT
100
AcDbCircle
 10
62.12250974850253
 20
15.77377187694236
 30
0.0
 40
0.1163780968250019
100
AcDbArc
 50
357.337623744369
 51
85.63084243886233
  0
ARC
  5
61F
330
1F
100
AcDbEntity
  8
TEXT
100
AcDbCircle
 10
62.08623062436711
 20
15.67453644936489
 30
0.0
 40
0.2199580429721515
100
AcDbArc
 50
78.15621523985547
 51
106.6122408520358
  0
LINE
  5
620
330
1F
100
AcDbEntity
  8
TEXT
100
AcDbLine
 10
61.98283505179327
 20
15.79599655382293
 30
0.0
 11
62.15066669874307
 21
15.79599655382293
 31
0.0
  0
ARC
  5
621
330
1F
100
AcDbEntity
  8
TEXT
100
AcDbCircle
 10
62.06460654734854
 20
15.78002565626846
 30
0.0
 40
0.0833165473002799
100
AcDbArc
 50
103.9179608005984
 51
168.9486088950471
  0
ARC
  5
622
330
1F
100
AcDbEntity
  8
TEXT
100
AcDbCircle
 10
62.08377662799033
 20
15.79810931416932
 30
0.0
 40
0.0669234287942074
100
AcDbArc
 50
358.1908821763629
 51
69.74957583402932
  0
ARC
  5
623
330
1F
100
AcDbEntity
  8
TEXT
100
AcDbCircle
 10
62.07575332872673
 20
15.60690828854535
 30
0.0
 40
0.2558954003259469
100
AcDbArc
 50
82.99970676551479
 51
97.00029323448521
  0
ARC
  5
624
330
1F
100
AcDbEntity
  8
TEXT
100
AcDbCircle
 10
62.07390684425156
 20
15.73456811148168
 30
0.0
 40
0.158998870546006
100
AcDbArc
 50
108.54166133208
 51
149.7652339536172
  0
ARC
  5
625
330
1F
100
AcDbEntity
  8
TEXT
100
AcDbCircle
 10
62.07492446489263
 20
15.72972458314969
 30
0.0
 40
0.1623585295658016
100
AcDbArc
 50
148.4692011102813
 51
195.580236137336
  0
ARC
  5
626
330
1F
100
AcDbEntity
  8
TEXT
100
AcDbCircle
 10
62.07192109596172
 20
15.72488710289625
 30
0.0
 40
0.1582131564781059
100
AcDbArc
 50
194.1847393568171
 51
248.6586767321129
  0
ARC
  5
627
330
1F
100
AcDbEntity
  8
TEXT
100
AcDbCircle
 10
62.13690806259339
 20
15.76647276609338
 30
0.0
 40
0.1540846429702168
100
AcDbArc
 50
179.2959701761241
 51
227.5915484940839
  0
ARC
  5
628
330
1F
100
AcDbEntity
  8
TEXT
100
AcDbCircle
 10
62.10330501103857
 20
15.7390442451462
 30
0.0
 40
0.1113494532984367
100
AcDbArc
 50
230.841648863773
 51
280.5326941523482
  0
ARC
  5
629
330
1F
100
AcDbEntity
  8
TEXT
100
AcDbCircle
 10
62.11785725692878
 20
15.7692147665399
 30
0.0
 40
0.1397643035803596
100
AcDbArc
 50
272.3792098458871
 51
327.358187436322
  0
ARC
  5
62A
330
1F
100
AcDbEntity
  8
TEXT
100
AcDbCircle
 10
62.07653869006094
 20
15.79856322910805
 30
0.0
 40
0.229623822195151
100
AcDbArc
 50
254.2847830849396
 51
294.1819270465994
  0
ARC
  5
62B
330
1F
100
AcDbEntity
  8
TEXT
100
AcDbCircle
 10
62.09517863127127
 20
15.74153730094113
 30
0.0
 40
0.1700851623025346
100
AcDbArc
 50
296.3233923707218
 51
339.8348331475805
  0
ARC
  5
62C
330
1F
100
AcDbEntity
  8
TEXT
100
AcDbCircle
 10
62.24333145384699
 20
15.68507944607808
 30
0.0
 40
0.0117103840719282
100
AcDbArc
 50
349.295202971697
 51
131.6626905469361
  0
ARC
  5
62D
330
1F
100
AcDbEntity
  8
TEXT
100
AcDbCircle
 10
61.74669195200113
 20
15.4041278256403
 30
0.0
 40
0.4907095483080352
100
AcDbArc
 50
84.62122141578795
 51
95.37877858421206
  0
ARC
  5
62E
330
1F
100
AcDbEntity
  8
TEXT
100
AcDbCircle
 10
61.77611535749925
 20
15.78078763862554
 30
0.0
 40
0.1131101223298433
100
AcDbArc
 50
43.1676186731902
 51
81.57335966331341
  0
ARC
  5
62F
330
1F
100
AcDbEntity
  8
TEXT
100
AcDbCircle
 10
61.81934673545242
 20
15.82864318548059
 30
0.0
 40
0.0491291474896721
100
AcDbArc
 50
321.1558234807585
 51
36.94217904230099
  0
ARC
  5
630
330
1F
100
AcDbEntity
  8
TEXT
100
AcDbCircle
 10
61.82867708980109
 20
15.8353088051271
 30
0.0
 40
0.0473487724501756
100
AcDbArc
 50
205.1359642899004
 51
307.6679722285764
  0
ARC
  5
631
330
1F
100
AcDbEntity
  8
TEXT
100
AcDbCircle
 10
61.83856835379781
 20
15.83632445969704
 30
0.0
 40
0.0568296247130189
100
AcDbArc
 50
180.010674400693
 51
201.8251852718022
  0
ARC
  5
632
330
1F
100
AcDbEntity
  8
TEXT
100
AcDbCircle
 10
61.72585846349557
 20
15.81953108020846
 30
0.0
 40
0.0583460906801302
100
AcDbArc
 50
16.71684440730488
 51
45.97719400399777
  0
ARC
  5
633
330
1F
100
AcDbEntity
  8
TEXT
100
AcDbCircle
 10
61.73590479983626
 20
15.3879870295562
 30
0.0
 40
0.4744799405714659
100
AcDbArc
 50
86.31431733544657
 51
93.90381943516564
  0
ARC
  5
634
330
1F
100
AcDbEntity
  8
TEXT
100
AcDbCircle
 10
61.71880296420065
 20
15.74656769879021
 30
0.0
 40
0.14722702539293
100
AcDbArc
 50
97.06566064011505
 51
142.4986334312258
  0
ARC
  5
635
330
1F
100
AcDbEntity
  8
TEXT
100
AcDbCircle
 10
61.71747057699814
 20
15.72355249445664
 30
0.0
 40
0.1613123666391934
100
AcDbArc
 50
135.7093780000635
 51
195.2317137751546
  0
ARC
  5
636
330
1F
100
AcDbEntity
  8
TEXT
100
AcDbCircle
 10
61.70221331018982
 20
15.71866056263786
 30
0.0
 40
0.1453075872224338
100
AcDbArc
 50
194.951106148765
 51
259.6103135862126
  0
ARC
  5
637
330
1F
100
AcDbEntity
  8
TEXT
100
AcDbCircle
 10
61.72541884530691
 20
15.72457072314822
 30
0.0
 40
0.1568226644178304
100
AcDbArc
 50
251.6347706403311
 51
316.4182924463649
  0
ARC
  5
638
330
1F
100
AcDbEntity
  8
TEXT
100
AcDbCircle
 10
61.70570717190354
 20
15.774128164827
 30
0.0
 40
0.2064748233759345
100
AcDbArc
 50
310.2152586008206
 51
331.3072507285898
  0
ARC
  5
639
330
1F
100
AcDbEntity
  8
TEXT
100
AcDbCircle
 10
61.76534819649657
 20
15.74210314222404
 30
0.0
 40
0.1342993484905918
100
AcDbArc
 50
117.3722826858103
 51
160.0902491401811
  0
ARC
  5
63A
330
1F
100
AcDbEntity
  8
TEXT
100
AcDbCircle
 10
61.78269540490768
 20
15.75479372606078
 30
0.0
 40
0.1473717983675226
100
AcDbArc
 50
167.0430028911431
 51
212.1309371309445
  0
ARC
  5
63B
330
1F
100
AcDbEntity
  8
TEXT
100
AcDbCircle
 10
61.75121377945271
 20
15.73735367640313
 30
0.0
 40
0.1114539642672151
100
AcDbArc
 50
213.1462108998125
 51
285.6537258536394
  0
ARC
  5
63C
330
1F
100
AcDbEntity
  8
TEXT
100
AcDbCircle
 10
61.75222673101586
 20
15.76486405926312
 30
0.0
 40
0.1379265918005626
100
AcDbArc
 50
282.1628426667851
 51
326.5593609179329
  0
ARC
  5
63D
330
1F
100
AcDbEntity
  8
TEXT
100
AcDbCircle
 10
61.87152660766439
 20
15.67411794048331
 30
0.0
 40
0.0153269406904126
100
AcDbArc
 50
3.288025410275707
 51
105.9275278804377
  0
LINE
  5
63E
330
1F
100
AcDbEntity
  8
TEXT
100
AcDbLine
 10
61.14919939122025
 20
16.22278676480795
 30
0.0
 11
61.1542075744872
 21
15.8124115147952
 31
0.0
  0
LINE
  5
63F
330
1F
100
AcDbEntity
  8
TEXT
100
AcDbLine
 10
61.18926485735531
 20
16.17274099286371
 30
0.0
 11
61.1917689489887
 21
15.8124115147952
 31
0.0
  0
ARC
  5
640
330
1F
100
AcDbEntity
  8
TEXT
100
AcDbCircle
 10
61.1729882617379
 20
15.81172268839478
 30
0.0
 40
0.01879331517915
100
AcDbArc
 50
177.899482485688
 51
2.100517514311918
  0
LINE
  5
641
330
1F
100
AcDbEntity
  8
TEXT
100
AcDbLine
 10
61.27535936880704
 20
16.15464504115641
 30
0.0
 11
61.27535936880704
 21
15.52733235411662
 31
0.0
  0
LINE
  5
642
330
1F
100
AcDbEntity
  8
TEXT
100
AcDbLine
 10
61.45726850945888
 20
16.15464504115641
 30
0.0
 11
61.45726850945888
 21
15.52733235411662
 31
0.0
  0
ARC
  5
643
330
1F
100
AcDbEntity
  8
TEXT
100
AcDbCircle
 10
61.20750599006171
 20
16.17186481930346
 30
0.0
 40
0.0182621631391169
100
AcDbArc
 50
38.2038185185628
 51
177.2500340797979
  0
LINE
  5
644
330
1F
100
AcDbEntity
  8
TEXT
100
AcDbLine
 10
61.22185668415522
 20
16.18315925074355
 30
0.0
 11
61.27535936880704
 21
16.15464504115641
 31
0.0
  0
LINE
  5
645
330
1F
100
AcDbEntity
  8
TEXT
100
AcDbLine
 10
61.51077119411066
 20
16.18315925074355
 30
0.0
 11
61.45726850945888
 21
16.15464504115641
 31
0.0
  0
LINE
  5
646
330
1F
100
AcDbEntity
  8
TEXT
100
AcDbLine
 10
61.54336302091064
 20
16.17274099286371
 30
0.0
 11
61.54315673244827
 21
16.14305684992553
 31
0.0
  0
LINE
  5
647
330
1F
100
AcDbEntity
  8
TEXT
100
AcDbLine
 10
61.58342848704567
 20
16.22278676480795
 30
0.0
 11
61.58245547021389
 21
16.14305684992553
 31
0.0
  0
ARC
  5
648
330
1F
100
AcDbEntity
  8
TEXT
100
AcDbCircle
 10
61.52512188820427
 20
16.17186481930346
 30
0.0
 40
0.0182621631391169
100
AcDbArc
 50
2.7499659202021
 51
141.7961814814372
  0
ARC
  5
649
330
1F
100
AcDbEntity
  8
TEXT
100
AcDbCircle
 10
61.56280610133106
 20
16.13007513669839
 30
0.0
 40
0.0235504262340973
100
AcDbArc
 50
146.5485285753433
 51
33.45147142465565
  0
ARC
  5
64A
330
1F
100
AcDbEntity
  8
TEXT
100
AcDbCircle
 10
63.41374799075309
 20
14.84801746491939
 30
0.0
 40
0.0117103840719282
100
AcDbArc
 50
349.295202971697
 51
131.6626905469361
  0
ARC
  5
64B
330
1F
100
AcDbEntity
  8
TEXT
100
AcDbCircle
 10
63.26559516817752
 20
14.90447531978238
 30
0.0
 40
0.1700851623025346
100
AcDbArc
 50
296.3233923707218
 51
339.8348331475805
  0
ARC
  5
64C
330
1F
100
AcDbEntity
  8
TEXT
100
AcDbCircle
 10
63.2469552269671
 20
14.96150124794943
 30
0.0
 40
0.229623822195151
100
AcDbArc
 50
254.2847830849396
 51
294.1819270465994
  0
ARC
  5
64D
330
1F
100
AcDbEntity
  8
TEXT
100
AcDbCircle
 10
63.28827379383497
 20
14.93215278538116
 30
0.0
 40
0.1397643035803596
100
AcDbArc
 50
272.3792098458871
 51
327.358187436322
  0
ARC
  5
64E
330
1F
100
AcDbEntity
  8
TEXT
100
AcDbCircle
 10
63.27372154794474
 20
14.90198226398752
 30
0.0
 40
0.1113494532984367
100
AcDbArc
 50
230.841648863773
 51
280.5326941523482
  0
ARC
  5
64F
330
1F
100
AcDbEntity
  8
TEXT
100
AcDbCircle
 10
63.30732459949951
 20
14.92941078493467
 30
0.0
 40
0.1540846429702168
100
AcDbArc
 50
179.2959701761241
 51
227.5915484940839
  0
ARC
  5
650
330
1F
100
AcDbEntity
  8
TEXT
100
AcDbCircle
 10
63.24233763286795
 20
14.88782512173752
 30
0.0
 40
0.1582131564781059
100
AcDbArc
 50
194.1847393568171
 51
248.6586767321129
  0
ARC
  5
651
330
1F
100
AcDbEntity
  8
TEXT
100
AcDbCircle
 10
63.24534100179897
 20
14.89266260199099
 30
0.0
 40
0.1623585295658016
100
AcDbArc
 50
148.4692011102813
 51
195.580236137336
  0
ARC
  5
652
330
1F
100
AcDbEntity
  8
TEXT
100
AcDbCircle
 10
63.24432338115772
 20
14.89750613032299
 30
0.0
 40
0.158998870546006
100
AcDbArc
 50
108.54166133208
 51
149.7652339536172
  0
ARC
  5
653
330
1F
100
AcDbEntity
  8
TEXT
100
AcDbCircle
 10
63.24616986563296
 20
14.76984630738664
 30
0.0
 40
0.2558954003259469
100
AcDbArc
 50
82.99970676551479
 51
97.00029323448521
  0
ARC
  5
654
330
1F
100
AcDbEntity
  8
TEXT
100
AcDbCircle
 10
63.25419316489657
 20
14.96104733301064
 30
0.0
 40
0.0669234287942074
100
AcDbArc
 50
358.1908821763629
 51
69.74957583402932
  0
ARC
  5
655
330
1F
100
AcDbEntity
  8
TEXT
100
AcDbCircle
 10
63.23502308425474
 20
14.94296367510978
 30
0.0
 40
0.0833165473002799
100
AcDbArc
 50
103.9179608005984
 51
168.9486088950471
  0
LINE
  5
656
330
1F
100
AcDbEntity
  8
TEXT
100
AcDbLine
 10
63.1532515886995
 20
14.95893457266425
 30
0.0
 11
63.32108323564932
 21
14.95893457266425
 31
0.0
  0
ARC
  5
657
330
1F
100
AcDbEntity
  8
TEXT
100
AcDbCircle
 10
63.25664716127327
 20
14.83747446820619
 30
0.0
 40
0.2199580429721515
100
AcDbArc
 50
78.15621523985547
 51
106.6122408520358
  0
ARC
  5
658
330
1F
100
AcDbEntity
  8
TEXT
100
AcDbCircle
 10
63.29292628540878
 20
14.93670989578368
 30
0.0
 40
0.1163780968250019
100
AcDbArc
 50
357.337623744369
 51
85.63084243886233
  0
LINE
  5
659
330
1F
100
AcDbEntity
  8
TEXT
100
AcDbLine
 10
63.1532515886995
 20
14.93130407367533
 30
0.0
 11
63.40917876283583
 21
14.93130407367533
 31
0.0
  0
ARC
  5
65A
330
1F
100
AcDbEntity
  8
TEXT
100
AcDbCircle
 10
61.28894305451839
 20
15.4888837273627
 30
0.0
 40
0.0407776092576585
100
AcDbArc
 50
109.4580308571273
 51
191.0341765876988
  0
ARC
  5
65B
330
1F
100
AcDbEntity
  8
TEXT
100
AcDbCircle
 10
61.23682288690989
 20
15.47880113489512
 30
0.0
 40
0.0123090310911083
100
AcDbArc
 50
155.9249042338167
 51
10.66497725508789
  0
ARC
  5
65C
330
1F
100
AcDbEntity
  8
TEXT
100
AcDbCircle
 10
61.20261660391125
 20
15.46919823672559
 30
0.0
 40
0.027228570195322
100
AcDbArc
 50
32.48569494743556
 51
175.1979664789355
  0
ARC
  5
65D
330
1F
100
AcDbEntity
  8
TEXT
100
AcDbCircle
 10
61.16636637517672
 20
15.46713534297706
 30
0.0
 40
0.0100984845465633
100
AcDbArc
 50
158.7719549350966
 51
25.46716058583896
  0
ARC
  5
65E
330
1F
100
AcDbEntity
  8
TEXT
100
AcDbCircle
 10
61.1427401079619
 20
15.47378160982671
 30
0.0
 40
0.0145240565378189
100
AcDbArc
 50
348.1206509806764
 51
136.2651890953772
  0
ARC
  5
65F
330
1F
100
AcDbEntity
  8
TEXT
100
AcDbCircle
 10
61.14099634826035
 20
15.46612878951926
 30
0.0
 40
0.0197392048879991
100
AcDbArc
 50
116.3151684036786
 51
258.4674100382152
  0
ARC
  5
660
330
1F
100
AcDbEntity
  8
TEXT
100
AcDbCircle
 10
61.14773764479398
 20
15.43665200625409
 30
0.0
 40
0.0147297814318492
100
AcDbArc
 50
356.7423630506751
 51
136.5172760690071
  0
ARC
  5
661
330
1F
100
AcDbEntity
  8
TEXT
100
AcDbCircle
 10
61.16768210699472
 20
15.42811163301311
 30
0.0
 40
0.0093157478187114
100
AcDbArc
 50
124.2167745950176
 51
319.7988197133695
  0
ARC
  5
662
330
1F
100
AcDbEntity
  8
TEXT
100
AcDbCircle
 10
61.20498926037197
 20
15.41126615000982
 30
0.0
 40
0.0320763905344257
100
AcDbArc
 50
160.2627782819661
 51
255.1333022011724
  0
ARC
  5
663
330
1F
100
AcDbEntity
  8
TEXT
100
AcDbCircle
 10
61.20476983527503
 20
15.38342140234158
 30
0.0
 40
0.0086104355870277
100
AcDbArc
 50
201.5154657473999
 51
41.96660508022691
  0
ARC
  5
664
330
1F
100
AcDbEntity
  8
TEXT
100
AcDbCircle
 10
61.23476215427452
 20
15.40477732509777
 30
0.0
 40
0.0282806985574306
100
AcDbArc
 50
121.2424246402128
 51
213.4732397083751
  0
ARC
  5
665
330
1F
100
AcDbEntity
  8
TEXT
100
AcDbCircle
 10
61.22795410203668
 20
15.41510253914529
 30
0.0
 40
0.0159285791135409
100
AcDbArc
 50
332.2921775479048
 51
119.5678571759902
  0
ARC
  5
666
330
1F
100
AcDbEntity
  8
TEXT
100
AcDbCircle
 10
61.23093938478564
 20
15.38151807434781
 30
0.0
 40
0.0284408889038535
100
AcDbArc
 50
312.9867785858863
 51
66.99118422926642
  0
ARC
  5
667
330
1F
100
AcDbEntity
  8
TEXT
100
AcDbCircle
 10
61.35342005629607
 20
15.16117218850212
 30
0.0
 40
0.2245972894006612
100
AcDbArc
 50
117.3222180892419
 51
179.3383492613259
  0
ARC
  5
668
330
1F
100
AcDbEntity
  8
TEXT
100
AcDbCircle
 10
62.07823446981875
 20
15.08758144989031
 30
0.0
 40
0.9524485275611557
100
AcDbArc
 50
175.4121316267021
 51
191.7939289657072
  0
ARC
  5
669
330
1F
100
AcDbEntity
  8
TEXT
100
AcDbCircle
 10
61.14403217297937
 20
14.84943108898872
 30
0.0
 40
0.0435169918123613
100
AcDbArc
 50
15.17145974978904
 51
87.54918714297627
  0
ARC
  5
66A
330
1F
100
AcDbEntity
  8
TEXT
100
AcDbCircle
 10
65.07282627294124
 20
14.72824359550523
 30
0.0
 40
3.889054198819366
100
AcDbArc
 50
178.0464319449978
 51
181.7502526685598
  0
LINE
  5
66B
330
1F
100
AcDbEntity
  8
TEXT
100
AcDbLine
 10
61.22724624922594
 20
14.80193902343273
 30
0.0
 11
61.22568645059567
 21
14.61411918976691
 31
0.0
  0
ARC
  5
66C
330
1F
100
AcDbEntity
  8
TEXT
100
AcDbCircle
 10
61.2337567013057
 20
14.80333144514085
 30
0.0
 40
0.0066576891258519
100
AcDbArc
 50
333.687900136725
 51
192.0722457553363
  0
LINE
  5
66D
330
1F
100
AcDbEntity
  8
TEXT
100
AcDbLine
 10
61.23972460617938
 20
14.80038035450909
 30
0.0
 11
61.23972460617938
 21
14.77232427582231
 31
0.0
  0
ARC
  5
66E
330
1F
100
AcDbEntity
  8
TEXT
100
AcDbCircle
 10
61.24854435303655
 20
14.77435831692162
 30
0.0
 40
0.0090512572507659
100
AcDbArc
 50
192.9866902548905
 51
33.38063139741199
  0
ARC
  5
66F
330
1F
100
AcDbEntity
  8
TEXT
100
AcDbCircle
 10
61.27214856469064
 20
14.76884247307478
 30
0.0
 40
0.0191739399471996
100
AcDbArc
 50
17.66955929970645
 51
146.8111142491887
  0
ARC
  5
670
330
1F
100
AcDbEntity
  8
TEXT
100
AcDbCircle
 10
61.33221887540873
 20
14.79819689522688
 30
0.0
 40
0.0479707922770595
100
AcDbArc
 50
209.3802246625986
 51
263.8421008682747
  0
LINE
  5
671
330
1F
100
AcDbEntity
  8
TEXT
100
AcDbLine
 10
61.32707310485285
 20
14.75050289186086
 30
0.0
 11
61.33175246865437
 21
14.68503870191478
 31
0.0
  0
ARC
  5
672
330
1F
100
AcDbEntity
  8
TEXT
100
AcDbCircle
 10
61.35148530661922
 20
14.68228148267852
 30
0.0
 40
0.0199245364327408
100
AcDbArc
 50
172.045705651638
 51
14.81661014794028
  0
LINE
  5
673
330
1F
100
AcDbEntity
  8
TEXT
100
AcDbLine
 10
61.37074733814483
 20
14.68737670530021
 30
0.0
 11
61.37386693540552
 21
14.71465344952517
 31
0.0
  0
ARC
  5
674
330
1F
100
AcDbEntity
  8
TEXT
100
AcDbCircle
 10
61.38097384065929
 20
14.71548384445299
 30
0.0
 40
0.0071552538754801
100
AcDbArc
 50
318.6510821797591
 51
186.6644145786489
  0
LINE
  5
675
330
1F
100
AcDbEntity
  8
TEXT
100
AcDbLine
 10
61.38634529235885
 20
14.71075677721614
 30
0.0
 11
61.39024475684546
 21
14.67490735391129
 31
0.0
  0
ARC
  5
676
330
1F
100
AcDbEntity
  8
TEXT
100
AcDbCircle
 10
61.40359560409203
 20
14.67214665380776
 30
0.0
 40
0.0136332896713744
100
AcDbArc
 50
168.3169857564297
 51
15.049952114518
  0
LINE
  5
677
330
1F
100
AcDbEntity
  8
TEXT
100
AcDbLine
 10
61.41676126938246
 20
14.6756866883731
 30
0.0
 11
61.41676126938246
 21
14.7053014359835
 31
0.0
  0
ARC
  5
678
330
1F
100
AcDbEntity
  8
TEXT
100
AcDbCircle
 10
61.4345242432206
 20
14.68988795304955
 30
0.0
 40
0.0235180504236815
100
AcDbArc
 50
65.19241843010743
 51
139.0508106988785
  0
ARC
  5
679
330
1F
100
AcDbEntity
  8
TEXT
100
AcDbCircle
 10
61.4496779725459
 20
14.68841388995595
 30
0.0
 40
0.0234261343462928
100
AcDbArc
 50
7.606980527162062
 51
103.0413594591621
  0
LINE
  5
67A
330
1F
100
AcDbEntity
  8
TEXT
100
AcDbLine
 10
61.4728979433153
 20
14.69151497490821
 30
0.0
 11
61.48276544740167
 21
14.55566035091667
 31
0.0
  0
LINE
  5
67B
330
1F
100
AcDbEntity
  8
TEXT
100
AcDbLine
 10
61.52552471734722
 20
14.56004274893371
 30
0.0
 11
61.52881390676885
 21
14.66741172872186
 31
0.0
  0
ARC
  5
67C
330
1F
100
AcDbEntity
  8
TEXT
100
AcDbCircle
 10
61.54068458119581
 20
14.67064661015118
 30
0.0
 40
0.0123035510813906
100
AcDbArc
 50
5.351678383090643
 51
195.2435488026418
  0
LINE
  5
67D
330
1F
100
AcDbEntity
  8
TEXT
100
AcDbLine
 10
61.58582626669627
 20
14.65097770761159
 30
0.0
 11
61.58801905964409
 21
14.58305038610044
 31
0.0
  0
ARC
  5
67E
330
1F
100
AcDbEntity
  8
TEXT
100
AcDbCircle
 10
61.64786039523997
 20
14.63563927649021
 30
0.0
 40
0.0114765302669724
100
AcDbArc
 50
354.5219056877808
 51
214.9448543763832
  0
ARC
  5
67F
330
1F
100
AcDbEntity
  8
TEXT
100
AcDbCircle
 10
61.67961733801343
 20
14.6337582142675
 30
0.0
 40
0.0203479937566573
100
AcDbArc
 50
177.787775166229
 51
326.3805826419359
  0
ARC
  5
680
330
1F
100
AcDbEntity
  8
TEXT
100
AcDbCircle
 10
61.88985801072124
 20
14.65803218201066
 30
0.0
 40
0.0111291801524296
100
AcDbArc
 50
144.5711585108379
 51
21.75301147886945
  0
LINE
  5
681
330
1F
100
AcDbEntity
  8
TEXT
100
AcDbLine
 10
61.90019468278986
 20
14.66215672579301
 30
0.0
 11
61.90097089183092
 21
14.7211059148604
 31
0.0
  0
ARC
  5
682
330
1F
100
AcDbEntity
  8
TEXT
100
AcDbCircle
 10
61.88988335944982
 20
14.71438286503525
 30
0.0
 40
0.012966602224679
100
AcDbArc
 50
31.23099864076826
 51
160.1819529381845
  0
ARC
  5
683
330
1F
100
AcDbEntity
  8
TEXT
100
AcDbCircle
 10
61.93255363175754
 20
14.69468019302181
 30
0.0
 40
0.0599278709342396
100
AcDbArc
 50
156.2885975497962
 51
210.2571046136432
  0
ARC
  5
684
330
1F
100
AcDbEntity
  8
TEXT
100
AcDbCircle
 10
62.10210403044658
 20
14.59992740449932
 30
0.0
 40
0.0370003338799243
100
AcDbArc
 50
341.5477100758335
 51
84.99888070834156
  0
ARC
  5
685
330
1F
100
AcDbEntity
  8
TEXT
100
AcDbCircle
 10
62.11821314760753
 20
14.55698906169638
 30
0.0
 40
0.0808311744773
100
AcDbArc
 50
99.17143729878524
 51
127.7955283290937
  0
ARC
  5
686
330
1F
100
AcDbEntity
  8
TEXT
100
AcDbCircle
 10
61.96139172911657
 20
14.62903020018227
 30
0.0
 40
0.0089618991842626
100
AcDbArc
 50
312.7998628402736
 51
120.0581864533373
  0
ARC
  5
687
330
1F
100
AcDbEntity
  8
TEXT
100
AcDbCircle
 10
61.96221992370793
 20
14.65647493769316
 30
0.0
 40
0.0203933920348114
100
AcDbArc
 50
129.1527393458021
 51
254.8870408388505
  0
ARC
  5
688
330
1F
100
AcDbEntity
  8
TEXT
100
AcDbCircle
 10
61.88437866683146
 20
14.72179604847829
 30
0.0
 40
0.081678504732669
100
AcDbArc
 50
322.6907301981535
 51
8.220255073942626
  0
ARC
  5
689
330
1F
100
AcDbEntity
  8
TEXT
100
AcDbCircle
 10
61.97260862663426
 20
14.74058994481031
 30
0.0
 40
0.0102593043086856
100
AcDbArc
 50
89.05883162362073
 51
223.9137905963005
  0
ARC
  5
68A
330
1F
100
AcDbEntity
  8
TEXT
100
AcDbCircle
 10
61.76769786861587
 20
14.98177600734092
 30
0.0
 40
0.3088451324788408
100
AcDbArc
 50
311.6071689301101
 51
318.3515702307968
  0
ARC
  5
68B
330
1F
100
AcDbEntity
  8
TEXT
100
AcDbCircle
 10
61.97142102147036
 20
14.74631564622692
 30
0.0
 40
0.0784630930987024
100
AcDbArc
 50
337.3510782224609
 51
22.6489217775391
  0
ARC
  5
68C
330
1F
100
AcDbEntity
  8
TEXT
100
AcDbCircle
 10
62.09953700997189
 20
14.70574501842529
 30
0.0
 40
0.0566582669876825
100
AcDbArc
 50
169.4684867573186
 51
223.1418439421426
  0
ARC
  5
68D
330
1F
100
AcDbEntity
  8
TEXT
100
AcDbCircle
 10
62.05070126832335
 20
14.69953751519979
 30
0.0
 40
0.0333877706603121
100
AcDbArc
 50
282.9712622283036
 51
25.35441378639511
  0
ARC
  5
68E
330
1F
100
AcDbEntity
  8
TEXT
100
AcDbCircle
 10
62.43082117950876
 20
14.77925681784955
 30
0.0
 40
0.3560109243679355
100
AcDbArc
 50
179.4662202071271
 51
190.5890997840366
  0
ARC
  5
68F
330
1F
100
AcDbEntity
  8
TEXT
100
AcDbCircle
 10
61.81380704759877
 20
15.09299869276529
 30
0.0
 40
0.3595101842156151
100
AcDbArc
 50
317.9732863042377
 51
40.61894937560242
  0
ARC
  5
690
330
1F
100
AcDbEntity
  8
TEXT
100
AcDbCircle
 10
62.05235938003273
 20
15.28463093522652
 30
0.0
 40
0.0545733356691806
100
AcDbArc
 50
51.01090143870932
 51
107.577946053111
  0
ARC
  5
691
330
1F
100
AcDbEntity
  8
TEXT
100
AcDbCircle
 10
61.95872255654743
 20
15.34099792657639
 30
0.0
 40
0.077277583972652
100
AcDbArc
 50
356.7791343814141
 51
50.82801334298964
  0
ARC
  5
692
330
1F
100
AcDbEntity
  8
TEXT
100
AcDbCircle
 10
61.9781300303396
 20
15.25445918381376
 30
0.0
 40
0.1493713489065408
100
AcDbArc
 50
78.6467194011529
 51
92.8865786316482
  0
ARC
  5
693
330
1F
100
AcDbEntity
  8
TEXT
100
AcDbCircle
 10
61.96127573215704
 20
15.42213191901959
 30
0.0
 40
0.0207123644663823
100
AcDbArc
 50
296.7794474250819
 51
150.4674482996606
  0
ARC
  5
694
330
1F
100
AcDbEntity
  8
TEXT
100
AcDbCircle
 10
61.92807935691138
 20
15.45172031171108
 30
0.0
 40
0.0246134863760535
100
AcDbArc
 50
174.1982733486935
 51
308.0634596483613
  0
ARC
  5
695
330
1F
100
AcDbEntity
  8
TEXT
100
AcDbCircle
 10
61.85788630577826
 20
15.4140930973985
 30
0.0
 40
0.0608131822108023
100
AcDbArc
 50
41.27304036069129
 51
94.61991284103847
  0
ARC
  5
696
330
1F
100
AcDbEntity
  8
TEXT
100
AcDbCircle
 10
61.833537029325
 20
15.46898845164074
 30
0.0
 40
0.0202747336033507
100
AcDbArc
 50
136.6395135700791
 51
16.38775991618311
  0
ARC
  5
697
330
1F
100
AcDbEntity
  8
TEXT
100
AcDbCircle
 10
61.80227060599865
 20
15.46480001734302
 30
0.0
 40
0.024515859294814
100
AcDbArc
 50
47.61705801860753
 51
152.6179806585991
  0
ARC
  5
698
330
1F
100
AcDbEntity
  8
TEXT
100
AcDbCircle
 10
61.75186694114788
 20
15.46286997216094
 30
0.0
 40
0.0315328603437109
100
AcDbArc
 50
24.75773987532815
 51
121.5483884163394
  0
ARC
  5
699
330
1F
100
AcDbEntity
  8
TEXT
100
AcDbCircle
 10
61.7114341151019
 20
15.48060603023794
 30
0.0
 40
0.0256187149171304
100
AcDbArc
 50
20.89289471578149
 51
159.1071052842185
  0
ARC
  5
69A
330
1F
100
AcDbEntity
  8
TEXT
100
AcDbCircle
 10
61.67473729511574
 20
15.49329842796621
 30
0.0
 40
0.0132487620113812
100
AcDbArc
 50
183.5606974541693
 51
344.4298925613472
  0
ARC
  5
69B
330
1F
100
AcDbEntity
  8
TEXT
100
AcDbCircle
 10
61.63408812923603
 20
15.46363906015798
 30
0.0
 40
0.0397961115152228
100
AcDbArc
 50
46.43616582623992
 51
130.6283095026665
  0
ARC
  5
69C
330
1F
100
AcDbEntity
  8
TEXT
100
AcDbCircle
 10
61.59381437837223
 20
15.48955459774879
 30
0.0
 40
0.0149869804469204
100
AcDbArc
 50
163.3756550464639
 51
16.62434495352996
  0
ARC
  5
69D
330
1F
100
AcDbEntity
  8
TEXT
100
AcDbCircle
 10
61.53717217852994
 20
15.37732849403466
 30
0.0
 40
0.1239484046622442
100
AcDbArc
 50
70.05468846035585
 51
100.2232656721042
  0
ARC
  5
69E
330
1F
100
AcDbEntity
  8
TEXT
100
AcDbCircle
 10
61.50491573995973
 20
15.4331632300657
 30
0.0
 40
0.0669364329326279
100
AcDbArc
 50
81.18509483549695
 51
120.0392913824104
  0
ARC
  5
69F
330
1F
100
AcDbEntity
  8
TEXT
100
AcDbCircle
 10
61.45512570417231
 20
15.50562469923997
 30
0.0
 40
0.0218131587519921
100
AcDbArc
 50
318.2823815987277
 51
84.36248438139953
  0
ARC
  5
6A0
330
1F
100
AcDbEntity
  8
TEXT
100
AcDbCircle
 10
61.35698386458821
 20
15.40864681154875
 30
0.0
 40
0.0313698805188913
100
AcDbArc
 50
35.60679995345996
 51
177.5845513854531
  0
LINE
  5
6A1
330
1F
100
AcDbEntity
  8
TEXT
100
AcDbLine
 10
61.38248857087302
 20
15.42691096663725
 30
0.0
 11
61.38049396168813
 21
15.39800978269187
 31
0.0
  0
LINE
  5
6A2
330
1F
100
AcDbEntity
  8
TEXT
100
AcDbLine
 10
61.32564185611773
 20
15.40996889657114
 30
0.0
 11
61.32464455152538
 21
15.33522445861425
 31
0.0
  0
ARC
  5
6A3
330
1F
100
AcDbEntity
  8
TEXT
100
AcDbCircle
 10
61.45122553043785
 20
15.27885943550501
 30
0.0
 40
0.1385631987669811
100
AcDbArc
 50
120.6947626763568
 51
155.9971516553458
  0
ARC
  5
6A4
330
1F
100
AcDbEntity
  8
TEXT
100
AcDbCircle
 10
61.40024496516343
 20
15.31728135313622
 30
0.0
 40
0.0257804740434337
100
AcDbArc
 50
218.6904014524234
 51
353.6659411500747
  0
ARC
  5
6A5
330
1F
100
AcDbEntity
  8
TEXT
100
AcDbCircle
 10
61.3860019195836
 20
15.27705111531178
 30
0.0
 40
0.0248209709503933
100
AcDbArc
 50
103.7022990326946
 51
207.0193065629239
  0
ARC
  5
6A6
330
1F
100
AcDbEntity
  8
TEXT
100
AcDbCircle
 10
61.75432699192008
 20
15.07142917037549
 30
0.0
 40
0.4361322738821956
100
AcDbArc
 50
153.5374647244097
 51
193.3327646348718
  0
ARC
  5
6A7
330
1F
100
AcDbEntity
  8
TEXT
100
AcDbCircle
 10
61.24582106171263
 20
14.91408209525983
 30
0.0
 40
0.1014924691429614
100
AcDbArc
 50
346.9852122362349
 51
34.01252680042681
  0
ARC
  5
6A8
330
1F
100
AcDbEntity
  8
TEXT
100
AcDbCircle
 10
61.33069510730573
 20
14.84689068448594
 30
0.0
 40
0.0464963731115168
100
AcDbArc
 50
345.4259909574683
 51
72.46181126870012
  0
ARC
  5
6A9
330
1F
100
AcDbEntity
  8
TEXT
100
AcDbCircle
 10
61.37907468080071
 20
14.74713878856508
 30
0.0
 40
0.0881168192666273
100
AcDbArc
 50
18.24878221232023
 51
92.19784172829085
  0
ARC
  5
6AA
330
1F
100
AcDbEntity
  8
TEXT
100
AcDbCircle
 10
61.47339460861843
 20
14.77001024132394
 30
0.0
 40
0.0116359637404793
100
AcDbArc
 50
156.0593073728629
 51
8.762281217120262
  0
ARC
  5
6AB
330
1F
100
AcDbEntity
  8
TEXT
100
AcDbCircle
 10
61.49849866190431
 20
14.76694113666292
 30
0.0
 40
0.0144397966209788
100
AcDbArc
 50
1.658272028068489
 51
160.4091839300748
  0
ARC
  5
6AC
330
1F
100
AcDbEntity
  8
TEXT
100
AcDbCircle
 10
61.55281234896304
 20
14.79506951686882
 30
0.0
 40
0.0485621480337434
100
AcDbArc
 50
214.7934494581952
 51
299.0409507876109
  0
ARC
  5
6AD
330
1F
100
AcDbEntity
  8
TEXT
100
AcDbCircle
 10
61.60742061797376
 20
14.78158406781719
 30
0.0
 40
0.0424554778522734
100
AcDbArc
 50
223.0305625061273
 51
311.2487591160724
  0
ARC
  5
6AE
330
1F
100
AcDbEntity
  8
TEXT
100
AcDbCircle
 10
61.65948927222398
 20
14.75604958973218
 30
0.0
 40
0.0249089758006173
100
AcDbArc
 50
194.8546182240432
 51
330.4510994340803
  0
ARC
  5
6AF
330
1F
100
AcDbEntity
  8
TEXT
100
AcDbCircle
 10
61.69886646956053
 20
14.68427988306902
 30
0.0
 40
0.0620652172018059
100
AcDbArc
 50
33.67851647490052
 51
106.5775508010124
  0
ARC
  5
6B0
330
1F
100
AcDbEntity
  8
TEXT
100
AcDbCircle
 10
61.76822279628609
 20
14.75510532237271
 30
0.0
 40
0.0404862327792559
100
AcDbArc
 50
244.0629515517946
 51
24.32612031264045
  0
ARC
  5
6B1
330
1F
100
AcDbEntity
  8
TEXT
100
AcDbCircle
 10
61.86205644659449
 20
14.98041457411196
 30
0.0
 40
0.1053902326850257
100
AcDbArc
 50
300.6537348898141
 51
16.68245916376097
  0
ARC
  5
6B2
330
1F
100
AcDbEntity
  8
TEXT
100
AcDbCircle
 10
61.65790232964869
 20
15.09304215499983
 30
0.0
 40
0.3160325950968135
100
AcDbArc
 50
344.8914411173232
 51
24.5772337482202
  0
ARC
  5
6B3
330
1F
100
AcDbEntity
  8
TEXT
100
AcDbCircle
 10
62.00820628152013
 20
15.25626898468735
 30
0.0
 40
0.0704768442796327
100
AcDbArc
 50
155.9906329013512
 51
206.8057304576939
  0
ARC
  5
6B4
330
1F
100
AcDbEntity
  8
TEXT
100
AcDbCircle
 10
61.93337028652135
 20
15.28436154356743
 30
0.0
 40
0.0104731474743358
100
AcDbArc
 50
3.193725348484568
 51
193.0548754998616
  0
ARC
  5
6B5
330
1F
100
AcDbEntity
  8
TEXT
100
AcDbCircle
 10
61.90914898844326
 20
15.26616232122009
 30
0.0
 40
0.0211477580085499
100
AcDbArc
 50
131.5213803610225
 51
48.47861963898633
  0
ARC
  5
6B6
330
1F
100
AcDbEntity
  8
TEXT
100
AcDbCircle
 10
61.83906197028486
 20
15.31195386323938
 30
0.0
 40
0.0635698425205896
100
AcDbArc
 50
331.8837666959814
 51
33.32508059324367
  0
ARC
  5
6B7
330
1F
100
AcDbEntity
  8
TEXT
100
AcDbCircle
 10
61.87803545393234
 20
15.34296548595088
 30
0.0
 40
0.0146746745556311
100
AcDbArc
 50
15.46471151433603
 51
237.0036058083551
  0
ARC
  5
6B8
330
1F
100
AcDbEntity
  8
TEXT
100
AcDbCircle
 10
61.8500788606541
 20
15.32138541013424
 30
0.0
 40
0.0220130980994601
100
AcDbArc
 50
124.5991194751616
 51
24.91162951380548
  0
ARC
  5
6B9
330
1F
100
AcDbEntity
  8
TEXT
100
AcDbCircle
 10
61.78712153846834
 20
15.36251861467443
 30
0.0
 40
0.0554578961871589
100
AcDbArc
 50
335.4827230531629
 51
36.54383594003129
  0
ARC
  5
6BA
330
1F
100
AcDbEntity
  8
TEXT
100
AcDbCircle
 10
61.71680681916654
 20
15.18980685986463
 30
0.0
 40
0.2356295926265107
100
AcDbArc
 50
60.82353397560622
 51
101.6183182656855
  0
LINE
  5
6BB
330
1F
100
AcDbEntity
  8
TEXT
100
AcDbLine
 10
61.66935311753235
 20
15.4206086170558
 30
0.0
 11
61.6678774571511
 21
15.36457364902017
 31
0.0
  0
ARC
  5
6BC
330
1F
100
AcDbEntity
  8
TEXT
100
AcDbCircle
 10
61.64614158509095
 20
15.36350911243545
 30
0.0
 40
0.0217619248309999
100
AcDbArc
 50
165.3922446503677
 51
2.803879044206374
  0
LINE
  5
6BD
330
1F
100
AcDbEntity
  8
TEXT
100
AcDbLine
 10
61.62508311355702
 20
15.36899747731055
 30
0.0
 11
61.62213179279451
 21
15.41176097950603
 31
0.0
  0
ARC
  5
6BE
330
1F
100
AcDbEntity
  8
TEXT
100
AcDbCircle
 10
61.60302733814174
 20
15.40219025595883
 30
0.0
 40
0.0213677078038304
100
AcDbArc
 50
26.60941129939627
 51
166.0619000058121
  0
LINE
  5
6BF
330
1F
100
AcDbEntity
  8
TEXT
100
AcDbLine
 10
61.58228876996313
 20
15.40733717024653
 30
0.0
 11
61.58228876996313
 21
15.38816732377856
 31
0.0
  0
ARC
  5
6C0
330
1F
100
AcDbEntity
  8
TEXT
100
AcDbCircle
 10
61.56537321376465
 20
15.37753698935816
 30
0.0
 40
0.0199784897174491
100
AcDbArc
 50
179.1163546128549
 51
32.14670843865729
  0
LINE
  5
6C1
330
1F
100
AcDbEntity
  8
TEXT
100
AcDbLine
 10
61.54539709998363
 20
15.37784509582948
 30
0.0
 11
61.54539709998363
 21
15.30706409058531
 31
0.0
  0
ARC
  5
6C2
330
1F
100
AcDbEntity
  8
TEXT
100
AcDbCircle
 10
61.51882409714435
 20
15.30672321637107
 30
0.0
 40
0.0265751890892383
100
AcDbArc
 50
182.4450201076249
 51
0.7349407504797699
  0
LINE
  5
6C3
330
1F
100
AcDbEntity
  8
TEXT
100
AcDbLine
 10
61.49227310163107
 20
15.3055895001861
 30
0.0
 11
61.50407841677092
 21
15.3940657424681
 31
0.0
  0
ARC
  5
6C4
330
1F
100
AcDbEntity
  8
TEXT
100
AcDbCircle
 10
61.49031921417249
 20
15.39210197004746
 30
0.0
 40
0.0138986351223626
100
AcDbArc
 50
8.122642540874926
 51
202.9043136183474
  0
LINE
  5
6C5
330
1F
100
AcDbEntity
  8
TEXT
100
AcDbLine
 10
61.47751640155004
 20
15.38669271434841
 30
0.0
 11
61.47161376002472
 21
15.34097999329273
 31
0.0
  0
ARC
  5
6C6
330
1F
100
AcDbEntity
  8
TEXT
100
AcDbCircle
 10
61.45464358541642
 20
15.34187667946045
 30
0.0
 40
0.0169938480728468
100
AcDbArc
 50
183.0246359049376
 51
356.9753640950624
  0
LINE
  5
6C7
330
1F
100
AcDbEntity
  8
TEXT
100
AcDbLine
 10
61.43767341080797
 20
15.34097999329273
 30
0.0
 11
61.42586806357864
 21
15.31443711870503
 31
0.0
  0
LINE
  5
6C8
330
1F
100
AcDbEntity
  8
TEXT
100
AcDbLine
 10
62.22377296403919
 20
15.03886583465429
 30
0.0
 11
62.34837381687189
 21
15.04372954321013
 31
0.0
  0
LINE
  5
6C9
330
1F
100
AcDbEntity
  8
TEXT
100
AcDbLine
 10
62.44279788661993
 20
15.03886583465429
 30
0.0
 11
62.56739873945239
 21
15.04372954321013
 31
0.0
  0
LINE
  5
6CA
330
1F
100
AcDbEntity
  8
TEXT
100
AcDbLine
 10
62.27439203643545
 20
14.99995610911511
 30
0.0
 11
62.27633892877211
 21
14.8112439545232
 31
0.0
  0
LINE
  5
6CB
330
1F
100
AcDbEntity
  8
TEXT
100
AcDbLine
 10
62.34837381687189
 20
15.04372954321013
 30
0.0
 11
62.35032070920855
 21
14.82972606225998
 31
0.0
  0
LINE
  5
6CC
330
1F
100
AcDbEntity
  8
TEXT
100
AcDbLine
 10
62.56739873945239
 20
15.04372954321013
 30
0.0
 11
62.56934563178916
 21
14.82291686266951
 31
0.0
  0
ARC
  5
6CD
330
1F
100
AcDbEntity
  8
TEXT
100
AcDbCircle
 10
62.25162139408379
 20
15.00047978169469
 30
0.0
 40
0.0227766631902144
100
AcDbArc
 50
358.6825606331185
 51
106.404935772954
  0
LINE
  5
6CE
330
1F
100
AcDbEntity
  8
TEXT
100
AcDbLine
 10
62.22377296403919
 20
15.03886583465429
 30
0.0
 11
62.22474639416279
 21
15.02524741644242
 31
0.0
  0
LINE
  5
6CF
330
1F
100
AcDbEntity
  8
TEXT
100
AcDbLine
 10
62.24518871556395
 20
15.02232919892125
 30
0.0
 11
62.22474639416279
 21
15.02524741644242
 31
0.0
  0
LINE
  5
6D0
330
1F
100
AcDbEntity
  8
TEXT
100
AcDbLine
 10
62.44279788661993
 20
15.03886583465429
 30
0.0
 11
62.44182445649625
 21
15.02038370788659
 31
0.0
  0
LINE
  5
6D1
330
1F
100
AcDbEntity
  8
TEXT
100
AcDbLine
 10
62.44182445649625
 20
15.02038370788659
 30
0.0
 11
62.47686845437765
 21
15.0184382168519
 31
0.0
  0
LINE
  5
6D2
330
1F
100
AcDbEntity
  8
TEXT
100
AcDbLine
 10
62.49828420590245
 20
14.81318944555789
 30
0.0
 11
62.49731077577891
 21
14.99898336359777
 31
0.0
  0
ARC
  5
6D3
330
1F
100
AcDbEntity
  8
TEXT
100
AcDbCircle
 10
62.48339907278833
 20
15.00483292742888
 30
0.0
 40
0.0150914835953823
100
AcDbArc
 50
337.1943218370273
 51
115.6412778855143
  0
ARC
  5
6D4
330
1F
100
AcDbEntity
  8
TEXT
100
AcDbCircle
 10
62.35125289850159
 20
14.812236012331
 30
0.0
 40
0.0749205381676181
100
AcDbArc
 50
180.7587023263156
 51
270.031539090741
  0
ARC
  5
6D5
330
1F
100
AcDbEntity
  8
TEXT
100
AcDbCircle
 10
62.38086036042162
 20
14.90671402480029
 30
0.0
 40
0.171959374684221
100
AcDbArc
 50
260.0995263030863
 51
313.0673878832466
  0
LINE
  5
6D6
330
1F
100
AcDbEntity
  8
TEXT
100
AcDbLine
 10
62.49828420590245
 20
14.78108891960916
 30
0.0
 11
62.49925766811557
 21
14.74412468510465
 31
0.0
  0
ARC
  5
6D7
330
1F
100
AcDbEntity
  8
TEXT
100
AcDbCircle
 10
62.51076850873277
 20
14.74870554520734
 30
0.0
 40
0.0123888551124681
100
AcDbArc
 50
201.7006027724374
 51
343.0678677067618
  0
ARC
  5
6D8
330
1F
100
AcDbEntity
  8
TEXT
100
AcDbCircle
 10
62.61813462716983
 20
14.52187158515929
 30
0.0
 40
0.2428018996822656
100
AcDbArc
 50
88.18956599987521
 51
113.1652090520224
  0
LINE
  5
6D9
330
1F
100
AcDbEntity
  8
TEXT
100
AcDbLine
 10
62.68788644488473
 20
15.15143784397827
 30
0.0
 11
62.69511601270099
 21
14.77680340791344
 31
0.0
  0
LINE
  5
6DA
330
1F
100
AcDbEntity
  8
TEXT
100
AcDbLine
 10
62.76636726145657
 20
15.20201969073042
 30
0.0
 11
62.76844445417849
 21
15.01520715033521
 31
0.0
  0
ARC
  5
6DB
330
1F
100
AcDbEntity
  8
TEXT
100
AcDbCircle
 10
62.61357349178808
 20
15.64386519718894
 30
0.0
 40
0.4675183286536605
100
AcDbArc
 50
273.5403564160214
 51
289.075801678542
  0
LINE
  5
6DC
330
1F
100
AcDbEntity
  8
TEXT
100
AcDbLine
 10
62.64244347927061
 20
15.17723910335166
 30
0.0
 11
62.64450907007521
 21
15.15453400043174
 31
0.0
  0
LINE
  5
6DD
330
1F
100
AcDbEntity
  8
TEXT
100
AcDbLine
 10
62.64450907007521
 20
15.15453400043174
 30
0.0
 11
62.68788644488473
 21
15.15143784397827
 31
0.0
  0
LINE
  5
6DE
330
1F
100
AcDbEntity
  8
TEXT
100
AcDbLine
 10
62.76947721749156
 20
14.977021265148
 30
0.0
 11
62.77051001289389
 21
14.79950852986431
 31
0.0
  0
ARC
  5
6DF
330
1F
100
AcDbEntity
  8
TEXT
100
AcDbCircle
 10
62.8900376317755
 20
14.85450481269927
 30
0.0
 40
0.2015195825714796
100
AcDbArc
 50
71.07988584761956
 51
127.1124618564865
  0
ARC
  5
6E0
330
1F
100
AcDbEntity
  8
TEXT
100
AcDbCircle
 10
62.89018584226436
 20
14.9205778171648
 30
0.0
 40
0.1405887821632019
100
AcDbArc
 50
359.8698564192901
 51
62.37231490188333
  0
ARC
  5
6E1
330
1F
100
AcDbEntity
  8
TEXT
100
AcDbCircle
 10
62.83325254968781
 20
14.93523538682842
 30
0.0
 40
0.0762453449311564
100
AcDbArc
 50
78.87075864991584
 51
146.7670066549791
  0
ARC
  5
6E2
330
1F
100
AcDbEntity
  8
TEXT
100
AcDbCircle
 10
62.85629988650379
 20
14.92165793737473
 30
0.0
 40
0.0887806218958131
100
AcDbArc
 50
21.58325850317337
 51
95.38396011116695
  0
ARC
  5
6E3
330
1F
100
AcDbEntity
  8
TEXT
100
AcDbCircle
 10
62.84934039922847
 20
14.89131425138849
 30
0.0
 40
0.1094632526011487
100
AcDbArc
 50
343.595252916762
 51
35.13836089167873
  0
ARC
  5
6E4
330
1F
100
AcDbEntity
  8
TEXT
100
AcDbCircle
 10
62.81398381577748
 20
14.92728142820405
 30
0.0
 40
0.1917633677186554
100
AcDbArc
 50
231.693569770341
 51
269.6626044169122
  0
ARC
  5
6E5
330
1F
100
AcDbEntity
  8
TEXT
100
AcDbCircle
 10
62.83386386663296
 20
14.96056229148918
 30
0.0
 40
0.2260194661190487
100
AcDbArc
 50
264.6664639047648
 51
308.6423664458135
  0
ARC
  5
6E6
330
1F
100
AcDbEntity
  8
TEXT
100
AcDbCircle
 10
62.86026025768848
 20
14.91053319698565
 30
0.0
 40
0.170791120076941
100
AcDbArc
 50
312.2086974257856
 51
3.264333629957673
  0
ARC
  5
6E7
330
1F
100
AcDbEntity
  8
TEXT
100
AcDbCircle
 10
61.17400404095093
 20
16.22695681702831
 30
0.0
 40
0.025152733127488
100
AcDbArc
 50
32.93635467158907
 51
189.5430854165186
  0
ARC
  5
6E8
330
1F
100
AcDbEntity
  8
TEXT
100
AcDbCircle
 10
61.21371537807753
 20
16.24125981675124
 30
0.0
 40
0.0186118495684118
100
AcDbArc
 50
181.9314217622489
 51
21.08009584438978
  0
ARC
  5
6E9
330
1F
100
AcDbEntity
  8
TEXT
100
AcDbCircle
 10
61.24493938641251
 20
16.24513828526513
 30
0.0
 40
0.0141408555200172
100
AcDbArc
 50
3.320051391017456
 51
168.514586219827
  0
ARC
  5
6EA
330
1F
100
AcDbEntity
  8
TEXT
100
AcDbCircle
 10
61.27500446373108
 20
16.23733811499995
 30
0.0
 40
0.018128056699632
100
AcDbArc
 50
151.6108765070425
 51
6.217261201770677
  0
ARC
  5
6EB
330
1F
100
AcDbEntity
  8
TEXT
100
AcDbCircle
 10
61.30739878941691
 20
16.24006816522317
 30
0.0
 40
0.0143933314365098
100
AcDbArc
 50
7.567610287755806
 51
183.0538693842451
  0
ARC
  5
6EC
330
1F
100
AcDbEntity
  8
TEXT
100
AcDbCircle
 10
61.33314448857399
 20
16.24818402771686
 30
0.0
 40
0.0130549100237441
100
AcDbArc
 50
208.4553291170983
 51
16.75507449313698
  0
ARC
  5
6ED
330
1F
100
AcDbEntity
  8
TEXT
100
AcDbCircle
 10
61.35296892417324
 20
16.23900866368359
 30
0.0
 40
0.0148677923569647
100
AcDbArc
 50
340.2175703033619
 51
119.5111127021389
  0
ARC
  5
6EE
330
1F
100
AcDbEntity
  8
TEXT
100
AcDbCircle
 10
61.38836446688348
 20
16.23389773804607
 30
0.0
 40
0.0214053245632693
100
AcDbArc
 50
179.7887253899368
 51
338.3185482084503
  0
ARC
  5
6EF
330
1F
100
AcDbEntity
  8
TEXT
100
AcDbCircle
 10
61.43745513154592
 20
16.21180407804972
 30
0.0
 40
0.0324631086124841
100
AcDbArc
 50
51.76909225769989
 51
154.0890012254435
  0
ARC
  5
6F0
330
1F
100
AcDbEntity
  8
TEXT
100
AcDbCircle
 10
61.478689886632
 20
16.24170934288223
 30
0.0
 40
0.0215994324436901
100
AcDbArc
 50
191.7667831442113
 51
294.1224948725133
  0
ARC
  5
6F1
330
1F
100
AcDbEntity
  8
TEXT
100
AcDbCircle
 10
61.50398243703921
 20
16.22732200899159
 30
0.0
 40
0.0173050535917582
100
AcDbArc
 50
13.3384122638162
 51
197.924633018293
  0
ARC
  5
6F2
330
1F
100
AcDbEntity
  8
TEXT
100
AcDbCircle
 10
61.53916263970629
 20
16.23229952899604
 30
0.0
 40
0.0183684031761805
100
AcDbArc
 50
183.0745908828774
 51
5.238726745824195
  0
ARC
  5
6F3
330
1F
100
AcDbEntity
  8
TEXT
100
AcDbCircle
 10
61.57389511018138
 20
16.23639851592727
 30
0.0
 40
0.0166182141932238
100
AcDbArc
 50
305.0065695458967
 51
188.3798152009861
  0
ARC
  5
6F4
330
1F
100
AcDbEntity
  8
TEXT
100
AcDbCircle
 10
61.20372958956512
 20
14.62820351375444
 30
0.0
 40
0.0260858568672398
100
AcDbArc
 50
225.931740716
 51
327.3216812937227
  0
ARC
  5
6F5
330
1F
100
AcDbEntity
  8
TEXT
100
AcDbCircle
 10
61.50486270330066
 20
14.55084968775216
 30
0.0
 40
0.0226148446456749
100
AcDbArc
 50
167.7181143692784
 51
23.98551077365387
  0
ARC
  5
6F6
330
1F
100
AcDbEntity
  8
TEXT
100
AcDbCircle
 10
61.6150774044847
 20
14.57863263957418
 30
0.0
 40
0.0274166101092957
100
AcDbArc
 50
170.7272794785989
 51
21.15794103948602
  0
LINE
  5
6F7
330
1F
100
AcDbEntity
  8
TEXT
100
AcDbLine
 10
61.6406458336759
 20
14.58852839313712
 30
0.0
 11
61.63845304072816
 21
14.62906566043375
 31
0.0
  0
LINE
  5
6F8
330
1F
100
AcDbEntity
  8
TEXT
100
AcDbLine
 10
61.69656179712948
 20
14.6224920634082
 30
0.0
 11
61.70752572977898
 21
14.56552075597045
 31
0.0
  0
ARC
  5
6F9
330
1F
100
AcDbEntity
  8
TEXT
100
AcDbCircle
 10
61.72099829971688
 20
14.56282309949168
 30
0.0
 40
0.013739996041048
100
AcDbArc
 50
168.6772178130466
 51
20.84321825743669
  0
LINE
  5
6FA
330
1F
100
AcDbEntity
  8
TEXT
100
AcDbLine
 10
61.73383911679502
 20
14.56771195497899
 30
0.0
 11
61.73383911679502
 21
14.60605802326708
 31
0.0
  0
ARC
  5
6FB
330
1F
100
AcDbEntity
  8
TEXT
100
AcDbCircle
 10
61.75137342062554
 20
14.60432965649338
 30
0.0
 40
0.0176192809878666
100
AcDbArc
 50
354.9255052590734
 51
174.3705062402905
  0
LINE
  5
6FC
330
1F
100
AcDbEntity
  8
TEXT
100
AcDbLine
 10
61.76892364351271
 20
14.60277121523882
 30
0.0
 11
61.77330919731897
 21
14.49540223545068
 31
0.0
  0
ARC
  5
6FD
330
1F
100
AcDbEntity
  8
TEXT
100
AcDbCircle
 10
61.79519177912036
 20
14.49764942607044
 30
0.0
 40
0.0219976646938343
100
AcDbArc
 50
185.8633287467241
 51
2.70882780951028
  0
LINE
  5
6FE
330
1F
100
AcDbEntity
  8
TEXT
100
AcDbLine
 10
61.81716486373833
 20
14.49868904347894
 30
0.0
 11
61.80839375612592
 21
14.58743280314832
 31
0.0
  0
LINE
  5
6FF
330
1F
100
AcDbEntity
  8
TEXT
100
AcDbLine
 10
61.80839375612592
 20
14.58743280314832
 30
0.0
 11
61.81826126021218
 21
14.56442516598164
 31
0.0
  0
ARC
  5
700
330
1F
100
AcDbEntity
  8
TEXT
100
AcDbCircle
 10
61.83268953971623
 20
14.57232665050162
 30
0.0
 40
0.0164501886636151
100
AcDbArc
 50
208.7068196476629
 51
351.5282258973483
  0
LINE
  5
701
330
1F
100
AcDbEntity
  8
TEXT
100
AcDbLine
 10
61.8489602331236
 20
14.56990317301836
 30
0.0
 11
61.84786383664982
 21
14.58633719412859
 31
0.0
  0
ARC
  5
702
330
1F
100
AcDbEntity
  8
TEXT
100
AcDbCircle
 10
61.87000090958147
 20
14.58005802059256
 30
0.0
 40
0.0230103893552676
100
AcDbArc
 50
7.472141028409508
 51
164.1640293291656
  0
LINE
  5
703
330
1F
100
AcDbEntity
  8
TEXT
100
AcDbLine
 10
61.89281589954305
 20
14.58305038610044
 30
0.0
 11
61.90377980010328
 21
14.49211544645339
 31
0.0
  0
ARC
  5
704
330
1F
100
AcDbEntity
  8
TEXT
100
AcDbCircle
 10
61.92517290625369
 20
14.486639198722
 30
0.0
 40
0.0220828956428488
100
AcDbArc
 50
165.6416373020937
 51
23.37981978602141
  0
LINE
  5
705
330
1F
100
AcDbEntity
  8
TEXT
100
AcDbLine
 10
61.94544267357497
 20
14.49540223545068
 30
0.0
 11
61.9421098426512
 21
14.57683552157479
 31
0.0
  0
ARC
  5
706
330
1F
100
AcDbEntity
  8
TEXT
100
AcDbCircle
 10
61.94837325760904
 20
14.58359216616631
 30
0.0
 40
0.0092131760577207
100
AcDbArc
 50
60.0223195166813
 51
227.16945779242
  0
LINE
  5
707
330
1F
100
AcDbEntity
  8
TEXT
100
AcDbLine
 10
61.95297673713718
 20
14.59157280456847
 30
0.0
 11
61.99058839563417
 21
14.58582752754606
 31
0.0
  0
ARC
  5
708
330
1F
100
AcDbEntity
  8
TEXT
100
AcDbCircle
 10
61.98773188762874
 20
14.56939508092094
 30
0.0
 40
0.0166788770626904
100
AcDbArc
 50
327.1504341221703
 51
80.13862259361689
  0
LINE
  5
709
330
1F
100
AcDbEntity
  8
TEXT
100
AcDbLine
 10
62.00174377328507
 20
14.56034787138313
 30
0.0
 11
62.00732147815532
 21
14.40189614483975
 31
0.0
  0
LINE
  5
70A
330
1F
100
AcDbEntity
  8
TEXT
100
AcDbLine
 10
62.05433348412949
 20
14.4050811185121
 30
0.0
 11
62.05513029452678
 21
14.56592154676346
 31
0.0
  0
ARC
  5
70B
330
1F
100
AcDbEntity
  8
TEXT
100
AcDbCircle
 10
62.0676716616739
 20
14.5670367319253
 30
0.0
 40
0.0125908509586445
100
AcDbArc
 50
32.94435831946158
 51
185.0814072168596
  0
ARC
  5
70C
330
1F
100
AcDbEntity
  8
TEXT
100
AcDbCircle
 10
62.10369426500202
 20
14.5976122315058
 30
0.0
 40
0.0348002671160716
100
AcDbArc
 50
222.9877626572328
 51
344.3358851615565
  0
ARC
  5
70D
330
1F
100
AcDbEntity
  8
TEXT
100
AcDbCircle
 10
62.05532561496764
 20
14.62765341661523
 30
0.0
 40
0.0149786038418417
100
AcDbArc
 50
193.9319034609808
 51
333.0378283509304
  0
ARC
  5
70E
330
1F
100
AcDbEntity
  8
TEXT
100
AcDbCircle
 10
62.02790630673232
 20
14.60929338593996
 30
0.0
 40
0.0195856873046071
100
AcDbArc
 50
48.87596376793592
 51
143.7953529790059
  0
ARC
  5
70F
330
1F
100
AcDbEntity
  8
TEXT
100
AcDbCircle
 10
61.99046683991731
 20
14.64057900495842
 30
0.0
 40
0.0292720546069499
100
AcDbArc
 50
218.2556843178653
 51
317.6564247238853
  0
ARC
  5
710
330
1F
100
AcDbEntity
  8
TEXT
100
AcDbCircle
 10
62.03101333973094
 20
14.40074525418959
 30
0.0
 40
0.0237197987807896
100
AcDbArc
 50
177.2189023070874
 51
10.53261226458013
  0
TEXT
  5
711
330
1F
100
AcDbEntity
  8
TEXT
100
AcDbText
 10
50.02689354774332
 20
11.50159942885156
 30
0.0
 40
0.1922607421875
  1
ICE QUBE, INC.
 72
     1
 11
51.1644362723527
 21
11.59772979994531
 31
0.0
100
AcDbText
 73
     2
  0
TEXT
  5
712
330
1F
100
AcDbEntity
  8
TEXT
100
AcDbText
 10
47.8960036551652
 20
11.78999054213281
 30
0.0
 40
0.1922607421875
  1
OR ALTERED WITHOUT AUTHORIZATION OF
 72
     1
 11
51.1644362723527
 21
11.88612091322656
 31
0.0
100
AcDbText
 73
     2
  0
TEXT
  5
713
330
1F
100
AcDbEntity
  8
TEXT
100
AcDbText
 10
47.75180809852457
 20
12.07838165541406
 30
0.0
 40
0.1922607421875
  1
QUBE, INC. AND IS NOT TO BE DUPLICATED
 72
     1
 11
51.1644362723527
 21
12.17451202650781
 31
0.0
100
AcDbText
 73
     2
  0
TEXT
  5
714
330
1F
100
AcDbEntity
  8
TEXT
100
AcDbText
 10
47.92804711219645
 20
12.36677276869531
 30
0.0
 40
0.1922607421875
  1
THIS DRAWING IS THE PROPERTY OF ICE
 72
     1
 11
51.1644362723527
 21
12.46290313978906
 31
0.0
100
AcDbText
 73
     2
  0
TEXT
  5
715
330
1F
100
AcDbEntity
  8
TEXT
100
AcDbText
 10
47.6396559989152
 20
12.75129425307031
 30
0.0
 40
0.384521484375
  1
PROPRIETARY DRAWING
 72
     1
 11
51.1644362723527
 21
12.94355499525781
 31
0.0
100
AcDbText
 73
     2
  0
LINE
  5
716
330
1F
100
AcDbEntity
  8
BORDER
100
AcDbLine
 10
55.06932456836825
 20
11.21320831557037
 30
0.0
 11
47.25954797633714
 21
11.21320831557037
 31
0.0
  0
LINE
  5
717
330
1F
100
AcDbEntity
  8
BORDER
100
AcDbLine
 10
55.06932456836825
 20
13.58941229010708
 30
0.0
 11
47.33259812143383
 21
13.58941229010708
 31
0.0
  0
LINE
  5
718
330
1F
100
AcDbEntity
  8
BORDER
100
AcDbLine
 10
47.33259812143383
 20
13.58941229010708
 30
0.0
 11
47.33259812143383
 21
11.21320831557032
 31
0.0
  0
LINE
  5
719
330
1F
100
AcDbEntity
  8
BORDER
100
AcDbLine
 10
55.06932456836825
 20
11.21320831557037
 30
0.0
 11
55.06932456836825
 21
13.58941229010708
 31
0.0
  0
LINE
  5
71A
330
1F
100
AcDbEntity
  8
BORDER
100
AcDbLine
 10
31.95186804115184
 20
13.67414581557047
 30
0.0
 11
11.96228396901801
 21
13.67414581557047
 31
0.0
  0
LWPOLYLINE
  5
71B
330
1F
100
AcDbEntity
  8
BORDER
100
AcDbPolyline
 90
        4
 70
     1
 43
0.0
 10
11.96228396901799
 20
88.11750519057037
 10
70.40743107806476
 20
88.11750519057037
 10
70.40743107806476
 20
11.21320831557036
 10
11.96228396901799
 20
11.21320831557036
  0
TEXT
  5
B55
330
1F
100
AcDbEntity
  8
TEXT
100
AcDbText
 10
12.53265750417426
 20
13.82795440932047
 30
0.0
 40
0.3076171875
  1
2
 72
     1
 11
12.63519656667426
 21
13.98176300307047
 31
0.0
100
AcDbText
 73
     2
  0
TEXT
  5
B56
330
1F
100
AcDbEntity
  8
TEXT
100
AcDbText
 10
14.56293094167428
 20
13.82795440932047
 30
0.0
 40
0.3076171875
  1
ELIMINATE 4000V, 5000V,  ADDED 4500V
 72
     1
 11
19.74115359792428
 21
13.98176300307047
 31
0.0
100
AcDbText
 73
     2
  0
TEXT
  5
B57
330
1F
100
AcDbEntity
  8
TEXT
100
AcDbText
 10
26.63049685964296
 20
13.82795440932047
 30
0.0
 40
0.3076171875
  1
3-16-10
 72
     1
 11
27.52771365651796
 21
13.98176300307047
 31
0.0
100
AcDbText
 73
     2
  0
TEXT
  5
B58
330
1F
100
AcDbEntity
  8
TEXT
100
AcDbText
 10
30.00639241133499
 20
13.82795440932047
 30
0.0
 40
0.3076171875
  1
JJH
 72
     1
 11
30.41654866133499
 21
13.98176300307047
 31
0.0
100
AcDbText
 73
     2
  0
LINE
  5
B59
330
1F
100
AcDbEntity
  8
BORDER
100
AcDbLine
 10
31.95186804115183
 20
14.28938019057054
 30
0.0
 11
11.962283969018
 21
14.28938019057054
 31
0.0
  0
LINE
  5
C30
330
1F
100
AcDbEntity
  8
0
100
AcDbLine
 10
31.99686390377895
 20
45.98439025649343
 30
0.0
 11
31.99686390377895
 21
46.16439025649343
 31
0.0
  0
LINE
  5
C31
330
1F
100
AcDbEntity
  8
0
100
AcDbLine
 10
31.90686390377897
 20
46.07439025649344
 30
0.0
 11
32.08686390377892
 21
46.07439025649344
 31
0.0
  0
LINE
  5
C32
330
1F
100
AcDbEntity
  8
0
100
AcDbLine
 10
31.99686390377895
 20
38.98439025649344
 30
0.0
 11
31.99686390377895
 21
39.16439025649344
 31
0.0
  0
LINE
  5
C33
330
1F
100
AcDbEntity
  8
0
100
AcDbLine
 10
31.90686390377897
 20
39.07439025649344
 30
0.0
 11
32.08686390377892
 21
39.07439025649344
 31
0.0
  0
LINE
  5
C34
330
1F
100
AcDbEntity
  8
0
100
AcDbLine
 10
50.37286390377893
 20
38.98439025649355
 30
0.0
 11
50.37286390377893
 21
39.16439025649355
 31
0.0
  0
LINE
  5
C35
330
1F
100
AcDbEntity
  8
0
100
AcDbLine
 10
50.28286390377893
 20
39.07439025649355
 30
0.0
 11
50.4628639037789
 21
39.07439025649355
 31
0.0
  0
LINE
  5
C36
330
1F
100
AcDbEntity
  8
0
100
AcDbLine
 10
50.37286390377893
 20
45.98439025649343
 30
0.0
 11
50.37286390377893
 21
46.16439025649343
 31
0.0
  0
LINE
  5
C37
330
1F
100
AcDbEntity
  8
0
100
AcDbLine
 10
50.28286390377893
 20
46.07439025649344
 30
0.0
 11
50.4628639037789
 21
46.07439025649344
 31
0.0
  0
LINE
  5
C38
330
1F
100
AcDbEntity
  8
0
100
AcDbLine
 10
31.99686390377883
 20
59.98439025649343
 30
0.0
 11
31.99686390377883
 21
60.16439025649344
 31
0.0
  0
LINE
  5
C39
330
1F
100
AcDbEntity
  8
0
100
AcDbLine
 10
31.90686390377886
 20
60.07439025649342
 30
0.0
 11
32.08686390377881
 21
60.07439025649342
 31
0.0
  0
LINE
  5
C3A
330
1F
100
AcDbEntity
  8
0
100
AcDbLine
 10
50.37286390377893
 20
59.98439025649343
 30
0.0
 11
50.37286390377893
 21
60.16439025649344
 31
0.0
  0
LINE
  5
C3B
330
1F
100
AcDbEntity
  8
0
100
AcDbLine
 10
50.28286390377893
 20
60.07439025649342
 30
0.0
 11
50.4628639037789
 21
60.07439025649342
 31
0.0
  0
LINE
  5
C3C
330
1F
100
AcDbEntity
  8
0
100
AcDbLine
 10
50.37286390377893
 20
52.98439025649344
 30
0.0
 11
50.37286390377893
 21
53.16439025649343
 31
0.0
  0
LINE
  5
C3D
330
1F
100
AcDbEntity
  8
0
100
AcDbLine
 10
50.28286390377893
 20
53.07439025649344
 30
0.0
 11
50.4628639037789
 21
53.07439025649344
 31
0.0
  0
LINE
  5
C3E
330
1F
100
AcDbEntity
  8
0
100
AcDbLine
 10
31.99686390377883
 20
52.98439025649344
 30
0.0
 11
31.99686390377883
 21
53.16439025649343
 31
0.0
  0
LINE
  5
C3F
330
1F
100
AcDbEntity
  8
0
100
AcDbLine
 10
31.90686390377886
 20
53.07439025649344
 30
0.0
 11
32.08686390377881
 21
53.07439025649344
 31
0.0
  0
LINE
  5
C40
330
1F
100
AcDbEntity
  8
0
100
AcDbLine
 10
44.18486390377892
 20
50.01239025649345
 30
0.0
 11
44.18486390377892
 21
50.19239025649346
 31
0.0
  0
LINE
  5
C41
330
1F
100
AcDbEntity
  8
0
100
AcDbLine
 10
44.09486390377895
 20
50.10239025649346
 30
0.0
 11
44.27486390377889
 21
50.10239025649346
 31
0.0
  0
LINE
  5
C42
330
1F
100
AcDbEntity
  8
0
100
AcDbLine
 10
44.18486390377892
 20
51.51239025649346
 30
0.0
 11
44.18486390377892
 21
51.69239025649346
 31
0.0
  0
LINE
  5
C43
330
1F
100
AcDbEntity
  8
0
100
AcDbLine
 10
44.09486390377895
 20
51.60239025649346
 30
0.0
 11
44.27486390377889
 21
51.60239025649346
 31
0.0
  0
DIMENSION
  5
C44
330
1F
100
AcDbEntity
  8
0
100
AcDbDimension
  2
*D9
 10
31.55985752354138
 20
35.41535675307037
 30
0.0
 11
44.18486390377892
 21
45.32215030543429
 31
0.0
 70
   102
 71
     5
 42
12.62500638023754
  3
Standard
100
AcDbOrdinateDimension
 13
44.18486390377892
 23
50.10239025649346
 33
0.0
 14
44.18486390377892
 24
47.74548363876763
 34
0.0
  0
DIMENSION
  5
C45
330
1F
100
AcDbEntity
  8
0
100
AcDbDimension
  2
*D10
 10
31.55985752354138
 20
35.41535675307037
 30
0.0
 11
27.12923674235272
 21
62.73331099646192
 31
0.0
 70
    38
 71
     5
 42
27.31795424339158
  3
Standard
100
AcDbOrdinateDimension
 13
34.76992032815946
 23
62.73331099646192
 33
0.0
 14
29.55257007568605
 24
62.73331099646192
 34
0.0
  0
DIMENSION
  5
C46
330
1F
100
AcDbEntity
  8
0
100
AcDbDimension
  2
*D11
 10
31.55985752354138
 20
35.41535675307037
 30
0.0
 11
26.79321914745572
 21
58.75910937922096
 31
0.0
 70
    38
 71
     5
 42
24.48045424339152
  3
Standard
100
AcDbOrdinateDimension
 13
34.76992032815952
 23
59.89581099646189
 33
0.0
 14
29.29988581412238
 24
58.75910937922096
 34
0.0
  0
DIMENSION
  5
C47
330
1F
100
AcDbEntity
  8
0
100
AcDbDimension
  2
*D12
 10
41.20907481890013
 20
51.94711288639958
 30
0.0
 11
57.76951491137343
 21
60.90700912216629
 31
0.0
 70
   163
  1
<> (1)\POPTIONAL:\PETHERNET\PCONNECTION \PPORT
 71
     7
 42
1.249999999999985
  3
Standard
100
AcDbDiametricDimension
 15
42.1606529886577
 25
52.75766762658733
 35
0.0
 40
0.0
  0
DIMENSION
  5
C48
330
1F
100
AcDbEntity
  8
0
100
AcDbDimension
  2
*D13
 10
31.55985752354138
 20
35.41535675307037
 30
0.0
 11
41.68486390377892
 21
56.01013252000957
 31
0.0
 70
   102
 71
     5
 42
10.12500638023754
  3
Standard
100
AcDbOrdinateDimension
 13
41.68486390377893
 23
52.35239025649345
 33
0.0
 14
41.68486390377893
 24
53.83679918667624
 34
0.0
  0
DIMENSION
  5
C49
330
1F
100
AcDbEntity
  8
0
100
AcDbDimension
  2
*D14
 10
31.55985752354138
 20
35.41535675307037
 30
0.0
 11
27.05338520277969
 21
51.56448949620428
 31
0.0
 70
    38
 71
     5
 42
16.93703350342309
  3
Standard
100
AcDbOrdinateDimension
 13
41.68486390377893
 23
52.35239025649345
 33
0.0
 14
29.47671853611304
 24
51.56448949620428
 34
0.0
  0
CIRCLE
  5
C4A
330
1F
100
AcDbEntity
  8
TEMPLATE
100
AcDbCircle
 10
41.68486390377893
 20
52.35239025649345
 30
0.0
 40
0.625
  0
TEXT
  5
C4F
330
1F
100
AcDbEntity
  8
DIM
100
AcDbText
 10
37.85152419020805
 20
65.11645088776915
 30
0.0
 40
1.0
  1
DRAWING
 72
     1
 11
41.18485752354138
 21
65.61645088776915
 31
0.0
100
AcDbText
 73
     2
  0
TEXT
  5
C50
330
1F
100
AcDbEntity
  8
DIM
100
AcDbText
 10
38.35152419020804
 20
66.61645088776914
 30
0.0
 40
1.0
  1
CUTOUT
 72
     1
 11
41.18485752354138
 21
67.11645088776915
 31
0.0
100
AcDbText
 73
     2
  0
TEXT
  5
C51
330
1F
100
AcDbEntity
  8
DIM
100
AcDbText
 10
38.01819085687472
 20
69.61645088776916
 30
0.0
 40
1.0
  1
IQ4500V
 72
     1
 11
41.18485752354138
 21
70.11645088776916
 31
0.0
100
AcDbText
 73
     2
  0
TEXT
  5
C52
330
1F
100
AcDbEntity
  8
DIM
100
AcDbText
 10
38.01819085687472
 20
71.11645088776916
 30
0.0
 40
1.0
  1
IQ3500V
 72
     1
 11
41.18485752354138
 21
71.61645088776916
 31
0.0
100
AcDbText
 73
     2
  0
TEXT
  5
C53
330
1F
100
AcDbEntity
  8
DIM
100
AcDbText
 10
38.01819085687472
 20
72.61645088776916
 30
0.0
 40
1.0
  1
IQ2500V
 72
     1
 11
41.18485752354138
 21
73.11645088776916
 31
0.0
100
AcDbText
 73
     2
  0
MTEXT
  5
C54
330
1F
100
AcDbEntity
  8
DIM
100
AcDbMText
 10
27.39062562186291
 20
35.41535675307037
 30
0.0
 40
0.9999999999999998
 41
0.0
 71
     5
 72
     1
  1
\A1;0.000
 73
     1
 44
1.0
1001
ACAD
1000
MTEXTBEGIN
1070
    73
1070
     1
1070
    44
1040
1.0
1070
    74
1070
     0
1000
MTEXTEND
  0
LINE
  5
C55
330
1F
100
AcDbEntity
  8
DIM
100
AcDbLine
 10
31.18485752354138
 20
35.41535675307037
 30
0.0
 11
29.55729228852954
 21
35.41535675307037
 31
0.0
  0
MTEXT
  5
C56
330
1F
100
AcDbEntity
  8
DIM
100
AcDbMText
 10
31.55985752354138
 20
31.27167375805549
 30
0.0
 40
0.9999999999999998
 41
0.0
 71
     5
 72
     1
  1
\A1;0.000
 11
0.0000000000000001
 21
1.0
 31
0.0
 73
     1
 44
1.0
1001
ACAD
1000
MTEXTBEGIN
1070
    73
1070
     1
1070
    44
1040
1.0
1070
    74
1070
     0
1000
MTEXTEND
  0
LINE
  5
C57
330
1F
100
AcDbEntity
  8
DIM
100
AcDbLine
 10
31.55985752354138
 20
35.04035675307036
 30
0.0
 11
31.55985752354138
 21
33.43834042472215
 31
0.0
  0
MTEXT
  5
C58
330
1F
100
AcDbEntity
  8
DIM
100
AcDbMText
 10
33.68485752354138
 20
44.7447696405897
 30
0.0
 40
0.9999999999999998
 41
0.0
 71
     5
 72
     1
  1
\A1;2.125
 11
0.0000000000000001
 21
1.0
 31
0.0
 73
     1
 44
1.0
1001
ACAD
1000
MTEXTBEGIN
1070
    73
1070
     1
1070
    44
1040
1.0
1070
    74
1070
     0
1000
MTEXTEND
  0
LINE
  5
C59
330
1F
100
AcDbEntity
  8
DIM
100
AcDbLine
 10
33.68485752354138
 20
40.79035675307036
 30
0.0
 11
33.68485752354138
 21
42.41143630725636
 31
0.0
  0
MTEXT
  5
C5A
330
1F
100
AcDbEntity
  8
DIM
100
AcDbMText
 10
48.68485752354138
 20
45.07810297392303
 30
0.0
 40
0.9999999999999998
 41
0.0
 71
     5
 72
     1
  1
\A1;17.125
 11
0.0000000000000001
 21
1.0
 31
0.0
 73
     1
 44
1.0
1001
ACAD
1000
MTEXTBEGIN
1070
    73
1070
     1
1070
    44
1040
1.0
1070
    74
1070
     0
1000
MTEXTEND
  0
LINE
  5
C5B
330
1F
100
AcDbEntity
  8
DIM
100
AcDbLine
 10
48.68485752354138
 20
40.79035675307036
 30
0.0
 11
48.68485752354138
 21
42.41143630725636
 31
0.0
  0
MTEXT
  5
C5C
330
1F
100
AcDbEntity
  8
DIM
100
AcDbMText
 10
55.03867227657986
 20
40.41535675307036
 30
0.0
 40
0.9999999999999998
 41
0.0
 71
     5
 72
     1
  1
\A1;5.000
 73
     1
 44
1.0
1001
ACAD
1000
MTEXTBEGIN
1070
    73
1070
     1
1070
    44
1040
1.0
1070
    74
1070
     0
1000
MTEXTEND
  0
LINE
  5
C5D
330
1F
100
AcDbEntity
  8
DIM
100
AcDbLine
 10
49.05985752354138
 20
40.41535675307036
 30
0.0
 11
52.78867227657986
 21
40.41535675307036
 31
0.0
  0
MTEXT
  5
C5E
330
1F
100
AcDbEntity
  8
DIM
100
AcDbMText
 10
55.03867227657986
 20
37.41535675307036
 30
0.0
 40
0.9999999999999998
 41
0.0
 71
     5
 72
     1
  1
\A1;2.000
 73
     1
 44
1.0
1001
ACAD
1000
MTEXTBEGIN
1070
    73
1070
     1
1070
    44
1040
1.0
1070
    74
1070
     0
1000
MTEXTEND
  0
LINE
  5
C5F
330
1F
100
AcDbEntity
  8
DIM
100
AcDbLine
 10
49.05985752354138
 20
37.41535675307036
 30
0.0
 11
52.78867227657986
 21
37.41535675307036
 31
0.0
  0
MTEXT
  5
C60
330
1F
100
AcDbEntity
  8
DIM
100
AcDbMText
 10
50.80985752354138
 20
30.63325358211983
 30
0.0
 40
0.9999999999999998
 41
0.0
 71
     5
 72
     1
  1
\A1;19.250
 11
0.0000000000000001
 21
1.0
 31
0.0
 73
     1
 44
1.0
1001
ACAD
1000
MTEXTBEGIN
1070
    73
1070
     1
1070
    44
1040
1.0
1070
    74
1070
     0
1000
MTEXTEND
  0
LINE
  5
C61
330
1F
100
AcDbEntity
  8
DIM
100
AcDbLine
 10
50.80985752354138
 20
35.04035675307036
 30
0.0
 11
50.80985752354138
 21
33.3832535821198
 31
0.0
  0
MTEXT
  5
C62
330
1F
100
AcDbEntity
  8
DIM
100
AcDbMText
 10
33.57320967152384
 20
31.04428977007581
 30
0.0
 40
0.9999999999999998
 41
0.0
 71
     5
 72
     1
  1
\A1;0.437
 11
0.0000000000000001
 21
1.0
 31
0.0
 73
     1
 44
1.0
1001
ACAD
1000
MTEXTBEGIN
1070
    73
1070
     1
1070
    44
1040
1.0
1070
    74
1070
     0
1000
MTEXTEND
  0
LINE
  5
C63
330
1F
100
AcDbEntity
  8
DIM
100
AcDbLine
 10
33.57320967152384
 20
35.46095643674247
 30
0.0
 11
33.57320967152384
 21
33.46095643674246
 31
0.0
  0
LINE
  5
C64
330
1F
100
AcDbEntity
  8
DIM
100
AcDbLine
 10
31.99686390377895
 20
37.07439025649344
 30
0.0
 11
33.57320967152384
 21
35.46095643674247
 31
0.0
  0
LINE
  5
C65
330
1F
100
AcDbEntity
  8
DIM
100
AcDbLine
 10
31.99686390377895
 20
38.69939025649344
 30
0.0
 11
31.99686390377895
 21
37.07439025649344
 31
0.0
  0
MTEXT
  5
C66
330
1F
100
AcDbEntity
  8
DIM
100
AcDbMText
 10
48.66371901602406
 20
30.75543811517053
 30
0.0
 40
0.9999999999999998
 41
0.0
 71
     5
 72
     1
  1
\A1;18.813
 11
0.0000000000000001
 21
1.0
 31
0.0
 73
     1
 44
1.0
1001
ACAD
1000
MTEXTBEGIN
1070
    73
1070
     1
1070
    44
1040
1.0
1070
    74
1070
     0
1000
MTEXTEND
  0
LINE
  5
C67
330
1F
100
AcDbEntity
  8
DIM
100
AcDbLine
 10
48.66371901602406
 20
35.42210478183719
 30
0.0
 11
48.66371901602406
 21
33.42210478183718
 31
0.0
  0
LINE
  5
C68
330
1F
100
AcDbEntity
  8
DIM
100
AcDbLine
 10
50.37286390377893
 20
37.07439025649355
 30
0.0
 11
48.66371901602406
 21
35.42210478183719
 31
0.0
  0
LINE
  5
C69
330
1F
100
AcDbEntity
  8
DIM
100
AcDbLine
 10
50.37286390377893
 20
38.69939025649355
 30
0.0
 11
50.37286390377893
 21
37.07439025649355
 31
0.0
  0
MTEXT
  5
C6A
330
1F
100
AcDbEntity
  8
DIM
100
AcDbMText
 10
27.04939796547626
 20
39.07439025649344
 30
0.0
 40
0.9999999999999998
 41
0.0
 71
     5
 72
     1
  1
\A1;3.659
 73
     1
 44
1.0
1001
ACAD
1000
MTEXTBEGIN
1070
    73
1070
     1
1070
    44
1040
1.0
1070
    74
1070
     0
1000
MTEXTEND
  0
LINE
  5
C6B
330
1F
100
AcDbEntity
  8
DIM
100
AcDbLine
 10
31.62186390377895
 20
39.07439025649344
 30
0.0
 11
29.54939796547626
 21
39.07439025649344
 31
0.0
  0
MTEXT
  5
C6C
330
1F
100
AcDbEntity
  8
DIM
100
AcDbMText
 10
26.79939796547626
 20
46.07439025649344
 30
0.0
 40
0.9999999999999998
 41
0.0
 71
     5
 72
     1
  1
\A1;10.659
 73
     1
 44
1.0
1001
ACAD
1000
MTEXTBEGIN
1070
    73
1070
     1
1070
    44
1040
1.0
1070
    74
1070
     0
1000
MTEXTEND
  0
LINE
  5
C6D
330
1F
100
AcDbEntity
  8
DIM
100
AcDbLine
 10
31.62186390377895
 20
46.07439025649344
 30
0.0
 11
29.54939796547626
 21
46.07439025649344
 31
0.0
  0
MTEXT
  5
C6E
330
1F
100
AcDbEntity
  8
DIM
100
AcDbMText
 10
26.73563827208795
 20
53.07439025649344
 30
0.0
 40
0.9999999999999998
 41
0.0
 71
     5
 72
     1
  1
\A1;17.659
 73
     1
 44
1.0
1001
ACAD
1000
MTEXTBEGIN
1070
    73
1070
     1
1070
    44
1040
1.0
1070
    74
1070
     0
1000
MTEXTEND
  0
LINE
  5
C6F
330
1F
100
AcDbEntity
  8
DIM
100
AcDbLine
 10
31.62186390377883
 20
53.07439025649344
 30
0.0
 11
29.56897160542133
 21
53.07439025649344
 31
0.0
  0
MTEXT
  5
C70
330
1F
100
AcDbEntity
  8
DIM
100
AcDbMText
 10
26.56897160542133
 20
60.07439025649342
 30
0.0
 40
0.9999999999999998
 41
0.0
 71
     5
 72
     1
  1
\A1;24.659
 73
     1
 44
1.0
1001
ACAD
1000
MTEXTBEGIN
1070
    73
1070
     1
1070
    44
1040
1.0
1070
    74
1070
     0
1000
MTEXTEND
  0
LINE
  5
C71
330
1F
100
AcDbEntity
  8
DIM
100
AcDbLine
 10
31.62186390377883
 20
60.07439025649342
 30
0.0
 11
29.56897160542133
 21
60.07439025649342
 31
0.0
  0
MTEXT
  5
C72
330
1F
100
AcDbEntity
  8
DIM
100
AcDbMText
 10
26.72806098686476
 20
63.91535675307036
 30
0.0
 40
0.9999999999999998
 41
0.0
 71
     5
 72
     1
  1
\A1;28.500
 73
     1
 44
1.0
1001
ACAD
1000
MTEXTBEGIN
1070
    73
1070
     1
1070
    44
1040
1.0
1070
    74
1070
     0
1000
MTEXTEND
  0
LINE
  5
C73
330
1F
100
AcDbEntity
  8
DIM
100
AcDbLine
 10
31.18485752354138
 20
63.91535675307036
 30
0.0
 11
29.56139432019813
 21
63.91535675307036
 31
0.0
  0
MTEXT
  5
C74
330
1F
100
AcDbEntity
  8
DIM
100
AcDbMText
 10
55.46136995956429
 20
51.60239025649346
 30
0.0
 40
0.9999999999999998
 41
0.0
 71
     5
 72
     1
  1
\A1;16.187
 73
     1
 44
1.0
1001
ACAD
1000
MTEXTBEGIN
1070
    73
1070
     1
1070
    44
1040
1.0
1070
    74
1070
     0
1000
MTEXTEND
  0
LINE
  5
C75
330
1F
100
AcDbEntity
  8
DIM
100
AcDbLine
 10
44.55986390377892
 20
51.60239025649346
 30
0.0
 11
52.79470329289768
 21
51.60239025649346
 31
0.0
  0
MTEXT
  5
C76
330
1F
100
AcDbEntity
  8
DIM
100
AcDbMText
 10
34.76992032815952
 20
68.1346686959842
 30
0.0
 40
0.9999999999999998
 41
0.0
 71
     5
 72
     1
  1
\A1;3.210
 11
0.0000000000000001
 21
1.0
 31
0.0
 73
     1
 44
1.0
1001
ACAD
1000
MTEXTBEGIN
1070
    73
1070
     1
1070
    44
1040
1.0
1070
    74
1070
     0
1000
MTEXTEND
  0
LINE
  5
C77
330
1F
100
AcDbEntity
  8
DIM
100
AcDbLine
 10
34.76992032815952
 20
63.10831099646192
 30
0.0
 11
34.76992032815952
 21
65.88466869598417
 31
0.0
  0
MTEXT
  5
C78
330
1F
100
AcDbEntity
  8
DIM
100
AcDbMText
 10
47.59492032815933
 20
68.6346686959842
 30
0.0
 40
0.9999999999999998
 41
0.0
 71
     5
 72
     1
  1
\A1;16.035
 11
0.0000000000000001
 21
1.0
 31
0.0
 73
     1
 44
1.0
1001
ACAD
1000
MTEXTBEGIN
1070
    73
1070
     1
1070
    44
1040
1.0
1070
    74
1070
     0
1000
MTEXTEND
  0
LINE
  5
C79
330
1F
100
AcDbEntity
  8
DIM
100
AcDbLine
 10
47.59492032815933
 20
63.108310996462
 30
0.0
 11
47.59492032815933
 21
65.88466869598417
 31
0.0
  0
LINE
  5
C7A
330
1F
100
AcDbEntity
  8
TEMPLATE
  6
DASHDOT
100
AcDbLine
 10
31.55985752354138
 20
63.91535675307036
 30
0.0
 11
31.55985752354138
 21
35.41535675307037
 31
0.0
  0
LINE
  5
C7B
330
1F
100
AcDbEntity
  8
TEMPLATE
  6
DASHDOT
100
AcDbLine
 10
31.55985752354138
 20
35.41535675307037
 30
0.0
 11
50.80985752354138
 21
35.41535675307037
 31
0.0
  0
MTEXT
  5
C7C
102
{ACAD_REACTORS
330
C7D
102
}
330
1F
100
AcDbEntity
  8
DIM
100
AcDbMText
 10
35.46306865261409
 20
49.53113824612742
 30
0.0
 40
0.9999999999999998
 41
0.0
 71
     1
 72
     1
  1
%%C0.375 (8)
 73
     1
 44
1.0
1001
ACAD
1000
MTEXTBEGIN
1070
    73
1070
     1
1070
    44
1040
1.0
1070
    74
1070
     0
1000
MTEXTEND
  0
LEADER
  5
C7D
330
1F
100
AcDbEntity
  8
DIM
100
AcDbLeader
  3
Standard
 73
     0
 40
1.0
 41
8.166666666666666
 76
     3
 10
32.40582367660977
 20
46.64144807256612
 30
0.0
 10
34.13815081379482
 20
49.03113824612741
 30
0.0
 10
34.96306865261408
 20
49.03113824612741
 30
0.0
340
C7C
213
0.0
223
-0.5
233
0.0
1001
ACAD
1000
DSTYLE
1002
{
1070
    77
1070
     0
1070
    41
1040
1.0
1070
    42
1040
0.375
1070
    43
1040
2.125
1070
    44
1040
1.0
1070
   140
1040
0.9999999999999998
1070
   141
1040
0.5
1070
   147
1040
0.5
1070
   271
1070
     3
1070
   272
1070
     3
1070
   288
1070
     1
1002
}
  0
MTEXT
  5
C7E
102
{ACAD_REACTORS
330
C7F
102
}
330
1F
100
AcDbEntity
  8
DIM
100
AcDbMText
 10
53.26353141990479
 20
56.5991056113747
 30
0.0
 40
0.9999999999999998
 41
0.0
 71
     1
 72
     1
  1
%%C1.250 (1)\PPOWER SUPPLY
 73
     1
 44
1.0
1001
ACAD
1000
MTEXTBEGIN
1070
    73
1070
     1
1070
    44
1040
1.0
1070
    74
1070
     0
1000
MTEXTEND
  0
LEADER
  5
C7F
330
1F
100
AcDbEntity
  8
DIM
100
AcDbLeader
  3
Standard
 73
     0
 40
2.666666666666666
 41
12.0
 76
     3
 10
44.96481838132672
 20
52.31963885356621
 30
0.0
 10
48.16924054503999
 20
56.0991056113747
 30
0.0
 10
52.76353141990479
 20
56.0991056113747
 30
0.0
340
C7E
213
0.0
223
-0.5
233
0.0
1001
ACAD
1000
DSTYLE
1002
{
1070
    77
1070
     0
1070
    41
1040
1.0
1070
    42
1040
0.375
1070
    43
1040
2.125
1070
    44
1040
1.0
1070
   140
1040
0.9999999999999998
1070
   141
1040
0.5
1070
   147
1040
0.5
1070
   271
1070
     3
1070
   272
1070
     3
1070
   288
1070
     1
1002
}
  0
CIRCLE
  5
C80
330
1F
100
AcDbEntity
  8
TEMPLATE
100
AcDbCircle
 10
44.18486390377892
 20
51.60239025649346
 30
0.0
 40
0.625
  0
CIRCLE
  5
C81
330
1F
100
AcDbEntity
  8
TEMPLATE
100
AcDbCircle
 10
50.37286390377893
 20
39.07439025649355
 30
0.0
 40
0.1875
  0
CIRCLE
  5
C82
330
1F
100
AcDbEntity
  8
TEMPLATE
100
AcDbCircle
 10
50.37286390377893
 20
46.07439025649344
 30
0.0
 40
0.1875
  0
CIRCLE
  5
C83
330
1F
100
AcDbEntity
  8
TEMPLATE
100
AcDbCircle
 10
50.37286390377893
 20
53.07439025649344
 30
0.0
 40
0.1875
  0
CIRCLE
  5
C84
330
1F
100
AcDbEntity
  8
TEMPLATE
100
AcDbCircle
 10
50.37286390377893
 20
60.07439025649342
 30
0.0
 40
0.1875
  0
CIRCLE
  5
C85
330
1F
100
AcDbEntity
  8
TEMPLATE
100
AcDbCircle
 10
31.99686390377895
 20
39.07439025649344
 30
0.0
 40
0.1875
  0
CIRCLE
  5
C86
330
1F
100
AcDbEntity
  8
TEMPLATE
100
AcDbCircle
 10
31.99686390377895
 20
46.07439025649344
 30
0.0
 40
0.1875
  0
CIRCLE
  5
C87
330
1F
100
AcDbEntity
  8
TEMPLATE
100
AcDbCircle
 10
31.99686390377883
 20
53.07439025649344
 30
0.0
 40
0.1875
  0
CIRCLE
  5
C88
330
1F
100
AcDbEntity
  8
TEMPLATE
100
AcDbCircle
 10
31.99686390377883
 20
60.07439025649342
 30
0.0
 40
0.1875
  0
LINE
  5
C89
330
1F
100
AcDbEntity
  8
TEMPLATE
100
AcDbLine
 10
47.59492032815933
 20
59.89581099646195
 30
0.0
 11
47.59492032815933
 21
62.733310996462
 31
0.0
  0
LINE
  5
C8A
330
1F
100
AcDbEntity
  8
TEMPLATE
100
AcDbLine
 10
34.76992032815952
 20
59.89581099646189
 30
0.0
 11
34.76992032815952
 21
62.73331099646192
 31
0.0
  0
LINE
  5
C8B
330
1F
100
AcDbEntity
  8
TEMPLATE
100
AcDbLine
 10
47.59492032815933
 20
62.733310996462
 30
0.0
 11
34.76992032815952
 21
62.73331099646192
 31
0.0
  0
LINE
  5
C8C
330
1F
100
AcDbEntity
  8
TEMPLATE
100
AcDbLine
 10
47.59492032815933
 20
59.89581099646195
 30
0.0
 11
34.76992032815952
 21
59.89581099646189
 31
0.0
  0
LINE
  5
C8D
330
1F
100
AcDbEntity
  8
TEMPLATE
100
AcDbLine
 10
48.68485752354138
 20
37.41535675307036
 30
0.0
 11
48.68485752354138
 21
40.41535675307036
 31
0.0
  0
LINE
  5
C8E
330
1F
100
AcDbEntity
  8
TEMPLATE
  6
DASHDOT
100
AcDbLine
 10
50.80985752354138
 20
63.91535675307036
 30
0.0
 11
50.80985752354138
 21
35.41535675307037
 31
0.0
  0
LINE
  5
C8F
330
1F
100
AcDbEntity
  8
TEMPLATE
100
AcDbLine
 10
33.68485752354138
 20
37.41535675307036
 30
0.0
 11
33.68485752354138
 21
40.41535675307036
 31
0.0
  0
LINE
  5
C90
330
1F
100
AcDbEntity
  8
TEMPLATE
  6
DASHDOT
100
AcDbLine
 10
31.55985752354138
 20
63.91535675307036
 30
0.0
 11
50.80985752354138
 21
63.91535675307036
 31
0.0
  0
LINE
  5
C91
330
1F
100
AcDbEntity
  8
TEMPLATE
100
AcDbLine
 10
33.68485752354138
 20
40.41535675307036
 30
0.0
 11
48.68485752354138
 21
40.41535675307036
 31
0.0
  0
LINE
  5
C92
330
1F
100
AcDbEntity
  8
TEMPLATE
100
AcDbLine
 10
33.68485752354138
 20
37.41535675307036
 30
0.0
 11
48.68485752354138
 21
37.41535675307036
 31
0.0
  0
LINE
  5
C93
330
1F
100
AcDbEntity
  8
TEMPLATE
100
AcDbLine
 10
40.85286390377894
 20
37.41539025649345
 30
0.0
 11
33.68485752354138
 21
37.41539025649345
 31
0.0
  0
CIRCLE
  5
C94
330
1F
100
AcDbEntity
  8
TEMPLATE
100
AcDbCircle
 10
44.18486390377892
 20
50.10239025649346
 30
0.0
 40
0.625
  0
LEADER
  5
C95
330
1F
100
AcDbEntity
  8
0
100
AcDbLeader
  3
Standard
 73
     0
 40
7.666666666666666
 41
7.666666666666666
 76
     3
 10
44.87167304404385
 20
49.86304582122798
 30
0.0
 10
47.77884663178578
 20
48.66751159456131
 30
0.0
 10
52.77807693043633
 20
48.66751159456131
 30
0.0
340
C96
213
0.0
223
-0.5
233
0.0
1001
ACAD
1000
DSTYLE
1002
{
1070
   147
1040
0.375
1070
    77
1070
     0
1002
}
  0
MTEXT
  5
C96
102
{ACAD_REACTORS
330
C95
102
}
330
1F
100
AcDbEntity
  8
0
100
AcDbMText
 10
53.15307693043632
 20
49.16751159456131
 30
0.0
 40
1.0
 41
0.0
 71
     1
 72
     1
  1
%%C1.250 (1) \POPTIONAL: \PEXTERNAL \PHEAT \POUTPUT
 73
     1
 44
1.0
1001
ACAD
1000
MTEXTBEGIN
1070
    73
1070
     1
1070
    44
1040
1.0
1070
    74
1070
     0
1000
MTEXTEND
  0
LINE
  5
C97
330
1F
100
AcDbEntity
  8
DIM
100
AcDbLine
 10
43.80986390377892
 20
50.10239025649346
 30
0.0
 11
29.3855514430179
 21
50.10239025649346
 31
0.0
  0
MTEXT
  5
C98
330
1F
100
AcDbEntity
  8
DIM
100
AcDbMText
 10
26.67721810968459
 20
50.10239025649346
 30
0.0
 40
1.0
 41
0.0
 71
     5
 72
     1
  1
\A1;14.687
 73
     1
 44
1.0
1001
ACAD
1000
MTEXTBEGIN
1070
    73
1070
     1
1070
    44
1040
1.0
1070
    74
1070
     0
1000
MTEXTEND
  0
TEXT
  5
D1B
330
1F
100
AcDbEntity
  8
TEXT
100
AcDbText
 10
12.53265750417425
 20
14.44318878432054
 30
0.0
 40
0.3076171875
  1
3
 72
     1
 11
12.63519656667425
 21
14.59699737807054
 31
0.0
100
AcDbText
 73
     2
  0
TEXT
  5
D1C
330
1F
100
AcDbEntity
  8
TEXT
100
AcDbText
 10
18.12616336354928
 20
14.44318878432054
 30
0.0
 40
0.3076171875
  1
ADDED 6000V
 72
     1
 11
19.74115359792428
 21
14.59699737807054
 31
0.0
100
AcDbText
 73
     2
  0
TEXT
  5
D1D
330
1F
100
AcDbEntity
  8
TEXT
100
AcDbText
 10
26.75867068776796
 20
14.44318878432054
 30
0.0
 40
0.3076171875
  1
4-8-11
 72
     1
 11
27.52771365651796
 21
14.59699737807054
 31
0.0
100
AcDbText
 73
     2
  0
TEXT
  5
D1E
330
1F
100
AcDbEntity
  8
TEXT
100
AcDbText
 10
30.00639241133499
 20
14.44318878432054
 30
0.0
 40
0.3076171875
  1
JJH
 72
     1
 11
30.41654866133499
 21
14.59699737807054
 31
0.0
100
AcDbText
 73
     2
  0
LINE
  5
D1F
330
1F
100
AcDbEntity
  8
BORDER
100
AcDbLine
 10
31.95186804115183
 20
14.9046145655706
 30
0.0
 11
11.96228396901799
 21
14.9046145655706
 31
0.0
  0
TEXT
  5
D43
330
1F
100
AcDbEntity
  8
TEXT
100
AcDbText
 10
12.53265750417425
 20
15.0584231593206
 30
0.0
 40
0.3076171875
  1
4
 72
     1
 11
12.63519656667425
 21
15.2122317530706
 31
0.0
100
AcDbText
 73
     2
  0
TEXT
  5
D44
330
1F
100
AcDbEntity
  8
TEXT
100
AcDbText
 10
15.22943484792428
 20
15.0584231593206
 30
0.0
 40
0.3076171875
  1
ADDED ETHERNET CONNECTION PORT
 72
     1
 11
19.74115359792428
 21
15.2122317530706
 31
0.0
100
AcDbText
 73
     2
  0
TEXT
  5
D45
330
1F
100
AcDbEntity
  8
TEXT
100
AcDbText
 10
26.60486209401796
 20
15.0584231593206
 30
0.0
 40
0.3076171875
  1
7-29-11
 72
     1
 11
27.52771365651796
 21
15.2122317530706
 31
0.0
100
AcDbText
 73
     2
  0
TEXT
  5
D46
330
1F
100
AcDbEntity
  8
TEXT
100
AcDbText
 10
30.00639241133499
 20
15.0584231593206
 30
0.0
 40
0.3076171875
  1
JJH
 72
     1
 11
30.41654866133499
 21
15.2122317530706
 31
0.0
100
AcDbText
 73
     2
  0
LINE
  5
D47
330
1F
100
AcDbEntity
  8
BORDER
100
AcDbLine
 10
31.95186804115183
 20
15.51984894057066
 30
0.0
 11
11.96228396901799
 21
15.51984894057066
 31
0.0
  0
TEXT
  5
D4B
330
1F
100
AcDbEntity
  8
DIM
100
AcDbText
 10
38.10152419020805
 20
68.11645088776916
 30
0.0
 40
1.0
  1
IQ6000V
 72
     1
 11
41.18485752354138
 21
68.61645088776916
 31
0.0
100
AcDbText
 73
     2
  0
ENDSEC
  0
SECTION
  2
OBJECTS
  0
DICTIONARY
  5
C
330
0
100
AcDbDictionary
281
     1
  3
ACAD_COLOR
350
73
  3
ACAD_GROUP
350
D
  3
ACAD_LAYOUT
350
1A
  3
ACAD_MATERIAL
350
72
  3
ACAD_MLINESTYLE
350
17
  3
ACAD_PLOTSETTINGS
350
19
  3
ACAD_PLOTSTYLENAME
350
E
  3
ACDBHEADERROUNDTRIPXREC
350
D75
  3
AcDbVariableDictionary
350
66
  0
DICTIONARY
  5
A1
330
2
100
AcDbDictionary
280
     1
281
     1
  3
ACAD_LAYERSTATES
360
A2
  0
DICTIONARY
  5
73
102
{ACAD_REACTORS
330
C
102
}
330
C
100
AcDbDictionary
281
     1
  0
DICTIONARY
  5
D
102
{ACAD_REACTORS
330
C
102
}
330
C
100
AcDbDictionary
281
     1
  0
DICTIONARY
  5
1A
102
{ACAD_REACTORS
330
C
102
}
330
C
100
AcDbDictionary
281
     1
  3
Layout1
350
59
  3
Layout2
350
5E
  3
Model
350
22
  0
DICTIONARY
  5
72
102
{ACAD_REACTORS
330
C
102
}
330
C
100
AcDbDictionary
281
     1
  0
DICTIONARY
  5
17
102
{ACAD_REACTORS
330
C
102
}
330
C
100
AcDbDictionary
281
     1
  3
Standard
350
18
  0
DICTIONARY
  5
19
102
{ACAD_REACTORS
330
C
102
}
330
C
100
AcDbDictionary
281
     1
  0
ACDBDICTIONARYWDFLT
  5
E
102
{ACAD_REACTORS
330
C
102
}
330
C
100
AcDbDictionary
281
     1
  3
Normal
350
F
100
AcDbDictionaryWithDefault
340
F
  0
DICTIONARY
  5
D75
102
{ACAD_REACTORS
330
C
102
}
330
C
100
AcDbDictionary
281
     1
  3
COLORDICT
350
D77
  3
MATERIALDICT
350
D76
  0
DICTIONARY
  5
66
102
{ACAD_REACTORS
330
C
102
}
330
C
100
AcDbDictionary
281
     1
  3
DIMASSOC
350
67
  3
HIDETEXT
350
6B
  3
PROJECTNAME
350
B32
  0
DICTIONARY
  5
A2
102
{ACAD_REACTORS
330
A1
102
}
330
A1
100
AcDbDictionary
281
     1
  0
LAYOUT
  5
59
102
{ACAD_XDICTIONARY
360
D7A
102
}
102
{ACAD_REACTORS
330
1A
102
}
330
1A
100
AcDbPlotSettings
  1

  2
None
  4

  6

 40
0.0
 41
0.0
 42
0.0
 43
0.0
 44
0.0
 45
0.0
 46
0.0
 47
0.0
 48
0.0
 49
0.0
140
0.0
141
0.0
142
1.0
143
1.0
 70
   688
 72
     0
 73
     0
 74
     5
  7

 75
    16
147
1.0
148
0.0
149
0.0
100
AcDbLayout
  1
Layout1
 70
     1
 71
     1
 10
0.0
 20
0.0
 11
12.0
 21
9.0
 12
0.0
 22
0.0
 32
0.0
 14
0.0
 24
0.0
 34
0.0
 15
0.0
 25
0.0
 35
0.0
146
0.0
 13
0.0
 23
0.0
 33
0.0
 16
1.0
 26
0.0
 36
0.0
 17
0.0
 27
1.0
 37
0.0
 76
     0
330
58
  0
LAYOUT
  5
5E
102
{ACAD_XDICTIONARY
360
D7C
102
}
102
{ACAD_REACTORS
330
1A
102
}
330
1A
100
AcDbPlotSettings
  1

  2
None
  4

  6

 40
0.0
 41
0.0
 42
0.0
 43
0.0
 44
0.0
 45
0.0
 46
0.0
 47
0.0
 48
0.0
 49
0.0
140
0.0
141
0.0
142
1.0
143
1.0
 70
   688
 72
     0
 73
     0
 74
     5
  7

 75
    16
147
1.0
148
0.0
149
0.0
100
AcDbLayout
  1
Layout2
 70
     1
 71
     2
 10
0.0
 20
0.0
 11
12.0
 21
9.0
 12
0.0
 22
0.0
 32
0.0
 14
0.0
 24
0.0
 34
0.0
 15
0.0
 25
0.0
 35
0.0
146
0.0
 13
0.0
 23
0.0
 33
0.0
 16
1.0
 26
0.0
 36
0.0
 17
0.0
 27
1.0
 37
0.0
 76
     0
330
5D
  0
LAYOUT
  5
22
102
{ACAD_XDICTIONARY
360
D78
102
}
102
{ACAD_REACTORS
330
1A
102
}
330
1A
100
AcDbPlotSettings
  1

  2
none_device
  4
ANSI_A_(8.50_x_11.00_Inches)
  6

 40
6.349999904632567
 41
19.04999923706055
 42
6.350006103515625
 43
19.04998779296875
 44
215.8999938964844
 45
279.3999938964844
 46
0.0
 47
0.0
 48
0.0
 49
0.0
140
0.0
141
0.0
142
1.0
143
2.584895464708373
 70
 11952
 72
     0
 73
     1
 74
     0
  7

 75
     0
147
0.3868628397755418
148
0.0
149
0.0
100
AcDbLayout
  1
Model
 70
     1
 71
     0
 10
0.0
 20
0.0
 11
12.0
 21
9.0
 12
0.0
 22
0.0
 32
0.0
 14
0.0
 24
0.0
 34
0.0
 15
0.0
 25
0.0
 35
0.0
146
0.0
 13
0.0
 23
0.0
 33
0.0
 16
1.0
 26
0.0
 36
0.0
 17
0.0
 27
1.0
 37
0.0
 76
     0
330
1F
  0
MLINESTYLE
  5
18
102
{ACAD_REACTORS
330
17
102
}
330
17
100
AcDbMlineStyle
  2
STANDARD
 70
     0
  3

 62
   256
 51
90.0
 52
90.0
 71
     2
 49
0.5
 62
   256
  6
BYLAYER
 49
-0.5
 62
   256
  6
BYLAYER
  0
ACDBPLACEHOLDER
  5
F
102
{ACAD_REACTORS
330
E
102
}
330
E
  0
XRECORD
  5
D77
102
{ACAD_REACTORS
330
D75
102
}
330
D75
100
AcDbXrecord
280
     1
340
73
  0
XRECORD
  5
D76
102
{ACAD_REACTORS
330
D75
102
}
330
D75
100
AcDbXrecord
280
     1
340
72
  0
DICTIONARYVAR
  5
67
102
{ACAD_REACTORS
330
66
102
}
330
66
100
DictionaryVariables
280
     0
  1
2
  0
DICTIONARYVAR
  5
6B
102
{ACAD_REACTORS
330
66
102
}
330
66
100
DictionaryVariables
280
     0
  1
1
  0
DICTIONARYVAR
  5
B32
102
{ACAD_REACTORS
330
66
102
}
330
66
100
DictionaryVariables
280
     0
  1

  0
DICTIONARY
  5
D7A
330
59
100
AcDbDictionary
280
     1
281
     1
  3
ACAD_XREC_ROUNDTRIP
360
D7B
  0
DICTIONARY
  5
D7C
330
5E
100
AcDbDictionary
280
     1
281
     1
  3
ACAD_XREC_ROUNDTRIP
360
D7D
  0
DICTIONARY
  5
D78
330
22
100
AcDbDictionary
280
     1
281
     1
  3
ACAD_XREC_ROUNDTRIP
360
D79
  0
XRECORD
  5
D7B
102
{ACAD_REACTORS
330
D7A
102
}
330
D7A
100
AcDbXrecord
280
     1
102
SHADEPLOT
 70
     0
102
SHADEPLOTRESLEVEL
 70
     2
102
SHADEPLOTCUSTOMDPI
 70
   300
  0
XRECORD
  5
D7D
102
{ACAD_REACTORS
330
D7C
102
}
330
D7C
100
AcDbXrecord
280
     1
102
SHADEPLOT
 70
     0
102
SHADEPLOTRESLEVEL
 70
     2
102
SHADEPLOTCUSTOMDPI
 70
   300
  0
XRECORD
  5
D79
102
{ACAD_REACTORS
330
D78
102
}
330
D78
100
AcDbXrecord
280
     1
102
SHADEPLOT
 70
     0
102
SHADEPLOTRESLEVEL
 70
     2
102
SHADEPLOTCUSTOMDPI
 70
   300
  0
ENDSEC
  0
EOF
