  0
SECTION
  2
HEADER
  9
$ACADVER
  1
AC1015
  9
$ACADMAINTVER
 70
    20
  9
$DWGCODEPAGE
  3
ANSI_1252
  9
$INSBASE
 10
0.0
 20
0.0
 30
0.0
  9
$EXTMIN
 10
-309.2394534068367
 20
-50.11868700815817
 30
0.0
  9
$EXTMAX
 10
-261.7411751213891
 20
12.38131299184189
 30
0.0
  9
$LIMMIN
 10
0.0
 20
0.0
  9
$LIMMAX
 10
12.0
 20
9.0
  9
$ORTHOMODE
 70
     0
  9
$REGENMODE
 70
     1
  9
$FILLMODE
 70
     1
  9
$QTEXTMODE
 70
     0
  9
$MIRRTEXT
 70
     0
  9
$LTSCALE
 40
1.0
  9
$ATTMODE
 70
     1
  9
$TEXTSIZE
 40
0.2
  9
$TRACEWID
 40
0.05
  9
$TEXTSTYLE
  7
Standard
  9
$CLAYER
  8
0
  9
$CELTYPE
  6
ByLayer
  9
$CECOLOR
 62
   256
  9
$CELTSCALE
 40
1.0
  9
$DISPSILH
 70
     0
  9
$DIMSCALE
 40
1.0
  9
$DIMASZ
 40
1.0
  9
$DIMEXO
 40
0.375
  9
$DIMDLI
 40
0.38
  9
$DIMRND
 40
0.0
  9
$DIMDLE
 40
0.0
  9
$DIMEXE
 40
0.18
  9
$DIMTP
 40
0.0
  9
$DIMTM
 40
0.0
  9
$DIMTXT
 40
1.0
  9
$DIMCEN
 40
0.09
  9
$DIMTSZ
 40
0.0
  9
$DIMTOL
 70
     0
  9
$DIMLIM
 70
     0
  9
$DIMTIH
 70
     1
  9
$DIMTOH
 70
     1
  9
$DIMSE1
 70
     0
  9
$DIMSE2
 70
     0
  9
$DIMTAD
 70
     0
  9
$DIMZIN
 70
     0
  9
$DIMBLK
  1

  9
$DIMASO
 70
     1
  9
$DIMSHO
 70
     1
  9
$DIMPOST
  1

  9
$DIMAPOST
  1

  9
$DIMALT
 70
     0
  9
$DIMALTD
 70
     2
  9
$DIMALTF
 40
25.4
  9
$DIMLFAC
 40
1.0
  9
$DIMTOFL
 70
     0
  9
$DIMTVP
 40
0.0
  9
$DIMTIX
 70
     0
  9
$DIMSOXD
 70
     0
  9
$DIMSAH
 70
     0
  9
$DIMBLK1
  1

  9
$DIMBLK2
  1

  9
$DIMSTYLE
  2
Standard
  9
$DIMCLRD
 70
     0
  9
$DIMCLRE
 70
     0
  9
$DIMCLRT
 70
     0
  9
$DIMTFAC
 40
1.0
  9
$DIMGAP
 40
0.09
  9
$DIMJUST
 70
     0
  9
$DIMSD1
 70
     0
  9
$DIMSD2
 70
     0
  9
$DIMTOLJ
 70
     1
  9
$DIMTZIN
 70
     0
  9
$DIMALTZ
 70
     0
  9
$DIMALTTZ
 70
     0
  9
$DIMUPT
 70
     0
  9
$DIMDEC
 70
     3
  9
$DIMTDEC
 70
     3
  9
$DIMALTU
 70
     2
  9
$DIMALTTD
 70
     2
  9
$DIMTXSTY
  7
Standard
  9
$DIMAUNIT
 70
     0
  9
$DIMADEC
 70
     0
  9
$DIMALTRND
 40
0.0
  9
$DIMAZIN
 70
     0
  9
$DIMDSEP
 70
    46
  9
$DIMATFIT
 70
     3
  9
$DIMFRAC
 70
     0
  9
$DIMLDRBLK
  1

  9
$DIMLUNIT
 70
     2
  9
$DIMLWD
 70
    -2
  9
$DIMLWE
 70
    -2
  9
$DIMTMOVE
 70
     0
  9
$LUNITS
 70
     2
  9
$LUPREC
 70
     4
  9
$SKETCHINC
 40
0.1
  9
$FILLETRAD
 40
0.0
  9
$AUNITS
 70
     0
  9
$AUPREC
 70
     0
  9
$MENU
  1
.
  9
$ELEVATION
 40
0.0
  9
$PELEVATION
 40
0.0
  9
$THICKNESS
 40
0.0
  9
$LIMCHECK
 70
     0
  9
$CHAMFERA
 40
0.0
  9
$CHAMFERB
 40
0.0
  9
$CHAMFERC
 40
0.0
  9
$CHAMFERD
 40
0.0
  9
$SKPOLY
 70
     0
  9
$TDCREATE
 40
2455093.588003449
  9
$TDUCREATE
 40
2455093.754670116
  9
$TDUPDATE
 40
2456028.515292083
  9
$TDUUPDATE
 40
2456028.681958750
  9
$TDINDWG
 40
0.0271180671
  9
$TDUSRTIMER
 40
0.0271177662
  9
$USRTIMER
 70
     1
  9
$ANGBASE
 50
0.0
  9
$ANGDIR
 70
     0
  9
$PDMODE
 70
     0
  9
$PDSIZE
 40
0.0
  9
$PLINEWID
 40
0.0
  9
$SPLFRAME
 70
     0
  9
$SPLINETYPE
 70
     6
  9
$SPLINESEGS
 70
     8
  9
$HANDSEED
  5
B9B
  9
$SURFTAB1
 70
     6
  9
$SURFTAB2
 70
     6
  9
$SURFTYPE
 70
     6
  9
$SURFU
 70
     6
  9
$SURFV
 70
     6
  9
$UCSBASE
  2

  9
$UCSNAME
  2

  9
$UCSORG
 10
-290.6277845246489
 20
-31.00617788449554
 30
0.0
  9
$UCSXDIR
 10
1.0
 20
0.0
 30
0.0
  9
$UCSYDIR
 10
0.0
 20
1.0
 30
0.0
  9
$UCSORTHOREF
  2

  9
$UCSORTHOVIEW
 70
     0
  9
$UCSORGTOP
 10
0.0
 20
0.0
 30
0.0
  9
$UCSORGBOTTOM
 10
0.0
 20
0.0
 30
0.0
  9
$UCSORGLEFT
 10
0.0
 20
0.0
 30
0.0
  9
$UCSORGRIGHT
 10
0.0
 20
0.0
 30
0.0
  9
$UCSORGFRONT
 10
0.0
 20
0.0
 30
0.0
  9
$UCSORGBACK
 10
0.0
 20
0.0
 30
0.0
  9
$PUCSBASE
  2

  9
$PUCSNAME
  2

  9
$PUCSORG
 10
0.0
 20
0.0
 30
0.0
  9
$PUCSXDIR
 10
1.0
 20
0.0
 30
0.0
  9
$PUCSYDIR
 10
0.0
 20
1.0
 30
0.0
  9
$PUCSORTHOREF
  2

  9
$PUCSORTHOVIEW
 70
     0
  9
$PUCSORGTOP
 10
0.0
 20
0.0
 30
0.0
  9
$PUCSORGBOTTOM
 10
0.0
 20
0.0
 30
0.0
  9
$PUCSORGLEFT
 10
0.0
 20
0.0
 30
0.0
  9
$PUCSORGRIGHT
 10
0.0
 20
0.0
 30
0.0
  9
$PUCSORGFRONT
 10
0.0
 20
0.0
 30
0.0
  9
$PUCSORGBACK
 10
0.0
 20
0.0
 30
0.0
  9
$USERI1
 70
     0
  9
$USERI2
 70
     0
  9
$USERI3
 70
     0
  9
$USERI4
 70
     0
  9
$USERI5
 70
     0
  9
$USERR1
 40
0.0
  9
$USERR2
 40
0.0
  9
$USERR3
 40
0.0
  9
$USERR4
 40
0.0
  9
$USERR5
 40
0.0
  9
$WORLDVIEW
 70
     1
  9
$SHADEDGE
 70
     3
  9
$SHADEDIF
 70
    70
  9
$TILEMODE
 70
     1
  9
$MAXACTVP
 70
    64
  9
$PINSBASE
 10
0.0
 20
0.0
 30
0.0
  9
$PLIMCHECK
 70
     0
  9
$PEXTMIN
 10
0.0
 20
0.0
 30
0.0
  9
$PEXTMAX
 10
0.0
 20
0.0
 30
0.0
  9
$PLIMMIN
 10
0.0
 20
0.0
  9
$PLIMMAX
 10
12.0
 20
9.0
  9
$UNITMODE
 70
     0
  9
$VISRETAIN
 70
     1
  9
$PLINEGEN
 70
     0
  9
$PSLTSCALE
 70
     1
  9
$TREEDEPTH
 70
  3020
  9
$CMLSTYLE
  2
Standard
  9
$CMLJUST
 70
     0
  9
$CMLSCALE
 40
1.0
  9
$PROXYGRAPHICS
 70
     1
  9
$MEASUREMENT
 70
     0
  9
$CELWEIGHT
370
    -1
  9
$ENDCAPS
280
     0
  9
$JOINSTYLE
280
     0
  9
$LWDISPLAY
290
     0
  9
$INSUNITS
 70
     1
  9
$HYPERLINKBASE
  1

  9
$STYLESHEET
  1

  9
$XEDIT
290
     1
  9
$CEPSNTYPE
380
     0
  9
$PSTYLEMODE
290
     1
  9
$FINGERPRINTGUID
  2
{FDEAD576-A652-11D2-9A35-0060089B3A3F}
  9
$VERSIONGUID
  2
{81315816-F4E8-4279-8677-6769A1FA03F4}
  9
$EXTNAMES
290
     1
  9
$PSVPSCALE
 40
0.0
  9
$OLESTARTUP
290
     0
  0
ENDSEC
  0
SECTION
  2
CLASSES
  0
CLASS
  1
ACDBDICTIONARYWDFLT
  2
AcDbDictionaryWithDefault
  3
ObjectDBX Classes
 90
        0
280
     0
281
     0
  0
CLASS
  1
ACDBPLACEHOLDER
  2
AcDbPlaceHolder
  3
ObjectDBX Classes
 90
        0
280
     0
281
     0
  0
CLASS
  1
LAYOUT
  2
AcDbLayout
  3
ObjectDBX Classes
 90
        0
280
     0
281
     0
  0
CLASS
  1
DICTIONARYVAR
  2
AcDbDictionaryVar
  3
ObjectDBX Classes
 90
        0
280
     0
281
     0
  0
CLASS
  1
DIMASSOC
  2
AcDbDimAssoc
  3
"AcDbDimAssoc|Product Desc:     AcDim ARX App For Dimension|Company:          Autodesk, Inc.|WEB Address:      www.autodesk.com"
 90
        0
280
     0
281
     0
  0
CLASS
  1
SORTENTSTABLE
  2
AcDbSortentsTable
  3
ObjectDBX Classes
 90
    32768
280
     0
281
     0
  0
ENDSEC
  0
SECTION
  2
TABLES
  0
TABLE
  2
VPORT
  5
8
330
0
100
AcDbSymbolTable
 70
     5
  0
VPORT
  5
B91
330
8
100
AcDbSymbolTableRecord
100
AcDbViewportTableRecord
  2
*Active
 70
     0
 10
0.0
 20
0.0
 11
1.0
 21
1.0
 12
-295.1047872149466
 22
-26.0575848672807
 13
0.0
 23
0.0
 14
0.5
 24
0.5
 15
0.5
 25
0.5
 16
0.0
 26
0.0
 36
1.0
 17
0.0
 27
0.0
 37
0.0
 40
110.8975557622077
 41
2.060331825037707
 42
50.0
 43
0.0
 44
0.0
 50
0.0
 51
0.0
 71
     0
 72
  1000
 73
     1
 74
     3
 75
     0
 76
     0
 77
     0
 78
     0
281
     0
 65
     1
110
-290.6277845246489
120
-31.00617788449554
130
0.0
111
1.0
121
0.0
131
0.0
112
0.0
122
1.0
132
0.0
 79
     0
146
0.0
  0
ENDTAB
  0
TABLE
  2
LTYPE
  5
5
330
0
100
AcDbSymbolTable
 70
     2
  0
LTYPE
  5
14
330
5
100
AcDbSymbolTableRecord
100
AcDbLinetypeTableRecord
  2
ByBlock
 70
     0
  3

 72
    65
 73
     0
 40
0.0
  0
LTYPE
  5
15
330
5
100
AcDbSymbolTableRecord
100
AcDbLinetypeTableRecord
  2
ByLayer
 70
     0
  3

 72
    65
 73
     0
 40
0.0
  0
LTYPE
  5
16
330
5
100
AcDbSymbolTableRecord
100
AcDbLinetypeTableRecord
  2
Continuous
 70
     0
  3
Solid line
 72
    65
 73
     0
 40
0.0
  0
LTYPE
  5
165
330
5
100
AcDbSymbolTableRecord
100
AcDbLinetypeTableRecord
  2
DASHED
 70
     0
  3
__ __ __ __ __ __ __ __ __ __ __ __ __ __ __ __
 72
    65
 73
     2
 40
0.75
 49
0.5
 74
     0
 49
-0.25
 74
     0
  0
ENDTAB
  0
TABLE
  2
LAYER
  5
2
102
{ACAD_XDICTIONARY
360
16A
102
}
330
0
100
AcDbSymbolTable
 70
     6
  0
LAYER
  5
10
330
2
100
AcDbSymbolTableRecord
100
AcDbLayerTableRecord
  2
0
 70
     0
 62
     7
  6
Continuous
370
    -3
390
F
  0
LAYER
  5
166
330
2
100
AcDbSymbolTableRecord
100
AcDbLayerTableRecord
  2
TEXT
 70
     0
 62
    -7
  6
Continuous
370
    -3
390
F
  0
LAYER
  5
167
330
2
100
AcDbSymbolTableRecord
100
AcDbLayerTableRecord
  2
Defpoints
 70
     0
 62
     7
  6
Continuous
290
     0
370
    -3
390
F
  0
LAYER
  5
168
330
2
100
AcDbSymbolTableRecord
100
AcDbLayerTableRecord
  2
DIM
 70
     0
 62
     7
  6
Continuous
370
    -3
390
F
  0
LAYER
  5
169
330
2
100
AcDbSymbolTableRecord
100
AcDbLayerTableRecord
  2
TEMPLATE
 70
     0
 62
     7
  6
Continuous
370
    -3
390
F
  0
LAYER
  5
350
330
2
100
AcDbSymbolTableRecord
100
AcDbLayerTableRecord
  2
BORDER
 70
     0
 62
     7
  6
Continuous
370
    -3
390
F
  0
ENDTAB
  0
TABLE
  2
STYLE
  5
3
330
0
100
AcDbSymbolTable
 70
     1
  0
STYLE
  5
11
330
3
100
AcDbSymbolTableRecord
100
AcDbTextStyleTableRecord
  2
Standard
 70
     0
 40
0.0
 41
1.0
 50
0.0
 71
     0
 42
0.2
  3
txt
  4

  0
ENDTAB
  0
TABLE
  2
VIEW
  5
6
330
0
100
AcDbSymbolTable
 70
     0
  0
ENDTAB
  0
TABLE
  2
UCS
  5
7
330
0
100
AcDbSymbolTable
 70
     0
  0
ENDTAB
  0
TABLE
  2
APPID
  5
9
330
0
100
AcDbSymbolTable
 70
     1
  0
APPID
  5
12
330
9
100
AcDbSymbolTableRecord
100
AcDbRegAppTableRecord
  2
ACAD
 70
     0
  0
ENDTAB
  0
TABLE
  2
DIMSTYLE
  5
A
330
0
100
AcDbSymbolTable
 70
     1
100
AcDbDimStyleTable
 71
     1
340
27
  0
DIMSTYLE
105
27
102
{ACAD_REACTORS
330
7CA
330
7CB
330
7CC
330
7CD
330
7CE
330
7D0
330
7D1
330
7D2
330
7D3
330
7D4
330
7D5
330
7D6
330
7D7
330
7D8
330
7D9
330
7DA
330
7DB
330
7DE
330
7E2
330
7E3
330
7E4
330
7E5
330
7EB
330
7EE
330
7F1
330
7F2
330
7F5
330
7B5
330
7B6
330
B53
102
}
330
A
100
AcDbSymbolTableRecord
100
AcDbDimStyleTableRecord
  2
Standard
 70
     0
 41
1.0
 42
0.375
140
1.0
271
     3
272
     3
340
11
  0
ENDTAB
  0
TABLE
  2
BLOCK_RECORD
  5
1
330
0
100
AcDbSymbolTable
 70
    87
  0
BLOCK_RECORD
  5
1F
330
1
100
AcDbSymbolTableRecord
100
AcDbBlockTableRecord
  2
*Model_Space
340
22
  0
BLOCK_RECORD
  5
58
330
1
100
AcDbSymbolTableRecord
100
AcDbBlockTableRecord
  2
*Paper_Space
340
59
  0
BLOCK_RECORD
  5
5D
330
1
100
AcDbSymbolTableRecord
100
AcDbBlockTableRecord
  2
*Paper_Space0
340
5E
  0
BLOCK_RECORD
  5
206
330
1
100
AcDbSymbolTableRecord
100
AcDbBlockTableRecord
  2
*D1
340
0
  0
BLOCK_RECORD
  5
20E
330
1
100
AcDbSymbolTableRecord
100
AcDbBlockTableRecord
  2
*D2
340
0
  0
BLOCK_RECORD
  5
218
330
1
100
AcDbSymbolTableRecord
100
AcDbBlockTableRecord
  2
*D3
340
0
  0
BLOCK_RECORD
  5
220
330
1
100
AcDbSymbolTableRecord
100
AcDbBlockTableRecord
  2
*D4
340
0
  0
BLOCK_RECORD
  5
228
330
1
100
AcDbSymbolTableRecord
100
AcDbBlockTableRecord
  2
*D5
340
0
  0
BLOCK_RECORD
  5
232
330
1
100
AcDbSymbolTableRecord
100
AcDbBlockTableRecord
  2
*D6
340
0
  0
BLOCK_RECORD
  5
23A
330
1
100
AcDbSymbolTableRecord
100
AcDbBlockTableRecord
  2
*D7
340
0
  0
BLOCK_RECORD
  5
244
330
1
100
AcDbSymbolTableRecord
100
AcDbBlockTableRecord
  2
*D8
340
0
  0
BLOCK_RECORD
  5
254
330
1
100
AcDbSymbolTableRecord
100
AcDbBlockTableRecord
  2
*D9
340
0
  0
BLOCK_RECORD
  5
25E
330
1
100
AcDbSymbolTableRecord
100
AcDbBlockTableRecord
  2
*D10
340
0
  0
BLOCK_RECORD
  5
268
330
1
100
AcDbSymbolTableRecord
100
AcDbBlockTableRecord
  2
*D11
340
0
  0
BLOCK_RECORD
  5
270
330
1
100
AcDbSymbolTableRecord
100
AcDbBlockTableRecord
  2
*D12
340
0
  0
BLOCK_RECORD
  5
278
330
1
100
AcDbSymbolTableRecord
100
AcDbBlockTableRecord
  2
*D13
340
0
  0
BLOCK_RECORD
  5
280
330
1
100
AcDbSymbolTableRecord
100
AcDbBlockTableRecord
  2
*D14
340
0
  0
BLOCK_RECORD
  5
288
330
1
100
AcDbSymbolTableRecord
100
AcDbBlockTableRecord
  2
*D15
340
0
  0
BLOCK_RECORD
  5
290
330
1
100
AcDbSymbolTableRecord
100
AcDbBlockTableRecord
  2
*D16
340
0
  0
BLOCK_RECORD
  5
298
330
1
100
AcDbSymbolTableRecord
100
AcDbBlockTableRecord
  2
*D17
340
0
  0
BLOCK_RECORD
  5
2A0
330
1
100
AcDbSymbolTableRecord
100
AcDbBlockTableRecord
  2
*D18
340
0
  0
BLOCK_RECORD
  5
2AA
330
1
100
AcDbSymbolTableRecord
100
AcDbBlockTableRecord
  2
*D19
340
0
  0
BLOCK_RECORD
  5
322
330
1
100
AcDbSymbolTableRecord
100
AcDbBlockTableRecord
  2
*D20
340
0
  0
BLOCK_RECORD
  5
32C
330
1
100
AcDbSymbolTableRecord
100
AcDbBlockTableRecord
  2
*D21
340
0
  0
BLOCK_RECORD
  5
334
330
1
100
AcDbSymbolTableRecord
100
AcDbBlockTableRecord
  2
*D22
340
0
  0
BLOCK_RECORD
  5
33C
330
1
100
AcDbSymbolTableRecord
100
AcDbBlockTableRecord
  2
*D23
340
0
  0
BLOCK_RECORD
  5
346
330
1
100
AcDbSymbolTableRecord
100
AcDbBlockTableRecord
  2
*D24
340
0
  0
BLOCK_RECORD
  5
5C8
330
1
100
AcDbSymbolTableRecord
100
AcDbBlockTableRecord
  2
*D25
340
0
  0
BLOCK_RECORD
  5
63E
330
1
100
AcDbSymbolTableRecord
100
AcDbBlockTableRecord
  2
*D26
340
0
  0
BLOCK_RECORD
  5
646
330
1
100
AcDbSymbolTableRecord
100
AcDbBlockTableRecord
  2
*D27
340
0
  0
BLOCK_RECORD
  5
650
330
1
100
AcDbSymbolTableRecord
100
AcDbBlockTableRecord
  2
*D28
340
0
  0
BLOCK_RECORD
  5
658
330
1
100
AcDbSymbolTableRecord
100
AcDbBlockTableRecord
  2
*D29
340
0
  0
BLOCK_RECORD
  5
660
330
1
100
AcDbSymbolTableRecord
100
AcDbBlockTableRecord
  2
*D30
340
0
  0
BLOCK_RECORD
  5
66A
330
1
100
AcDbSymbolTableRecord
100
AcDbBlockTableRecord
  2
*D31
340
0
  0
BLOCK_RECORD
  5
672
330
1
100
AcDbSymbolTableRecord
100
AcDbBlockTableRecord
  2
*D32
340
0
  0
BLOCK_RECORD
  5
67C
330
1
100
AcDbSymbolTableRecord
100
AcDbBlockTableRecord
  2
*D33
340
0
  0
BLOCK_RECORD
  5
684
330
1
100
AcDbSymbolTableRecord
100
AcDbBlockTableRecord
  2
*D34
340
0
  0
BLOCK_RECORD
  5
68C
330
1
100
AcDbSymbolTableRecord
100
AcDbBlockTableRecord
  2
*D35
340
0
  0
BLOCK_RECORD
  5
696
330
1
100
AcDbSymbolTableRecord
100
AcDbBlockTableRecord
  2
*D36
340
0
  0
BLOCK_RECORD
  5
6A0
330
1
100
AcDbSymbolTableRecord
100
AcDbBlockTableRecord
  2
*D37
340
0
  0
BLOCK_RECORD
  5
6A8
330
1
100
AcDbSymbolTableRecord
100
AcDbBlockTableRecord
  2
*D38
340
0
  0
BLOCK_RECORD
  5
6B0
330
1
100
AcDbSymbolTableRecord
100
AcDbBlockTableRecord
  2
*D39
340
0
  0
BLOCK_RECORD
  5
6B8
330
1
100
AcDbSymbolTableRecord
100
AcDbBlockTableRecord
  2
*D40
340
0
  0
BLOCK_RECORD
  5
6C0
330
1
100
AcDbSymbolTableRecord
100
AcDbBlockTableRecord
  2
*D41
340
0
  0
BLOCK_RECORD
  5
6C8
330
1
100
AcDbSymbolTableRecord
100
AcDbBlockTableRecord
  2
*D42
340
0
  0
BLOCK_RECORD
  5
6D0
330
1
100
AcDbSymbolTableRecord
100
AcDbBlockTableRecord
  2
*D43
340
0
  0
BLOCK_RECORD
  5
6D8
330
1
100
AcDbSymbolTableRecord
100
AcDbBlockTableRecord
  2
*D44
340
0
  0
BLOCK_RECORD
  5
6E2
330
1
100
AcDbSymbolTableRecord
100
AcDbBlockTableRecord
  2
*D45
340
0
  0
BLOCK_RECORD
  5
6EA
330
1
100
AcDbSymbolTableRecord
100
AcDbBlockTableRecord
  2
*D46
340
0
  0
BLOCK_RECORD
  5
6F4
330
1
100
AcDbSymbolTableRecord
100
AcDbBlockTableRecord
  2
*D47
340
0
  0
BLOCK_RECORD
  5
6FC
330
1
100
AcDbSymbolTableRecord
100
AcDbBlockTableRecord
  2
*D48
340
0
  0
BLOCK_RECORD
  5
704
330
1
100
AcDbSymbolTableRecord
100
AcDbBlockTableRecord
  2
*D49
340
0
  0
BLOCK_RECORD
  5
70E
330
1
100
AcDbSymbolTableRecord
100
AcDbBlockTableRecord
  2
*D50
340
0
  0
BLOCK_RECORD
  5
718
330
1
100
AcDbSymbolTableRecord
100
AcDbBlockTableRecord
  2
*D51
340
0
  0
BLOCK_RECORD
  5
722
330
1
100
AcDbSymbolTableRecord
100
AcDbBlockTableRecord
  2
*D52
340
0
  0
BLOCK_RECORD
  5
72C
330
1
100
AcDbSymbolTableRecord
100
AcDbBlockTableRecord
  2
*D53
340
0
  0
BLOCK_RECORD
  5
736
330
1
100
AcDbSymbolTableRecord
100
AcDbBlockTableRecord
  2
*D54
340
0
  0
BLOCK_RECORD
  5
741
330
1
100
AcDbSymbolTableRecord
100
AcDbBlockTableRecord
  2
*D55
340
0
  0
BLOCK_RECORD
  5
80A
330
1
100
AcDbSymbolTableRecord
100
AcDbBlockTableRecord
  2
*D56
340
0
  0
BLOCK_RECORD
  5
812
330
1
100
AcDbSymbolTableRecord
100
AcDbBlockTableRecord
  2
*D57
340
0
  0
BLOCK_RECORD
  5
81A
330
1
100
AcDbSymbolTableRecord
100
AcDbBlockTableRecord
  2
*D58
340
0
  0
BLOCK_RECORD
  5
824
330
1
100
AcDbSymbolTableRecord
100
AcDbBlockTableRecord
  2
*D59
340
0
  0
BLOCK_RECORD
  5
82C
330
1
100
AcDbSymbolTableRecord
100
AcDbBlockTableRecord
  2
*D60
340
0
  0
BLOCK_RECORD
  5
836
330
1
100
AcDbSymbolTableRecord
100
AcDbBlockTableRecord
  2
*D61
340
0
  0
BLOCK_RECORD
  5
83E
330
1
100
AcDbSymbolTableRecord
100
AcDbBlockTableRecord
  2
*D62
340
0
  0
BLOCK_RECORD
  5
846
330
1
100
AcDbSymbolTableRecord
100
AcDbBlockTableRecord
  2
*D63
340
0
  0
BLOCK_RECORD
  5
850
330
1
100
AcDbSymbolTableRecord
100
AcDbBlockTableRecord
  2
*D64
340
0
  0
BLOCK_RECORD
  5
85A
330
1
100
AcDbSymbolTableRecord
100
AcDbBlockTableRecord
  2
*D65
340
0
  0
BLOCK_RECORD
  5
862
330
1
100
AcDbSymbolTableRecord
100
AcDbBlockTableRecord
  2
*D66
340
0
  0
BLOCK_RECORD
  5
86A
330
1
100
AcDbSymbolTableRecord
100
AcDbBlockTableRecord
  2
*D67
340
0
  0
BLOCK_RECORD
  5
872
330
1
100
AcDbSymbolTableRecord
100
AcDbBlockTableRecord
  2
*D68
340
0
  0
BLOCK_RECORD
  5
87A
330
1
100
AcDbSymbolTableRecord
100
AcDbBlockTableRecord
  2
*D69
340
0
  0
BLOCK_RECORD
  5
882
330
1
100
AcDbSymbolTableRecord
100
AcDbBlockTableRecord
  2
*D70
340
0
  0
BLOCK_RECORD
  5
88A
330
1
100
AcDbSymbolTableRecord
100
AcDbBlockTableRecord
  2
*D71
340
0
  0
BLOCK_RECORD
  5
892
330
1
100
AcDbSymbolTableRecord
100
AcDbBlockTableRecord
  2
*D72
340
0
  0
BLOCK_RECORD
  5
89C
330
1
100
AcDbSymbolTableRecord
100
AcDbBlockTableRecord
  2
*D73
340
0
  0
BLOCK_RECORD
  5
8A4
330
1
100
AcDbSymbolTableRecord
100
AcDbBlockTableRecord
  2
*D74
340
0
  0
BLOCK_RECORD
  5
8AC
330
1
100
AcDbSymbolTableRecord
100
AcDbBlockTableRecord
  2
*D75
340
0
  0
BLOCK_RECORD
  5
8B4
330
1
100
AcDbSymbolTableRecord
100
AcDbBlockTableRecord
  2
*D76
340
0
  0
BLOCK_RECORD
  5
8BE
330
1
100
AcDbSymbolTableRecord
100
AcDbBlockTableRecord
  2
*D77
340
0
  0
BLOCK_RECORD
  5
8C8
330
1
100
AcDbSymbolTableRecord
100
AcDbBlockTableRecord
  2
*D78
340
0
  0
BLOCK_RECORD
  5
8D2
330
1
100
AcDbSymbolTableRecord
100
AcDbBlockTableRecord
  2
*D79
340
0
  0
BLOCK_RECORD
  5
8DA
330
1
100
AcDbSymbolTableRecord
100
AcDbBlockTableRecord
  2
*D80
340
0
  0
BLOCK_RECORD
  5
948
330
1
100
AcDbSymbolTableRecord
100
AcDbBlockTableRecord
  2
*D81
340
0
  0
BLOCK_RECORD
  5
96A
330
1
100
AcDbSymbolTableRecord
100
AcDbBlockTableRecord
  2
*D82
340
0
  0
BLOCK_RECORD
  5
974
330
1
100
AcDbSymbolTableRecord
100
AcDbBlockTableRecord
  2
*D83
340
0
  0
BLOCK_RECORD
  5
985
330
1
100
AcDbSymbolTableRecord
100
AcDbBlockTableRecord
  2
*D84
340
0
  0
BLOCK_RECORD
  5
990
330
1
100
AcDbSymbolTableRecord
100
AcDbBlockTableRecord
  2
*D85
340
0
  0
BLOCK_RECORD
  5
B54
330
1
100
AcDbSymbolTableRecord
100
AcDbBlockTableRecord
  2
*D86
340
0
  0
ENDTAB
  0
ENDSEC
  0
SECTION
  2
BLOCKS
  0
BLOCK
  5
20
330
1F
100
AcDbEntity
  8
0
100
AcDbBlockBegin
  2
*Model_Space
 70
     0
 10
0.0
 20
0.0
 30
0.0
  3
*Model_Space
  1

  0
ENDBLK
  5
21
330
1F
100
AcDbEntity
  8
0
100
AcDbBlockEnd
  0
BLOCK
  5
5A
330
58
100
AcDbEntity
 67
     1
  8
0
100
AcDbBlockBegin
  2
*Paper_Space
 70
     0
 10
0.0
 20
0.0
 30
0.0
  3
*Paper_Space
  1

  0
ENDBLK
  5
5B
330
58
100
AcDbEntity
 67
     1
  8
0
100
AcDbBlockEnd
  0
BLOCK
  5
5F
330
5D
100
AcDbEntity
  8
0
100
AcDbBlockBegin
  2
*Paper_Space0
 70
     0
 10
0.0
 20
0.0
 30
0.0
  3
*Paper_Space0
  1

  0
ENDBLK
  5
60
330
5D
100
AcDbEntity
  8
0
100
AcDbBlockEnd
  0
BLOCK
  5
20C
330
206
100
AcDbEntity
  8
0
100
AcDbBlockBegin
  2
*D1
 70
     1
 10
0.0
 20
0.0
 30
0.0
  3
*D1
  1

  0
LINE
  5
A4E
330
206
100
AcDbEntity
  8
DIM
 62
     0
370
    -2
100
AcDbLine
 10
-234.5979894536197
 20
-12.9621870081581
 30
0.0
 11
-234.5979894536197
 21
-16.4911870081582
 31
0.0
  0
MTEXT
  5
A4F
330
206
100
AcDbEntity
  8
DIM
 62
     0
100
AcDbMText
 10
-234.5979894536197
 20
-18.74118700815824
 30
0.0
 40
0.9999999999999998
 41
0.0
 71
     5
 72
     1
  1
\A1;5.140
 11
0.0000000000000001
 21
1.0
 31
0.0
 73
     1
 44
1.0
1001
ACAD
1000
MTEXTBEGIN
1070
    73
1070
     1
1070
    44
1040
1.0
1070
    74
1070
     0
1000
MTEXTEND
  0
POINT
  5
A50
330
206
100
AcDbEntity
  8
Defpoints
 62
     0
100
AcDbPoint
 10
-234.5979894536197
 20
-12.5871870081581
 30
0.0
  0
POINT
  5
A51
330
206
100
AcDbEntity
  8
Defpoints
 62
     0
100
AcDbPoint
 10
-234.5979894536197
 20
-16.4911870081582
 30
0.0
  0
POINT
  5
A52
330
206
100
AcDbEntity
  8
Defpoints
 62
     0
100
AcDbPoint
 10
-239.7379597141557
 20
-31.00617788449554
 30
0.0
  0
ENDBLK
  5
20D
330
206
100
AcDbEntity
  8
0
100
AcDbBlockEnd
  0
BLOCK
  5
216
330
20E
100
AcDbEntity
  8
0
100
AcDbBlockBegin
  2
*D2
 70
     1
 10
0.0
 20
0.0
 30
0.0
  3
*D2
  1

  0
LINE
  5
A47
330
20E
100
AcDbEntity
  8
DIM
 62
     0
370
    -2
100
AcDbLine
 10
-234.9729894536197
 20
-12.5871870081581
 30
0.0
 11
-239.7379894536198
 21
-12.5871870081581
 31
0.0
  0
LINE
  5
A48
330
20E
100
AcDbEntity
  8
DIM
 62
     0
370
    -2
100
AcDbLine
 10
-239.7379894536198
 20
-12.5871870081581
 30
0.0
 11
-241.7379894536198
 21
-11.7411870081582
 31
0.0
  0
LINE
  5
A49
330
20E
100
AcDbEntity
  8
DIM
 62
     0
370
    -2
100
AcDbLine
 10
-241.7379894536198
 20
-11.7411870081582
 30
0.0
 11
-243.7379894536198
 21
-11.7411870081582
 31
0.0
  0
MTEXT
  5
A4A
330
20E
100
AcDbEntity
  8
DIM
 62
     0
100
AcDbMText
 10
-246.4046561202864
 20
-11.7411870081582
 30
0.0
 40
0.9999999999999998
 41
0.0
 71
     5
 72
     1
  1
\A1;18.419
 73
     1
 44
1.0
1001
ACAD
1000
MTEXTBEGIN
1070
    73
1070
     1
1070
    44
1040
1.0
1070
    74
1070
     0
1000
MTEXTEND
  0
POINT
  5
A4B
330
20E
100
AcDbEntity
  8
Defpoints
 62
     0
100
AcDbPoint
 10
-234.5979894536197
 20
-12.5871870081581
 30
0.0
  0
POINT
  5
A4C
330
20E
100
AcDbEntity
  8
Defpoints
 62
     0
100
AcDbPoint
 10
-243.7379894536198
 20
-11.7411870081582
 30
0.0
  0
POINT
  5
A4D
330
20E
100
AcDbEntity
  8
Defpoints
 62
     0
100
AcDbPoint
 10
-239.7379597141557
 20
-31.00617788449554
 30
0.0
  0
ENDBLK
  5
217
330
20E
100
AcDbEntity
  8
0
100
AcDbBlockEnd
  0
BLOCK
  5
21E
330
218
100
AcDbEntity
  8
0
100
AcDbBlockBegin
  2
*D3
 70
     1
 10
0.0
 20
0.0
 30
0.0
  3
*D3
  1

  0
LINE
  5
A42
330
218
100
AcDbEntity
  8
DIM
 62
     0
370
    -2
100
AcDbLine
 10
-240.1129894536198
 20
-31.00618700815803
 30
0.0
 11
-243.7771129692578
 21
-31.00618700815803
 31
0.0
  0
MTEXT
  5
A43
330
218
100
AcDbEntity
  8
DIM
 62
     0
100
AcDbMText
 10
-245.9437796359244
 20
-31.00618700815803
 30
0.0
 40
0.9999999999999998
 41
0.0
 71
     5
 72
     1
  1
\A1;0.000
 73
     1
 44
1.0
1001
ACAD
1000
MTEXTBEGIN
1070
    73
1070
     1
1070
    44
1040
1.0
1070
    74
1070
     0
1000
MTEXTEND
  0
POINT
  5
A44
330
218
100
AcDbEntity
  8
Defpoints
 62
     0
100
AcDbPoint
 10
-239.7379894536198
 20
-31.00618700815803
 30
0.0
  0
POINT
  5
A45
330
218
100
AcDbEntity
  8
Defpoints
 62
     0
100
AcDbPoint
 10
-243.7771129692578
 20
-31.00618700815803
 30
0.0
  0
POINT
  5
A46
330
218
100
AcDbEntity
  8
Defpoints
 62
     0
100
AcDbPoint
 10
-239.7379786532253
 20
-31.00615221164082
 30
0.0
  0
ENDBLK
  5
21F
330
218
100
AcDbEntity
  8
0
100
AcDbBlockEnd
  0
BLOCK
  5
226
330
220
100
AcDbEntity
  8
0
100
AcDbBlockBegin
  2
*D4
 70
     1
 10
0.0
 20
0.0
 30
0.0
  3
*D4
  1

  0
LINE
  5
A3D
330
220
100
AcDbEntity
  8
DIM
 62
     0
370
    -2
100
AcDbLine
 10
-239.7379894536198
 20
-31.38118700815803
 30
0.0
 11
-239.7379894536198
 21
-34.98280198140566
 31
0.0
  0
MTEXT
  5
A3E
330
220
100
AcDbEntity
  8
DIM
 62
     0
100
AcDbMText
 10
-239.7379894536198
 20
-37.14946864807236
 30
0.0
 40
0.9999999999999998
 41
0.0
 71
     5
 72
     1
  1
\A1;0.000
 11
0.0000000000000001
 21
1.0
 31
0.0
 73
     1
 44
1.0
1001
ACAD
1000
MTEXTBEGIN
1070
    73
1070
     1
1070
    44
1040
1.0
1070
    74
1070
     0
1000
MTEXTEND
  0
POINT
  5
A3F
330
220
100
AcDbEntity
  8
Defpoints
 62
     0
100
AcDbPoint
 10
-239.7379894536198
 20
-31.00618700815803
 30
0.0
  0
POINT
  5
A40
330
220
100
AcDbEntity
  8
Defpoints
 62
     0
100
AcDbPoint
 10
-239.7379894536198
 20
-34.98280198140566
 30
0.0
  0
POINT
  5
A41
330
220
100
AcDbEntity
  8
Defpoints
 62
     0
100
AcDbPoint
 10
-239.7379786532253
 20
-31.00615221164082
 30
0.0
  0
ENDBLK
  5
227
330
220
100
AcDbEntity
  8
0
100
AcDbBlockEnd
  0
BLOCK
  5
230
330
228
100
AcDbEntity
  8
0
100
AcDbBlockBegin
  2
*D5
 70
     1
 10
0.0
 20
0.0
 30
0.0
  3
*D5
  1

  0
LINE
  5
A36
330
228
100
AcDbEntity
  8
DIM
 62
     0
370
    -2
100
AcDbLine
 10
-239.3529894536196
 20
-30.99618700815803
 30
0.0
 11
-239.3529894536196
 21
-32.62118700815804
 31
0.0
  0
LINE
  5
A37
330
228
100
AcDbEntity
  8
DIM
 62
     0
370
    -2
100
AcDbLine
 10
-239.3529894536196
 20
-32.62118700815804
 30
0.0
 11
-238.1381708479105
 21
-33.02138351373244
 31
0.0
  0
LINE
  5
A38
330
228
100
AcDbEntity
  8
DIM
 62
     0
370
    -2
100
AcDbLine
 10
-238.1381708479105
 20
-33.02138351373244
 30
0.0
 11
-238.1381708479105
 21
-35.02138351373245
 31
0.0
  0
MTEXT
  5
A39
330
228
100
AcDbEntity
  8
DIM
 62
     0
100
AcDbMText
 10
-238.1381708479105
 20
-37.43805018039914
 30
0.0
 40
0.9999999999999998
 41
0.0
 71
     5
 72
     1
  1
\A1;0.385
 11
0.0000000000000001
 21
1.0
 31
0.0
 73
     1
 44
1.0
1001
ACAD
1000
MTEXTBEGIN
1070
    73
1070
     1
1070
    44
1040
1.0
1070
    74
1070
     0
1000
MTEXTEND
  0
POINT
  5
A3A
330
228
100
AcDbEntity
  8
Defpoints
 62
     0
100
AcDbPoint
 10
-239.3529894536196
 20
-30.62118700815803
 30
0.0
  0
POINT
  5
A3B
330
228
100
AcDbEntity
  8
Defpoints
 62
     0
100
AcDbPoint
 10
-238.1381708479105
 20
-35.02138351373245
 30
0.0
  0
POINT
  5
A3C
330
228
100
AcDbEntity
  8
Defpoints
 62
     0
100
AcDbPoint
 10
-239.7379786532253
 20
-31.00615221164082
 30
0.0
  0
ENDBLK
  5
231
330
228
100
AcDbEntity
  8
0
100
AcDbBlockEnd
  0
BLOCK
  5
238
330
232
100
AcDbEntity
  8
0
100
AcDbBlockBegin
  2
*D6
 70
     1
 10
0.0
 20
0.0
 30
0.0
  3
*D6
  1

  0
LINE
  5
9F9
330
232
100
AcDbEntity
  8
DIM
 62
     0
370
    -2
100
AcDbLine
 10
-229.4629894536197
 20
-31.38118700815803
 30
0.0
 11
-229.4629894536197
 21
-35.02138351373245
 31
0.0
  0
MTEXT
  5
9FA
330
232
100
AcDbEntity
  8
DIM
 62
     0
100
AcDbMText
 10
-229.4629894536197
 20
-37.77138351373248
 30
0.0
 40
0.9999999999999998
 41
0.0
 71
     5
 72
     1
  1
\A1;10.275
 11
0.0000000000000001
 21
1.0
 31
0.0
 73
     1
 44
1.0
1001
ACAD
1000
MTEXTBEGIN
1070
    73
1070
     1
1070
    44
1040
1.0
1070
    74
1070
     0
1000
MTEXTEND
  0
POINT
  5
9FB
330
232
100
AcDbEntity
  8
Defpoints
 62
     0
100
AcDbPoint
 10
-229.4629894536197
 20
-31.00618700815803
 30
0.0
  0
POINT
  5
9FC
330
232
100
AcDbEntity
  8
Defpoints
 62
     0
100
AcDbPoint
 10
-229.4629894536197
 20
-35.02138351373245
 30
0.0
  0
POINT
  5
9FD
330
232
100
AcDbEntity
  8
Defpoints
 62
     0
100
AcDbPoint
 10
-239.7379786532253
 20
-31.00615221164082
 30
0.0
  0
ENDBLK
  5
239
330
232
100
AcDbEntity
  8
0
100
AcDbBlockEnd
  0
BLOCK
  5
242
330
23A
100
AcDbEntity
  8
0
100
AcDbBlockBegin
  2
*D7
 70
     1
 10
0.0
 20
0.0
 30
0.0
  3
*D7
  1

  0
LINE
  5
9F2
330
23A
100
AcDbEntity
  8
DIM
 62
     0
370
    -2
100
AcDbLine
 10
-229.8479894536196
 20
-30.99618700815803
 30
0.0
 11
-229.8479894536196
 21
-32.62118700815803
 31
0.0
  0
LINE
  5
9F3
330
23A
100
AcDbEntity
  8
DIM
 62
     0
370
    -2
100
AcDbLine
 10
-229.8479894536196
 20
-32.62118700815803
 30
0.0
 11
-230.9543136549324
 21
-32.98280198140566
 31
0.0
  0
LINE
  5
9F4
330
23A
100
AcDbEntity
  8
DIM
 62
     0
370
    -2
100
AcDbLine
 10
-230.9543136549324
 20
-32.98280198140566
 30
0.0
 11
-230.9543136549324
 21
-34.98280198140566
 31
0.0
  0
MTEXT
  5
9F5
330
23A
100
AcDbEntity
  8
DIM
 62
     0
100
AcDbMText
 10
-230.9543136549324
 20
-37.39946864807236
 30
0.0
 40
0.9999999999999998
 41
0.0
 71
     5
 72
     1
  1
\A1;9.890
 11
0.0000000000000001
 21
1.0
 31
0.0
 73
     1
 44
1.0
1001
ACAD
1000
MTEXTBEGIN
1070
    73
1070
     1
1070
    44
1040
1.0
1070
    74
1070
     0
1000
MTEXTEND
  0
POINT
  5
9F6
330
23A
100
AcDbEntity
  8
Defpoints
 62
     0
100
AcDbPoint
 10
-229.8479894536196
 20
-30.62118700815803
 30
0.0
  0
POINT
  5
9F7
330
23A
100
AcDbEntity
  8
Defpoints
 62
     0
100
AcDbPoint
 10
-230.9543136549324
 20
-34.98280198140566
 30
0.0
  0
POINT
  5
9F8
330
23A
100
AcDbEntity
  8
Defpoints
 62
     0
100
AcDbPoint
 10
-239.7379786532253
 20
-31.00615221164082
 30
0.0
  0
ENDBLK
  5
243
330
23A
100
AcDbEntity
  8
0
100
AcDbBlockEnd
  0
BLOCK
  5
24A
330
244
100
AcDbEntity
  8
0
100
AcDbBlockBegin
  2
*D8
 70
     1
 10
0.0
 20
0.0
 30
0.0
  3
*D8
  1

  0
LINE
  5
9ED
330
244
100
AcDbEntity
  8
DIM
 62
     0
370
    -2
100
AcDbLine
 10
-229.4729894536196
 20
-30.62118700815803
 30
0.0
 11
-225.4698631686204
 21
-30.62118700815803
 31
0.0
  0
MTEXT
  5
9EE
330
244
100
AcDbEntity
  8
DIM
 62
     0
100
AcDbMText
 10
-223.0531965019538
 20
-30.62118700815803
 30
0.0
 40
0.9999999999999998
 41
0.0
 71
     5
 72
     1
  1
\A1;0.385
 73
     1
 44
1.0
1001
ACAD
1000
MTEXTBEGIN
1070
    73
1070
     1
1070
    44
1040
1.0
1070
    74
1070
     0
1000
MTEXTEND
  0
POINT
  5
9EF
330
244
100
AcDbEntity
  8
Defpoints
 62
     0
100
AcDbPoint
 10
-229.8479894536196
 20
-30.62118700815803
 30
0.0
  0
POINT
  5
9F0
330
244
100
AcDbEntity
  8
Defpoints
 62
     0
100
AcDbPoint
 10
-225.4698631686204
 20
-30.62118700815803
 30
0.0
  0
POINT
  5
9F1
330
244
100
AcDbEntity
  8
Defpoints
 62
     0
100
AcDbPoint
 10
-239.7379786532253
 20
-31.00615221164082
 30
0.0
  0
ENDBLK
  5
24B
330
244
100
AcDbEntity
  8
0
100
AcDbBlockEnd
  0
BLOCK
  5
25C
330
254
100
AcDbEntity
  8
0
100
AcDbBlockBegin
  2
*D9
 70
     1
 10
0.0
 20
0.0
 30
0.0
  3
*D9
  1

  0
LINE
  5
A2F
330
254
100
AcDbEntity
  8
DIM
 62
     0
370
    -2
100
AcDbLine
 10
-239.2879894536196
 20
-20.68118700815798
 30
0.0
 11
-239.2879894536196
 21
-22.30618700815798
 31
0.0
  0
LINE
  5
A30
330
254
100
AcDbEntity
  8
DIM
 62
     0
370
    -2
100
AcDbLine
 10
-239.2879894536196
 20
-22.30618700815798
 30
0.0
 11
-238.0135681149115
 21
-22.85111650893629
 31
0.0
  0
LINE
  5
A31
330
254
100
AcDbEntity
  8
DIM
 62
     0
370
    -2
100
AcDbLine
 10
-238.0135681149115
 20
-22.85111650893629
 30
0.0
 11
-238.0135681149115
 21
-24.85111650893629
 31
0.0
  0
MTEXT
  5
A32
330
254
100
AcDbEntity
  8
DIM
 62
     0
100
AcDbMText
 10
-238.0135681149115
 20
-27.18444984226966
 30
0.0
 40
0.9999999999999998
 41
0.0
 71
     5
 72
     1
  1
\A1;0.450
 11
0.0000000000000001
 21
1.0
 31
0.0
 73
     1
 44
1.0
1001
ACAD
1000
MTEXTBEGIN
1070
    73
1070
     1
1070
    44
1040
1.0
1070
    74
1070
     0
1000
MTEXTEND
  0
POINT
  5
A33
330
254
100
AcDbEntity
  8
Defpoints
 62
     0
100
AcDbPoint
 10
-239.2879894536196
 20
-20.30618700815798
 30
0.0
  0
POINT
  5
A34
330
254
100
AcDbEntity
  8
Defpoints
 62
     0
100
AcDbPoint
 10
-238.0135681149115
 20
-24.85111650893629
 30
0.0
  0
POINT
  5
A35
330
254
100
AcDbEntity
  8
Defpoints
 62
     0
100
AcDbPoint
 10
-239.7379786532253
 20
-31.00615221164082
 30
0.0
  0
ENDBLK
  5
25D
330
254
100
AcDbEntity
  8
0
100
AcDbBlockEnd
  0
BLOCK
  5
266
330
25E
100
AcDbEntity
  8
0
100
AcDbBlockBegin
  2
*D10
 70
     1
 10
0.0
 20
0.0
 30
0.0
  3
*D10
  1

  0
LINE
  5
9E6
330
25E
100
AcDbEntity
  8
DIM
 62
     0
370
    -2
100
AcDbLine
 10
-229.9129894536196
 20
-20.68118700815798
 30
0.0
 11
-229.9129894536196
 21
-22.30618700815798
 31
0.0
  0
LINE
  5
9E7
330
25E
100
AcDbEntity
  8
DIM
 62
     0
370
    -2
100
AcDbLine
 10
-229.9129894536196
 20
-22.30618700815798
 30
0.0
 11
-231.2129894536197
 21
-22.80618700815798
 31
0.0
  0
LINE
  5
9E8
330
25E
100
AcDbEntity
  8
DIM
 62
     0
370
    -2
100
AcDbLine
 10
-231.2129894536197
 20
-22.80618700815798
 30
0.0
 11
-231.2129894536197
 21
-24.80618700815798
 31
0.0
  0
MTEXT
  5
9E9
330
25E
100
AcDbEntity
  8
DIM
 62
     0
100
AcDbMText
 10
-231.2129894536197
 20
-27.30618700815802
 30
0.0
 40
0.9999999999999998
 41
0.0
 71
     5
 72
     1
  1
\A1;9.825
 11
0.0000000000000001
 21
1.0
 31
0.0
 73
     1
 44
1.0
1001
ACAD
1000
MTEXTBEGIN
1070
    73
1070
     1
1070
    44
1040
1.0
1070
    74
1070
     0
1000
MTEXTEND
  0
POINT
  5
9EA
330
25E
100
AcDbEntity
  8
Defpoints
 62
     0
100
AcDbPoint
 10
-229.9129894536196
 20
-20.30618700815798
 30
0.0
  0
POINT
  5
9EB
330
25E
100
AcDbEntity
  8
Defpoints
 62
     0
100
AcDbPoint
 10
-231.2129894536197
 20
-24.80618700815798
 30
0.0
  0
POINT
  5
9EC
330
25E
100
AcDbEntity
  8
Defpoints
 62
     0
100
AcDbPoint
 10
-239.7379786532253
 20
-31.00615221164082
 30
0.0
  0
ENDBLK
  5
267
330
25E
100
AcDbEntity
  8
0
100
AcDbBlockEnd
  0
BLOCK
  5
26E
330
268
100
AcDbEntity
  8
0
100
AcDbBlockBegin
  2
*D11
 70
     1
 10
0.0
 20
0.0
 30
0.0
  3
*D11
  1

  0
LINE
  5
9DF
330
268
100
AcDbEntity
  8
DIM
 62
     0
370
    -2
100
AcDbLine
 10
-229.9409894536198
 20
-15.45118700815819
 30
0.0
 11
-228.3159894536198
 21
-15.45118700815819
 31
0.0
  0
LINE
  5
9E0
330
268
100
AcDbEntity
  8
DIM
 62
     0
370
    -2
100
AcDbLine
 10
-228.3159894536198
 20
-15.45118700815819
 30
0.0
 11
-227.5108162327543
 21
-14.51892964400258
 31
0.0
  0
LINE
  5
9E1
330
268
100
AcDbEntity
  8
DIM
 62
     0
370
    -2
100
AcDbLine
 10
-227.5108162327543
 20
-14.51892964400258
 30
0.0
 11
-225.5108162327543
 21
-14.51892964400258
 31
0.0
  0
MTEXT
  5
9E2
330
268
100
AcDbEntity
  8
DIM
 62
     0
100
AcDbMText
 10
-222.6774828994209
 20
-14.51892964400258
 30
0.0
 40
0.9999999999999998
 41
0.0
 71
     5
 72
     1
  1
\A1;15.555
 73
     1
 44
1.0
1001
ACAD
1000
MTEXTBEGIN
1070
    73
1070
     1
1070
    44
1040
1.0
1070
    74
1070
     0
1000
MTEXTEND
  0
POINT
  5
9E3
330
268
100
AcDbEntity
  8
Defpoints
 62
     0
100
AcDbPoint
 10
-230.3159894536198
 20
-15.45118700815819
 30
0.0
  0
POINT
  5
9E4
330
268
100
AcDbEntity
  8
Defpoints
 62
     0
100
AcDbPoint
 10
-225.5108162327543
 20
-14.51892964400258
 30
0.0
  0
POINT
  5
9E5
330
268
100
AcDbEntity
  8
Defpoints
 62
     0
100
AcDbPoint
 10
-239.7379786532253
 20
-31.00615221164082
 30
0.0
  0
ENDBLK
  5
26F
330
268
100
AcDbEntity
  8
0
100
AcDbBlockEnd
  0
BLOCK
  5
276
330
270
100
AcDbEntity
  8
0
100
AcDbBlockBegin
  2
*D12
 70
     1
 10
0.0
 20
0.0
 30
0.0
  3
*D12
  1

  0
LINE
  5
9DA
330
270
100
AcDbEntity
  8
DIM
 62
     0
370
    -2
100
AcDbLine
 10
-229.5379894536196
 20
-8.806187008157984
 30
0.0
 11
-225.5108162327543
 21
-8.806187008157984
 31
0.0
  0
MTEXT
  5
9DB
330
270
100
AcDbEntity
  8
DIM
 62
     0
100
AcDbMText
 10
-222.6774828994209
 20
-8.806187008157984
 30
0.0
 40
0.9999999999999998
 41
0.0
 71
     5
 72
     1
  1
\A1;22.200
 73
     1
 44
1.0
1001
ACAD
1000
MTEXTBEGIN
1070
    73
1070
     1
1070
    44
1040
1.0
1070
    74
1070
     0
1000
MTEXTEND
  0
POINT
  5
9DC
330
270
100
AcDbEntity
  8
Defpoints
 62
     0
100
AcDbPoint
 10
-229.9129894536196
 20
-8.806187008157984
 30
0.0
  0
POINT
  5
9DD
330
270
100
AcDbEntity
  8
Defpoints
 62
     0
100
AcDbPoint
 10
-225.5108162327543
 20
-8.806187008157984
 30
0.0
  0
POINT
  5
9DE
330
270
100
AcDbEntity
  8
Defpoints
 62
     0
100
AcDbPoint
 10
-239.7379786532253
 20
-31.00615221164082
 30
0.0
  0
ENDBLK
  5
277
330
270
100
AcDbEntity
  8
0
100
AcDbBlockEnd
  0
BLOCK
  5
27E
330
278
100
AcDbEntity
  8
0
100
AcDbBlockBegin
  2
*D13
 70
     1
 10
0.0
 20
0.0
 30
0.0
  3
*D13
  1

  0
LINE
  5
9D5
330
278
100
AcDbEntity
  8
DIM
 62
     0
370
    -2
100
AcDbLine
 10
-229.0879894536197
 20
-6.731187008158192
 30
0.0
 11
-225.4197806522707
 21
-6.731187008158192
 31
0.0
  0
MTEXT
  5
9D6
330
278
100
AcDbEntity
  8
DIM
 62
     0
100
AcDbMText
 10
-222.4197806522707
 20
-6.731187008158192
 30
0.0
 40
0.9999999999999998
 41
0.0
 71
     5
 72
     1
  1
\A1;24.275
 73
     1
 44
1.0
1001
ACAD
1000
MTEXTBEGIN
1070
    73
1070
     1
1070
    44
1040
1.0
1070
    74
1070
     0
1000
MTEXTEND
  0
POINT
  5
9D7
330
278
100
AcDbEntity
  8
Defpoints
 62
     0
100
AcDbPoint
 10
-229.4629894536197
 20
-6.731187008158192
 30
0.0
  0
POINT
  5
9D8
330
278
100
AcDbEntity
  8
Defpoints
 62
     0
100
AcDbPoint
 10
-225.4197806522707
 20
-6.731187008158192
 30
0.0
  0
POINT
  5
9D9
330
278
100
AcDbEntity
  8
Defpoints
 62
     0
100
AcDbPoint
 10
-239.7379786532253
 20
-31.00615221164082
 30
0.0
  0
ENDBLK
  5
27F
330
278
100
AcDbEntity
  8
0
100
AcDbBlockEnd
  0
BLOCK
  5
286
330
280
100
AcDbEntity
  8
0
100
AcDbBlockBegin
  2
*D14
 70
     1
 10
0.0
 20
0.0
 30
0.0
  3
*D14
  1

  0
LINE
  5
A2A
330
280
100
AcDbEntity
  8
DIM
 62
     0
370
    -2
100
AcDbLine
 10
-238.8479894536195
 20
-14.4911870081582
 30
0.0
 11
-243.6897799350158
 21
-14.4911870081582
 31
0.0
  0
MTEXT
  5
A2B
330
280
100
AcDbEntity
  8
DIM
 62
     0
100
AcDbMText
 10
-246.3564466016824
 20
-14.4911870081582
 30
0.0
 40
0.9999999999999998
 41
0.0
 71
     5
 72
     1
  1
\A1;16.515
 73
     1
 44
1.0
1001
ACAD
1000
MTEXTBEGIN
1070
    73
1070
     1
1070
    44
1040
1.0
1070
    74
1070
     0
1000
MTEXTEND
  0
POINT
  5
A2C
330
280
100
AcDbEntity
  8
Defpoints
 62
     0
100
AcDbPoint
 10
-238.4729894536195
 20
-14.4911870081582
 30
0.0
  0
POINT
  5
A2D
330
280
100
AcDbEntity
  8
Defpoints
 62
     0
100
AcDbPoint
 10
-243.6897799350158
 20
-14.4911870081582
 30
0.0
  0
POINT
  5
A2E
330
280
100
AcDbEntity
  8
Defpoints
 62
     0
100
AcDbPoint
 10
-239.7379786532253
 20
-31.00615221164082
 30
0.0
  0
ENDBLK
  5
287
330
280
100
AcDbEntity
  8
0
100
AcDbBlockEnd
  0
BLOCK
  5
28E
330
288
100
AcDbEntity
  8
0
100
AcDbBlockBegin
  2
*D15
 70
     1
 10
0.0
 20
0.0
 30
0.0
  3
*D15
  1

  0
LINE
  5
A25
330
288
100
AcDbEntity
  8
DIM
 62
     0
370
    -2
100
AcDbLine
 10
-238.8479894536195
 20
-13.2411870081582
 30
0.0
 11
-243.7263725492508
 21
-13.2411870081582
 31
0.0
  0
MTEXT
  5
A26
330
288
100
AcDbEntity
  8
DIM
 62
     0
100
AcDbMText
 10
-246.5597058825841
 20
-13.2411870081582
 30
0.0
 40
0.9999999999999998
 41
0.0
 71
     5
 72
     1
  1
\A1;17.765
 73
     1
 44
1.0
1001
ACAD
1000
MTEXTBEGIN
1070
    73
1070
     1
1070
    44
1040
1.0
1070
    74
1070
     0
1000
MTEXTEND
  0
POINT
  5
A27
330
288
100
AcDbEntity
  8
Defpoints
 62
     0
100
AcDbPoint
 10
-238.4729894536195
 20
-13.2411870081582
 30
0.0
  0
POINT
  5
A28
330
288
100
AcDbEntity
  8
Defpoints
 62
     0
100
AcDbPoint
 10
-243.7263725492508
 20
-13.2411870081582
 30
0.0
  0
POINT
  5
A29
330
288
100
AcDbEntity
  8
Defpoints
 62
     0
100
AcDbPoint
 10
-239.7379786532253
 20
-31.00615221164082
 30
0.0
  0
ENDBLK
  5
28F
330
288
100
AcDbEntity
  8
0
100
AcDbBlockEnd
  0
BLOCK
  5
296
330
290
100
AcDbEntity
  8
0
100
AcDbBlockBegin
  2
*D16
 70
     1
 10
0.0
 20
0.0
 30
0.0
  3
*D16
  1

  0
LINE
  5
A20
330
290
100
AcDbEntity
  8
DIM
 62
     0
370
    -2
100
AcDbLine
 10
-239.2879894536196
 20
-8.431187008157982
 30
0.0
 11
-239.2879894536196
 21
-2.807533678947398
 31
0.0
  0
MTEXT
  5
A21
330
290
100
AcDbEntity
  8
DIM
 62
     0
100
AcDbMText
 10
-239.2879894536196
 20
-0.4742003456141039
 30
0.0
 40
0.9999999999999998
 41
0.0
 71
     5
 72
     1
  1
\A1;0.450
 11
0.0000000000000001
 21
1.0
 31
0.0
 73
     1
 44
1.0
1001
ACAD
1000
MTEXTBEGIN
1070
    73
1070
     1
1070
    44
1040
1.0
1070
    74
1070
     0
1000
MTEXTEND
  0
POINT
  5
A22
330
290
100
AcDbEntity
  8
Defpoints
 62
     0
100
AcDbPoint
 10
-239.2879894536196
 20
-8.806187008157984
 30
0.0
  0
POINT
  5
A23
330
290
100
AcDbEntity
  8
Defpoints
 62
     0
100
AcDbPoint
 10
-239.2879894536196
 20
-2.807533678947398
 30
0.0
  0
POINT
  5
A24
330
290
100
AcDbEntity
  8
Defpoints
 62
     0
100
AcDbPoint
 10
-239.7379786532253
 20
-31.00615221164082
 30
0.0
  0
ENDBLK
  5
297
330
290
100
AcDbEntity
  8
0
100
AcDbBlockEnd
  0
BLOCK
  5
29E
330
298
100
AcDbEntity
  8
0
100
AcDbBlockBegin
  2
*D17
 70
     1
 10
0.0
 20
0.0
 30
0.0
  3
*D17
  1

  0
LINE
  5
9D0
330
298
100
AcDbEntity
  8
DIM
 62
     0
370
    -2
100
AcDbLine
 10
-230.3159894536198
 20
-15.07618700815819
 30
0.0
 11
-230.3159894536198
 21
-2.739867761480303
 31
0.0
  0
MTEXT
  5
9D1
330
298
100
AcDbEntity
  8
DIM
 62
     0
100
AcDbMText
 10
-230.3159894536198
 20
-0.2398677614803409
 30
0.0
 40
0.9999999999999998
 41
0.0
 71
     5
 72
     1
  1
\A1;9.422
 11
0.0000000000000001
 21
1.0
 31
0.0
 73
     1
 44
1.0
1001
ACAD
1000
MTEXTBEGIN
1070
    73
1070
     1
1070
    44
1040
1.0
1070
    74
1070
     0
1000
MTEXTEND
  0
POINT
  5
9D2
330
298
100
AcDbEntity
  8
Defpoints
 62
     0
100
AcDbPoint
 10
-230.3159894536198
 20
-15.45118700815819
 30
0.0
  0
POINT
  5
9D3
330
298
100
AcDbEntity
  8
Defpoints
 62
     0
100
AcDbPoint
 10
-230.3159894536198
 20
-2.739867761480303
 30
0.0
  0
POINT
  5
9D4
330
298
100
AcDbEntity
  8
Defpoints
 62
     0
100
AcDbPoint
 10
-239.7379786532253
 20
-31.00615221164082
 30
0.0
  0
ENDBLK
  5
29F
330
298
100
AcDbEntity
  8
0
100
AcDbBlockEnd
  0
BLOCK
  5
2A8
330
2A0
100
AcDbEntity
  8
0
100
AcDbBlockBegin
  2
*D18
 70
     1
 10
0.0
 20
0.0
 30
0.0
  3
*D18
  1

  0
LINE
  5
9C9
330
2A0
100
AcDbEntity
  8
DIM
 62
     0
370
    -2
100
AcDbLine
 10
-229.9129894536196
 20
-8.431187008157982
 30
0.0
 11
-229.9129894536196
 21
-6.739867761480303
 31
0.0
  0
LINE
  5
9CA
330
2A0
100
AcDbEntity
  8
DIM
 62
     0
370
    -2
100
AcDbLine
 10
-229.9129894536196
 20
-6.739867761480303
 30
0.0
 11
-228.8733656640001
 21
-4.739867761480303
 31
0.0
  0
LINE
  5
9CB
330
2A0
100
AcDbEntity
  8
DIM
 62
     0
370
    -2
100
AcDbLine
 10
-228.8733656640001
 20
-4.739867761480303
 30
0.0
 11
-228.8733656640001
 21
-2.739867761480303
 31
0.0
  0
MTEXT
  5
9CC
330
2A0
100
AcDbEntity
  8
DIM
 62
     0
100
AcDbMText
 10
-228.8733656640001
 20
-0.2398677614803406
 30
0.0
 40
0.9999999999999998
 41
0.0
 71
     5
 72
     1
  1
\A1;9.825
 11
0.0000000000000001
 21
1.0
 31
0.0
 73
     1
 44
1.0
1001
ACAD
1000
MTEXTBEGIN
1070
    73
1070
     1
1070
    44
1040
1.0
1070
    74
1070
     0
1000
MTEXTEND
  0
POINT
  5
9CD
330
2A0
100
AcDbEntity
  8
Defpoints
 62
     0
100
AcDbPoint
 10
-229.9129894536196
 20
-8.806187008157984
 30
0.0
  0
POINT
  5
9CE
330
2A0
100
AcDbEntity
  8
Defpoints
 62
     0
100
AcDbPoint
 10
-228.8733656640001
 20
-2.739867761480303
 30
0.0
  0
POINT
  5
9CF
330
2A0
100
AcDbEntity
  8
Defpoints
 62
     0
100
AcDbPoint
 10
-239.7379786532253
 20
-31.00615221164082
 30
0.0
  0
ENDBLK
  5
2A9
330
2A0
100
AcDbEntity
  8
0
100
AcDbBlockEnd
  0
BLOCK
  5
2B0
330
2AA
100
AcDbEntity
  8
0
100
AcDbBlockBegin
  2
*D19
 70
     1
 10
0.0
 20
0.0
 30
0.0
  3
*D19
  1

  0
LINE
  5
A1B
330
2AA
100
AcDbEntity
  8
DIM
 62
     0
370
    -2
100
AcDbLine
 10
-238.4729894536195
 20
-14.8661870081582
 30
0.0
 11
-238.4729894536195
 21
-16.4720053617855
 31
0.0
  0
MTEXT
  5
A1C
330
2AA
100
AcDbEntity
  8
DIM
 62
     0
100
AcDbMText
 10
-238.4729894536195
 20
-18.80533869511887
 30
0.0
 40
0.9999999999999998
 41
0.0
 71
     5
 72
     1
  1
\A1;1.265
 11
0.0000000000000001
 21
1.0
 31
0.0
 73
     1
 44
1.0
1001
ACAD
1000
MTEXTBEGIN
1070
    73
1070
     1
1070
    44
1040
1.0
1070
    74
1070
     0
1000
MTEXTEND
  0
POINT
  5
A1D
330
2AA
100
AcDbEntity
  8
Defpoints
 62
     0
100
AcDbPoint
 10
-238.4729894536195
 20
-14.4911870081582
 30
0.0
  0
POINT
  5
A1E
330
2AA
100
AcDbEntity
  8
Defpoints
 62
     0
100
AcDbPoint
 10
-238.4729894536195
 20
-16.4720053617855
 30
0.0
  0
POINT
  5
A1F
330
2AA
100
AcDbEntity
  8
Defpoints
 62
     0
100
AcDbPoint
 10
-239.7379786532253
 20
-31.00615221164082
 30
0.0
  0
ENDBLK
  5
2B1
330
2AA
100
AcDbEntity
  8
0
100
AcDbBlockEnd
  0
BLOCK
  5
32A
330
322
100
AcDbEntity
  8
0
100
AcDbBlockBegin
  2
*D20
 70
     1
 10
0.0
 20
0.0
 30
0.0
  3
*D20
  1

  0
LINE
  5
9C2
330
322
100
AcDbEntity
  8
0
 62
     0
370
    -2
100
AcDbLine
 10
-229.9409894536198
 20
-16.95118700815819
 30
0.0
 11
-228.3159894536198
 21
-16.95118700815819
 31
0.0
  0
LINE
  5
9C3
330
322
100
AcDbEntity
  8
0
 62
     0
370
    -2
100
AcDbLine
 10
-228.3159894536198
 20
-16.95118700815819
 30
0.0
 11
-226.9995710919898
 21
-16.17037950958121
 31
0.0
  0
LINE
  5
9C4
330
322
100
AcDbEntity
  8
0
 62
     0
370
    -2
100
AcDbLine
 10
-226.9995710919898
 20
-16.17037950958121
 30
0.0
 11
-224.9995710919898
 21
-16.17037950958121
 31
0.0
  0
MTEXT
  5
9C5
330
322
100
AcDbEntity
  8
0
 62
     0
100
AcDbMText
 10
-222.6595710919898
 20
-16.17037950958121
 30
0.0
 40
1.0
 41
0.0
 71
     5
 72
     1
  1
\A1;14.055
 73
     1
 44
1.0
1001
ACAD
1000
MTEXTBEGIN
1070
    73
1070
     1
1070
    44
1040
1.0
1070
    74
1070
     0
1000
MTEXTEND
  0
POINT
  5
9C6
330
322
100
AcDbEntity
  8
Defpoints
 62
     0
100
AcDbPoint
 10
-230.3159894536198
 20
-16.95118700815819
 30
0.0
  0
POINT
  5
9C7
330
322
100
AcDbEntity
  8
Defpoints
 62
     0
100
AcDbPoint
 10
-224.9995710919898
 20
-16.17037950958121
 30
0.0
  0
POINT
  5
9C8
330
322
100
AcDbEntity
  8
Defpoints
 62
     0
100
AcDbPoint
 10
-239.7379894536198
 20
-31.00618700815803
 30
0.0
  0
ENDBLK
  5
32B
330
322
100
AcDbEntity
  8
0
100
AcDbBlockEnd
  0
BLOCK
  5
332
330
32C
100
AcDbEntity
  8
0
100
AcDbBlockBegin
  2
*D21
 70
     1
 10
0.0
 20
0.0
 30
0.0
  3
*D21
  1

  0
LINE
  5
A16
330
32C
100
AcDbEntity
  8
0
 62
     0
370
    -2
100
AcDbLine
 10
-235.7279894536198
 20
-10.04118700815809
 30
0.0
 11
-243.8115351804531
 21
-10.04118700815809
 31
0.0
  0
MTEXT
  5
A17
330
32C
100
AcDbEntity
  8
0
 62
     0
100
AcDbMText
 10
-246.3182018471197
 20
-10.04118700815809
 30
0.0
 40
1.0
 41
0.0
 71
     5
 72
     1
  1
\A1;20.965
 73
     1
 44
1.0
1001
ACAD
1000
MTEXTBEGIN
1070
    73
1070
     1
1070
    44
1040
1.0
1070
    74
1070
     0
1000
MTEXTEND
  0
POINT
  5
A18
330
32C
100
AcDbEntity
  8
Defpoints
 62
     0
100
AcDbPoint
 10
-235.3529894536198
 20
-10.04118700815809
 30
0.0
  0
POINT
  5
A19
330
32C
100
AcDbEntity
  8
Defpoints
 62
     0
100
AcDbPoint
 10
-243.8115351804531
 20
-10.04118700815809
 30
0.0
  0
POINT
  5
A1A
330
32C
100
AcDbEntity
  8
Defpoints
 62
     0
100
AcDbPoint
 10
-239.7379894536198
 20
-31.00618700815803
 30
0.0
  0
ENDBLK
  5
333
330
32C
100
AcDbEntity
  8
0
100
AcDbBlockEnd
  0
BLOCK
  5
33A
330
334
100
AcDbEntity
  8
0
100
AcDbBlockBegin
  2
*D22
 70
     1
 10
0.0
 20
0.0
 30
0.0
  3
*D22
  1

  0
LINE
  5
A11
330
334
100
AcDbEntity
  8
0
 62
     0
370
    -2
100
AcDbLine
 10
-235.7279894536198
 20
-7.391187008157977
 30
0.0
 11
-244.094482876942
 21
-7.391187008157977
 31
0.0
  0
MTEXT
  5
A12
330
334
100
AcDbEntity
  8
0
 62
     0
100
AcDbMText
 10
-246.5178162102753
 20
-7.391187008157977
 30
0.0
 40
1.0
 41
0.0
 71
     5
 72
     1
  1
\A1;23.615
 73
     1
 44
1.0
1001
ACAD
1000
MTEXTBEGIN
1070
    73
1070
     1
1070
    44
1040
1.0
1070
    74
1070
     0
1000
MTEXTEND
  0
POINT
  5
A13
330
334
100
AcDbEntity
  8
Defpoints
 62
     0
100
AcDbPoint
 10
-235.3529894536198
 20
-7.391187008157977
 30
0.0
  0
POINT
  5
A14
330
334
100
AcDbEntity
  8
Defpoints
 62
     0
100
AcDbPoint
 10
-244.094482876942
 20
-7.391187008157977
 30
0.0
  0
POINT
  5
A15
330
334
100
AcDbEntity
  8
Defpoints
 62
     0
100
AcDbPoint
 10
-239.7379894536198
 20
-31.00618700815803
 30
0.0
  0
ENDBLK
  5
33B
330
334
100
AcDbEntity
  8
0
100
AcDbBlockEnd
  0
BLOCK
  5
344
330
33C
100
AcDbEntity
  8
0
100
AcDbBlockBegin
  2
*D23
 70
     1
 10
0.0
 20
0.0
 30
0.0
  3
*D23
  1

  0
LINE
  5
A0A
330
33C
100
AcDbEntity
  8
0
 62
     0
370
    -2
100
AcDbLine
 10
-235.3529894536198
 20
-7.016187008157977
 30
0.0
 11
-235.3529894536198
 21
-5.391187008157976
 31
0.0
  0
LINE
  5
A0B
330
33C
100
AcDbEntity
  8
0
 62
     0
370
    -2
100
AcDbLine
 10
-235.3529894536198
 20
-5.391187008157976
 30
0.0
 11
-234.7333456538149
 21
-4.175440400305594
 31
0.0
  0
LINE
  5
A0C
330
33C
100
AcDbEntity
  8
0
 62
     0
370
    -2
100
AcDbLine
 10
-234.7333456538149
 20
-4.175440400305594
 30
0.0
 11
-234.7333456538149
 21
-2.175440400305594
 31
0.0
  0
MTEXT
  5
A0D
330
33C
100
AcDbEntity
  8
0
 62
     0
100
AcDbMText
 10
-234.7333456538149
 20
-0.0854404003056318
 30
0.0
 40
1.0
 41
0.0
 71
     5
 72
     1
  1
\A1;4.385
 11
0.0000000000000001
 21
1.0
 31
0.0
 73
     1
 44
1.0
1001
ACAD
1000
MTEXTBEGIN
1070
    73
1070
     1
1070
    44
1040
1.0
1070
    74
1070
     0
1000
MTEXTEND
  0
POINT
  5
A0E
330
33C
100
AcDbEntity
  8
Defpoints
 62
     0
100
AcDbPoint
 10
-235.3529894536198
 20
-7.391187008157977
 30
0.0
  0
POINT
  5
A0F
330
33C
100
AcDbEntity
  8
Defpoints
 62
     0
100
AcDbPoint
 10
-234.7333456538149
 20
-2.175440400305594
 30
0.0
  0
POINT
  5
A10
330
33C
100
AcDbEntity
  8
Defpoints
 62
     0
100
AcDbPoint
 10
-239.7379894536198
 20
-31.00618700815803
 30
0.0
  0
ENDBLK
  5
345
330
33C
100
AcDbEntity
  8
0
100
AcDbBlockEnd
  0
BLOCK
  5
34E
330
346
100
AcDbEntity
  8
0
100
AcDbBlockBegin
  2
*D24
 70
     1
 10
0.0
 20
0.0
 30
0.0
  3
*D24
  1

  0
LINE
  5
A03
330
346
100
AcDbEntity
  8
0
 62
     0
370
    -2
100
AcDbLine
 10
-230.9779894536198
 20
-7.016187008157977
 30
0.0
 11
-230.9779894536198
 21
-5.391187008157976
 31
0.0
  0
LINE
  5
A04
330
346
100
AcDbEntity
  8
0
 62
     0
370
    -2
100
AcDbLine
 10
-230.9779894536198
 20
-5.391187008157976
 30
0.0
 11
-232.4577195966047
 21
-4.278303466174
 31
0.0
  0
LINE
  5
A05
330
346
100
AcDbEntity
  8
0
 62
     0
370
    -2
100
AcDbLine
 10
-232.4577195966047
 20
-4.278303466174
 30
0.0
 11
-232.4577195966047
 21
-2.278303466174
 31
0.0
  0
MTEXT
  5
A06
330
346
100
AcDbEntity
  8
0
 62
     0
100
AcDbMText
 10
-232.4577195966047
 20
-0.271636799507371
 30
0.0
 40
1.0
 41
0.0
 71
     5
 72
     1
  1
\A1;8.760
 11
0.0000000000000001
 21
1.0
 31
0.0
 73
     1
 44
1.0
1001
ACAD
1000
MTEXTBEGIN
1070
    73
1070
     1
1070
    44
1040
1.0
1070
    74
1070
     0
1000
MTEXTEND
  0
POINT
  5
A07
330
346
100
AcDbEntity
  8
Defpoints
 62
     0
100
AcDbPoint
 10
-230.9779894536198
 20
-7.391187008157977
 30
0.0
  0
POINT
  5
A08
330
346
100
AcDbEntity
  8
Defpoints
 62
     0
100
AcDbPoint
 10
-232.4577195966047
 20
-2.278303466174
 30
0.0
  0
POINT
  5
A09
330
346
100
AcDbEntity
  8
Defpoints
 62
     0
100
AcDbPoint
 10
-239.7379894536198
 20
-31.00618700815803
 30
0.0
  0
ENDBLK
  5
34F
330
346
100
AcDbEntity
  8
0
100
AcDbBlockEnd
  0
BLOCK
  5
5CE
330
5C8
100
AcDbEntity
  8
0
100
AcDbBlockBegin
  2
*D25
 70
     1
 10
0.0
 20
0.0
 30
0.0
  3
*D25
  1

  0
LINE
  5
9FE
330
5C8
100
AcDbEntity
  8
0
 62
     0
370
    -2
100
AcDbLine
 10
-239.6629894536196
 20
-20.30618700815798
 30
0.0
 11
-242.7655739880532
 21
-20.30618700815798
 31
0.0
  0
MTEXT
  5
9FF
330
5C8
100
AcDbEntity
  8
0
 62
     0
100
AcDbMText
 10
-244.9389073213866
 20
-20.30618700815798
 30
0.0
 40
1.0
 41
0.0
 71
     5
 72
     1
  1
\A1;10.700
 73
     1
 44
1.0
1001
ACAD
1000
MTEXTBEGIN
1070
    73
1070
     1
1070
    44
1040
1.0
1070
    74
1070
     0
1000
MTEXTEND
  0
POINT
  5
A00
330
5C8
100
AcDbEntity
  8
Defpoints
 62
     0
100
AcDbPoint
 10
-239.2879894536196
 20
-20.30618700815798
 30
0.0
  0
POINT
  5
A01
330
5C8
100
AcDbEntity
  8
Defpoints
 62
     0
100
AcDbPoint
 10
-242.7655739880532
 20
-20.30618700815798
 30
0.0
  0
POINT
  5
A02
330
5C8
100
AcDbEntity
  8
Defpoints
 62
     0
100
AcDbPoint
 10
50.88982481049311
 20
0.0
 30
0.0
  0
ENDBLK
  5
5CF
330
5C8
100
AcDbEntity
  8
0
100
AcDbBlockEnd
  0
BLOCK
  5
63F
330
63E
100
AcDbEntity
  8
0
100
AcDbBlockBegin
  2
*D26
 70
     1
 10
0.0
 20
0.0
 30
0.0
  3
*D26
  1

  0
LINE
  5
640
330
63E
100
AcDbEntity
  8
DIM
 62
     0
370
    -2
100
AcDbLine
 10
352.7820636715152
 20
110.1616090070788
 30
0.0
 11
352.7820636715152
 21
106.6326090070787
 31
0.0
  0
MTEXT
  5
641
330
63E
100
AcDbEntity
  8
DIM
 62
     0
100
AcDbMText
 10
352.7820636715152
 20
104.3826090070788
 30
0.0
 40
0.9999999999999998
 41
0.0
 71
     5
 72
     1
  1
\A1;5.140
 11
0.0000000000000001
 21
1.0
 31
0.0
 73
     1
 44
1.0
1001
ACAD
1000
MTEXTBEGIN
1070
    73
1070
     1
1070
    44
1040
1.0
1070
    74
1070
     0
1000
MTEXTEND
  0
POINT
  5
642
330
63E
100
AcDbEntity
  8
Defpoints
 62
     0
100
AcDbPoint
 10
352.7820636715152
 20
110.5366090070788
 30
0.0
  0
POINT
  5
643
330
63E
100
AcDbEntity
  8
Defpoints
 62
     0
100
AcDbPoint
 10
352.7820636715152
 20
106.6326090070787
 30
0.0
  0
POINT
  5
644
330
63E
100
AcDbEntity
  8
Defpoints
 62
     0
100
AcDbPoint
 10
347.6420934109792
 20
92.11761813074136
 30
0.0
  0
ENDBLK
  5
645
330
63E
100
AcDbEntity
  8
0
100
AcDbBlockEnd
  0
BLOCK
  5
647
330
646
100
AcDbEntity
  8
0
100
AcDbBlockBegin
  2
*D27
 70
     1
 10
0.0
 20
0.0
 30
0.0
  3
*D27
  1

  0
LINE
  5
648
330
646
100
AcDbEntity
  8
DIM
 62
     0
370
    -2
100
AcDbLine
 10
352.4070636715152
 20
110.5366090070788
 30
0.0
 11
347.6420636715151
 21
110.5366090070788
 31
0.0
  0
LINE
  5
649
330
646
100
AcDbEntity
  8
DIM
 62
     0
370
    -2
100
AcDbLine
 10
347.6420636715151
 20
110.5366090070788
 30
0.0
 11
345.6420636715151
 21
111.3826090070787
 31
0.0
  0
LINE
  5
64A
330
646
100
AcDbEntity
  8
DIM
 62
     0
370
    -2
100
AcDbLine
 10
345.6420636715151
 20
111.3826090070787
 30
0.0
 11
343.6420636715151
 21
111.3826090070787
 31
0.0
  0
MTEXT
  5
64B
330
646
100
AcDbEntity
  8
DIM
 62
     0
100
AcDbMText
 10
340.9753970048484
 20
111.3826090070787
 30
0.0
 40
0.9999999999999998
 41
0.0
 71
     5
 72
     1
  1
\A1;18.419
 73
     1
 44
1.0
1001
ACAD
1000
MTEXTBEGIN
1070
    73
1070
     1
1070
    44
1040
1.0
1070
    74
1070
     0
1000
MTEXTEND
  0
POINT
  5
64C
330
646
100
AcDbEntity
  8
Defpoints
 62
     0
100
AcDbPoint
 10
352.7820636715152
 20
110.5366090070788
 30
0.0
  0
POINT
  5
64D
330
646
100
AcDbEntity
  8
Defpoints
 62
     0
100
AcDbPoint
 10
343.6420636715151
 20
111.3826090070787
 30
0.0
  0
POINT
  5
64E
330
646
100
AcDbEntity
  8
Defpoints
 62
     0
100
AcDbPoint
 10
347.6420934109792
 20
92.11761813074136
 30
0.0
  0
ENDBLK
  5
64F
330
646
100
AcDbEntity
  8
0
100
AcDbBlockEnd
  0
BLOCK
  5
651
330
650
100
AcDbEntity
  8
0
100
AcDbBlockBegin
  2
*D28
 70
     1
 10
0.0
 20
0.0
 30
0.0
  3
*D28
  1

  0
LINE
  5
652
330
650
100
AcDbEntity
  8
DIM
 62
     0
370
    -2
100
AcDbLine
 10
347.2670636715151
 20
92.11760900707888
 30
0.0
 11
343.6029401558772
 21
92.11760900707888
 31
0.0
  0
MTEXT
  5
653
330
650
100
AcDbEntity
  8
DIM
 62
     0
100
AcDbMText
 10
341.4362734892104
 20
92.11760900707888
 30
0.0
 40
0.9999999999999998
 41
0.0
 71
     5
 72
     1
  1
\A1;0.000
 73
     1
 44
1.0
1001
ACAD
1000
MTEXTBEGIN
1070
    73
1070
     1
1070
    44
1040
1.0
1070
    74
1070
     0
1000
MTEXTEND
  0
POINT
  5
654
330
650
100
AcDbEntity
  8
Defpoints
 62
     0
100
AcDbPoint
 10
347.6420636715151
 20
92.11760900707888
 30
0.0
  0
POINT
  5
655
330
650
100
AcDbEntity
  8
Defpoints
 62
     0
100
AcDbPoint
 10
343.6029401558772
 20
92.11760900707888
 30
0.0
  0
POINT
  5
656
330
650
100
AcDbEntity
  8
Defpoints
 62
     0
100
AcDbPoint
 10
347.6420744719095
 20
92.11764380359609
 30
0.0
  0
ENDBLK
  5
657
330
650
100
AcDbEntity
  8
0
100
AcDbBlockEnd
  0
BLOCK
  5
659
330
658
100
AcDbEntity
  8
0
100
AcDbBlockBegin
  2
*D29
 70
     1
 10
0.0
 20
0.0
 30
0.0
  3
*D29
  1

  0
LINE
  5
65A
330
658
100
AcDbEntity
  8
DIM
 62
     0
370
    -2
100
AcDbLine
 10
347.6420636715151
 20
91.74260900707889
 30
0.0
 11
347.6420636715151
 21
88.14099403383123
 31
0.0
  0
MTEXT
  5
65B
330
658
100
AcDbEntity
  8
DIM
 62
     0
100
AcDbMText
 10
347.6420636715151
 20
85.97432736716461
 30
0.0
 40
0.9999999999999998
 41
0.0
 71
     5
 72
     1
  1
\A1;0.000
 11
0.0000000000000001
 21
1.0
 31
0.0
 73
     1
 44
1.0
1001
ACAD
1000
MTEXTBEGIN
1070
    73
1070
     1
1070
    44
1040
1.0
1070
    74
1070
     0
1000
MTEXTEND
  0
POINT
  5
65C
330
658
100
AcDbEntity
  8
Defpoints
 62
     0
100
AcDbPoint
 10
347.6420636715151
 20
92.11760900707888
 30
0.0
  0
POINT
  5
65D
330
658
100
AcDbEntity
  8
Defpoints
 62
     0
100
AcDbPoint
 10
347.6420636715151
 20
88.14099403383123
 30
0.0
  0
POINT
  5
65E
330
658
100
AcDbEntity
  8
Defpoints
 62
     0
100
AcDbPoint
 10
347.6420744719095
 20
92.11764380359609
 30
0.0
  0
ENDBLK
  5
65F
330
658
100
AcDbEntity
  8
0
100
AcDbBlockEnd
  0
BLOCK
  5
661
330
660
100
AcDbEntity
  8
0
100
AcDbBlockBegin
  2
*D30
 70
     1
 10
0.0
 20
0.0
 30
0.0
  3
*D30
  1

  0
LINE
  5
662
330
660
100
AcDbEntity
  8
DIM
 62
     0
370
    -2
100
AcDbLine
 10
348.0270636715153
 20
92.12760900707888
 30
0.0
 11
348.0270636715153
 21
90.50260900707888
 31
0.0
  0
LINE
  5
663
330
660
100
AcDbEntity
  8
DIM
 62
     0
370
    -2
100
AcDbLine
 10
348.0270636715153
 20
90.50260900707888
 30
0.0
 11
349.2418822772244
 21
90.10241250150448
 31
0.0
  0
LINE
  5
664
330
660
100
AcDbEntity
  8
DIM
 62
     0
370
    -2
100
AcDbLine
 10
349.2418822772244
 20
90.10241250150448
 30
0.0
 11
349.2418822772244
 21
88.10241250150445
 31
0.0
  0
MTEXT
  5
665
330
660
100
AcDbEntity
  8
DIM
 62
     0
100
AcDbMText
 10
349.2418822772244
 20
85.68574583483785
 30
0.0
 40
0.9999999999999998
 41
0.0
 71
     5
 72
     1
  1
\A1;0.385
 11
0.0000000000000001
 21
1.0
 31
0.0
 73
     1
 44
1.0
1001
ACAD
1000
MTEXTBEGIN
1070
    73
1070
     1
1070
    44
1040
1.0
1070
    74
1070
     0
1000
MTEXTEND
  0
POINT
  5
666
330
660
100
AcDbEntity
  8
Defpoints
 62
     0
100
AcDbPoint
 10
348.0270636715153
 20
92.50260900707887
 30
0.0
  0
POINT
  5
667
330
660
100
AcDbEntity
  8
Defpoints
 62
     0
100
AcDbPoint
 10
349.2418822772244
 20
88.10241250150445
 30
0.0
  0
POINT
  5
668
330
660
100
AcDbEntity
  8
Defpoints
 62
     0
100
AcDbPoint
 10
347.6420744719095
 20
92.11764380359609
 30
0.0
  0
ENDBLK
  5
669
330
660
100
AcDbEntity
  8
0
100
AcDbBlockEnd
  0
BLOCK
  5
66B
330
66A
100
AcDbEntity
  8
0
100
AcDbBlockBegin
  2
*D31
 70
     1
 10
0.0
 20
0.0
 30
0.0
  3
*D31
  1

  0
LINE
  5
66C
330
66A
100
AcDbEntity
  8
DIM
 62
     0
370
    -2
100
AcDbLine
 10
357.9170636715152
 20
91.74260900707889
 30
0.0
 11
357.9170636715152
 21
88.10241250150445
 31
0.0
  0
MTEXT
  5
66D
330
66A
100
AcDbEntity
  8
DIM
 62
     0
100
AcDbMText
 10
357.9170636715152
 20
85.35241250150454
 30
0.0
 40
0.9999999999999998
 41
0.0
 71
     5
 72
     1
  1
\A1;10.275
 11
0.0000000000000001
 21
1.0
 31
0.0
 73
     1
 44
1.0
1001
ACAD
1000
MTEXTBEGIN
1070
    73
1070
     1
1070
    44
1040
1.0
1070
    74
1070
     0
1000
MTEXTEND
  0
POINT
  5
66E
330
66A
100
AcDbEntity
  8
Defpoints
 62
     0
100
AcDbPoint
 10
357.9170636715152
 20
92.11760900707888
 30
0.0
  0
POINT
  5
66F
330
66A
100
AcDbEntity
  8
Defpoints
 62
     0
100
AcDbPoint
 10
357.9170636715152
 20
88.10241250150445
 30
0.0
  0
POINT
  5
670
330
66A
100
AcDbEntity
  8
Defpoints
 62
     0
100
AcDbPoint
 10
347.6420744719095
 20
92.11764380359609
 30
0.0
  0
ENDBLK
  5
671
330
66A
100
AcDbEntity
  8
0
100
AcDbBlockEnd
  0
BLOCK
  5
673
330
672
100
AcDbEntity
  8
0
100
AcDbBlockBegin
  2
*D32
 70
     1
 10
0.0
 20
0.0
 30
0.0
  3
*D32
  1

  0
LINE
  5
674
330
672
100
AcDbEntity
  8
DIM
 62
     0
370
    -2
100
AcDbLine
 10
357.5320636715153
 20
92.12760900707888
 30
0.0
 11
357.5320636715153
 21
90.50260900707888
 31
0.0
  0
LINE
  5
675
330
672
100
AcDbEntity
  8
DIM
 62
     0
370
    -2
100
AcDbLine
 10
357.5320636715153
 20
90.50260900707888
 30
0.0
 11
356.4257394702025
 21
90.14099403383124
 31
0.0
  0
LINE
  5
676
330
672
100
AcDbEntity
  8
DIM
 62
     0
370
    -2
100
AcDbLine
 10
356.4257394702025
 20
90.14099403383124
 30
0.0
 11
356.4257394702025
 21
88.14099403383123
 31
0.0
  0
MTEXT
  5
677
330
672
100
AcDbEntity
  8
DIM
 62
     0
100
AcDbMText
 10
356.4257394702025
 20
85.72432736716462
 30
0.0
 40
0.9999999999999998
 41
0.0
 71
     5
 72
     1
  1
\A1;9.890
 11
0.0000000000000001
 21
1.0
 31
0.0
 73
     1
 44
1.0
1001
ACAD
1000
MTEXTBEGIN
1070
    73
1070
     1
1070
    44
1040
1.0
1070
    74
1070
     0
1000
MTEXTEND
  0
POINT
  5
678
330
672
100
AcDbEntity
  8
Defpoints
 62
     0
100
AcDbPoint
 10
357.5320636715153
 20
92.50260900707887
 30
0.0
  0
POINT
  5
679
330
672
100
AcDbEntity
  8
Defpoints
 62
     0
100
AcDbPoint
 10
356.4257394702025
 20
88.14099403383123
 30
0.0
  0
POINT
  5
67A
330
672
100
AcDbEntity
  8
Defpoints
 62
     0
100
AcDbPoint
 10
347.6420744719095
 20
92.11764380359609
 30
0.0
  0
ENDBLK
  5
67B
330
672
100
AcDbEntity
  8
0
100
AcDbBlockEnd
  0
BLOCK
  5
67D
330
67C
100
AcDbEntity
  8
0
100
AcDbBlockBegin
  2
*D33
 70
     1
 10
0.0
 20
0.0
 30
0.0
  3
*D33
  1

  0
LINE
  5
67E
330
67C
100
AcDbEntity
  8
DIM
 62
     0
370
    -2
100
AcDbLine
 10
357.9070636715154
 20
92.50260900707887
 30
0.0
 11
361.9101899565145
 21
92.50260900707887
 31
0.0
  0
MTEXT
  5
67F
330
67C
100
AcDbEntity
  8
DIM
 62
     0
100
AcDbMText
 10
364.3268566231811
 20
92.50260900707887
 30
0.0
 40
0.9999999999999998
 41
0.0
 71
     5
 72
     1
  1
\A1;0.385
 73
     1
 44
1.0
1001
ACAD
1000
MTEXTBEGIN
1070
    73
1070
     1
1070
    44
1040
1.0
1070
    74
1070
     0
1000
MTEXTEND
  0
POINT
  5
680
330
67C
100
AcDbEntity
  8
Defpoints
 62
     0
100
AcDbPoint
 10
357.5320636715153
 20
92.50260900707887
 30
0.0
  0
POINT
  5
681
330
67C
100
AcDbEntity
  8
Defpoints
 62
     0
100
AcDbPoint
 10
361.9101899565145
 20
92.50260900707887
 30
0.0
  0
POINT
  5
682
330
67C
100
AcDbEntity
  8
Defpoints
 62
     0
100
AcDbPoint
 10
347.6420744719095
 20
92.11764380359609
 30
0.0
  0
ENDBLK
  5
683
330
67C
100
AcDbEntity
  8
0
100
AcDbBlockEnd
  0
BLOCK
  5
685
330
684
100
AcDbEntity
  8
0
100
AcDbBlockBegin
  2
*D34
 70
     1
 10
0.0
 20
0.0
 30
0.0
  3
*D34
  1

  0
LINE
  5
686
330
684
100
AcDbEntity
  8
DIM
 62
     0
370
    -2
100
AcDbLine
 10
357.8420636715153
 20
102.8176090070789
 30
0.0
 11
361.8921554681999
 21
102.8176090070789
 31
0.0
  0
MTEXT
  5
687
330
684
100
AcDbEntity
  8
DIM
 62
     0
100
AcDbMText
 10
364.4754888015331
 20
102.8176090070789
 30
0.0
 40
0.9999999999999998
 41
0.0
 71
     5
 72
     1
  1
\A1;10.700
 73
     1
 44
1.0
1001
ACAD
1000
MTEXTBEGIN
1070
    73
1070
     1
1070
    44
1040
1.0
1070
    74
1070
     0
1000
MTEXTEND
  0
POINT
  5
688
330
684
100
AcDbEntity
  8
Defpoints
 62
     0
100
AcDbPoint
 10
357.4670636715154
 20
102.8176090070789
 30
0.0
  0
POINT
  5
689
330
684
100
AcDbEntity
  8
Defpoints
 62
     0
100
AcDbPoint
 10
361.8921554681999
 20
102.8176090070789
 30
0.0
  0
POINT
  5
68A
330
684
100
AcDbEntity
  8
Defpoints
 62
     0
100
AcDbPoint
 10
347.6420744719095
 20
92.11764380359609
 30
0.0
  0
ENDBLK
  5
68B
330
684
100
AcDbEntity
  8
0
100
AcDbBlockEnd
  0
BLOCK
  5
68D
330
68C
100
AcDbEntity
  8
0
100
AcDbBlockBegin
  2
*D35
 70
     1
 10
0.0
 20
0.0
 30
0.0
  3
*D35
  1

  0
LINE
  5
68E
330
68C
100
AcDbEntity
  8
DIM
 62
     0
370
    -2
100
AcDbLine
 10
348.0920636715154
 20
102.4426090070789
 30
0.0
 11
348.0920636715154
 21
100.8176090070789
 31
0.0
  0
LINE
  5
68F
330
68C
100
AcDbEntity
  8
DIM
 62
     0
370
    -2
100
AcDbLine
 10
348.0920636715154
 20
100.8176090070789
 30
0.0
 11
349.3664850102235
 21
100.2726795063006
 31
0.0
  0
LINE
  5
690
330
68C
100
AcDbEntity
  8
DIM
 62
     0
370
    -2
100
AcDbLine
 10
349.3664850102235
 20
100.2726795063006
 30
0.0
 11
349.3664850102235
 21
98.2726795063006
 31
0.0
  0
MTEXT
  5
691
330
68C
100
AcDbEntity
  8
DIM
 62
     0
100
AcDbMText
 10
349.3664850102235
 20
95.93934617296731
 30
0.0
 40
0.9999999999999998
 41
0.0
 71
     5
 72
     1
  1
\A1;0.450
 11
0.0000000000000001
 21
1.0
 31
0.0
 73
     1
 44
1.0
1001
ACAD
1000
MTEXTBEGIN
1070
    73
1070
     1
1070
    44
1040
1.0
1070
    74
1070
     0
1000
MTEXTEND
  0
POINT
  5
692
330
68C
100
AcDbEntity
  8
Defpoints
 62
     0
100
AcDbPoint
 10
348.0920636715154
 20
102.8176090070789
 30
0.0
  0
POINT
  5
693
330
68C
100
AcDbEntity
  8
Defpoints
 62
     0
100
AcDbPoint
 10
349.3664850102235
 20
98.2726795063006
 30
0.0
  0
POINT
  5
694
330
68C
100
AcDbEntity
  8
Defpoints
 62
     0
100
AcDbPoint
 10
347.6420744719095
 20
92.11764380359609
 30
0.0
  0
ENDBLK
  5
695
330
68C
100
AcDbEntity
  8
0
100
AcDbBlockEnd
  0
BLOCK
  5
697
330
696
100
AcDbEntity
  8
0
100
AcDbBlockBegin
  2
*D36
 70
     1
 10
0.0
 20
0.0
 30
0.0
  3
*D36
  1

  0
LINE
  5
698
330
696
100
AcDbEntity
  8
DIM
 62
     0
370
    -2
100
AcDbLine
 10
357.4670636715154
 20
102.4426090070789
 30
0.0
 11
357.4670636715154
 21
100.8176090070789
 31
0.0
  0
LINE
  5
699
330
696
100
AcDbEntity
  8
DIM
 62
     0
370
    -2
100
AcDbLine
 10
357.4670636715154
 20
100.8176090070789
 30
0.0
 11
356.1670636715152
 21
100.3176090070789
 31
0.0
  0
LINE
  5
69A
330
696
100
AcDbEntity
  8
DIM
 62
     0
370
    -2
100
AcDbLine
 10
356.1670636715152
 20
100.3176090070789
 30
0.0
 11
356.1670636715152
 21
98.31760900707891
 31
0.0
  0
MTEXT
  5
69B
330
696
100
AcDbEntity
  8
DIM
 62
     0
100
AcDbMText
 10
356.1670636715152
 20
95.81760900707898
 30
0.0
 40
0.9999999999999998
 41
0.0
 71
     5
 72
     1
  1
\A1;9.825
 11
0.0000000000000001
 21
1.0
 31
0.0
 73
     1
 44
1.0
1001
ACAD
1000
MTEXTBEGIN
1070
    73
1070
     1
1070
    44
1040
1.0
1070
    74
1070
     0
1000
MTEXTEND
  0
POINT
  5
69C
330
696
100
AcDbEntity
  8
Defpoints
 62
     0
100
AcDbPoint
 10
357.4670636715154
 20
102.8176090070789
 30
0.0
  0
POINT
  5
69D
330
696
100
AcDbEntity
  8
Defpoints
 62
     0
100
AcDbPoint
 10
356.1670636715152
 20
98.31760900707891
 30
0.0
  0
POINT
  5
69E
330
696
100
AcDbEntity
  8
Defpoints
 62
     0
100
AcDbPoint
 10
347.6420744719095
 20
92.11764380359609
 30
0.0
  0
ENDBLK
  5
69F
330
696
100
AcDbEntity
  8
0
100
AcDbBlockEnd
  0
BLOCK
  5
6A1
330
6A0
100
AcDbEntity
  8
0
100
AcDbBlockBegin
  2
*D37
 70
     1
 10
0.0
 20
0.0
 30
0.0
  3
*D37
  1

  0
LINE
  5
6A2
330
6A0
100
AcDbEntity
  8
DIM
 62
     0
370
    -2
100
AcDbLine
 10
357.4390636715151
 20
107.6726090070787
 30
0.0
 11
361.8692368923806
 21
107.6726090070787
 31
0.0
  0
MTEXT
  5
6A3
330
6A0
100
AcDbEntity
  8
DIM
 62
     0
100
AcDbMText
 10
364.7025702257139
 20
107.6726090070787
 30
0.0
 40
0.9999999999999998
 41
0.0
 71
     5
 72
     1
  1
\A1;15.555
 73
     1
 44
1.0
1001
ACAD
1000
MTEXTBEGIN
1070
    73
1070
     1
1070
    44
1040
1.0
1070
    74
1070
     0
1000
MTEXTEND
  0
POINT
  5
6A4
330
6A0
100
AcDbEntity
  8
Defpoints
 62
     0
100
AcDbPoint
 10
357.0640636715151
 20
107.6726090070787
 30
0.0
  0
POINT
  5
6A5
330
6A0
100
AcDbEntity
  8
Defpoints
 62
     0
100
AcDbPoint
 10
361.8692368923806
 20
107.6726090070787
 30
0.0
  0
POINT
  5
6A6
330
6A0
100
AcDbEntity
  8
Defpoints
 62
     0
100
AcDbPoint
 10
347.6420744719095
 20
92.11764380359609
 30
0.0
  0
ENDBLK
  5
6A7
330
6A0
100
AcDbEntity
  8
0
100
AcDbBlockEnd
  0
BLOCK
  5
6A9
330
6A8
100
AcDbEntity
  8
0
100
AcDbBlockBegin
  2
*D38
 70
     1
 10
0.0
 20
0.0
 30
0.0
  3
*D38
  1

  0
LINE
  5
6AA
330
6A8
100
AcDbEntity
  8
DIM
 62
     0
370
    -2
100
AcDbLine
 10
357.8420636715153
 20
114.3176090070789
 30
0.0
 11
361.8692368923806
 21
114.3176090070789
 31
0.0
  0
MTEXT
  5
6AB
330
6A8
100
AcDbEntity
  8
DIM
 62
     0
100
AcDbMText
 10
364.7025702257139
 20
114.3176090070789
 30
0.0
 40
0.9999999999999998
 41
0.0
 71
     5
 72
     1
  1
\A1;22.200
 73
     1
 44
1.0
1001
ACAD
1000
MTEXTBEGIN
1070
    73
1070
     1
1070
    44
1040
1.0
1070
    74
1070
     0
1000
MTEXTEND
  0
POINT
  5
6AC
330
6A8
100
AcDbEntity
  8
Defpoints
 62
     0
100
AcDbPoint
 10
357.4670636715154
 20
114.3176090070789
 30
0.0
  0
POINT
  5
6AD
330
6A8
100
AcDbEntity
  8
Defpoints
 62
     0
100
AcDbPoint
 10
361.8692368923806
 20
114.3176090070789
 30
0.0
  0
POINT
  5
6AE
330
6A8
100
AcDbEntity
  8
Defpoints
 62
     0
100
AcDbPoint
 10
347.6420744719095
 20
92.11764380359609
 30
0.0
  0
ENDBLK
  5
6AF
330
6A8
100
AcDbEntity
  8
0
100
AcDbBlockEnd
  0
BLOCK
  5
6B1
330
6B0
100
AcDbEntity
  8
0
100
AcDbBlockBegin
  2
*D39
 70
     1
 10
0.0
 20
0.0
 30
0.0
  3
*D39
  1

  0
LINE
  5
6B2
330
6B0
100
AcDbEntity
  8
DIM
 62
     0
370
    -2
100
AcDbLine
 10
358.2920636715152
 20
116.3926090070787
 30
0.0
 11
361.9602724728642
 21
116.3926090070787
 31
0.0
  0
MTEXT
  5
6B3
330
6B0
100
AcDbEntity
  8
DIM
 62
     0
100
AcDbMText
 10
364.9602724728642
 20
116.3926090070787
 30
0.0
 40
0.9999999999999998
 41
0.0
 71
     5
 72
     1
  1
\A1;24.275
 73
     1
 44
1.0
1001
ACAD
1000
MTEXTBEGIN
1070
    73
1070
     1
1070
    44
1040
1.0
1070
    74
1070
     0
1000
MTEXTEND
  0
POINT
  5
6B4
330
6B0
100
AcDbEntity
  8
Defpoints
 62
     0
100
AcDbPoint
 10
357.9170636715152
 20
116.3926090070787
 30
0.0
  0
POINT
  5
6B5
330
6B0
100
AcDbEntity
  8
Defpoints
 62
     0
100
AcDbPoint
 10
361.9602724728642
 20
116.3926090070787
 30
0.0
  0
POINT
  5
6B6
330
6B0
100
AcDbEntity
  8
Defpoints
 62
     0
100
AcDbPoint
 10
347.6420744719095
 20
92.11764380359609
 30
0.0
  0
ENDBLK
  5
6B7
330
6B0
100
AcDbEntity
  8
0
100
AcDbBlockEnd
  0
BLOCK
  5
6B9
330
6B8
100
AcDbEntity
  8
0
100
AcDbBlockBegin
  2
*D40
 70
     1
 10
0.0
 20
0.0
 30
0.0
  3
*D40
  1

  0
LINE
  5
6BA
330
6B8
100
AcDbEntity
  8
DIM
 62
     0
370
    -2
100
AcDbLine
 10
348.5320636715154
 20
108.6326090070787
 30
0.0
 11
343.6902731901191
 21
108.6326090070787
 31
0.0
  0
MTEXT
  5
6BB
330
6B8
100
AcDbEntity
  8
DIM
 62
     0
100
AcDbMText
 10
341.0236065234524
 20
108.6326090070787
 30
0.0
 40
0.9999999999999998
 41
0.0
 71
     5
 72
     1
  1
\A1;16.515
 73
     1
 44
1.0
1001
ACAD
1000
MTEXTBEGIN
1070
    73
1070
     1
1070
    44
1040
1.0
1070
    74
1070
     0
1000
MTEXTEND
  0
POINT
  5
6BC
330
6B8
100
AcDbEntity
  8
Defpoints
 62
     0
100
AcDbPoint
 10
348.9070636715153
 20
108.6326090070787
 30
0.0
  0
POINT
  5
6BD
330
6B8
100
AcDbEntity
  8
Defpoints
 62
     0
100
AcDbPoint
 10
343.6902731901191
 20
108.6326090070787
 30
0.0
  0
POINT
  5
6BE
330
6B8
100
AcDbEntity
  8
Defpoints
 62
     0
100
AcDbPoint
 10
347.6420744719095
 20
92.11764380359609
 30
0.0
  0
ENDBLK
  5
6BF
330
6B8
100
AcDbEntity
  8
0
100
AcDbBlockEnd
  0
BLOCK
  5
6C1
330
6C0
100
AcDbEntity
  8
0
100
AcDbBlockBegin
  2
*D41
 70
     1
 10
0.0
 20
0.0
 30
0.0
  3
*D41
  1

  0
LINE
  5
6C2
330
6C0
100
AcDbEntity
  8
DIM
 62
     0
370
    -2
100
AcDbLine
 10
348.5320636715154
 20
109.8826090070787
 30
0.0
 11
343.6536805758842
 21
109.8826090070787
 31
0.0
  0
MTEXT
  5
6C3
330
6C0
100
AcDbEntity
  8
DIM
 62
     0
100
AcDbMText
 10
340.8203472425508
 20
109.8826090070787
 30
0.0
 40
0.9999999999999998
 41
0.0
 71
     5
 72
     1
  1
\A1;17.765
 73
     1
 44
1.0
1001
ACAD
1000
MTEXTBEGIN
1070
    73
1070
     1
1070
    44
1040
1.0
1070
    74
1070
     0
1000
MTEXTEND
  0
POINT
  5
6C4
330
6C0
100
AcDbEntity
  8
Defpoints
 62
     0
100
AcDbPoint
 10
348.9070636715153
 20
109.8826090070787
 30
0.0
  0
POINT
  5
6C5
330
6C0
100
AcDbEntity
  8
Defpoints
 62
     0
100
AcDbPoint
 10
343.6536805758842
 20
109.8826090070787
 30
0.0
  0
POINT
  5
6C6
330
6C0
100
AcDbEntity
  8
Defpoints
 62
     0
100
AcDbPoint
 10
347.6420744719095
 20
92.11764380359609
 30
0.0
  0
ENDBLK
  5
6C7
330
6C0
100
AcDbEntity
  8
0
100
AcDbBlockEnd
  0
BLOCK
  5
6C9
330
6C8
100
AcDbEntity
  8
0
100
AcDbBlockBegin
  2
*D42
 70
     1
 10
0.0
 20
0.0
 30
0.0
  3
*D42
  1

  0
LINE
  5
6CA
330
6C8
100
AcDbEntity
  8
DIM
 62
     0
370
    -2
100
AcDbLine
 10
348.0920636715154
 20
114.6926090070789
 30
0.0
 11
348.0920636715154
 21
120.3162623362895
 31
0.0
  0
MTEXT
  5
6CB
330
6C8
100
AcDbEntity
  8
DIM
 62
     0
100
AcDbMText
 10
348.0920636715154
 20
122.6495956696229
 30
0.0
 40
0.9999999999999998
 41
0.0
 71
     5
 72
     1
  1
\A1;0.450
 11
0.0000000000000001
 21
1.0
 31
0.0
 73
     1
 44
1.0
1001
ACAD
1000
MTEXTBEGIN
1070
    73
1070
     1
1070
    44
1040
1.0
1070
    74
1070
     0
1000
MTEXTEND
  0
POINT
  5
6CC
330
6C8
100
AcDbEntity
  8
Defpoints
 62
     0
100
AcDbPoint
 10
348.0920636715154
 20
114.3176090070789
 30
0.0
  0
POINT
  5
6CD
330
6C8
100
AcDbEntity
  8
Defpoints
 62
     0
100
AcDbPoint
 10
348.0920636715154
 20
120.3162623362895
 30
0.0
  0
POINT
  5
6CE
330
6C8
100
AcDbEntity
  8
Defpoints
 62
     0
100
AcDbPoint
 10
347.6420744719095
 20
92.11764380359609
 30
0.0
  0
ENDBLK
  5
6CF
330
6C8
100
AcDbEntity
  8
0
100
AcDbBlockEnd
  0
BLOCK
  5
6D1
330
6D0
100
AcDbEntity
  8
0
100
AcDbBlockBegin
  2
*D43
 70
     1
 10
0.0
 20
0.0
 30
0.0
  3
*D43
  1

  0
LINE
  5
6D2
330
6D0
100
AcDbEntity
  8
DIM
 62
     0
370
    -2
100
AcDbLine
 10
357.0640636715151
 20
108.0476090070787
 30
0.0
 11
357.0640636715151
 21
120.3839282537566
 31
0.0
  0
MTEXT
  5
6D3
330
6D0
100
AcDbEntity
  8
DIM
 62
     0
100
AcDbMText
 10
357.0640636715151
 20
122.8839282537566
 30
0.0
 40
0.9999999999999998
 41
0.0
 71
     5
 72
     1
  1
\A1;9.422
 11
0.0000000000000001
 21
1.0
 31
0.0
 73
     1
 44
1.0
1001
ACAD
1000
MTEXTBEGIN
1070
    73
1070
     1
1070
    44
1040
1.0
1070
    74
1070
     0
1000
MTEXTEND
  0
POINT
  5
6D4
330
6D0
100
AcDbEntity
  8
Defpoints
 62
     0
100
AcDbPoint
 10
357.0640636715151
 20
107.6726090070787
 30
0.0
  0
POINT
  5
6D5
330
6D0
100
AcDbEntity
  8
Defpoints
 62
     0
100
AcDbPoint
 10
357.0640636715151
 20
120.3839282537566
 30
0.0
  0
POINT
  5
6D6
330
6D0
100
AcDbEntity
  8
Defpoints
 62
     0
100
AcDbPoint
 10
347.6420744719095
 20
92.11764380359609
 30
0.0
  0
ENDBLK
  5
6D7
330
6D0
100
AcDbEntity
  8
0
100
AcDbBlockEnd
  0
BLOCK
  5
6D9
330
6D8
100
AcDbEntity
  8
0
100
AcDbBlockBegin
  2
*D44
 70
     1
 10
0.0
 20
0.0
 30
0.0
  3
*D44
  1

  0
LINE
  5
6DA
330
6D8
100
AcDbEntity
  8
DIM
 62
     0
370
    -2
100
AcDbLine
 10
357.4670636715154
 20
114.6926090070789
 30
0.0
 11
357.4670636715154
 21
116.3839282537566
 31
0.0
  0
LINE
  5
6DB
330
6D8
100
AcDbEntity
  8
DIM
 62
     0
370
    -2
100
AcDbLine
 10
357.4670636715154
 20
116.3839282537566
 30
0.0
 11
358.5066874611348
 21
118.3839282537566
 31
0.0
  0
LINE
  5
6DC
330
6D8
100
AcDbEntity
  8
DIM
 62
     0
370
    -2
100
AcDbLine
 10
358.5066874611348
 20
118.3839282537566
 30
0.0
 11
358.5066874611348
 21
120.3839282537566
 31
0.0
  0
MTEXT
  5
6DD
330
6D8
100
AcDbEntity
  8
DIM
 62
     0
100
AcDbMText
 10
358.5066874611348
 20
122.8839282537566
 30
0.0
 40
0.9999999999999998
 41
0.0
 71
     5
 72
     1
  1
\A1;9.825
 11
0.0000000000000001
 21
1.0
 31
0.0
 73
     1
 44
1.0
1001
ACAD
1000
MTEXTBEGIN
1070
    73
1070
     1
1070
    44
1040
1.0
1070
    74
1070
     0
1000
MTEXTEND
  0
POINT
  5
6DE
330
6D8
100
AcDbEntity
  8
Defpoints
 62
     0
100
AcDbPoint
 10
357.4670636715154
 20
114.3176090070789
 30
0.0
  0
POINT
  5
6DF
330
6D8
100
AcDbEntity
  8
Defpoints
 62
     0
100
AcDbPoint
 10
358.5066874611348
 20
120.3839282537566
 30
0.0
  0
POINT
  5
6E0
330
6D8
100
AcDbEntity
  8
Defpoints
 62
     0
100
AcDbPoint
 10
347.6420744719095
 20
92.11764380359609
 30
0.0
  0
ENDBLK
  5
6E1
330
6D8
100
AcDbEntity
  8
0
100
AcDbBlockEnd
  0
BLOCK
  5
6E3
330
6E2
100
AcDbEntity
  8
0
100
AcDbBlockBegin
  2
*D45
 70
     1
 10
0.0
 20
0.0
 30
0.0
  3
*D45
  1

  0
LINE
  5
6E4
330
6E2
100
AcDbEntity
  8
DIM
 62
     0
370
    -2
100
AcDbLine
 10
348.9070636715153
 20
108.2576090070787
 30
0.0
 11
348.9070636715153
 21
106.6517906534514
 31
0.0
  0
MTEXT
  5
6E5
330
6E2
100
AcDbEntity
  8
DIM
 62
     0
100
AcDbMText
 10
348.9070636715153
 20
104.3184573201182
 30
0.0
 40
0.9999999999999998
 41
0.0
 71
     5
 72
     1
  1
\A1;1.265
 11
0.0000000000000001
 21
1.0
 31
0.0
 73
     1
 44
1.0
1001
ACAD
1000
MTEXTBEGIN
1070
    73
1070
     1
1070
    44
1040
1.0
1070
    74
1070
     0
1000
MTEXTEND
  0
POINT
  5
6E6
330
6E2
100
AcDbEntity
  8
Defpoints
 62
     0
100
AcDbPoint
 10
348.9070636715153
 20
108.6326090070787
 30
0.0
  0
POINT
  5
6E7
330
6E2
100
AcDbEntity
  8
Defpoints
 62
     0
100
AcDbPoint
 10
348.9070636715153
 20
106.6517906534514
 30
0.0
  0
POINT
  5
6E8
330
6E2
100
AcDbEntity
  8
Defpoints
 62
     0
100
AcDbPoint
 10
347.6420744719095
 20
92.11764380359609
 30
0.0
  0
ENDBLK
  5
6E9
330
6E2
100
AcDbEntity
  8
0
100
AcDbBlockEnd
  0
BLOCK
  5
6EB
330
6EA
100
AcDbEntity
  8
0
100
AcDbBlockBegin
  2
*D46
 70
     1
 10
0.0
 20
0.0
 30
0.0
  3
*D46
  1

  0
LINE
  5
6EC
330
6EA
100
AcDbEntity
  8
0
 62
     0
370
    -2
100
AcDbLine
 10
357.4390636715151
 20
106.1726090070787
 30
0.0
 11
359.0640636715151
 21
106.1726090070787
 31
0.0
  0
LINE
  5
6ED
330
6EA
100
AcDbEntity
  8
0
 62
     0
370
    -2
100
AcDbLine
 10
359.0640636715151
 20
106.1726090070787
 30
0.0
 11
360.3804820331451
 21
106.0705564723781
 31
0.0
  0
LINE
  5
6EE
330
6EA
100
AcDbEntity
  8
0
 62
     0
370
    -2
100
AcDbLine
 10
360.3804820331451
 20
106.0705564723781
 30
0.0
 11
362.3804820331451
 21
106.0705564723781
 31
0.0
  0
MTEXT
  5
6EF
330
6EA
100
AcDbEntity
  8
0
 62
     0
100
AcDbMText
 10
364.7204820331451
 20
106.0705564723781
 30
0.0
 40
1.0
 41
0.0
 71
     5
 72
     1
  1
\A1;14.055
 73
     1
 44
1.0
1001
ACAD
1000
MTEXTBEGIN
1070
    73
1070
     1
1070
    44
1040
1.0
1070
    74
1070
     0
1000
MTEXTEND
  0
POINT
  5
6F0
330
6EA
100
AcDbEntity
  8
Defpoints
 62
     0
100
AcDbPoint
 10
357.0640636715151
 20
106.1726090070787
 30
0.0
  0
POINT
  5
6F1
330
6EA
100
AcDbEntity
  8
Defpoints
 62
     0
100
AcDbPoint
 10
362.3804820331451
 20
106.0705564723781
 30
0.0
  0
POINT
  5
6F2
330
6EA
100
AcDbEntity
  8
Defpoints
 62
     0
100
AcDbPoint
 10
347.6420636715151
 20
92.11760900707888
 30
0.0
  0
ENDBLK
  5
6F3
330
6EA
100
AcDbEntity
  8
0
100
AcDbBlockEnd
  0
BLOCK
  5
6F5
330
6F4
100
AcDbEntity
  8
0
100
AcDbBlockBegin
  2
*D47
 70
     1
 10
0.0
 20
0.0
 30
0.0
  3
*D47
  1

  0
LINE
  5
6F6
330
6F4
100
AcDbEntity
  8
0
 62
     0
370
    -2
100
AcDbLine
 10
351.6520636715148
 20
113.0826090070782
 30
0.0
 11
343.5685179446819
 21
113.0826090070788
 31
0.0
  0
MTEXT
  5
6F7
330
6F4
100
AcDbEntity
  8
0
 62
     0
100
AcDbMText
 10
341.0618512780151
 20
113.0826090070788
 30
0.0
 40
1.0
 41
0.0
 71
     5
 72
     1
  1
\A1;20.965
 73
     1
 44
1.0
1001
ACAD
1000
MTEXTBEGIN
1070
    73
1070
     1
1070
    44
1040
1.0
1070
    74
1070
     0
1000
MTEXTEND
  0
POINT
  5
6F8
330
6F4
100
AcDbEntity
  8
Defpoints
 62
     0
100
AcDbPoint
 10
352.0270636715149
 20
113.0826090070782
 30
0.0
  0
POINT
  5
6F9
330
6F4
100
AcDbEntity
  8
Defpoints
 62
     0
100
AcDbPoint
 10
343.5685179446819
 20
113.0826090070788
 30
0.0
  0
POINT
  5
6FA
330
6F4
100
AcDbEntity
  8
Defpoints
 62
     0
100
AcDbPoint
 10
347.6420636715151
 20
92.11760900707888
 30
0.0
  0
ENDBLK
  5
6FB
330
6F4
100
AcDbEntity
  8
0
100
AcDbBlockEnd
  0
BLOCK
  5
6FD
330
6FC
100
AcDbEntity
  8
0
100
AcDbBlockBegin
  2
*D48
 70
     1
 10
0.0
 20
0.0
 30
0.0
  3
*D48
  1

  0
LINE
  5
6FE
330
6FC
100
AcDbEntity
  8
0
 62
     0
370
    -2
100
AcDbLine
 10
351.6520636715153
 20
115.7326090070783
 30
0.0
 11
343.2855702481929
 21
115.7326090070789
 31
0.0
  0
MTEXT
  5
6FF
330
6FC
100
AcDbEntity
  8
0
 62
     0
100
AcDbMText
 10
340.8622369148595
 20
115.7326090070789
 30
0.0
 40
1.0
 41
0.0
 71
     5
 72
     1
  1
\A1;23.615
 73
     1
 44
1.0
1001
ACAD
1000
MTEXTBEGIN
1070
    73
1070
     1
1070
    44
1040
1.0
1070
    74
1070
     0
1000
MTEXTEND
  0
POINT
  5
700
330
6FC
100
AcDbEntity
  8
Defpoints
 62
     0
100
AcDbPoint
 10
352.0270636715153
 20
115.7326090070783
 30
0.0
  0
POINT
  5
701
330
6FC
100
AcDbEntity
  8
Defpoints
 62
     0
100
AcDbPoint
 10
343.2855702481929
 20
115.7326090070789
 30
0.0
  0
POINT
  5
702
330
6FC
100
AcDbEntity
  8
Defpoints
 62
     0
100
AcDbPoint
 10
347.6420636715151
 20
92.11760900707888
 30
0.0
  0
ENDBLK
  5
703
330
6FC
100
AcDbEntity
  8
0
100
AcDbBlockEnd
  0
BLOCK
  5
705
330
704
100
AcDbEntity
  8
0
100
AcDbBlockBegin
  2
*D49
 70
     1
 10
0.0
 20
0.0
 30
0.0
  3
*D49
  1

  0
LINE
  5
706
330
704
100
AcDbEntity
  8
0
 62
     0
370
    -2
100
AcDbLine
 10
352.0270636715151
 20
116.1076090070789
 30
0.0
 11
352.0270636715151
 21
117.7326090070789
 31
0.0
  0
LINE
  5
707
330
704
100
AcDbEntity
  8
0
 62
     0
370
    -2
100
AcDbLine
 10
352.0270636715151
 20
117.7326090070789
 30
0.0
 11
351.2684113880043
 21
118.3514064119049
 31
0.0
  0
LINE
  5
708
330
704
100
AcDbEntity
  8
0
 62
     0
370
    -2
100
AcDbLine
 10
351.2684113880043
 20
118.3514064119049
 30
0.0
 11
351.2684113880043
 21
120.3514064119049
 31
0.0
  0
MTEXT
  5
709
330
704
100
AcDbEntity
  8
0
 62
     0
100
AcDbMText
 10
351.2684113880043
 20
122.4414064119049
 30
0.0
 40
1.0
 41
0.0
 71
     5
 72
     1
  1
\A1;4.385
 11
0.0000000000000001
 21
1.0
 31
0.0
 73
     1
 44
1.0
1001
ACAD
1000
MTEXTBEGIN
1070
    73
1070
     1
1070
    44
1040
1.0
1070
    74
1070
     0
1000
MTEXTEND
  0
POINT
  5
70A
330
704
100
AcDbEntity
  8
Defpoints
 62
     0
100
AcDbPoint
 10
352.0270636715151
 20
115.7326090070789
 30
0.0
  0
POINT
  5
70B
330
704
100
AcDbEntity
  8
Defpoints
 62
     0
100
AcDbPoint
 10
351.2684113880043
 20
120.3514064119049
 30
0.0
  0
POINT
  5
70C
330
704
100
AcDbEntity
  8
Defpoints
 62
     0
100
AcDbPoint
 10
347.6420636715151
 20
92.11760900707888
 30
0.0
  0
ENDBLK
  5
70D
330
704
100
AcDbEntity
  8
0
100
AcDbBlockEnd
  0
BLOCK
  5
70F
330
70E
100
AcDbEntity
  8
0
100
AcDbBlockBegin
  2
*D50
 70
     1
 10
0.0
 20
0.0
 30
0.0
  3
*D50
  1

  0
LINE
  5
710
330
70E
100
AcDbEntity
  8
0
 62
     0
370
    -2
100
AcDbLine
 10
356.4020636715151
 20
116.1076090070789
 30
0.0
 11
356.4020636715151
 21
117.7326090070789
 31
0.0
  0
LINE
  5
711
330
70E
100
AcDbEntity
  8
0
 62
     0
370
    -2
100
AcDbLine
 10
356.4020636715151
 20
117.7326090070789
 30
0.0
 11
355.3310834285302
 21
118.8454925490629
 31
0.0
  0
LINE
  5
712
330
70E
100
AcDbEntity
  8
0
 62
     0
370
    -2
100
AcDbLine
 10
355.3310834285302
 20
118.8454925490629
 30
0.0
 11
355.3310834285302
 21
120.8454925490629
 31
0.0
  0
MTEXT
  5
713
330
70E
100
AcDbEntity
  8
0
 62
     0
100
AcDbMText
 10
355.3310834285302
 20
122.8521592157296
 30
0.0
 40
1.0
 41
0.0
 71
     5
 72
     1
  1
\A1;8.760
 11
0.0000000000000001
 21
1.0
 31
0.0
 73
     1
 44
1.0
1001
ACAD
1000
MTEXTBEGIN
1070
    73
1070
     1
1070
    44
1040
1.0
1070
    74
1070
     0
1000
MTEXTEND
  0
POINT
  5
714
330
70E
100
AcDbEntity
  8
Defpoints
 62
     0
100
AcDbPoint
 10
356.4020636715151
 20
115.7326090070789
 30
0.0
  0
POINT
  5
715
330
70E
100
AcDbEntity
  8
Defpoints
 62
     0
100
AcDbPoint
 10
355.3310834285302
 20
120.8454925490629
 30
0.0
  0
POINT
  5
716
330
70E
100
AcDbEntity
  8
Defpoints
 62
     0
100
AcDbPoint
 10
347.6420636715151
 20
92.11760900707888
 30
0.0
  0
ENDBLK
  5
717
330
70E
100
AcDbEntity
  8
0
100
AcDbBlockEnd
  0
BLOCK
  5
719
330
718
100
AcDbEntity
  8
0
100
AcDbBlockBegin
  2
*D51
 70
     1
 10
0.0
 20
0.0
 30
0.0
  3
*D51
  1

  0
LINE
  5
71A
330
718
100
AcDbEntity
  8
0
 62
     0
370
    -2
100
AcDbLine
 10
356.1570636715154
 20
110.2576090070787
 30
0.0
 11
356.1570636715154
 21
116.8454925490629
 31
0.0
  0
LINE
  5
71B
330
718
100
AcDbEntity
  8
0
 62
     0
370
    -2
100
AcDbLine
 10
356.1570636715154
 20
116.8454925490629
 30
0.0
 11
353.7912844149216
 21
118.8454925490629
 31
0.0
  0
LINE
  5
71C
330
718
100
AcDbEntity
  8
0
 62
     0
370
    -2
100
AcDbLine
 10
353.7912844149216
 20
118.8454925490629
 30
0.0
 11
353.7912844149216
 21
120.8454925490629
 31
0.0
  0
MTEXT
  5
71D
330
718
100
AcDbEntity
  8
0
 62
     0
100
AcDbMText
 10
353.7912844149216
 20
122.7688258823963
 30
0.0
 40
1.0
 41
0.0
 71
     5
 72
     1
  1
\A1;8.515
 11
0.0000000000000001
 21
1.0
 31
0.0
 73
     1
 44
1.0
1001
ACAD
1000
MTEXTBEGIN
1070
    73
1070
     1
1070
    44
1040
1.0
1070
    74
1070
     0
1000
MTEXTEND
  0
POINT
  5
71E
330
718
100
AcDbEntity
  8
Defpoints
 62
     0
100
AcDbPoint
 10
356.1570636715154
 20
109.8826090070787
 30
0.0
  0
POINT
  5
71F
330
718
100
AcDbEntity
  8
Defpoints
 62
     0
100
AcDbPoint
 10
353.7912844149216
 20
120.8454925490629
 30
0.0
  0
POINT
  5
720
330
718
100
AcDbEntity
  8
Defpoints
 62
     0
100
AcDbPoint
 10
347.6420934109792
 20
92.11761813074136
 30
0.0
  0
ENDBLK
  5
721
330
718
100
AcDbEntity
  8
0
100
AcDbBlockEnd
  0
BLOCK
  5
723
330
722
100
AcDbEntity
  8
0
100
AcDbBlockBegin
  2
*D52
 70
     1
 10
0.0
 20
0.0
 30
0.0
  3
*D52
  1

  0
LINE
  5
724
330
722
100
AcDbEntity
  8
0
 62
     0
370
    -2
100
AcDbLine
 10
355.6120636715151
 20
107.0726090070787
 30
0.0
 11
355.6120636715151
 21
105.068579017299
 31
0.0
  0
LINE
  5
725
330
722
100
AcDbEntity
  8
0
 62
     0
370
    -2
100
AcDbLine
 10
355.6120636715151
 20
105.068579017299
 30
0.0
 11
354.3678539652577
 21
103.068579017299
 31
0.0
  0
LINE
  5
726
330
722
100
AcDbEntity
  8
0
 62
     0
370
    -2
100
AcDbLine
 10
354.3678539652577
 20
103.068579017299
 30
0.0
 11
354.3678539652577
 21
101.068579017299
 31
0.0
  0
MTEXT
  5
727
330
722
100
AcDbEntity
  8
0
 62
     0
100
AcDbMText
 10
354.3678539652577
 20
99.06191235063239
 30
0.0
 40
1.0
 41
0.0
 71
     5
 72
     1
  1
\A1;7.970
 11
0.0000000000000001
 21
1.0
 31
0.0
 73
     1
 44
1.0
1001
ACAD
1000
MTEXTBEGIN
1070
    73
1070
     1
1070
    44
1040
1.0
1070
    74
1070
     0
1000
MTEXTEND
  0
POINT
  5
728
330
722
100
AcDbEntity
  8
Defpoints
 62
     0
100
AcDbPoint
 10
355.6120636715151
 20
107.4476090070787
 30
0.0
  0
POINT
  5
729
330
722
100
AcDbEntity
  8
Defpoints
 62
     0
100
AcDbPoint
 10
354.3678539652577
 20
101.068579017299
 30
0.0
  0
POINT
  5
72A
330
722
100
AcDbEntity
  8
Defpoints
 62
     0
100
AcDbPoint
 10
347.6420934109792
 20
92.11761813074136
 30
0.0
  0
ENDBLK
  5
72B
330
722
100
AcDbEntity
  8
0
100
AcDbBlockEnd
  0
BLOCK
  5
72D
330
72C
100
AcDbEntity
  8
0
100
AcDbBlockBegin
  2
*D53
 70
     1
 10
0.0
 20
0.0
 30
0.0
  3
*D53
  1

  0
LINE
  5
72E
330
72C
100
AcDbEntity
  8
0
 62
     0
370
    -2
100
AcDbLine
 10
355.2370636715151
 20
107.4476090070787
 30
0.0
 11
347.6689076455051
 21
107.4476090070787
 31
0.0
  0
LINE
  5
72F
330
72C
100
AcDbEntity
  8
0
 62
     0
370
    -2
100
AcDbLine
 10
347.6689076455051
 20
107.4476090070787
 30
0.0
 11
345.6689076455051
 21
107.5383781126207
 31
0.0
  0
LINE
  5
730
330
72C
100
AcDbEntity
  8
0
 62
     0
370
    -2
100
AcDbLine
 10
345.6689076455051
 20
107.5383781126207
 30
0.0
 11
343.6689076455051
 21
107.5383781126207
 31
0.0
  0
MTEXT
  5
731
330
72C
100
AcDbEntity
  8
0
 62
     0
100
AcDbMText
 10
341.3289076455051
 20
107.5383781126207
 30
0.0
 40
1.0
 41
0.0
 71
     5
 72
     1
  1
\A1;15.330
 73
     1
 44
1.0
1001
ACAD
1000
MTEXTBEGIN
1070
    73
1070
     1
1070
    44
1040
1.0
1070
    74
1070
     0
1000
MTEXTEND
  0
POINT
  5
732
330
72C
100
AcDbEntity
  8
Defpoints
 62
     0
100
AcDbPoint
 10
355.6120636715151
 20
107.4476090070787
 30
0.0
  0
POINT
  5
733
330
72C
100
AcDbEntity
  8
Defpoints
 62
     0
100
AcDbPoint
 10
343.6689076455051
 20
107.5383781126207
 30
0.0
  0
POINT
  5
734
330
72C
100
AcDbEntity
  8
Defpoints
 62
     0
100
AcDbPoint
 10
347.6420934109792
 20
92.11761813074136
 30
0.0
  0
ENDBLK
  5
735
330
72C
100
AcDbEntity
  8
0
100
AcDbBlockEnd
  0
BLOCK
  5
737
330
736
100
AcDbEntity
  8
0
100
AcDbBlockBegin
  2
*D54
 70
     1
 10
0.0
 20
0.0
 30
0.0
  3
*D54
  1

  0
LINE
  5
738
330
736
100
AcDbEntity
  8
0
 62
     0
370
    -2
100
AcDbLine
 10
359.2370387894105
 20
97.0138476931598
 30
0.0
 11
358.23703878941
 21
97.0138476931598
 31
0.0
  0
LINE
  5
739
330
736
100
AcDbEntity
  8
0
 62
     0
370
    -2
100
AcDbLine
 10
358.23703878941
 20
97.0138476931598
 30
0.0
 11
356.0085340975141
 21
105.8717168149196
 31
0.0
  0
MTEXT
  5
73A
330
736
100
AcDbEntity
  8
0
 62
     0
100
AcDbMText
 10
359.3270387894104
 20
97.0138476931598
 30
0.0
 40
1.0
 41
0.0
 71
     4
 72
     1
  1
\A1;\U+22051.250 (1)\POPTIONAL:\PETHERNET\PCONNECTION \PPORT
 73
     1
 44
1.0
1001
ACAD
1000
MTEXTBEGIN
1070
    73
1070
     1
1070
    44
1040
1.0
1070
    74
1070
     0
1000
MTEXTEND
  0
SOLID
  5
73B
330
736
100
AcDbEntity
  8
0
 62
     0
100
AcDbTrace
 10
356.1701640659407
 20
105.9123804483554
 30
0.0
 11
355.8469041290875
 21
105.8310531814838
 31
0.0
 12
355.7645522968993
 22
106.841496625479
 32
0.0
 13
355.7645522968993
 23
106.841496625479
 33
0.0
  0
LINE
  5
73C
330
736
100
AcDbEntity
  8
0
 62
     0
370
    -2
100
AcDbLine
 10
355.5220636715151
 20
107.4476090070787
 30
0.0
 11
355.702063671515
 21
107.4476090070787
 31
0.0
  0
LINE
  5
73D
330
736
100
AcDbEntity
  8
0
 62
     0
370
    -2
100
AcDbLine
 10
355.612063671515
 20
107.3576090070787
 30
0.0
 11
355.612063671515
 21
107.5376090070787
 31
0.0
  0
POINT
  5
73E
330
736
100
AcDbEntity
  8
Defpoints
 62
     0
100
AcDbPoint
 10
355.7645522968993
 20
106.841496625479
 30
0.0
  0
POINT
  5
73F
330
736
100
AcDbEntity
  8
Defpoints
 62
     0
100
AcDbPoint
 10
355.4595750461307
 20
108.0537213886784
 30
0.0
  0
ENDBLK
  5
740
330
736
100
AcDbEntity
  8
0
100
AcDbBlockEnd
  0
BLOCK
  5
742
330
741
100
AcDbEntity
  8
0
100
AcDbBlockBegin
  2
*D55
 70
     1
 10
0.0
 20
0.0
 30
0.0
  3
*D55
  1

  0
LINE
  5
743
330
741
100
AcDbEntity
  8
0
 62
     0
370
    -2
100
AcDbLine
 10
343.3660692620827
 20
96.70961847007559
 30
0.0
 11
344.3660692620826
 21
96.70961847007559
 31
0.0
  0
LINE
  5
744
330
741
100
AcDbEntity
  8
0
 62
     0
370
    -2
100
AcDbLine
 10
344.3660692620826
 20
96.70961847007559
 30
0.0
 11
347.2475210572984
 21
93.39841566178726
 31
0.0
  0
MTEXT
  5
745
330
741
100
AcDbEntity
  8
0
 62
     0
100
AcDbMText
 10
340.859402595416
 20
96.70961847007555
 30
0.0
 40
1.0
 41
0.0
 71
     5
 72
     1
  1
\A1;\U+22050.375 \P(6)
 73
     1
 44
1.0
1001
ACAD
1000
MTEXTBEGIN
1070
    73
1070
     1
1070
    44
1040
1.0
1070
    74
1070
     0
1000
MTEXTEND
  0
SOLID
  5
746
330
741
100
AcDbEntity
  8
0
 62
     0
100
AcDbTrace
 10
347.3732483070821
 20
93.50782515150191
 30
0.0
 11
347.1217938075148
 21
93.28900617207258
 31
0.0
 12
347.9039779955864
 22
92.64405216308547
 32
0.0
 13
347.9039779955864
 23
92.64405216308547
 33
0.0
  0
LINE
  5
747
330
741
100
AcDbEntity
  8
0
 62
     0
370
    -2
100
AcDbLine
 10
347.9370636715154
 20
92.50260900707891
 30
0.0
 11
348.1170636715153
 21
92.50260900707887
 31
0.0
  0
LINE
  5
748
330
741
100
AcDbEntity
  8
0
 62
     0
370
    -2
100
AcDbLine
 10
348.0270636715153
 20
92.41260900707883
 30
0.0
 11
348.0270636715153
 21
92.59260900707884
 31
0.0
  0
POINT
  5
749
330
741
100
AcDbEntity
  8
Defpoints
 62
     0
100
AcDbPoint
 10
347.9039779955864
 20
92.64405216308547
 30
0.0
  0
POINT
  5
74A
330
741
100
AcDbEntity
  8
Defpoints
 62
     0
100
AcDbPoint
 10
348.1501493474444
 20
92.36116585107231
 30
0.0
  0
ENDBLK
  5
74B
330
741
100
AcDbEntity
  8
0
100
AcDbBlockEnd
  0
BLOCK
  5
810
330
80A
100
AcDbEntity
  8
0
100
AcDbBlockBegin
  2
*D56
 70
     1
 10
0.0
 20
0.0
 30
0.0
  3
*D56
  1

  0
LINE
  5
AF6
330
80A
100
AcDbEntity
  8
DIM
 62
     0
370
    -2
100
AcDbLine
 10
-291.0028142641129
 20
-31.00618700815803
 30
0.0
 11
-294.6669377797509
 21
-31.00618700815803
 31
0.0
  0
MTEXT
  5
AF7
330
80A
100
AcDbEntity
  8
DIM
 62
     0
100
AcDbMText
 10
-296.8336044464176
 20
-31.00618700815803
 30
0.0
 40
0.9999999999999998
 41
0.0
 71
     5
 72
     1
  1
\A1;0.000
 73
     1
 44
1.0
1001
ACAD
1000
MTEXTBEGIN
1070
    73
1070
     1
1070
    44
1040
1.0
1070
    74
1070
     0
1000
MTEXTEND
  0
POINT
  5
AF8
330
80A
100
AcDbEntity
  8
Defpoints
 62
     0
100
AcDbPoint
 10
-290.6278142641129
 20
-31.00618700815803
 30
0.0
  0
POINT
  5
AF9
330
80A
100
AcDbEntity
  8
Defpoints
 62
     0
100
AcDbPoint
 10
-294.6669377797509
 20
-31.00618700815803
 30
0.0
  0
POINT
  5
AFA
330
80A
100
AcDbEntity
  8
Defpoints
 62
     0
100
AcDbPoint
 10
-290.6278034637185
 20
-31.00615221164086
 30
0.0
  0
ENDBLK
  5
811
330
80A
100
AcDbEntity
  8
0
100
AcDbBlockEnd
  0
BLOCK
  5
818
330
812
100
AcDbEntity
  8
0
100
AcDbBlockBegin
  2
*D57
 70
     1
 10
0.0
 20
0.0
 30
0.0
  3
*D57
  1

  0
LINE
  5
AF1
330
812
100
AcDbEntity
  8
DIM
 62
     0
370
    -2
100
AcDbLine
 10
-290.6278142641129
 20
-31.38118700815803
 30
0.0
 11
-290.6278142641129
 21
-34.98280198140568
 31
0.0
  0
MTEXT
  5
AF2
330
812
100
AcDbEntity
  8
DIM
 62
     0
100
AcDbMText
 10
-290.6278142641129
 20
-37.14946864807239
 30
0.0
 40
0.9999999999999998
 41
0.0
 71
     5
 72
     1
  1
\A1;0.000
 11
0.0000000000000001
 21
1.0
 31
0.0
 73
     1
 44
1.0
1001
ACAD
1000
MTEXTBEGIN
1070
    73
1070
     1
1070
    44
1040
1.0
1070
    74
1070
     0
1000
MTEXTEND
  0
POINT
  5
AF3
330
812
100
AcDbEntity
  8
Defpoints
 62
     0
100
AcDbPoint
 10
-290.6278142641129
 20
-31.00618700815803
 30
0.0
  0
POINT
  5
AF4
330
812
100
AcDbEntity
  8
Defpoints
 62
     0
100
AcDbPoint
 10
-290.6278142641129
 20
-34.98280198140568
 30
0.0
  0
POINT
  5
AF5
330
812
100
AcDbEntity
  8
Defpoints
 62
     0
100
AcDbPoint
 10
-290.6278034637185
 20
-31.00615221164086
 30
0.0
  0
ENDBLK
  5
819
330
812
100
AcDbEntity
  8
0
100
AcDbBlockEnd
  0
BLOCK
  5
822
330
81A
100
AcDbEntity
  8
0
100
AcDbBlockBegin
  2
*D58
 70
     1
 10
0.0
 20
0.0
 30
0.0
  3
*D58
  1

  0
LINE
  5
AEA
330
81A
100
AcDbEntity
  8
DIM
 62
     0
370
    -2
100
AcDbLine
 10
-290.2428142641127
 20
-30.99618700815804
 30
0.0
 11
-290.2428142641127
 21
-32.62118700815804
 31
0.0
  0
LINE
  5
AEB
330
81A
100
AcDbEntity
  8
DIM
 62
     0
370
    -2
100
AcDbLine
 10
-290.2428142641127
 20
-32.62118700815804
 30
0.0
 11
-289.0279956584036
 21
-33.02138351373244
 31
0.0
  0
LINE
  5
AEC
330
81A
100
AcDbEntity
  8
DIM
 62
     0
370
    -2
100
AcDbLine
 10
-289.0279956584036
 20
-33.02138351373244
 30
0.0
 11
-289.0279956584036
 21
-35.02138351373245
 31
0.0
  0
MTEXT
  5
AED
330
81A
100
AcDbEntity
  8
DIM
 62
     0
100
AcDbMText
 10
-289.0279956584036
 20
-37.43805018039914
 30
0.0
 40
0.9999999999999998
 41
0.0
 71
     5
 72
     1
  1
\A1;0.385
 11
0.0000000000000001
 21
1.0
 31
0.0
 73
     1
 44
1.0
1001
ACAD
1000
MTEXTBEGIN
1070
    73
1070
     1
1070
    44
1040
1.0
1070
    74
1070
     0
1000
MTEXTEND
  0
POINT
  5
AEE
330
81A
100
AcDbEntity
  8
Defpoints
 62
     0
100
AcDbPoint
 10
-290.2428142641127
 20
-30.62118700815804
 30
0.0
  0
POINT
  5
AEF
330
81A
100
AcDbEntity
  8
Defpoints
 62
     0
100
AcDbPoint
 10
-289.0279956584036
 20
-35.02138351373245
 30
0.0
  0
POINT
  5
AF0
330
81A
100
AcDbEntity
  8
Defpoints
 62
     0
100
AcDbPoint
 10
-290.6278034637185
 20
-31.00615221164086
 30
0.0
  0
ENDBLK
  5
823
330
81A
100
AcDbEntity
  8
0
100
AcDbBlockEnd
  0
BLOCK
  5
82A
330
824
100
AcDbEntity
  8
0
100
AcDbBlockBegin
  2
*D59
 70
     1
 10
0.0
 20
0.0
 30
0.0
  3
*D59
  1

  0
LINE
  5
AE5
330
824
100
AcDbEntity
  8
DIM
 62
     0
370
    -2
100
AcDbLine
 10
-280.3528142641128
 20
-31.38118700815803
 30
0.0
 11
-280.3528142641128
 21
-35.02138351373245
 31
0.0
  0
MTEXT
  5
AE6
330
824
100
AcDbEntity
  8
DIM
 62
     0
100
AcDbMText
 10
-280.3528142641128
 20
-37.77138351373249
 30
0.0
 40
0.9999999999999998
 41
0.0
 71
     5
 72
     1
  1
\A1;10.275
 11
0.0000000000000001
 21
1.0
 31
0.0
 73
     1
 44
1.0
1001
ACAD
1000
MTEXTBEGIN
1070
    73
1070
     1
1070
    44
1040
1.0
1070
    74
1070
     0
1000
MTEXTEND
  0
POINT
  5
AE7
330
824
100
AcDbEntity
  8
Defpoints
 62
     0
100
AcDbPoint
 10
-280.3528142641128
 20
-31.00618700815803
 30
0.0
  0
POINT
  5
AE8
330
824
100
AcDbEntity
  8
Defpoints
 62
     0
100
AcDbPoint
 10
-280.3528142641128
 20
-35.02138351373245
 30
0.0
  0
POINT
  5
AE9
330
824
100
AcDbEntity
  8
Defpoints
 62
     0
100
AcDbPoint
 10
-290.6278034637185
 20
-31.00615221164086
 30
0.0
  0
ENDBLK
  5
82B
330
824
100
AcDbEntity
  8
0
100
AcDbBlockEnd
  0
BLOCK
  5
834
330
82C
100
AcDbEntity
  8
0
100
AcDbBlockBegin
  2
*D60
 70
     1
 10
0.0
 20
0.0
 30
0.0
  3
*D60
  1

  0
LINE
  5
ADE
330
82C
100
AcDbEntity
  8
DIM
 62
     0
370
    -2
100
AcDbLine
 10
-280.7378142641125
 20
-30.99618700815804
 30
0.0
 11
-280.7378142641125
 21
-32.62118700815804
 31
0.0
  0
LINE
  5
ADF
330
82C
100
AcDbEntity
  8
DIM
 62
     0
370
    -2
100
AcDbLine
 10
-280.7378142641125
 20
-32.62118700815804
 30
0.0
 11
-281.8441384654254
 21
-32.98280198140568
 31
0.0
  0
LINE
  5
AE0
330
82C
100
AcDbEntity
  8
DIM
 62
     0
370
    -2
100
AcDbLine
 10
-281.8441384654254
 20
-32.98280198140568
 30
0.0
 11
-281.8441384654254
 21
-34.98280198140568
 31
0.0
  0
MTEXT
  5
AE1
330
82C
100
AcDbEntity
  8
DIM
 62
     0
100
AcDbMText
 10
-281.8441384654254
 20
-37.39946864807239
 30
0.0
 40
0.9999999999999998
 41
0.0
 71
     5
 72
     1
  1
\A1;9.890
 11
0.0000000000000001
 21
1.0
 31
0.0
 73
     1
 44
1.0
1001
ACAD
1000
MTEXTBEGIN
1070
    73
1070
     1
1070
    44
1040
1.0
1070
    74
1070
     0
1000
MTEXTEND
  0
POINT
  5
AE2
330
82C
100
AcDbEntity
  8
Defpoints
 62
     0
100
AcDbPoint
 10
-280.7378142641125
 20
-30.62118700815804
 30
0.0
  0
POINT
  5
AE3
330
82C
100
AcDbEntity
  8
Defpoints
 62
     0
100
AcDbPoint
 10
-281.8441384654254
 20
-34.98280198140568
 30
0.0
  0
POINT
  5
AE4
330
82C
100
AcDbEntity
  8
Defpoints
 62
     0
100
AcDbPoint
 10
-290.6278034637185
 20
-31.00615221164086
 30
0.0
  0
ENDBLK
  5
835
330
82C
100
AcDbEntity
  8
0
100
AcDbBlockEnd
  0
BLOCK
  5
83C
330
836
100
AcDbEntity
  8
0
100
AcDbBlockBegin
  2
*D61
 70
     1
 10
0.0
 20
0.0
 30
0.0
  3
*D61
  1

  0
LINE
  5
B34
330
836
100
AcDbEntity
  8
DIM
 62
     0
370
    -2
100
AcDbLine
 10
-280.3628142641125
 20
-30.62118700815804
 30
0.0
 11
-278.7378142641125
 21
-30.62118700815804
 31
0.0
  0
LINE
  5
B35
330
836
100
AcDbEntity
  8
DIM
 62
     0
370
    -2
100
AcDbLine
 10
-278.7378142641125
 20
-30.62118700815804
 30
0.0
 11
-278.3596879791135
 21
-33.21784536304745
 31
0.0
  0
LINE
  5
B36
330
836
100
AcDbEntity
  8
DIM
 62
     0
370
    -2
100
AcDbLine
 10
-278.3596879791135
 20
-33.21784536304745
 30
0.0
 11
-276.3596879791135
 21
-33.21784536304745
 31
0.0
  0
MTEXT
  5
B37
330
836
100
AcDbEntity
  8
DIM
 62
     0
100
AcDbMText
 10
-273.9430213124468
 20
-33.21784536304745
 30
0.0
 40
0.9999999999999998
 41
0.0
 71
     5
 72
     1
  1
\A1;0.385
 73
     1
 44
1.0
1001
ACAD
1000
MTEXTBEGIN
1070
    73
1070
     1
1070
    44
1040
1.0
1070
    74
1070
     0
1000
MTEXTEND
  0
POINT
  5
B38
330
836
100
AcDbEntity
  8
Defpoints
 62
     0
100
AcDbPoint
 10
-280.7378142641125
 20
-30.62118700815804
 30
0.0
  0
POINT
  5
B39
330
836
100
AcDbEntity
  8
Defpoints
 62
     0
100
AcDbPoint
 10
-276.3596879791135
 20
-33.21784536304745
 30
0.0
  0
POINT
  5
B3A
330
836
100
AcDbEntity
  8
Defpoints
 62
     0
100
AcDbPoint
 10
-290.6278034637185
 20
-31.00615221164086
 30
0.0
  0
ENDBLK
  5
83D
330
836
100
AcDbEntity
  8
0
100
AcDbBlockEnd
  0
BLOCK
  5
844
330
83E
100
AcDbEntity
  8
0
100
AcDbBlockBegin
  2
*D62
 70
     1
 10
0.0
 20
0.0
 30
0.0
  3
*D62
  1

  0
LINE
  5
AD4
330
83E
100
AcDbEntity
  8
DIM
 62
     0
370
    -2
100
AcDbLine
 10
-280.4278142641126
 20
-20.30618700815798
 30
0.0
 11
-276.3777224674281
 21
-20.30618700815798
 31
0.0
  0
MTEXT
  5
AD5
330
83E
100
AcDbEntity
  8
DIM
 62
     0
100
AcDbMText
 10
-273.7943891340949
 20
-20.30618700815798
 30
0.0
 40
0.9999999999999998
 41
0.0
 71
     5
 72
     1
  1
\A1;10.700
 73
     1
 44
1.0
1001
ACAD
1000
MTEXTBEGIN
1070
    73
1070
     1
1070
    44
1040
1.0
1070
    74
1070
     0
1000
MTEXTEND
  0
POINT
  5
AD6
330
83E
100
AcDbEntity
  8
Defpoints
 62
     0
100
AcDbPoint
 10
-280.8028142641126
 20
-20.30618700815798
 30
0.0
  0
POINT
  5
AD7
330
83E
100
AcDbEntity
  8
Defpoints
 62
     0
100
AcDbPoint
 10
-276.3777224674281
 20
-20.30618700815798
 30
0.0
  0
POINT
  5
AD8
330
83E
100
AcDbEntity
  8
Defpoints
 62
     0
100
AcDbPoint
 10
-290.6278034637185
 20
-31.00615221164086
 30
0.0
  0
ENDBLK
  5
845
330
83E
100
AcDbEntity
  8
0
100
AcDbBlockEnd
  0
BLOCK
  5
84E
330
846
100
AcDbEntity
  8
0
100
AcDbBlockBegin
  2
*D63
 70
     1
 10
0.0
 20
0.0
 30
0.0
  3
*D63
  1

  0
LINE
  5
ACD
330
846
100
AcDbEntity
  8
DIM
 62
     0
370
    -2
100
AcDbLine
 10
-290.1778142641126
 20
-20.68118700815798
 30
0.0
 11
-290.1778142641126
 21
-22.30618700815798
 31
0.0
  0
LINE
  5
ACE
330
846
100
AcDbEntity
  8
DIM
 62
     0
370
    -2
100
AcDbLine
 10
-290.1778142641126
 20
-22.30618700815798
 30
0.0
 11
-288.9033929254044
 21
-22.85111650893631
 31
0.0
  0
LINE
  5
ACF
330
846
100
AcDbEntity
  8
DIM
 62
     0
370
    -2
100
AcDbLine
 10
-288.9033929254044
 20
-22.85111650893631
 30
0.0
 11
-288.9033929254044
 21
-24.85111650893631
 31
0.0
  0
MTEXT
  5
AD0
330
846
100
AcDbEntity
  8
DIM
 62
     0
100
AcDbMText
 10
-288.9033929254044
 20
-27.1844498422697
 30
0.0
 40
0.9999999999999998
 41
0.0
 71
     5
 72
     1
  1
\A1;0.450
 11
0.0000000000000001
 21
1.0
 31
0.0
 73
     1
 44
1.0
1001
ACAD
1000
MTEXTBEGIN
1070
    73
1070
     1
1070
    44
1040
1.0
1070
    74
1070
     0
1000
MTEXTEND
  0
POINT
  5
AD1
330
846
100
AcDbEntity
  8
Defpoints
 62
     0
100
AcDbPoint
 10
-290.1778142641126
 20
-20.30618700815798
 30
0.0
  0
POINT
  5
AD2
330
846
100
AcDbEntity
  8
Defpoints
 62
     0
100
AcDbPoint
 10
-288.9033929254044
 20
-24.85111650893631
 30
0.0
  0
POINT
  5
AD3
330
846
100
AcDbEntity
  8
Defpoints
 62
     0
100
AcDbPoint
 10
-290.6278034637185
 20
-31.00615221164086
 30
0.0
  0
ENDBLK
  5
84F
330
846
100
AcDbEntity
  8
0
100
AcDbBlockEnd
  0
BLOCK
  5
858
330
850
100
AcDbEntity
  8
0
100
AcDbBlockBegin
  2
*D64
 70
     1
 10
0.0
 20
0.0
 30
0.0
  3
*D64
  1

  0
LINE
  5
AC6
330
850
100
AcDbEntity
  8
DIM
 62
     0
370
    -2
100
AcDbLine
 10
-280.8028142641126
 20
-20.68118700815798
 30
0.0
 11
-280.8028142641126
 21
-22.30618700815798
 31
0.0
  0
LINE
  5
AC7
330
850
100
AcDbEntity
  8
DIM
 62
     0
370
    -2
100
AcDbLine
 10
-280.8028142641126
 20
-22.30618700815798
 30
0.0
 11
-282.1028142641128
 21
-22.80618700815798
 31
0.0
  0
LINE
  5
AC8
330
850
100
AcDbEntity
  8
DIM
 62
     0
370
    -2
100
AcDbLine
 10
-282.1028142641128
 20
-22.80618700815798
 30
0.0
 11
-282.1028142641128
 21
-24.80618700815798
 31
0.0
  0
MTEXT
  5
AC9
330
850
100
AcDbEntity
  8
DIM
 62
     0
100
AcDbMText
 10
-282.1028142641128
 20
-27.30618700815803
 30
0.0
 40
0.9999999999999998
 41
0.0
 71
     5
 72
     1
  1
\A1;9.825
 11
0.0000000000000001
 21
1.0
 31
0.0
 73
     1
 44
1.0
1001
ACAD
1000
MTEXTBEGIN
1070
    73
1070
     1
1070
    44
1040
1.0
1070
    74
1070
     0
1000
MTEXTEND
  0
POINT
  5
ACA
330
850
100
AcDbEntity
  8
Defpoints
 62
     0
100
AcDbPoint
 10
-280.8028142641126
 20
-20.30618700815798
 30
0.0
  0
POINT
  5
ACB
330
850
100
AcDbEntity
  8
Defpoints
 62
     0
100
AcDbPoint
 10
-282.1028142641128
 20
-24.80618700815798
 30
0.0
  0
POINT
  5
ACC
330
850
100
AcDbEntity
  8
Defpoints
 62
     0
100
AcDbPoint
 10
-290.6278034637185
 20
-31.00615221164086
 30
0.0
  0
ENDBLK
  5
859
330
850
100
AcDbEntity
  8
0
100
AcDbBlockEnd
  0
BLOCK
  5
860
330
85A
100
AcDbEntity
  8
0
100
AcDbBlockBegin
  2
*D65
 70
     1
 10
0.0
 20
0.0
 30
0.0
  3
*D65
  1

  0
LINE
  5
AC1
330
85A
100
AcDbEntity
  8
DIM
 62
     0
370
    -2
100
AcDbLine
 10
-280.8308142641129
 20
-15.45118700815819
 30
0.0
 11
-276.4006410432473
 21
-15.45118700815819
 31
0.0
  0
MTEXT
  5
AC2
330
85A
100
AcDbEntity
  8
DIM
 62
     0
100
AcDbMText
 10
-273.567307709914
 20
-15.45118700815819
 30
0.0
 40
0.9999999999999998
 41
0.0
 71
     5
 72
     1
  1
\A1;15.555
 73
     1
 44
1.0
1001
ACAD
1000
MTEXTBEGIN
1070
    73
1070
     1
1070
    44
1040
1.0
1070
    74
1070
     0
1000
MTEXTEND
  0
POINT
  5
AC3
330
85A
100
AcDbEntity
  8
Defpoints
 62
     0
100
AcDbPoint
 10
-281.2058142641129
 20
-15.45118700815819
 30
0.0
  0
POINT
  5
AC4
330
85A
100
AcDbEntity
  8
Defpoints
 62
     0
100
AcDbPoint
 10
-276.4006410432473
 20
-15.45118700815819
 30
0.0
  0
POINT
  5
AC5
330
85A
100
AcDbEntity
  8
Defpoints
 62
     0
100
AcDbPoint
 10
-290.6278034637185
 20
-31.00615221164086
 30
0.0
  0
ENDBLK
  5
861
330
85A
100
AcDbEntity
  8
0
100
AcDbBlockEnd
  0
BLOCK
  5
868
330
862
100
AcDbEntity
  8
0
100
AcDbBlockBegin
  2
*D66
 70
     1
 10
0.0
 20
0.0
 30
0.0
  3
*D66
  1

  0
LINE
  5
ABC
330
862
100
AcDbEntity
  8
DIM
 62
     0
370
    -2
100
AcDbLine
 10
-280.4278142641126
 20
-8.806187008157984
 30
0.0
 11
-276.4006410432473
 21
-8.806187008157984
 31
0.0
  0
MTEXT
  5
ABD
330
862
100
AcDbEntity
  8
DIM
 62
     0
100
AcDbMText
 10
-273.567307709914
 20
-8.806187008157984
 30
0.0
 40
0.9999999999999998
 41
0.0
 71
     5
 72
     1
  1
\A1;22.200
 73
     1
 44
1.0
1001
ACAD
1000
MTEXTBEGIN
1070
    73
1070
     1
1070
    44
1040
1.0
1070
    74
1070
     0
1000
MTEXTEND
  0
POINT
  5
ABE
330
862
100
AcDbEntity
  8
Defpoints
 62
     0
100
AcDbPoint
 10
-280.8028142641126
 20
-8.806187008157984
 30
0.0
  0
POINT
  5
ABF
330
862
100
AcDbEntity
  8
Defpoints
 62
     0
100
AcDbPoint
 10
-276.4006410432473
 20
-8.806187008157984
 30
0.0
  0
POINT
  5
AC0
330
862
100
AcDbEntity
  8
Defpoints
 62
     0
100
AcDbPoint
 10
-290.6278034637185
 20
-31.00615221164086
 30
0.0
  0
ENDBLK
  5
869
330
862
100
AcDbEntity
  8
0
100
AcDbBlockEnd
  0
BLOCK
  5
870
330
86A
100
AcDbEntity
  8
0
100
AcDbBlockBegin
  2
*D67
 70
     1
 10
0.0
 20
0.0
 30
0.0
  3
*D67
  1

  0
LINE
  5
AB7
330
86A
100
AcDbEntity
  8
DIM
 62
     0
370
    -2
100
AcDbLine
 10
-279.9778142641128
 20
-6.731187008158165
 30
0.0
 11
-276.3096054627638
 21
-6.731187008158165
 31
0.0
  0
MTEXT
  5
AB8
330
86A
100
AcDbEntity
  8
DIM
 62
     0
100
AcDbMText
 10
-273.3096054627639
 20
-6.731187008158165
 30
0.0
 40
0.9999999999999998
 41
0.0
 71
     5
 72
     1
  1
\A1;24.275
 73
     1
 44
1.0
1001
ACAD
1000
MTEXTBEGIN
1070
    73
1070
     1
1070
    44
1040
1.0
1070
    74
1070
     0
1000
MTEXTEND
  0
POINT
  5
AB9
330
86A
100
AcDbEntity
  8
Defpoints
 62
     0
100
AcDbPoint
 10
-280.3528142641128
 20
-6.731187008158165
 30
0.0
  0
POINT
  5
ABA
330
86A
100
AcDbEntity
  8
Defpoints
 62
     0
100
AcDbPoint
 10
-276.3096054627638
 20
-6.731187008158165
 30
0.0
  0
POINT
  5
ABB
330
86A
100
AcDbEntity
  8
Defpoints
 62
     0
100
AcDbPoint
 10
-290.6278034637185
 20
-31.00615221164086
 30
0.0
  0
ENDBLK
  5
871
330
86A
100
AcDbEntity
  8
0
100
AcDbBlockEnd
  0
BLOCK
  5
878
330
872
100
AcDbEntity
  8
0
100
AcDbBlockBegin
  2
*D68
 70
     1
 10
0.0
 20
0.0
 30
0.0
  3
*D68
  1

  0
LINE
  5
AB2
330
872
100
AcDbEntity
  8
DIM
 62
     0
370
    -2
100
AcDbLine
 10
-289.7378142641126
 20
-14.49118700815815
 30
0.0
 11
-294.5796047455089
 21
-14.49118700815815
 31
0.0
  0
MTEXT
  5
AB3
330
872
100
AcDbEntity
  8
DIM
 62
     0
100
AcDbMText
 10
-297.2462714121757
 20
-14.49118700815815
 30
0.0
 40
0.9999999999999998
 41
0.0
 71
     5
 72
     1
  1
\A1;16.515
 73
     1
 44
1.0
1001
ACAD
1000
MTEXTBEGIN
1070
    73
1070
     1
1070
    44
1040
1.0
1070
    74
1070
     0
1000
MTEXTEND
  0
POINT
  5
AB4
330
872
100
AcDbEntity
  8
Defpoints
 62
     0
100
AcDbPoint
 10
-289.3628142641126
 20
-14.49118700815815
 30
0.0
  0
POINT
  5
AB5
330
872
100
AcDbEntity
  8
Defpoints
 62
     0
100
AcDbPoint
 10
-294.5796047455089
 20
-14.49118700815815
 30
0.0
  0
POINT
  5
AB6
330
872
100
AcDbEntity
  8
Defpoints
 62
     0
100
AcDbPoint
 10
-290.6278034637185
 20
-31.00615221164086
 30
0.0
  0
ENDBLK
  5
879
330
872
100
AcDbEntity
  8
0
100
AcDbBlockEnd
  0
BLOCK
  5
880
330
87A
100
AcDbEntity
  8
0
100
AcDbBlockBegin
  2
*D69
 70
     1
 10
0.0
 20
0.0
 30
0.0
  3
*D69
  1

  0
LINE
  5
AAD
330
87A
100
AcDbEntity
  8
DIM
 62
     0
370
    -2
100
AcDbLine
 10
-289.7378142641126
 20
-13.24118700815815
 30
0.0
 11
-294.6161973597438
 21
-13.24118700815815
 31
0.0
  0
MTEXT
  5
AAE
330
87A
100
AcDbEntity
  8
DIM
 62
     0
100
AcDbMText
 10
-297.4495306930771
 20
-13.24118700815815
 30
0.0
 40
0.9999999999999998
 41
0.0
 71
     5
 72
     1
  1
\A1;17.765
 73
     1
 44
1.0
1001
ACAD
1000
MTEXTBEGIN
1070
    73
1070
     1
1070
    44
1040
1.0
1070
    74
1070
     0
1000
MTEXTEND
  0
POINT
  5
AAF
330
87A
100
AcDbEntity
  8
Defpoints
 62
     0
100
AcDbPoint
 10
-289.3628142641126
 20
-13.24118700815815
 30
0.0
  0
POINT
  5
AB0
330
87A
100
AcDbEntity
  8
Defpoints
 62
     0
100
AcDbPoint
 10
-294.6161973597438
 20
-13.24118700815815
 30
0.0
  0
POINT
  5
AB1
330
87A
100
AcDbEntity
  8
Defpoints
 62
     0
100
AcDbPoint
 10
-290.6278034637185
 20
-31.00615221164086
 30
0.0
  0
ENDBLK
  5
881
330
87A
100
AcDbEntity
  8
0
100
AcDbBlockEnd
  0
BLOCK
  5
888
330
882
100
AcDbEntity
  8
0
100
AcDbBlockBegin
  2
*D70
 70
     1
 10
0.0
 20
0.0
 30
0.0
  3
*D70
  1

  0
LINE
  5
AA8
330
882
100
AcDbEntity
  8
DIM
 62
     0
370
    -2
100
AcDbLine
 10
-290.1778142641126
 20
-8.431187008157982
 30
0.0
 11
-290.1778142641126
 21
-2.807533678947399
 31
0.0
  0
MTEXT
  5
AA9
330
882
100
AcDbEntity
  8
DIM
 62
     0
100
AcDbMText
 10
-290.1778142641126
 20
-0.4742003456141144
 30
0.0
 40
0.9999999999999998
 41
0.0
 71
     5
 72
     1
  1
\A1;0.450
 11
0.0000000000000001
 21
1.0
 31
0.0
 73
     1
 44
1.0
1001
ACAD
1000
MTEXTBEGIN
1070
    73
1070
     1
1070
    44
1040
1.0
1070
    74
1070
     0
1000
MTEXTEND
  0
POINT
  5
AAA
330
882
100
AcDbEntity
  8
Defpoints
 62
     0
100
AcDbPoint
 10
-290.1778142641126
 20
-8.806187008157984
 30
0.0
  0
POINT
  5
AAB
330
882
100
AcDbEntity
  8
Defpoints
 62
     0
100
AcDbPoint
 10
-290.1778142641126
 20
-2.807533678947399
 30
0.0
  0
POINT
  5
AAC
330
882
100
AcDbEntity
  8
Defpoints
 62
     0
100
AcDbPoint
 10
-290.6278034637185
 20
-31.00615221164086
 30
0.0
  0
ENDBLK
  5
889
330
882
100
AcDbEntity
  8
0
100
AcDbBlockEnd
  0
BLOCK
  5
890
330
88A
100
AcDbEntity
  8
0
100
AcDbBlockBegin
  2
*D71
 70
     1
 10
0.0
 20
0.0
 30
0.0
  3
*D71
  1

  0
LINE
  5
AA3
330
88A
100
AcDbEntity
  8
DIM
 62
     0
370
    -2
100
AcDbLine
 10
-281.2058142641129
 20
-15.07618700815819
 30
0.0
 11
-281.2058142641129
 21
-2.739867761480319
 31
0.0
  0
MTEXT
  5
AA4
330
88A
100
AcDbEntity
  8
DIM
 62
     0
100
AcDbMText
 10
-281.2058142641129
 20
-0.2398677614803653
 30
0.0
 40
0.9999999999999998
 41
0.0
 71
     5
 72
     1
  1
\A1;9.422
 11
0.0000000000000001
 21
1.0
 31
0.0
 73
     1
 44
1.0
1001
ACAD
1000
MTEXTBEGIN
1070
    73
1070
     1
1070
    44
1040
1.0
1070
    74
1070
     0
1000
MTEXTEND
  0
POINT
  5
AA5
330
88A
100
AcDbEntity
  8
Defpoints
 62
     0
100
AcDbPoint
 10
-281.2058142641129
 20
-15.45118700815819
 30
0.0
  0
POINT
  5
AA6
330
88A
100
AcDbEntity
  8
Defpoints
 62
     0
100
AcDbPoint
 10
-281.2058142641129
 20
-2.739867761480319
 30
0.0
  0
POINT
  5
AA7
330
88A
100
AcDbEntity
  8
Defpoints
 62
     0
100
AcDbPoint
 10
-290.6278034637185
 20
-31.00615221164086
 30
0.0
  0
ENDBLK
  5
891
330
88A
100
AcDbEntity
  8
0
100
AcDbBlockEnd
  0
BLOCK
  5
89A
330
892
100
AcDbEntity
  8
0
100
AcDbBlockBegin
  2
*D72
 70
     1
 10
0.0
 20
0.0
 30
0.0
  3
*D72
  1

  0
LINE
  5
A9C
330
892
100
AcDbEntity
  8
DIM
 62
     0
370
    -2
100
AcDbLine
 10
-280.8028142641126
 20
-8.431187008157982
 30
0.0
 11
-280.8028142641126
 21
-6.739867761480318
 31
0.0
  0
LINE
  5
A9D
330
892
100
AcDbEntity
  8
DIM
 62
     0
370
    -2
100
AcDbLine
 10
-280.8028142641126
 20
-6.739867761480318
 30
0.0
 11
-279.763190474493
 21
-4.739867761480318
 31
0.0
  0
LINE
  5
A9E
330
892
100
AcDbEntity
  8
DIM
 62
     0
370
    -2
100
AcDbLine
 10
-279.763190474493
 20
-4.739867761480318
 30
0.0
 11
-279.763190474493
 21
-2.739867761480319
 31
0.0
  0
MTEXT
  5
A9F
330
892
100
AcDbEntity
  8
DIM
 62
     0
100
AcDbMText
 10
-279.763190474493
 20
-0.239867761480365
 30
0.0
 40
0.9999999999999998
 41
0.0
 71
     5
 72
     1
  1
\A1;9.825
 11
0.0000000000000001
 21
1.0
 31
0.0
 73
     1
 44
1.0
1001
ACAD
1000
MTEXTBEGIN
1070
    73
1070
     1
1070
    44
1040
1.0
1070
    74
1070
     0
1000
MTEXTEND
  0
POINT
  5
AA0
330
892
100
AcDbEntity
  8
Defpoints
 62
     0
100
AcDbPoint
 10
-280.8028142641126
 20
-8.806187008157984
 30
0.0
  0
POINT
  5
AA1
330
892
100
AcDbEntity
  8
Defpoints
 62
     0
100
AcDbPoint
 10
-279.763190474493
 20
-2.739867761480319
 30
0.0
  0
POINT
  5
AA2
330
892
100
AcDbEntity
  8
Defpoints
 62
     0
100
AcDbPoint
 10
-290.6278034637185
 20
-31.00615221164086
 30
0.0
  0
ENDBLK
  5
89B
330
892
100
AcDbEntity
  8
0
100
AcDbBlockEnd
  0
BLOCK
  5
8A2
330
89C
100
AcDbEntity
  8
0
100
AcDbBlockBegin
  2
*D73
 70
     1
 10
0.0
 20
0.0
 30
0.0
  3
*D73
  1

  0
LINE
  5
A97
330
89C
100
AcDbEntity
  8
DIM
 62
     0
370
    -2
100
AcDbLine
 10
-289.3628142641126
 20
-14.86618700815816
 30
0.0
 11
-289.3628142641126
 21
-16.47200536178544
 31
0.0
  0
MTEXT
  5
A98
330
89C
100
AcDbEntity
  8
DIM
 62
     0
100
AcDbMText
 10
-289.3628142641126
 20
-18.80533869511882
 30
0.0
 40
0.9999999999999998
 41
0.0
 71
     5
 72
     1
  1
\A1;1.265
 11
0.0000000000000001
 21
1.0
 31
0.0
 73
     1
 44
1.0
1001
ACAD
1000
MTEXTBEGIN
1070
    73
1070
     1
1070
    44
1040
1.0
1070
    74
1070
     0
1000
MTEXTEND
  0
POINT
  5
A99
330
89C
100
AcDbEntity
  8
Defpoints
 62
     0
100
AcDbPoint
 10
-289.3628142641126
 20
-14.49118700815815
 30
0.0
  0
POINT
  5
A9A
330
89C
100
AcDbEntity
  8
Defpoints
 62
     0
100
AcDbPoint
 10
-289.3628142641126
 20
-16.47200536178544
 30
0.0
  0
POINT
  5
A9B
330
89C
100
AcDbEntity
  8
Defpoints
 62
     0
100
AcDbPoint
 10
-290.6278034637185
 20
-31.00615221164086
 30
0.0
  0
ENDBLK
  5
8A3
330
89C
100
AcDbEntity
  8
0
100
AcDbBlockEnd
  0
BLOCK
  5
8AA
330
8A4
100
AcDbEntity
  8
0
100
AcDbBlockBegin
  2
*D74
 70
     1
 10
0.0
 20
0.0
 30
0.0
  3
*D74
  1

  0
LINE
  5
A8B
330
8A4
100
AcDbEntity
  8
0
 62
     0
370
    -2
100
AcDbLine
 10
-286.6178142641131
 20
-10.04118700815869
 30
0.0
 11
-294.7013599909462
 21
-10.04118700815812
 31
0.0
  0
MTEXT
  5
A8C
330
8A4
100
AcDbEntity
  8
0
 62
     0
100
AcDbMText
 10
-297.2080266576128
 20
-10.04118700815812
 30
0.0
 40
1.0
 41
0.0
 71
     5
 72
     1
  1
\A1;20.965
 73
     1
 44
1.0
1001
ACAD
1000
MTEXTBEGIN
1070
    73
1070
     1
1070
    44
1040
1.0
1070
    74
1070
     0
1000
MTEXTEND
  0
POINT
  5
A8D
330
8A4
100
AcDbEntity
  8
Defpoints
 62
     0
100
AcDbPoint
 10
-286.2428142641131
 20
-10.04118700815869
 30
0.0
  0
POINT
  5
A8E
330
8A4
100
AcDbEntity
  8
Defpoints
 62
     0
100
AcDbPoint
 10
-294.7013599909462
 20
-10.04118700815812
 30
0.0
  0
POINT
  5
A8F
330
8A4
100
AcDbEntity
  8
Defpoints
 62
     0
100
AcDbPoint
 10
-290.6278142641129
 20
-31.00618700815803
 30
0.0
  0
ENDBLK
  5
8AB
330
8A4
100
AcDbEntity
  8
0
100
AcDbBlockEnd
  0
BLOCK
  5
8B2
330
8AC
100
AcDbEntity
  8
0
100
AcDbBlockBegin
  2
*D75
 70
     1
 10
0.0
 20
0.0
 30
0.0
  3
*D75
  1

  0
LINE
  5
A86
330
8AC
100
AcDbEntity
  8
0
 62
     0
370
    -2
100
AcDbLine
 10
-286.6178142641127
 20
-7.391187008158587
 30
0.0
 11
-294.9843076874351
 21
-7.391187008158005
 31
0.0
  0
MTEXT
  5
A87
330
8AC
100
AcDbEntity
  8
0
 62
     0
100
AcDbMText
 10
-297.4076410207684
 20
-7.391187008158005
 30
0.0
 40
1.0
 41
0.0
 71
     5
 72
     1
  1
\A1;23.615
 73
     1
 44
1.0
1001
ACAD
1000
MTEXTBEGIN
1070
    73
1070
     1
1070
    44
1040
1.0
1070
    74
1070
     0
1000
MTEXTEND
  0
POINT
  5
A88
330
8AC
100
AcDbEntity
  8
Defpoints
 62
     0
100
AcDbPoint
 10
-286.2428142641127
 20
-7.391187008158587
 30
0.0
  0
POINT
  5
A89
330
8AC
100
AcDbEntity
  8
Defpoints
 62
     0
100
AcDbPoint
 10
-294.9843076874351
 20
-7.391187008158005
 30
0.0
  0
POINT
  5
A8A
330
8AC
100
AcDbEntity
  8
Defpoints
 62
     0
100
AcDbPoint
 10
-290.6278142641129
 20
-31.00618700815803
 30
0.0
  0
ENDBLK
  5
8B3
330
8AC
100
AcDbEntity
  8
0
100
AcDbBlockEnd
  0
BLOCK
  5
8BC
330
8B4
100
AcDbEntity
  8
0
100
AcDbBlockBegin
  2
*D76
 70
     1
 10
0.0
 20
0.0
 30
0.0
  3
*D76
  1

  0
LINE
  5
A7F
330
8B4
100
AcDbEntity
  8
0
 62
     0
370
    -2
100
AcDbLine
 10
-286.2428142641129
 20
-7.016187008158005
 30
0.0
 11
-286.2428142641129
 21
-5.391187008158005
 31
0.0
  0
LINE
  5
A80
330
8B4
100
AcDbEntity
  8
0
 62
     0
370
    -2
100
AcDbLine
 10
-286.2428142641129
 20
-5.391187008158005
 30
0.0
 11
-287.0014665476237
 21
-4.772389603331994
 31
0.0
  0
LINE
  5
A81
330
8B4
100
AcDbEntity
  8
0
 62
     0
370
    -2
100
AcDbLine
 10
-287.0014665476237
 20
-4.772389603331994
 30
0.0
 11
-287.0014665476237
 21
-2.772389603331994
 31
0.0
  0
MTEXT
  5
A82
330
8B4
100
AcDbEntity
  8
0
 62
     0
100
AcDbMText
 10
-287.0014665476237
 20
-0.6823896033320411
 30
0.0
 40
1.0
 41
0.0
 71
     5
 72
     1
  1
\A1;4.385
 11
0.0000000000000001
 21
1.0
 31
0.0
 73
     1
 44
1.0
1001
ACAD
1000
MTEXTBEGIN
1070
    73
1070
     1
1070
    44
1040
1.0
1070
    74
1070
     0
1000
MTEXTEND
  0
POINT
  5
A83
330
8B4
100
AcDbEntity
  8
Defpoints
 62
     0
100
AcDbPoint
 10
-286.2428142641129
 20
-7.391187008158005
 30
0.0
  0
POINT
  5
A84
330
8B4
100
AcDbEntity
  8
Defpoints
 62
     0
100
AcDbPoint
 10
-287.0014665476237
 20
-2.772389603331994
 30
0.0
  0
POINT
  5
A85
330
8B4
100
AcDbEntity
  8
Defpoints
 62
     0
100
AcDbPoint
 10
-290.6278142641129
 20
-31.00618700815803
 30
0.0
  0
ENDBLK
  5
8BD
330
8B4
100
AcDbEntity
  8
0
100
AcDbBlockEnd
  0
BLOCK
  5
8C6
330
8BE
100
AcDbEntity
  8
0
100
AcDbBlockBegin
  2
*D77
 70
     1
 10
0.0
 20
0.0
 30
0.0
  3
*D77
  1

  0
LINE
  5
A78
330
8BE
100
AcDbEntity
  8
0
 62
     0
370
    -2
100
AcDbLine
 10
-281.8678142641129
 20
-7.016187008158005
 30
0.0
 11
-281.8678142641129
 21
-5.391187008158005
 31
0.0
  0
LINE
  5
A79
330
8BE
100
AcDbEntity
  8
0
 62
     0
370
    -2
100
AcDbLine
 10
-281.8678142641129
 20
-5.391187008158005
 30
0.0
 11
-282.9387945070978
 21
-4.278303466174028
 31
0.0
  0
LINE
  5
A7A
330
8BE
100
AcDbEntity
  8
0
 62
     0
370
    -2
100
AcDbLine
 10
-282.9387945070978
 20
-4.278303466174028
 30
0.0
 11
-282.9387945070978
 21
-2.278303466174029
 31
0.0
  0
MTEXT
  5
A7B
330
8BE
100
AcDbEntity
  8
0
 62
     0
100
AcDbMText
 10
-282.9387945070978
 20
-0.2716367995074091
 30
0.0
 40
1.0
 41
0.0
 71
     5
 72
     1
  1
\A1;8.760
 11
0.0000000000000001
 21
1.0
 31
0.0
 73
     1
 44
1.0
1001
ACAD
1000
MTEXTBEGIN
1070
    73
1070
     1
1070
    44
1040
1.0
1070
    74
1070
     0
1000
MTEXTEND
  0
POINT
  5
A7C
330
8BE
100
AcDbEntity
  8
Defpoints
 62
     0
100
AcDbPoint
 10
-281.8678142641129
 20
-7.391187008158005
 30
0.0
  0
POINT
  5
A7D
330
8BE
100
AcDbEntity
  8
Defpoints
 62
     0
100
AcDbPoint
 10
-282.9387945070978
 20
-2.278303466174029
 30
0.0
  0
POINT
  5
A7E
330
8BE
100
AcDbEntity
  8
Defpoints
 62
     0
100
AcDbPoint
 10
-290.6278142641129
 20
-31.00618700815803
 30
0.0
  0
ENDBLK
  5
8C7
330
8BE
100
AcDbEntity
  8
0
100
AcDbBlockEnd
  0
BLOCK
  5
8D0
330
8C8
100
AcDbEntity
  8
0
100
AcDbBlockBegin
  2
*D78
 70
     1
 10
0.0
 20
0.0
 30
0.0
  3
*D78
  1

  0
LINE
  5
A63
330
8C8
100
AcDbEntity
  8
0
 62
     0
370
    -2
100
AcDbLine
 10
-283.0328142641128
 20
-15.67618700815816
 30
0.0
 11
-290.6009702901229
 21
-15.67618700815816
 31
0.0
  0
LINE
  5
A64
330
8C8
100
AcDbEntity
  8
0
 62
     0
370
    -2
100
AcDbLine
 10
-290.6009702901229
 20
-15.67618700815816
 30
0.0
 11
-292.6009702901229
 21
-15.5854179026162
 31
0.0
  0
LINE
  5
A65
330
8C8
100
AcDbEntity
  8
0
 62
     0
370
    -2
100
AcDbLine
 10
-292.6009702901229
 20
-15.5854179026162
 30
0.0
 11
-294.6009702901228
 21
-15.5854179026162
 31
0.0
  0
MTEXT
  5
A66
330
8C8
100
AcDbEntity
  8
0
 62
     0
100
AcDbMText
 10
-296.9409702901229
 20
-15.5854179026162
 30
0.0
 40
1.0
 41
0.0
 71
     5
 72
     1
  1
\A1;15.330
 73
     1
 44
1.0
1001
ACAD
1000
MTEXTBEGIN
1070
    73
1070
     1
1070
    44
1040
1.0
1070
    74
1070
     0
1000
MTEXTEND
  0
POINT
  5
A67
330
8C8
100
AcDbEntity
  8
Defpoints
 62
     0
100
AcDbPoint
 10
-282.6578142641129
 20
-15.67618700815816
 30
0.0
  0
POINT
  5
A68
330
8C8
100
AcDbEntity
  8
Defpoints
 62
     0
100
AcDbPoint
 10
-294.6009702901228
 20
-15.5854179026162
 30
0.0
  0
POINT
  5
A69
330
8C8
100
AcDbEntity
  8
Defpoints
 62
     0
100
AcDbPoint
 10
-290.6277845246489
 20
-31.00617788449554
 30
0.0
  0
ENDBLK
  5
8D1
330
8C8
100
AcDbEntity
  8
0
100
AcDbBlockEnd
  0
BLOCK
  5
8D8
330
8D2
100
AcDbEntity
  8
0
100
AcDbBlockBegin
  2
*D79
 70
     1
 10
0.0
 20
0.0
 30
0.0
  3
*D79
  1

  0
LINE
  5
B02
330
8D2
100
AcDbEntity
  8
DIM
 62
     0
370
    -2
100
AcDbLine
 10
-285.4878142641128
 20
-12.96218700815805
 30
0.0
 11
-285.4878142641128
 21
-16.49118700815815
 31
0.0
  0
MTEXT
  5
B03
330
8D2
100
AcDbEntity
  8
DIM
 62
     0
100
AcDbMText
 10
-285.4878142641128
 20
-18.7411870081582
 30
0.0
 40
0.9999999999999998
 41
0.0
 71
     5
 72
     1
  1
\A1;5.140
 11
0.0000000000000001
 21
1.0
 31
0.0
 73
     1
 44
1.0
1001
ACAD
1000
MTEXTBEGIN
1070
    73
1070
     1
1070
    44
1040
1.0
1070
    74
1070
     0
1000
MTEXTEND
  0
POINT
  5
B04
330
8D2
100
AcDbEntity
  8
Defpoints
 62
     0
100
AcDbPoint
 10
-285.4878142641128
 20
-12.58718700815804
 30
0.0
  0
POINT
  5
B05
330
8D2
100
AcDbEntity
  8
Defpoints
 62
     0
100
AcDbPoint
 10
-285.4878142641128
 20
-16.49118700815815
 30
0.0
  0
POINT
  5
B06
330
8D2
100
AcDbEntity
  8
Defpoints
 62
     0
100
AcDbPoint
 10
-290.6277845246489
 20
-31.00617788449554
 30
0.0
  0
ENDBLK
  5
8D9
330
8D2
100
AcDbEntity
  8
0
100
AcDbBlockEnd
  0
BLOCK
  5
8E2
330
8DA
100
AcDbEntity
  8
0
100
AcDbBlockBegin
  2
*D80
 70
     1
 10
0.0
 20
0.0
 30
0.0
  3
*D80
  1

  0
LINE
  5
AFB
330
8DA
100
AcDbEntity
  8
DIM
 62
     0
370
    -2
100
AcDbLine
 10
-285.8628142641128
 20
-12.58718700815804
 30
0.0
 11
-290.6278142641128
 21
-12.58718700815804
 31
0.0
  0
LINE
  5
AFC
330
8DA
100
AcDbEntity
  8
DIM
 62
     0
370
    -2
100
AcDbLine
 10
-290.6278142641128
 20
-12.58718700815804
 30
0.0
 11
-292.6278142641128
 21
-11.74118700815816
 31
0.0
  0
LINE
  5
AFD
330
8DA
100
AcDbEntity
  8
DIM
 62
     0
370
    -2
100
AcDbLine
 10
-292.6278142641128
 20
-11.74118700815816
 30
0.0
 11
-294.6278142641128
 21
-11.74118700815816
 31
0.0
  0
MTEXT
  5
AFE
330
8DA
100
AcDbEntity
  8
DIM
 62
     0
100
AcDbMText
 10
-297.2944809307795
 20
-11.74118700815816
 30
0.0
 40
0.9999999999999998
 41
0.0
 71
     5
 72
     1
  1
\A1;18.419
 73
     1
 44
1.0
1001
ACAD
1000
MTEXTBEGIN
1070
    73
1070
     1
1070
    44
1040
1.0
1070
    74
1070
     0
1000
MTEXTEND
  0
POINT
  5
AFF
330
8DA
100
AcDbEntity
  8
Defpoints
 62
     0
100
AcDbPoint
 10
-285.4878142641128
 20
-12.58718700815804
 30
0.0
  0
POINT
  5
B00
330
8DA
100
AcDbEntity
  8
Defpoints
 62
     0
100
AcDbPoint
 10
-294.6278142641128
 20
-11.74118700815816
 30
0.0
  0
POINT
  5
B01
330
8DA
100
AcDbEntity
  8
Defpoints
 62
     0
100
AcDbPoint
 10
-290.6277845246489
 20
-31.00617788449554
 30
0.0
  0
ENDBLK
  5
8E3
330
8DA
100
AcDbEntity
  8
0
100
AcDbBlockEnd
  0
BLOCK
  5
950
330
948
100
AcDbEntity
  8
0
100
AcDbBlockBegin
  2
*D81
 70
     1
 10
0.0
 20
0.0
 30
0.0
  3
*D81
  1

  0
LINE
  5
A90
330
948
100
AcDbEntity
  8
0
 62
     0
370
    -2
100
AcDbLine
 10
-280.8308142641129
 20
-16.95118700815819
 30
0.0
 11
-279.2058142641129
 21
-16.95118700815819
 31
0.0
  0
LINE
  5
A91
330
948
100
AcDbEntity
  8
0
 62
     0
370
    -2
100
AcDbLine
 10
-279.2058142641129
 20
-16.95118700815819
 30
0.0
 11
-277.8893959024829
 21
-17.05323954285878
 31
0.0
  0
LINE
  5
A92
330
948
100
AcDbEntity
  8
0
 62
     0
370
    -2
100
AcDbLine
 10
-277.8893959024829
 20
-17.05323954285878
 30
0.0
 11
-275.8893959024829
 21
-17.05323954285878
 31
0.0
  0
MTEXT
  5
A93
330
948
100
AcDbEntity
  8
0
 62
     0
100
AcDbMText
 10
-273.5493959024829
 20
-17.05323954285878
 30
0.0
 40
1.0
 41
0.0
 71
     5
 72
     1
  1
\A1;14.055
 73
     1
 44
1.0
1001
ACAD
1000
MTEXTBEGIN
1070
    73
1070
     1
1070
    44
1040
1.0
1070
    74
1070
     0
1000
MTEXTEND
  0
POINT
  5
A94
330
948
100
AcDbEntity
  8
Defpoints
 62
     0
100
AcDbPoint
 10
-281.2058142641129
 20
-16.95118700815819
 30
0.0
  0
POINT
  5
A95
330
948
100
AcDbEntity
  8
Defpoints
 62
     0
100
AcDbPoint
 10
-275.8893959024829
 20
-17.05323954285878
 30
0.0
  0
POINT
  5
A96
330
948
100
AcDbEntity
  8
Defpoints
 62
     0
100
AcDbPoint
 10
-290.6278142641129
 20
-31.00618700815803
 30
0.0
  0
ENDBLK
  5
951
330
948
100
AcDbEntity
  8
0
100
AcDbBlockEnd
  0
BLOCK
  5
972
330
96A
100
AcDbEntity
  8
0
100
AcDbBlockBegin
  2
*D82
 70
     1
 10
0.0
 20
0.0
 30
0.0
  3
*D82
  1

  0
LINE
  5
A71
330
96A
100
AcDbEntity
  8
0
 62
     0
370
    -2
100
AcDbLine
 10
-282.1128142641125
 20
-12.86618700815816
 30
0.0
 11
-282.1128142641125
 21
-6.27830346617403
 31
0.0
  0
LINE
  5
A72
330
96A
100
AcDbEntity
  8
0
 62
     0
370
    -2
100
AcDbLine
 10
-282.1128142641125
 20
-6.27830346617403
 30
0.0
 11
-284.4785935207063
 21
-4.278303466174029
 31
0.0
  0
LINE
  5
A73
330
96A
100
AcDbEntity
  8
0
 62
     0
370
    -2
100
AcDbLine
 10
-284.4785935207063
 20
-4.278303466174029
 30
0.0
 11
-284.4785935207063
 21
-2.278303466174029
 31
0.0
  0
MTEXT
  5
A74
330
96A
100
AcDbEntity
  8
0
 62
     0
100
AcDbMText
 10
-284.4785935207063
 20
-0.3549701328407425
 30
0.0
 40
1.0
 41
0.0
 71
     5
 72
     1
  1
\A1;8.515
 11
0.0000000000000001
 21
1.0
 31
0.0
 73
     1
 44
1.0
1001
ACAD
1000
MTEXTBEGIN
1070
    73
1070
     1
1070
    44
1040
1.0
1070
    74
1070
     0
1000
MTEXTEND
  0
POINT
  5
A75
330
96A
100
AcDbEntity
  8
Defpoints
 62
     0
100
AcDbPoint
 10
-282.1128142641125
 20
-13.24118700815815
 30
0.0
  0
POINT
  5
A76
330
96A
100
AcDbEntity
  8
Defpoints
 62
     0
100
AcDbPoint
 10
-284.4785935207063
 20
-2.278303466174029
 30
0.0
  0
POINT
  5
A77
330
96A
100
AcDbEntity
  8
Defpoints
 62
     0
100
AcDbPoint
 10
-290.6277845246489
 20
-31.00617788449554
 30
0.0
  0
ENDBLK
  5
973
330
96A
100
AcDbEntity
  8
0
100
AcDbBlockEnd
  0
BLOCK
  5
97C
330
974
100
AcDbEntity
  8
0
100
AcDbBlockBegin
  2
*D83
 70
     1
 10
0.0
 20
0.0
 30
0.0
  3
*D83
  1

  0
LINE
  5
A6A
330
974
100
AcDbEntity
  8
0
 62
     0
370
    -2
100
AcDbLine
 10
-282.6578142641129
 20
-16.05118700815816
 30
0.0
 11
-282.6578142641129
 21
-18.05521699793792
 31
0.0
  0
LINE
  5
A6B
330
974
100
AcDbEntity
  8
0
 62
     0
370
    -2
100
AcDbLine
 10
-282.6578142641129
 20
-18.05521699793792
 30
0.0
 11
-283.9020239703702
 21
-20.05521699793793
 31
0.0
  0
LINE
  5
A6C
330
974
100
AcDbEntity
  8
0
 62
     0
370
    -2
100
AcDbLine
 10
-283.9020239703702
 20
-20.05521699793793
 30
0.0
 11
-283.9020239703702
 21
-22.05521699793793
 31
0.0
  0
MTEXT
  5
A6D
330
974
100
AcDbEntity
  8
0
 62
     0
100
AcDbMText
 10
-283.9020239703702
 20
-24.06188366460464
 30
0.0
 40
1.0
 41
0.0
 71
     5
 72
     1
  1
\A1;7.970
 11
0.0000000000000001
 21
1.0
 31
0.0
 73
     1
 44
1.0
1001
ACAD
1000
MTEXTBEGIN
1070
    73
1070
     1
1070
    44
1040
1.0
1070
    74
1070
     0
1000
MTEXTEND
  0
POINT
  5
A6E
330
974
100
AcDbEntity
  8
Defpoints
 62
     0
100
AcDbPoint
 10
-282.6578142641129
 20
-15.67618700815816
 30
0.0
  0
POINT
  5
A6F
330
974
100
AcDbEntity
  8
Defpoints
 62
     0
100
AcDbPoint
 10
-283.9020239703702
 20
-22.05521699793793
 30
0.0
  0
POINT
  5
A70
330
974
100
AcDbEntity
  8
Defpoints
 62
     0
100
AcDbPoint
 10
-290.6277845246489
 20
-31.00617788449554
 30
0.0
  0
ENDBLK
  5
97D
330
974
100
AcDbEntity
  8
0
100
AcDbBlockEnd
  0
BLOCK
  5
98E
330
985
100
AcDbEntity
  8
0
100
AcDbBlockBegin
  2
*D84
 70
     1
 10
0.0
 20
0.0
 30
0.0
  3
*D84
  1

  0
LINE
  5
B66
330
985
100
AcDbEntity
  8
0
 62
     0
370
    -2
100
AcDbLine
 10
-278.6695925325171
 20
-28.46397446503651
 30
0.0
 11
-279.6695925325171
 21
-28.46397446503653
 31
0.0
  0
LINE
  5
B67
330
985
100
AcDbEntity
  8
0
 62
     0
370
    -2
100
AcDbLine
 10
-279.6695925325171
 20
-28.46397446503653
 30
0.0
 11
-282.2880492644359
 21
-17.25855828096797
 31
0.0
  0
MTEXT
  5
B68
330
985
100
AcDbEntity
  8
0
 62
     0
100
AcDbMText
 10
-278.5795925325171
 20
-28.46397446503655
 30
0.0
 40
1.0
 41
0.0
 71
     4
 72
     1
  1
\A1;\U+22051.250 (1)\POPTIONAL:\PETHERNET/\PALARM\PCONNECTION \PPORT
 73
     1
 44
1.0
1001
ACAD
1000
MTEXTBEGIN
1070
    73
1070
     1
1070
    44
1040
1.0
1070
    74
1070
     0
1000
MTEXTEND
  0
SOLID
  5
B69
330
985
100
AcDbEntity
  8
0
 62
     0
100
AcDbTrace
 10
-282.1257547749169
 20
-17.22063366561647
 30
0.0
 11
-282.4503437539549
 21
-17.29648289631947
 31
0.0
 12
-282.5155969565448
 22
-16.28479134385423
 32
0.0
 13
-282.5155969565448
 23
-16.28479134385423
 33
0.0
  0
LINE
  5
B6A
330
985
100
AcDbEntity
  8
0
 62
     0
370
    -2
100
AcDbLine
 10
-282.7478142641129
 20
-15.67618700815819
 30
0.0
 11
-282.5678142641129
 21
-15.67618700815819
 31
0.0
  0
LINE
  5
B6B
330
985
100
AcDbEntity
  8
0
 62
     0
370
    -2
100
AcDbLine
 10
-282.6578142641129
 20
-15.76618700815819
 30
0.0
 11
-282.657814264113
 21
-15.5861870081582
 31
0.0
  0
POINT
  5
B6C
330
985
100
AcDbEntity
  8
Defpoints
 62
     0
100
AcDbPoint
 10
-282.5155969565448
 20
-16.28479134385423
 30
0.0
  0
POINT
  5
B6D
330
985
100
AcDbEntity
  8
Defpoints
 62
     0
100
AcDbPoint
 10
-282.800031571681
 20
-15.06758267246214
 30
0.0
  0
ENDBLK
  5
98F
330
985
100
AcDbEntity
  8
0
100
AcDbBlockEnd
  0
BLOCK
  5
999
330
990
100
AcDbEntity
  8
0
100
AcDbBlockBegin
  2
*D85
 70
     1
 10
0.0
 20
0.0
 30
0.0
  3
*D85
  1

  0
LINE
  5
B07
330
990
100
AcDbEntity
  8
0
 62
     0
370
    -2
100
AcDbLine
 10
-294.9038086735452
 20
-26.41417754516147
 30
0.0
 11
-293.9038086735443
 21
-26.41417754516144
 31
0.0
  0
LINE
  5
B08
330
990
100
AcDbEntity
  8
0
 62
     0
370
    -2
100
AcDbLine
 10
-293.9038086735443
 20
-26.41417754516144
 30
0.0
 11
-291.0223568783295
 21
-29.72538035344958
 31
0.0
  0
MTEXT
  5
B09
330
990
100
AcDbEntity
  8
0
 62
     0
100
AcDbMText
 10
-297.4104753402118
 20
-26.41417754516144
 30
0.0
 40
1.0
 41
0.0
 71
     5
 72
     1
  1
\A1;\U+22050.375 \P(6)
 73
     1
 44
1.0
1001
ACAD
1000
MTEXTBEGIN
1070
    73
1070
     1
1070
    44
1040
1.0
1070
    74
1070
     0
1000
MTEXTEND
  0
SOLID
  5
B0A
330
990
100
AcDbEntity
  8
0
 62
     0
100
AcDbTrace
 10
-290.8966296285458
 20
-29.61597086373494
 30
0.0
 11
-291.1480841281132
 21
-29.83478984316422
 31
0.0
 12
-290.3658999400416
 22
-30.47974385215146
 32
0.0
 13
-290.3658999400416
 23
-30.47974385215146
 33
0.0
  0
LINE
  5
B0B
330
990
100
AcDbEntity
  8
0
 62
     0
370
    -2
100
AcDbLine
 10
-290.3328142641127
 20
-30.621187008158
 30
0.0
 11
-290.1528142641127
 21
-30.621187008158
 31
0.0
  0
LINE
  5
B0C
330
990
100
AcDbEntity
  8
0
 62
     0
370
    -2
100
AcDbLine
 10
-290.2428142641127
 20
-30.71118700815801
 30
0.0
 11
-290.2428142641127
 21
-30.531187008158
 31
0.0
  0
POINT
  5
B0D
330
990
100
AcDbEntity
  8
Defpoints
 62
     0
100
AcDbPoint
 10
-290.3658999400416
 20
-30.47974385215146
 30
0.0
  0
POINT
  5
B0E
330
990
100
AcDbEntity
  8
Defpoints
 62
     0
100
AcDbPoint
 10
-290.1197285881837
 20
-30.76263016416461
 30
0.0
  0
ENDBLK
  5
99A
330
990
100
AcDbEntity
  8
0
100
AcDbBlockEnd
  0
BLOCK
  5
B5C
330
B54
100
AcDbEntity
  8
0
100
AcDbBlockBegin
  2
*D86
 70
     1
 10
0.0
 20
0.0
 30
0.0
  3
*D86
  1

  0
LINE
  5
B55
330
B54
100
AcDbEntity
  8
0
 62
     0
370
    -2
100
AcDbLine
 10
-290.6178142641127
 20
-30.621187008158
 30
0.0
 11
-292.2428142641127
 21
-30.621187008158
 31
0.0
  0
LINE
  5
B56
330
B54
100
AcDbEntity
  8
0
 62
     0
370
    -2
100
AcDbLine
 10
-292.2428142641127
 20
-30.621187008158
 30
0.0
 11
-292.595294025039
 21
-29.6834139500462
 31
0.0
  0
LINE
  5
B57
330
B54
100
AcDbEntity
  8
0
 62
     0
370
    -2
100
AcDbLine
 10
-292.595294025039
 20
-29.6834139500462
 30
0.0
 11
-294.5952940250391
 21
-29.6834139500462
 31
0.0
  0
MTEXT
  5
B58
330
B54
100
AcDbEntity
  8
0
 62
     0
100
AcDbMText
 10
-296.6019606917057
 20
-29.6834139500462
 30
0.0
 40
1.0
 41
0.0
 71
     5
 72
     1
  1
\A1;0.385
 73
     1
 44
1.0
1001
ACAD
1000
MTEXTBEGIN
1070
    73
1070
     1
1070
    44
1040
1.0
1070
    74
1070
     0
1000
MTEXTEND
  0
POINT
  5
B59
330
B54
100
AcDbEntity
  8
Defpoints
 62
     0
100
AcDbPoint
 10
-290.2428142641127
 20
-30.621187008158
 30
0.0
  0
POINT
  5
B5A
330
B54
100
AcDbEntity
  8
Defpoints
 62
     0
100
AcDbPoint
 10
-294.5952940250391
 20
-29.6834139500462
 30
0.0
  0
POINT
  5
B5B
330
B54
100
AcDbEntity
  8
Defpoints
 62
     0
100
AcDbPoint
 10
-290.6277845246489
 20
-31.00617788449554
 30
0.0
  0
ENDBLK
  5
B5D
330
B54
100
AcDbEntity
  8
0
100
AcDbBlockEnd
  0
ENDSEC
  0
SECTION
  2
ENTITIES
  0
TEXT
  5
1C8
330
1F
100
AcDbEntity
  8
DIM
100
AcDbText
 10
-291.9663782056453
 20
3.16530284473989
 30
0.0
 40
0.9999999999999998
  1
CUTOUT DRAWING
 72
     1
 11
-285.133044872312
 21
3.16530284473989
 31
0.0
100
AcDbText
  0
TEXT
  5
1C9
330
1F
100
AcDbEntity
  8
DIM
100
AcDbText
 10
-289.133044872312
 20
4.831969511406505
 30
0.0
 40
0.9999999999999998
  1
IQ2500TXS
 72
     1
 11
-285.133044872312
 21
4.831969511406505
 31
0.0
100
AcDbText
  0
TEXT
  5
1CA
330
1F
100
AcDbEntity
  8
DIM
100
AcDbText
 10
-289.0497115389787
 20
6.498636178073192
 30
0.0
 40
0.9999999999999998
  1
IQ2000TXS
 72
     1
 11
-285.133044872312
 21
6.498636178073192
 31
0.0
100
AcDbText
  0
LINE
  5
48D
330
1F
100
AcDbEntity
  8
BORDER
100
AcDbLine
 10
-292.9939501609119
 20
-48.61868700815808
 30
0.0
 11
-309.2394534068367
 21
-48.61868700815808
 31
0.0
  0
TEXT
  5
48E
330
1F
100
AcDbEntity
  8
TEXT
100
AcDbText
 10
-308.7550784068367
 20
-48.99368700815811
 30
0.0
 40
0.25
  1
0
 72
     1
 11
-308.6925784068367
 21
-48.86868700815811
 31
0.0
100
AcDbText
 73
     2
  0
LINE
  5
48F
330
1F
100
AcDbEntity
  8
BORDER
100
AcDbLine
 10
-308.1457034068367
 20
-49.11868700815809
 30
0.0
 11
-308.1457034068367
 21
-47.11868700815803
 31
0.0
  0
TEXT
  5
490
330
1F
100
AcDbEntity
  8
TEXT
100
AcDbText
 10
-304.62591174017
 20
-48.99368700815811
 30
0.0
 40
0.25
  1
INITIAL RELEASE
 72
     1
 11
-302.9175784068367
 21
-48.86868700815811
 31
0.0
100
AcDbText
 73
     2
  0
TEXT
  5
491
330
1F
100
AcDbEntity
  8
TEXT
100
AcDbText
 10
-294.5750351172075
 20
-48.99368700815811
 30
0.0
 40
0.25
  1
GFD
 72
     1
 11
-294.2417017838742
 21
-48.86868700815811
 31
0.0
100
AcDbText
 73
     2
  0
LINE
  5
492
330
1F
100
AcDbEntity
  8
BORDER
100
AcDbLine
 10
-295.4894534068366
 20
-49.11868700815809
 30
0.0
 11
-295.4894534068367
 21
-47.11868700815803
 31
0.0
  0
TEXT
  5
493
330
1F
100
AcDbEntity
  8
TEXT
100
AcDbText
 10
-297.3811200735033
 20
-48.99368700815811
 30
0.0
 40
0.25
  1
4-20-05
 72
     1
 11
-296.5894534068366
 21
-48.86868700815811
 31
0.0
100
AcDbText
 73
     2
  0
LINE
  5
494
330
1F
100
AcDbEntity
  8
BORDER
100
AcDbLine
 10
-297.6894534068366
 20
-49.11868700815809
 30
0.0
 11
-297.6894534068366
 21
-47.11868700815803
 31
0.0
  0
LINE
  5
495
330
1F
100
AcDbEntity
  8
BORDER
100
AcDbLine
 10
-292.9939501609119
 20
-49.61868700815814
 30
0.0
 11
-309.2394534068367
 21
-49.61868700815814
 31
0.0
  0
LINE
  5
496
330
1F
100
AcDbEntity
  8
BORDER
100
AcDbLine
 10
-292.9939501609119
 20
-49.11868700815809
 30
0.0
 11
-309.2394534068367
 21
-49.11868700815809
 31
0.0
  0
TEXT
  5
497
330
1F
100
AcDbEntity
  8
TEXT
100
AcDbText
 10
-309.0675784068367
 20
-49.49368700815817
 30
0.0
 40
0.25
  1
REV
 72
     1
 11
-308.6925784068367
 21
-49.36868700815818
 31
0.0
100
AcDbText
 73
     2
  0
LINE
  5
498
330
1F
100
AcDbEntity
  8
BORDER
100
AcDbLine
 10
-309.2394534068367
 20
-50.11868700815811
 30
0.0
 11
-309.2394534068367
 21
-47.1186870081579
 31
0.0
  0
LINE
  5
499
330
1F
100
AcDbEntity
  8
BORDER
100
AcDbLine
 10
-308.1457034068367
 20
-49.61868700815814
 30
0.0
 11
-308.1457034068367
 21
-49.11868700815809
 31
0.0
  0
TEXT
  5
49A
330
1F
100
AcDbEntity
  8
TEXT
100
AcDbText
 10
-304.1675784068367
 20
-49.49368700815817
 30
0.0
 40
0.25
  1
DESCRIPTION
 72
     1
 11
-302.9175784068367
 21
-49.36868700815818
 31
0.0
100
AcDbText
 73
     2
  0
TEXT
  5
49B
330
1F
100
AcDbEntity
  8
TEXT
100
AcDbText
 10
-295.0750351172075
 20
-49.49368700815817
 30
0.0
 40
0.25
  1
CHECKED
 72
     1
 11
-294.2417017838742
 21
-49.36868700815818
 31
0.0
100
AcDbText
 73
     2
  0
LINE
  5
49C
330
1F
100
AcDbEntity
  8
BORDER
100
AcDbLine
 10
-295.4894534068366
 20
-49.61868700815814
 30
0.0
 11
-295.4894534068366
 21
-49.11868700815809
 31
0.0
  0
TEXT
  5
49D
330
1F
100
AcDbEntity
  8
TEXT
100
AcDbText
 10
-297.0477867401699
 20
-49.49368700815817
 30
0.0
 40
0.25
  1
DATE
 72
     1
 11
-296.5894534068366
 21
-49.36868700815818
 31
0.0
100
AcDbText
 73
     2
  0
LINE
  5
49E
330
1F
100
AcDbEntity
  8
BORDER
100
AcDbLine
 10
-297.6894534068366
 20
-49.61868700815814
 30
0.0
 11
-297.6894534068366
 21
-49.11868700815809
 31
0.0
  0
LINE
  5
49F
330
1F
100
AcDbEntity
  8
BORDER
100
AcDbLine
 10
-309.2394534068367
 20
-49.61868700815814
 30
0.0
 11
-292.9939501609119
 21
-49.61868700815814
 31
0.0
  0
LINE
  5
4A0
330
1F
100
AcDbEntity
  8
BORDER
100
AcDbLine
 10
-292.9939501609119
 20
-47.11868700815803
 30
0.0
 11
-292.9939501609119
 21
-50.11868700815811
 31
0.0
  0
LINE
  5
4A1
330
1F
100
AcDbEntity
  8
BORDER
100
AcDbLine
 10
-292.9939501609119
 20
-50.11868700815811
 30
0.0
 11
-309.2394534068367
 21
-50.11868700815811
 31
0.0
  0
TEXT
  5
4A2
330
1F
100
AcDbEntity
  8
TEXT
100
AcDbText
 10
-303.9592450735034
 20
-49.99368700815819
 30
0.0
 40
0.25
  1
REVISIONS
 72
     1
 11
-302.9175784068367
 21
-49.86868700815819
 31
0.0
100
AcDbText
 73
     2
  0
TEXT
  5
4A3
330
1F
100
AcDbEntity
  8
TEXT
100
AcDbText
 10
-262.8062595141205
 20
-49.89530590898128
 30
0.0
 40
0.625
  1
3
 72
     1
 11
-262.5979261807872
 21
-49.58280590898128
 31
0.0
100
AcDbText
 73
     2
  0
TEXT
  5
4A4
330
1F
100
AcDbEntity
  8
TEXT
100
AcDbText
 10
-268.7784702545687
 20
-49.89530590898128
 30
0.0
 40
0.625
  1
IQ290921
 72
     1
 11
-266.643053587902
 21
-49.58280590898128
 31
0.0
100
AcDbText
 73
     2
  0
TEXT
  5
4A5
330
1F
100
AcDbEntity
  8
TEXT
100
AcDbText
 10
-269.1720696515322
 20
-48.62504980980446
 30
0.0
 40
0.625
  1
IQ20/2500TXS
 72
     1
 11
-265.7866529848655
 21
-48.31254980980446
 31
0.0
100
AcDbText
 73
     2
  0
TEXT
  5
4A6
330
1F
100
AcDbEntity
  8
TEXT
100
AcDbText
 10
-266.6586983618371
 20
-47.19536230980446
 30
0.0
 40
0.15625
  1
724-837-2204  *  1-888-867-8234
 72
     1
 11
-264.3019275285038
 21
-47.11723730980446
 31
0.0
100
AcDbText
 73
     2
  0
TEXT
  5
4A7
330
1F
100
AcDbEntity
  8
TEXT
100
AcDbText
 10
-265.8123441951705
 20
-46.88286230980446
 30
0.0
 40
0.15625
  1
GREENSBURG, PA  15601
 72
     1
 11
-264.3019275285038
 21
-46.80473730980446
 31
0.0
100
AcDbText
 73
     2
  0
TEXT
  5
4A8
330
1F
100
AcDbEntity
  8
TEXT
100
AcDbText
 10
-265.5779691951705
 20
-46.57036230980446
 30
0.0
 40
0.15625
  1
141 WILSON AVENUE
 72
     1
 11
-264.3019275285038
 21
-46.49223730980446
 31
0.0
100
AcDbText
 73
     2
  0
TEXT
  5
4A9
330
1F
100
AcDbEntity
  8
TEXT
100
AcDbText
 10
-266.3592191951705
 20
-46.27348730980442
 30
0.0
 40
0.15625
  1
INDUSTRIAL COOLING EQUIPMENT
 72
     1
 11
-264.3019275285038
 21
-46.19536230980442
 31
0.0
100
AcDbText
 73
     2
  0
TEXT
  5
4AA
330
1F
100
AcDbEntity
  8
TEXT
100
AcDbText
 10
-265.6040108618372
 20
-47.50786230980446
 30
0.0
 40
0.15625
  1
FAX  724-837-3386
 72
     1
 11
-264.3019275285038
 21
-47.42973730980446
 31
0.0
100
AcDbText
 73
     2
  0
LINE
  5
4AB
330
1F
100
AcDbEntity
  8
BORDER
100
AcDbLine
 10
-269.8314299356186
 20
-46.00004980980441
 30
0.0
 11
-261.7411751213891
 21
-46.00004980980442
 31
0.0
  0
LINE
  5
4AC
330
1F
100
AcDbEntity
  8
BORDER
100
AcDbLine
 10
-269.8314299356186
 20
-47.56254980980442
 30
0.0
 11
-261.7411751213891
 21
-47.56254980980442
 31
0.0
  0
LINE
  5
4AD
330
1F
100
AcDbEntity
  8
BORDER
100
AcDbLine
 10
-269.8314299356186
 20
-48.81254980980443
 30
0.0
 11
-261.7411751213891
 21
-48.81254980980443
 31
0.0
  0
LINE
  5
4AE
330
1F
100
AcDbEntity
  8
BORDER
100
AcDbLine
 10
-263.4546772401855
 20
-48.81254980980443
 30
0.0
 11
-263.4546772401855
 21
-50.11868700815811
 31
0.0
  0
TEXT
  5
4AF
330
1F
100
AcDbEntity
  8
TEXT
100
AcDbText
 10
-273.7216283639965
 20
-49.93186936383298
 30
0.0
 40
0.3125
  1
SHEET 1 OF 1
 72
     1
 11
-272.0028783639965
 21
-49.77561936383298
 31
0.0
100
AcDbText
 73
     2
  0
LINE
  5
4B0
330
1F
100
AcDbEntity
  8
BORDER
100
AcDbLine
 10
-274.2064299356187
 20
-49.43754980980443
 30
0.0
 11
-269.8314299356186
 21
-49.43754980980443
 31
0.0
  0
TEXT
  5
4B1
330
1F
100
AcDbEntity
  8
TEXT
100
AcDbText
 10
-272.9824716022853
 20
-49.27626477310682
 30
0.0
 40
0.3125
  1
9-17-09
 72
     1
 11
-272.0189299356186
 21
-49.12001477310682
 31
0.0
100
AcDbText
 73
     2
  0
TEXT
  5
4B2
330
1F
100
AcDbEntity
  8
TEXT
100
AcDbText
 10
-274.0501799356187
 20
-49.04692480980443
 30
0.0
 40
0.15625
  1
DATE
100
AcDbText
  0
TEXT
  5
4B3
330
1F
100
AcDbEntity
  8
TEXT
100
AcDbText
 10
-273.4579924356187
 20
-48.75692480980448
 30
0.0
 40
0.234375
  1
GFD
 72
     1
 11
-273.1454924356187
 21
-48.63973730980448
 31
0.0
100
AcDbText
 73
     2
  0
TEXT
  5
4B4
330
1F
100
AcDbEntity
  8
TEXT
100
AcDbText
 10
-274.1158049356187
 20
-48.42192480980443
 30
0.0
 40
0.15625
  1
DRAWN
100
AcDbText
  0
TEXT
  5
4B5
330
1F
100
AcDbEntity
  8
TEXT
100
AcDbText
 10
-271.8626799356187
 20
-48.42192480980443
 30
0.0
 40
0.15625
  1
SCALE
100
AcDbText
  0
TEXT
  5
4B6
330
1F
100
AcDbEntity
  8
TEXT
100
AcDbText
 10
-271.3220549356187
 20
-48.75692480980448
 30
0.0
 40
0.234375
  1
NONE
 72
     1
 11
-270.8923674356187
 21
-48.63973730980448
 31
0.0
100
AcDbText
 73
     2
  0
LINE
  5
4B7
330
1F
100
AcDbEntity
  8
BORDER
100
AcDbLine
 10
-274.2064299356187
 20
-48.18754980980443
 30
0.0
 11
-269.8314299356186
 21
-48.18754980980443
 31
0.0
  0
LINE
  5
4B8
330
1F
100
AcDbEntity
  8
BORDER
100
AcDbLine
 10
-274.2064299356187
 20
-48.81254980980443
 30
0.0
 11
-269.8314299356186
 21
-48.81254980980443
 31
0.0
  0
LINE
  5
4B9
330
1F
100
AcDbEntity
  8
BORDER
100
AcDbLine
 10
-269.8314299356186
 20
-50.11868700815817
 30
0.0
 11
-269.8314299356186
 21
-46.00004980980442
 31
0.0
  0
LINE
  5
4BA
330
1F
100
AcDbEntity
  8
TEXT
100
AcDbLine
 10
-268.9372104349457
 20
-47.30789979377382
 30
0.0
 11
-268.910479349041
 21
-47.32481728002299
 31
0.0
  0
ARC
  5
4BB
330
1F
100
AcDbEntity
  8
TEXT
100
AcDbCircle
 10
-268.7627006465963
 20
-47.12826617881971
 30
0.0
 40
0.1029739000996109
100
AcDbArc
 50
287.1920036507392
 51
335.8997504051523
  0
ARC
  5
4BC
330
1F
100
AcDbEntity
  8
TEXT
100
AcDbCircle
 10
-268.5566877916911
 20
-47.26699604241397
 30
0.0
 40
0.047902564587344
100
AcDbArc
 50
67.37252950712522
 51
112.6274704928676
  0
ARC
  5
4BD
330
1F
100
AcDbEntity
  8
TEXT
100
AcDbCircle
 10
-268.5717786455289
 20
-47.18423569366745
 30
0.0
 40
0.0676602827344026
100
AcDbArc
 50
330.1916644163827
 51
19.91318758188057
  0
ARC
  5
4BE
330
1F
100
AcDbEntity
  8
TEXT
100
AcDbCircle
 10
-268.6617978602971
 20
-47.14634580626777
 30
0.0
 40
0.0249429364567843
100
AcDbArc
 50
253.9290889125597
 51
38.652674775114
  0
ARC
  5
4BF
330
1F
100
AcDbEntity
  8
TEXT
100
AcDbCircle
 10
-268.2378787652103
 20
-47.17216336760816
 30
0.0
 40
0.0518260868541633
100
AcDbArc
 50
188.1927496775748
 51
244.8496170020149
  0
ARC
  5
4C0
330
1F
100
AcDbEntity
  8
TEXT
100
AcDbCircle
 10
-268.2385125466274
 20
-47.12199676410571
 30
0.0
 40
0.0994083459973538
100
AcDbArc
 50
257.573093086619
 51
314.4273867462269
  0
LINE
  5
4C1
330
1F
100
AcDbEntity
  8
TEXT
100
AcDbLine
 10
-268.0652899473691
 20
-47.23251540216989
 30
0.0
 11
-268.0637077371363
 21
-47.21433282759725
 31
0.0
  0
LINE
  5
4C2
330
1F
100
AcDbEntity
  8
TEXT
100
AcDbLine
 10
-268.0637077371363
 20
-47.21433282759725
 30
0.0
 11
-268.0906056761985
 21
-47.21591392507305
 31
0.0
  0
ARC
  5
4C3
330
1F
100
AcDbEntity
  8
TEXT
100
AcDbCircle
 10
-268.0911495938214
 20
-47.19399984105918
 30
0.0
 40
0.0219208331170951
100
AcDbArc
 50
155.9964711746289
 51
271.4218156194853
  0
ARC
  5
4C4
330
1F
100
AcDbEntity
  8
TEXT
100
AcDbCircle
 10
-267.9007236977053
 20
-47.18328114395185
 30
0.0
 40
0.0513752098052219
100
AcDbArc
 50
203.9135879631563
 51
286.1701931802543
  0
ARC
  5
4C5
330
1F
100
AcDbEntity
  8
TEXT
100
AcDbCircle
 10
-267.8761423977555
 20
-47.16081767845878
 30
0.0
 40
0.0725374442393223
100
AcDbArc
 50
261.8576121462839
 51
331.2394802847377
  0
ARC
  5
4C6
330
1F
100
AcDbEntity
  8
TEXT
100
AcDbCircle
 10
-267.8792184961448
 20
-47.14954737531543
 30
0.0
 40
0.0810929943736197
100
AcDbArc
 50
325.2939034707337
 51
356.4132772462207
  0
LINE
  5
4C7
330
1F
100
AcDbEntity
  8
TEXT
100
AcDbLine
 10
-268.5878309395653
 20
-46.41671754386757
 30
0.0
 11
-268.3798393313781
 21
-46.41671754386757
 31
0.0
  0
ARC
  5
4C8
330
1F
100
AcDbEntity
  8
TEXT
100
AcDbCircle
 10
-268.4743175352555
 20
-46.41232424082084
 30
0.0
 40
0.0945802945625412
100
AcDbArc
 50
357.337623744369
 51
85.63084243886233
  0
ARC
  5
4C9
330
1F
100
AcDbEntity
  8
TEXT
100
AcDbCircle
 10
-268.5038015218546
 20
-46.49297271529648
 30
0.0
 40
0.1787595523837168
100
AcDbArc
 50
78.15621523985544
 51
106.6122408520358
  0
LINE
  5
4CA
330
1F
100
AcDbEntity
  8
TEXT
100
AcDbLine
 10
-268.5878309395653
 20
-46.39426228119729
 30
0.0
 11
-268.4514344264886
 21
-46.39426228119729
 31
0.0
  0
ARC
  5
4CB
330
1F
100
AcDbEntity
  8
TEXT
100
AcDbCircle
 10
-268.5213753749235
 20
-46.40724180428914
 30
0.0
 40
0.0677112257424498
100
AcDbArc
 50
103.9179608005984
 51
168.9486088950479
  0
ARC
  5
4CC
330
1F
100
AcDbEntity
  8
TEXT
100
AcDbCircle
 10
-268.5057958808146
 20
-46.39254524421734
 30
0.0
 40
0.0543885643533876
100
AcDbArc
 50
358.1908821763629
 51
69.74957583402929
  0
ARC
  5
4CD
330
1F
100
AcDbEntity
  8
TEXT
100
AcDbCircle
 10
-268.5123164033909
 20
-46.54793401424822
 30
0.0
 40
0.2079657856617219
100
AcDbArc
 50
82.99970676551479
 51
97.00029323448521
  0
ARC
  5
4CE
330
1F
100
AcDbEntity
  8
TEXT
100
AcDbCircle
 10
-268.5138170383928
 20
-46.44418507878254
 30
0.0
 40
0.1292181297135794
100
AcDbArc
 50
108.54166133208
 51
149.7652339536166
  0
ARC
  5
4CF
330
1F
100
AcDbEntity
  8
TEXT
100
AcDbCircle
 10
-268.5129900197131
 20
-46.44812140656982
 30
0.0
 40
0.1319485192661753
100
AcDbArc
 50
148.4692011102813
 51
195.5802361373362
  0
ARC
  5
4D0
330
1F
100
AcDbEntity
  8
TEXT
100
AcDbCircle
 10
-268.515430852876
 20
-46.45205281909325
 30
0.0
 40
0.1285795811377622
100
AcDbArc
 50
194.1847393568173
 51
248.6586767321129
  0
ARC
  5
4D1
330
1F
100
AcDbEntity
  8
TEXT
100
AcDbCircle
 10
-268.4626160482484
 20
-46.41825621662189
 30
0.0
 40
0.1252243447630968
100
AcDbArc
 50
179.2959701761241
 51
227.5915484940839
  0
ARC
  5
4D2
330
1F
100
AcDbEntity
  8
TEXT
100
AcDbCircle
 10
-268.4899251949088
 20
-46.44054733205835
 30
0.0
 40
0.0904935239504756
100
AcDbArc
 50
230.8416488637728
 51
280.5326941523483
  0
ARC
  5
4D3
330
1F
100
AcDbEntity
  8
TEXT
100
AcDbCircle
 10
-268.4780986077726
 20
-46.41602779721138
 30
0.0
 40
0.1135862276716573
100
AcDbArc
 50
272.3792098458872
 51
327.3581874363222
  0
ARC
  5
4D4
330
1F
100
AcDbEntity
  8
TEXT
100
AcDbCircle
 10
-268.5116781414811
 20
-46.39217634826713
 30
0.0
 40
0.1866149158157418
100
AcDbArc
 50
254.2847830849396
 51
294.1819270465994
  0
ARC
  5
4D5
330
1F
100
AcDbEntity
  8
TEXT
100
AcDbCircle
 10
-268.4965294908467
 20
-46.43852122957106
 30
0.0
 40
0.1382279414268217
100
AcDbArc
 50
296.3233923707218
 51
339.8348331475797
  0
ARC
  5
4D6
330
1F
100
AcDbEntity
  8
TEXT
100
AcDbCircle
 10
-268.3761259271026
 20
-46.48440443860263
 30
0.0
 40
0.0095170105473448
100
AcDbArc
 50
349.2952029716972
 51
131.6626905469362
  0
ARC
  5
4D7
330
1F
100
AcDbEntity
  8
TEXT
100
AcDbCircle
 10
-268.7797440619361
 20
-46.71273337457747
 30
0.0
 40
0.3987988710058952
100
AcDbArc
 50
84.62122141578795
 51
95.37877858421206
  0
ARC
  5
4D8
330
1F
100
AcDbEntity
  8
TEXT
100
AcDbCircle
 10
-268.7558317069914
 20
-46.40662254243705
 30
0.0
 40
0.091924416877587
100
AcDbArc
 50
43.16761867319064
 51
81.57335966331341
  0
ARC
  5
4D9
330
1F
100
AcDbEntity
  8
TEXT
100
AcDbCircle
 10
-268.7206976347503
 20
-46.36773041546915
 30
0.0
 40
0.0399271801820827
100
AcDbArc
 50
321.1558234807585
 51
36.94217904230046
  0
ARC
  5
4DA
330
1F
100
AcDbEntity
  8
TEXT
100
AcDbCircle
 10
-268.7131148705812
 20
-46.36231327696278
 30
0.0
 40
0.0384802722134761
100
AcDbArc
 50
205.1359642898999
 51
307.6679722285764
  0
ARC
  5
4DB
330
1F
100
AcDbEntity
  8
TEXT
100
AcDbCircle
 10
-268.7050762560315
 20
-46.36148785610592
 30
0.0
 40
0.046185345798517
100
AcDbArc
 50
180.010674400693
 51
201.8251852718022
  0
ARC
  5
4DC
330
1F
100
AcDbEntity
  8
TEXT
100
AcDbCircle
 10
-268.7966754049755
 20
-46.37513580896017
 30
0.0
 40
0.0474177752828994
100
AcDbArc
 50
16.71684440730588
 51
45.97719400399792
  0
ARC
  5
4DD
330
1F
100
AcDbEntity
  8
TEXT
100
AcDbCircle
 10
-268.788510763378
 20
-46.72585097393468
 30
0.0
 40
0.3856090945596675
100
AcDbArc
 50
86.31431733544657
 51
93.90381943516556
  0
ARC
  5
4DE
330
1F
100
AcDbEntity
  8
TEXT
100
AcDbCircle
 10
-268.8024093980533
 20
-46.43443303322386
 30
0.0
 40
0.1196511698431431
100
AcDbArc
 50
97.06566064011505
 51
142.4986334312254
  0
ARC
  5
4DF
330
1F
100
AcDbEntity
  8
TEXT
100
AcDbCircle
 10
-268.8034922270178
 20
-46.45313745325368
 30
0.0
 40
0.1310983043162969
100
AcDbArc
 50
135.7093780000635
 51
195.2317137751539
  0
ARC
  5
4E0
330
1F
100
AcDbEntity
  8
TEXT
100
AcDbCircle
 10
-268.8158917835351
 20
-46.45711311847784
 30
0.0
 40
0.1180912454887081
100
AcDbArc
 50
194.9511061487648
 51
259.6103135862126
  0
ARC
  5
4E1
330
1F
100
AcDbEntity
  8
TEXT
100
AcDbCircle
 10
-268.7970326819796
 20
-46.45230994041228
 30
0.0
 40
0.1274495304475066
100
AcDbArc
 50
251.634770640331
 51
316.4182924463649
  0
ARC
  5
4E2
330
1F
100
AcDbEntity
  8
TEXT
100
AcDbCircle
 10
-268.8130523276661
 20
-46.41203468622253
 30
0.0
 40
0.1678017612198071
100
AcDbArc
 50
310.2152586008202
 51
331.3072507285899
  0
ARC
  5
4E3
330
1F
100
AcDbEntity
  8
TEXT
100
AcDbCircle
 10
-268.7645821616477
 20
-46.43806137125862
 30
0.0
 40
0.1091448673447349
100
AcDbArc
 50
117.3722826858103
 51
160.0902491401804
  0
ARC
  5
4E4
330
1F
100
AcDbEntity
  8
TEXT
100
AcDbCircle
 10
-268.7504841129072
 20
-46.42774775391822
 30
0.0
 40
0.1197688266097961
100
AcDbArc
 50
167.043002891143
 51
212.130937130944
  0
ARC
  5
4E5
330
1F
100
AcDbEntity
  8
TEXT
100
AcDbCircle
 10
-268.7760691799436
 20
-46.4419212545924
 30
0.0
 40
0.0905784598489114
100
AcDbArc
 50
213.1462108998124
 51
285.6537258536394
  0
ARC
  5
4E6
330
1F
100
AcDbEntity
  8
TEXT
100
AcDbCircle
 10
-268.7752459558161
 20
-46.41956361010936
 30
0.0
 40
0.1120927222252192
100
AcDbArc
 50
282.1628426667851
 51
326.5593609179329
  0
ARC
  5
4E7
330
1F
100
AcDbEntity
  8
TEXT
100
AcDbCircle
 10
-268.6782911354287
 20
-46.49331283680026
 30
0.0
 40
0.0124561803706211
100
AcDbArc
 50
3.288025410275718
 51
105.9275278804378
  0
LINE
  5
4E8
330
1F
100
AcDbEntity
  8
TEXT
100
AcDbLine
 10
-269.2653253176818
 20
-46.04741055417454
 30
0.0
 11
-269.2612551750902
 21
-46.38092186847059
 31
0.0
  0
LINE
  5
4E9
330
1F
100
AcDbEntity
  8
TEXT
100
AcDbLine
 10
-269.2327641769498
 20
-46.08808267359588
 30
0.0
 11
-269.2307291056541
 21
-46.38092186847059
 31
0.0
  0
ARC
  5
4EA
330
1F
100
AcDbEntity
  8
TEXT
100
AcDbCircle
 10
-269.2459921403722
 20
-46.38148167659285
 30
0.0
 40
0.0152732974154362
100
AcDbArc
 50
177.899482485688
 51
2.100517514311877
  0
LINE
  5
4EB
330
1F
100
AcDbEntity
  8
TEXT
100
AcDbLine
 10
-269.1627953041509
 20
-46.10278922482462
 30
0.0
 11
-269.1627953041509
 21
-46.61260524984746
 31
0.0
  0
LINE
  5
4EC
330
1F
100
AcDbEntity
  8
TEXT
100
AcDbLine
 10
-269.0149580342878
 20
-46.10278922482462
 30
0.0
 11
-269.0149580342878
 21
-46.61260524984746
 31
0.0
  0
ARC
  5
4ED
330
1F
100
AcDbEntity
  8
TEXT
100
AcDbCircle
 10
-269.2179396373534
 20
-46.08879473845752
 30
0.0
 40
0.0148416309955998
100
AcDbArc
 50
38.20381851856326
 51
177.2500340797979
  0
LINE
  5
4EE
330
1F
100
AcDbEntity
  8
TEXT
100
AcDbLine
 10
-269.2062768510425
 20
-46.07961577195385
 30
0.0
 11
-269.1627953041509
 21
-46.10278922482462
 31
0.0
  0
LINE
  5
4EF
330
1F
100
AcDbEntity
  8
TEXT
100
AcDbLine
 10
-268.9714764873962
 20
-46.07961577195385
 30
0.0
 11
-269.0149580342878
 21
-46.10278922482462
 31
0.0
  0
LINE
  5
4F0
330
1F
100
AcDbEntity
  8
TEXT
100
AcDbLine
 10
-268.9449891614889
 20
-46.08808267359588
 30
0.0
 11
-268.9451568117949
 21
-46.11220692944406
 31
0.0
  0
LINE
  5
4F1
330
1F
100
AcDbEntity
  8
TEXT
100
AcDbLine
 10
-268.912428020757
 20
-46.04741055417454
 30
0.0
 11
-268.9132187899917
 21
-46.11220692944406
 31
0.0
  0
ARC
  5
4F2
330
1F
100
AcDbEntity
  8
TEXT
100
AcDbCircle
 10
-268.9598137010852
 20
-46.08879473845752
 30
0.0
 40
0.0148416309955998
100
AcDbArc
 50
2.749965920202088
 51
141.7961814814367
  0
ARC
  5
4F3
330
1F
100
AcDbEntity
  8
TEXT
100
AcDbCircle
 10
-268.9291878008933
 20
-46.12275714717783
 30
0.0
 40
0.019139394018822
100
AcDbArc
 50
146.5485285753436
 51
33.45147142465568
  0
ARC
  5
4F4
330
1F
100
AcDbEntity
  8
TEXT
100
AcDbCircle
 10
-267.424930265363
 20
-47.16468338202046
 30
0.0
 40
0.0095170105473448
100
AcDbArc
 50
349.2952029716972
 51
131.6626905469362
  0
ARC
  5
4F5
330
1F
100
AcDbEntity
  8
TEXT
100
AcDbCircle
 10
-267.545333829107
 20
-47.11880017298894
 30
0.0
 40
0.1382279414268217
100
AcDbArc
 50
296.3233923707218
 51
339.8348331475797
  0
ARC
  5
4F6
330
1F
100
AcDbEntity
  8
TEXT
100
AcDbCircle
 10
-267.5604824797415
 20
-47.07245529168496
 30
0.0
 40
0.1866149158157418
100
AcDbArc
 50
254.2847830849396
 51
294.1819270465994
  0
ARC
  5
4F7
330
1F
100
AcDbEntity
  8
TEXT
100
AcDbCircle
 10
-267.526902946033
 20
-47.09630674062932
 30
0.0
 40
0.1135862276716573
100
AcDbArc
 50
272.3792098458872
 51
327.3581874363222
  0
ARC
  5
4F8
330
1F
100
AcDbEntity
  8
TEXT
100
AcDbCircle
 10
-267.5387295331692
 20
-47.12082627547622
 30
0.0
 40
0.0904935239504756
100
AcDbArc
 50
230.8416488637728
 51
280.5326941523483
  0
ARC
  5
4F9
330
1F
100
AcDbEntity
  8
TEXT
100
AcDbCircle
 10
-267.5114203865087
 20
-47.09853516003978
 30
0.0
 40
0.1252243447630968
100
AcDbArc
 50
179.2959701761241
 51
227.5915484940839
  0
ARC
  5
4FA
330
1F
100
AcDbEntity
  8
TEXT
100
AcDbCircle
 10
-267.5642351911364
 20
-47.13233176251113
 30
0.0
 40
0.1285795811377622
100
AcDbArc
 50
194.1847393568173
 51
248.6586767321129
  0
ARC
  5
4FB
330
1F
100
AcDbEntity
  8
TEXT
100
AcDbCircle
 10
-267.5617943579733
 20
-47.12840034998769
 30
0.0
 40
0.1319485192661753
100
AcDbArc
 50
148.4692011102813
 51
195.5802361373362
  0
ARC
  5
4FC
330
1F
100
AcDbEntity
  8
TEXT
100
AcDbCircle
 10
-267.5626213766532
 20
-47.12446402220039
 30
0.0
 40
0.1292181297135794
100
AcDbArc
 50
108.54166133208
 51
149.7652339536166
  0
ARC
  5
4FD
330
1F
100
AcDbEntity
  8
TEXT
100
AcDbCircle
 10
-267.5611207416512
 20
-47.22821295766612
 30
0.0
 40
0.2079657856617219
100
AcDbArc
 50
82.99970676551479
 51
97.00029323448521
  0
ARC
  5
4FE
330
1F
100
AcDbEntity
  8
TEXT
100
AcDbCircle
 10
-267.554600219075
 20
-47.0728241876352
 30
0.0
 40
0.0543885643533876
100
AcDbArc
 50
358.1908821763629
 51
69.74957583402929
  0
ARC
  5
4FF
330
1F
100
AcDbEntity
  8
TEXT
100
AcDbCircle
 10
-267.570179713184
 20
-47.08752074770703
 30
0.0
 40
0.0677112257424498
100
AcDbArc
 50
103.9179608005984
 51
168.9486088950479
  0
LINE
  5
500
330
1F
100
AcDbEntity
  8
TEXT
100
AcDbLine
 10
-267.6366352778257
 20
-47.07454122461514
 30
0.0
 11
-267.500238764749
 21
-47.07454122461514
 31
0.0
  0
ARC
  5
501
330
1F
100
AcDbEntity
  8
TEXT
100
AcDbCircle
 10
-267.5526058601149
 20
-47.17325165871437
 30
0.0
 40
0.1787595523837168
100
AcDbArc
 50
78.15621523985544
 51
106.6122408520358
  0
ARC
  5
502
330
1F
100
AcDbEntity
  8
TEXT
100
AcDbCircle
 10
-267.5231218735159
 20
-47.09260318423871
 30
0.0
 40
0.0945802945625412
100
AcDbArc
 50
357.337623744369
 51
85.63084243886233
  0
LINE
  5
503
330
1F
100
AcDbEntity
  8
TEXT
100
AcDbLine
 10
-267.6366352778257
 20
-47.09699648728546
 30
0.0
 11
-267.4286436696386
 21
-47.09699648728546
 31
0.0
  0
ARC
  5
504
330
1F
100
AcDbEntity
  8
TEXT
100
AcDbCircle
 10
-269.1517558643347
 20
-46.64385238778081
 30
0.0
 40
0.0331398983173351
100
AcDbArc
 50
109.4580308571273
 51
191.0341765876997
  0
ARC
  5
505
330
1F
100
AcDbEntity
  8
TEXT
100
AcDbCircle
 10
-269.1941138418197
 20
-46.65204649467511
 30
0.0
 40
0.0100035300295991
100
AcDbArc
 50
155.9249042338174
 51
10.66497725508708
  0
ARC
  5
506
330
1F
100
AcDbEntity
  8
TEXT
100
AcDbCircle
 10
-269.221913233717
 20
-46.6598507547748
 30
0.0
 40
0.0221286157777855
100
AcDbArc
 50
32.48569494743501
 51
175.1979664789355
  0
ARC
  5
507
330
1F
100
AcDbEntity
  8
TEXT
100
AcDbCircle
 10
-269.2513737370695
 20
-46.66152726524977
 30
0.0
 40
0.0082070223616514
100
AcDbArc
 50
158.7719549350961
 51
25.46716058583969
  0
ARC
  5
508
330
1F
100
AcDbEntity
  8
TEXT
100
AcDbCircle
 10
-269.270574766933
 20
-46.65612585473071
 30
0.0
 40
0.0118036776942274
100
AcDbArc
 50
348.1206509806761
 51
136.2651890953771
  0
ARC
  5
509
330
1F
100
AcDbEntity
  8
TEXT
100
AcDbCircle
 10
-269.2719919176746
 20
-46.66234528964722
 30
0.0
 40
0.0160420204804056
100
AcDbArc
 50
116.3151684036786
 51
258.4674100382151
  0
ARC
  5
50A
330
1F
100
AcDbEntity
  8
TEXT
100
AcDbCircle
 10
-269.2665132766822
 20
-46.68630102461831
 30
0.0
 40
0.0119708699890584
100
AcDbArc
 50
356.7423630506752
 51
136.5172760690068
  0
ARC
  5
50B
330
1F
100
AcDbEntity
  8
TEXT
100
AcDbCircle
 10
-269.2503044439095
 20
-46.6932417723951
 30
0.0
 40
0.0075708934653655
100
AcDbArc
 50
124.2167745950174
 51
319.7988197133694
  0
ARC
  5
50C
330
1F
100
AcDbEntity
  8
TEXT
100
AcDbCircle
 10
-269.2199849795775
 20
-46.70693206969303
 30
0.0
 40
0.0260684316724221
100
AcDbArc
 50
160.2627782819655
 51
255.1333022011724
  0
ARC
  5
50D
330
1F
100
AcDbEntity
  8
TEXT
100
AcDbCircle
 10
-269.2201633060055
 20
-46.72956145192499
 30
0.0
 40
0.0069976873342193
100
AcDbArc
 50
201.5154657473993
 51
41.96660508022721
  0
ARC
  5
50E
330
1F
100
AcDbEntity
  8
TEXT
100
AcDbCircle
 10
-269.1957885959614
 20
-46.71220552739931
 30
0.0
 40
0.0229836788276261
100
AcDbArc
 50
121.2424246402128
 51
213.473239708375
  0
ARC
  5
50F
330
1F
100
AcDbEntity
  8
TEXT
100
AcDbCircle
 10
-269.2013214892087
 20
-46.70381424233211
 30
0.0
 40
0.0129451309621158
100
AcDbArc
 50
332.2921775479049
 51
119.5678571759904
  0
ARC
  5
510
330
1F
100
AcDbEntity
  8
TEXT
100
AcDbCircle
 10
-269.1988953546572
 20
-46.73110828356436
 30
0.0
 40
0.0231138652678936
100
AcDbArc
 50
312.9867785858861
 51
66.99118422926638
  0
ARC
  5
511
330
1F
100
AcDbEntity
  8
TEXT
100
AcDbCircle
 10
-269.0993555073344
 20
-46.91018303523577
 30
0.0
 40
0.1825298605922834
100
AcDbArc
 50
117.3222180892419
 51
179.3383492613259
  0
ARC
  5
512
330
1F
100
AcDbEntity
  8
TEXT
100
AcDbCircle
 10
-268.5102999839636
 20
-46.96999011169489
 30
0.0
 40
0.7740534065258914
100
AcDbArc
 50
175.4121316267021
 51
191.7939289657072
  0
ARC
  5
513
330
1F
100
AcDbEntity
  8
TEXT
100
AcDbCircle
 10
-269.2695247077443
 20
-47.16353453198315
 30
0.0
 40
0.0353661901713158
100
AcDbArc
 50
15.17145974978963
 51
87.54918714297627
  0
ARC
  5
514
330
1F
100
AcDbEntity
  8
TEXT
100
AcDbCircle
 10
-266.0765999788863
 20
-47.2620234155761
 30
0.0
 40
3.160628174278595
100
AcDbArc
 50
178.0464319449979
 51
181.7502526685599
  0
LINE
  5
515
330
1F
100
AcDbEntity
  8
TEXT
100
AcDbLine
 10
-269.2018967600645
 20
-47.20213125827632
 30
0.0
 11
-269.2031644059354
 21
-47.35477213896978
 31
0.0
  0
ARC
  5
516
330
1F
100
AcDbEntity
  8
TEXT
100
AcDbCircle
 10
-269.1966057259933
 20
-47.20099963936432
 30
0.0
 40
0.0054106933848193
100
AcDbArc
 50
333.6879001367244
 51
192.0722457553363
  0
LINE
  5
517
330
1F
100
AcDbEntity
  8
TEXT
100
AcDbLine
 10
-269.1917556191753
 20
-47.20339798603645
 30
0.0
 11
-269.1917556191753
 21
-47.22619911665176
 31
0.0
  0
ARC
  5
518
330
1F
100
AcDbEntity
  8
TEXT
100
AcDbCircle
 10
-269.184587824904
 20
-47.22454605467897
 30
0.0
 40
0.0073559424006224
100
AcDbArc
 50
192.9866902548913
 51
33.38063139741147
  0
ARC
  5
519
330
1F
100
AcDbEntity
  8
TEXT
100
AcDbCircle
 10
-269.1654047195599
 20
-47.22902877221797
 30
0.0
 40
0.0155826305602638
100
AcDbArc
 50
17.66955929970661
 51
146.8111142491889
  0
ARC
  5
51A
330
1F
100
AcDbEntity
  8
TEXT
100
AcDbCircle
 10
-269.1165856733889
 20
-47.20517247992932
 30
0.0
 40
0.0389857867394515
100
AcDbArc
 50
209.3802246625985
 51
263.8421008682747
  0
LINE
  5
51B
330
1F
100
AcDbEntity
  8
TEXT
100
AcDbLine
 10
-269.1207676329518
 20
-47.24393332076011
 30
0.0
 11
-269.1169647214179
 21
-47.29713596401786
 31
0.0
  0
ARC
  5
51C
330
1F
100
AcDbEntity
  8
TEXT
100
AcDbCircle
 10
-269.1009278753258
 20
-47.29937675171464
 30
0.0
 40
0.0161926391326401
100
AcDbArc
 50
172.045705651638
 51
14.81661014794028
  0
LINE
  5
51D
330
1F
100
AcDbEntity
  8
TEXT
100
AcDbLine
 10
-269.0852736528796
 20
-47.29523587237765
 30
0.0
 11
-269.0827383611376
 21
-47.27306810564242
 31
0.0
  0
ARC
  5
51E
330
1F
100
AcDbEntity
  8
TEXT
100
AcDbCircle
 10
-269.0769625905186
 20
-47.27239324500268
 30
0.0
 40
0.0058150634670569
100
AcDbArc
 50
318.6510821797595
 51
186.6644145786482
  0
LINE
  5
51F
330
1F
100
AcDbEntity
  8
TEXT
100
AcDbLine
 10
-269.0725972202484
 20
-47.27623492504279
 30
0.0
 11
-269.06942813165
 21
-47.30536969445881
 31
0.0
  0
ARC
  5
520
330
1F
100
AcDbEntity
  8
TEXT
100
AcDbCircle
 10
-269.0585779192844
 20
-47.30761331105086
 30
0.0
 40
0.0110797528757836
100
AcDbArc
 50
168.3169857564308
 51
15.04995211451782
  0
LINE
  5
521
330
1F
100
AcDbEntity
  8
TEXT
100
AcDbLine
 10
-269.0478782040008
 20
-47.30473633057875
 30
0.0
 11
-269.0478782040008
 21
-47.28066847220331
 31
0.0
  0
ARC
  5
522
330
1F
100
AcDbEntity
  8
TEXT
100
AcDbCircle
 10
-269.0334422633577
 20
-47.29319498531785
 30
0.0
 40
0.0191130822490872
100
AcDbArc
 50
65.19241843010743
 51
139.050810698879
  0
ARC
  5
523
330
1F
100
AcDbEntity
  8
TEXT
100
AcDbCircle
 10
-269.0211268515885
 20
-47.29439295405425
 30
0.0
 40
0.0190383821988919
100
AcDbArc
 50
7.606980527161249
 51
103.0413594591621
  0
LINE
  5
524
330
1F
100
AcDbEntity
  8
TEXT
100
AcDbLine
 10
-269.0022560182014
 20
-47.29187270723591
 30
0.0
 11
-268.9942367132931
 21
-47.40228154451156
 31
0.0
  0
LINE
  5
525
330
1F
100
AcDbEntity
  8
TEXT
100
AcDbLine
 10
-268.9594863224802
 20
-47.39871997659929
 30
0.0
 11
-268.9568132034582
 21
-47.31146137715243
 31
0.0
  0
ARC
  5
526
330
1F
100
AcDbEntity
  8
TEXT
100
AcDbCircle
 10
-268.9471659251936
 20
-47.30883239414955
 30
0.0
 40
0.0099990764344
100
AcDbArc
 50
5.351678383090833
 51
195.2435488026408
  0
LINE
  5
527
330
1F
100
AcDbEntity
  8
TEXT
100
AcDbLine
 10
-268.910479349041
 20
-47.32481728002299
 30
0.0
 11
-268.9086972696929
 21
-47.38002170639395
 31
0.0
  0
ARC
  5
528
330
1F
100
AcDbEntity
  8
TEXT
100
AcDbCircle
 10
-268.8600643112403
 20
-47.33728279864863
 30
0.0
 40
0.0093269579312538
100
AcDbArc
 50
354.5219056877808
 51
214.944854376383
  0
ARC
  5
529
330
1F
100
AcDbEntity
  8
TEXT
100
AcDbCircle
 10
-268.8342554942563
 20
-47.33881153493121
 30
0.0
 40
0.0165367822276326
100
AcDbArc
 50
177.7877751662291
 51
326.3805826419353
  0
ARC
  5
52A
330
1F
100
AcDbEntity
  8
TEXT
100
AcDbCircle
 10
-268.6633932332619
 20
-47.31908411987645
 30
0.0
 40
0.0090446670445143
100
AcDbArc
 50
144.5711585108377
 51
21.75301147886981
  0
LINE
  5
52B
330
1F
100
AcDbEntity
  8
TEXT
100
AcDbLine
 10
-268.6549926362792
 20
-47.31573210969143
 30
0.0
 11
-268.6543618124237
 21
-47.26782419730652
 31
0.0
  0
ARC
  5
52C
330
1F
100
AcDbEntity
  8
TEXT
100
AcDbCircle
 10
-268.6633726323905
 20
-47.27328800922788
 30
0.0
 40
0.0105379370460883
100
AcDbArc
 50
31.23099864076771
 51
160.1819529381847
  0
ARC
  5
52D
330
1F
100
AcDbEntity
  8
TEXT
100
AcDbCircle
 10
-268.6286945698166
 20
-47.28930033949914
 30
0.0
 40
0.0487032855846518
100
AcDbArc
 50
156.2885975497968
 51
210.2571046136429
  0
ARC
  5
52E
330
1F
100
AcDbEntity
  8
TEXT
100
AcDbCircle
 10
-268.4909012299296
 20
-47.3663057803301
 30
0.0
 40
0.0300701126135258
100
AcDbArc
 50
341.5477100758345
 51
84.99888070834158
  0
ARC
  5
52F
330
1F
100
AcDbEntity
  8
TEXT
100
AcDbCircle
 10
-268.4778093759829
 20
-47.40120170336996
 30
0.0
 40
0.0656913671942501
100
AcDbArc
 50
99.17143729878524
 51
127.795528329094
  0
ARC
  5
530
330
1F
100
AcDbEntity
  8
TEXT
100
AcDbCircle
 10
-268.6052578938676
 20
-47.34265398447349
 30
0.0
 40
0.0072833212418134
100
AcDbArc
 50
312.7998628402737
 51
120.0581864533375
  0
ARC
  5
531
330
1F
100
AcDbEntity
  8
TEXT
100
AcDbCircle
 10
-268.6045848214378
 20
-47.32034968986146
 30
0.0
 40
0.0165736773362276
100
AcDbArc
 50
129.1527393458024
 51
254.8870408388505
  0
ARC
  5
532
330
1F
100
AcDbEntity
  8
TEXT
100
AcDbCircle
 10
-268.6678462873437
 20
-47.2672633268107
 30
0.0
 40
0.0663799911478199
100
AcDbArc
 50
322.6907301981532
 51
8.220255073941821
  0
ARC
  5
533
330
1F
100
AcDbEntity
  8
TEXT
100
AcDbCircle
 10
-268.5961419390596
 20
-47.25198955709323
 30
0.0
 40
0.0083377203270588
100
AcDbArc
 50
89.05883162362071
 51
223.9137905963003
  0
ARC
  5
534
330
1F
100
AcDbEntity
  8
TEXT
100
AcDbCircle
 10
-268.7626725868459
 20
-47.05597802690965
 30
0.0
 40
0.2509979489351848
100
AcDbArc
 50
311.6071689301104
 51
318.3515702307968
  0
ARC
  5
535
330
1F
100
AcDbEntity
  8
TEXT
100
AcDbCircle
 10
-268.5971071038912
 20
-47.24733628864036
 30
0.0
 40
0.0637668312167232
100
AcDbArc
 50
337.3510782224609
 51
22.64892177753877
  0
ARC
  5
536
330
1F
100
AcDbEntity
  8
TEXT
100
AcDbCircle
 10
-268.4929874433947
 20
-47.28030797345692
 30
0.0
 40
0.0460460836471324
100
AcDbArc
 50
169.468486757318
 51
223.1418439421429
  0
ARC
  5
537
330
1F
100
AcDbEntity
  8
TEXT
100
AcDbCircle
 10
-268.5326761731155
 20
-47.2853528014751
 30
0.0
 40
0.0271341882191743
100
AcDbArc
 50
282.9712622283036
 51
25.35441378639511
  0
ARC
  5
538
330
1F
100
AcDbEntity
  8
TEXT
100
AcDbCircle
 10
-268.22375332466
 20
-47.22056505075024
 30
0.0
 40
0.2893295131371159
100
AcDbArc
 50
179.4662202071271
 51
190.5890997840366
  0
ARC
  5
539
330
1F
100
AcDbEntity
  8
TEXT
100
AcDbCircle
 10
-268.7251997302757
 20
-46.96558752700921
 30
0.0
 40
0.2921733560609443
100
AcDbArc
 50
317.9732863042373
 51
40.61894937560235
  0
ARC
  5
53A
330
1F
100
AcDbEntity
  8
TEXT
100
AcDbCircle
 10
-268.5313286283612
 20
-46.80984830773915
 30
0.0
 40
0.0443516632740007
100
AcDbArc
 50
51.01090143870957
 51
107.577946053111
  0
ARC
  5
53B
330
1F
100
AcDbEntity
  8
TEXT
100
AcDbCircle
 10
-268.6074271261778
 20
-46.7640389433405
 30
0.0
 40
0.0628033698317426
100
AcDbArc
 50
356.7791343814141
 51
50.82801334298984
  0
ARC
  5
53C
330
1F
100
AcDbEntity
  8
TEXT
100
AcDbCircle
 10
-268.5916547030324
 20
-46.8343688422206
 30
0.0
 40
0.1213938581589665
100
AcDbArc
 50
78.6467194011529
 51
92.88657863164818
  0
ARC
  5
53D
330
1F
100
AcDbEntity
  8
TEXT
100
AcDbCircle
 10
-268.6053521644125
 20
-46.69810147646598
 30
0.0
 40
0.0168329057250599
100
AcDbArc
 50
296.7794474250819
 51
150.4674482996608
  0
ARC
  5
53E
330
1F
100
AcDbEntity
  8
TEXT
100
AcDbCircle
 10
-268.632330805882
 20
-46.67405503669135
 30
0.0
 40
0.0200033413087927
100
AcDbArc
 50
174.1982733486935
 51
308.0634596483615
  0
ARC
  5
53F
330
1F
100
AcDbEntity
  8
TEXT
100
AcDbCircle
 10
-268.6893765871203
 20
-46.70463461403744
 30
0.0
 40
0.0494227766538583
100
AcDbArc
 50
41.27304036069129
 51
94.61991284103847
  0
ARC
  5
540
330
1F
100
AcDbEntity
  8
TEXT
100
AcDbCircle
 10
-268.7091652054442
 20
-46.66002124678025
 30
0.0
 40
0.0164772438173263
100
AcDbArc
 50
136.6395135700788
 51
16.38775991618309
  0
ARC
  5
541
330
1F
100
AcDbEntity
  8
TEXT
100
AcDbCircle
 10
-268.7345753780523
 20
-46.66342518068573
 30
0.0
 40
0.019923999934833
100
AcDbArc
 50
47.6170580186072
 51
152.6179806585999
  0
ARC
  5
542
330
1F
100
AcDbEntity
  8
TEXT
100
AcDbCircle
 10
-268.7755383564708
 20
-46.6649937253416
 30
0.0
 40
0.0256267055491746
100
AcDbArc
 50
24.75773987532823
 51
121.5483884163391
  0
ARC
  5
543
330
1F
100
AcDbEntity
  8
TEXT
100
AcDbCircle
 10
-268.8083980500191
 20
-46.65057965909492
 30
0.0
 40
0.0208202889485251
100
AcDbArc
 50
20.89289471578151
 51
159.1071052842185
  0
ARC
  5
544
330
1F
100
AcDbEntity
  8
TEXT
100
AcDbCircle
 10
-268.8382214973731
 20
-46.64026456760782
 30
0.0
 40
0.0107672478568685
100
AcDbArc
 50
183.5606974541693
 51
344.4298925613476
  0
ARC
  5
545
330
1F
100
AcDbEntity
  8
TEXT
100
AcDbCircle
 10
-268.871257009961
 20
-46.66436868874717
 30
0.0
 40
0.0323422366599906
100
AcDbArc
 50
46.43616582623978
 51
130.6283095026662
  0
ARC
  5
546
330
1F
100
AcDbEntity
  8
TEXT
100
AcDbCircle
 10
-268.9039874233614
 20
-46.64330717248291
 30
0.0
 40
0.0121798952203543
100
AcDbArc
 50
163.3756550464638
 51
16.62434495352904
  0
ARC
  5
547
330
1F
100
AcDbEntity
  8
TEXT
100
AcDbCircle
 10
-268.950020449265
 20
-46.73451314883471
 30
0.0
 40
0.1007326717255064
100
AcDbArc
 50
70.05468846035579
 51
100.2232656721042
  0
ARC
  5
548
330
1F
100
AcDbEntity
  8
TEXT
100
AcDbCircle
 10
-268.9762352056903
 20
-46.68913634748887
 30
0.0
 40
0.0543991327960405
100
AcDbArc
 50
81.18509483549694
 51
120.0392913824104
  0
ARC
  5
549
330
1F
100
AcDbEntity
  8
TEXT
100
AcDbCircle
 10
-269.0166994887429
 20
-46.63024702650916
 30
0.0
 40
0.0177275194936825
100
AcDbArc
 50
318.2823815987275
 51
84.36248438139953
  0
ARC
  5
54A
330
1F
100
AcDbEntity
  8
TEXT
100
AcDbCircle
 10
-269.0964592059922
 20
-46.70906080190261
 30
0.0
 40
0.0254942521042418
100
AcDbArc
 50
35.6067999534595
 51
177.5845513854531
  0
LINE
  5
54B
330
1F
100
AcDbEntity
  8
TEXT
100
AcDbLine
 10
-269.0757315716783
 20
-46.69421755205291
 30
0.0
 11
-269.0773525873968
 21
-46.71770549837045
 31
0.0
  0
LINE
  5
54C
330
1F
100
AcDbEntity
  8
TEXT
100
AcDbLine
 10
-269.1219308065269
 20
-46.70798634550349
 30
0.0
 11
-269.1227413143862
 21
-46.7687310315891
 31
0.0
  0
ARC
  5
54D
330
1F
100
AcDbEntity
  8
TEXT
100
AcDbCircle
 10
-269.0198691537461
 20
-46.81453879640169
 30
0.0
 40
0.1126100916963402
100
AcDbArc
 50
120.6947626763568
 51
155.9971516553453
  0
ARC
  5
54E
330
1F
100
AcDbEntity
  8
TEXT
100
AcDbCircle
 10
-269.0613009782231
 20
-46.78331336492996
 30
0.0
 40
0.0209517503337112
100
AcDbArc
 50
218.6904014524229
 51
353.6659411500754
  0
ARC
  5
54F
330
1F
100
AcDbEntity
  8
TEXT
100
AcDbCircle
 10
-269.0728762787579
 20
-46.81600841535236
 30
0.0
 40
0.020171963693018
100
AcDbArc
 50
103.7022990326946
 51
207.0193065629245
  0
ARC
  5
550
330
1F
100
AcDbEntity
  8
TEXT
100
AcDbCircle
 10
-268.773539077113
 20
-46.98311704361805
 30
0.0
 40
0.3544440067106097
100
AcDbArc
 50
153.5374647244104
 51
193.3327646348719
  0
ARC
  5
551
330
1F
100
AcDbEntity
  8
TEXT
100
AcDbCircle
 10
-269.1868010394403
 20
-47.11099276180727
 30
0.0
 40
0.0824827685733273
100
AcDbArc
 50
346.9852122362353
 51
34.01252680042674
  0
ARC
  5
552
330
1F
100
AcDbEntity
  8
TEXT
100
AcDbCircle
 10
-269.1178240373075
 20
-47.16559911469018
 30
0.0
 40
0.0377875286239628
100
AcDbArc
 50
345.4259909574675
 51
72.46181126870012
  0
ARC
  5
553
330
1F
100
AcDbEntity
  8
TEXT
100
AcDbCircle
 10
-269.0785060347212
 20
-47.24666732216872
 30
0.0
 40
0.0716123991500209
100
AcDbArc
 50
18.24878221232005
 51
92.19784172829085
  0
ARC
  5
554
330
1F
100
AcDbEntity
  8
TEXT
100
AcDbCircle
 10
-269.0018523790978
 20
-47.22807972881549
 30
0.0
 40
0.0094565292621038
100
AcDbArc
 50
156.0593073728625
 51
8.762281217120891
  0
ARC
  5
555
330
1F
100
AcDbEntity
  8
TEXT
100
AcDbCircle
 10
-268.9814503548402
 20
-47.23057398530192
 30
0.0
 40
0.0117351997935574
100
AcDbArc
 50
1.658272028068528
 51
160.4091839300757
  0
ARC
  5
556
330
1F
100
AcDbEntity
  8
TEXT
100
AcDbCircle
 10
-268.9373097075797
 20
-47.2077140953568
 30
0.0
 40
0.0394663806242486
100
AcDbArc
 50
214.7934494581958
 51
299.0409507876109
  0
ARC
  5
557
330
1F
100
AcDbEntity
  8
TEXT
100
AcDbCircle
 10
-268.8929296540345
 20
-47.21867369839556
 30
0.0
 40
0.0345034994608953
100
AcDbArc
 50
223.0305625061276
 51
311.2487591160725
  0
ARC
  5
558
330
1F
100
AcDbEntity
  8
TEXT
100
AcDbCircle
 10
-268.850613541374
 20
-47.23942552820434
 30
0.0
 40
0.0202434850951048
100
AcDbArc
 50
194.8546182240442
 51
330.4510994340798
  0
ARC
  5
559
330
1F
100
AcDbEntity
  8
TEXT
100
AcDbCircle
 10
-268.8186117556021
 20
-47.29775265488935
 30
0.0
 40
0.0504403035036899
100
AcDbArc
 50
33.67851647490054
 51
106.5775508010125
  0
ARC
  5
55A
330
1F
100
AcDbEntity
  8
TEXT
100
AcDbCircle
 10
-268.7622459789616
 20
-47.24019293278858
 30
0.0
 40
0.0329030971158398
100
AcDbArc
 50
244.0629515517945
 51
24.32612031264047
  0
ARC
  5
55B
330
1F
100
AcDbEntity
  8
TEXT
100
AcDbCircle
 10
-268.6859875202983
 20
-47.05708446153381
 30
0.0
 40
0.0856504748170368
100
AcDbArc
 50
300.6537348898141
 51
16.68245916376099
  0
ARC
  5
55C
330
1F
100
AcDbEntity
  8
TEXT
100
AcDbCircle
 10
-268.851903247086
 20
-46.96555220532014
 30
0.0
 40
0.2568391883961405
100
AcDbArc
 50
344.8914411173229
 51
24.5772337482194
  0
ARC
  5
55D
330
1F
100
AcDbEntity
  8
TEXT
100
AcDbCircle
 10
-268.567211781438
 20
-46.83289801992333
 30
0.0
 40
0.0572764194780507
100
AcDbArc
 50
155.9906329013512
 51
206.8057304576932
  0
ARC
  5
55E
330
1F
100
AcDbEntity
  8
TEXT
100
AcDbCircle
 10
-268.6280308757864
 20
-46.81006724191285
 30
0.0
 40
0.0085115103283491
100
AcDbArc
 50
3.193725348484615
 51
193.0548754998607
  0
ARC
  5
55F
330
1F
100
AcDbEntity
  8
TEXT
100
AcDbCircle
 10
-268.6477154862878
 20
-46.82485772102688
 30
0.0
 40
0.0171867493656786
100
AcDbArc
 50
131.5213803610223
 51
48.47861963898633
  0
ARC
  5
560
330
1F
100
AcDbEntity
  8
TEXT
100
AcDbCircle
 10
-268.704675094696
 20
-46.78764300751279
 30
0.0
 40
0.0516631101119713
100
AcDbArc
 50
331.8837666959819
 51
33.32508059324407
  0
ARC
  5
561
330
1F
100
AcDbEntity
  8
TEXT
100
AcDbCircle
 10
-268.6730014063983
 20
-46.76243991095996
 30
0.0
 40
0.0119260847182272
100
AcDbArc
 50
15.46471151433542
 51
237.0036058083551
  0
ARC
  5
562
330
1F
100
AcDbEntity
  8
TEXT
100
AcDbCircle
 10
-268.69572168538
 20
-46.77997800432204
 30
0.0
 40
0.0178900098840057
100
AcDbArc
 50
124.5991194751616
 51
24.91162951380475
  0
ARC
  5
563
330
1F
100
AcDbEntity
  8
TEXT
100
AcDbCircle
 10
-268.7468870011882
 20
-46.74654911428302
 30
0.0
 40
0.0450705442028974
100
AcDbArc
 50
335.4827230531622
 51
36.54383594003182
  0
ARC
  5
564
330
1F
100
AcDbEntity
  8
TEXT
100
AcDbCircle
 10
-268.804031661954
 20
-46.88691168327133
 30
0.0
 40
0.1914957959123389
100
AcDbArc
 50
60.82353397560649
 51
101.6183182656855
  0
LINE
  5
565
330
1F
100
AcDbEntity
  8
TEXT
100
AcDbLine
 10
-268.8425972099488
 20
-46.69933946155405
 30
0.0
 11
-268.8437964767983
 21
-46.74487899113222
 31
0.0
  0
ARC
  5
566
330
1F
100
AcDbEntity
  8
TEXT
100
AcDbCircle
 10
-268.8614611855202
 20
-46.74574413832488
 30
0.0
 40
0.0176858817674158
100
AcDbArc
 50
165.3922446503673
 51
2.803879044206354
  0
LINE
  5
567
330
1F
100
AcDbEntity
  8
TEXT
100
AcDbLine
 10
-268.8785753719097
 20
-46.74128375290258
 30
0.0
 11
-268.8809739056087
 21
-46.70652992254688
 31
0.0
  0
ARC
  5
568
330
1F
100
AcDbEntity
  8
TEXT
100
AcDbCircle
 10
-268.8965000655805
 20
-46.71430803438206
 30
0.0
 40
0.0173655022151764
100
AcDbArc
 50
26.60941129939627
 51
166.0619000058112
  0
LINE
  5
569
330
1F
100
AcDbEntity
  8
TEXT
100
AcDbLine
 10
-268.9133542670209
 20
-46.71012514531017
 30
0.0
 11
-268.9133542670209
 21
-46.72570444910635
 31
0.0
  0
ARC
  5
56A
330
1F
100
AcDbEntity
  8
TEXT
100
AcDbCircle
 10
-268.9271015126934
 20
-46.73434370501625
 30
0.0
 40
0.0162364868814825
100
AcDbArc
 50
179.1163546128549
 51
32.14670843865761
  0
LINE
  5
56B
330
1F
100
AcDbEntity
  8
TEXT
100
AcDbLine
 10
-268.943336068655
 20
-46.73409330737609
 30
0.0
 11
-268.943336068655
 21
-46.79161691798721
 31
0.0
  0
ARC
  5
56C
330
1F
100
AcDbEntity
  8
TEXT
100
AcDbCircle
 10
-268.9649319058832
 20
-46.79189394592007
 30
0.0
 40
0.0215976139899841
100
AcDbArc
 50
182.4450201076249
 51
0.7349407504797644
  0
LINE
  5
56D
330
1F
100
AcDbEntity
  8
TEXT
100
AcDbLine
 10
-268.9865098577923
 20
-46.79281531526404
 30
0.0
 11
-268.9769156969167
 21
-46.72091081359992
 31
0.0
  0
ARC
  5
56E
330
1F
100
AcDbEntity
  8
TEXT
100
AcDbCircle
 10
-268.9880977790285
 20
-46.72250676832907
 30
0.0
 40
0.0112953987026185
100
AcDbArc
 50
8.122642540875142
 51
202.9043136183469
  0
LINE
  5
56F
330
1F
100
AcDbEntity
  8
TEXT
100
AcDbLine
 10
-268.9985026045249
 20
-46.72690286184957
 30
0.0
 11
-269.0032996719232
 21
-46.76405351769167
 31
0.0
  0
ARC
  5
570
330
1F
100
AcDbEntity
  8
TEXT
100
AcDbCircle
 10
-269.0170913058906
 20
-46.76332478226647
 30
0.0
 40
0.0138108733544406
100
AcDbArc
 50
183.0246359049376
 51
356.9753640950624
  0
LINE
  5
571
330
1F
100
AcDbEntity
  8
TEXT
100
AcDbLine
 10
-269.0308829398581
 20
-46.76405351769167
 30
0.0
 11
-269.0404771268127
 21
-46.78562486973754
 31
0.0
  0
LINE
  5
572
330
1F
100
AcDbEntity
  8
TEXT
100
AcDbLine
 10
-268.3920210807241
 20
-47.00958121487084
 30
0.0
 11
-268.2907581654063
 21
-47.00562848664767
 31
0.0
  0
LINE
  5
573
330
1F
100
AcDbEntity
  8
TEXT
100
AcDbLine
 10
-268.2140198738014
 20
-47.00958121487084
 30
0.0
 11
-268.1127569584835
 21
-47.00562848664767
 31
0.0
  0
LINE
  5
574
330
1F
100
AcDbEntity
  8
TEXT
100
AcDbLine
 10
-268.3508830409355
 20
-47.04120308705507
 30
0.0
 11
-268.3493008046237
 21
-47.1945691555488
 31
0.0
  0
LINE
  5
575
330
1F
100
AcDbEntity
  8
TEXT
100
AcDbLine
 10
-268.2907581654063
 20
-47.00562848664767
 30
0.0
 11
-268.2891759290945
 21
-47.1795487759278
 31
0.0
  0
LINE
  5
576
330
1F
100
AcDbEntity
  8
TEXT
100
AcDbLine
 10
-268.1127569584835
 20
-47.00562848664767
 30
0.0
 11
-268.1111747221718
 21
-47.1850826016267
 31
0.0
  0
ARC
  5
577
330
1F
100
AcDbEntity
  8
TEXT
100
AcDbCircle
 10
-268.3693887058308
 20
-47.04077749918087
 30
0.0
 40
0.0185105580212536
100
AcDbArc
 50
358.6825606331185
 51
106.4049357729541
  0
LINE
  5
578
330
1F
100
AcDbEntity
  8
TEXT
100
AcDbLine
 10
-268.3920210807241
 20
-47.00958121487084
 30
0.0
 11
-268.3912299756078
 21
-47.0206488817351
 31
0.0
  0
LINE
  5
579
330
1F
100
AcDbEntity
  8
TEXT
100
AcDbLine
 10
-268.3746165334532
 20
-47.02302051248245
 30
0.0
 11
-268.3912299756078
 21
-47.0206488817351
 31
0.0
  0
LINE
  5
57A
330
1F
100
AcDbEntity
  8
TEXT
100
AcDbLine
 10
-268.2140198738014
 20
-47.00958121487084
 30
0.0
 11
-268.2148109789178
 21
-47.02460160995824
 31
0.0
  0
LINE
  5
57B
330
1F
100
AcDbEntity
  8
TEXT
100
AcDbLine
 10
-268.2148109789178
 20
-47.02460160995824
 30
0.0
 11
-268.186330777465
 21
-47.02618270743402
 31
0.0
  0
LINE
  5
57C
330
1F
100
AcDbEntity
  8
TEXT
100
AcDbLine
 10
-268.1689262301941
 20
-47.192988058073
 30
0.0
 11
-268.1697173353104
 21
-47.04199363579297
 31
0.0
  0
ARC
  5
57D
330
1F
100
AcDbEntity
  8
TEXT
100
AcDbCircle
 10
-268.1810233542487
 20
-47.03723970455244
 30
0.0
 40
0.0122648247632313
100
AcDbArc
 50
337.1943218370273
 51
115.6412778855146
  0
ARC
  5
57E
330
1F
100
AcDbEntity
  8
TEXT
100
AcDbCircle
 10
-268.2884183403356
 20
-47.1937629117431
 30
0.0
 40
0.0608878024473341
100
AcDbArc
 50
180.7587023263156
 51
270.031539090741
  0
ARC
  5
57F
330
1F
100
AcDbEntity
  8
TEXT
100
AcDbCircle
 10
-268.2643564030292
 20
-47.11698078097438
 30
0.0
 40
0.139751110854478
100
AcDbArc
 50
260.0995263030862
 51
313.0673878832468
  0
LINE
  5
580
330
1F
100
AcDbEntity
  8
TEXT
100
AcDbLine
 10
-268.1689262301941
 20
-47.21907610455832
 30
0.0
 11
-268.1681350989986
 21
-47.24911687926673
 31
0.0
  0
ARC
  5
581
330
1F
100
AcDbEntity
  8
TEXT
100
AcDbCircle
 10
-268.1587802571002
 20
-47.24539402153246
 30
0.0
 40
0.0100684028850535
100
AcDbArc
 50
201.7006027724381
 51
343.0678677067625
  0
ARC
  5
582
330
1F
100
AcDbEntity
  8
TEXT
100
AcDbCircle
 10
-268.0715239830687
 20
-47.42974162080963
 30
0.0
 40
0.1973247184719365
100
AcDbArc
 50
88.18956599987521
 51
113.1652090520224
  0
LINE
  5
583
330
1F
100
AcDbEntity
  8
TEXT
100
AcDbLine
 10
-268.0148367915291
 20
-46.91809412157895
 30
0.0
 11
-268.0089613332403
 21
-47.22255893311101
 31
0.0
  0
LINE
  5
584
330
1F
100
AcDbEntity
  8
TEXT
100
AcDbLine
 10
-267.9510555564739
 20
-46.87698633501216
 30
0.0
 11
-267.9493674252459
 21
-47.0288085900635
 31
0.0
  0
ARC
  5
585
330
1F
100
AcDbEntity
  8
TEXT
100
AcDbCircle
 10
-268.0752308105537
 20
-46.51789919325534
 30
0.0
 40
0.3799514036042447
100
AcDbArc
 50
273.5403564160214
 51
289.075801678542
  0
LINE
  5
586
330
1F
100
AcDbEntity
  8
TEXT
100
AcDbLine
 10
-268.051768217552
 20
-46.89712547904057
 30
0.0
 11
-268.0500895151839
 21
-46.91557788014375
 31
0.0
  0
LINE
  5
587
330
1F
100
AcDbEntity
  8
TEXT
100
AcDbLine
 10
-268.0500895151839
 20
-46.91557788014375
 30
0.0
 11
-268.0148367915291
 21
-46.91809412157895
 31
0.0
  0
LINE
  5
588
330
1F
100
AcDbEntity
  8
TEXT
100
AcDbLine
 10
-267.9485281001406
 20
-47.0598421983426
 30
0.0
 11
-267.9476887489566
 21
-47.20410651654142
 31
0.0
  0
ARC
  5
589
330
1F
100
AcDbEntity
  8
TEXT
100
AcDbCircle
 10
-267.8505488428178
 20
-47.15941112477714
 30
0.0
 40
0.1637746448834882
100
AcDbArc
 50
71.07988584761956
 51
127.1124618564865
  0
ARC
  5
58A
330
1F
100
AcDbEntity
  8
TEXT
100
AcDbCircle
 10
-267.8504283923889
 20
-47.10571369892575
 30
0.0
 40
0.1142562801072371
100
AcDbArc
 50
359.8698564192901
 51
62.37231490188333
  0
ARC
  5
58B
330
1F
100
AcDbEntity
  8
TEXT
100
AcDbCircle
 10
-267.8966979888955
 20
-47.09380151532613
 30
0.0
 40
0.0619644708011938
100
AcDbArc
 50
78.87075864991587
 51
146.7670066549792
  0
ARC
  5
58C
330
1F
100
AcDbEntity
  8
TEXT
100
AcDbCircle
 10
-267.8779674548481
 20
-47.10483588694565
 30
0.0
 40
0.0721518704931053
100
AcDbArc
 50
21.583258503173
 51
95.38396011116695
  0
ARC
  5
58D
330
1F
100
AcDbEntity
  8
TEXT
100
AcDbCircle
 10
-267.88362341911
 20
-47.12949615238209
 30
0.0
 40
0.088960611637759
100
AcDbArc
 50
343.5952529167622
 51
35.13836089167873
  0
ARC
  5
58E
330
1F
100
AcDbEntity
  8
TEXT
100
AcDbCircle
 10
-267.912357658359
 20
-47.10026568487482
 30
0.0
 40
0.1558457845586532
100
AcDbArc
 50
231.6935697703407
 51
269.6626044169122
  0
ARC
  5
58F
330
1F
100
AcDbEntity
  8
TEXT
100
AcDbCircle
 10
-267.8962011725845
 20
-47.07321838010978
 30
0.0
 40
0.1836856613538935
100
AcDbArc
 50
264.6664639047648
 51
308.6423664458132
  0
ARC
  5
590
330
1F
100
AcDbEntity
  8
TEXT
100
AcDbCircle
 10
-267.8747488674727
 20
-47.11387694580153
 30
0.0
 40
0.138801672189514
100
AcDbArc
 50
312.2086974257856
 51
3.264333629957683
  0
ARC
  5
591
330
1F
100
AcDbEntity
  8
TEXT
100
AcDbCircle
 10
-269.2451666182182
 20
-46.04402155935415
 30
0.0
 40
0.0204415862877363
100
AcDbArc
 50
32.93635467158853
 51
189.5430854165193
  0
ARC
  5
592
330
1F
100
AcDbEntity
  8
TEXT
100
AcDbCircle
 10
-269.2128932775692
 20
-46.03239753418253
 30
0.0
 40
0.0151258206016299
100
AcDbArc
 50
181.9314217622489
 51
21.08009584438978
  0
ARC
  5
593
330
1F
100
AcDbEntity
  8
TEXT
100
AcDbCircle
 10
-269.1875175755573
 20
-46.0292455089776
 30
0.0
 40
0.0114922508353156
100
AcDbArc
 50
3.320051391017492
 51
168.5145862198264
  0
ARC
  5
594
330
1F
100
AcDbEntity
  8
TEXT
100
AcDbCircle
 10
-269.1630837349428
 20
-46.03558469497086
 30
0.0
 40
0.0147326429050978
100
AcDbArc
 50
151.610876507043
 51
6.217261201770662
  0
ARC
  5
595
330
1F
100
AcDbEntity
  8
TEXT
100
AcDbCircle
 10
-269.1367569178776
 20
-46.03336598748787
 30
0.0
 40
0.0116974376118937
100
AcDbArc
 50
7.567610287756396
 51
183.0538693842452
  0
ARC
  5
596
330
1F
100
AcDbEntity
  8
TEXT
100
AcDbCircle
 10
-269.1158334290387
 20
-46.02677023892156
 30
0.0
 40
0.0106097046542174
100
AcDbArc
 50
208.4553291170978
 51
16.75507449313781
  0
ARC
  5
597
330
1F
100
AcDbEntity
  8
TEXT
100
AcDbCircle
 10
-269.0997221416946
 20
-46.03422704270735
 30
0.0
 40
0.0120830312488348
100
AcDbArc
 50
340.2175703033624
 51
119.5111127021391
  0
ARC
  5
598
330
1F
100
AcDbEntity
  8
TEXT
100
AcDbCircle
 10
-269.0709562403174
 20
-46.03838068386036
 30
0.0
 40
0.0173960732958633
100
AcDbArc
 50
179.7887253899368
 51
338.3185482084497
  0
ARC
  5
599
330
1F
100
AcDbEntity
  8
TEXT
100
AcDbCircle
 10
-269.0310603350679
 20
-46.0563361662701
 30
0.0
 40
0.026382716840622
100
AcDbArc
 50
51.76909225770009
 51
154.0890012254441
  0
ARC
  5
59A
330
1F
100
AcDbEntity
  8
TEXT
100
AcDbCircle
 10
-268.9975489150614
 20
-46.03203220500939
 30
0.0
 40
0.0175538244621736
100
AcDbArc
 50
191.7667831442123
 51
294.1224948725133
  0
ARC
  5
59B
330
1F
100
AcDbEntity
  8
TEXT
100
AcDbCircle
 10
-268.9769936994924
 20
-46.04372476842528
 30
0.0
 40
0.0140637895856828
100
AcDbArc
 50
13.338412263816
 51
197.9246330182941
  0
ARC
  5
59C
330
1F
100
AcDbEntity
  8
TEXT
100
AcDbCircle
 10
-268.9484028046265
 20
-46.03967954581847
 30
0.0
 40
0.0149279721050864
100
AcDbArc
 50
183.0745908828774
 51
5.23872674582437
  0
ARC
  5
59D
330
1F
100
AcDbEntity
  8
TEXT
100
AcDbCircle
 10
-268.9201757810023
 20
-46.03634830564581
 30
0.0
 40
0.0135055962967152
100
AcDbArc
 50
305.0065695458966
 51
188.3798152009864
  0
ARC
  5
59E
330
1F
100
AcDbEntity
  8
TEXT
100
AcDbCircle
 10
-269.2210087120427
 20
-47.3433258312212
 30
0.0
 40
0.0211999344698838
100
AcDbArc
 50
225.9317407159997
 51
327.3216812937231
  0
ARC
  5
59F
330
1F
100
AcDbEntity
  8
TEXT
100
AcDbCircle
 10
-268.976278308499
 20
-47.40619116282938
 30
0.0
 40
0.0183790483469612
100
AcDbArc
 50
167.7181143692779
 51
23.98551077365442
  0
ARC
  5
5A0
330
1F
100
AcDbEntity
  8
TEXT
100
AcDbCircle
 10
-268.8867069957906
 20
-47.38361200198355
 30
0.0
 40
0.0222814355173959
100
AcDbArc
 50
170.727279478598
 51
21.1579410394864
  0
LINE
  5
5A1
330
1F
100
AcDbEntity
  8
TEXT
100
AcDbLine
 10
-268.8659275739718
 20
-47.3755697387705
 30
0.0
 11
-268.8677096533198
 21
-47.34262516598341
 31
0.0
  0
LINE
  5
5A2
330
1F
100
AcDbEntity
  8
TEXT
100
AcDbLine
 10
-268.8204847592286
 20
-47.34796751785181
 30
0.0
 11
-268.8115743885674
 21
-47.39426800897581
 31
0.0
  0
ARC
  5
5A3
330
1F
100
AcDbEntity
  8
TEXT
100
AcDbCircle
 10
-268.8006252523639
 20
-47.3964603901141
 30
0.0
 40
0.0111664729730421
100
AcDbArc
 50
168.6772178130472
 51
20.84321825743721
  0
LINE
  5
5A4
330
1F
100
AcDbEntity
  8
TEXT
100
AcDbLine
 10
-268.7901895407068
 20
-47.39248722501967
 30
0.0
 11
-268.7901895407068
 21
-47.3613234361887
 31
0.0
  0
ARC
  5
5A5
330
1F
100
AcDbEntity
  8
TEXT
100
AcDbCircle
 10
-268.7759394398158
 20
-47.36272807712224
 30
0.0
 40
0.0143191616917265
100
AcDbArc
 50
354.9255052590734
 51
174.3705062402905
  0
LINE
  5
5A6
330
1F
100
AcDbEntity
  8
TEXT
100
AcDbLine
 10
-268.761676401533
 20
-47.36399461985611
 30
0.0
 11
-268.7581122689159
 21
-47.45125321930299
 31
0.0
  0
ARC
  5
5A7
330
1F
100
AcDbEntity
  8
TEXT
100
AcDbCircle
 10
-268.7403283294201
 20
-47.44942693105328
 30
0.0
 40
0.0178774671797511
100
AcDbArc
 50
185.8633287467241
 51
2.708827809510318
  0
LINE
  5
5A8
330
1F
100
AcDbEntity
  8
TEXT
100
AcDbLine
 10
-268.722470838429
 20
-47.44858203563556
 30
0.0
 11
-268.7295991036632
 21
-47.37646012301535
 31
0.0
  0
LINE
  5
5A9
330
1F
100
AcDbEntity
  8
TEXT
100
AcDbLine
 10
-268.7295991036632
 20
-47.37646012301535
 30
0.0
 11
-268.721579798755
 21
-47.39515839322067
 31
0.0
  0
ARC
  5
5AA
330
1F
100
AcDbEntity
  8
TEXT
100
AcDbCircle
 10
-268.7098539589041
 20
-47.38873686929331
 30
0.0
 40
0.0133690422155094
100
AcDbArc
 50
208.7068196476627
 51
351.5282258973491
  0
LINE
  5
5AB
330
1F
100
AcDbEntity
  8
TEXT
100
AcDbLine
 10
-268.6966307921983
 20
-47.39070642559715
 30
0.0
 11
-268.6975218318723
 21
-47.37735052272665
 31
0.0
  0
ARC
  5
5AC
330
1F
100
AcDbEntity
  8
TEXT
100
AcDbCircle
 10
-268.6795310678391
 20
-47.38245359709245
 30
0.0
 40
0.0187005069045984
100
AcDbArc
 50
7.472141028409512
 51
164.1640293291659
  0
LINE
  5
5AD
330
1F
100
AcDbEntity
  8
TEXT
100
AcDbLine
 10
-268.6609893617115
 20
-47.38002170639395
 30
0.0
 11
-268.6520790171292
 21
-47.45392438750394
 31
0.0
  0
ARC
  5
5AE
330
1F
100
AcDbEntity
  8
TEXT
100
AcDbCircle
 10
-268.6346928737181
 20
-47.45837492534279
 30
0.0
 40
0.0179467342367279
100
AcDbArc
 50
165.6416373020935
 51
23.37981978602107
  0
LINE
  5
5AF
330
1F
100
AcDbEntity
  8
TEXT
100
AcDbLine
 10
-268.6182196659903
 20
-47.45125321930299
 30
0.0
 11
-268.6209282523919
 21
-47.38507251692911
 31
0.0
  0
ARC
  5
5B0
330
1F
100
AcDbEntity
  8
TEXT
100
AcDbCircle
 10
-268.6158379849975
 20
-47.37958140259435
 30
0.0
 40
0.0074875335580206
100
AcDbArc
 50
60.02231951668158
 51
227.1694577924203
  0
LINE
  5
5B1
330
1F
100
AcDbEntity
  8
TEXT
100
AcDbLine
 10
-268.6120967444922
 20
-47.37309555043264
 30
0.0
 11
-268.5815298093327
 21
-47.37776472794927
 31
0.0
  0
ARC
  5
5B2
330
1F
100
AcDbEntity
  8
TEXT
100
AcDbCircle
 10
-268.5838512888546
 20
-47.39111935123825
 30
0.0
 40
0.0135548969144405
100
AcDbArc
 50
327.1504341221703
 51
80.13862259361692
  0
LINE
  5
5B3
330
1F
100
AcDbEntity
  8
TEXT
100
AcDbLine
 10
-268.5724638516227
 20
-47.398472004069
 30
0.0
 11
-268.5679308597282
 21
-47.52724547072014
 31
0.0
  0
LINE
  5
5B4
330
1F
100
AcDbEntity
  8
TEXT
100
AcDbLine
 10
-268.5297242770952
 20
-47.52465704767209
 30
0.0
 11
-268.5290767105501
 21
-47.39394228693448
 31
0.0
  0
ARC
  5
5B5
330
1F
100
AcDbEntity
  8
TEXT
100
AcDbCircle
 10
-268.5188843613766
 20
-47.3930359777236
 30
0.0
 40
0.0102325645886126
100
AcDbArc
 50
32.94435831946172
 51
185.0814072168598
  0
ARC
  5
5B6
330
1F
100
AcDbEntity
  8
TEXT
100
AcDbCircle
 10
-268.4896088488306
 20
-47.36818731774705
 30
0.0
 40
0.0282821218467122
100
AcDbArc
 50
222.9877626572325
 51
344.335885161557
  0
ARC
  5
5B7
330
1F
100
AcDbEntity
  8
TEXT
100
AcDbCircle
 10
-268.5289179739378
 20
-47.34377289429303
 30
0.0
 40
0.0121730875667031
100
AcDbArc
 50
193.9319034609808
 51
333.0378283509296
  0
ARC
  5
5B8
330
1F
100
AcDbEntity
  8
TEXT
100
AcDbCircle
 10
-268.5512016022181
 20
-47.35869406207995
 30
0.0
 40
0.0159172569840616
100
AcDbArc
 50
48.8759637679361
 51
143.7953529790059
  0
ARC
  5
5B9
330
1F
100
AcDbEntity
  8
TEXT
100
AcDbCircle
 10
-268.5816285974709
 20
-47.33326828916333
 30
0.0
 40
0.0237893523154895
100
AcDbArc
 50
218.2556843178656
 51
317.6564247238852
  0
ARC
  5
5BA
330
1F
100
AcDbEntity
  8
TEXT
100
AcDbCircle
 10
-268.5486765214319
 20
-47.52818079772469
 30
0.0
 40
0.0192770428186735
100
AcDbArc
 50
177.2189023070875
 51
10.53261226457933
  0
LWPOLYLINE
  5
5BB
330
1F
100
AcDbEntity
  8
BORDER
100
AcDbPolyline
 90
        4
 70
     1
 43
0.0
 10
-309.2394534068366
 20
12.38131299184189
 10
-261.7411751213891
 20
12.38131299184189
 10
-261.7411751213891
 20
-50.1186870081581
 10
-309.2394534068366
 20
-50.1186870081581
  0
TEXT
  5
5BC
330
1F
100
AcDbEntity
  8
TEXT
100
AcDbText
 10
-278.3044056222217
 20
-49.88431200815811
 30
0.0
 40
0.15625
  1
ICE QUBE, INC.
 72
     1
 11
-277.3799264555551
 21
-49.80618700815811
 31
0.0
100
AcDbText
 73
     2
  0
TEXT
  5
5BD
330
1F
100
AcDbEntity
  8
TEXT
100
AcDbText
 10
-280.036176455555
 20
-49.64993700815811
 30
0.0
 40
0.15625
  1
OR ALTERED WITHOUT AUTHORIZATION OF
 72
     1
 11
-277.3799264555551
 21
-49.57181200815811
 31
0.0
100
AcDbText
 73
     2
  0
TEXT
  5
5BE
330
1F
100
AcDbEntity
  8
TEXT
100
AcDbText
 10
-280.153363955555
 20
-49.41556200815811
 30
0.0
 40
0.15625
  1
QUBE, INC. AND IS NOT TO BE DUPLICATED
 72
     1
 11
-277.3799264555551
 21
-49.33743700815811
 31
0.0
100
AcDbText
 73
     2
  0
TEXT
  5
5BF
330
1F
100
AcDbEntity
  8
TEXT
100
AcDbText
 10
-280.0101347888884
 20
-49.18118700815811
 30
0.0
 40
0.15625
  1
THIS DRAWING IS THE PROPERTY OF ICE
 72
     1
 11
-277.3799264555551
 21
-49.10306200815811
 31
0.0
100
AcDbText
 73
     2
  0
TEXT
  5
5C0
330
1F
100
AcDbEntity
  8
TEXT
100
AcDbText
 10
-280.2445097888884
 20
-48.86868700815811
 30
0.0
 40
0.3125
  1
PROPRIETARY DRAWING
 72
     1
 11
-277.3799264555551
 21
-48.71243700815811
 31
0.0
100
AcDbText
 73
     2
  0
LINE
  5
5C1
330
1F
100
AcDbEntity
  8
BORDER
100
AcDbLine
 10
-274.2064299356187
 20
-50.1186870081581
 30
0.0
 11
-280.5534229754915
 21
-50.1186870081581
 31
0.0
  0
LINE
  5
5C2
330
1F
100
AcDbEntity
  8
BORDER
100
AcDbLine
 10
-274.2064299356187
 20
-48.18754980980443
 30
0.0
 11
-280.4940552385241
 21
-48.18754980980443
 31
0.0
  0
LINE
  5
5C3
330
1F
100
AcDbEntity
  8
BORDER
100
AcDbLine
 10
-280.4940552385241
 20
-48.18754980980443
 30
0.0
 11
-280.4940552385241
 21
-50.11868700815811
 31
0.0
  0
LINE
  5
5C4
330
1F
100
AcDbEntity
  8
BORDER
100
AcDbLine
 10
-274.2064299356187
 20
-50.1186870081581
 30
0.0
 11
-274.2064299356187
 21
-48.18754980980443
 31
0.0
  0
TEXT
  5
605
330
1F
100
AcDbEntity
  8
TEXT
100
AcDbText
 10
-308.7342450735034
 20
-48.49368700815809
 30
0.0
 40
0.25
  1
1
 72
     1
 11
-308.6925784068367
 21
-48.36868700815809
 31
0.0
100
AcDbText
 73
     2
  0
TEXT
  5
606
330
1F
100
AcDbEntity
  8
TEXT
100
AcDbText
 10
-306.56341174017
 20
-48.49368700815809
 30
0.0
 40
0.25
  1
4.385 WAS 1.106, 8.760 WAS 9.169 
 72
     1
 11
-302.9175784068367
 21
-48.36868700815809
 31
0.0
100
AcDbText
 73
     2
  0
TEXT
  5
607
330
1F
100
AcDbEntity
  8
TEXT
100
AcDbText
 10
-297.2144534068366
 20
-48.49368700815809
 30
0.0
 40
0.25
  1
2-9-11
 72
     1
 11
-296.5894534068366
 21
-48.36868700815809
 31
0.0
100
AcDbText
 73
     2
  0
TEXT
  5
608
330
1F
100
AcDbEntity
  8
TEXT
100
AcDbText
 10
-294.5750351172075
 20
-48.49368700815809
 30
0.0
 40
0.25
  1
JJH
 72
     1
 11
-294.2417017838742
 21
-48.36868700815809
 31
0.0
100
AcDbText
 73
     2
  0
LINE
  5
609
330
1F
100
AcDbEntity
  8
BORDER
100
AcDbLine
 10
-292.9939501609119
 20
-48.11868700815806
 30
0.0
 11
-309.2394534068367
 21
-48.11868700815806
 31
0.0
  0
LWPOLYLINE
  5
7AE
330
1F
100
AcDbEntity
  8
0
100
AcDbPolyline
 90
        3
 70
     0
 43
0.0
 10
-279.7624586075447
 20
-18.09947759314425
 10
-278.408273741082
 20
-18.8352486712815
 10
-270.5268633987824
 20
-18.8352486712815
1001
ACAD
1000
DSTYLE
1002
{
1070
   147
1040
0.5
1070
    77
1070
     0
1002
}
  0
SOLID
  5
7AF
330
1F
100
AcDbEntity
  8
0
100
AcDbTrace
 10
-279.8316938161913
 20
-18.24444327036205
 30
0.0
 11
-280.6282588470904
 21
-17.61733727507374
 31
0.0
 12
-279.6713656572275
 22
-17.95220023356834
 32
0.0
 13
-279.6713656572275
 23
-17.95220023356834
 33
0.0
1001
ACAD
1000
DSTYLE
1002
{
1070
   147
1040
0.5
1070
    77
1070
     0
1002
}
  0
MTEXT
  5
7B0
330
1F
100
AcDbEntity
  8
DIM
100
AcDbMText
 10
-270.0009184547699
 20
-18.38586737331287
 30
0.0
 40
0.9999999999999998
 41
0.0
 71
     4
 72
     1
  1
%%c1.250 (1) \POPTIONAL: \PEXTERNAL\PHEAT \POUTPUT
 73
     1
 44
1.0
1001
ACAD
1000
MTEXTBEGIN
1070
    73
1070
     1
1070
    44
1040
1.0
1070
    74
1070
     0
1000
MTEXTEND
  0
CIRCLE
  5
7B1
102
{ACAD_REACTORS
330
7E0
102
}
330
1F
100
AcDbEntity
  8
TEMPLATE
100
AcDbCircle
 10
-281.2058142641129
 20
-16.95118700815819
 30
0.0
 40
0.625
  0
LWPOLYLINE
  5
7B2
330
1F
100
AcDbEntity
  8
DIM
100
AcDbPolyline
 90
        3
 70
     0
 43
0.0
 10
-287.039175586151
 20
-13.56899251060584
 10
-291.2067036469227
 20
-16.81187584174849
 10
-291.8499498170524
 20
-16.81187584174849
1001
ACAD
1000
DSTYLE
1002
{
1070
    77
1070
     0
1070
    41
1040
1.0
1070
    42
1040
0.375
1070
    43
1040
2.125
1070
    44
1040
1.0
1070
   140
1040
0.9999999999999998
1070
   141
1040
0.5
1070
   147
1040
0.5
1070
   271
1070
     3
1070
   272
1070
     3
1070
   288
1070
     1
1002
}
  0
SOLID
  5
7B3
330
1F
100
AcDbEntity
  8
DIM
100
AcDbTrace
 10
-287.1415279792348
 20
-13.43745633532395
 30
0.0
 11
-286.2499585344597
 21
-12.9548781521029
 31
0.0
 12
-286.9368231930673
 22
-13.70052868588774
 32
0.0
 13
-286.9368231930673
 23
-13.70052868588774
 33
0.0
1001
ACAD
1000
DSTYLE
1002
{
1070
    77
1070
     0
1070
    41
1040
1.0
1070
    42
1040
0.375
1070
    43
1040
2.125
1070
    44
1040
1.0
1070
   140
1040
0.9999999999999998
1070
   141
1040
0.5
1070
   147
1040
0.5
1070
   271
1070
     3
1070
   272
1070
     3
1070
   288
1070
     1
1002
}
  0
MTEXT
  5
7B4
330
1F
100
AcDbEntity
  8
DIM
100
AcDbMText
 10
-292.297450108477
 20
-24.02614752549166
 30
0.0
 40
0.9999999999999998
 41
0.0
 71
     9
 72
     1
  1
%%C 1.250\POPTIONAL:\PFOR\PBOTTOM\PDRAIN
 73
     1
 44
1.0
1001
ACAD
1000
MTEXTBEGIN
1070
    73
1070
     1
1070
    44
1040
1.0
1070
    74
1070
     0
1000
MTEXTEND
  0
DIMENSION
  5
7B5
330
1F
100
AcDbEntity
  8
DIM
100
AcDbDimension
  2
*D79
 10
-290.6277845246489
 20
-31.00617788449554
 30
0.0
 11
-285.4878142641128
 21
-18.7411870081582
 31
0.0
 70
   102
 71
     5
 42
5.139970260536074
  3
Standard
100
AcDbOrdinateDimension
 13
-285.4878142641128
 23
-12.58718700815804
 33
0.0
 14
-285.4878142641128
 24
-16.49118700815815
 34
0.0
1001
ACAD
1000
DSTYLE
1002
{
1070
    41
1040
1.0
1070
    42
1040
0.375
1070
    43
1040
2.125
1070
    44
1040
1.0
1070
   140
1040
0.9999999999999998
1070
   141
1040
0.5
1070
   147
1040
0.5
1070
   271
1070
     3
1070
   272
1070
     3
1070
   288
1070
     1
1002
}
  0
DIMENSION
  5
7B6
330
1F
100
AcDbEntity
  8
DIM
100
AcDbDimension
  2
*D80
 10
-290.6277845246489
 20
-31.00617788449554
 30
0.0
 11
-297.2944809307795
 21
-11.74118700815816
 31
0.0
 70
    38
 71
     5
 42
18.41899087633749
  3
Standard
100
AcDbOrdinateDimension
 13
-285.4878142641128
 23
-12.58718700815804
 33
0.0
 14
-294.6278142641128
 24
-11.74118700815816
 34
0.0
1001
ACAD
1000
DSTYLE
1002
{
1070
    41
1040
1.0
1070
    42
1040
0.375
1070
    43
1040
2.125
1070
    44
1040
1.0
1070
   140
1040
0.9999999999999998
1070
   141
1040
0.5
1070
   147
1040
0.5
1070
   271
1070
     3
1070
   272
1070
     3
1070
   288
1070
     1
1002
}
  0
CIRCLE
  5
7B7
330
1F
100
AcDbEntity
  8
TEMPLATE
100
AcDbCircle
 10
-285.4878142641128
 20
-12.58718700815804
 30
0.0
 40
0.625
  0
TEXT
  5
7B8
330
1F
100
AcDbEntity
  8
TEXT
100
AcDbText
 10
-291.9663782056453
 20
3.165302844739905
 30
0.0
 40
1.0
  1
CUTOUT DRAWING
 72
     1
 11
-285.133044872312
 21
3.165302844739905
 31
0.0
100
AcDbText
  0
TEXT
  5
7B9
330
1F
100
AcDbEntity
  8
TEXT
100
AcDbText
 10
-289.133044872312
 20
4.831969511406533
 30
0.0
 40
1.0
  1
IQ2500TXS
 72
     1
 11
-285.133044872312
 21
4.831969511406533
 31
0.0
100
AcDbText
  0
TEXT
  5
7BA
330
1F
100
AcDbEntity
  8
TEXT
100
AcDbText
 10
-289.0497115389787
 20
6.498636178073232
 30
0.0
 40
1.0
  1
IQ2000TXS
 72
     1
 11
-285.133044872312
 21
6.498636178073232
 31
0.0
100
AcDbText
  0
LINE
  5
7BB
330
1F
100
AcDbEntity
  8
TEMPLATE
  6
DASHED
100
AcDbLine
 10
-280.3528142641128
 20
-6.731187008158165
 30
0.0
 11
-280.3528142641128
 21
-31.00618700815803
 31
0.0
  0
LINE
  5
7BC
330
1F
100
AcDbEntity
  8
TEMPLATE
  6
DASHED
100
AcDbLine
 10
-290.6278142641129
 20
-31.00618700815803
 30
0.0
 11
-290.6278142641129
 21
-6.731187008158165
 31
0.0
  0
LINE
  5
7BD
330
1F
100
AcDbEntity
  8
TEMPLATE
  6
DASHED
100
AcDbLine
 10
-280.3528142641128
 20
-31.00618700815803
 30
0.0
 11
-290.6278142641129
 21
-31.00618700815803
 31
0.0
  0
CIRCLE
  5
7BE
102
{ACAD_REACTORS
330
7F7
102
}
330
1F
100
AcDbEntity
  8
TEMPLATE
100
AcDbCircle
 10
-290.2428142641127
 20
-30.62118700815804
 30
0.0
 40
0.1875
  0
CIRCLE
  5
7BF
330
1F
100
AcDbEntity
  8
TEMPLATE
100
AcDbCircle
 10
-290.1778142641126
 20
-20.30618700815798
 30
0.0
 40
0.1875
  0
CIRCLE
  5
7C0
330
1F
100
AcDbEntity
  8
TEMPLATE
100
AcDbCircle
 10
-280.7378142641125
 20
-30.62118700815804
 30
0.0
 40
0.1875
  0
CIRCLE
  5
7C1
330
1F
100
AcDbEntity
  8
TEMPLATE
100
AcDbCircle
 10
-280.8028142641126
 20
-20.30618700815798
 30
0.0
 40
0.1875
  0
LINE
  5
7C2
330
1F
100
AcDbEntity
  8
TEMPLATE
  6
DASHED
100
AcDbLine
 10
-280.3528142641128
 20
-6.731187008158165
 30
0.0
 11
-290.6278142641129
 21
-6.731187008158165
 31
0.0
  0
LINE
  5
7C3
330
1F
100
AcDbEntity
  8
TEMPLATE
100
AcDbLine
 10
-289.3628142641126
 20
-13.24118700815815
 30
0.0
 11
-282.1128142641125
 21
-13.24118700815815
 31
0.0
  0
LINE
  5
7C4
330
1F
100
AcDbEntity
  8
TEMPLATE
100
AcDbLine
 10
-282.1128142641125
 20
-14.49118700815815
 30
0.0
 11
-289.3628142641126
 21
-14.49118700815815
 31
0.0
  0
LINE
  5
7C5
330
1F
100
AcDbEntity
  8
TEMPLATE
100
AcDbLine
 10
-289.3628142641126
 20
-13.24118700815815
 30
0.0
 11
-289.3628142641126
 21
-14.49118700815815
 31
0.0
  0
CIRCLE
  5
7C6
330
1F
100
AcDbEntity
  8
TEMPLATE
100
AcDbCircle
 10
-290.1778142641126
 20
-8.806187008157984
 30
0.0
 40
0.1875
  0
CIRCLE
  5
7C7
330
1F
100
AcDbEntity
  8
TEMPLATE
100
AcDbCircle
 10
-281.2058142641129
 20
-15.45118700815819
 30
0.0
 40
0.625
  0
LINE
  5
7C8
102
{ACAD_REACTORS
330
7ED
102
}
330
1F
100
AcDbEntity
  8
TEMPLATE
100
AcDbLine
 10
-282.1128142641125
 20
-14.49118700815815
 30
0.0
 11
-282.1128142641125
 21
-13.24118700815815
 31
0.0
  0
CIRCLE
  5
7C9
330
1F
100
AcDbEntity
  8
TEMPLATE
100
AcDbCircle
 10
-280.8028142641126
 20
-8.806187008157984
 30
0.0
 40
0.1875
  0
DIMENSION
  5
7CA
330
1F
100
AcDbEntity
  8
DIM
100
AcDbDimension
  2
*D56
 10
-290.6278034637185
 20
-31.00615221164086
 30
0.0
 11
-296.8336044464176
 21
-31.00618700815803
 31
0.0
 70
    38
 71
     5
 42
0.0000347965171841
  3
Standard
100
AcDbOrdinateDimension
 13
-290.6278142641129
 23
-31.00618700815803
 33
0.0
 14
-294.6669377797509
 24
-31.00618700815803
 34
0.0
1001
ACAD
1000
DSTYLE
1002
{
1070
    41
1040
1.0
1070
    42
1040
0.375
1070
    43
1040
2.125
1070
    44
1040
1.0
1070
   140
1040
0.9999999999999998
1070
   141
1040
0.5
1070
   147
1040
0.5
1070
   271
1070
     3
1070
   272
1070
     3
1070
   288
1070
     1
1002
}
  0
DIMENSION
  5
7CB
330
1F
100
AcDbEntity
  8
DIM
100
AcDbDimension
  2
*D57
 10
-290.6278034637185
 20
-31.00615221164086
 30
0.0
 11
-290.6278142641129
 21
-37.14946864807239
 31
0.0
 70
   102
 71
     5
 42
0.0000108003944206
  3
Standard
100
AcDbOrdinateDimension
 13
-290.6278142641129
 23
-31.00618700815803
 33
0.0
 14
-290.6278142641129
 24
-34.98280198140568
 34
0.0
1001
ACAD
1000
DSTYLE
1002
{
1070
    41
1040
1.0
1070
    42
1040
0.375
1070
    43
1040
2.125
1070
    44
1040
1.0
1070
   140
1040
0.9999999999999998
1070
   141
1040
0.5
1070
   147
1040
0.5
1070
   271
1070
     3
1070
   272
1070
     3
1070
   288
1070
     1
1002
}
  0
DIMENSION
  5
7CC
330
1F
100
AcDbEntity
  8
DIM
100
AcDbDimension
  2
*D58
 10
-290.6278034637185
 20
-31.00615221164086
 30
0.0
 11
-289.0279956584036
 21
-37.43805018039914
 31
0.0
 70
   102
 71
     5
 42
0.3849891996057977
  3
Standard
100
AcDbOrdinateDimension
 13
-290.2428142641127
 23
-30.62118700815804
 33
0.0
 14
-289.0279956584036
 24
-35.02138351373245
 34
0.0
1001
ACAD
1000
DSTYLE
1002
{
1070
    41
1040
1.0
1070
    42
1040
0.375
1070
    43
1040
2.125
1070
    44
1040
1.0
1070
   140
1040
0.9999999999999998
1070
   141
1040
0.5
1070
   147
1040
0.5
1070
   271
1070
     3
1070
   272
1070
     3
1070
   288
1070
     1
1002
}
  0
DIMENSION
  5
7CD
330
1F
100
AcDbEntity
  8
DIM
100
AcDbDimension
  2
*D59
 10
-290.6278034637185
 20
-31.00615221164086
 30
0.0
 11
-280.3528142641128
 21
-37.77138351373249
 31
0.0
 70
   102
 71
     5
 42
10.27498919960567
  3
Standard
100
AcDbOrdinateDimension
 13
-280.3528142641128
 23
-31.00618700815803
 33
0.0
 14
-280.3528142641128
 24
-35.02138351373245
 34
0.0
1001
ACAD
1000
DSTYLE
1002
{
1070
    41
1040
1.0
1070
    42
1040
0.375
1070
    43
1040
2.125
1070
    44
1040
1.0
1070
   140
1040
0.9999999999999998
1070
   141
1040
0.5
1070
   147
1040
0.5
1070
   271
1070
     3
1070
   272
1070
     3
1070
   288
1070
     1
1002
}
  0
DIMENSION
  5
7CE
330
1F
100
AcDbEntity
  8
DIM
100
AcDbDimension
  2
*D60
 10
-290.6278034637185
 20
-31.00615221164086
 30
0.0
 11
-281.8441384654254
 21
-37.39946864807239
 31
0.0
 70
   102
 71
     5
 42
9.889989199605906
  3
Standard
100
AcDbOrdinateDimension
 13
-280.7378142641125
 23
-30.62118700815804
 33
0.0
 14
-281.8441384654254
 24
-34.98280198140568
 34
0.0
1001
ACAD
1000
DSTYLE
1002
{
1070
    41
1040
1.0
1070
    42
1040
0.375
1070
    43
1040
2.125
1070
    44
1040
1.0
1070
   140
1040
0.9999999999999998
1070
   141
1040
0.5
1070
   147
1040
0.5
1070
   271
1070
     3
1070
   272
1070
     3
1070
   288
1070
     1
1002
}
  0
DIMENSION
  5
7D0
330
1F
100
AcDbEntity
  8
DIM
100
AcDbDimension
  2
*D62
 10
-290.6278034637185
 20
-31.00615221164086
 30
0.0
 11
-273.7943891340949
 21
-20.30618700815798
 31
0.0
 70
    38
 71
     5
 42
10.69996520348286
  3
Standard
100
AcDbOrdinateDimension
 13
-280.8028142641126
 23
-20.30618700815798
 33
0.0
 14
-276.3777224674281
 24
-20.30618700815798
 34
0.0
1001
ACAD
1000
DSTYLE
1002
{
1070
    41
1040
1.0
1070
    42
1040
0.375
1070
    43
1040
2.125
1070
    44
1040
1.0
1070
   140
1040
0.9999999999999998
1070
   141
1040
0.5
1070
   147
1040
0.5
1070
   271
1070
     3
1070
   272
1070
     3
1070
   288
1070
     1
1002
}
  0
DIMENSION
  5
7D1
330
1F
100
AcDbEntity
  8
DIM
100
AcDbDimension
  2
*D63
 10
-290.6278034637185
 20
-31.00615221164086
 30
0.0
 11
-288.9033929254044
 21
-27.1844498422697
 31
0.0
 70
   102
 71
     5
 42
0.4499891996058524
  3
Standard
100
AcDbOrdinateDimension
 13
-290.1778142641126
 23
-20.30618700815798
 33
0.0
 14
-288.9033929254044
 24
-24.85111650893631
 34
0.0
1001
ACAD
1000
DSTYLE
1002
{
1070
    41
1040
1.0
1070
    42
1040
0.375
1070
    43
1040
2.125
1070
    44
1040
1.0
1070
   140
1040
0.9999999999999998
1070
   141
1040
0.5
1070
   147
1040
0.5
1070
   271
1070
     3
1070
   272
1070
     3
1070
   288
1070
     1
1002
}
  0
DIMENSION
  5
7D2
330
1F
100
AcDbEntity
  8
DIM
100
AcDbDimension
  2
*D64
 10
-290.6278034637185
 20
-31.00615221164086
 30
0.0
 11
-282.1028142641128
 21
-27.30618700815803
 31
0.0
 70
   102
 71
     5
 42
9.82498919960585
  3
Standard
100
AcDbOrdinateDimension
 13
-280.8028142641126
 23
-20.30618700815798
 33
0.0
 14
-282.1028142641128
 24
-24.80618700815798
 34
0.0
1001
ACAD
1000
DSTYLE
1002
{
1070
    41
1040
1.0
1070
    42
1040
0.375
1070
    43
1040
2.125
1070
    44
1040
1.0
1070
   140
1040
0.9999999999999998
1070
   141
1040
0.5
1070
   147
1040
0.5
1070
   271
1070
     3
1070
   272
1070
     3
1070
   288
1070
     1
1002
}
  0
DIMENSION
  5
7D3
330
1F
100
AcDbEntity
  8
DIM
100
AcDbDimension
  2
*D65
 10
-290.6278034637185
 20
-31.00615221164086
 30
0.0
 11
-273.567307709914
 21
-15.45118700815819
 31
0.0
 70
    38
 71
     5
 42
15.55496520348265
  3
Standard
100
AcDbOrdinateDimension
 13
-281.2058142641129
 23
-15.45118700815819
 33
0.0
 14
-276.4006410432473
 24
-15.45118700815819
 34
0.0
1001
ACAD
1000
DSTYLE
1002
{
1070
    41
1040
1.0
1070
    42
1040
0.375
1070
    43
1040
2.125
1070
    44
1040
1.0
1070
   140
1040
0.9999999999999998
1070
   141
1040
0.5
1070
   147
1040
0.5
1070
   271
1070
     3
1070
   272
1070
     3
1070
   288
1070
     1
1002
}
  0
DIMENSION
  5
7D4
330
1F
100
AcDbEntity
  8
DIM
100
AcDbDimension
  2
*D66
 10
-290.6278034637185
 20
-31.00615221164086
 30
0.0
 11
-273.567307709914
 21
-8.806187008157984
 31
0.0
 70
    38
 71
     5
 42
22.19996520348286
  3
Standard
100
AcDbOrdinateDimension
 13
-280.8028142641126
 23
-8.806187008157984
 33
0.0
 14
-276.4006410432473
 24
-8.806187008157984
 34
0.0
1001
ACAD
1000
DSTYLE
1002
{
1070
    41
1040
1.0
1070
    42
1040
0.375
1070
    43
1040
2.125
1070
    44
1040
1.0
1070
   140
1040
0.9999999999999998
1070
   141
1040
0.5
1070
   147
1040
0.5
1070
   271
1070
     3
1070
   272
1070
     3
1070
   288
1070
     1
1002
}
  0
DIMENSION
  5
7D5
330
1F
100
AcDbEntity
  8
DIM
100
AcDbDimension
  2
*D67
 10
-290.6278034637185
 20
-31.00615221164086
 30
0.0
 11
-273.3096054627639
 21
-6.731187008158165
 31
0.0
 70
    38
 71
     5
 42
24.27496520348268
  3
Standard
100
AcDbOrdinateDimension
 13
-280.3528142641128
 23
-6.731187008158165
 33
0.0
 14
-276.3096054627638
 24
-6.731187008158165
 34
0.0
1001
ACAD
1000
DSTYLE
1002
{
1070
    41
1040
1.0
1070
    42
1040
0.375
1070
    43
1040
2.125
1070
    44
1040
1.0
1070
   140
1040
0.9999999999999998
1070
   141
1040
0.5
1070
   147
1040
0.5
1070
   271
1070
     3
1070
   272
1070
     3
1070
   288
1070
     1
1002
}
  0
DIMENSION
  5
7D6
330
1F
100
AcDbEntity
  8
DIM
100
AcDbDimension
  2
*D68
 10
-290.6278034637185
 20
-31.00615221164086
 30
0.0
 11
-297.2462714121757
 21
-14.49118700815815
 31
0.0
 70
    38
 71
     5
 42
16.51496520348269
  3
Standard
100
AcDbOrdinateDimension
 13
-289.3628142641126
 23
-14.49118700815815
 33
0.0
 14
-294.5796047455089
 24
-14.49118700815815
 34
0.0
1001
ACAD
1000
DSTYLE
1002
{
1070
    41
1040
1.0
1070
    42
1040
0.375
1070
    43
1040
2.125
1070
    44
1040
1.0
1070
   140
1040
0.9999999999999998
1070
   141
1040
0.5
1070
   147
1040
0.5
1070
   271
1070
     3
1070
   272
1070
     3
1070
   288
1070
     1
1002
}
  0
DIMENSION
  5
7D7
330
1F
100
AcDbEntity
  8
DIM
100
AcDbDimension
  2
*D69
 10
-290.6278034637185
 20
-31.00615221164086
 30
0.0
 11
-297.4495306930771
 21
-13.24118700815815
 31
0.0
 70
    38
 71
     5
 42
17.76496520348269
  3
Standard
100
AcDbOrdinateDimension
 13
-289.3628142641126
 23
-13.24118700815815
 33
0.0
 14
-294.6161973597438
 24
-13.24118700815815
 34
0.0
1001
ACAD
1000
DSTYLE
1002
{
1070
    41
1040
1.0
1070
    42
1040
0.375
1070
    43
1040
2.125
1070
    44
1040
1.0
1070
   140
1040
0.9999999999999998
1070
   141
1040
0.5
1070
   147
1040
0.5
1070
   271
1070
     3
1070
   272
1070
     3
1070
   288
1070
     1
1002
}
  0
DIMENSION
  5
7D8
330
1F
100
AcDbEntity
  8
DIM
100
AcDbDimension
  2
*D70
 10
-290.6278034637185
 20
-31.00615221164086
 30
0.0
 11
-290.1778142641126
 21
-0.4742003456141144
 31
0.0
 70
   102
 71
     5
 42
0.4499891996058524
  3
Standard
100
AcDbOrdinateDimension
 13
-290.1778142641126
 23
-8.806187008157984
 33
0.0
 14
-290.1778142641126
 24
-2.807533678947399
 34
0.0
1001
ACAD
1000
DSTYLE
1002
{
1070
    41
1040
1.0
1070
    42
1040
0.375
1070
    43
1040
2.125
1070
    44
1040
1.0
1070
   140
1040
0.9999999999999998
1070
   141
1040
0.5
1070
   147
1040
0.5
1070
   271
1070
     3
1070
   272
1070
     3
1070
   288
1070
     1
1002
}
  0
DIMENSION
  5
7D9
330
1F
100
AcDbEntity
  8
DIM
100
AcDbDimension
  2
*D71
 10
-290.6278034637185
 20
-31.00615221164086
 30
0.0
 11
-281.2058142641129
 21
-0.2398677614803653
 31
0.0
 70
   102
 71
     5
 42
9.421989199605603
  3
Standard
100
AcDbOrdinateDimension
 13
-281.2058142641129
 23
-15.45118700815819
 33
0.0
 14
-281.2058142641129
 24
-2.739867761480319
 34
0.0
1001
ACAD
1000
DSTYLE
1002
{
1070
    41
1040
1.0
1070
    42
1040
0.375
1070
    43
1040
2.125
1070
    44
1040
1.0
1070
   140
1040
0.9999999999999998
1070
   141
1040
0.5
1070
   147
1040
0.5
1070
   271
1070
     3
1070
   272
1070
     3
1070
   288
1070
     1
1002
}
  0
DIMENSION
  5
7DA
330
1F
100
AcDbEntity
  8
DIM
100
AcDbDimension
  2
*D72
 10
-290.6278034637185
 20
-31.00615221164086
 30
0.0
 11
-279.763190474493
 21
-0.239867761480365
 31
0.0
 70
   102
 71
     5
 42
9.82498919960585
  3
Standard
100
AcDbOrdinateDimension
 13
-280.8028142641126
 23
-8.806187008157984
 33
0.0
 14
-279.763190474493
 24
-2.739867761480319
 34
0.0
1001
ACAD
1000
DSTYLE
1002
{
1070
    41
1040
1.0
1070
    42
1040
0.375
1070
    43
1040
2.125
1070
    44
1040
1.0
1070
   140
1040
0.9999999999999998
1070
   141
1040
0.5
1070
   147
1040
0.5
1070
   271
1070
     3
1070
   272
1070
     3
1070
   288
1070
     1
1002
}
  0
DIMENSION
  5
7DB
330
1F
100
AcDbEntity
  8
DIM
100
AcDbDimension
  2
*D73
 10
-290.6278034637185
 20
-31.00615221164086
 30
0.0
 11
-289.3628142641126
 21
-18.80533869511882
 31
0.0
 70
   102
 71
     5
 42
1.264989199605905
  3
Standard
100
AcDbOrdinateDimension
 13
-289.3628142641126
 23
-14.49118700815815
 33
0.0
 14
-289.3628142641126
 24
-16.47200536178544
 34
0.0
1001
ACAD
1000
DSTYLE
1002
{
1070
    41
1040
1.0
1070
    42
1040
0.375
1070
    43
1040
2.125
1070
    44
1040
1.0
1070
   140
1040
0.9999999999999998
1070
   141
1040
0.5
1070
   147
1040
0.5
1070
   271
1070
     3
1070
   272
1070
     3
1070
   288
1070
     1
1002
}
  0
LEADER
  5
7DC
330
1F
100
AcDbEntity
  8
DIM
100
AcDbLeader
  3
Standard
 73
     0
 40
2.666666666666666
 41
12.0
 76
     3
 10
-280.9325577726742
 20
-14.88908747081042
 30
0.0
 10
-278.5297020463505
 20
-11.62468717253042
 30
0.0
 10
-277.9849885070663
 20
-11.62468717253042
 30
0.0
213
0.0
223
-0.5
233
0.0
1001
ACAD
1000
DSTYLE
1002
{
1070
    77
1070
     0
1070
    41
1040
1.0
1070
    42
1040
0.375
1070
    43
1040
2.125
1070
    44
1040
1.0
1070
   140
1040
0.9999999999999998
1070
   141
1040
0.5
1070
   147
1040
0.5
1070
   271
1070
     3
1070
   272
1070
     3
1070
   288
1070
     1
1002
}
  0
MTEXT
  5
7DD
102
{ACAD_REACTORS
330
7DC
102
}
330
1F
100
AcDbEntity
  8
DIM
100
AcDbMText
 10
-277.4849885070663
 20
-11.12468717253042
 30
0.0
 40
0.9999999999999998
 41
0.0
 71
     1
 72
     1
  1
%%C1.250 (1)\PPOWER SUPPLY
 73
     1
 44
1.0
1001
ACAD
1000
MTEXTBEGIN
1070
    73
1070
     1
1070
    44
1040
1.0
1070
    74
1070
     0
1000
MTEXTEND
  0
DIMENSION
  5
7DE
102
{ACAD_XDICTIONARY
360
7DF
102
}
102
{ACAD_REACTORS
330
7E0
102
}
330
1F
100
AcDbEntity
  8
0
100
AcDbDimension
  2
*D81
 10
-290.6278142641129
 20
-31.00618700815803
 30
0.0
 11
-273.5493959024829
 21
-17.05323954285878
 31
0.0
 70
    38
 71
     5
 42
14.05499999999983
  3
Standard
100
AcDbOrdinateDimension
 13
-281.2058142641129
 23
-16.95118700815819
 33
0.0
 14
-275.8893959024829
 24
-17.05323954285878
 34
0.0
  0
CIRCLE
  5
7E1
330
1F
100
AcDbEntity
  8
TEMPLATE
100
AcDbCircle
 10
-280.8028142641126
 20
-8.806187008157984
 30
0.0
 40
0.1875
  0
DIMENSION
  5
7E2
330
1F
100
AcDbEntity
  8
0
100
AcDbDimension
  2
*D74
 10
-290.6278142641129
 20
-31.00618700815803
 30
0.0
 11
-297.2080266576128
 21
-10.04118700815812
 31
0.0
 70
    38
 71
     5
 42
20.96499999999934
  3
Standard
100
AcDbOrdinateDimension
 13
-286.2428142641131
 23
-10.04118700815869
 33
0.0
 14
-294.7013599909462
 24
-10.04118700815812
 34
0.0
  0
DIMENSION
  5
7E3
330
1F
100
AcDbEntity
  8
0
100
AcDbDimension
  2
*D75
 10
-290.6278142641129
 20
-31.00618700815803
 30
0.0
 11
-297.4076410207684
 21
-7.391187008158005
 31
0.0
 70
    38
 71
     5
 42
23.61499999999944
  3
Standard
100
AcDbOrdinateDimension
 13
-286.2428142641127
 23
-7.391187008158587
 33
0.0
 14
-294.9843076874351
 24
-7.391187008158005
 34
0.0
  0
DIMENSION
  5
7E4
330
1F
100
AcDbEntity
  8
0
100
AcDbDimension
  2
*D76
 10
-290.6278142641129
 20
-31.00618700815803
 30
0.0
 11
-287.0014665476237
 21
-0.6823896033320411
 31
0.0
 70
   102
 71
     5
 42
4.38499999999999
  3
Standard
100
AcDbOrdinateDimension
 13
-286.2428142641129
 23
-7.391187008158005
 33
0.0
 14
-287.0014665476237
 24
-2.772389603331994
 34
0.0
  0
DIMENSION
  5
7E5
330
1F
100
AcDbEntity
  8
0
100
AcDbDimension
  2
*D77
 10
-290.6278142641129
 20
-31.00618700815803
 30
0.0
 11
-282.9387945070978
 21
-0.2716367995074091
 31
0.0
 70
   102
 71
     5
 42
8.75999999999999
  3
Standard
100
AcDbOrdinateDimension
 13
-281.8678142641129
 23
-7.391187008158005
 33
0.0
 14
-282.9387945070978
 24
-2.278303466174029
 34
0.0
  0
LINE
  5
7E6
330
1F
100
AcDbEntity
  8
TEMPLATE
100
AcDbLine
 10
-281.8678142641129
 20
-10.04118700815817
 30
0.0
 11
-286.2428142641131
 21
-10.04118700815869
 31
0.0
  0
LINE
  5
7E7
330
1F
100
AcDbEntity
  8
TEMPLATE
100
AcDbLine
 10
-286.2428142641129
 20
-7.391187008158005
 30
0.0
 11
-281.8678142641129
 21
-7.391187008158005
 31
0.0
  0
LINE
  5
7E8
330
1F
100
AcDbEntity
  8
TEMPLATE
100
AcDbLine
 10
-281.8678142641129
 20
-10.04118700815809
 30
0.0
 11
-281.8678142641129
 21
-7.391187008158005
 31
0.0
  0
LINE
  5
7E9
330
1F
100
AcDbEntity
  8
TEMPLATE
100
AcDbLine
 10
-286.2428142641127
 20
-7.391187008158005
 30
0.0
 11
-286.2428142641131
 21
-10.04118700815809
 31
0.0
  0
CIRCLE
  5
7EA
102
{ACAD_REACTORS
330
7F0
330
7F4
102
}
330
1F
100
AcDbEntity
  8
TEMPLATE
100
AcDbCircle
 10
-282.6578142641129
 20
-15.67618700815816
 30
0.0
 40
0.625
  0
DIMENSION
  5
7EB
102
{ACAD_XDICTIONARY
360
7EC
102
}
102
{ACAD_REACTORS
330
7ED
102
}
330
1F
100
AcDbEntity
  8
0
100
AcDbDimension
  2
*D82
 10
-290.6277845246489
 20
-31.00617788449554
 30
0.0
 11
-284.4785935207063
 21
-0.3549701328407425
 31
0.0
 70
   102
 71
     5
 42
8.514970260536301
  3
Standard
100
AcDbOrdinateDimension
 13
-282.1128142641125
 23
-13.24118700815815
 33
0.0
 14
-284.4785935207063
 24
-2.278303466174029
 34
0.0
  0
DIMENSION
  5
7EE
102
{ACAD_XDICTIONARY
360
7EF
102
}
102
{ACAD_REACTORS
330
7F0
102
}
330
1F
100
AcDbEntity
  8
0
100
AcDbDimension
  2
*D83
 10
-290.6277845246489
 20
-31.00617788449554
 30
0.0
 11
-283.9020239703702
 21
-24.06188366460464
 31
0.0
 70
   102
 71
     5
 42
7.969970260536
  3
Standard
100
AcDbOrdinateDimension
 13
-282.6578142641129
 23
-15.67618700815816
 33
0.0
 14
-283.9020239703702
 24
-22.05521699793793
 34
0.0
  0
DIMENSION
  5
7F1
330
1F
100
AcDbEntity
  8
0
100
AcDbDimension
  2
*D78
 10
-290.6277845246489
 20
-31.00617788449554
 30
0.0
 11
-296.9409702901229
 21
-15.5854179026162
 31
0.0
 70
    38
 71
     5
 42
15.32999087633738
  3
Standard
100
AcDbOrdinateDimension
 13
-282.6578142641129
 23
-15.67618700815816
 33
0.0
 14
-294.6009702901228
 24
-15.5854179026162
 34
0.0
  0
DIMENSION
  5
7F2
102
{ACAD_XDICTIONARY
360
7F3
102
}
102
{ACAD_REACTORS
330
7F4
102
}
330
1F
100
AcDbEntity
  8
0
100
AcDbDimension
  2
*D84
 10
-282.800031571681
 20
-15.06758267246214
 30
0.0
 11
-273.9129258658504
 21
-28.46397446503655
 31
0.0
 70
   163
  1
<> (1)\POPTIONAL:\PETHERNET/\PALARM\PCONNECTION \PPORT
 71
     4
 42
1.249999999999914
  3
Standard
100
AcDbDiametricDimension
 15
-282.5155969565448
 25
-16.28479134385423
 35
0.0
 40
0.0
1001
ACAD
1000
DSTYLE
1002
{
1070
   288
1070
     1
1002
}
  0
DIMENSION
  5
7F5
102
{ACAD_XDICTIONARY
360
7F6
102
}
102
{ACAD_REACTORS
330
7F7
102
}
330
1F
100
AcDbEntity
  8
0
100
AcDbDimension
  2
*D85
 10
-290.1197285881837
 20
-30.76263016416461
 30
0.0
 11
-297.4104753402118
 21
-26.41417754516144
 31
0.0
 70
   163
  1
<> \P(6)
 71
     5
 42
0.3749999999999716
  3
Standard
100
AcDbDiametricDimension
 15
-290.3658999400416
 25
-30.47974385215146
 35
0.0
 40
0.0
1001
ACAD
1000
DSTYLE
1002
{
1070
   288
1070
     1
1002
}
  0
LINE
  5
7F8
330
1F
100
AcDbEntity
  8
0
100
AcDbLine
 10
-280.8278142641125
 20
-30.62118700815804
 30
0.0
 11
-280.6478142641126
 21
-30.62118700815804
 31
0.0
  0
LINE
  5
7F9
330
1F
100
AcDbEntity
  8
0
100
AcDbLine
 10
-280.7378142641125
 20
-30.71118700815804
 30
0.0
 11
-280.7378142641125
 21
-30.53118700815804
 31
0.0
  0
LINE
  5
7FA
330
1F
100
AcDbEntity
  8
0
100
AcDbLine
 10
-290.2678142641126
 20
-20.30618700815798
 30
0.0
 11
-290.0878142641126
 21
-20.30618700815798
 31
0.0
  0
LINE
  5
7FB
330
1F
100
AcDbEntity
  8
0
100
AcDbLine
 10
-290.1778142641126
 20
-20.39618700815799
 30
0.0
 11
-290.1778142641126
 21
-20.21618700815798
 31
0.0
  0
LINE
  5
7FC
330
1F
100
AcDbEntity
  8
0
100
AcDbLine
 10
-280.8928142641126
 20
-20.30618700815798
 30
0.0
 11
-280.7128142641126
 21
-20.30618700815798
 31
0.0
  0
LINE
  5
7FD
330
1F
100
AcDbEntity
  8
0
100
AcDbLine
 10
-280.8028142641126
 20
-20.39618700815799
 30
0.0
 11
-280.8028142641126
 21
-20.21618700815798
 31
0.0
  0
LINE
  5
7FE
330
1F
100
AcDbEntity
  8
0
100
AcDbLine
 10
-281.2958142641128
 20
-16.95118700815819
 30
0.0
 11
-281.1158142641129
 21
-16.95118700815819
 31
0.0
  0
LINE
  5
7FF
330
1F
100
AcDbEntity
  8
0
100
AcDbLine
 10
-281.2058142641129
 20
-17.0411870081582
 30
0.0
 11
-281.2058142641129
 21
-16.86118700815819
 31
0.0
  0
LINE
  5
800
330
1F
100
AcDbEntity
  8
0
100
AcDbLine
 10
-281.2958142641128
 20
-15.45118700815819
 30
0.0
 11
-281.1158142641129
 21
-15.45118700815819
 31
0.0
  0
LINE
  5
801
330
1F
100
AcDbEntity
  8
0
100
AcDbLine
 10
-281.2058142641129
 20
-15.54118700815819
 30
0.0
 11
-281.2058142641129
 21
-15.36118700815819
 31
0.0
  0
LINE
  5
802
330
1F
100
AcDbEntity
  8
0
100
AcDbLine
 10
-285.5778142641128
 20
-12.58718700815804
 30
0.0
 11
-285.3978142641128
 21
-12.58718700815804
 31
0.0
  0
LINE
  5
803
330
1F
100
AcDbEntity
  8
0
100
AcDbLine
 10
-285.4878142641128
 20
-12.67718700815805
 30
0.0
 11
-285.4878142641128
 21
-12.49718700815804
 31
0.0
  0
LINE
  5
804
330
1F
100
AcDbEntity
  8
0
100
AcDbLine
 10
-290.2678142641126
 20
-8.806187008157984
 30
0.0
 11
-290.0878142641126
 21
-8.806187008157984
 31
0.0
  0
LINE
  5
805
330
1F
100
AcDbEntity
  8
0
100
AcDbLine
 10
-290.1778142641126
 20
-8.896187008157989
 30
0.0
 11
-290.1778142641126
 21
-8.71618700815798
 31
0.0
  0
LINE
  5
806
330
1F
100
AcDbEntity
  8
0
100
AcDbLine
 10
-280.8928142641126
 20
-8.806187008157984
 30
0.0
 11
-280.7128142641126
 21
-8.806187008157984
 31
0.0
  0
LINE
  5
807
330
1F
100
AcDbEntity
  8
0
100
AcDbLine
 10
-280.8028142641126
 20
-8.896187008157989
 30
0.0
 11
-280.8028142641126
 21
-8.71618700815798
 31
0.0
  0
LEADER
  5
808
330
1F
100
AcDbEntity
  8
0
100
AcDbLeader
  3
Standard
 73
     0
 40
2.666666666666666
 41
9.666666666666666
 76
     3
 10
-290.5136610727841
 20
-4.591888838345545
 30
0.0
 10
-292.2964257927865
 20
-1.845081942322003
 30
0.0
 10
-295.8462162943026
 20
-1.845081942322003
 30
0.0
340
809
213
0.0
223
0.5
233
0.0
1001
ACAD
1000
DSTYLE
1002
{
1070
   147
1040
0.09
1070
    77
1070
     0
1002
}
  0
MTEXT
  5
809
102
{ACAD_REACTORS
330
808
102
}
330
1F
100
AcDbEntity
  8
0
100
AcDbMText
 10
-295.9362162943027
 20
-2.345081942322003
 30
0.0
 40
1.0
 41
0.0
 71
     9
 72
     1
  1
CONTROLLER \PSIDE
 73
     1
 44
1.0
1001
ACAD
1000
MTEXTBEGIN
1070
    73
1070
     1
1070
    44
1040
1.0
1070
    74
1070
     0
1000
MTEXTEND
  0
TEXT
  5
B17
330
1F
100
AcDbEntity
  8
TEXT
100
AcDbText
 10
-308.77591174017
 20
-47.99368700815807
 30
0.0
 40
0.25
  1
2
 72
     1
 11
-308.6925784068367
 21
-47.86868700815808
 31
0.0
100
AcDbText
 73
     2
  0
TEXT
  5
B18
330
1F
100
AcDbEntity
  8
TEXT
100
AcDbText
 10
-306.5842450735034
 20
-47.99368700815807
 30
0.0
 40
0.25
  1
ADDED ETHERNET CONNECTION PORT
 72
     1
 11
-302.9175784068367
 21
-47.86868700815808
 31
0.0
100
AcDbText
 73
     2
  0
TEXT
  5
B19
330
1F
100
AcDbEntity
  8
TEXT
100
AcDbText
 10
-297.3394534068366
 20
-47.99368700815807
 30
0.0
 40
0.25
  1
7-25-11
 72
     1
 11
-296.5894534068366
 21
-47.86868700815808
 31
0.0
100
AcDbText
 73
     2
  0
LINE
  5
B1A
330
1F
100
AcDbEntity
  8
BORDER
100
AcDbLine
 10
-292.9939501609119
 20
-47.61868700815805
 30
0.0
 11
-309.2394534068367
 21
-47.61868700815805
 31
0.0
  0
TEXT
  5
B1B
330
1F
100
AcDbEntity
  8
TEXT
100
AcDbText
 10
-294.5750351172075
 20
-47.99368700815807
 30
0.0
 40
0.25
  1
JJH
 72
     1
 11
-294.2417017838742
 21
-47.86868700815808
 31
0.0
100
AcDbText
 73
     2
  0
DIMENSION
  5
B53
330
1F
100
AcDbEntity
  8
0
100
AcDbDimension
  2
*D86
 10
-290.6277845246489
 20
-31.00617788449554
 30
0.0
 11
-296.6019606917057
 21
-29.6834139500462
 31
0.0
 70
    38
 71
     5
 42
0.384990876337536
  3
Standard
100
AcDbOrdinateDimension
 13
-290.2428142641127
 23
-30.621187008158
 33
0.0
 14
-294.5952940250391
 24
-29.6834139500462
 34
0.0
  0
TEXT
  5
B6E
330
1F
100
AcDbEntity
  8
TEXT
100
AcDbText
 10
-307.62591174017
 20
-47.49368700815806
 30
0.0
 40
0.25
  1
ADDED ALARN TO ETHERNET CONN PORT NOTE
 72
     1
 11
-302.9175784068367
 21
-47.36868700815806
 31
0.0
100
AcDbText
 73
     2
  0
TEXT
  5
B6F
330
1F
100
AcDbEntity
  8
TEXT
100
AcDbText
 10
-308.77591174017
 20
-47.49368700815806
 30
0.0
 40
0.25
  1
3
 72
     1
 11
-308.6925784068367
 21
-47.36868700815806
 31
0.0
100
AcDbText
 73
     2
  0
TEXT
  5
B70
330
1F
100
AcDbEntity
  8
TEXT
100
AcDbText
 10
-294.5750351172075
 20
-47.49368700815806
 30
0.0
 40
0.25
  1
JJH
 72
     1
 11
-294.2417017838742
 21
-47.36868700815806
 31
0.0
100
AcDbText
 73
     2
  0
TEXT
  5
B71
330
1F
100
AcDbEntity
  8
TEXT
100
AcDbText
 10
-297.3186200735033
 20
-47.49368700815806
 30
0.0
 40
0.25
  1
4-10-12
 72
     1
 11
-296.5894534068366
 21
-47.36868700815806
 31
0.0
100
AcDbText
 73
     2
  0
LINE
  5
B72
330
1F
100
AcDbEntity
  8
BORDER
100
AcDbLine
 10
-292.9939501609119
 20
-47.11868700815803
 30
0.0
 11
-309.2394534068367
 21
-47.11868700815803
 31
0.0
  0
ENDSEC
  0
SECTION
  2
OBJECTS
  0
DICTIONARY
  5
C
330
0
100
AcDbDictionary
281
     1
  3
ACAD_COLOR
350
73
  3
ACAD_GROUP
350
D
  3
ACAD_LAYOUT
350
1A
  3
ACAD_MATERIAL
350
72
  3
ACAD_MLINESTYLE
350
17
  3
ACAD_PLOTSETTINGS
350
19
  3
ACAD_PLOTSTYLENAME
350
E
  3
ACDBHEADERROUNDTRIPXREC
350
B92
  3
AcDbVariableDictionary
350
66
  0
DICTIONARY
  5
16A
330
2
100
AcDbDictionary
280
     1
281
     1
  3
ACAD_LAYERSTATES
360
16B
  0
DICTIONARY
  5
7DF
330
7DE
100
AcDbDictionary
280
     1
281
     1
  3
ACAD_DIMASSOC
360
7E0
  0
DICTIONARY
  5
7EC
330
7EB
100
AcDbDictionary
280
     1
281
     1
  3
ACAD_DIMASSOC
360
7ED
  0
DICTIONARY
  5
7EF
330
7EE
100
AcDbDictionary
280
     1
281
     1
  3
ACAD_DIMASSOC
360
7F0
  0
DICTIONARY
  5
7F3
330
7F2
100
AcDbDictionary
280
     1
281
     1
  3
ACAD_DIMASSOC
360
7F4
  0
DICTIONARY
  5
7F6
330
7F5
100
AcDbDictionary
280
     1
281
     1
  3
ACAD_DIMASSOC
360
7F7
  0
DICTIONARY
  5
73
102
{ACAD_REACTORS
330
C
102
}
330
C
100
AcDbDictionary
281
     1
  0
DICTIONARY
  5
D
102
{ACAD_REACTORS
330
C
102
}
330
C
100
AcDbDictionary
281
     1
  0
DICTIONARY
  5
1A
102
{ACAD_REACTORS
330
C
102
}
330
C
100
AcDbDictionary
281
     1
  3
Layout1
350
59
  3
Layout2
350
5E
  3
Model
350
22
  0
DICTIONARY
  5
72
102
{ACAD_REACTORS
330
C
102
}
330
C
100
AcDbDictionary
281
     1
  0
DICTIONARY
  5
17
102
{ACAD_REACTORS
330
C
102
}
330
C
100
AcDbDictionary
281
     1
  3
Standard
350
18
  0
DICTIONARY
  5
19
102
{ACAD_REACTORS
330
C
102
}
330
C
100
AcDbDictionary
281
     1
  0
ACDBDICTIONARYWDFLT
  5
E
102
{ACAD_REACTORS
330
C
102
}
330
C
100
AcDbDictionary
281
     1
  3
Normal
350
F
100
AcDbDictionaryWithDefault
340
F
  0
DICTIONARY
  5
B92
102
{ACAD_REACTORS
330
C
102
}
330
C
100
AcDbDictionary
281
     1
  3
COLORDICT
350
B94
  3
MATERIALDICT
350
B93
  0
DICTIONARY
  5
66
102
{ACAD_REACTORS
330
C
102
}
330
C
100
AcDbDictionary
281
     1
  3
DIMASSOC
350
67
  3
HIDETEXT
350
6B
  3
PROJECTNAME
350
5E7
  0
DICTIONARY
  5
16B
102
{ACAD_REACTORS
330
16A
102
}
330
16A
100
AcDbDictionary
281
     1
  0
DIMASSOC
  5
7E0
102
{ACAD_REACTORS
330
7DF
102
}
330
7DF
100
AcDbDimAssoc
330
7DE
 90
        2
 70
     0
 71
     0
  1
AcDbOsnapPointRef
 72
     3
331
7B1
 73
     2
 91
        0
 40
0.0
 10
0.0
 20
0.0
 30
0.0
 75
     0
  0
DIMASSOC
  5
7ED
102
{ACAD_REACTORS
330
7EC
102
}
330
7EC
100
AcDbDimAssoc
330
7EB
 90
        2
 70
     0
 71
     0
  1
AcDbOsnapPointRef
 72
     1
331
7C8
 73
     2
 91
        0
 40
1.0
 10
0.0
 20
0.0
 30
2.000000000000000E+50
 75
     0
  0
DIMASSOC
  5
7F0
102
{ACAD_REACTORS
330
7EF
102
}
330
7EF
100
AcDbDimAssoc
330
7EE
 90
        2
 70
     0
 71
     0
  1
AcDbOsnapPointRef
 72
     3
331
7EA
 73
     2
 91
        0
 40
0.0
 10
0.0
 20
0.0
 30
0.0
 75
     0
  0
DIMASSOC
  5
7F4
102
{ACAD_REACTORS
330
7F3
102
}
330
7F3
100
AcDbDimAssoc
330
7F2
 90
        2
 70
     0
 71
     0
  1
AcDbOsnapPointRef
 72
     3
331
7EA
 73
     2
 91
        0
 40
0.0
 10
0.0
 20
0.0
 30
0.0
 75
     0
  0
DIMASSOC
  5
7F7
102
{ACAD_REACTORS
330
7F6
102
}
330
7F6
100
AcDbDimAssoc
330
7F5
 90
        2
 70
     0
 71
     0
  1
AcDbOsnapPointRef
 72
     3
331
7BE
 73
     2
 91
        0
 40
0.0
 10
0.0
 20
0.0
 30
0.0
 75
     0
  0
LAYOUT
  5
59
102
{ACAD_XDICTIONARY
360
B97
102
}
102
{ACAD_REACTORS
330
1A
102
}
330
1A
100
AcDbPlotSettings
  1

  2
None
  4

  6

 40
0.0
 41
0.0
 42
0.0
 43
0.0
 44
0.0
 45
0.0
 46
0.0
 47
0.0
 48
0.0
 49
0.0
140
0.0
141
0.0
142
1.0
143
1.0
 70
   688
 72
     0
 73
     0
 74
     5
  7

 75
    16
147
1.0
148
0.0
149
0.0
100
AcDbLayout
  1
Layout1
 70
     1
 71
     1
 10
0.0
 20
0.0
 11
12.0
 21
9.0
 12
0.0
 22
0.0
 32
0.0
 14
0.0
 24
0.0
 34
0.0
 15
0.0
 25
0.0
 35
0.0
146
0.0
 13
0.0
 23
0.0
 33
0.0
 16
1.0
 26
0.0
 36
0.0
 17
0.0
 27
1.0
 37
0.0
 76
     0
330
58
  0
LAYOUT
  5
5E
102
{ACAD_XDICTIONARY
360
B99
102
}
102
{ACAD_REACTORS
330
1A
102
}
330
1A
100
AcDbPlotSettings
  1

  2
None
  4

  6

 40
0.0
 41
0.0
 42
0.0
 43
0.0
 44
0.0
 45
0.0
 46
0.0
 47
0.0
 48
0.0
 49
0.0
140
0.0
141
0.0
142
1.0
143
1.0
 70
   688
 72
     0
 73
     0
 74
     5
  7

 75
    16
147
1.0
148
0.0
149
0.0
100
AcDbLayout
  1
Layout2
 70
     1
 71
     2
 10
0.0
 20
0.0
 11
12.0
 21
9.0
 12
0.0
 22
0.0
 32
0.0
 14
0.0
 24
0.0
 34
0.0
 15
0.0
 25
0.0
 35
0.0
146
0.0
 13
0.0
 23
0.0
 33
0.0
 16
1.0
 26
0.0
 36
0.0
 17
0.0
 27
1.0
 37
0.0
 76
     0
330
5D
  0
LAYOUT
  5
22
102
{ACAD_XDICTIONARY
360
B95
102
}
102
{ACAD_REACTORS
330
1A
102
}
330
1A
100
AcDbPlotSettings
  1

  2
none_device
  4
ANSI_A_(8.50_x_11.00_Inches)
  6

 40
6.349999904632567
 41
19.04999923706055
 42
6.350006103515625
 43
19.04998779296875
 44
215.8999938964844
 45
279.3999938964844
 46
0.0
 47
0.0
 48
0.0
 49
0.0
140
0.0
141
0.0
142
1.0
143
2.584895464708373
 70
 11952
 72
     0
 73
     1
 74
     0
  7

 75
     0
147
0.3868628397755418
148
0.0
149
0.0
100
AcDbLayout
  1
Model
 70
     1
 71
     0
 10
0.0
 20
0.0
 11
12.0
 21
9.0
 12
0.0
 22
0.0
 32
0.0
 14
0.0
 24
0.0
 34
0.0
 15
0.0
 25
0.0
 35
0.0
146
0.0
 13
0.0
 23
0.0
 33
0.0
 16
1.0
 26
0.0
 36
0.0
 17
0.0
 27
1.0
 37
0.0
 76
     0
330
1F
  0
MLINESTYLE
  5
18
102
{ACAD_REACTORS
330
17
102
}
330
17
100
AcDbMlineStyle
  2
STANDARD
 70
     0
  3

 62
   256
 51
90.0
 52
90.0
 71
     2
 49
0.5
 62
   256
  6
BYLAYER
 49
-0.5
 62
   256
  6
BYLAYER
  0
ACDBPLACEHOLDER
  5
F
102
{ACAD_REACTORS
330
E
102
}
330
E
  0
XRECORD
  5
B94
102
{ACAD_REACTORS
330
B92
102
}
330
B92
100
AcDbXrecord
280
     1
340
73
  0
XRECORD
  5
B93
102
{ACAD_REACTORS
330
B92
102
}
330
B92
100
AcDbXrecord
280
     1
340
72
  0
DICTIONARYVAR
  5
67
102
{ACAD_REACTORS
330
66
102
}
330
66
100
DictionaryVariables
280
     0
  1
2
  0
DICTIONARYVAR
  5
6B
102
{ACAD_REACTORS
330
66
102
}
330
66
100
DictionaryVariables
280
     0
  1
1
  0
DICTIONARYVAR
  5
5E7
102
{ACAD_REACTORS
330
66
102
}
330
66
100
DictionaryVariables
280
     0
  1

  0
DICTIONARY
  5
B97
330
59
100
AcDbDictionary
280
     1
281
     1
  3
ACAD_XREC_ROUNDTRIP
360
B98
  0
DICTIONARY
  5
B99
330
5E
100
AcDbDictionary
280
     1
281
     1
  3
ACAD_XREC_ROUNDTRIP
360
B9A
  0
DICTIONARY
  5
B95
330
22
100
AcDbDictionary
280
     1
281
     1
  3
ACAD_XREC_ROUNDTRIP
360
B96
  0
XRECORD
  5
B98
102
{ACAD_REACTORS
330
B97
102
}
330
B97
100
AcDbXrecord
280
     1
102
SHADEPLOT
 70
     0
102
SHADEPLOTRESLEVEL
 70
     2
102
SHADEPLOTCUSTOMDPI
 70
   300
  0
XRECORD
  5
B9A
102
{ACAD_REACTORS
330
B99
102
}
330
B99
100
AcDbXrecord
280
     1
102
SHADEPLOT
 70
     0
102
SHADEPLOTRESLEVEL
 70
     2
102
SHADEPLOTCUSTOMDPI
 70
   300
  0
XRECORD
  5
B96
102
{ACAD_REACTORS
330
B95
102
}
330
B95
100
AcDbXrecord
280
     1
102
SHADEPLOT
 70
     0
102
SHADEPLOTRESLEVEL
 70
     2
102
SHADEPLOTCUSTOMDPI
 70
   300
  0
ENDSEC
  0
EOF
