  0
SECTION
  2
HEADER
  9
$ACADVER
  1
AC1015
  9
$ACADMAINTVER
 70
    20
  9
$DWGCODEPAGE
  3
ANSI_1252
  9
$INSBASE
 10
0.0
 20
0.0
 30
0.0
  9
$EXTMIN
 10
-186.7689034585765
 20
-157.1234399738735
 30
0.0
  9
$EXTMAX
 10
-129.7709695160393
 20
-82.12343997387336
 30
0.0
  9
$LIMMIN
 10
0.0
 20
0.0
  9
$LIMMAX
 10
12.0
 20
9.0
  9
$ORTHOMODE
 70
     1
  9
$REGENMODE
 70
     1
  9
$FILLMODE
 70
     1
  9
$QTEXTMODE
 70
     0
  9
$MIRRTEXT
 70
     0
  9
$LTSCALE
 40
1.0
  9
$ATTMODE
 70
     1
  9
$TEXTSIZE
 40
0.2
  9
$TRACEWID
 40
0.05
  9
$TEXTSTYLE
  7
Standard
  9
$CLAYER
  8
0
  9
$CELTYPE
  6
ByLayer
  9
$CECOLOR
 62
   256
  9
$CELTSCALE
 40
1.0
  9
$DISPSILH
 70
     0
  9
$DIMSCALE
 40
1.0
  9
$DIMASZ
 40
1.0
  9
$DIMEXO
 40
0.2
  9
$DIMDLI
 40
0.38
  9
$DIMRND
 40
0.0
  9
$DIMDLE
 40
0.0
  9
$DIMEXE
 40
0.18
  9
$DIMTP
 40
0.0
  9
$DIMTM
 40
0.0
  9
$DIMTXT
 40
1.0
  9
$DIMCEN
 40
0.09
  9
$DIMTSZ
 40
0.0
  9
$DIMTOL
 70
     0
  9
$DIMLIM
 70
     0
  9
$DIMTIH
 70
     1
  9
$DIMTOH
 70
     1
  9
$DIMSE1
 70
     0
  9
$DIMSE2
 70
     0
  9
$DIMTAD
 70
     0
  9
$DIMZIN
 70
     0
  9
$DIMBLK
  1

  9
$DIMASO
 70
     1
  9
$DIMSHO
 70
     1
  9
$DIMPOST
  1

  9
$DIMAPOST
  1

  9
$DIMALT
 70
     0
  9
$DIMALTD
 70
     2
  9
$DIMALTF
 40
25.4
  9
$DIMLFAC
 40
1.0
  9
$DIMTOFL
 70
     0
  9
$DIMTVP
 40
0.0
  9
$DIMTIX
 70
     0
  9
$DIMSOXD
 70
     0
  9
$DIMSAH
 70
     0
  9
$DIMBLK1
  1

  9
$DIMBLK2
  1

  9
$DIMSTYLE
  2
Standard
  9
$DIMCLRD
 70
     0
  9
$DIMCLRE
 70
     0
  9
$DIMCLRT
 70
     0
  9
$DIMTFAC
 40
1.0
  9
$DIMGAP
 40
0.09
  9
$DIMJUST
 70
     0
  9
$DIMSD1
 70
     0
  9
$DIMSD2
 70
     0
  9
$DIMTOLJ
 70
     1
  9
$DIMTZIN
 70
     0
  9
$DIMALTZ
 70
     0
  9
$DIMALTTZ
 70
     0
  9
$DIMUPT
 70
     0
  9
$DIMDEC
 70
     3
  9
$DIMTDEC
 70
     3
  9
$DIMALTU
 70
     2
  9
$DIMALTTD
 70
     2
  9
$DIMTXSTY
  7
Standard
  9
$DIMAUNIT
 70
     0
  9
$DIMADEC
 70
     0
  9
$DIMALTRND
 40
0.0
  9
$DIMAZIN
 70
     0
  9
$DIMDSEP
 70
    46
  9
$DIMATFIT
 70
     3
  9
$DIMFRAC
 70
     0
  9
$DIMLDRBLK
  1

  9
$DIMLUNIT
 70
     2
  9
$DIMLWD
 70
    -2
  9
$DIMLWE
 70
    -2
  9
$DIMTMOVE
 70
     0
  9
$LUNITS
 70
     2
  9
$LUPREC
 70
     4
  9
$SKETCHINC
 40
0.1
  9
$FILLETRAD
 40
0.0
  9
$AUNITS
 70
     0
  9
$AUPREC
 70
     0
  9
$MENU
  1
.
  9
$ELEVATION
 40
0.0
  9
$PELEVATION
 40
0.0
  9
$THICKNESS
 40
0.0
  9
$LIMCHECK
 70
     0
  9
$CHAMFERA
 40
0.0
  9
$CHAMFERB
 40
0.0
  9
$CHAMFERC
 40
0.0
  9
$CHAMFERD
 40
0.0
  9
$SKPOLY
 70
     0
  9
$TDCREATE
 40
2455303.322888970
  9
$TDUCREATE
 40
2455303.489555637
  9
$TDUPDATE
 40
2455727.408176713
  9
$TDUUPDATE
 40
2455727.574843380
  9
$TDINDWG
 40
0.0322284259
  9
$TDUSRTIMER
 40
0.0322284259
  9
$USRTIMER
 70
     1
  9
$ANGBASE
 50
0.0
  9
$ANGDIR
 70
     0
  9
$PDMODE
 70
     0
  9
$PDSIZE
 40
0.0
  9
$PLINEWID
 40
0.0
  9
$SPLFRAME
 70
     0
  9
$SPLINETYPE
 70
     6
  9
$SPLINESEGS
 70
     8
  9
$HANDSEED
  5
C23
  9
$SURFTAB1
 70
     6
  9
$SURFTAB2
 70
     6
  9
$SURFTYPE
 70
     6
  9
$SURFU
 70
     6
  9
$SURFV
 70
     6
  9
$UCSBASE
  2

  9
$UCSNAME
  2

  9
$UCSORG
 10
-164.404936487308
 20
-136.6839399738733
 30
0.0
  9
$UCSXDIR
 10
1.0
 20
0.0
 30
0.0
  9
$UCSYDIR
 10
0.0
 20
1.0
 30
0.0
  9
$UCSORTHOREF
  2

  9
$UCSORTHOVIEW
 70
     0
  9
$UCSORGTOP
 10
0.0
 20
0.0
 30
0.0
  9
$UCSORGBOTTOM
 10
0.0
 20
0.0
 30
0.0
  9
$UCSORGLEFT
 10
0.0
 20
0.0
 30
0.0
  9
$UCSORGRIGHT
 10
0.0
 20
0.0
 30
0.0
  9
$UCSORGFRONT
 10
0.0
 20
0.0
 30
0.0
  9
$UCSORGBACK
 10
0.0
 20
0.0
 30
0.0
  9
$PUCSBASE
  2

  9
$PUCSNAME
  2

  9
$PUCSORG
 10
0.0
 20
0.0
 30
0.0
  9
$PUCSXDIR
 10
1.0
 20
0.0
 30
0.0
  9
$PUCSYDIR
 10
0.0
 20
1.0
 30
0.0
  9
$PUCSORTHOREF
  2

  9
$PUCSORTHOVIEW
 70
     0
  9
$PUCSORGTOP
 10
0.0
 20
0.0
 30
0.0
  9
$PUCSORGBOTTOM
 10
0.0
 20
0.0
 30
0.0
  9
$PUCSORGLEFT
 10
0.0
 20
0.0
 30
0.0
  9
$PUCSORGRIGHT
 10
0.0
 20
0.0
 30
0.0
  9
$PUCSORGFRONT
 10
0.0
 20
0.0
 30
0.0
  9
$PUCSORGBACK
 10
0.0
 20
0.0
 30
0.0
  9
$USERI1
 70
     0
  9
$USERI2
 70
     0
  9
$USERI3
 70
     0
  9
$USERI4
 70
     0
  9
$USERI5
 70
     0
  9
$USERR1
 40
0.0
  9
$USERR2
 40
0.0
  9
$USERR3
 40
0.0
  9
$USERR4
 40
0.0
  9
$USERR5
 40
0.0
  9
$WORLDVIEW
 70
     1
  9
$SHADEDGE
 70
     3
  9
$SHADEDIF
 70
    70
  9
$TILEMODE
 70
     1
  9
$MAXACTVP
 70
    64
  9
$PINSBASE
 10
0.0
 20
0.0
 30
0.0
  9
$PLIMCHECK
 70
     0
  9
$PEXTMIN
 10
0.0
 20
0.0
 30
0.0
  9
$PEXTMAX
 10
0.0
 20
0.0
 30
0.0
  9
$PLIMMIN
 10
0.0
 20
0.0
  9
$PLIMMAX
 10
12.0
 20
9.0
  9
$UNITMODE
 70
     0
  9
$VISRETAIN
 70
     1
  9
$PLINEGEN
 70
     0
  9
$PSLTSCALE
 70
     1
  9
$TREEDEPTH
 70
  3020
  9
$CMLSTYLE
  2
Standard
  9
$CMLJUST
 70
     0
  9
$CMLSCALE
 40
1.0
  9
$PROXYGRAPHICS
 70
     1
  9
$MEASUREMENT
 70
     0
  9
$CELWEIGHT
370
    -1
  9
$ENDCAPS
280
     0
  9
$JOINSTYLE
280
     0
  9
$LWDISPLAY
290
     0
  9
$INSUNITS
 70
     1
  9
$HYPERLINKBASE
  1

  9
$STYLESHEET
  1

  9
$XEDIT
290
     1
  9
$CEPSNTYPE
380
     0
  9
$PSTYLEMODE
290
     1
  9
$FINGERPRINTGUID
  2
{FDEAD576-A652-11D2-9A35-0060089B3A3F}
  9
$VERSIONGUID
  2
{B2DC4C2C-10DF-4C19-9561-400F0BF3AEDB}
  9
$EXTNAMES
290
     1
  9
$PSVPSCALE
 40
0.0
  9
$OLESTARTUP
290
     0
  0
ENDSEC
  0
SECTION
  2
CLASSES
  0
CLASS
  1
ACDBDICTIONARYWDFLT
  2
AcDbDictionaryWithDefault
  3
ObjectDBX Classes
 90
        0
280
     0
281
     0
  0
CLASS
  1
ACDBPLACEHOLDER
  2
AcDbPlaceHolder
  3
ObjectDBX Classes
 90
        0
280
     0
281
     0
  0
CLASS
  1
LAYOUT
  2
AcDbLayout
  3
ObjectDBX Classes
 90
        0
280
     0
281
     0
  0
CLASS
  1
DICTIONARYVAR
  2
AcDbDictionaryVar
  3
ObjectDBX Classes
 90
        0
280
     0
281
     0
  0
CLASS
  1
DIMASSOC
  2
AcDbDimAssoc
  3
"AcDbDimAssoc|Product Desc:     AcDim ARX App For Dimension|Company:          Autodesk, Inc.|WEB Address:      www.autodesk.com"
 90
        0
280
     0
281
     0
  0
ENDSEC
  0
SECTION
  2
TABLES
  0
TABLE
  2
VPORT
  5
8
330
0
100
AcDbSymbolTable
 70
     2
  0
VPORT
  5
C19
330
8
100
AcDbSymbolTableRecord
100
AcDbViewportTableRecord
  2
*Active
 70
     0
 10
0.0
 20
0.0
 11
1.0
 21
1.0
 12
-168.8934011041991
 22
-107.9510792247048
 13
0.0
 23
0.0
 14
0.5
 24
0.5
 15
0.5
 25
0.5
 16
0.0
 26
0.0
 36
1.0
 17
0.0
 27
0.0
 37
0.0
 40
76.46039715782556
 41
2.028571428571428
 42
50.0
 43
0.0
 44
0.0
 50
0.0
 51
0.0
 71
     0
 72
  1000
 73
     1
 74
     3
 75
     0
 76
     0
 77
     0
 78
     0
281
     0
 65
     1
110
-164.404936487308
120
-136.6839399738733
130
0.0
111
1.0
121
0.0
131
0.0
112
0.0
122
1.0
132
0.0
 79
     0
146
0.0
  0
ENDTAB
  0
TABLE
  2
LTYPE
  5
5
330
0
100
AcDbSymbolTable
 70
     3
  0
LTYPE
  5
14
330
5
100
AcDbSymbolTableRecord
100
AcDbLinetypeTableRecord
  2
ByBlock
 70
     0
  3

 72
    65
 73
     0
 40
0.0
  0
LTYPE
  5
15
330
5
100
AcDbSymbolTableRecord
100
AcDbLinetypeTableRecord
  2
ByLayer
 70
     0
  3

 72
    65
 73
     0
 40
0.0
  0
LTYPE
  5
16
330
5
100
AcDbSymbolTableRecord
100
AcDbLinetypeTableRecord
  2
Continuous
 70
     0
  3
Solid line
 72
    65
 73
     0
 40
0.0
  0
LTYPE
  5
11D
330
5
100
AcDbSymbolTableRecord
100
AcDbLinetypeTableRecord
  2
DASHED
 70
     0
  3
__ __ __ __ __ __ __ __ __ __ __ __ __ __ __ __
 72
    65
 73
     2
 40
0.75
 49
0.5
 74
     0
 49
-0.25
 74
     0
  0
LTYPE
  5
11E
330
5
100
AcDbSymbolTableRecord
100
AcDbLinetypeTableRecord
  2
HIDDEN
 70
     0
  3
__ __ __ __ __ __ __ __ __ __ __ __ __ __ __ __
 72
    65
 73
     2
 40
0.375
 49
0.25
 74
     0
 49
-0.125
 74
     0
  0
ENDTAB
  0
TABLE
  2
LAYER
  5
2
102
{ACAD_XDICTIONARY
360
126
102
}
330
0
100
AcDbSymbolTable
 70
     9
  0
LAYER
  5
10
330
2
100
AcDbSymbolTableRecord
100
AcDbLayerTableRecord
  2
0
 70
     0
 62
     7
  6
Continuous
370
    -3
390
F
  0
LAYER
  5
11F
330
2
100
AcDbSymbolTableRecord
100
AcDbLayerTableRecord
  2
Defpoints
 70
     0
 62
     7
  6
Continuous
290
     0
370
    -3
390
F
  0
LAYER
  5
120
330
2
100
AcDbSymbolTableRecord
100
AcDbLayerTableRecord
  2
DIM
 70
     0
 62
     7
  6
Continuous
370
    -3
390
F
  0
LAYER
  5
121
330
2
100
AcDbSymbolTableRecord
100
AcDbLayerTableRecord
  2
TEXT
 70
     0
 62
    -7
  6
Continuous
370
    -3
390
F
  0
LAYER
  5
122
330
2
100
AcDbSymbolTableRecord
100
AcDbLayerTableRecord
  2
TEMPLATE
 70
     0
 62
     7
  6
Continuous
370
    -3
390
F
  0
LAYER
  5
123
330
2
100
AcDbSymbolTableRecord
100
AcDbLayerTableRecord
  2
DIMENSION
 70
     0
 62
     7
  6
Continuous
370
    -3
390
F
  0
LAYER
  5
124
330
2
100
AcDbSymbolTableRecord
100
AcDbLayerTableRecord
  2
THERMOSTATCVR
 70
     0
 62
     7
  6
Continuous
370
    -3
390
F
  0
LAYER
  5
125
330
2
100
AcDbSymbolTableRecord
100
AcDbLayerTableRecord
  2
BORDER
 70
     0
 62
     7
  6
Continuous
370
    -3
390
F
  0
LAYER
  5
6FD
330
2
100
AcDbSymbolTableRecord
100
AcDbLayerTableRecord
  2
Washer
 70
     0
 62
     7
  6
Continuous
370
    -3
390
F
  0
ENDTAB
  0
TABLE
  2
STYLE
  5
3
330
0
100
AcDbSymbolTable
 70
     1
  0
STYLE
  5
11
330
3
100
AcDbSymbolTableRecord
100
AcDbTextStyleTableRecord
  2
Standard
 70
     0
 40
0.0
 41
1.0
 50
0.0
 71
     0
 42
0.2
  3
txt
  4

  0
ENDTAB
  0
TABLE
  2
VIEW
  5
6
330
0
100
AcDbSymbolTable
 70
     0
  0
ENDTAB
  0
TABLE
  2
UCS
  5
7
330
0
100
AcDbSymbolTable
 70
     0
  0
ENDTAB
  0
TABLE
  2
APPID
  5
9
330
0
100
AcDbSymbolTable
 70
     1
  0
APPID
  5
12
330
9
100
AcDbSymbolTableRecord
100
AcDbRegAppTableRecord
  2
ACAD
 70
     0
  0
ENDTAB
  0
TABLE
  2
DIMSTYLE
  5
A
330
0
100
AcDbSymbolTable
 70
     1
100
AcDbDimStyleTable
 71
     1
340
27
  0
DIMSTYLE
105
27
102
{ACAD_REACTORS
330
433
330
435
330
443
330
446
330
460
330
461
330
462
330
463
330
464
330
465
330
466
330
467
330
468
330
469
330
46A
330
46B
330
432
330
9B3
330
A17
330
A2B
330
A3F
330
A60
330
A69
330
436
330
438
102
}
330
A
100
AcDbSymbolTableRecord
100
AcDbDimStyleTableRecord
  2
Standard
 70
     0
 41
1.0
 42
0.2
140
1.0
271
     3
272
     3
340
11
  0
ENDTAB
  0
TABLE
  2
BLOCK_RECORD
  5
1
330
0
100
AcDbSymbolTable
 70
    24
  0
BLOCK_RECORD
  5
1F
330
1
100
AcDbSymbolTableRecord
100
AcDbBlockTableRecord
  2
*Model_Space
340
22
  0
BLOCK_RECORD
  5
58
330
1
100
AcDbSymbolTableRecord
100
AcDbBlockTableRecord
  2
*Paper_Space
340
59
  0
BLOCK_RECORD
  5
5D
330
1
100
AcDbSymbolTableRecord
100
AcDbBlockTableRecord
  2
*Paper_Space0
340
5E
  0
BLOCK_RECORD
  5
46C
330
1
100
AcDbSymbolTableRecord
100
AcDbBlockTableRecord
  2
*D1
340
0
  0
BLOCK_RECORD
  5
47C
330
1
100
AcDbSymbolTableRecord
100
AcDbBlockTableRecord
  2
*D2
340
0
  0
BLOCK_RECORD
  5
484
330
1
100
AcDbSymbolTableRecord
100
AcDbBlockTableRecord
  2
*D3
340
0
  0
BLOCK_RECORD
  5
48C
330
1
100
AcDbSymbolTableRecord
100
AcDbBlockTableRecord
  2
*D4
340
0
  0
BLOCK_RECORD
  5
496
330
1
100
AcDbSymbolTableRecord
100
AcDbBlockTableRecord
  2
*D5
340
0
  0
BLOCK_RECORD
  5
49E
330
1
100
AcDbSymbolTableRecord
100
AcDbBlockTableRecord
  2
*D6
340
0
  0
BLOCK_RECORD
  5
4A6
330
1
100
AcDbSymbolTableRecord
100
AcDbBlockTableRecord
  2
*D7
340
0
  0
BLOCK_RECORD
  5
4AE
330
1
100
AcDbSymbolTableRecord
100
AcDbBlockTableRecord
  2
*D8
340
0
  0
BLOCK_RECORD
  5
4B6
330
1
100
AcDbSymbolTableRecord
100
AcDbBlockTableRecord
  2
*D9
340
0
  0
BLOCK_RECORD
  5
4BE
330
1
100
AcDbSymbolTableRecord
100
AcDbBlockTableRecord
  2
*D10
340
0
  0
BLOCK_RECORD
  5
4C6
330
1
100
AcDbSymbolTableRecord
100
AcDbBlockTableRecord
  2
*D11
340
0
  0
BLOCK_RECORD
  5
4CE
330
1
100
AcDbSymbolTableRecord
100
AcDbBlockTableRecord
  2
*D12
340
0
  0
BLOCK_RECORD
  5
4D6
330
1
100
AcDbSymbolTableRecord
100
AcDbBlockTableRecord
  2
*D13
340
0
  0
BLOCK_RECORD
  5
4DE
330
1
100
AcDbSymbolTableRecord
100
AcDbBlockTableRecord
  2
*D14
340
0
  0
BLOCK_RECORD
  5
4E8
330
1
100
AcDbSymbolTableRecord
100
AcDbBlockTableRecord
  2
*D15
340
0
  0
BLOCK_RECORD
  5
4F0
330
1
100
AcDbSymbolTableRecord
100
AcDbBlockTableRecord
  2
*D16
340
0
  0
BLOCK_RECORD
  5
4F8
330
1
100
AcDbSymbolTableRecord
100
AcDbBlockTableRecord
  2
*D17
340
0
  0
BLOCK_RECORD
  5
9B4
330
1
100
AcDbSymbolTableRecord
100
AcDbBlockTableRecord
  2
*D18
340
0
  0
BLOCK_RECORD
  5
A18
330
1
100
AcDbSymbolTableRecord
100
AcDbBlockTableRecord
  2
*D19
340
0
  0
BLOCK_RECORD
  5
A2C
330
1
100
AcDbSymbolTableRecord
100
AcDbBlockTableRecord
  2
*D20
340
0
  0
BLOCK_RECORD
  5
A40
330
1
100
AcDbSymbolTableRecord
100
AcDbBlockTableRecord
  2
*D21
340
0
  0
BLOCK_RECORD
  5
A61
330
1
100
AcDbSymbolTableRecord
100
AcDbBlockTableRecord
  2
*D22
340
0
  0
BLOCK_RECORD
  5
A6A
330
1
100
AcDbSymbolTableRecord
100
AcDbBlockTableRecord
  2
*D23
340
0
  0
ENDTAB
  0
ENDSEC
  0
SECTION
  2
BLOCKS
  0
BLOCK
  5
20
330
1F
100
AcDbEntity
  8
0
100
AcDbBlockBegin
  2
*Model_Space
 70
     0
 10
0.0
 20
0.0
 30
0.0
  3
*Model_Space
  1

  0
ENDBLK
  5
21
330
1F
100
AcDbEntity
  8
0
100
AcDbBlockEnd
  0
BLOCK
  5
5A
330
58
100
AcDbEntity
 67
     1
  8
0
100
AcDbBlockBegin
  2
*Paper_Space
 70
     0
 10
0.0
 20
0.0
 30
0.0
  3
*Paper_Space
  1

  0
ENDBLK
  5
5B
330
58
100
AcDbEntity
 67
     1
  8
0
100
AcDbBlockEnd
  0
BLOCK
  5
5F
330
5D
100
AcDbEntity
  8
0
100
AcDbBlockBegin
  2
*Paper_Space0
 70
     0
 10
0.0
 20
0.0
 30
0.0
  3
*Paper_Space0
  1

  0
ENDBLK
  5
60
330
5D
100
AcDbEntity
  8
0
100
AcDbBlockEnd
  0
BLOCK
  5
472
330
46C
100
AcDbEntity
  8
0
100
AcDbBlockBegin
  2
*D1
 70
     1
 10
0.0
 20
0.0
 30
0.0
  3
*D1
  1

  0
LINE
  5
AA7
330
46C
100
AcDbEntity
  8
DIM
 62
     0
370
    -2
100
AcDbLine
 10
-154.5209364873082
 20
-130.9139399738733
 30
0.0
 11
-154.5209364873082
 21
-139.9419024246576
 31
0.0
  0
MTEXT
  5
AA8
330
46C
100
AcDbEntity
  8
DIM
 62
     0
100
AcDbMText
 10
-154.5209364873082
 20
-142.0319024246577
 30
0.0
 40
1.0
 41
0.0
 71
     5
 72
     1
  1
\A1;9.884
 11
0.0000000000000001
 21
1.0
 31
0.0
 73
     1
 44
1.0
1001
ACAD
1000
MTEXTBEGIN
1070
    73
1070
     1
1070
    44
1040
1.0
1070
    74
1070
     0
1000
MTEXTEND
  0
POINT
  5
AA9
330
46C
100
AcDbEntity
  8
Defpoints
 62
     0
100
AcDbPoint
 10
-154.5209364873082
 20
-130.7139399738733
 30
0.0
  0
POINT
  5
AAA
330
46C
100
AcDbEntity
  8
Defpoints
 62
     0
100
AcDbPoint
 10
-154.5209364873082
 20
-139.9419024246576
 30
0.0
  0
POINT
  5
AAB
330
46C
100
AcDbEntity
  8
Defpoints
 62
     0
100
AcDbPoint
 10
-164.4049851348832
 20
-132.6539494650816
 30
0.0
  0
ENDBLK
  5
473
330
46C
100
AcDbEntity
  8
0
100
AcDbBlockEnd
  0
BLOCK
  5
482
330
47C
100
AcDbEntity
  8
0
100
AcDbBlockBegin
  2
*D2
 70
     1
 10
0.0
 20
0.0
 30
0.0
  3
*D2
  1

  0
LINE
  5
AAC
330
47C
100
AcDbEntity
  8
DIM
 62
     0
370
    -2
100
AcDbLine
 10
-152.134936487308
 20
-136.8539399738732
 30
0.0
 11
-152.134936487308
 21
-139.4141388690848
 31
0.0
  0
MTEXT
  5
AAD
330
47C
100
AcDbEntity
  8
DIM
 62
     0
100
AcDbMText
 10
-152.134936487308
 20
-141.7541388690848
 30
0.0
 40
1.0
 41
0.0
 71
     5
 72
     1
  1
\A1;12.270
 11
0.0000000000000001
 21
1.0
 31
0.0
 73
     1
 44
1.0
1001
ACAD
1000
MTEXTBEGIN
1070
    73
1070
     1
1070
    44
1040
1.0
1070
    74
1070
     0
1000
MTEXTEND
  0
POINT
  5
AAE
330
47C
100
AcDbEntity
  8
Defpoints
 62
     0
100
AcDbPoint
 10
-152.134936487308
 20
-136.6539399738733
 30
0.0
  0
POINT
  5
AAF
330
47C
100
AcDbEntity
  8
Defpoints
 62
     0
100
AcDbPoint
 10
-152.134936487308
 20
-139.4141388690848
 30
0.0
  0
POINT
  5
AB0
330
47C
100
AcDbEntity
  8
Defpoints
 62
     0
100
AcDbPoint
 10
-164.4049851348832
 20
-132.6539494650816
 30
0.0
  0
ENDBLK
  5
483
330
47C
100
AcDbEntity
  8
0
100
AcDbBlockEnd
  0
BLOCK
  5
48A
330
484
100
AcDbEntity
  8
0
100
AcDbBlockBegin
  2
*D3
 70
     1
 10
0.0
 20
0.0
 30
0.0
  3
*D3
  1

  0
LINE
  5
AB1
330
484
100
AcDbEntity
  8
DIM
 62
     0
370
    -2
100
AcDbLine
 10
-158.200936487308
 20
-115.5939399738733
 30
0.0
 11
-158.200936487308
 21
-140.1262407346236
 31
0.0
  0
MTEXT
  5
AB2
330
484
100
AcDbEntity
  8
DIM
 62
     0
100
AcDbMText
 10
-158.200936487308
 20
-142.1329074012903
 30
0.0
 40
1.0
 41
0.0
 71
     5
 72
     1
  1
\A1;6.204
 11
0.0000000000000001
 21
1.0
 31
0.0
 73
     1
 44
1.0
1001
ACAD
1000
MTEXTBEGIN
1070
    73
1070
     1
1070
    44
1040
1.0
1070
    74
1070
     0
1000
MTEXTEND
  0
POINT
  5
AB3
330
484
100
AcDbEntity
  8
Defpoints
 62
     0
100
AcDbPoint
 10
-158.200936487308
 20
-115.3939399738733
 30
0.0
  0
POINT
  5
AB4
330
484
100
AcDbEntity
  8
Defpoints
 62
     0
100
AcDbPoint
 10
-158.200936487308
 20
-140.1262407346236
 30
0.0
  0
POINT
  5
AB5
330
484
100
AcDbEntity
  8
Defpoints
 62
     0
100
AcDbPoint
 10
-164.4049851348832
 20
-132.6539494650816
 30
0.0
  0
ENDBLK
  5
48B
330
484
100
AcDbEntity
  8
0
100
AcDbBlockEnd
  0
BLOCK
  5
494
330
48C
100
AcDbEntity
  8
0
100
AcDbBlockBegin
  2
*D4
 70
     1
 10
0.0
 20
0.0
 30
0.0
  3
*D4
  1

  0
LINE
  5
AB6
330
48C
100
AcDbEntity
  8
DIM
 62
     0
370
    -2
100
AcDbLine
 10
-160.700936487308
 20
-113.3439399738733
 30
0.0
 11
-160.700936487308
 21
-136.1063584924697
 31
0.0
  0
LINE
  5
AB7
330
48C
100
AcDbEntity
  8
DIM
 62
     0
370
    -2
100
AcDbLine
 10
-160.700936487308
 20
-136.1063584924697
 30
0.0
 11
-159.5202818394587
 21
-138.1063584924697
 31
0.0
  0
LINE
  5
AB8
330
48C
100
AcDbEntity
  8
DIM
 62
     0
370
    -2
100
AcDbLine
 10
-159.5202818394587
 20
-138.1063584924697
 30
0.0
 11
-159.5202818394587
 21
-140.1063584924697
 31
0.0
  0
MTEXT
  5
AB9
330
48C
100
AcDbEntity
  8
DIM
 62
     0
100
AcDbMText
 10
-159.5202818394587
 20
-142.1130251591364
 30
0.0
 40
1.0
 41
0.0
 71
     5
 72
     1
  1
\A1;3.704
 11
0.0000000000000001
 21
1.0
 31
0.0
 73
     1
 44
1.0
1001
ACAD
1000
MTEXTBEGIN
1070
    73
1070
     1
1070
    44
1040
1.0
1070
    74
1070
     0
1000
MTEXTEND
  0
POINT
  5
ABA
330
48C
100
AcDbEntity
  8
Defpoints
 62
     0
100
AcDbPoint
 10
-160.700936487308
 20
-113.1439399738733
 30
0.0
  0
POINT
  5
ABB
330
48C
100
AcDbEntity
  8
Defpoints
 62
     0
100
AcDbPoint
 10
-159.5202818394587
 20
-140.1063584924697
 30
0.0
  0
POINT
  5
ABC
330
48C
100
AcDbEntity
  8
Defpoints
 62
     0
100
AcDbPoint
 10
-164.4049851348832
 20
-132.6539494650816
 30
0.0
  0
ENDBLK
  5
495
330
48C
100
AcDbEntity
  8
0
100
AcDbBlockEnd
  0
BLOCK
  5
49C
330
496
100
AcDbEntity
  8
0
100
AcDbBlockBegin
  2
*D5
 70
     1
 10
0.0
 20
0.0
 30
0.0
  3
*D5
  1

  0
LINE
  5
ABD
330
496
100
AcDbEntity
  8
DIM
 62
     0
370
    -2
100
AcDbLine
 10
-164.604936487308
 20
-136.6839399738733
 30
0.0
 11
-168.3949976199035
 21
-136.6839399738733
 31
0.0
  0
MTEXT
  5
ABE
330
496
100
AcDbEntity
  8
DIM
 62
     0
100
AcDbMText
 10
-170.1516642865701
 20
-136.6839399738733
 30
0.0
 40
1.0
 41
0.0
 71
     5
 72
     1
  1
\A1;0.000
 73
     1
 44
1.0
1001
ACAD
1000
MTEXTBEGIN
1070
    73
1070
     1
1070
    44
1040
1.0
1070
    74
1070
     0
1000
MTEXTEND
  0
POINT
  5
ABF
330
496
100
AcDbEntity
  8
Defpoints
 62
     0
100
AcDbPoint
 10
-164.404936487308
 20
-136.6839399738733
 30
0.0
  0
POINT
  5
AC0
330
496
100
AcDbEntity
  8
Defpoints
 62
     0
100
AcDbPoint
 10
-168.3949976199035
 20
-136.6839399738733
 30
0.0
  0
POINT
  5
AC1
330
496
100
AcDbEntity
  8
Defpoints
 62
     0
100
AcDbPoint
 10
-164.404936487308
 20
-136.6839399738733
 30
0.0
  0
ENDBLK
  5
49D
330
496
100
AcDbEntity
  8
0
100
AcDbBlockEnd
  0
BLOCK
  5
4A4
330
49E
100
AcDbEntity
  8
0
100
AcDbBlockBegin
  2
*D6
 70
     1
 10
0.0
 20
0.0
 30
0.0
  3
*D6
  1

  0
LINE
  5
AC2
330
49E
100
AcDbEntity
  8
DIM
 62
     0
370
    -2
100
AcDbLine
 10
-162.2209364873081
 20
-130.7139399738733
 30
0.0
 11
-168.4358805601343
 21
-130.7139399738733
 31
0.0
  0
MTEXT
  5
AC3
330
49E
100
AcDbEntity
  8
DIM
 62
     0
100
AcDbMText
 10
-170.4425472268009
 20
-130.7139399738733
 30
0.0
 40
1.0
 41
0.0
 71
     5
 72
     1
  1
\A1;5.970
 73
     1
 44
1.0
1001
ACAD
1000
MTEXTBEGIN
1070
    73
1070
     1
1070
    44
1040
1.0
1070
    74
1070
     0
1000
MTEXTEND
  0
POINT
  5
AC4
330
49E
100
AcDbEntity
  8
Defpoints
 62
     0
100
AcDbPoint
 10
-162.0209364873081
 20
-130.7139399738733
 30
0.0
  0
POINT
  5
AC5
330
49E
100
AcDbEntity
  8
Defpoints
 62
     0
100
AcDbPoint
 10
-168.4358805601343
 20
-130.7139399738733
 30
0.0
  0
POINT
  5
AC6
330
49E
100
AcDbEntity
  8
Defpoints
 62
     0
100
AcDbPoint
 10
-164.404936487308
 20
-136.6839399738733
 30
0.0
  0
ENDBLK
  5
4A5
330
49E
100
AcDbEntity
  8
0
100
AcDbBlockEnd
  0
BLOCK
  5
4AC
330
4A6
100
AcDbEntity
  8
0
100
AcDbBlockBegin
  2
*D7
 70
     1
 10
0.0
 20
0.0
 30
0.0
  3
*D7
  1

  0
LINE
  5
AC7
330
4A6
100
AcDbEntity
  8
DIM
 62
     0
370
    -2
100
AcDbLine
 10
-154.3209364873082
 20
-117.7139399738733
 30
0.0
 11
-147.9336482337205
 21
-117.7139399738733
 31
0.0
  0
MTEXT
  5
AC8
330
4A6
100
AcDbEntity
  8
DIM
 62
     0
100
AcDbMText
 10
-145.5936482337205
 20
-117.7139399738733
 30
0.0
 40
1.0
 41
0.0
 71
     5
 72
     1
  1
\A1;18.970
 73
     1
 44
1.0
1001
ACAD
1000
MTEXTBEGIN
1070
    73
1070
     1
1070
    44
1040
1.0
1070
    74
1070
     0
1000
MTEXTEND
  0
POINT
  5
AC9
330
4A6
100
AcDbEntity
  8
Defpoints
 62
     0
100
AcDbPoint
 10
-154.5209364873082
 20
-117.7139399738733
 30
0.0
  0
POINT
  5
ACA
330
4A6
100
AcDbEntity
  8
Defpoints
 62
     0
100
AcDbPoint
 10
-147.9336482337205
 20
-117.7139399738733
 30
0.0
  0
POINT
  5
ACB
330
4A6
100
AcDbEntity
  8
Defpoints
 62
     0
100
AcDbPoint
 10
-164.404936487308
 20
-136.6839399738733
 30
0.0
  0
ENDBLK
  5
4AD
330
4A6
100
AcDbEntity
  8
0
100
AcDbBlockEnd
  0
BLOCK
  5
4B4
330
4AE
100
AcDbEntity
  8
0
100
AcDbBlockBegin
  2
*D8
 70
     1
 10
0.0
 20
0.0
 30
0.0
  3
*D8
  1

  0
LINE
  5
ACC
330
4AE
100
AcDbEntity
  8
DIM
 62
     0
370
    -2
100
AcDbLine
 10
-158.000936487308
 20
-115.3939399738734
 30
0.0
 11
-148.048167767691
 21
-115.3939399738734
 31
0.0
  0
MTEXT
  5
ACD
330
4AE
100
AcDbEntity
  8
DIM
 62
     0
100
AcDbMText
 10
-145.708167767691
 20
-115.3939399738734
 30
0.0
 40
1.0
 41
0.0
 71
     5
 72
     1
  1
\A1;21.290
 73
     1
 44
1.0
1001
ACAD
1000
MTEXTBEGIN
1070
    73
1070
     1
1070
    44
1040
1.0
1070
    74
1070
     0
1000
MTEXTEND
  0
POINT
  5
ACE
330
4AE
100
AcDbEntity
  8
Defpoints
 62
     0
100
AcDbPoint
 10
-158.200936487308
 20
-115.3939399738734
 30
0.0
  0
POINT
  5
ACF
330
4AE
100
AcDbEntity
  8
Defpoints
 62
     0
100
AcDbPoint
 10
-148.048167767691
 20
-115.3939399738734
 30
0.0
  0
POINT
  5
AD0
330
4AE
100
AcDbEntity
  8
Defpoints
 62
     0
100
AcDbPoint
 10
-164.404936487308
 20
-136.6839399738733
 30
0.0
  0
ENDBLK
  5
4B5
330
4AE
100
AcDbEntity
  8
0
100
AcDbBlockEnd
  0
BLOCK
  5
4BC
330
4B6
100
AcDbEntity
  8
0
100
AcDbBlockBegin
  2
*D9
 70
     1
 10
0.0
 20
0.0
 30
0.0
  3
*D9
  1

  0
LINE
  5
AD1
330
4B6
100
AcDbEntity
  8
DIM
 62
     0
370
    -2
100
AcDbLine
 10
-158.0009364873088
 20
-113.8939399738734
 30
0.0
 11
-148.445430985561
 21
-113.8939399738734
 31
0.0
  0
MTEXT
  5
AD2
330
4B6
100
AcDbEntity
  8
DIM
 62
     0
100
AcDbMText
 10
-145.9387643188943
 20
-113.8939399738734
 30
0.0
 40
1.0
 41
0.0
 71
     5
 72
     1
  1
\A1;22.790
 73
     1
 44
1.0
1001
ACAD
1000
MTEXTBEGIN
1070
    73
1070
     1
1070
    44
1040
1.0
1070
    74
1070
     0
1000
MTEXTEND
  0
POINT
  5
AD3
330
4B6
100
AcDbEntity
  8
Defpoints
 62
     0
100
AcDbPoint
 10
-158.2009364873088
 20
-113.8939399738734
 30
0.0
  0
POINT
  5
AD4
330
4B6
100
AcDbEntity
  8
Defpoints
 62
     0
100
AcDbPoint
 10
-148.445430985561
 20
-113.8939399738734
 30
0.0
  0
POINT
  5
AD5
330
4B6
100
AcDbEntity
  8
Defpoints
 62
     0
100
AcDbPoint
 10
-164.404936487308
 20
-136.6839399738733
 30
0.0
  0
ENDBLK
  5
4BD
330
4B6
100
AcDbEntity
  8
0
100
AcDbBlockEnd
  0
BLOCK
  5
4C4
330
4BE
100
AcDbEntity
  8
0
100
AcDbBlockBegin
  2
*D10
 70
     1
 10
0.0
 20
0.0
 30
0.0
  3
*D10
  1

  0
LINE
  5
AD6
330
4BE
100
AcDbEntity
  8
DIM
 62
     0
370
    -2
100
AcDbLine
 10
-160.900936487308
 20
-113.1439399738734
 30
0.0
 11
-168.4206706474526
 21
-113.1439399738734
 31
0.0
  0
MTEXT
  5
AD7
330
4BE
100
AcDbEntity
  8
DIM
 62
     0
100
AcDbMText
 10
-170.9273373141193
 20
-113.1439399738734
 30
0.0
 40
1.0
 41
0.0
 71
     5
 72
     1
  1
\A1;23.540
 73
     1
 44
1.0
1001
ACAD
1000
MTEXTBEGIN
1070
    73
1070
     1
1070
    44
1040
1.0
1070
    74
1070
     0
1000
MTEXTEND
  0
POINT
  5
AD8
330
4BE
100
AcDbEntity
  8
Defpoints
 62
     0
100
AcDbPoint
 10
-160.700936487308
 20
-113.1439399738734
 30
0.0
  0
POINT
  5
AD9
330
4BE
100
AcDbEntity
  8
Defpoints
 62
     0
100
AcDbPoint
 10
-168.4206706474526
 20
-113.1439399738734
 30
0.0
  0
POINT
  5
ADA
330
4BE
100
AcDbEntity
  8
Defpoints
 62
     0
100
AcDbPoint
 10
-164.404936487308
 20
-136.6839399738733
 30
0.0
  0
ENDBLK
  5
4C5
330
4BE
100
AcDbEntity
  8
0
100
AcDbBlockEnd
  0
BLOCK
  5
4CC
330
4C6
100
AcDbEntity
  8
0
100
AcDbBlockBegin
  2
*D11
 70
     1
 10
0.0
 20
0.0
 30
0.0
  3
*D11
  1

  0
LINE
  5
ADB
330
4C6
100
AcDbEntity
  8
DIM
 62
     0
370
    -2
100
AcDbLine
 10
-164.0081864873081
 20
-111.6549399738734
 30
0.0
 11
-168.3488362452203
 21
-111.6549399738734
 31
0.0
  0
MTEXT
  5
ADC
330
4C6
100
AcDbEntity
  8
DIM
 62
     0
100
AcDbMText
 10
-170.7721695785537
 20
-111.6549399738734
 30
0.0
 40
1.0
 41
0.0
 71
     5
 72
     1
  1
\A1;25.030
 73
     1
 44
1.0
1001
ACAD
1000
MTEXTBEGIN
1070
    73
1070
     1
1070
    44
1040
1.0
1070
    74
1070
     0
1000
MTEXTEND
  0
POINT
  5
ADD
330
4C6
100
AcDbEntity
  8
Defpoints
 62
     0
100
AcDbPoint
 10
-163.8081864873081
 20
-111.6549399738734
 30
0.0
  0
POINT
  5
ADE
330
4C6
100
AcDbEntity
  8
Defpoints
 62
     0
100
AcDbPoint
 10
-168.3488362452203
 20
-111.6549399738734
 30
0.0
  0
POINT
  5
ADF
330
4C6
100
AcDbEntity
  8
Defpoints
 62
     0
100
AcDbPoint
 10
-164.404936487308
 20
-136.6839399738733
 30
0.0
  0
ENDBLK
  5
4CD
330
4C6
100
AcDbEntity
  8
0
100
AcDbBlockEnd
  0
BLOCK
  5
4D4
330
4CE
100
AcDbEntity
  8
0
100
AcDbBlockBegin
  2
*D12
 70
     1
 10
0.0
 20
0.0
 30
0.0
  3
*D12
  1

  0
LINE
  5
AE0
330
4CE
100
AcDbEntity
  8
DIM
 62
     0
370
    -2
100
AcDbLine
 10
-164.2209364873082
 20
-104.7139399738733
 30
0.0
 11
-168.3719592131988
 21
-104.7139399738733
 31
0.0
  0
MTEXT
  5
AE1
330
4CE
100
AcDbEntity
  8
DIM
 62
     0
100
AcDbMText
 10
-170.7119592131988
 20
-104.7139399738733
 30
0.0
 40
1.0
 41
0.0
 71
     5
 72
     1
  1
\A1;31.970
 73
     1
 44
1.0
1001
ACAD
1000
MTEXTBEGIN
1070
    73
1070
     1
1070
    44
1040
1.0
1070
    74
1070
     0
1000
MTEXTEND
  0
POINT
  5
AE2
330
4CE
100
AcDbEntity
  8
Defpoints
 62
     0
100
AcDbPoint
 10
-164.0209364873082
 20
-104.7139399738733
 30
0.0
  0
POINT
  5
AE3
330
4CE
100
AcDbEntity
  8
Defpoints
 62
     0
100
AcDbPoint
 10
-168.3719592131988
 20
-104.7139399738733
 30
0.0
  0
POINT
  5
AE4
330
4CE
100
AcDbEntity
  8
Defpoints
 62
     0
100
AcDbPoint
 10
-164.404936487308
 20
-136.6839399738733
 30
0.0
  0
ENDBLK
  5
4D5
330
4CE
100
AcDbEntity
  8
0
100
AcDbBlockEnd
  0
BLOCK
  5
4DC
330
4D6
100
AcDbEntity
  8
0
100
AcDbBlockBegin
  2
*D13
 70
     1
 10
0.0
 20
0.0
 30
0.0
  3
*D13
  1

  0
LINE
  5
AE5
330
4D6
100
AcDbEntity
  8
DIM
 62
     0
370
    -2
100
AcDbLine
 10
-153.9271864873076
 20
-107.7964399738733
 30
0.0
 11
-147.9826861398039
 21
-107.7964399738733
 31
0.0
  0
MTEXT
  5
AE6
330
4D6
100
AcDbEntity
  8
DIM
 62
     0
100
AcDbMText
 10
-145.3926861398039
 20
-107.7964399738733
 30
0.0
 40
1.0
 41
0.0
 71
     5
 72
     1
  1
\A1;28.888
 73
     1
 44
1.0
1001
ACAD
1000
MTEXTBEGIN
1070
    73
1070
     1
1070
    44
1040
1.0
1070
    74
1070
     0
1000
MTEXTEND
  0
POINT
  5
AE7
330
4D6
100
AcDbEntity
  8
Defpoints
 62
     0
100
AcDbPoint
 10
-154.1271864873076
 20
-107.7964399738733
 30
0.0
  0
POINT
  5
AE8
330
4D6
100
AcDbEntity
  8
Defpoints
 62
     0
100
AcDbPoint
 10
-147.9826861398039
 20
-107.7964399738733
 30
0.0
  0
POINT
  5
AE9
330
4D6
100
AcDbEntity
  8
Defpoints
 62
     0
100
AcDbPoint
 10
-164.404936487308
 20
-136.6839399738733
 30
0.0
  0
ENDBLK
  5
4DD
330
4D6
100
AcDbEntity
  8
0
100
AcDbBlockEnd
  0
BLOCK
  5
4E6
330
4DE
100
AcDbEntity
  8
0
100
AcDbBlockBegin
  2
*D14
 70
     1
 10
0.0
 20
0.0
 30
0.0
  3
*D14
  1

  0
LINE
  5
AEA
330
4DE
100
AcDbEntity
  8
DIM
 62
     0
370
    -2
100
AcDbLine
 10
-153.927186487308
 20
-103.3464399738734
 30
0.0
 11
-152.1194763344783
 21
-103.3464399738734
 31
0.0
  0
LINE
  5
AEB
330
4DE
100
AcDbEntity
  8
DIM
 62
     0
370
    -2
100
AcDbLine
 10
-152.1194763344783
 20
-103.3464399738734
 30
0.0
 11
-150.1194763344783
 21
-104.2454686167849
 31
0.0
  0
LINE
  5
AEC
330
4DE
100
AcDbEntity
  8
DIM
 62
     0
370
    -2
100
AcDbLine
 10
-150.1194763344783
 20
-104.2454686167849
 30
0.0
 11
-148.1194763344783
 21
-104.2454686167849
 31
0.0
  0
MTEXT
  5
AED
330
4DE
100
AcDbEntity
  8
DIM
 62
     0
100
AcDbMText
 10
-145.5294763344783
 20
-104.2454686167849
 30
0.0
 40
1.0
 41
0.0
 71
     5
 72
     1
  1
\A1;33.338
 73
     1
 44
1.0
1001
ACAD
1000
MTEXTBEGIN
1070
    73
1070
     1
1070
    44
1040
1.0
1070
    74
1070
     0
1000
MTEXTEND
  0
POINT
  5
AEE
330
4DE
100
AcDbEntity
  8
Defpoints
 62
     0
100
AcDbPoint
 10
-154.127186487308
 20
-103.3464399738734
 30
0.0
  0
POINT
  5
AEF
330
4DE
100
AcDbEntity
  8
Defpoints
 62
     0
100
AcDbPoint
 10
-148.1194763344783
 20
-104.2454686167849
 30
0.0
  0
POINT
  5
AF0
330
4DE
100
AcDbEntity
  8
Defpoints
 62
     0
100
AcDbPoint
 10
-164.404936487308
 20
-136.6839399738733
 30
0.0
  0
ENDBLK
  5
4E7
330
4DE
100
AcDbEntity
  8
0
100
AcDbBlockEnd
  0
BLOCK
  5
4EE
330
4E8
100
AcDbEntity
  8
0
100
AcDbBlockBegin
  2
*D15
 70
     1
 10
0.0
 20
0.0
 30
0.0
  3
*D15
  1

  0
LINE
  5
AF1
330
4E8
100
AcDbEntity
  8
DIM
 62
     0
370
    -2
100
AcDbLine
 10
-151.934936487308
 20
-102.5629399738734
 30
0.0
 11
-148.1368402018587
 21
-102.5629399738734
 31
0.0
  0
MTEXT
  5
AF2
330
4E8
100
AcDbEntity
  8
DIM
 62
     0
100
AcDbMText
 10
-145.880173535192
 20
-102.5629399738734
 30
0.0
 40
1.0
 41
0.0
 71
     5
 72
     1
  1
\A1;34.121
 73
     1
 44
1.0
1001
ACAD
1000
MTEXTBEGIN
1070
    73
1070
     1
1070
    44
1040
1.0
1070
    74
1070
     0
1000
MTEXTEND
  0
POINT
  5
AF3
330
4E8
100
AcDbEntity
  8
Defpoints
 62
     0
100
AcDbPoint
 10
-152.134936487308
 20
-102.5629399738734
 30
0.0
  0
POINT
  5
AF4
330
4E8
100
AcDbEntity
  8
Defpoints
 62
     0
100
AcDbPoint
 10
-148.1368402018587
 20
-102.5629399738734
 30
0.0
  0
POINT
  5
AF5
330
4E8
100
AcDbEntity
  8
Defpoints
 62
     0
100
AcDbPoint
 10
-164.404936487308
 20
-136.6839399738733
 30
0.0
  0
ENDBLK
  5
4EF
330
4E8
100
AcDbEntity
  8
0
100
AcDbBlockEnd
  0
BLOCK
  5
4F6
330
4F0
100
AcDbEntity
  8
0
100
AcDbBlockBegin
  2
*D16
 70
     1
 10
0.0
 20
0.0
 30
0.0
  3
*D16
  1

  0
LINE
  5
AF6
330
4F0
100
AcDbEntity
  8
DIM
 62
     0
370
    -2
100
AcDbLine
 10
-164.0081864873081
 20
-102.9049399738733
 30
0.0
 11
-168.3449249431067
 21
-102.9049399738733
 31
0.0
  0
MTEXT
  5
AF7
330
4F0
100
AcDbEntity
  8
DIM
 62
     0
100
AcDbMText
 10
-170.8515916097733
 20
-102.9049399738733
 30
0.0
 40
1.0
 41
0.0
 71
     5
 72
     1
  1
\A1;33.780
 73
     1
 44
1.0
1001
ACAD
1000
MTEXTBEGIN
1070
    73
1070
     1
1070
    44
1040
1.0
1070
    74
1070
     0
1000
MTEXTEND
  0
POINT
  5
AF8
330
4F0
100
AcDbEntity
  8
Defpoints
 62
     0
100
AcDbPoint
 10
-163.8081864873081
 20
-102.9049399738733
 30
0.0
  0
POINT
  5
AF9
330
4F0
100
AcDbEntity
  8
Defpoints
 62
     0
100
AcDbPoint
 10
-168.3449249431067
 20
-102.9049399738733
 30
0.0
  0
POINT
  5
AFA
330
4F0
100
AcDbEntity
  8
Defpoints
 62
     0
100
AcDbPoint
 10
-164.404936487308
 20
-136.6839399738733
 30
0.0
  0
ENDBLK
  5
4F7
330
4F0
100
AcDbEntity
  8
0
100
AcDbBlockEnd
  0
BLOCK
  5
4FE
330
4F8
100
AcDbEntity
  8
0
100
AcDbBlockBegin
  2
*D17
 70
     1
 10
0.0
 20
0.0
 30
0.0
  3
*D17
  1

  0
LINE
  5
AFB
330
4F8
100
AcDbEntity
  8
DIM
 62
     0
370
    -2
100
AcDbLine
 10
-162.0209364873081
 20
-130.9139399738733
 30
0.0
 11
-162.0209364873082
 21
-140.0230251591363
 31
0.0
  0
MTEXT
  5
AFC
330
4F8
100
AcDbEntity
  8
DIM
 62
     0
100
AcDbMText
 10
-162.0209364873082
 20
-142.1130251591364
 30
0.0
 40
1.0
 41
0.0
 71
     5
 72
     1
  1
\A1;2.384
 11
0.0000000000000001
 21
1.0
 31
0.0
 73
     1
 44
1.0
1001
ACAD
1000
MTEXTBEGIN
1070
    73
1070
     1
1070
    44
1040
1.0
1070
    74
1070
     0
1000
MTEXTEND
  0
POINT
  5
AFD
330
4F8
100
AcDbEntity
  8
Defpoints
 62
     0
100
AcDbPoint
 10
-162.0209364873081
 20
-130.7139399738733
 30
0.0
  0
POINT
  5
AFE
330
4F8
100
AcDbEntity
  8
Defpoints
 62
     0
100
AcDbPoint
 10
-162.0209364873082
 20
-140.0230251591363
 30
0.0
  0
POINT
  5
AFF
330
4F8
100
AcDbEntity
  8
Defpoints
 62
     0
100
AcDbPoint
 10
-164.4049851348832
 20
-132.6539494650816
 30
0.0
  0
ENDBLK
  5
4FF
330
4F8
100
AcDbEntity
  8
0
100
AcDbBlockEnd
  0
BLOCK
  5
9BD
330
9B4
100
AcDbEntity
  8
0
100
AcDbBlockBegin
  2
*D18
 70
     1
 10
0.0
 20
0.0
 30
0.0
  3
*D18
  1

  0
LINE
  5
BE2
330
9B4
100
AcDbEntity
  8
0
 62
     0
370
    -2
100
AcDbLine
 10
-167.3585172288348
 20
-119.7507864784469
 30
0.0
 11
-166.3585172288347
 21
-119.7507864784469
 31
0.0
  0
LINE
  5
BE3
330
9B4
100
AcDbEntity
  8
0
 62
     0
370
    -2
100
AcDbLine
 10
-166.3585172288347
 20
-119.7507864784469
 30
0.0
 11
-161.7578874997876
 21
-114.3782331145887
 31
0.0
  0
MTEXT
  5
BE4
330
9B4
100
AcDbEntity
  8
0
 62
     0
100
AcDbMText
 10
-167.4485172288346
 20
-123.5841198117802
 30
0.0
 40
1.0
 41
0.0
 71
     9
 72
     1
  1
\A1;\U+22051.250 (1)\POPTIONAL:\PETHERNET \PCONNECTION\PPORT
 73
     1
 44
1.0
1001
ACAD
1000
MTEXTBEGIN
1070
    73
1070
     1
1070
    44
1040
1.0
1070
    74
1070
     0
1000
MTEXTEND
  0
SOLID
  5
BE5
330
9B4
100
AcDbEntity
  8
0
 62
     0
100
AcDbTrace
 10
-161.8844816680661
 20
-114.2698278825395
 30
0.0
 11
-161.6312933315091
 21
-114.486638346638
 31
0.0
 12
-161.1074561074921
 22
-113.6186681049177
 32
0.0
 13
-161.1074561074921
 23
-113.6186681049177
 33
0.0
  0
LINE
  5
BE6
330
9B4
100
AcDbEntity
  8
0
 62
     0
370
    -2
100
AcDbLine
 10
-160.7909364873073
 20
-113.1439399738733
 30
0.0
 11
-160.6109364873073
 21
-113.1439399738734
 31
0.0
  0
LINE
  5
BE7
330
9B4
100
AcDbEntity
  8
0
 62
     0
370
    -2
100
AcDbLine
 10
-160.7009364873073
 20
-113.2339399738733
 30
0.0
 11
-160.7009364873073
 21
-113.0539399738733
 31
0.0
  0
POINT
  5
BE8
330
9B4
100
AcDbEntity
  8
Defpoints
 62
     0
100
AcDbPoint
 10
-161.1074561074921
 20
-113.6186681049177
 30
0.0
  0
POINT
  5
BE9
330
9B4
100
AcDbEntity
  8
Defpoints
 62
     0
100
AcDbPoint
 10
-160.2944168671226
 20
-112.6692118428289
 30
0.0
  0
ENDBLK
  5
9BE
330
9B4
100
AcDbEntity
  8
0
100
AcDbBlockEnd
  0
BLOCK
  5
A20
330
A18
100
AcDbEntity
  8
0
100
AcDbBlockBegin
  2
*D19
 70
     1
 10
0.0
 20
0.0
 30
0.0
  3
*D19
  1

  0
LINE
  5
BEA
330
A18
100
AcDbEntity
  8
0
 62
     0
370
    -2
100
AcDbLine
 10
-163.8544364873082
 20
-135.9664399738738
 30
0.0
 11
-165.6544364873082
 21
-135.9664399738738
 31
0.0
  0
LINE
  5
BEB
330
A18
100
AcDbEntity
  8
0
 62
     0
370
    -2
100
AcDbLine
 10
-165.6544364873082
 20
-135.9664399738738
 30
0.0
 11
-166.1883417657013
 21
-135.3496909784503
 31
0.0
  0
LINE
  5
BEC
330
A18
100
AcDbEntity
  8
0
 62
     0
370
    -2
100
AcDbLine
 10
-166.1883417657013
 20
-135.3496909784503
 30
0.0
 11
-168.1883417657013
 21
-135.3496909784503
 31
0.0
  0
MTEXT
  5
BED
330
A18
100
AcDbEntity
  8
0
 62
     0
100
AcDbMText
 10
-170.0283417657013
 20
-135.3496909784503
 30
0.0
 40
1.0
 41
0.0
 71
     5
 72
     1
  1
\A1;0.718
 73
     1
 44
1.0
1001
ACAD
1000
MTEXTBEGIN
1070
    73
1070
     1
1070
    44
1040
1.0
1070
    74
1070
     0
1000
MTEXTEND
  0
POINT
  5
BEE
330
A18
100
AcDbEntity
  8
Defpoints
 62
     0
100
AcDbPoint
 10
-163.6544364873082
 20
-135.9664399738738
 30
0.0
  0
POINT
  5
BEF
330
A18
100
AcDbEntity
  8
Defpoints
 62
     0
100
AcDbPoint
 10
-168.1883417657013
 20
-135.3496909784503
 30
0.0
  0
POINT
  5
BF0
330
A18
100
AcDbEntity
  8
Defpoints
 62
     0
100
AcDbPoint
 10
-164.404936487308
 20
-136.6839399738733
 30
0.0
  0
ENDBLK
  5
A21
330
A18
100
AcDbEntity
  8
0
100
AcDbBlockEnd
  0
BLOCK
  5
A34
330
A2C
100
AcDbEntity
  8
0
100
AcDbBlockBegin
  2
*D20
 70
     1
 10
0.0
 20
0.0
 30
0.0
  3
*D20
  1

  0
LINE
  5
BC8
330
A2C
100
AcDbEntity
  8
0
 62
     0
370
    -2
100
AcDbLine
 10
-163.8544364873082
 20
-132.8414399738737
 30
0.0
 11
-165.6544364873082
 21
-132.8414399738737
 31
0.0
  0
LINE
  5
BC9
330
A2C
100
AcDbEntity
  8
0
 62
     0
370
    -2
100
AcDbLine
 10
-165.6544364873082
 20
-132.8414399738737
 30
0.0
 11
-165.9310841981064
 21
-133.210086080848
 31
0.0
  0
LINE
  5
BCA
330
A2C
100
AcDbEntity
  8
0
 62
     0
370
    -2
100
AcDbLine
 10
-165.9310841981064
 20
-133.210086080848
 30
0.0
 11
-167.9310841981064
 21
-133.210086080848
 31
0.0
  0
MTEXT
  5
BCB
330
A2C
100
AcDbEntity
  8
0
 62
     0
100
AcDbMText
 10
-170.0210841981064
 20
-133.210086080848
 30
0.0
 40
1.0
 41
0.0
 71
     5
 72
     1
  1
\A1;3.843
 73
     1
 44
1.0
1001
ACAD
1000
MTEXTBEGIN
1070
    73
1070
     1
1070
    44
1040
1.0
1070
    74
1070
     0
1000
MTEXTEND
  0
POINT
  5
BCC
330
A2C
100
AcDbEntity
  8
Defpoints
 62
     0
100
AcDbPoint
 10
-163.6544364873082
 20
-132.8414399738737
 30
0.0
  0
POINT
  5
BCD
330
A2C
100
AcDbEntity
  8
Defpoints
 62
     0
100
AcDbPoint
 10
-167.9310841981064
 20
-133.210086080848
 30
0.0
  0
POINT
  5
BCE
330
A2C
100
AcDbEntity
  8
Defpoints
 62
     0
100
AcDbPoint
 10
-164.404936487308
 20
-136.6839399738733
 30
0.0
  0
ENDBLK
  5
A35
330
A2C
100
AcDbEntity
  8
0
100
AcDbBlockEnd
  0
BLOCK
  5
A46
330
A40
100
AcDbEntity
  8
0
100
AcDbBlockBegin
  2
*D21
 70
     1
 10
0.0
 20
0.0
 30
0.0
  3
*D21
  1

  0
LINE
  5
BCF
330
A40
100
AcDbEntity
  8
0
 62
     0
370
    -2
100
AcDbLine
 10
-163.6544364873082
 20
-136.1664399738737
 30
0.0
 11
-163.6544364873082
 21
-137.9664399738738
 31
0.0
  0
LINE
  5
BD0
330
A40
100
AcDbEntity
  8
0
 62
     0
370
    -2
100
AcDbLine
 10
-163.6544364873082
 20
-137.9664399738738
 30
0.0
 11
-163.1086323130462
 21
-138.2114422260475
 31
0.0
  0
LINE
  5
BD1
330
A40
100
AcDbEntity
  8
0
 62
     0
370
    -2
100
AcDbLine
 10
-163.1086323130462
 20
-138.2114422260475
 30
0.0
 11
-163.1086323130462
 21
-140.2114422260476
 31
0.0
  0
MTEXT
  5
BD2
330
A40
100
AcDbEntity
  8
0
 62
     0
100
AcDbMText
 10
-163.1086323130462
 20
-142.134775559381
 30
0.0
 40
1.0
 41
0.0
 71
     5
 72
     1
  1
\A1;0.750
 11
0.0000000000000001
 21
1.0
 31
0.0
 73
     1
 44
1.0
1001
ACAD
1000
MTEXTBEGIN
1070
    73
1070
     1
1070
    44
1040
1.0
1070
    74
1070
     0
1000
MTEXTEND
  0
POINT
  5
BD3
330
A40
100
AcDbEntity
  8
Defpoints
 62
     0
100
AcDbPoint
 10
-163.6544364873082
 20
-135.9664399738738
 30
0.0
  0
POINT
  5
BD4
330
A40
100
AcDbEntity
  8
Defpoints
 62
     0
100
AcDbPoint
 10
-163.1086323130462
 20
-140.2114422260476
 30
0.0
  0
POINT
  5
BD5
330
A40
100
AcDbEntity
  8
Defpoints
 62
     0
100
AcDbPoint
 10
-164.404936487308
 20
-136.6839399738733
 30
0.0
  0
ENDBLK
  5
A47
330
A40
100
AcDbEntity
  8
0
100
AcDbBlockEnd
  0
BLOCK
  5
A67
330
A61
100
AcDbEntity
  8
0
100
AcDbBlockBegin
  2
*D22
 70
     1
 10
0.0
 20
0.0
 30
0.0
  3
*D22
  1

  0
LINE
  5
BD6
330
A61
100
AcDbEntity
  8
0
 62
     0
370
    -2
100
AcDbLine
 10
-164.404936487308
 20
-136.8839399738733
 30
0.0
 11
-164.404936487308
 21
-140.4977234115492
 31
0.0
  0
MTEXT
  5
BD7
330
A61
100
AcDbEntity
  8
0
 62
     0
100
AcDbMText
 10
-164.4049364873079
 20
-142.2543900782159
 30
0.0
 40
1.0
 41
0.0
 71
     5
 72
     1
  1
\A1;0.000
 11
0.0000000000000001
 21
1.0
 31
0.0
 73
     1
 44
1.0
1001
ACAD
1000
MTEXTBEGIN
1070
    73
1070
     1
1070
    44
1040
1.0
1070
    74
1070
     0
1000
MTEXTEND
  0
POINT
  5
BD8
330
A61
100
AcDbEntity
  8
Defpoints
 62
     0
100
AcDbPoint
 10
-164.404936487308
 20
-136.6839399738733
 30
0.0
  0
POINT
  5
BD9
330
A61
100
AcDbEntity
  8
Defpoints
 62
     0
100
AcDbPoint
 10
-164.404936487308
 20
-140.4977234115492
 30
0.0
  0
POINT
  5
BDA
330
A61
100
AcDbEntity
  8
Defpoints
 62
     0
100
AcDbPoint
 10
-164.404936487308
 20
-136.6839399738733
 30
0.0
  0
ENDBLK
  5
A68
330
A61
100
AcDbEntity
  8
0
100
AcDbBlockEnd
  0
BLOCK
  5
A72
330
A6A
100
AcDbEntity
  8
0
100
AcDbBlockBegin
  2
*D23
 70
     1
 10
0.0
 20
0.0
 30
0.0
  3
*D23
  1

  0
LINE
  5
BDB
330
A6A
100
AcDbEntity
  8
0
 62
     0
370
    -2
100
AcDbLine
 10
-161.374436487308
 20
-136.1664399738737
 30
0.0
 11
-161.374436487308
 21
-137.9664399738738
 31
0.0
  0
LINE
  5
BDC
330
A6A
100
AcDbEntity
  8
0
 62
     0
370
    -2
100
AcDbLine
 10
-161.374436487308
 20
-137.9664399738738
 30
0.0
 11
-160.8250132682676
 21
-138.3493016876603
 31
0.0
  0
LINE
  5
BDD
330
A6A
100
AcDbEntity
  8
0
 62
     0
370
    -2
100
AcDbLine
 10
-160.8250132682676
 20
-138.3493016876603
 30
0.0
 11
-160.8250132682676
 21
-140.3493016876603
 31
0.0
  0
MTEXT
  5
BDE
330
A6A
100
AcDbEntity
  8
0
 62
     0
100
AcDbMText
 10
-160.8250132682676
 20
-142.2726350209937
 30
0.0
 40
1.0
 41
0.0
 71
     5
 72
     1
  1
\A1;3.030
 11
0.0000000000000001
 21
1.0
 31
0.0
 73
     1
 44
1.0
1001
ACAD
1000
MTEXTBEGIN
1070
    73
1070
     1
1070
    44
1040
1.0
1070
    74
1070
     0
1000
MTEXTEND
  0
POINT
  5
BDF
330
A6A
100
AcDbEntity
  8
Defpoints
 62
     0
100
AcDbPoint
 10
-161.374436487308
 20
-135.9664399738738
 30
0.0
  0
POINT
  5
BE0
330
A6A
100
AcDbEntity
  8
Defpoints
 62
     0
100
AcDbPoint
 10
-160.8250132682676
 20
-140.3493016876603
 30
0.0
  0
POINT
  5
BE1
330
A6A
100
AcDbEntity
  8
Defpoints
 62
     0
100
AcDbPoint
 10
-164.404936487308
 20
-136.6839399738733
 30
0.0
  0
ENDBLK
  5
A73
330
A6A
100
AcDbEntity
  8
0
100
AcDbBlockEnd
  0
ENDSEC
  0
SECTION
  2
ENTITIES
  0
LINE
  5
2CC
330
1F
100
AcDbEntity
  8
BORDER
100
AcDbLine
 10
-139.479275293115
 20
-152.181075335849
 30
0.0
 11
-129.7709695160393
 21
-152.181075335849
 31
0.0
  0
LINE
  5
2CD
330
1F
100
AcDbEntity
  8
THERMOSTATCVR
100
AcDbLine
 10
-152.2744256566015
 20
-154.8060753358489
 30
0.0
 11
-152.2744256566015
 21
-157.1234399738734
 31
0.0
  0
LINE
  5
2CE
330
1F
100
AcDbEntity
  8
THERMOSTATCVR
100
AcDbLine
 10
-144.729275293115
 20
-154.8060753358489
 30
0.0
 11
-152.2744256566015
 21
-154.8060753358489
 31
0.0
  0
LINE
  5
2CF
330
1F
100
AcDbEntity
  8
BORDER
100
AcDbLine
 10
-144.729275293115
 20
-157.1234399738734
 30
0.0
 11
-144.729275293115
 21
-155.0609399738734
 31
0.0
  0
LINE
  5
2D0
330
1F
100
AcDbEntity
  8
BORDER
100
AcDbLine
 10
-144.729275293115
 20
-157.1234399738734
 30
0.0
 11
-152.3456669409624
 21
-157.1234399738734
 31
0.0
  0
TEXT
  5
2D1
330
1F
100
AcDbEntity
  8
TEXT
100
AcDbText
 10
-151.9749711170386
 20
-155.6234399738734
 30
0.0
 40
0.375
  1
PROPRIETARY DRAWING
 72
     1
 11
-148.5374711170386
 21
-155.4359399738734
 31
0.0
100
AcDbText
 73
     2
  0
TEXT
  5
2D2
330
1F
100
AcDbEntity
  8
TEXT
100
AcDbText
 10
-151.6937211170386
 20
-155.9984399738734
 30
0.0
 40
0.1875
  1
THIS DRAWING IS THE PROPERTY OF ICE
 72
     1
 11
-148.5374711170386
 21
-155.9046899738734
 31
0.0
100
AcDbText
 73
     2
  0
TEXT
  5
2D3
330
1F
100
AcDbEntity
  8
TEXT
100
AcDbText
 10
-151.8655961170386
 20
-156.2796899738734
 30
0.0
 40
0.1875
  1
QUBE, INC. AND IS NOT TO BE DUPLICATED
 72
     1
 11
-148.5374711170386
 21
-156.1859399738734
 31
0.0
100
AcDbText
 73
     2
  0
TEXT
  5
2D4
330
1F
100
AcDbEntity
  8
TEXT
100
AcDbText
 10
-151.7249711170386
 20
-156.5609399738734
 30
0.0
 40
0.1875
  1
OR ALTERED WITHOUT AUTHORIZATION OF
 72
     1
 11
-148.5374711170386
 21
-156.4671899738734
 31
0.0
100
AcDbText
 73
     2
  0
TEXT
  5
2D5
330
1F
100
AcDbEntity
  8
TEXT
100
AcDbText
 10
-149.6468461170386
 20
-156.8421899738734
 30
0.0
 40
0.1875
  1
ICE QUBE, INC.
 72
     1
 11
-148.5374711170386
 21
-156.7484399738734
 31
0.0
100
AcDbText
 73
     2
  0
LWPOLYLINE
  5
2D6
330
1F
100
AcDbEntity
  8
BORDER
100
AcDbPolyline
 90
        4
 70
     1
 43
0.0
 10
-186.7689034585765
 20
-82.12343997387336
 10
-129.7709695160393
 20
-82.12343997387336
 10
-129.7709695160393
 20
-157.1234399738734
 10
-186.7689034585765
 20
-157.1234399738734
  0
LINE
  5
2D7
330
1F
100
AcDbEntity
  8
DIMENSION
100
AcDbLine
 10
-144.729275293115
 20
-154.0560753358491
 30
0.0
 11
-144.729275293115
 21
-157.1234399738734
 31
0.0
  0
ARC
  5
2D8
330
1F
100
AcDbEntity
  8
TEXT
100
AcDbCircle
 10
-137.9399711960909
 20
-154.0148325213533
 30
0.0
 40
0.0231324513824081
100
AcDbArc
 50
177.2189023070874
 51
10.5326122645785
  0
ARC
  5
2D9
330
1F
100
AcDbEntity
  8
TEXT
100
AcDbCircle
 10
-137.9795136873376
 20
-153.7809375110797
 30
0.0
 40
0.0285472227785873
100
AcDbArc
 50
218.2556843178653
 51
317.6564247238852
  0
ARC
  5
2DA
330
1F
100
AcDbEntity
  8
TEXT
100
AcDbCircle
 10
-137.9430012930343
 20
-153.8114484385796
 30
0.0
 40
0.019100708380874
100
AcDbArc
 50
48.87596376793556
 51
143.7953529790059
  0
ARC
  5
2DB
330
1F
100
AcDbEntity
  8
TEXT
100
AcDbCircle
 10
-137.9162609390981
 20
-153.7935430372353
 30
0.0
 40
0.0146077050800437
100
AcDbArc
 50
193.9319034609793
 51
333.0378283509304
  0
ARC
  5
2DC
330
1F
100
AcDbEntity
  8
TEXT
100
AcDbCircle
 10
-137.8690899889691
 20
-153.8228403453801
 30
0.0
 40
0.0339385462160546
100
AcDbArc
 50
222.9877626572331
 51
344.3358851615581
  0
ARC
  5
2DD
330
1F
100
AcDbEntity
  8
TEXT
100
AcDbCircle
 10
-137.9042206040246
 20
-153.852658737352
 30
0.0
 40
0.0122790775063352
100
AcDbArc
 50
32.9443583194617
 51
185.0814072168598
  0
LINE
  5
2DE
330
1F
100
AcDbEntity
  8
TEXT
100
AcDbLine
 10
-137.9172285028869
 20
-154.0106040212902
 30
0.0
 11
-137.9164514230327
 21
-153.8537463084049
 31
0.0
  0
LINE
  5
2DF
330
1F
100
AcDbEntity
  8
TEXT
100
AcDbLine
 10
-137.9685159923198
 20
-153.8591819689664
 30
0.0
 11
-137.9630764020464
 21
-154.0137101289478
 31
0.0
  0
ARC
  5
2E0
330
1F
100
AcDbEntity
  8
TEXT
100
AcDbCircle
 10
-137.9821809169982
 20
-153.8503587855695
 30
0.0
 40
0.0162658762973285
100
AcDbArc
 50
327.1504341221703
 51
80.13862259361699
  0
LINE
  5
2E1
330
1F
100
AcDbEntity
  8
TEXT
100
AcDbLine
 10
-138.0160754637632
 20
-153.8287302246029
 30
0.0
 11
-137.9793951415718
 21
-153.8343332376228
 31
0.0
  0
ARC
  5
2E2
330
1F
100
AcDbEntity
  8
TEXT
100
AcDbCircle
 10
-138.0205649523697
 20
-153.8365132471969
 30
0.0
 40
0.0089850402696248
100
AcDbArc
 50
60.02231951668117
 51
227.1694577924197
  0
LINE
  5
2E3
330
1F
100
AcDbEntity
  8
TEXT
100
AcDbLine
 10
-138.023422969561
 20
-153.9225194272473
 30
0.0
 11
-138.026673273243
 21
-153.8431025843986
 31
0.0
  0
ARC
  5
2E4
330
1F
100
AcDbEntity
  8
TEXT
100
AcDbCircle
 10
-138.0431908188344
 20
-153.931065474495
 30
0.0
 40
0.0215360810840735
100
AcDbArc
 50
165.6416373020919
 51
23.37981978602109
  0
LINE
  5
2E5
330
1F
100
AcDbEntity
  8
TEXT
100
AcDbLine
 10
-138.0747466044264
 20
-153.8370416117564
 30
0.0
 11
-138.0640541909276
 21
-153.9257248290884
 31
0.0
  0
ARC
  5
2E6
330
1F
100
AcDbEntity
  8
TEXT
100
AcDbCircle
 10
-138.0969966517793
 20
-153.8399598805946
 30
0.0
 40
0.0224406082855181
100
AcDbArc
 50
7.472141028409517
 51
164.1640293291675
  0
LINE
  5
2E7
330
1F
100
AcDbEntity
  8
TEXT
100
AcDbLine
 10
-138.1175163210107
 20
-153.8498632748002
 30
0.0
 11
-138.1185855686195
 21
-153.8338361913556
 31
0.0
  0
ARC
  5
2E8
330
1F
100
AcDbEntity
  8
TEXT
100
AcDbCircle
 10
-138.1333841210574
 20
-153.8474998072356
 30
0.0
 40
0.0160428506586113
100
AcDbArc
 50
208.706819647663
 51
351.5282258973498
  0
LINE
  5
2E9
330
1F
100
AcDbEntity
  8
TEXT
100
AcDbLine
 10
-138.1570782947685
 20
-153.8327677117021
 30
0.0
 11
-138.1474551288785
 21
-153.8552056359485
 31
0.0
  0
LINE
  5
2EA
330
1F
100
AcDbEntity
  8
TEXT
100
AcDbLine
 10
-138.1485243764874
 20
-153.9193140068463
 30
0.0
 11
-138.1570782947685
 21
-153.8327677117021
 31
0.0
  0
ARC
  5
2EB
330
1F
100
AcDbEntity
  8
TEXT
100
AcDbCircle
 10
-138.1699533656767
 20
-153.9203278813476
 30
0.0
 40
0.0214529606157013
100
AcDbArc
 50
185.8633287467241
 51
2.70882780951028
  0
LINE
  5
2EC
330
1F
100
AcDbEntity
  8
TEXT
100
AcDbLine
 10
-138.1955710522122
 20
-153.8178091079111
 30
0.0
 11
-138.1912940930717
 21
-153.9225194272473
 31
0.0
  0
ARC
  5
2ED
330
1F
100
AcDbEntity
  8
TEXT
100
AcDbCircle
 10
-138.2126866981516
 20
-153.8162892566304
 30
0.0
 40
0.0171829940300718
100
AcDbArc
 50
354.9255052590734
 51
174.3705062402905
  0
LINE
  5
2EE
330
1F
100
AcDbEntity
  8
TEXT
100
AcDbLine
 10
-138.2297868192208
 20
-153.8520002341073
 30
0.0
 11
-138.2297868192208
 21
-153.8146036875101
 31
0.0
  0
ARC
  5
2EF
330
1F
100
AcDbEntity
  8
TEXT
100
AcDbCircle
 10
-138.2423096732092
 20
-153.8567680322206
 30
0.0
 40
0.0133997675676506
100
AcDbArc
 50
168.6772178130464
 51
20.84321825743646
  0
LINE
  5
2F0
330
1F
100
AcDbEntity
  8
TEXT
100
AcDbLine
 10
-138.2661410814469
 20
-153.7985765855058
 30
0.0
 11
-138.2554486366534
 21
-153.8541371748546
 31
0.0
  0
LINE
  5
2F1
330
1F
100
AcDbEntity
  8
TEXT
100
AcDbLine
 10
-138.3206724591387
 20
-153.8316992506082
 30
0.0
 11
-138.3228109543564
 21
-153.7921657632637
 31
0.0
  0
ARC
  5
2F2
330
1F
100
AcDbEntity
  8
TEXT
100
AcDbCircle
 10
-138.3456077653214
 20
-153.8413499664639
 30
0.0
 40
0.0267377226208751
100
AcDbArc
 50
170.7272794785989
 51
21.15794103948643
  0
ARC
  5
2F3
330
1F
100
AcDbEntity
  8
TEXT
100
AcDbCircle
 10
-138.4530933405715
 20
-153.8684449594789
 30
0.0
 40
0.0220548580163534
100
AcDbArc
 50
167.7181143692787
 51
23.98551077365519
  0
ARC
  5
2F4
330
1F
100
AcDbEntity
  8
TEXT
100
AcDbCircle
 10
-138.7467698248238
 20
-153.7930065615491
 30
0.0
 40
0.0254399213638605
100
AcDbArc
 50
225.9317407160003
 51
327.3216812937225
  0
ARC
  5
2F5
330
1F
100
AcDbEntity
  8
TEXT
100
AcDbCircle
 10
-138.3857703075754
 20
-152.2246335308586
 30
0.0
 40
0.0162067155560582
100
AcDbArc
 50
305.0065695458968
 51
188.3798152009864
  0
ARC
  5
2F6
330
1F
100
AcDbEntity
  8
TEXT
100
AcDbCircle
 10
-138.4196427359243
 20
-152.2286310190658
 30
0.0
 40
0.0179135665261037
100
AcDbArc
 50
183.0745908828774
 51
5.238726745824406
  0
ARC
  5
2F7
330
1F
100
AcDbEntity
  8
TEXT
100
AcDbCircle
 10
-138.4539518097635
 20
-152.233485286194
 30
0.0
 40
0.0168765475028194
100
AcDbArc
 50
13.33841226381441
 51
197.9246330182949
  0
ARC
  5
2F8
330
1F
100
AcDbEntity
  8
TEXT
100
AcDbCircle
 10
-138.4786180684462
 20
-152.2194542100949
 30
0.0
 40
0.0210645893546083
100
AcDbArc
 50
191.7667831442131
 51
294.1224948725134
  0
ARC
  5
2F9
330
1F
100
AcDbEntity
  8
TEXT
100
AcDbCircle
 10
-138.5188317724542
 20
-152.2486189636078
 30
0.0
 40
0.0316592602087463
100
AcDbArc
 50
51.76909225769961
 51
154.0890012254434
  0
ARC
  5
2FA
330
1F
100
AcDbEntity
  8
TEXT
100
AcDbCircle
 10
-138.5667068587534
 20
-152.2270723847161
 30
0.0
 40
0.020875287955036
100
AcDbArc
 50
179.7887253899368
 51
338.3185482084487
  0
ARC
  5
2FB
330
1F
100
AcDbEntity
  8
TEXT
100
AcDbCircle
 10
-138.6012259404061
 20
-152.2220880153325
 30
0.0
 40
0.0144996374986018
100
AcDbArc
 50
340.2175703033617
 51
119.5111127021387
  0
ARC
  5
2FC
330
1F
100
AcDbEntity
  8
TEXT
100
AcDbCircle
 10
-138.6205594852191
 20
-152.2131398507895
 30
0.0
 40
0.0127316455850609
100
AcDbArc
 50
208.4553291170971
 51
16.75507449313859
  0
ARC
  5
2FD
330
1F
100
AcDbEntity
  8
TEXT
100
AcDbCircle
 10
-138.6456676718256
 20
-152.2210547490691
 30
0.0
 40
0.0140369251342724
100
AcDbArc
 50
7.567610287757233
 51
183.0538693842451
  0
ARC
  5
2FE
330
1F
100
AcDbEntity
  8
TEXT
100
AcDbCircle
 10
-138.6772598523039
 20
-152.2237171980487
 30
0.0
 40
0.0176791714861173
100
AcDbArc
 50
151.610876507044
 51
6.217261201770668
  0
ARC
  5
2FF
330
1F
100
AcDbEntity
  8
TEXT
100
AcDbCircle
 10
-138.7065804610413
 20
-152.2161101748567
 30
0.0
 40
0.0137907010023787
100
AcDbArc
 50
3.320051391017451
 51
168.5145862198272
  0
ARC
  5
300
330
1F
100
AcDbEntity
  8
TEXT
100
AcDbCircle
 10
-138.7370313034556
 20
-152.2198926051026
 30
0.0
 40
0.0181509847219559
100
AcDbArc
 50
181.9314217622489
 51
21.08009584438979
  0
ARC
  5
301
330
1F
100
AcDbEntity
  8
TEXT
100
AcDbCircle
 10
-138.7757593122342
 20
-152.2338414353086
 30
0.0
 40
0.0245299035452835
100
AcDbArc
 50
32.93635467158781
 51
189.5430854165201
  0
ARC
  5
302
330
1F
100
AcDbEntity
  8
TEXT
100
AcDbCircle
 10
-137.1312580113398
 20
-153.5176678990455
 30
0.0
 40
0.1665620066274168
100
AcDbArc
 50
312.2086974257858
 51
3.264333629957668
  0
ARC
  5
303
330
1F
100
AcDbEntity
  8
TEXT
100
AcDbCircle
 10
-137.1570007774739
 20
-153.4688776202154
 30
0.0
 40
0.2204227936246723
100
AcDbArc
 50
264.6664639047648
 51
308.6423664458139
  0
ARC
  5
304
330
1F
100
AcDbEntity
  8
TEXT
100
AcDbCircle
 10
-137.1763885604035
 20
-153.5013343859334
 30
0.0
 40
0.1870149414703839
100
AcDbArc
 50
231.6935697703411
 51
269.6626044169121
  0
ARC
  5
305
330
1F
100
AcDbEntity
  8
TEXT
100
AcDbCircle
 10
-137.1419074733045
 20
-153.5364109469422
 30
0.0
 40
0.1067527339653107
100
AcDbArc
 50
343.5952529167622
 51
35.13836089167871
  0
ARC
  5
306
330
1F
100
AcDbEntity
  8
TEXT
100
AcDbCircle
 10
-137.1351203161904
 20
-153.5068186284185
 30
0.0
 40
0.0865822445917263
100
AcDbArc
 50
21.58325850317303
 51
95.38396011116695
  0
ARC
  5
307
330
1F
100
AcDbEntity
  8
TEXT
100
AcDbCircle
 10
-137.1575969570472
 20
-153.493577382475
 30
0.0
 40
0.0743573649614326
100
AcDbArc
 50
78.87075864991579
 51
146.7670066549805
  0
ARC
  5
308
330
1F
100
AcDbEntity
  8
TEXT
100
AcDbCircle
 10
-137.1020734412393
 20
-153.5078720027946
 30
0.0
 40
0.1371075361286845
100
AcDbArc
 50
359.8698564192901
 51
62.37231490188348
  0
ARC
  5
309
330
1F
100
AcDbEntity
  8
TEXT
100
AcDbCircle
 10
-137.102217981754
 20
-153.5723089138162
 30
0.0
 40
0.1965295738601858
100
AcDbArc
 50
71.0798858476198
 51
127.1124618564865
  0
LINE
  5
30A
330
1F
100
AcDbEntity
  8
TEXT
100
AcDbLine
 10
-137.2197930905415
 20
-153.4528262020949
 30
0.0
 11
-137.2187858691205
 21
-153.6259433839334
 31
0.0
  0
LINE
  5
30B
330
1F
100
AcDbEntity
  8
TEXT
100
AcDbLine
 10
-137.3416667885932
 20
-153.2797090202561
 30
0.0
 11
-137.2993635202075
 21
-153.2827285099784
 31
0.0
  0
LINE
  5
30C
330
1F
100
AcDbEntity
  8
TEXT
100
AcDbLine
 10
-137.343681231435
 20
-153.2575661389324
 30
0.0
 11
-137.3416667885932
 21
-153.2797090202561
 31
0.0
  0
ARC
  5
30D
330
1F
100
AcDbEntity
  8
TEXT
100
AcDbCircle
 10
-137.371836343037
 20
-152.8024945959901
 30
0.0
 40
0.4559416843250938
100
AcDbArc
 50
273.5403564160214
 51
289.0758016785421
  0
LINE
  5
30E
330
1F
100
AcDbEntity
  8
TEXT
100
AcDbLine
 10
-137.2228260381413
 20
-153.2333991660982
 30
0.0
 11
-137.2208002806676
 21
-153.4155858721599
 31
0.0
  0
LINE
  5
30F
330
1F
100
AcDbEntity
  8
TEXT
100
AcDbLine
 10
-137.2993635202075
 20
-153.2827285099784
 30
0.0
 11
-137.2923129702608
 21
-153.6480862838168
 31
0.0
  0
ARC
  5
310
330
1F
100
AcDbEntity
  8
TEXT
100
AcDbCircle
 10
-137.3673881500551
 20
-153.8967055090552
 30
0.0
 40
0.2367896621663238
100
AcDbArc
 50
88.18956599987521
 51
113.1652090520224
  0
ARC
  5
311
330
1F
100
AcDbEntity
  8
TEXT
100
AcDbCircle
 10
-137.4720956788928
 20
-153.6754883899226
 30
0.0
 40
0.0120820834620641
100
AcDbArc
 50
201.7006027724343
 51
343.0678677067634
  0
LINE
  5
312
330
1F
100
AcDbEntity
  8
TEXT
100
AcDbLine
 10
-137.4842708466055
 20
-153.6439068895536
 30
0.0
 11
-137.4833214891709
 21
-153.6799558192038
 31
0.0
  0
ARC
  5
313
330
1F
100
AcDbEntity
  8
TEXT
100
AcDbCircle
 10
-137.5987870540077
 20
-153.5213925012529
 30
0.0
 40
0.1677013330253736
100
AcDbArc
 50
260.0995263030862
 51
313.0673878832468
  0
ARC
  5
314
330
1F
100
AcDbEntity
  8
TEXT
100
AcDbCircle
 10
-137.6276613787755
 20
-153.6135310581753
 30
0.0
 40
0.0730653629368009
100
AcDbArc
 50
180.7587023263156
 51
270.031539090741
  0
ARC
  5
315
330
1F
100
AcDbEntity
  8
TEXT
100
AcDbCircle
 10
-137.4987873954711
 20
-153.4257032095466
 30
0.0
 40
0.0147177897158776
100
AcDbArc
 50
337.1943218370274
 51
115.6412778855143
  0
LINE
  5
316
330
1F
100
AcDbEntity
  8
TEXT
100
AcDbLine
 10
-137.4842708466055
 20
-153.6126012337712
 30
0.0
 11
-137.485220172745
 21
-153.4314079270353
 31
0.0
  0
LINE
  5
317
330
1F
100
AcDbEntity
  8
TEXT
100
AcDbLine
 10
-137.5393325450739
 20
-153.4105374960336
 30
0.0
 11
-137.5051563033304
 21
-153.4124348130045
 31
0.0
  0
LINE
  5
318
330
1F
100
AcDbEntity
  8
TEXT
100
AcDbLine
 10
-137.5383832189343
 20
-153.3925130219287
 30
0.0
 11
-137.5393325450739
 21
-153.4105374960336
 31
0.0
  0
LINE
  5
319
330
1F
100
AcDbEntity
  8
TEXT
100
AcDbLine
 10
-137.7310992105164
 20
-153.4086401790626
 30
0.0
 11
-137.7510353411019
 21
-153.4057942221658
 31
0.0
  0
LINE
  5
31A
330
1F
100
AcDbEntity
  8
TEXT
100
AcDbLine
 10
-137.7519846672417
 20
-153.3925130219287
 30
0.0
 11
-137.7510353411019
 21
-153.4057942221658
 31
0.0
  0
ARC
  5
31B
330
1F
100
AcDbEntity
  8
TEXT
100
AcDbCircle
 10
-137.7248258173696
 20
-153.4299485631007
 30
0.0
 40
0.0222126696255043
100
AcDbArc
 50
358.6825606331185
 51
106.4049357729542
  0
LINE
  5
31C
330
1F
100
AcDbEntity
  8
TEXT
100
AcDbLine
 10
-137.4168677205529
 20
-153.3877697480609
 30
0.0
 11
-137.4149690369788
 21
-153.6031146860358
 31
0.0
  0
LINE
  5
31D
330
1F
100
AcDbEntity
  8
TEXT
100
AcDbLine
 10
-137.6304691688601
 20
-153.3877697480609
 30
0.0
 11
-137.628570485286
 21
-153.596474095197
 31
0.0
  0
LINE
  5
31E
330
1F
100
AcDbEntity
  8
TEXT
100
AcDbLine
 10
-137.7026190194952
 20
-153.4304592685497
 30
0.0
 11
-137.700720335921
 21
-153.6144985507422
 31
0.0
  0
LINE
  5
31F
330
1F
100
AcDbEntity
  8
TEXT
100
AcDbLine
 10
-137.5383832189343
 20
-153.3925130219287
 30
0.0
 11
-137.4168677205529
 21
-153.3877697480609
 31
0.0
  0
LINE
  5
320
330
1F
100
AcDbEntity
  8
TEXT
100
AcDbLine
 10
-137.7519846672417
 20
-153.3925130219287
 30
0.0
 11
-137.6304691688601
 21
-153.3877697480609
 31
0.0
  0
LINE
  5
321
330
1F
100
AcDbEntity
  8
TEXT
100
AcDbLine
 10
-138.5186188982023
 20
-153.0978797853137
 30
0.0
 11
-138.5301319225478
 21
-153.1237654077687
 31
0.0
  0
ARC
  5
322
330
1F
100
AcDbEntity
  8
TEXT
100
AcDbCircle
 10
-138.5020689374412
 20
-153.0970053028035
 30
0.0
 40
0.0165730480253287
100
AcDbArc
 50
183.0246359049376
 51
356.9753640950624
  0
LINE
  5
323
330
1F
100
AcDbEntity
  8
TEXT
100
AcDbLine
 10
-138.4797624958025
 20
-153.0532989983031
 30
0.0
 11
-138.4855189766805
 21
-153.0978797853137
 31
0.0
  0
ARC
  5
324
330
1F
100
AcDbEntity
  8
TEXT
100
AcDbCircle
 10
-138.4672767052067
 20
-153.0480236860785
 30
0.0
 40
0.0135544784431421
100
AcDbArc
 50
8.122642540875148
 51
202.9043136183462
  0
LINE
  5
325
330
1F
100
AcDbEntity
  8
TEXT
100
AcDbLine
 10
-138.4653711997234
 20
-153.1323939424004
 30
0.0
 11
-138.4538582066728
 21
-153.0461085404036
 31
0.0
  0
ARC
  5
326
330
1F
100
AcDbEntity
  8
TEXT
100
AcDbCircle
 10
-138.4394776574324
 20
-153.1312882991876
 30
0.0
 40
0.025917136787981
100
AcDbArc
 50
182.4450201076249
 51
0.7349407504797704
  0
LINE
  5
327
330
1F
100
AcDbEntity
  8
TEXT
100
AcDbLine
 10
-138.4135626527587
 20
-153.0619275329349
 30
0.0
 11
-138.4135626527587
 21
-153.1309558656683
 31
0.0
  0
ARC
  5
328
330
1F
100
AcDbEntity
  8
TEXT
100
AcDbCircle
 10
-138.3940811856046
 20
-153.0622280101031
 30
0.0
 40
0.0194837842577789
100
AcDbArc
 50
179.1163546128549
 51
32.14670843865869
  0
LINE
  5
329
330
1F
100
AcDbEntity
  8
TEXT
100
AcDbLine
 10
-138.3775844907977
 20
-153.033165738456
 30
0.0
 11
-138.3775844907977
 21
-153.0518609030114
 31
0.0
  0
ARC
  5
32A
330
1F
100
AcDbEntity
  8
TEXT
100
AcDbCircle
 10
-138.3573594490692
 20
-153.0381852053421
 30
0.0
 40
0.0208386026582117
100
AcDbArc
 50
26.60941129939662
 51
166.0619000058105
  0
LINE
  5
32B
330
1F
100
AcDbEntity
  8
TEXT
100
AcDbLine
 10
-138.335849816664
 20
-153.0705560675667
 30
0.0
 11
-138.3387280571032
 21
-153.0288514711399
 31
0.0
  0
ARC
  5
32C
330
1F
100
AcDbEntity
  8
TEXT
100
AcDbCircle
 10
-138.3153127929968
 20
-153.0759085300735
 30
0.0
 40
0.0212230581208989
100
AcDbArc
 50
165.392244650368
 51
2.803879044206376
  0
LINE
  5
32D
330
1F
100
AcDbEntity
  8
TEXT
100
AcDbLine
 10
-138.2926760223112
 20
-153.0202229179485
 30
0.0
 11
-138.2941151425305
 21
-153.0748703534423
 31
0.0
  0
ARC
  5
32E
330
1F
100
AcDbEntity
  8
TEXT
100
AcDbCircle
 10
-138.2463973647174
 20
-153.2453095840092
 30
0.0
 40
0.2297949550948067
100
AcDbArc
 50
60.82353397560607
 51
101.6183182656855
  0
ARC
  5
32F
330
1F
100
AcDbEntity
  8
TEXT
100
AcDbCircle
 10
-138.1778237717984
 20
-153.0768745012233
 30
0.0
 40
0.0540846530434769
100
AcDbArc
 50
335.4827230531633
 51
36.54383594003247
  0
ARC
  5
330
330
1F
100
AcDbEntity
  8
TEXT
100
AcDbCircle
 10
-138.1164253928287
 20
-153.1169891692701
 30
0.0
 40
0.0214680118608068
100
AcDbArc
 50
124.5991194751618
 51
24.91162951380403
  0
ARC
  5
331
330
1F
100
AcDbEntity
  8
TEXT
100
AcDbCircle
 10
-138.0891610580506
 20
-153.0959434572356
 30
0.0
 40
0.0143113016618726
100
AcDbArc
 50
15.46471151433623
 51
237.003605808355
  0
ARC
  5
332
330
1F
100
AcDbEntity
  8
TEXT
100
AcDbCircle
 10
-138.1271694840075
 20
-153.126187173099
 30
0.0
 40
0.0619957321343655
100
AcDbArc
 50
331.8837666959812
 51
33.32508059324513
  0
ARC
  5
333
330
1F
100
AcDbEntity
  8
TEXT
100
AcDbCircle
 10
-138.0588179539181
 20
-153.1708448293159
 30
0.0
 40
0.0206240992388144
100
AcDbArc
 50
131.5213803610228
 51
48.47861963898639
  0
ARC
  5
334
330
1F
100
AcDbEntity
  8
TEXT
100
AcDbCircle
 10
-138.0351964213162
 20
-153.1530962543791
 30
0.0
 40
0.0102138123940189
100
AcDbArc
 50
3.193725348484568
 51
193.0548754998599
  0
ARC
  5
335
330
1F
100
AcDbEntity
  8
TEXT
100
AcDbCircle
 10
-137.9622135080982
 20
-153.1804931879917
 30
0.0
 40
0.0687317033736608
100
AcDbArc
 50
155.990632901348
 51
206.8057304576943
  0
ARC
  5
336
330
1F
100
AcDbEntity
  8
TEXT
100
AcDbCircle
 10
-138.3038432668757
 20
-153.3396782104679
 30
0.0
 40
0.3082070260753686
100
AcDbArc
 50
344.8914411173261
 51
24.57723374822052
  0
ARC
  5
337
330
1F
100
AcDbEntity
  8
TEXT
100
AcDbCircle
 10
-138.1047443947305
 20
-153.4495169179242
 30
0.0
 40
0.1027805697804442
100
AcDbArc
 50
300.6537348898137
 51
16.6824591637594
  0
ARC
  5
338
330
1F
100
AcDbEntity
  8
TEXT
100
AcDbCircle
 10
-138.1962545451266
 20
-153.6692470834299
 30
0.0
 40
0.0394837165390077
100
AcDbArc
 50
244.0629515517947
 51
24.3261203126437
  0
ARC
  5
339
330
1F
100
AcDbEntity
  8
TEXT
100
AcDbCircle
 10
-138.2638934770951
 20
-153.7383187499509
 30
0.0
 40
0.0605283642044279
100
AcDbArc
 50
33.67851647490056
 51
106.5775508010122
  0
ARC
  5
33A
330
1F
100
AcDbEntity
  8
TEXT
100
AcDbCircle
 10
-138.3022956200214
 20
-153.6683261979288
 30
0.0
 40
0.0242921821141258
100
AcDbArc
 50
194.854618224045
 51
330.4510994340791
  0
ARC
  5
33B
330
1F
100
AcDbEntity
  8
TEXT
100
AcDbCircle
 10
-138.353074955214
 20
-153.6434240021583
 30
0.0
 40
0.0414041993530743
100
AcDbArc
 50
223.0305625061282
 51
311.2487591160725
  0
ARC
  5
33C
330
1F
100
AcDbEntity
  8
TEXT
100
AcDbCircle
 10
-138.4063310194683
 20
-153.6302724785118
 30
0.0
 40
0.0473596567490983
100
AcDbArc
 50
214.7934494581964
 51
299.0409507876107
  0
ARC
  5
33D
330
1F
100
AcDbEntity
  8
TEXT
100
AcDbCircle
 10
-138.4592997961809
 20
-153.657704346446
 30
0.0
 40
0.0140822397522689
100
AcDbArc
 50
1.658272028068489
 51
160.4091839300748
  0
ARC
  5
33E
330
1F
100
AcDbEntity
  8
TEXT
100
AcDbCircle
 10
-138.4837822252901
 20
-153.6547112386621
 30
0.0
 40
0.0113478351145245
100
AcDbArc
 50
156.0593073728625
 51
8.762281217120062
  0
ARC
  5
33F
330
1F
100
AcDbEntity
  8
TEXT
100
AcDbCircle
 10
-138.575766612038
 20
-153.6770163506861
 30
0.0
 40
0.0859348789800251
100
AcDbArc
 50
18.24878221232196
 51
92.19784172829085
  0
ARC
  5
340
330
1F
100
AcDbEntity
  8
TEXT
100
AcDbCircle
 10
-138.6229482151418
 20
-153.5797345017119
 30
0.0
 40
0.0453450343487554
100
AcDbArc
 50
345.4259909574667
 51
72.46181126870036
  0
ARC
  5
341
330
1F
100
AcDbEntity
  8
TEXT
100
AcDbCircle
 10
-138.7057206177009
 20
-153.5142068782524
 30
0.0
 40
0.0989793222879928
100
AcDbArc
 50
346.9852122362369
 51
34.01252680042811
  0
ARC
  5
342
330
1F
100
AcDbEntity
  8
TEXT
100
AcDbCircle
 10
-138.2098062629082
 20
-153.3607560164254
 30
0.0
 40
0.4253328080527317
100
AcDbArc
 50
153.5374647244112
 51
193.3327646348703
  0
ARC
  5
343
330
1F
100
AcDbEntity
  8
TEXT
100
AcDbCircle
 10
-138.569010904882
 20
-153.1602256625065
 30
0.0
 40
0.0242063564316216
100
AcDbArc
 50
103.7022990326948
 51
207.0193065629252
  0
ARC
  5
344
330
1F
100
AcDbEntity
  8
TEXT
100
AcDbCircle
 10
-138.5551205442404
 20
-153.1209916019996
 30
0.0
 40
0.0251421004004534
100
AcDbArc
 50
218.6904014524235
 51
353.6659411500762
  0
ARC
  5
345
330
1F
100
AcDbEntity
  8
TEXT
100
AcDbCircle
 10
-138.5054023548681
 20
-153.1584621197658
 30
0.0
 40
0.1351321100356083
100
AcDbArc
 50
120.6947626763572
 51
155.9971516553445
  0
LINE
  5
346
330
1F
100
AcDbEntity
  8
TEXT
100
AcDbLine
 10
-138.6278763382049
 20
-153.0305991786878
 30
0.0
 11
-138.628848947636
 21
-153.1034928019906
 31
0.0
  0
LINE
  5
347
330
1F
100
AcDbEntity
  8
TEXT
100
AcDbLine
 10
-138.5724372563865
 20
-153.0140766265472
 30
0.0
 11
-138.5743824752488
 21
-153.0422621621283
 31
0.0
  0
ARC
  5
348
330
1F
100
AcDbEntity
  8
TEXT
100
AcDbCircle
 10
-138.5973104175633
 20
-153.0318885263669
 30
0.0
 40
0.0305931025250901
100
AcDbArc
 50
35.60679995345886
 51
177.5845513854531
  0
ARC
  5
349
330
1F
100
AcDbEntity
  8
TEXT
100
AcDbCircle
 10
-138.5015987568641
 20
-152.9373119958947
 30
0.0
 40
0.0212730233924189
100
AcDbArc
 50
318.2823815987274
 51
84.36248438139951
  0
ARC
  5
34A
330
1F
100
AcDbEntity
  8
TEXT
100
AcDbCircle
 10
-138.453041617201
 20
-153.0079791810703
 30
0.0
 40
0.0652789593552485
100
AcDbArc
 50
81.18509483549694
 51
120.0392913824102
  0
ARC
  5
34B
330
1F
100
AcDbEntity
  8
TEXT
100
AcDbCircle
 10
-138.4215839094907
 20
-153.0624313426853
 30
0.0
 40
0.1208792060706076
100
AcDbArc
 50
70.0546884603561
 51
100.2232656721042
  0
ARC
  5
34C
330
1F
100
AcDbEntity
  8
TEXT
100
AcDbCircle
 10
-138.3663442784063
 20
-152.9529841710632
 30
0.0
 40
0.0146158742644252
100
AcDbArc
 50
163.3756550464657
 51
16.62434495353019
  0
ARC
  5
34D
330
1F
100
AcDbEntity
  8
TEXT
100
AcDbCircle
 10
-138.3270677823258
 20
-152.9782579905803
 30
0.0
 40
0.0388106839919887
100
AcDbArc
 50
46.43616582623978
 51
130.6283095026668
  0
ARC
  5
34E
330
1F
100
AcDbEntity
  8
TEXT
100
AcDbCircle
 10
-138.2874251672203
 20
-152.949333045213
 30
0.0
 40
0.0129206974282422
100
AcDbArc
 50
183.5606974541693
 51
344.4298925613469
  0
ARC
  5
34F
330
1F
100
AcDbEntity
  8
TEXT
100
AcDbCircle
 10
-138.2516370303956
 20
-152.9617111549976
 30
0.0
 40
0.0249843467382301
100
AcDbArc
 50
20.89289471578114
 51
159.1071052842188
  0
ARC
  5
350
330
1F
100
AcDbEntity
  8
TEXT
100
AcDbCircle
 10
-138.2122053981374
 20
-152.9790080344936
 30
0.0
 40
0.0307520466590095
100
AcDbArc
 50
24.75773987532673
 51
121.5483884163395
  0
ARC
  5
351
330
1F
100
AcDbEntity
  8
TEXT
100
AcDbCircle
 10
-138.1630498240353
 20
-152.9771257809066
 30
0.0
 40
0.0239087999217995
100
AcDbArc
 50
47.61705801860776
 51
152.6179806586006
  0
ARC
  5
352
330
1F
100
AcDbEntity
  8
TEXT
100
AcDbCircle
 10
-138.1325576169057
 20
-152.97304106022
 30
0.0
 40
0.0197726925807915
100
AcDbArc
 50
136.6395135700794
 51
16.38775991618467
  0
ARC
  5
353
330
1F
100
AcDbEntity
  8
TEXT
100
AcDbCircle
 10
-138.1088112749169
 20
-153.0265771009286
 30
0.0
 40
0.05930733198463
100
AcDbArc
 50
41.27304036069129
 51
94.61991284103843
  0
ARC
  5
354
330
1F
100
AcDbEntity
  8
TEXT
100
AcDbCircle
 10
-138.0403563374311
 20
-152.9898816081133
 30
0.0
 40
0.0240040095705512
100
AcDbArc
 50
174.1982733486935
 51
308.0634596483613
  0
ARC
  5
355
330
1F
100
AcDbEntity
  8
TEXT
100
AcDbCircle
 10
-138.0079819676677
 20
-153.0187373358429
 30
0.0
 40
0.0201994868700719
100
AcDbArc
 50
296.7794474250823
 51
150.4674482996605
  0
ARC
  5
356
330
1F
100
AcDbEntity
  8
TEXT
100
AcDbCircle
 10
-137.9915450140114
 20
-153.1822581747484
 30
0.0
 40
0.1456726297907598
100
AcDbArc
 50
78.6467194011529
 51
92.88657863164813
  0
ARC
  5
357
330
1F
100
AcDbEntity
  8
TEXT
100
AcDbCircle
 10
-138.0104719217859
 20
-153.0978622960923
 30
0.0
 40
0.0753640437980911
100
AcDbArc
 50
356.7791343814141
 51
50.82801334298931
  0
ARC
  5
358
330
1F
100
AcDbEntity
  8
TEXT
100
AcDbCircle
 10
-137.9191537244059
 20
-153.1528335333706
 30
0.0
 40
0.0532219959288008
100
AcDbArc
 50
51.01090143870908
 51
107.577946053111
  0
ARC
  5
359
330
1F
100
AcDbEntity
  8
TEXT
100
AcDbCircle
 10
-138.1517990467034
 20
-153.3397205964947
 30
0.0
 40
0.3506080272731332
100
AcDbArc
 50
317.9732863042378
 51
40.61894937560235
  0
ARC
  5
35A
330
1F
100
AcDbEntity
  8
TEXT
100
AcDbCircle
 10
-137.5500633599646
 20
-153.6456936249839
 30
0.0
 40
0.3471954157645391
100
AcDbArc
 50
179.4662202071271
 51
190.5890997840382
  0
ARC
  5
35B
330
1F
100
AcDbEntity
  8
TEXT
100
AcDbCircle
 10
-137.9207707781112
 20
-153.7234389258538
 30
0.0
 40
0.0325610258630091
100
AcDbArc
 50
282.9712622283038
 51
25.35441378639515
  0
ARC
  5
35C
330
1F
100
AcDbEntity
  8
TEXT
100
AcDbCircle
 10
-137.8731443024461
 20
-153.717385132232
 30
0.0
 40
0.0552553003765589
100
AcDbArc
 50
169.4684867573188
 51
223.1418439421423
  0
ARC
  5
35D
330
1F
100
AcDbEntity
  8
TEXT
100
AcDbCircle
 10
-137.9980878950421
 20
-153.6778191104521
 30
0.0
 40
0.0765201974600678
100
AcDbArc
 50
337.3510782224612
 51
22.64892177753879
  0
ARC
  5
35E
330
1F
100
AcDbEntity
  8
TEXT
100
AcDbCircle
 10
-138.1967664745878
 20
-153.4481891963752
 30
0.0
 40
0.3011975387222217
100
AcDbArc
 50
311.60716893011
 51
318.3515702307968
  0
ARC
  5
35F
330
1F
100
AcDbEntity
  8
TEXT
100
AcDbCircle
 10
-137.9969296972442
 20
-153.6834030325955
 30
0.0
 40
0.0100052643924705
100
AcDbArc
 50
89.05883162362073
 51
223.9137905963003
  0
ARC
  5
360
330
1F
100
AcDbEntity
  8
TEXT
100
AcDbCircle
 10
-138.082974915185
 20
-153.7017315562565
 30
0.0
 40
0.0796559893773839
100
AcDbArc
 50
322.6907301981538
 51
8.220255073940981
  0
ARC
  5
361
330
1F
100
AcDbEntity
  8
TEXT
100
AcDbCircle
 10
-138.0070611560981
 20
-153.7654351919174
 30
0.0
 40
0.0198884128034732
100
AcDbArc
 50
129.1527393458019
 51
254.8870408388506
  0
ARC
  5
362
330
1F
100
AcDbEntity
  8
TEXT
100
AcDbCircle
 10
-138.0078688430137
 20
-153.7922003454518
 30
0.0
 40
0.0087399854901761
100
AcDbArc
 50
312.7998628402736
 51
120.0581864533371
  0
ARC
  5
363
330
1F
100
AcDbEntity
  8
TEXT
100
AcDbCircle
 10
-137.8549306215521
 20
-153.8624576081276
 30
0.0
 40
0.0788296406331002
100
AcDbArc
 50
99.17143729878524
 51
127.795528329094
  0
ARC
  5
364
330
1F
100
AcDbEntity
  8
TEXT
100
AcDbCircle
 10
-137.8706408462882
 20
-153.8205825004799
 30
0.0
 40
0.0360841351362309
100
AcDbArc
 50
341.5477100758352
 51
84.99888070834158
  0
ARC
  5
365
330
1F
100
AcDbEntity
  8
TEXT
100
AcDbCircle
 10
-138.0359928541526
 20
-153.7281759714826
 30
0.0
 40
0.0584439427015822
100
AcDbArc
 50
156.288597549796
 51
210.2571046136436
  0
ARC
  5
366
330
1F
100
AcDbEntity
  8
TEXT
100
AcDbCircle
 10
-138.0776065292412
 20
-153.7089611751571
 30
0.0
 40
0.012645524455306
100
AcDbArc
 50
31.23099864076698
 51
160.1819529381847
  0
LINE
  5
367
330
1F
100
AcDbEntity
  8
TEXT
100
AcDbLine
 10
-138.0675505339076
 20
-153.7598940957134
 30
0.0
 11
-138.0667935452809
 21
-153.7024046008514
 31
0.0
  0
ARC
  5
368
330
1F
100
AcDbEntity
  8
TEXT
100
AcDbCircle
 10
-138.077631250287
 20
-153.7639165079354
 30
0.0
 40
0.0108536004534171
100
AcDbArc
 50
144.5711585108376
 51
21.75301147886978
  0
ARC
  5
369
330
1F
100
AcDbEntity
  8
TEXT
100
AcDbCircle
 10
-138.2826659634799
 20
-153.7875894060011
 30
0.0
 40
0.0198441386731591
100
AcDbArc
 50
177.787775166229
 51
326.380582641936
  0
ARC
  5
36A
330
1F
100
AcDbEntity
  8
TEXT
100
AcDbCircle
 10
-138.3136365438611
 20
-153.785754922462
 30
0.0
 40
0.0111923495175045
100
AcDbArc
 50
354.5219056877808
 51
214.944854376383
  0
LINE
  5
36B
330
1F
100
AcDbEntity
  8
TEXT
100
AcDbLine
 10
-138.3741345892218
 20
-153.7707963001112
 30
0.0
 11
-138.371996094004
 21
-153.8370416117564
 31
0.0
  0
ARC
  5
36C
330
1F
100
AcDbEntity
  8
TEXT
100
AcDbCircle
 10
-138.4181584806049
 20
-153.7516144370631
 30
0.0
 40
0.01199889172128
100
AcDbArc
 50
5.351678383090856
 51
195.24354880264
  0
LINE
  5
36D
330
1F
100
AcDbEntity
  8
TEXT
100
AcDbLine
 10
-138.4329429573488
 20
-153.8594795360028
 30
0.0
 11
-138.4297352145224
 21
-153.7547692166666
 31
0.0
  0
LINE
  5
36E
330
1F
100
AcDbEntity
  8
TEXT
100
AcDbLine
 10
-138.4842665922142
 20
-153.7312628127667
 30
0.0
 11
-138.4746434263242
 21
-153.8637534174975
 31
0.0
  0
ARC
  5
36F
330
1F
100
AcDbEntity
  8
TEXT
100
AcDbCircle
 10
-138.5069115922787
 20
-153.7342871089488
 30
0.0
 40
0.0228460586386703
100
AcDbArc
 50
7.606980527162052
 51
103.0413594591622
  0
ARC
  5
370
330
1F
100
AcDbEntity
  8
TEXT
100
AcDbCircle
 10
-138.5216900864018
 20
-153.7328495464651
 30
0.0
 40
0.0229356986989046
100
AcDbArc
 50
65.19241843010762
 51
139.0508106988795
  0
LINE
  5
371
330
1F
100
AcDbEntity
  8
TEXT
100
AcDbLine
 10
-138.5390132151736
 20
-153.7466991607782
 30
0.0
 11
-138.5390132151736
 21
-153.7178177307276
 31
0.0
  0
ARC
  5
372
330
1F
100
AcDbEntity
  8
TEXT
100
AcDbCircle
 10
-138.5518528735139
 20
-153.7501515373447
 30
0.0
 40
0.0132957034509404
100
AcDbArc
 50
168.3169857564316
 51
15.04995211451621
  0
LINE
  5
373
330
1F
100
AcDbEntity
  8
TEXT
100
AcDbLine
 10
-138.5686760346708
 20
-153.712497474135
 30
0.0
 11
-138.5648731283525
 21
-153.7474591974342
 31
0.0
  0
ARC
  5
374
330
1F
100
AcDbEntity
  8
TEXT
100
AcDbCircle
 10
-138.5739144789949
 20
-153.7078874580869
 30
0.0
 40
0.0069780761604683
100
AcDbArc
 50
318.6510821797589
 51
186.6644145786489
  0
LINE
  5
375
330
1F
100
AcDbEntity
  8
TEXT
100
AcDbLine
 10
-138.5838877538279
 20
-153.7352986109369
 30
0.0
 11
-138.5808454037377
 21
-153.7086972908546
 31
0.0
  0
ARC
  5
376
330
1F
100
AcDbEntity
  8
TEXT
100
AcDbCircle
 10
-138.6026728207635
 20
-153.7402676661412
 30
0.0
 40
0.0194311669591682
100
AcDbArc
 50
172.0457056516397
 51
14.81661014794184
  0
LINE
  5
377
330
1F
100
AcDbEntity
  8
TEXT
100
AcDbLine
 10
-138.6264805299147
 20
-153.6737355489958
 30
0.0
 11
-138.6219170360738
 21
-153.7375787209051
 31
0.0
  0
ARC
  5
378
330
1F
100
AcDbEntity
  8
TEXT
100
AcDbCircle
 10
-138.6214621784393
 20
-153.6272225399988
 30
0.0
 40
0.0467829440873418
100
AcDbArc
 50
209.3802246625986
 51
263.8421008682745
  0
ARC
  5
379
330
1F
100
AcDbEntity
  8
TEXT
100
AcDbCircle
 10
-138.6800450338444
 20
-153.6558500907452
 30
0.0
 40
0.0186991566723165
100
AcDbArc
 50
17.66955929970818
 51
146.8111142491876
  0
ARC
  5
37A
330
1F
100
AcDbEntity
  8
TEXT
100
AcDbCircle
 10
-138.7030647602576
 20
-153.6504708296985
 30
0.0
 40
0.0088271308807469
100
AcDbArc
 50
192.9866902548921
 51
33.38063139741083
  0
LINE
  5
37B
330
1F
100
AcDbEntity
  8
TEXT
100
AcDbLine
 10
-138.7116661133829
 20
-153.6250931473274
 30
0.0
 11
-138.7116661133829
 21
-153.6524545040658
 31
0.0
  0
ARC
  5
37C
330
1F
100
AcDbEntity
  8
TEXT
100
AcDbCircle
 10
-138.7174862415646
 20
-153.6222151313208
 30
0.0
 40
0.0064928320617832
100
AcDbArc
 50
333.6879001367233
 51
192.0722457553379
  0
LINE
  5
37D
330
1F
100
AcDbEntity
  8
TEXT
100
AcDbLine
 10
-138.72383548245
 20
-153.6235730740152
 30
0.0
 11
-138.7253566574951
 21
-153.8067421308474
 31
0.0
  0
ARC
  5
37E
330
1F
100
AcDbEntity
  8
TEXT
100
AcDbCircle
 10
-134.9734793450361
 20
-153.695443662775
 30
0.0
 40
3.792753809134316
100
AcDbArc
 50
178.0464319449978
 51
181.7502526685598
  0
ARC
  5
37F
330
1F
100
AcDbEntity
  8
TEXT
100
AcDbCircle
 10
-138.8049890196656
 20
-153.5772570024635
 30
0.0
 40
0.042439428205579
100
AcDbArc
 50
15.17145974978883
 51
87.5491871429763
  0
ARC
  5
380
330
1F
100
AcDbEntity
  8
TEXT
100
AcDbCircle
 10
-137.8939193511289
 20
-153.3450036981175
 30
0.0
 40
0.9288640878310694
100
AcDbArc
 50
175.4121316267021
 51
191.7939289657056
  0
ARC
  5
381
330
1F
100
AcDbEntity
  8
TEXT
100
AcDbCircle
 10
-138.6007859791739
 20
-153.2732352063666
 30
0.0
 40
0.2190358327107401
100
AcDbArc
 50
117.3222180892419
 51
179.3383492613259
  0
ARC
  5
382
330
1F
100
AcDbEntity
  8
TEXT
100
AcDbCircle
 10
-138.7202337959612
 20
-153.0583455043609
 30
0.0
 40
0.0277366383214724
100
AcDbArc
 50
312.9867785858866
 51
66.9911842292667
  0
ARC
  5
383
330
1F
100
AcDbEntity
  8
TEXT
100
AcDbCircle
 10
-138.7231451574231
 20
-153.0255926548822
 30
0.0
 40
0.0155341571545389
100
AcDbArc
 50
332.2921775479048
 51
119.56785717599
  0
ARC
  5
384
330
1F
100
AcDbEntity
  8
TEXT
100
AcDbCircle
 10
-138.7165056855264
 20
-153.0356621969628
 30
0.0
 40
0.0275804145931514
100
AcDbArc
 50
121.2424246402126
 51
213.473239708375
  0
ARC
  5
385
330
1F
100
AcDbEntity
  8
TEXT
100
AcDbCircle
 10
-138.7457553375792
 20
-153.0564893063937
 30
0.0
 40
0.0083972248010632
100
AcDbArc
 50
201.5154657473981
 51
41.96660508022778
  0
ARC
  5
386
330
1F
100
AcDbEntity
  8
TEXT
100
AcDbCircle
 10
-138.7455413458656
 20
-153.0293340477153
 30
0.0
 40
0.0312821180069066
100
AcDbArc
 50
160.2627782819643
 51
255.1333022011723
  0
ARC
  5
387
330
1F
100
AcDbEntity
  8
TEXT
100
AcDbCircle
 10
-138.781924703064
 20
-153.0129056909578
 30
0.0
 40
0.0090850721584386
100
AcDbArc
 50
124.2167745950179
 51
319.7988197133694
  0
ARC
  5
388
330
1F
100
AcDbEntity
  8
TEXT
100
AcDbCircle
 10
-138.801375302391
 20
-153.0045767936256
 30
0.0
 40
0.0143650439868701
100
AcDbArc
 50
356.7423630506751
 51
136.5172760690074
  0
ARC
  5
389
330
1F
100
AcDbEntity
  8
TEXT
100
AcDbCircle
 10
-138.8079496715821
 20
-152.9758299116603
 30
0.0
 40
0.0192504245764868
100
AcDbArc
 50
116.3151684036785
 51
258.4674100382152
  0
ARC
  5
38A
330
1F
100
AcDbEntity
  8
TEXT
100
AcDbCircle
 10
-138.8062490906922
 20
-152.9683665897605
 30
0.0
 40
0.0141644132330729
100
AcDbArc
 50
348.1206509806769
 51
136.2651890953771
  0
ARC
  5
38B
330
1F
100
AcDbEntity
  8
TEXT
100
AcDbCircle
 10
-138.783207854856
 20
-152.9748482823834
 30
0.0
 40
0.0098484268339817
100
AcDbArc
 50
158.7719549350953
 51
25.46716058584043
  0
ARC
  5
38C
330
1F
100
AcDbEntity
  8
TEXT
100
AcDbCircle
 10
-138.747855250833
 20
-152.9728364698135
 30
0.0
 40
0.0265543389333426
100
AcDbArc
 50
32.48569494743566
 51
175.1979664789355
  0
ARC
  5
38D
330
1F
100
AcDbEntity
  8
TEXT
100
AcDbCircle
 10
-138.7144959805563
 20
-152.9634713576938
 30
0.0
 40
0.0120042360355189
100
AcDbArc
 50
155.9249042338181
 51
10.66497725508788
  0
ARC
  5
38E
330
1F
100
AcDbEntity
  8
TEXT
100
AcDbCircle
 10
-138.6636664075742
 20
-152.9536384294206
 30
0.0
 40
0.0397678779808022
100
AcDbArc
 50
109.4580308571273
 51
191.0341765877006
  0
LINE
  5
38F
330
1F
100
AcDbEntity
  8
TEXT
100
AcDbLine
 10
-136.8455217037634
 20
-153.4974113488263
 30
0.0
 11
-136.5959317739389
 21
-153.4974113488263
 31
0.0
  0
ARC
  5
390
330
1F
100
AcDbEntity
  8
TEXT
100
AcDbCircle
 10
-136.7093056185916
 20
-153.4921393851701
 30
0.0
 40
0.1134963534750494
100
AcDbArc
 50
357.337623744369
 51
85.63084243886235
  0
ARC
  5
391
330
1F
100
AcDbEntity
  8
TEXT
100
AcDbCircle
 10
-136.7446864025104
 20
-153.5889175545409
 30
0.0
 40
0.2145114628604602
100
AcDbArc
 50
78.15621523985544
 51
106.6122408520356
  0
LINE
  5
392
330
1F
100
AcDbEntity
  8
TEXT
100
AcDbLine
 10
-136.8455217037634
 20
-153.4704650336218
 30
0.0
 11
-136.6818458880714
 21
-153.4704650336218
 31
0.0
  0
ARC
  5
393
330
1F
100
AcDbEntity
  8
TEXT
100
AcDbCircle
 10
-136.7657750261933
 20
-153.486040461332
 30
0.0
 40
0.0812534708909397
100
AcDbArc
 50
103.9179608005984
 51
168.9486088950471
  0
ARC
  5
394
330
1F
100
AcDbEntity
  8
TEXT
100
AcDbCircle
 10
-136.7470796332625
 20
-153.4684045892459
 30
0.0
 40
0.0652662772240651
100
AcDbArc
 50
358.1908821763629
 51
69.74957583402915
  0
ARC
  5
395
330
1F
100
AcDbEntity
  8
TEXT
100
AcDbCircle
 10
-136.754904260354
 20
-153.654871113283
 30
0.0
 40
0.2495589427940663
100
AcDbArc
 50
82.99970676551488
 51
97.00029323448513
  0
ARC
  5
396
330
1F
100
AcDbEntity
  8
TEXT
100
AcDbCircle
 10
-136.7567050223565
 20
-153.5303723907242
 30
0.0
 40
0.1550617556562953
100
AcDbArc
 50
108.5416613320802
 51
149.7652339536173
  0
ARC
  5
397
330
1F
100
AcDbEntity
  8
TEXT
100
AcDbCircle
 10
-136.7557125999407
 20
-153.5350959840689
 30
0.0
 40
0.1583382231194104
100
AcDbArc
 50
148.4692011102826
 51
195.5802361373378
  0
ARC
  5
398
330
1F
100
AcDbEntity
  8
TEXT
100
AcDbCircle
 10
-136.7586415997362
 20
-153.539813679097
 30
0.0
 40
0.1542954973653147
100
AcDbArc
 50
194.1847393568157
 51
248.6586767321129
  0
ARC
  5
399
330
1F
100
AcDbEntity
  8
TEXT
100
AcDbCircle
 10
-136.6952638341831
 20
-153.4992577561314
 30
0.0
 40
0.1502692137157162
100
AcDbArc
 50
179.2959701761241
 51
227.5915484940839
  0
ARC
  5
39A
330
1F
100
AcDbEntity
  8
TEXT
100
AcDbCircle
 10
-136.7280348101756
 20
-153.5260070946551
 30
0.0
 40
0.1085922287405707
100
AcDbArc
 50
230.8416488637728
 51
280.5326941523482
  0
ARC
  5
39B
330
1F
100
AcDbEntity
  8
TEXT
100
AcDbCircle
 10
-136.7138429056122
 20
-153.4965836528388
 30
0.0
 40
0.1363034732059888
100
AcDbArc
 50
272.3792098458872
 51
327.3581874363218
  0
ARC
  5
39C
330
1F
100
AcDbEntity
  8
TEXT
100
AcDbCircle
 10
-136.7541383460623
 20
-153.4679619141057
 30
0.0
 40
0.2239378989788901
100
AcDbArc
 50
254.28478308494
 51
294.1819270465989
  0
ARC
  5
39D
330
1F
100
AcDbEntity
  8
TEXT
100
AcDbCircle
 10
-136.735959965301
 20
-153.5235757716704
 30
0.0
 40
0.1658735297121861
100
AcDbArc
 50
296.3233923707221
 51
339.834833147579
  0
ARC
  5
39E
330
1F
100
AcDbEntity
  8
TEXT
100
AcDbCircle
 10
-136.5914756888082
 20
-153.5786356225082
 30
0.0
 40
0.0114204126568138
100
AcDbArc
 50
349.2952029716972
 51
131.6626905469362
  0
ARC
  5
39F
330
1F
100
AcDbEntity
  8
TEXT
100
AcDbCircle
 10
-138.3965847314444
 20
-152.3283241406971
 30
0.0
 40
0.0229672728225863
100
AcDbArc
 50
146.5485285753443
 51
33.45147142465569
  0
ARC
  5
3A0
330
1F
100
AcDbEntity
  8
TEXT
100
AcDbCircle
 10
-138.4333358116748
 20
-152.2875692502326
 30
0.0
 40
0.0178099571947197
100
AcDbArc
 50
2.749965920202103
 51
141.7961814814361
  0
LINE
  5
3A1
330
1F
100
AcDbEntity
  8
TEXT
100
AcDbLine
 10
-138.3764729952809
 20
-152.2379082290932
 30
0.0
 11
-138.3774219183626
 21
-152.3156638794165
 31
0.0
  0
LINE
  5
3A2
330
1F
100
AcDbEntity
  8
TEXT
100
AcDbLine
 10
-138.4155463641594
 20
-152.2867147723987
 30
0.0
 11
-138.4157475445265
 21
-152.3156638794165
 31
0.0
  0
LINE
  5
3A3
330
1F
100
AcDbEntity
  8
TEXT
100
AcDbLine
 10
-138.4473311552481
 20
-152.2765544904283
 30
0.0
 11
-138.4995090115179
 21
-152.3043626338733
 31
0.0
  0
LINE
  5
3A4
330
1F
100
AcDbEntity
  8
TEXT
100
AcDbLine
 10
-138.7290915916236
 20
-152.2765544904283
 30
0.0
 11
-138.6769137353536
 21
-152.3043626338733
 31
0.0
  0
ARC
  5
3A5
330
1F
100
AcDbEntity
  8
TEXT
100
AcDbCircle
 10
-138.7430869351967
 20
-152.2875692502326
 30
0.0
 40
0.0178099571947197
100
AcDbArc
 50
38.20381851856387
 51
177.2500340797979
  0
LINE
  5
3A6
330
1F
100
AcDbEntity
  8
TEXT
100
AcDbLine
 10
-138.4995090115179
 20
-152.3043626338733
 30
0.0
 11
-138.4995090115179
 21
-152.9161418639006
 31
0.0
  0
LINE
  5
3A7
330
1F
100
AcDbEntity
  8
TEXT
100
AcDbLine
 10
-138.6769137353536
 20
-152.3043626338733
 30
0.0
 11
-138.6769137353536
 21
-152.9161418639006
 31
0.0
  0
ARC
  5
3A8
330
1F
100
AcDbEntity
  8
TEXT
100
AcDbCircle
 10
-138.7767499388193
 20
-152.6387935759951
 30
0.0
 40
0.0183279568985234
100
AcDbArc
 50
177.899482485688
 51
2.100517514311921
  0
LINE
  5
3A9
330
1F
100
AcDbEntity
  8
TEXT
100
AcDbLine
 10
-138.7608763827124
 20
-152.2867147723987
 30
0.0
 11
-138.7584342971574
 21
-152.6381218062484
 31
0.0
  0
LINE
  5
3AA
330
1F
100
AcDbEntity
  8
TEXT
100
AcDbLine
 10
-138.7999497515907
 20
-152.2379082290932
 30
0.0
 11
-138.7950655804808
 21
-152.6381218062484
 31
0.0
  0
ARC
  5
3AB
330
1F
100
AcDbEntity
  8
TEXT
100
AcDbCircle
 10
-138.0955087328871
 20
-152.772990968244
 30
0.0
 40
0.0149474164447453
100
AcDbArc
 50
3.28802541027571
 51
105.9275278804377
  0
ARC
  5
3AC
330
1F
100
AcDbEntity
  8
TEXT
100
AcDbCircle
 10
-138.211854517352
 20
-152.6844918962149
 30
0.0
 40
0.134511266670263
100
AcDbArc
 50
282.1628426667851
 51
326.5593609179315
  0
ARC
  5
3AD
330
1F
100
AcDbEntity
  8
TEXT
100
AcDbCircle
 10
-138.2128423863049
 20
-152.7113210695946
 30
0.0
 40
0.1086941518186937
100
AcDbArc
 50
213.1462108998124
 51
285.6537258536392
  0
ARC
  5
3AE
330
1F
100
AcDbEntity
  8
TEXT
100
AcDbCircle
 10
-138.1821403058613
 20
-152.6943128687856
 30
0.0
 40
0.1437225919317553
100
AcDbArc
 50
167.0430028911414
 51
212.1309371309446
  0
ARC
  5
3AF
330
1F
100
AcDbEntity
  8
TEXT
100
AcDbCircle
 10
-138.1990579643498
 20
-152.706689209594
 30
0.0
 40
0.1309738408136819
100
AcDbArc
 50
117.3722826858103
 51
160.0902491401811
  0
ARC
  5
3B0
330
1F
100
AcDbEntity
  8
TEXT
100
AcDbCircle
 10
-138.2572221635719
 20
-152.6754571875507
 30
0.0
 40
0.2013621134637685
100
AcDbArc
 50
310.2152586008207
 51
331.3072507285895
  0
ARC
  5
3B1
330
1F
100
AcDbEntity
  8
TEXT
100
AcDbCircle
 10
-138.2379985887481
 20
-152.7237874925784
 30
0.0
 40
0.1529394365370079
100
AcDbArc
 50
251.6347706403313
 51
316.4182924463649
  0
ARC
  5
3B2
330
1F
100
AcDbEntity
  8
TEXT
100
AcDbCircle
 10
-138.2606295106147
 20
-152.7295513062571
 30
0.0
 40
0.1417094945864498
100
AcDbArc
 50
194.9511061487668
 51
259.6103135862126
  0
ARC
  5
3B3
330
1F
100
AcDbEntity
  8
TEXT
100
AcDbCircle
 10
-138.2457500427941
 20
-152.7247805079881
 30
0.0
 40
0.1573179651795562
100
AcDbArc
 50
135.7093780000635
 51
195.2317137751531
  0
ARC
  5
3B4
330
1F
100
AcDbEntity
  8
TEXT
100
AcDbCircle
 10
-138.2444506480365
 20
-152.7023352039523
 30
0.0
 40
0.1435814038117717
100
AcDbArc
 50
97.06566064011491
 51
142.4986334312247
  0
ARC
  5
3B5
330
1F
100
AcDbEntity
  8
TEXT
100
AcDbCircle
 10
-138.2277722864262
 20
-153.0520367328052
 30
0.0
 40
0.4627309134716012
100
AcDbArc
 50
86.31431733544655
 51
93.90381943516556
  0
ARC
  5
3B6
330
1F
100
AcDbEntity
  8
TEXT
100
AcDbCircle
 10
-138.2375698563433
 20
-152.6311785348359
 30
0.0
 40
0.0569013303394793
100
AcDbArc
 50
16.71684440730667
 51
45.97719400399792
  0
ARC
  5
3B7
330
1F
100
AcDbEntity
  8
TEXT
100
AcDbCircle
 10
-138.1276508776103
 20
-152.6148009914107
 30
0.0
 40
0.0554224149582203
100
AcDbArc
 50
180.010674400693
 51
201.8251852718025
  0
ARC
  5
3B8
330
1F
100
AcDbEntity
  8
TEXT
100
AcDbCircle
 10
-138.1372972150699
 20
-152.615791496439
 30
0.0
 40
0.0461763266561713
100
AcDbArc
 50
205.1359642898991
 51
307.6679722285764
  0
ARC
  5
3B9
330
1F
100
AcDbEntity
  8
TEXT
100
AcDbCircle
 10
-138.1463965320729
 20
-152.6222920626466
 30
0.0
 40
0.0479126162184992
100
AcDbArc
 50
321.1558234807585
 51
36.94217904229986
  0
ARC
  5
3BA
330
1F
100
AcDbEntity
  8
TEXT
100
AcDbCircle
 10
-138.1885574187624
 20
-152.6689626150081
 30
0.0
 40
0.1103093002531043
100
AcDbArc
 50
43.16761867319004
 51
81.57335966331345
  0
ARC
  5
3BB
330
1F
100
AcDbEntity
  8
TEXT
100
AcDbCircle
 10
-138.2172522446959
 20
-153.0362956135766
 30
0.0
 40
0.4785586452070742
100
AcDbArc
 50
84.62122141578801
 51
95.37877858421195
  0
ARC
  5
3BC
330
1F
100
AcDbEntity
  8
TEXT
100
AcDbCircle
 10
-137.7329104828957
 20
-152.7623008904069
 30
0.0
 40
0.0114204126568138
100
AcDbArc
 50
349.2952029716972
 51
131.6626905469362
  0
ARC
  5
3BD
330
1F
100
AcDbEntity
  8
TEXT
100
AcDbCircle
 10
-137.8773947593886
 20
-152.7072410395689
 30
0.0
 40
0.1658735297121861
100
AcDbArc
 50
296.3233923707221
 51
339.834833147579
  0
ARC
  5
3BE
330
1F
100
AcDbEntity
  8
TEXT
100
AcDbCircle
 10
-137.8955731401499
 20
-152.6516271820042
 30
0.0
 40
0.2239378989788901
100
AcDbArc
 50
254.28478308494
 51
294.1819270465989
  0
ARC
  5
3BF
330
1F
100
AcDbEntity
  8
TEXT
100
AcDbCircle
 10
-137.8552776996998
 20
-152.6802489207374
 30
0.0
 40
0.1363034732059888
100
AcDbArc
 50
272.3792098458872
 51
327.3581874363218
  0
ARC
  5
3C0
330
1F
100
AcDbEntity
  8
TEXT
100
AcDbCircle
 10
-137.8694696042632
 20
-152.7096723625537
 30
0.0
 40
0.1085922287405707
100
AcDbArc
 50
230.8416488637728
 51
280.5326941523482
  0
ARC
  5
3C1
330
1F
100
AcDbEntity
  8
TEXT
100
AcDbCircle
 10
-137.8366986282706
 20
-152.6829230240299
 30
0.0
 40
0.1502692137157162
100
AcDbArc
 50
179.2959701761241
 51
227.5915484940839
  0
ARC
  5
3C2
330
1F
100
AcDbEntity
  8
TEXT
100
AcDbCircle
 10
-137.9000763938237
 20
-152.7234789469956
 30
0.0
 40
0.1542954973653147
100
AcDbArc
 50
194.1847393568157
 51
248.6586767321129
  0
ARC
  5
3C3
330
1F
100
AcDbEntity
  8
TEXT
100
AcDbCircle
 10
-137.8971473940283
 20
-152.7187612519674
 30
0.0
 40
0.1583382231194104
100
AcDbArc
 50
148.4692011102826
 51
195.5802361373378
  0
ARC
  5
3C4
330
1F
100
AcDbEntity
  8
TEXT
100
AcDbCircle
 10
-137.8981398164441
 20
-152.7140376586227
 30
0.0
 40
0.1550617556562953
100
AcDbArc
 50
108.5416613320802
 51
149.7652339536173
  0
ARC
  5
3C5
330
1F
100
AcDbEntity
  8
TEXT
100
AcDbCircle
 10
-137.8963390544416
 20
-152.8385363811815
 30
0.0
 40
0.2495589427940663
100
AcDbArc
 50
82.99970676551488
 51
97.00029323448513
  0
ARC
  5
3C6
330
1F
100
AcDbEntity
  8
TEXT
100
AcDbCircle
 10
-137.8885144273501
 20
-152.6520698571445
 30
0.0
 40
0.0652662772240651
100
AcDbArc
 50
358.1908821763629
 51
69.74957583402915
  0
ARC
  5
3C7
330
1F
100
AcDbEntity
  8
TEXT
100
AcDbCircle
 10
-137.9072098202809
 20
-152.6697057292307
 30
0.0
 40
0.0812534708909397
100
AcDbArc
 50
103.9179608005984
 51
168.9486088950471
  0
LINE
  5
3C8
330
1F
100
AcDbEntity
  8
TEXT
100
AcDbLine
 10
-137.9869564978509
 20
-152.6541303015204
 30
0.0
 11
-137.823280682159
 21
-152.6541303015204
 31
0.0
  0
ARC
  5
3C9
330
1F
100
AcDbEntity
  8
TEXT
100
AcDbCircle
 10
-137.8861211965979
 20
-152.7725828224394
 30
0.0
 40
0.2145114628604602
100
AcDbArc
 50
78.15621523985544
 51
106.6122408520356
  0
ARC
  5
3CA
330
1F
100
AcDbEntity
  8
TEXT
100
AcDbCircle
 10
-137.8507404126791
 20
-152.6758046530687
 30
0.0
 40
0.1134963534750494
100
AcDbArc
 50
357.337623744369
 51
85.63084243886235
  0
LINE
  5
3CB
330
1F
100
AcDbEntity
  8
TEXT
100
AcDbLine
 10
-137.9869564978509
 20
-152.6810766167247
 30
0.0
 11
-137.7373665680265
 21
-152.6810766167247
 31
0.0
  0
ARC
  5
3CC
330
1F
100
AcDbEntity
  8
TEXT
100
AcDbCircle
 10
-137.1366215657464
 20
-153.5604724144622
 30
0.0
 40
0.0973115932483436
100
AcDbArc
 50
325.2939034707323
 51
356.4132772462207
  0
ARC
  5
3CD
330
1F
100
AcDbEntity
  8
TEXT
100
AcDbCircle
 10
-137.1329302476792
 20
-153.5739967782342
 30
0.0
 40
0.0870449330871867
100
AcDbArc
 50
261.8576121462839
 51
331.2394802847383
  0
ARC
  5
3CE
330
1F
100
AcDbEntity
  8
TEXT
100
AcDbCircle
 10
-137.1624278076189
 20
-153.6009529368259
 30
0.0
 40
0.0616502517662663
100
AcDbArc
 50
203.9135879631547
 51
286.1701931802542
  0
ARC
  5
3CF
330
1F
100
AcDbEntity
  8
TEXT
100
AcDbCircle
 10
-137.3909388829582
 20
-153.6138153733547
 30
0.0
 40
0.0263049997405142
100
AcDbArc
 50
155.9964711746257
 51
271.4218156194853
  0
LINE
  5
3D0
330
1F
100
AcDbEntity
  8
TEXT
100
AcDbLine
 10
-137.3580086549362
 20
-153.6382149572004
 30
0.0
 11
-137.3902861818108
 21
-153.6401122741713
 31
0.0
  0
LINE
  5
3D1
330
1F
100
AcDbEntity
  8
TEXT
100
AcDbLine
 10
-137.3599073072155
 20
-153.6600340466876
 30
0.0
 11
-137.3580086549362
 21
-153.6382149572004
 31
0.0
  0
ARC
  5
3D2
330
1F
100
AcDbEntity
  8
TEXT
100
AcDbCircle
 10
-137.5677744263255
 20
-153.5274116810105
 30
0.0
 40
0.1192900151968245
100
AcDbArc
 50
257.5730930866191
 51
314.4273867462272
  0
ARC
  5
3D3
330
1F
100
AcDbEntity
  8
TEXT
100
AcDbCircle
 10
-137.5670138886249
 20
-153.5876116052134
 30
0.0
 40
0.062191304224996
100
AcDbArc
 50
188.1927496775748
 51
244.8496170020145
  0
ARC
  5
3D4
330
1F
100
AcDbEntity
  8
TEXT
100
AcDbCircle
 10
-138.0757168027292
 20
-153.5566305316049
 30
0.0
 40
0.0299315237481412
100
AcDbArc
 50
253.9290889125599
 51
38.65267477511397
  0
ARC
  5
3D5
330
1F
100
AcDbEntity
  8
TEXT
100
AcDbCircle
 10
-137.9676937450073
 20
-153.6020983964846
 30
0.0
 40
0.0811923392812832
100
AcDbArc
 50
330.1916644163833
 51
19.91318758187978
  0
ARC
  5
3D6
330
1F
100
AcDbEntity
  8
TEXT
100
AcDbCircle
 10
-137.9495847204019
 20
-153.7014108149804
 30
0.0
 40
0.0574830775048127
100
AcDbArc
 50
67.37252950712522
 51
112.6274704928674
  0
ARC
  5
3D7
330
1F
100
AcDbEntity
  8
TEXT
100
AcDbCircle
 10
-138.1968001462881
 20
-153.5349349786673
 30
0.0
 40
0.1235686801195331
100
AcDbArc
 50
287.1920036507392
 51
335.8997504051534
  0
LINE
  5
3D8
330
1F
100
AcDbEntity
  8
TEXT
100
AcDbLine
 10
-138.4062118923073
 20
-153.7504953166122
 30
0.0
 11
-138.3741345892218
 21
-153.7707963001112
 31
0.0
  0
LINE
  5
3D9
330
1F
100
AcDbEntity
  8
BORDER
100
AcDbLine
 10
-139.479275293115
 20
-157.1234399738735
 30
0.0
 11
-139.479275293115
 21
-152.181075335849
 31
0.0
  0
LINE
  5
3DA
330
1F
100
AcDbEntity
  8
BORDER
100
AcDbLine
 10
-144.729275293115
 20
-155.556075335849
 30
0.0
 11
-139.479275293115
 21
-155.556075335849
 31
0.0
  0
LINE
  5
3DB
330
1F
100
AcDbEntity
  8
BORDER
100
AcDbLine
 10
-144.729275293115
 20
-154.8060753358489
 30
0.0
 11
-139.479275293115
 21
-154.8060753358489
 31
0.0
  0
TEXT
  5
3DC
330
1F
100
AcDbEntity
  8
TEXT
100
AcDbText
 10
-141.268025293115
 20
-155.4893253358491
 30
0.0
 40
0.28125
  1
NONE
 72
     1
 11
-140.752400293115
 21
-155.3487003358491
 31
0.0
100
AcDbText
 73
     2
  0
TEXT
  5
3DD
330
1F
100
AcDbEntity
  8
TEXT
100
AcDbText
 10
-141.916775293115
 20
-155.087325335849
 30
0.0
 40
0.1875
  1
SCALE
100
AcDbText
  0
TEXT
  5
3DE
330
1F
100
AcDbEntity
  8
TEXT
100
AcDbText
 10
-144.6205252931149
 20
-155.087325335849
 30
0.0
 40
0.1875
  1
DRAWN
100
AcDbText
  0
TEXT
  5
3DF
330
1F
100
AcDbEntity
  8
TEXT
100
AcDbText
 10
-143.8311502931149
 20
-155.4893253358491
 30
0.0
 40
0.28125
  1
JJH
 72
     1
 11
-143.4561502931149
 21
-155.3487003358491
 31
0.0
100
AcDbText
 73
     2
  0
TEXT
  5
3E0
330
1F
100
AcDbEntity
  8
TEXT
100
AcDbText
 10
-144.541775293115
 20
-155.837325335849
 30
0.0
 40
0.1875
  1
DATE
100
AcDbText
  0
TEXT
  5
3E1
330
1F
100
AcDbEntity
  8
TEXT
100
AcDbText
 10
-143.198025293115
 20
-156.1125332918118
 30
0.0
 40
0.375
  1
4-15-10
 72
     1
 11
-142.104275293115
 21
-155.9250332918118
 31
0.0
100
AcDbText
 73
     2
  0
LINE
  5
3E2
330
1F
100
AcDbEntity
  8
BORDER
100
AcDbLine
 10
-144.729275293115
 20
-156.306075335849
 30
0.0
 11
-139.479275293115
 21
-156.306075335849
 31
0.0
  0
TEXT
  5
3E3
330
1F
100
AcDbEntity
  8
TEXT
100
AcDbText
 10
-144.2100134071684
 20
-156.8992588006832
 30
0.0
 40
0.375
  1
SHEET 1 OF 2
 72
     1
 11
-142.0850134071684
 21
-156.7117588006832
 31
0.0
100
AcDbText
 73
     2
  0
LINE
  5
3E4
330
1F
100
AcDbEntity
  8
BORDER
100
AcDbLine
 10
-131.8271720585951
 20
-155.556075335849
 30
0.0
 11
-131.8271720585951
 21
-157.1234399738734
 31
0.0
  0
LINE
  5
3E5
330
1F
100
AcDbEntity
  8
BORDER
100
AcDbLine
 10
-139.479275293115
 20
-155.556075335849
 30
0.0
 11
-129.7709695160393
 21
-155.556075335849
 31
0.0
  0
LINE
  5
3E6
330
1F
100
AcDbEntity
  8
BORDER
100
AcDbLine
 10
-139.479275293115
 20
-154.056075335849
 30
0.0
 11
-129.7709695160393
 21
-154.056075335849
 31
0.0
  0
TEXT
  5
3E7
330
1F
100
AcDbEntity
  8
TEXT
100
AcDbText
 10
-134.4063724045772
 20
-153.990450335849
 30
0.0
 40
0.1875
  1
FAX  724-837-3386
 72
     1
 11
-132.8438724045772
 21
-153.896700335849
 31
0.0
100
AcDbText
 73
     2
  0
TEXT
  5
3E8
330
1F
100
AcDbEntity
  8
TEXT
100
AcDbText
 10
-135.3126224045772
 20
-152.509200335849
 30
0.0
 40
0.1875
  1
INDUSTRIAL COOLING EQUIPMENT
 72
     1
 11
-132.8438724045772
 21
-152.415450335849
 31
0.0
100
AcDbText
 73
     2
  0
TEXT
  5
3E9
330
1F
100
AcDbEntity
  8
TEXT
100
AcDbText
 10
-134.3751224045772
 20
-152.8654503358491
 30
0.0
 40
0.1875
  1
141 WILSON AVENUE
 72
     1
 11
-132.8438724045772
 21
-152.7717003358491
 31
0.0
100
AcDbText
 73
     2
  0
TEXT
  5
3EA
330
1F
100
AcDbEntity
  8
TEXT
100
AcDbText
 10
-134.6563724045772
 20
-153.2404503358491
 30
0.0
 40
0.1875
  1
GREENSBURG, PA  15601
 72
     1
 11
-132.8438724045772
 21
-153.1467003358491
 31
0.0
100
AcDbText
 73
     2
  0
TEXT
  5
3EB
330
1F
100
AcDbEntity
  8
TEXT
100
AcDbText
 10
-135.6719974045772
 20
-153.6154503358491
 30
0.0
 40
0.1875
  1
724-837-2204  *  1-888-867-8234
 72
     1
 11
-132.8438724045772
 21
-153.5217003358491
 31
0.0
100
AcDbText
 73
     2
  0
TEXT
  5
3EC
330
1F
100
AcDbEntity
  8
TEXT
100
AcDbText
 10
-138.278223675855
 20
-156.8553826548612
 30
0.0
 40
0.75
  1
IQ300442
 72
     1
 11
-135.653223675855
 21
-156.4803826548612
 31
0.0
100
AcDbText
 73
     2
  0
TEXT
  5
3ED
330
1F
100
AcDbEntity
  8
TEXT
100
AcDbText
 10
-130.9240707873173
 20
-156.8553826548612
 30
0.0
 40
0.75
  1
1
 72
     1
 11
-130.7990707873173
 21
-156.4803826548612
 31
0.0
100
AcDbText
 73
     2
  0
TEXT
  5
3EE
330
1F
100
AcDbEntity
  8
TEXT
100
AcDbText
 10
-180.4326534585764
 20
-156.9734399738735
 30
0.0
 40
0.3
  1
REVISIONS
 72
     1
 11
-179.1826534585764
 21
-156.8234399738735
 31
0.0
100
AcDbText
 73
     2
  0
LINE
  5
3EF
330
1F
100
AcDbEntity
  8
BORDER
100
AcDbLine
 10
-167.2742995634671
 20
-157.1234399738734
 30
0.0
 11
-186.7689034585765
 21
-157.1234399738734
 31
0.0
  0
LINE
  5
3F0
330
1F
100
AcDbEntity
  8
BORDER
100
AcDbLine
 10
-167.2742995634671
 20
-154.7234399738732
 30
0.0
 11
-167.2742995634671
 21
-157.1234399738734
 31
0.0
  0
LINE
  5
3F1
330
1F
100
AcDbEntity
  8
BORDER
100
AcDbLine
 10
-186.7689034585765
 20
-156.5234399738734
 30
0.0
 11
-167.2742995634671
 21
-156.5234399738734
 31
0.0
  0
LINE
  5
3F2
330
1F
100
AcDbEntity
  8
BORDER
100
AcDbLine
 10
-172.9089034585765
 20
-156.5234399738734
 30
0.0
 11
-172.9089034585765
 21
-155.9234399738734
 31
0.0
  0
TEXT
  5
3F3
330
1F
100
AcDbEntity
  8
TEXT
100
AcDbText
 10
-172.1389034585766
 20
-156.3734399738734
 30
0.0
 40
0.3
  1
DATE
 72
     1
 11
-171.5889034585766
 21
-156.2234399738734
 31
0.0
100
AcDbText
 73
     2
  0
LINE
  5
3F4
330
1F
100
AcDbEntity
  8
BORDER
100
AcDbLine
 10
-170.2689034585766
 20
-156.5234399738734
 30
0.0
 11
-170.2689034585766
 21
-155.9234399738734
 31
0.0
  0
TEXT
  5
3F5
330
1F
100
AcDbEntity
  8
TEXT
100
AcDbText
 10
-169.7716015110218
 20
-156.3734399738734
 30
0.0
 40
0.3
  1
CHECKED
 72
     1
 11
-168.7716015110218
 21
-156.2234399738734
 31
0.0
100
AcDbText
 73
     2
  0
TEXT
  5
3F6
330
1F
100
AcDbEntity
  8
TEXT
100
AcDbText
 10
-180.6826534585764
 20
-156.3734399738734
 30
0.0
 40
0.3
  1
DESCRIPTION
 72
     1
 11
-179.1826534585764
 21
-156.2234399738734
 31
0.0
100
AcDbText
 73
     2
  0
LINE
  5
3F7
330
1F
100
AcDbEntity
  8
BORDER
100
AcDbLine
 10
-185.4564034585765
 20
-156.5234399738734
 30
0.0
 11
-185.4564034585765
 21
-155.9234399738734
 31
0.0
  0
LINE
  5
3F8
330
1F
100
AcDbEntity
  8
BORDER
100
AcDbLine
 10
-186.7689034585765
 20
-157.1234399738734
 30
0.0
 11
-186.7689034585765
 21
-153.5234399738732
 31
0.0
  0
TEXT
  5
3F9
330
1F
100
AcDbEntity
  8
TEXT
100
AcDbText
 10
-186.5626534585765
 20
-156.3734399738734
 30
0.0
 40
0.3
  1
REV
 72
     1
 11
-186.1126534585766
 21
-156.2234399738734
 31
0.0
100
AcDbText
 73
     2
  0
LINE
  5
3FA
330
1F
100
AcDbEntity
  8
BORDER
100
AcDbLine
 10
-167.2742995634671
 20
-155.9234399738734
 30
0.0
 11
-186.7689034585765
 21
-155.9234399738734
 31
0.0
  0
LINE
  5
3FB
330
1F
100
AcDbEntity
  8
BORDER
100
AcDbLine
 10
-167.2742995634671
 20
-156.5234399738734
 30
0.0
 11
-186.7689034585765
 21
-156.5234399738734
 31
0.0
  0
LINE
  5
3FC
330
1F
100
AcDbEntity
  8
BORDER
100
AcDbLine
 10
-172.9089034585765
 20
-155.9234399738734
 30
0.0
 11
-172.9089034585765
 21
-154.7234399738732
 31
0.0
  0
TEXT
  5
3FD
330
1F
100
AcDbEntity
  8
TEXT
100
AcDbText
 10
-172.4639034585766
 20
-155.7734399738734
 30
0.0
 40
0.3
  1
4-15-10
 72
     1
 11
-171.5889034585766
 21
-155.6234399738734
 31
0.0
100
AcDbText
 73
     2
  0
LINE
  5
3FE
330
1F
100
AcDbEntity
  8
BORDER
100
AcDbLine
 10
-170.2689034585766
 20
-155.9234399738734
 30
0.0
 11
-170.2689034585766
 21
-154.7234399738732
 31
0.0
  0
TEXT
  5
3FF
330
1F
100
AcDbEntity
  8
TEXT
100
AcDbText
 10
-169.1716015110218
 20
-155.7734399738734
 30
0.0
 40
0.3
  1
JJH
 72
     1
 11
-168.7716015110218
 21
-155.6234399738734
 31
0.0
100
AcDbText
 73
     2
  0
TEXT
  5
400
330
1F
100
AcDbEntity
  8
TEXT
100
AcDbText
 10
-181.2326534585764
 20
-155.7734399738734
 30
0.0
 40
0.3
  1
INITIAL RELEASE
 72
     1
 11
-179.1826534585764
 21
-155.6234399738734
 31
0.0
100
AcDbText
 73
     2
  0
LINE
  5
401
330
1F
100
AcDbEntity
  8
BORDER
100
AcDbLine
 10
-185.4564034585765
 20
-155.9234399738734
 30
0.0
 11
-185.4564034585765
 21
-154.7234399738732
 31
0.0
  0
TEXT
  5
402
330
1F
100
AcDbEntity
  8
TEXT
100
AcDbText
 10
-186.1876534585766
 20
-155.7734399738734
 30
0.0
 40
0.3
  1
0
 72
     1
 11
-186.1126534585766
 21
-155.6234399738734
 31
0.0
100
AcDbText
 73
     2
  0
LINE
  5
403
330
1F
100
AcDbEntity
  8
BORDER
100
AcDbLine
 10
-167.2742995634671
 20
-155.3234399738733
 30
0.0
 11
-186.7689034585765
 21
-155.3234399738733
 31
0.0
  0
LINE
  5
404
330
1F
100
AcDbEntity
  8
BORDER
100
AcDbLine
 10
-144.729275293115
 20
-154.0560753358491
 30
0.0
 11
-139.479275293115
 21
-154.0560753358491
 31
0.0
  0
TEXT
  5
405
330
1F
100
AcDbEntity
  8
TEXT
100
AcDbText
 10
-143.791775293115
 20
-154.6185753358491
 30
0.0
 40
0.375
  1
SPEC DWGS
 72
     1
 11
-142.104275293115
 21
-154.4310753358491
 31
0.0
100
AcDbText
 73
     2
  0
TEXT
  5
406
330
1F
100
AcDbEntity
  8
TEXT
100
AcDbText
 10
-144.6205252931149
 20
-154.3373253358491
 30
0.0
 40
0.1875
  1
FILE
100
AcDbText
  0
TEXT
  5
407
330
1F
100
AcDbEntity
  8
TEXT
100
AcDbText
 10
-136.4063724045773
 20
-155.4119343114815
 30
0.0
 40
0.375
  1
480-400VAC
 72
     1
 11
-134.6251224045773
 21
-155.2244343114815
 31
0.0
100
AcDbText
 73
     2
  0
TEXT
  5
408
330
1F
100
AcDbEntity
  8
TEXT
100
AcDbText
 10
-138.4380429522114
 20
-154.8754328846483
 30
0.0
 40
0.75
  1
IQ22/3000VS
 72
     1
 11
-134.6255429522114
 21
-154.5004328846483
 31
0.0
100
AcDbText
 73
     2
  0
TEXT
  5
409
330
1F
100
AcDbEntity
  8
DIM
100
AcDbText
 10
-162.4107071167582
 20
-88.51770964627462
 30
0.0
 40
1.0
  1
IQ2200VS
 72
     1
 11
-158.7440404500916
 21
-88.51770964627462
 31
0.0
100
AcDbText
  0
TEXT
  5
40A
330
1F
100
AcDbEntity
  8
DIM
100
AcDbText
 10
-163.4940404500916
 20
-90.18437631294137
 30
0.0
 40
1.0
  1
480-400VAC
 72
     1
 11
-158.7440404500916
 21
-90.18437631294137
 31
0.0
100
AcDbText
  0
TEXT
  5
40B
330
1F
100
AcDbEntity
  8
DIM
100
AcDbText
 10
-165.5773737834249
 20
-91.85104297960803
 30
0.0
 40
1.0
  1
CUTOUT DRAWING
 72
     1
 11
-158.7440404500916
 21
-91.85104297960803
 31
0.0
100
AcDbText
  0
CIRCLE
  5
40C
102
{ACAD_REACTORS
330
9C8
102
}
330
1F
100
AcDbEntity
  8
TEMPLATE
100
AcDbCircle
 10
-160.7009364873072
 20
-113.1439399738733
 30
0.0
 40
0.625
  0
CIRCLE
  5
40D
330
1F
100
AcDbEntity
  8
TEMPLATE
100
AcDbCircle
 10
-152.5209364873081
 20
-104.7139399738733
 30
0.0
 40
0.1875
  0
LINE
  5
40E
330
1F
100
AcDbEntity
  8
TEMPLATE
100
AcDbLine
 10
-156.9646864873081
 20
-103.3464399738735
 30
0.0
 11
-154.127186487308
 21
-103.3464399738734
 31
0.0
  0
CIRCLE
  5
40F
330
1F
100
AcDbEntity
  8
TEMPLATE
100
AcDbCircle
 10
-164.0209364873081
 20
-104.7139399738733
 30
0.0
 40
0.1875
  0
LINE
  5
410
330
1F
100
AcDbEntity
  8
TEMPLATE
100
AcDbLine
 10
-163.8081864873081
 20
-102.9049399738733
 30
0.0
 11
-157.7456864873081
 21
-102.9049399738734
 31
0.0
  0
LINE
  5
411
330
1F
100
AcDbEntity
  8
TEMPLATE
  6
DASHED
100
AcDbLine
 10
-164.404936487308
 20
-102.5629399738734
 30
0.0
 11
-152.134936487308
 21
-102.5629399738734
 31
0.0
  0
CIRCLE
  5
412
330
1F
100
AcDbEntity
  8
TEMPLATE
100
AcDbCircle
 10
-154.5209364873082
 20
-117.7139399738733
 30
0.0
 40
0.1875
  0
LINE
  5
413
330
1F
100
AcDbEntity
  8
TEMPLATE
100
AcDbLine
 10
-156.9646864873081
 20
-107.7964399738733
 30
0.0
 11
-154.1271864873076
 21
-107.7964399738733
 31
0.0
  0
CIRCLE
  5
414
330
1F
100
AcDbEntity
  8
TEMPLATE
100
AcDbCircle
 10
-162.0209364873081
 20
-117.7139399738733
 30
0.0
 40
0.1875
  0
LINE
  5
415
330
1F
100
AcDbEntity
  8
TEMPLATE
100
AcDbLine
 10
-163.8081864873081
 20
-111.6549399738734
 30
0.0
 11
-157.7456864873081
 21
-111.6549399738733
 31
0.0
  0
CIRCLE
  5
416
330
1F
100
AcDbEntity
  8
TEMPLATE
100
AcDbCircle
 10
-154.5209364873082
 20
-130.7139399738733
 30
0.0
 40
0.1875
  0
CIRCLE
  5
417
330
1F
100
AcDbEntity
  8
TEMPLATE
100
AcDbCircle
 10
-162.0209364873081
 20
-130.7139399738733
 30
0.0
 40
0.1875
  0
LINE
  5
418
330
1F
100
AcDbEntity
  8
TEMPLATE
  6
DASHED
100
AcDbLine
 10
-164.3299364873081
 20
-136.6839399738733
 30
0.0
 11
-152.210936487308
 21
-136.6839399738733
 31
0.0
  0
LINE
  5
419
330
1F
100
AcDbEntity
  8
TEMPLATE
  6
DASHED
100
AcDbLine
 10
-164.404936487308
 20
-136.6839399738733
 30
0.0
 11
-152.134936487308
 21
-136.6839399738733
 31
0.0
  0
LINE
  5
41A
330
1F
100
AcDbEntity
  8
TEMPLATE
  6
DASHED
100
AcDbLine
 10
-164.404936487308
 20
-136.6839399738733
 30
0.0
 11
-164.404936487308
 21
-102.5629399738734
 31
0.0
  0
LINE
  5
41B
330
1F
100
AcDbEntity
  8
TEMPLATE
100
AcDbLine
 10
-163.8081864873081
 20
-102.9049399738733
 30
0.0
 11
-163.8081864873081
 21
-111.6549399738734
 31
0.0
  0
LINE
  5
41C
330
1F
100
AcDbEntity
  8
TEMPLATE
  6
DASHED
100
AcDbLine
 10
-152.134936487308
 20
-136.6839399738733
 30
0.0
 11
-152.134936487308
 21
-102.5629399738734
 31
0.0
  0
LINE
  5
41D
330
1F
100
AcDbEntity
  8
TEMPLATE
100
AcDbLine
 10
-156.9646864873081
 20
-103.3464399738735
 30
0.0
 11
-156.9646864873081
 21
-107.7964399738733
 31
0.0
  0
LINE
  5
41E
330
1F
100
AcDbEntity
  8
TEMPLATE
100
AcDbLine
 10
-157.7456864873081
 20
-102.9049399738734
 30
0.0
 11
-157.7456864873081
 21
-111.6549399738733
 31
0.0
  0
LINE
  5
41F
330
1F
100
AcDbEntity
  8
TEMPLATE
100
AcDbLine
 10
-154.127186487308
 20
-103.3464399738734
 30
0.0
 11
-154.1271864873076
 21
-107.7964399738733
 31
0.0
  0
LINE
  5
420
330
1F
100
AcDbEntity
  8
DIM
100
AcDbLine
 10
-151.759936487308
 20
-102.5629399738734
 30
0.0
 11
-148.1194763344783
 21
-102.5629399738734
 31
0.0
  0
LINE
  5
421
330
1F
100
AcDbEntity
  8
DIM
100
AcDbLine
 10
-153.752186487308
 20
-103.3464399738734
 30
0.0
 11
-152.1194763344783
 21
-103.3464399738734
 31
0.0
  0
LINE
  5
422
330
1F
100
AcDbEntity
  8
DIM
100
AcDbLine
 10
-152.1194763344783
 20
-103.3464399738734
 30
0.0
 11
-150.1194763344783
 21
-104.2454686167849
 31
0.0
  0
LINE
  5
423
330
1F
100
AcDbEntity
  8
DIM
100
AcDbLine
 10
-150.1194763344783
 20
-104.2454686167849
 30
0.0
 11
-148.1194763344783
 21
-104.2454686167849
 31
0.0
  0
LINE
  5
424
330
1F
100
AcDbEntity
  8
DIM
100
AcDbLine
 10
-153.7521864873076
 20
-107.7964399738733
 30
0.0
 11
-148.1259349904886
 21
-107.7964399738733
 31
0.0
  0
LINE
  5
425
330
1F
100
AcDbEntity
  8
DIM
100
AcDbLine
 10
-163.8081864873081
 20
-102.5299399738733
 30
0.0
 11
-163.8081864873081
 21
-98.53584099302665
 31
0.0
  0
MTEXT
  5
426
330
1F
100
AcDbEntity
  8
DIM
100
AcDbMText
 10
-163.8081864873081
 20
-96.11917432636005
 30
0.0
 40
0.9999999999999998
 41
0.0
 71
     5
 72
     1
  1
\A1;0.597
 11
0.0000000000000001
 21
1.0
 31
0.0
 73
     1
 44
1.0
1001
ACAD
1000
MTEXTBEGIN
1070
    73
1070
     1
1070
    44
1040
1.0
1070
    74
1070
     0
1000
MTEXTEND
  0
LINE
  5
427
330
1F
100
AcDbEntity
  8
DIM
100
AcDbLine
 10
-157.7456864873081
 20
-102.5299399738734
 30
0.0
 11
-157.7456864873081
 21
-98.58258901469676
 31
0.0
  0
MTEXT
  5
428
330
1F
100
AcDbEntity
  8
DIM
100
AcDbMText
 10
-157.7456864873081
 20
-96.08258901469676
 30
0.0
 40
0.9999999999999998
 41
0.0
 71
     5
 72
     1
  1
\A1;6.659
 11
0.0000000000000001
 21
1.0
 31
0.0
 73
     1
 44
1.0
1001
ACAD
1000
MTEXTBEGIN
1070
    73
1070
     1
1070
    44
1040
1.0
1070
    74
1070
     0
1000
MTEXTEND
  0
LINE
  5
429
330
1F
100
AcDbEntity
  8
DIM
100
AcDbLine
 10
-154.127186487308
 20
-102.9714399738734
 30
0.0
 11
-154.127186487308
 21
-98.58258901469676
 31
0.0
  0
MTEXT
  5
42A
330
1F
100
AcDbEntity
  8
DIM
100
AcDbMText
 10
-154.127186487308
 20
-95.83258901469676
 30
0.0
 40
0.9999999999999998
 41
0.0
 71
     5
 72
     1
  1
\A1;10.278
 11
0.0000000000000001
 21
1.0
 31
0.0
 73
     1
 44
1.0
1001
ACAD
1000
MTEXTBEGIN
1070
    73
1070
     1
1070
    44
1040
1.0
1070
    74
1070
     0
1000
MTEXTEND
  0
LINE
  5
42B
330
1F
100
AcDbEntity
  8
DIM
100
AcDbLine
 10
-152.5209364873081
 20
-104.3389399738733
 30
0.0
 11
-152.5209364873081
 21
-98.58258901469676
 31
0.0
  0
MTEXT
  5
42C
330
1F
100
AcDbEntity
  8
DIM
100
AcDbMText
 10
-152.5209364873081
 20
-95.91592234803005
 30
0.0
 40
0.9999999999999998
 41
0.0
 71
     5
 72
     1
  1
\A1;11.884
 11
0.0000000000000001
 21
1.0
 31
0.0
 73
     1
 44
1.0
1001
ACAD
1000
MTEXTBEGIN
1070
    73
1070
     1
1070
    44
1040
1.0
1070
    74
1070
     0
1000
MTEXTEND
  0
LINE
  5
42D
330
1F
100
AcDbEntity
  8
TEMPLATE
  6
HIDDEN
100
AcDbLine
 10
-164.9599364873082
 20
-131.7264399738732
 30
0.0
 11
-164.9599364873082
 21
-132.1014399738734
 31
0.0
  0
LINE
  5
42E
330
1F
100
AcDbEntity
  8
TEMPLATE
  6
HIDDEN
100
AcDbLine
 10
-164.404936487308
 20
-132.1014399738734
 30
0.0
 11
-164.9599364873082
 21
-132.1014399738734
 31
0.0
  0
LINE
  5
42F
330
1F
100
AcDbEntity
  8
TEMPLATE
  6
HIDDEN
100
AcDbLine
 10
-164.404936487308
 20
-132.0524399738733
 30
0.0
 11
-164.9599364873082
 21
-132.0524399738733
 31
0.0
  0
LINE
  5
430
330
1F
100
AcDbEntity
  8
TEMPLATE
  6
HIDDEN
100
AcDbLine
 10
-164.404936487308
 20
-131.7754399738734
 30
0.0
 11
-164.9599364873082
 21
-131.7754399738734
 31
0.0
  0
LINE
  5
431
330
1F
100
AcDbEntity
  8
TEMPLATE
  6
HIDDEN
100
AcDbLine
 10
-164.404936487308
 20
-131.7264399738732
 30
0.0
 11
-164.9599364873082
 21
-131.7264399738732
 31
0.0
  0
DIMENSION
  5
432
330
1F
100
AcDbEntity
  8
DIM
100
AcDbDimension
  2
*D17
 10
-164.4049851348832
 20
-132.6539494650816
 30
0.0
 11
-162.0209364873082
 21
-142.1130251591364
 31
0.0
 70
   230
 71
     5
 42
2.384048647575099
  3
Standard
100
AcDbOrdinateDimension
 13
-162.0209364873081
 23
-130.7139399738733
 33
0.0
 14
-162.0209364873082
 24
-140.0230251591363
 34
0.0
  0
DIMENSION
  5
433
330
1F
100
AcDbEntity
  8
DIM
100
AcDbDimension
  2
*D1
 10
-164.4049851348832
 20
-132.6539494650816
 30
0.0
 11
-154.5209364873082
 21
-142.0319024246577
 31
0.0
 70
   230
 71
     5
 42
9.884048647574983
  3
Standard
100
AcDbOrdinateDimension
 13
-154.5209364873082
 23
-130.7139399738733
 33
0.0
 14
-154.5209364873082
 24
-139.9419024246576
 34
0.0
  0
DIMENSION
  5
435
330
1F
100
AcDbEntity
  8
DIM
100
AcDbDimension
  2
*D2
 10
-164.4049851348832
 20
-132.6539494650816
 30
0.0
 11
-152.134936487308
 21
-141.7541388690848
 31
0.0
 70
   230
 71
     5
 42
12.27004864757518
  3
Standard
100
AcDbOrdinateDimension
 13
-152.134936487308
 23
-136.6539399738733
 33
0.0
 14
-152.134936487308
 24
-139.4141388690848
 34
0.0
  0
LEADER
  5
436
330
1F
100
AcDbEntity
  8
DIM
100
AcDbLeader
  3
Standard
 73
     0
 40
1.0
 41
7.666666666666666
 76
     3
 10
-157.6916920155508
 20
-113.4015742118932
 30
0.0
 10
-154.2184281605019
 20
-109.3699531578846
 30
0.0
 10
-148.134936487308
 20
-109.3699531578846
 30
0.0
213
0.0
223
-0.5
233
0.0
1001
ACAD
1000
DSTYLE
1002
{
1070
   147
1040
0.375
1070
    77
1070
     0
1002
}
  0
MTEXT
  5
437
102
{ACAD_REACTORS
330
436
102
}
330
1F
100
AcDbEntity
  8
DIM
100
AcDbMText
 10
-147.117653541286
 20
-108.8679361758609
 30
0.0
 40
1.0
 41
0.0
 71
     1
 72
     1
  1
%%C1.250 (1)\PPOWER \PSUPPLY
 73
     1
 44
1.0
1001
ACAD
1000
MTEXTBEGIN
1070
    73
1070
     1
1070
    44
1040
1.0
1070
    74
1070
     0
1000
MTEXTEND
  0
LEADER
  5
438
330
1F
100
AcDbEntity
  8
DIM
100
AcDbLeader
  3
Standard
 73
     0
 40
1.0
 41
8.333333333333332
 76
     3
 10
-154.0559016823841
 20
-130.2340511030749
 30
0.0
 10
-150.5315764903658
 20
-127.7610988054149
 30
0.0
 10
-148.134936487308
 20
-127.7610988054149
 30
0.0
213
0.0
223
-0.5
233
0.0
1001
ACAD
1000
DSTYLE
1002
{
1070
   147
1040
0.375
1070
    77
1070
     0
1002
}
  0
MTEXT
  5
439
102
{ACAD_REACTORS
330
438
102
}
330
1F
100
AcDbEntity
  8
DIM
100
AcDbMText
 10
-147.759936487308
 20
-127.2610988054149
 30
0.0
 40
1.0
 41
0.0
 71
     1
 72
     1
  1
%%C0.375 (6)
 73
     1
 44
1.0
1001
ACAD
1000
MTEXTBEGIN
1070
    73
1070
     1
1070
    44
1040
1.0
1070
    74
1070
     0
1000
MTEXTEND
  0
LINE
  5
43A
330
1F
100
AcDbEntity
  8
DIM
100
AcDbLine
 10
-156.9646864873081
 20
-102.9714399738735
 30
0.0
 11
-156.9646864873081
 21
-101.3464399738735
 31
0.0
  0
LINE
  5
43B
330
1F
100
AcDbEntity
  8
DIM
100
AcDbLine
 10
-156.9646864873081
 20
-101.3464399738735
 30
0.0
 11
-156.0527386157603
 21
-100.5589669258293
 31
0.0
  0
LINE
  5
43C
330
1F
100
AcDbEntity
  8
DIM
100
AcDbLine
 10
-156.0527386157603
 20
-100.5589669258293
 30
0.0
 11
-156.0527386157603
 21
-98.55896692582934
 31
0.0
  0
MTEXT
  5
43D
330
1F
100
AcDbEntity
  8
DIM
100
AcDbMText
 10
-156.0527386157603
 20
-96.14230025916274
 30
0.0
 40
0.9999999999999998
 41
0.0
 71
     5
 72
     1
  1
\A1;7.440
 11
0.0000000000000001
 21
1.0
 31
0.0
 73
     1
 44
1.0
1001
ACAD
1000
MTEXTBEGIN
1070
    73
1070
     1
1070
    44
1040
1.0
1070
    74
1070
     0
1000
MTEXTEND
  0
LINE
  5
43E
330
1F
100
AcDbEntity
  8
DIM
100
AcDbLine
 10
-164.0209364873081
 20
-104.3389399738733
 30
0.0
 11
-164.0209364873081
 21
-102.5589669258293
 31
0.0
  0
LINE
  5
43F
330
1F
100
AcDbEntity
  8
DIM
100
AcDbLine
 10
-164.0209364873081
 20
-102.5589669258293
 30
0.0
 11
-165.4621800092486
 21
-100.5589669258293
 31
0.0
  0
LINE
  5
440
330
1F
100
AcDbEntity
  8
DIM
100
AcDbLine
 10
-165.4621800092486
 20
-100.5589669258293
 30
0.0
 11
-165.4621800092486
 21
-98.55896692582934
 31
0.0
  0
MTEXT
  5
441
330
1F
100
AcDbEntity
  8
DIM
100
AcDbMText
 10
-165.4621800092486
 20
-96.14230025916274
 30
0.0
 40
0.9999999999999998
 41
0.0
 71
     5
 72
     1
  1
\A1;0.384
 11
0.0000000000000001
 21
1.0
 31
0.0
 73
     1
 44
1.0
1001
ACAD
1000
MTEXTBEGIN
1070
    73
1070
     1
1070
    44
1040
1.0
1070
    74
1070
     0
1000
MTEXTEND
  0
CIRCLE
  5
442
330
1F
100
AcDbEntity
  8
TEMPLATE
100
AcDbCircle
 10
-158.200936487308
 20
-115.3939399738733
 30
0.0
 40
0.625
  0
DIMENSION
  5
443
330
1F
100
AcDbEntity
  8
DIM
100
AcDbDimension
  2
*D3
 10
-164.4049851348832
 20
-132.6539494650816
 30
0.0
 11
-158.200936487308
 21
-142.1329074012903
 31
0.0
 70
   230
 71
     5
 42
6.204048647575177
  3
Standard
100
AcDbOrdinateDimension
 13
-158.200936487308
 23
-115.3939399738733
 33
0.0
 14
-158.200936487308
 24
-140.1262407346236
 34
0.0
  0
MTEXT
  5
444
330
1F
100
AcDbEntity
  8
DIM
100
AcDbMText
 10
-150.7393473125641
 20
-120.7511712588875
 30
0.0
 40
1.0
 41
0.0
 71
     1
 72
     1
  1
%%C1.250 (1) OPTIONAL:\P EXTERNAL\P HEAT OUTPUT
 73
     1
 44
1.0
1001
ACAD
1000
MTEXTBEGIN
1070
    73
1070
     1
1070
    44
1040
1.0
1070
    74
1070
     0
1000
MTEXTEND
  0
DIMENSION
  5
446
330
1F
100
AcDbEntity
  8
DIM
100
AcDbDimension
  2
*D4
 10
-164.4049851348832
 20
-132.6539494650816
 30
0.0
 11
-159.5202818394587
 21
-142.1130251591364
 31
0.0
 70
   230
 71
     5
 42
3.704048647575176
  3
Standard
100
AcDbOrdinateDimension
 13
-160.700936487308
 23
-113.1439399738733
 33
0.0
 14
-159.5202818394587
 24
-140.1063584924697
 34
0.0
  0
SOLID
  5
447
330
1F
100
AcDbEntity
  8
DIM
100
AcDbTrace
 10
-156.5364331819204
 20
-117.5873747983528
 30
0.0
 11
-157.1712994865604
 21
-116.7969808756722
 31
0.0
 12
-156.3144063045452
 22
-117.3387482172436
 32
0.0
 13
-156.3144063045452
 23
-117.3387482172436
 33
0.0
1001
ACAD
1000
DSTYLE
1002
{
1070
   147
1040
0.375
1070
    77
1070
     0
1002
}
  0
LWPOLYLINE
  5
448
330
1F
100
AcDbEntity
  8
DIM
100
AcDbPolyline
 90
        2
 70
     0
 43
0.0
 10
-156.4254197432328
 20
-117.4630615077983
 10
-152.1834793646014
 20
-121.2511712588876
1001
ACAD
1000
DSTYLE
1002
{
1070
   147
1040
0.375
1070
    77
1070
     0
1002
}
  0
LINE
  5
449
330
1F
100
AcDbEntity
  8
DIM
100
AcDbLine
 10
-152.1834793646014
 20
-121.2511712588876
 30
0.0
 11
-151.1143473125641
 21
-121.2511712588876
 31
0.0
  0
LINE
  5
44E
330
1F
100
AcDbEntity
  8
0
100
AcDbLine
 10
-160.7909364873081
 20
-113.1439399738734
 30
0.0
 11
-160.610936487308
 21
-113.1439399738733
 31
0.0
  0
LINE
  5
44F
330
1F
100
AcDbEntity
  8
0
100
AcDbLine
 10
-160.700936487308
 20
-113.2339399738734
 30
0.0
 11
-160.7009364873082
 21
-113.0539399738733
 31
0.0
  0
LINE
  5
450
330
1F
100
AcDbEntity
  8
0
100
AcDbLine
 10
-158.200936487308
 20
-113.9839399738734
 30
0.0
 11
-158.200936487308
 21
-113.8039399738733
 31
0.0
  0
LINE
  5
451
330
1F
100
AcDbEntity
  8
0
100
AcDbLine
 10
-158.2909364873081
 20
-113.8939399738734
 30
0.0
 11
-158.110936487308
 21
-113.8939399738733
 31
0.0
  0
LINE
  5
452
330
1F
100
AcDbEntity
  8
0
100
AcDbLine
 10
-158.200936487308
 20
-115.4839399738734
 30
0.0
 11
-158.200936487308
 21
-115.3039399738733
 31
0.0
  0
LINE
  5
453
330
1F
100
AcDbEntity
  8
0
100
AcDbLine
 10
-158.2909364873081
 20
-115.3939399738734
 30
0.0
 11
-158.110936487308
 21
-115.3939399738733
 31
0.0
  0
LINE
  5
454
330
1F
100
AcDbEntity
  8
0
100
AcDbLine
 10
-154.6109364873082
 20
-117.7139399738733
 30
0.0
 11
-154.4309364873082
 21
-117.7139399738733
 31
0.0
  0
LINE
  5
455
330
1F
100
AcDbEntity
  8
0
100
AcDbLine
 10
-154.5209364873082
 20
-117.8039399738733
 30
0.0
 11
-154.5209364873082
 21
-117.6239399738734
 31
0.0
  0
LINE
  5
456
330
1F
100
AcDbEntity
  8
0
100
AcDbLine
 10
-162.0209364873081
 20
-117.8039399738733
 30
0.0
 11
-162.0209364873082
 21
-117.6239399738732
 31
0.0
  0
LINE
  5
457
330
1F
100
AcDbEntity
  8
0
100
AcDbLine
 10
-162.1109364873082
 20
-117.7139399738733
 30
0.0
 11
-161.9309364873082
 21
-117.7139399738733
 31
0.0
  0
LINE
  5
458
330
1F
100
AcDbEntity
  8
0
100
AcDbLine
 10
-162.0209364873081
 20
-130.8039399738733
 30
0.0
 11
-162.0209364873082
 21
-130.6239399738732
 31
0.0
  0
LINE
  5
459
330
1F
100
AcDbEntity
  8
0
100
AcDbLine
 10
-162.1109364873082
 20
-130.7139399738733
 30
0.0
 11
-161.9309364873082
 21
-130.7139399738732
 31
0.0
  0
LINE
  5
45A
330
1F
100
AcDbEntity
  8
0
100
AcDbLine
 10
-154.5209364873082
 20
-130.8039399738733
 30
0.0
 11
-154.5209364873082
 21
-130.6239399738732
 31
0.0
  0
LINE
  5
45B
330
1F
100
AcDbEntity
  8
0
100
AcDbLine
 10
-154.6109364873082
 20
-130.7139399738733
 30
0.0
 11
-154.4309364873082
 21
-130.7139399738732
 31
0.0
  0
LINE
  5
45C
330
1F
100
AcDbEntity
  8
0
100
AcDbLine
 10
-164.0209364873081
 20
-104.8039399738733
 30
0.0
 11
-164.0209364873082
 21
-104.6239399738732
 31
0.0
  0
LINE
  5
45D
330
1F
100
AcDbEntity
  8
0
100
AcDbLine
 10
-164.1109364873082
 20
-104.7139399738733
 30
0.0
 11
-163.9309364873081
 21
-104.7139399738732
 31
0.0
  0
LINE
  5
45E
330
1F
100
AcDbEntity
  8
0
100
AcDbLine
 10
-152.5209364873081
 20
-104.8005365701407
 30
0.0
 11
-152.5209364873082
 21
-104.6205365701406
 31
0.0
  0
LINE
  5
45F
330
1F
100
AcDbEntity
  8
0
100
AcDbLine
 10
-152.6109364873082
 20
-104.7105365701407
 30
0.0
 11
-152.4309364873082
 21
-104.7105365701406
 31
0.0
  0
DIMENSION
  5
460
330
1F
100
AcDbEntity
  8
DIM
100
AcDbDimension
  2
*D5
 10
-164.404936487308
 20
-136.6839399738733
 30
0.0
 11
-170.1516642865701
 21
-136.6839399738733
 31
0.0
 70
    38
 71
     5
 42
0.0
  3
Standard
100
AcDbOrdinateDimension
 13
-164.404936487308
 23
-136.6839399738733
 33
0.0
 14
-168.3949976199035
 24
-136.6839399738733
 34
0.0
  0
DIMENSION
  5
461
330
1F
100
AcDbEntity
  8
DIM
100
AcDbDimension
  2
*D6
 10
-164.404936487308
 20
-136.6839399738733
 30
0.0
 11
-170.4425472268009
 21
-130.7139399738733
 31
0.0
 70
    38
 71
     5
 42
5.969999999999997
  3
Standard
100
AcDbOrdinateDimension
 13
-162.0209364873081
 23
-130.7139399738733
 33
0.0
 14
-168.4358805601343
 24
-130.7139399738733
 34
0.0
  0
DIMENSION
  5
462
330
1F
100
AcDbEntity
  8
DIM
100
AcDbDimension
  2
*D7
 10
-164.404936487308
 20
-136.6839399738733
 30
0.0
 11
-145.5936482337205
 21
-117.7139399738733
 31
0.0
 70
    38
 71
     5
 42
18.97
  3
Standard
100
AcDbOrdinateDimension
 13
-154.5209364873082
 23
-117.7139399738733
 33
0.0
 14
-147.9336482337205
 24
-117.7139399738733
 34
0.0
  0
DIMENSION
  5
463
330
1F
100
AcDbEntity
  8
DIM
100
AcDbDimension
  2
*D8
 10
-164.404936487308
 20
-136.6839399738733
 30
0.0
 11
-145.708167767691
 21
-115.3939399738734
 31
0.0
 70
    38
 71
     5
 42
21.28999999999989
  3
Standard
100
AcDbOrdinateDimension
 13
-158.200936487308
 23
-115.3939399738734
 33
0.0
 14
-148.048167767691
 24
-115.3939399738734
 34
0.0
  0
DIMENSION
  5
464
330
1F
100
AcDbEntity
  8
DIM
100
AcDbDimension
  2
*D9
 10
-164.404936487308
 20
-136.6839399738733
 30
0.0
 11
-145.9387643188943
 21
-113.8939399738734
 31
0.0
 70
    38
 71
     5
 42
22.78999999999989
  3
Standard
100
AcDbOrdinateDimension
 13
-158.2009364873088
 23
-113.8939399738734
 33
0.0
 14
-148.445430985561
 24
-113.8939399738734
 34
0.0
  0
DIMENSION
  5
465
330
1F
100
AcDbEntity
  8
DIM
100
AcDbDimension
  2
*D10
 10
-164.404936487308
 20
-136.6839399738733
 30
0.0
 11
-170.9273373141193
 21
-113.1439399738734
 31
0.0
 70
    38
 71
     5
 42
23.53999999999989
  3
Standard
100
AcDbOrdinateDimension
 13
-160.700936487308
 23
-113.1439399738734
 33
0.0
 14
-168.4206706474526
 24
-113.1439399738734
 34
0.0
  0
DIMENSION
  5
466
330
1F
100
AcDbEntity
  8
DIM
100
AcDbDimension
  2
*D11
 10
-164.404936487308
 20
-136.6839399738733
 30
0.0
 11
-170.7721695785537
 21
-111.6549399738734
 31
0.0
 70
    38
  1
25.030
 71
     5
 42
25.02899999999988
  3
Standard
100
AcDbOrdinateDimension
 13
-163.8081864873081
 23
-111.6549399738734
 33
0.0
 14
-168.3488362452203
 24
-111.6549399738734
 34
0.0
  0
DIMENSION
  5
467
330
1F
100
AcDbEntity
  8
DIM
100
AcDbDimension
  2
*D12
 10
-164.404936487308
 20
-136.6839399738733
 30
0.0
 11
-170.7119592131988
 21
-104.7139399738733
 31
0.0
 70
    38
 71
     5
 42
31.97
  3
Standard
100
AcDbOrdinateDimension
 13
-164.0209364873082
 23
-104.7139399738733
 33
0.0
 14
-168.3719592131988
 24
-104.7139399738733
 34
0.0
  0
DIMENSION
  5
468
330
1F
100
AcDbEntity
  8
DIM
100
AcDbDimension
  2
*D13
 10
-164.404936487308
 20
-136.6839399738733
 30
0.0
 11
-145.3926861398039
 21
-107.7964399738733
 31
0.0
 70
    38
  1
28.888
 71
     5
 42
28.8875
  3
Standard
100
AcDbOrdinateDimension
 13
-154.1271864873076
 23
-107.7964399738733
 33
0.0
 14
-147.9826861398039
 24
-107.7964399738733
 34
0.0
  0
DIMENSION
  5
469
330
1F
100
AcDbEntity
  8
DIM
100
AcDbDimension
  2
*D14
 10
-164.404936487308
 20
-136.6839399738733
 30
0.0
 11
-145.5294763344783
 21
-104.2454686167849
 31
0.0
 70
    38
  1
33.338
 71
     5
 42
33.33749999999989
  3
Standard
100
AcDbOrdinateDimension
 13
-154.127186487308
 23
-103.3464399738734
 33
0.0
 14
-148.1194763344783
 24
-104.2454686167849
 34
0.0
  0
DIMENSION
  5
46A
330
1F
100
AcDbEntity
  8
DIM
100
AcDbDimension
  2
*D15
 10
-164.404936487308
 20
-136.6839399738733
 30
0.0
 11
-145.880173535192
 21
-102.5629399738734
 31
0.0
 70
    38
 71
     5
 42
34.12099999999988
  3
Standard
100
AcDbOrdinateDimension
 13
-152.134936487308
 23
-102.5629399738734
 33
0.0
 14
-148.1368402018587
 24
-102.5629399738734
 34
0.0
  0
DIMENSION
  5
46B
330
1F
100
AcDbEntity
  8
DIM
100
AcDbDimension
  2
*D16
 10
-164.404936487308
 20
-136.6839399738733
 30
0.0
 11
-170.8515916097733
 21
-102.9049399738733
 31
0.0
 70
    38
  1
33.780
 71
     5
 42
33.779
  3
Standard
100
AcDbOrdinateDimension
 13
-163.8081864873081
 23
-102.9049399738733
 33
0.0
 14
-168.3449249431067
 24
-102.9049399738733
 34
0.0
  0
TEXT
  5
573
330
1F
100
AcDbEntity
  8
DIM
100
AcDbText
 10
-162.4107071167582
 20
-86.98996063412904
 30
0.0
 40
1.0
  1
IQ2200VS
 72
     1
 11
-158.7440404500916
 21
-86.98996063412904
 31
0.0
100
AcDbText
  0
DIMENSION
  5
9B3
102
{ACAD_XDICTIONARY
360
9BF
102
}
102
{ACAD_REACTORS
330
9C8
102
}
330
1F
100
AcDbEntity
  8
0
100
AcDbDimension
  2
*D18
 10
-160.2944168671226
 20
-112.6692118428289
 30
0.0
 11
-172.1151838955014
 21
-119.7507864784469
 31
0.0
 70
   163
  1
<> (1)\POPTIONAL:\PETHERNET \PCONNECTION\PPORT
 71
     9
 42
1.250000000000055
  3
Standard
100
AcDbDiametricDimension
 15
-161.1074561074921
 25
-113.6186681049177
 35
0.0
 40
0.0
1001
ACAD
1000
DSTYLE
1002
{
1070
   288
1070
     1
1002
}
  0
CIRCLE
  5
9C9
330
1F
100
AcDbEntity
  8
TEMPLATE
100
AcDbCircle
 10
-158.2009364873088
 20
-113.8939399738734
 30
0.0
 40
0.625
  0
LINE
  5
A13
330
1F
100
AcDbEntity
  8
Washer
100
AcDbLine
 10
-161.374436487308
 20
-135.9664399738738
 30
0.0
 11
-163.6544364873082
 21
-135.9664399738738
 31
0.0
  0
LINE
  5
A14
102
{ACAD_REACTORS
330
A2A
102
}
330
1F
100
AcDbEntity
  8
Washer
100
AcDbLine
 10
-163.6544364873082
 20
-135.9664399738738
 30
0.0
 11
-163.6544364873082
 21
-132.8414399738737
 31
0.0
  0
LINE
  5
A15
330
1F
100
AcDbEntity
  8
Washer
100
AcDbLine
 10
-161.374436487308
 20
-132.8414399738737
 30
0.0
 11
-163.6544364873082
 21
-132.8414399738737
 31
0.0
  0
LINE
  5
A16
102
{ACAD_REACTORS
330
A7C
102
}
330
1F
100
AcDbEntity
  8
Washer
100
AcDbLine
 10
-161.374436487308
 20
-135.9664399738738
 30
0.0
 11
-161.374436487308
 21
-132.8414399738737
 31
0.0
  0
DIMENSION
  5
A17
102
{ACAD_XDICTIONARY
360
A22
102
}
102
{ACAD_REACTORS
330
A2A
102
}
330
1F
100
AcDbEntity
  8
0
100
AcDbDimension
  2
*D19
 10
-164.404936487308
 20
-136.6839399738733
 30
0.0
 11
-170.0283417657013
 21
-135.3496909784503
 31
0.0
 70
    38
  1
0.718
 71
     5
 42
0.717499999999518
  3
Standard
100
AcDbOrdinateDimension
 13
-163.6544364873082
 23
-135.9664399738738
 33
0.0
 14
-168.1883417657013
 24
-135.3496909784503
 34
0.0
  0
DIMENSION
  5
A2B
330
1F
100
AcDbEntity
  8
0
100
AcDbDimension
  2
*D20
 10
-164.404936487308
 20
-136.6839399738733
 30
0.0
 11
-170.0210841981064
 21
-133.210086080848
 31
0.0
 70
    38
  1
3.843
 71
     5
 42
3.842499999999546
  3
Standard
100
AcDbOrdinateDimension
 13
-163.6544364873082
 23
-132.8414399738737
 33
0.0
 14
-167.9310841981064
 24
-133.210086080848
 34
0.0
  0
DIMENSION
  5
A3F
330
1F
100
AcDbEntity
  8
0
100
AcDbDimension
  2
*D21
 10
-164.404936487308
 20
-136.6839399738733
 30
0.0
 11
-163.1086323130462
 21
-142.134775559381
 31
0.0
 70
   230
 71
     5
 42
0.7504999999997608
  3
Standard
100
AcDbOrdinateDimension
 13
-163.6544364873082
 23
-135.9664399738738
 33
0.0
 14
-163.1086323130462
 24
-140.2114422260476
 34
0.0
  0
DIMENSION
  5
A60
330
1F
100
AcDbEntity
  8
0
100
AcDbDimension
  2
*D22
 10
-164.404936487308
 20
-136.6839399738733
 30
0.0
 11
-164.4049364873079
 21
-142.2543900782159
 31
0.0
 70
   102
 71
     5
 42
0.0
  3
Standard
100
AcDbOrdinateDimension
 13
-164.404936487308
 23
-136.6839399738733
 33
0.0
 14
-164.404936487308
 24
-140.4977234115492
 34
0.0
  0
DIMENSION
  5
A69
102
{ACAD_XDICTIONARY
360
A74
102
}
102
{ACAD_REACTORS
330
A7C
102
}
330
1F
100
AcDbEntity
  8
0
100
AcDbDimension
  2
*D23
 10
-164.404936487308
 20
-136.6839399738733
 30
0.0
 11
-160.8250132682676
 21
-142.2726350209937
 31
0.0
 70
   102
 71
     5
 42
3.03049999999996
  3
Standard
100
AcDbOrdinateDimension
 13
-161.374436487308
 23
-135.9664399738738
 33
0.0
 14
-160.8250132682676
 24
-140.3493016876603
 34
0.0
  0
TEXT
  5
BF1
330
1F
100
AcDbEntity
  8
TEXT
100
AcDbText
 10
-186.1626534585766
 20
-155.1734399738733
 30
0.0
 40
0.3
  1
1
 72
     1
 11
-186.1126534585766
 21
-155.0234399738733
 31
0.0
100
AcDbText
 73
     2
  0
TEXT
  5
BF2
330
1F
100
AcDbEntity
  8
TEXT
100
AcDbText
 10
-185.0826534585764
 20
-155.1734399738733
 30
0.0
 40
0.3
  1
ADDED FUSE BLOCK CUTOUT, %%C1.250 WAS %%C0.750
 72
     1
 11
-179.1826534585764
 21
-155.0234399738733
 31
0.0
100
AcDbText
 73
     2
  0
TEXT
  5
BF3
330
1F
100
AcDbEntity
  8
TEXT
100
AcDbText
 10
-172.4389034585766
 20
-155.1734399738733
 30
0.0
 40
0.3
  1
6-14-11
 72
     1
 11
-171.5889034585766
 21
-155.0234399738733
 31
0.0
100
AcDbText
 73
     2
  0
TEXT
  5
BF4
330
1F
100
AcDbEntity
  8
TEXT
100
AcDbText
 10
-169.1716015110218
 20
-155.1734399738733
 30
0.0
 40
0.3
  1
JJH
 72
     1
 11
-168.7716015110218
 21
-155.0234399738733
 31
0.0
100
AcDbText
 73
     2
  0
LINE
  5
BF5
330
1F
100
AcDbEntity
  8
BORDER
100
AcDbLine
 10
-167.2742995634671
 20
-154.7234399738732
 30
0.0
 11
-186.7689034585765
 21
-154.7234399738732
 31
0.0
  0
ENDSEC
  0
SECTION
  2
OBJECTS
  0
DICTIONARY
  5
C
330
0
100
AcDbDictionary
281
     1
  3
ACAD_COLOR
350
73
  3
ACAD_GROUP
350
D
  3
ACAD_LAYOUT
350
1A
  3
ACAD_MATERIAL
350
72
  3
ACAD_MLINESTYLE
350
17
  3
ACAD_PLOTSETTINGS
350
19
  3
ACAD_PLOTSTYLENAME
350
E
  3
ACDBHEADERROUNDTRIPXREC
350
C1A
  3
AcDbVariableDictionary
350
66
  0
DICTIONARY
  5
126
330
2
100
AcDbDictionary
280
     1
281
     1
  3
ACAD_LAYERSTATES
360
127
  0
DICTIONARY
  5
9BF
330
9B3
100
AcDbDictionary
280
     1
281
     1
  3
ACAD_DIMASSOC
360
9C8
  0
DICTIONARY
  5
A22
330
A17
100
AcDbDictionary
280
     1
281
     1
  3
ACAD_DIMASSOC
360
A2A
  0
DICTIONARY
  5
A74
330
A69
100
AcDbDictionary
280
     1
281
     1
  3
ACAD_DIMASSOC
360
A7C
  0
DICTIONARY
  5
73
102
{ACAD_REACTORS
330
C
102
}
330
C
100
AcDbDictionary
281
     1
  0
DICTIONARY
  5
D
102
{ACAD_REACTORS
330
C
102
}
330
C
100
AcDbDictionary
281
     1
  0
DICTIONARY
  5
1A
102
{ACAD_REACTORS
330
C
102
}
330
C
100
AcDbDictionary
281
     1
  3
Layout1
350
59
  3
Layout2
350
5E
  3
Model
350
22
  0
DICTIONARY
  5
72
102
{ACAD_REACTORS
330
C
102
}
330
C
100
AcDbDictionary
281
     1
  0
DICTIONARY
  5
17
102
{ACAD_REACTORS
330
C
102
}
330
C
100
AcDbDictionary
281
     1
  3
Standard
350
18
  0
DICTIONARY
  5
19
102
{ACAD_REACTORS
330
C
102
}
330
C
100
AcDbDictionary
281
     1
  0
ACDBDICTIONARYWDFLT
  5
E
102
{ACAD_REACTORS
330
C
102
}
330
C
100
AcDbDictionary
281
     1
  3
Normal
350
F
100
AcDbDictionaryWithDefault
340
F
  0
DICTIONARY
  5
C1A
102
{ACAD_REACTORS
330
C
102
}
330
C
100
AcDbDictionary
281
     1
  3
COLORDICT
350
C1C
  3
MATERIALDICT
350
C1B
  0
DICTIONARY
  5
66
102
{ACAD_REACTORS
330
C
102
}
330
C
100
AcDbDictionary
281
     1
  3
DIMASSOC
350
67
  3
HIDETEXT
350
6B
  3
PROJECTNAME
350
55E
  0
DICTIONARY
  5
127
102
{ACAD_REACTORS
330
126
102
}
330
126
100
AcDbDictionary
281
     1
  0
DIMASSOC
  5
9C8
102
{ACAD_REACTORS
330
9BF
102
}
330
9BF
100
AcDbDimAssoc
330
9B3
 90
        2
 70
     0
 71
     0
  1
AcDbOsnapPointRef
 72
     3
331
40C
 73
     2
 91
        0
 40
0.0
 10
0.0
 20
0.0
 30
0.0
 75
     0
  0
DIMASSOC
  5
A2A
102
{ACAD_REACTORS
330
A22
102
}
330
A22
100
AcDbDimAssoc
330
A17
 90
        2
 70
     0
 71
     0
  1
AcDbOsnapPointRef
 72
    13
331
A14
 73
     2
 91
        0
 40
0.0
 10
0.0
 20
0.0
 30
2.000000000000000E+50
 75
     0
  0
DIMASSOC
  5
A7C
102
{ACAD_REACTORS
330
A74
102
}
330
A74
100
AcDbDimAssoc
330
A69
 90
        2
 70
     0
 71
     0
  1
AcDbOsnapPointRef
 72
    13
331
A16
 73
     2
 91
        0
 40
0.0
 10
0.0
 20
0.0
 30
2.000000000000000E+50
 75
     0
  0
LAYOUT
  5
59
102
{ACAD_XDICTIONARY
360
C1F
102
}
102
{ACAD_REACTORS
330
1A
102
}
330
1A
100
AcDbPlotSettings
  1

  2
None
  4

  6

 40
0.0
 41
0.0
 42
0.0
 43
0.0
 44
0.0
 45
0.0
 46
0.0
 47
0.0
 48
0.0
 49
0.0
140
0.0
141
0.0
142
1.0
143
1.0
 70
   688
 72
     0
 73
     0
 74
     5
  7

 75
    16
147
1.0
148
0.0
149
0.0
100
AcDbLayout
  1
Layout1
 70
     1
 71
     1
 10
0.0
 20
0.0
 11
12.0
 21
9.0
 12
0.0
 22
0.0
 32
0.0
 14
0.0
 24
0.0
 34
0.0
 15
0.0
 25
0.0
 35
0.0
146
0.0
 13
0.0
 23
0.0
 33
0.0
 16
1.0
 26
0.0
 36
0.0
 17
0.0
 27
1.0
 37
0.0
 76
     0
330
58
  0
LAYOUT
  5
5E
102
{ACAD_XDICTIONARY
360
C21
102
}
102
{ACAD_REACTORS
330
1A
102
}
330
1A
100
AcDbPlotSettings
  1

  2
None
  4

  6

 40
0.0
 41
0.0
 42
0.0
 43
0.0
 44
0.0
 45
0.0
 46
0.0
 47
0.0
 48
0.0
 49
0.0
140
0.0
141
0.0
142
1.0
143
1.0
 70
   688
 72
     0
 73
     0
 74
     5
  7

 75
    16
147
1.0
148
0.0
149
0.0
100
AcDbLayout
  1
Layout2
 70
     1
 71
     2
 10
0.0
 20
0.0
 11
12.0
 21
9.0
 12
0.0
 22
0.0
 32
0.0
 14
0.0
 24
0.0
 34
0.0
 15
0.0
 25
0.0
 35
0.0
146
0.0
 13
0.0
 23
0.0
 33
0.0
 16
1.0
 26
0.0
 36
0.0
 17
0.0
 27
1.0
 37
0.0
 76
     0
330
5D
  0
LAYOUT
  5
22
102
{ACAD_XDICTIONARY
360
C1D
102
}
102
{ACAD_REACTORS
330
1A
102
}
330
1A
100
AcDbPlotSettings
  1

  2
none_device
  4
ANSI_A_(8.50_x_11.00_Inches)
  6

 40
6.349999904632567
 41
19.04999923706055
 42
6.350006103515625
 43
19.04998779296875
 44
215.8999938964844
 45
279.3999938964844
 46
0.0
 47
0.0
 48
0.0
 49
0.0
140
0.0
141
0.0
142
1.0
143
2.584895464708373
 70
 11952
 72
     0
 73
     1
 74
     0
  7

 75
     0
147
0.3868628397755418
148
0.0
149
0.0
100
AcDbLayout
  1
Model
 70
     1
 71
     0
 10
0.0
 20
0.0
 11
12.0
 21
9.0
 12
0.0
 22
0.0
 32
0.0
 14
0.0
 24
0.0
 34
0.0
 15
0.0
 25
0.0
 35
0.0
146
0.0
 13
0.0
 23
0.0
 33
0.0
 16
1.0
 26
0.0
 36
0.0
 17
0.0
 27
1.0
 37
0.0
 76
     0
330
1F
  0
MLINESTYLE
  5
18
102
{ACAD_REACTORS
330
17
102
}
330
17
100
AcDbMlineStyle
  2
STANDARD
 70
     0
  3

 62
   256
 51
90.0
 52
90.0
 71
     2
 49
0.5
 62
   256
  6
BYLAYER
 49
-0.5
 62
   256
  6
BYLAYER
  0
ACDBPLACEHOLDER
  5
F
102
{ACAD_REACTORS
330
E
102
}
330
E
  0
XRECORD
  5
C1C
102
{ACAD_REACTORS
330
C1A
102
}
330
C1A
100
AcDbXrecord
280
     1
340
73
  0
XRECORD
  5
C1B
102
{ACAD_REACTORS
330
C1A
102
}
330
C1A
100
AcDbXrecord
280
     1
340
72
  0
DICTIONARYVAR
  5
67
102
{ACAD_REACTORS
330
66
102
}
330
66
100
DictionaryVariables
280
     0
  1
2
  0
DICTIONARYVAR
  5
6B
102
{ACAD_REACTORS
330
66
102
}
330
66
100
DictionaryVariables
280
     0
  1
1
  0
DICTIONARYVAR
  5
55E
102
{ACAD_REACTORS
330
66
102
}
330
66
100
DictionaryVariables
280
     0
  1

  0
DICTIONARY
  5
C1F
330
59
100
AcDbDictionary
280
     1
281
     1
  3
ACAD_XREC_ROUNDTRIP
360
C20
  0
DICTIONARY
  5
C21
330
5E
100
AcDbDictionary
280
     1
281
     1
  3
ACAD_XREC_ROUNDTRIP
360
C22
  0
DICTIONARY
  5
C1D
330
22
100
AcDbDictionary
280
     1
281
     1
  3
ACAD_XREC_ROUNDTRIP
360
C1E
  0
XRECORD
  5
C20
102
{ACAD_REACTORS
330
C1F
102
}
330
C1F
100
AcDbXrecord
280
     1
102
SHADEPLOT
 70
     0
102
SHADEPLOTRESLEVEL
 70
     2
102
SHADEPLOTCUSTOMDPI
 70
   300
  0
XRECORD
  5
C22
102
{ACAD_REACTORS
330
C21
102
}
330
C21
100
AcDbXrecord
280
     1
102
SHADEPLOT
 70
     0
102
SHADEPLOTRESLEVEL
 70
     2
102
SHADEPLOTCUSTOMDPI
 70
   300
  0
XRECORD
  5
C1E
102
{ACAD_REACTORS
330
C1D
102
}
330
C1D
100
AcDbXrecord
280
     1
102
SHADEPLOT
 70
     0
102
SHADEPLOTRESLEVEL
 70
     2
102
SHADEPLOTCUSTOMDPI
 70
   300
  0
ENDSEC
  0
EOF
