  0
SECTION
  2
HEADER
  9
$ACADVER
  1
AC1015
  9
$ACADMAINTVER
 70
    20
  9
$DWGCODEPAGE
  3
ANSI_1252
  9
$INSBASE
 10
0.0
 20
0.0
 30
0.0
  9
$EXTMIN
 10
-43.86595317138046
 20
-319.2166484863857
 30
0.0
  9
$EXTMAX
 10
2277.429124633184
 20
61.18551388011137
 30
0.0
  9
$LIMMIN
 10
0.0
 20
0.0
  9
$LIMMAX
 10
12.0
 20
9.0
  9
$ORTHOMODE
 70
     1
  9
$REGENMODE
 70
     1
  9
$FILLMODE
 70
     1
  9
$QTEXTMODE
 70
     0
  9
$MIRRTEXT
 70
     0
  9
$LTSCALE
 40
1.0
  9
$ATTMODE
 70
     1
  9
$TEXTSIZE
 40
0.2
  9
$TRACEWID
 40
0.05
  9
$TEXTSTYLE
  7
Standard
  9
$CLAYER
  8
0
  9
$CELTYPE
  6
ByLayer
  9
$CECOLOR
 62
   256
  9
$CELTSCALE
 40
1.0
  9
$DISPSILH
 70
     0
  9
$DIMSCALE
 40
1.0
  9
$DIMASZ
 40
1.0
  9
$DIMEXO
 40
0.375
  9
$DIMDLI
 40
0.38
  9
$DIMRND
 40
0.0
  9
$DIMDLE
 40
0.0
  9
$DIMEXE
 40
0.18
  9
$DIMTP
 40
0.0
  9
$DIMTM
 40
0.0
  9
$DIMTXT
 40
1.0
  9
$DIMCEN
 40
0.09
  9
$DIMTSZ
 40
0.0
  9
$DIMTOL
 70
     0
  9
$DIMLIM
 70
     0
  9
$DIMTIH
 70
     1
  9
$DIMTOH
 70
     1
  9
$DIMSE1
 70
     0
  9
$DIMSE2
 70
     0
  9
$DIMTAD
 70
     0
  9
$DIMZIN
 70
     0
  9
$DIMBLK
  1

  9
$DIMASO
 70
     1
  9
$DIMSHO
 70
     1
  9
$DIMPOST
  1

  9
$DIMAPOST
  1

  9
$DIMALT
 70
     0
  9
$DIMALTD
 70
     2
  9
$DIMALTF
 40
25.4
  9
$DIMLFAC
 40
1.0
  9
$DIMTOFL
 70
     0
  9
$DIMTVP
 40
0.0
  9
$DIMTIX
 70
     0
  9
$DIMSOXD
 70
     0
  9
$DIMSAH
 70
     0
  9
$DIMBLK1
  1

  9
$DIMBLK2
  1

  9
$DIMSTYLE
  2
Standard
  9
$DIMCLRD
 70
     0
  9
$DIMCLRE
 70
     0
  9
$DIMCLRT
 70
     0
  9
$DIMTFAC
 40
1.0
  9
$DIMGAP
 40
0.09
  9
$DIMJUST
 70
     0
  9
$DIMSD1
 70
     0
  9
$DIMSD2
 70
     0
  9
$DIMTOLJ
 70
     1
  9
$DIMTZIN
 70
     0
  9
$DIMALTZ
 70
     0
  9
$DIMALTTZ
 70
     0
  9
$DIMUPT
 70
     0
  9
$DIMDEC
 70
     3
  9
$DIMTDEC
 70
     3
  9
$DIMALTU
 70
     2
  9
$DIMALTTD
 70
     2
  9
$DIMTXSTY
  7
Standard
  9
$DIMAUNIT
 70
     0
  9
$DIMADEC
 70
     0
  9
$DIMALTRND
 40
0.0
  9
$DIMAZIN
 70
     0
  9
$DIMDSEP
 70
    46
  9
$DIMATFIT
 70
     3
  9
$DIMFRAC
 70
     0
  9
$DIMLDRBLK
  1

  9
$DIMLUNIT
 70
     2
  9
$DIMLWD
 70
    -2
  9
$DIMLWE
 70
    -2
  9
$DIMTMOVE
 70
     0
  9
$LUNITS
 70
     2
  9
$LUPREC
 70
     4
  9
$SKETCHINC
 40
0.1
  9
$FILLETRAD
 40
0.0
  9
$AUNITS
 70
     0
  9
$AUPREC
 70
     0
  9
$MENU
  1
.
  9
$ELEVATION
 40
0.0
  9
$PELEVATION
 40
0.0
  9
$THICKNESS
 40
0.0
  9
$LIMCHECK
 70
     0
  9
$CHAMFERA
 40
0.0
  9
$CHAMFERB
 40
0.0
  9
$CHAMFERC
 40
0.0
  9
$CHAMFERD
 40
0.0
  9
$SKPOLY
 70
     0
  9
$TDCREATE
 40
2455093.719977350
  9
$TDUCREATE
 40
2455093.886644016
  9
$TDUPDATE
 40
2455764.458553600
  9
$TDUUPDATE
 40
2455764.625220266
  9
$TDINDWG
 40
2.6782952431
  9
$TDUSRTIMER
 40
2.6782948843
  9
$USRTIMER
 70
     1
  9
$ANGBASE
 50
0.0
  9
$ANGDIR
 70
     0
  9
$PDMODE
 70
     0
  9
$PDSIZE
 40
0.0
  9
$PLINEWID
 40
0.0
  9
$SPLFRAME
 70
     0
  9
$SPLINETYPE
 70
     6
  9
$SPLINESEGS
 70
     8
  9
$HANDSEED
  5
1B9E
  9
$SURFTAB1
 70
     6
  9
$SURFTAB2
 70
     6
  9
$SURFTYPE
 70
     6
  9
$SURFU
 70
     6
  9
$SURFV
 70
     6
  9
$UCSBASE
  2

  9
$UCSNAME
  2

  9
$UCSORG
 10
0.0
 20
0.0
 30
0.0
  9
$UCSXDIR
 10
1.0
 20
0.0
 30
0.0
  9
$UCSYDIR
 10
0.0
 20
1.0
 30
0.0
  9
$UCSORTHOREF
  2

  9
$UCSORTHOVIEW
 70
     0
  9
$UCSORGTOP
 10
0.0
 20
0.0
 30
0.0
  9
$UCSORGBOTTOM
 10
0.0
 20
0.0
 30
0.0
  9
$UCSORGLEFT
 10
0.0
 20
0.0
 30
0.0
  9
$UCSORGRIGHT
 10
0.0
 20
0.0
 30
0.0
  9
$UCSORGFRONT
 10
0.0
 20
0.0
 30
0.0
  9
$UCSORGBACK
 10
0.0
 20
0.0
 30
0.0
  9
$PUCSBASE
  2

  9
$PUCSNAME
  2

  9
$PUCSORG
 10
0.0
 20
0.0
 30
0.0
  9
$PUCSXDIR
 10
1.0
 20
0.0
 30
0.0
  9
$PUCSYDIR
 10
0.0
 20
1.0
 30
0.0
  9
$PUCSORTHOREF
  2

  9
$PUCSORTHOVIEW
 70
     0
  9
$PUCSORGTOP
 10
0.0
 20
0.0
 30
0.0
  9
$PUCSORGBOTTOM
 10
0.0
 20
0.0
 30
0.0
  9
$PUCSORGLEFT
 10
0.0
 20
0.0
 30
0.0
  9
$PUCSORGRIGHT
 10
0.0
 20
0.0
 30
0.0
  9
$PUCSORGFRONT
 10
0.0
 20
0.0
 30
0.0
  9
$PUCSORGBACK
 10
0.0
 20
0.0
 30
0.0
  9
$USERI1
 70
     0
  9
$USERI2
 70
     0
  9
$USERI3
 70
     0
  9
$USERI4
 70
     0
  9
$USERI5
 70
     0
  9
$USERR1
 40
0.0
  9
$USERR2
 40
0.0
  9
$USERR3
 40
0.0
  9
$USERR4
 40
0.0
  9
$USERR5
 40
0.0
  9
$WORLDVIEW
 70
     1
  9
$SHADEDGE
 70
     3
  9
$SHADEDIF
 70
    70
  9
$TILEMODE
 70
     1
  9
$MAXACTVP
 70
    64
  9
$PINSBASE
 10
0.0
 20
0.0
 30
0.0
  9
$PLIMCHECK
 70
     0
  9
$PEXTMIN
 10
0.0
 20
0.0
 30
0.0
  9
$PEXTMAX
 10
0.0
 20
0.0
 30
0.0
  9
$PLIMMIN
 10
0.0
 20
0.0
  9
$PLIMMAX
 10
12.0
 20
9.0
  9
$UNITMODE
 70
     0
  9
$VISRETAIN
 70
     1
  9
$PLINEGEN
 70
     0
  9
$PSLTSCALE
 70
     1
  9
$TREEDEPTH
 70
  3020
  9
$CMLSTYLE
  2
Standard
  9
$CMLJUST
 70
     0
  9
$CMLSCALE
 40
1.0
  9
$PROXYGRAPHICS
 70
     1
  9
$MEASUREMENT
 70
     0
  9
$CELWEIGHT
370
    -1
  9
$ENDCAPS
280
     0
  9
$JOINSTYLE
280
     0
  9
$LWDISPLAY
290
     0
  9
$INSUNITS
 70
     1
  9
$HYPERLINKBASE
  1

  9
$STYLESHEET
  1

  9
$XEDIT
290
     1
  9
$CEPSNTYPE
380
     0
  9
$PSTYLEMODE
290
     1
  9
$FINGERPRINTGUID
  2
{FDEAD576-A652-11D2-9A35-0060089B3A3F}
  9
$VERSIONGUID
  2
{38856CFC-91F8-4AF9-A049-386373A352EB}
  9
$EXTNAMES
290
     1
  9
$PSVPSCALE
 40
0.0
  9
$OLESTARTUP
290
     0
  0
ENDSEC
  0
SECTION
  2
CLASSES
  0
CLASS
  1
ACDBDICTIONARYWDFLT
  2
AcDbDictionaryWithDefault
  3
ObjectDBX Classes
 90
        0
280
     0
281
     0
  0
CLASS
  1
ACDBPLACEHOLDER
  2
AcDbPlaceHolder
  3
ObjectDBX Classes
 90
        0
280
     0
281
     0
  0
CLASS
  1
LAYOUT
  2
AcDbLayout
  3
ObjectDBX Classes
 90
        0
280
     0
281
     0
  0
CLASS
  1
DICTIONARYVAR
  2
AcDbDictionaryVar
  3
ObjectDBX Classes
 90
        0
280
     0
281
     0
  0
ENDSEC
  0
SECTION
  2
TABLES
  0
TABLE
  2
VPORT
  5
8
330
0
100
AcDbSymbolTable
 70
    12
  0
VPORT
  5
1B94
330
8
100
AcDbSymbolTableRecord
100
AcDbViewportTableRecord
  2
*Active
 70
     0
 10
0.0
 20
0.0
 11
1.0
 21
1.0
 12
37.86716700606212
 22
31.59432699114667
 13
0.0
 23
0.0
 14
0.5
 24
0.5
 15
0.5
 25
0.5
 16
0.0
 26
0.0
 36
1.0
 17
0.0
 27
0.0
 37
0.0
 40
78.99407347006288
 41
2.028571428571428
 42
50.0
 43
0.0
 44
0.0
 50
0.0
 51
0.0
 71
     0
 72
  1000
 73
     1
 74
     3
 75
     0
 76
     0
 77
     0
 78
     0
281
     0
 65
     1
110
0.0
120
0.0
130
0.0
111
1.0
121
0.0
131
0.0
112
0.0
122
1.0
132
0.0
 79
     0
146
0.0
  0
ENDTAB
  0
TABLE
  2
LTYPE
  5
5
330
0
100
AcDbSymbolTable
 70
     2
  0
LTYPE
  5
14
330
5
100
AcDbSymbolTableRecord
100
AcDbLinetypeTableRecord
  2
ByBlock
 70
     0
  3

 72
    65
 73
     0
 40
0.0
  0
LTYPE
  5
15
330
5
100
AcDbSymbolTableRecord
100
AcDbLinetypeTableRecord
  2
ByLayer
 70
     0
  3

 72
    65
 73
     0
 40
0.0
  0
LTYPE
  5
16
330
5
100
AcDbSymbolTableRecord
100
AcDbLinetypeTableRecord
  2
Continuous
 70
     0
  3
Solid line
 72
    65
 73
     0
 40
0.0
  0
LTYPE
  5
139
330
5
100
AcDbSymbolTableRecord
100
AcDbLinetypeTableRecord
  2
HIDDEN
 70
     0
  3
__ __ __ __ __ __ __ __ __ __ __ __ __ __ __ __
 72
    65
 73
     2
 40
0.375
 49
0.25
 74
     0
 49
-0.125
 74
     0
  0
ENDTAB
  0
TABLE
  2
LAYER
  5
2
102
{ACAD_XDICTIONARY
360
142
102
}
330
0
100
AcDbSymbolTable
 70
     9
  0
LAYER
  5
10
330
2
100
AcDbSymbolTableRecord
100
AcDbLayerTableRecord
  2
0
 70
     0
 62
     7
  6
Continuous
370
    -3
390
F
  0
LAYER
  5
13A
330
2
100
AcDbSymbolTableRecord
100
AcDbLayerTableRecord
  2
Defpoints
 70
     0
 62
     7
  6
Continuous
290
     0
370
    -3
390
F
  0
LAYER
  5
13B
330
2
100
AcDbSymbolTableRecord
100
AcDbLayerTableRecord
  2
OBJ
 70
     0
 62
     7
  6
Continuous
370
    -3
390
F
  0
LAYER
  5
13C
330
2
100
AcDbSymbolTableRecord
100
AcDbLayerTableRecord
  2
DIM
 70
     0
 62
     7
  6
Continuous
370
    -3
390
F
  0
LAYER
  5
13D
330
2
100
AcDbSymbolTableRecord
100
AcDbLayerTableRecord
  2
TEXT
 70
     0
 62
    -7
  6
Continuous
370
    -3
390
F
  0
LAYER
  5
13E
330
2
100
AcDbSymbolTableRecord
100
AcDbLayerTableRecord
  2
TEMPLATE
 70
     0
 62
     7
  6
Continuous
370
    -3
390
F
  0
LAYER
  5
13F
330
2
100
AcDbSymbolTableRecord
100
AcDbLayerTableRecord
  2
DIMENSION
 70
     0
 62
     7
  6
Continuous
370
    -3
390
F
  0
LAYER
  5
140
330
2
100
AcDbSymbolTableRecord
100
AcDbLayerTableRecord
  2
THERMOSTATCVR
 70
     0
 62
     7
  6
Continuous
370
    -3
390
F
  0
LAYER
  5
141
330
2
100
AcDbSymbolTableRecord
100
AcDbLayerTableRecord
  2
BORDER
 70
     0
 62
     7
  6
Continuous
370
    -3
390
F
  0
ENDTAB
  0
TABLE
  2
STYLE
  5
3
330
0
100
AcDbSymbolTable
 70
     1
  0
STYLE
  5
11
330
3
100
AcDbSymbolTableRecord
100
AcDbTextStyleTableRecord
  2
Standard
 70
     0
 40
0.0
 41
1.0
 50
0.0
 71
     0
 42
0.2
  3
txt
  4

  0
ENDTAB
  0
TABLE
  2
VIEW
  5
6
330
0
100
AcDbSymbolTable
 70
     0
  0
ENDTAB
  0
TABLE
  2
UCS
  5
7
330
0
100
AcDbSymbolTable
 70
     0
  0
ENDTAB
  0
TABLE
  2
APPID
  5
9
330
0
100
AcDbSymbolTable
 70
     1
  0
APPID
  5
12
330
9
100
AcDbSymbolTableRecord
100
AcDbRegAppTableRecord
  2
ACAD
 70
     0
  0
ENDTAB
  0
TABLE
  2
DIMSTYLE
  5
A
330
0
100
AcDbSymbolTable
 70
     1
100
AcDbDimStyleTable
 71
     1
340
27
  0
DIMSTYLE
105
27
102
{ACAD_REACTORS
330
1289
330
128B
330
1298
330
166C
330
166D
330
166E
330
166F
330
1670
330
1673
330
168F
330
1690
330
1691
330
1692
330
16AE
330
16AF
330
16B0
330
16B1
330
16B2
330
16B3
330
16B4
330
16B5
330
16B6
330
16B7
330
16B8
330
16B9
330
16BA
102
}
330
A
100
AcDbSymbolTableRecord
100
AcDbDimStyleTableRecord
  2
Standard
 70
     0
 41
1.0
 42
0.375
140
1.0
271
     3
272
     3
340
11
  0
ENDTAB
  0
TABLE
  2
BLOCK_RECORD
  5
1
330
0
100
AcDbSymbolTable
 70
    88
  0
BLOCK_RECORD
  5
1F
330
1
100
AcDbSymbolTableRecord
100
AcDbBlockTableRecord
  2
*Model_Space
340
22
  0
BLOCK_RECORD
  5
58
330
1
100
AcDbSymbolTableRecord
100
AcDbBlockTableRecord
  2
*Paper_Space
340
59
  0
BLOCK_RECORD
  5
5D
330
1
100
AcDbSymbolTableRecord
100
AcDbBlockTableRecord
  2
*Paper_Space0
340
5E
  0
BLOCK_RECORD
  5
89
330
1
100
AcDbSymbolTableRecord
100
AcDbBlockTableRecord
  2
*X1
340
0
  0
BLOCK_RECORD
  5
8E
330
1
100
AcDbSymbolTableRecord
100
AcDbBlockTableRecord
  2
*X2
340
0
  0
BLOCK_RECORD
  5
94
330
1
100
AcDbSymbolTableRecord
100
AcDbBlockTableRecord
  2
*D3
340
0
  0
BLOCK_RECORD
  5
9C
330
1
100
AcDbSymbolTableRecord
100
AcDbBlockTableRecord
  2
*D4
340
0
  0
BLOCK_RECORD
  5
A6
330
1
100
AcDbSymbolTableRecord
100
AcDbBlockTableRecord
  2
*D5
340
0
  0
BLOCK_RECORD
  5
AE
330
1
100
AcDbSymbolTableRecord
100
AcDbBlockTableRecord
  2
*D6
340
0
  0
BLOCK_RECORD
  5
B6
330
1
100
AcDbSymbolTableRecord
100
AcDbBlockTableRecord
  2
*D7
340
0
  0
BLOCK_RECORD
  5
BE
330
1
100
AcDbSymbolTableRecord
100
AcDbBlockTableRecord
  2
*D8
340
0
  0
BLOCK_RECORD
  5
C8
330
1
100
AcDbSymbolTableRecord
100
AcDbBlockTableRecord
  2
*D9
340
0
  0
BLOCK_RECORD
  5
D2
330
1
100
AcDbSymbolTableRecord
100
AcDbBlockTableRecord
  2
*D10
340
0
  0
BLOCK_RECORD
  5
DA
330
1
100
AcDbSymbolTableRecord
100
AcDbBlockTableRecord
  2
*D11
340
0
  0
BLOCK_RECORD
  5
E2
330
1
100
AcDbSymbolTableRecord
100
AcDbBlockTableRecord
  2
*D12
340
0
  0
BLOCK_RECORD
  5
EA
330
1
100
AcDbSymbolTableRecord
100
AcDbBlockTableRecord
  2
*D13
340
0
  0
BLOCK_RECORD
  5
F2
330
1
100
AcDbSymbolTableRecord
100
AcDbBlockTableRecord
  2
*D14
340
0
  0
BLOCK_RECORD
  5
FA
330
1
100
AcDbSymbolTableRecord
100
AcDbBlockTableRecord
  2
*D15
340
0
  0
BLOCK_RECORD
  5
102
330
1
100
AcDbSymbolTableRecord
100
AcDbBlockTableRecord
  2
*D16
340
0
  0
BLOCK_RECORD
  5
10A
330
1
100
AcDbSymbolTableRecord
100
AcDbBlockTableRecord
  2
*D17
340
0
  0
BLOCK_RECORD
  5
112
330
1
100
AcDbSymbolTableRecord
100
AcDbBlockTableRecord
  2
*D18
340
0
  0
BLOCK_RECORD
  5
11A
330
1
100
AcDbSymbolTableRecord
100
AcDbBlockTableRecord
  2
*D19
340
0
  0
BLOCK_RECORD
  5
122
330
1
100
AcDbSymbolTableRecord
100
AcDbBlockTableRecord
  2
*D20
340
0
  0
BLOCK_RECORD
  5
12C
330
1
100
AcDbSymbolTableRecord
100
AcDbBlockTableRecord
  2
*D21
340
0
  0
BLOCK_RECORD
  5
129E
330
1
100
AcDbSymbolTableRecord
100
AcDbBlockTableRecord
  2
*D22
340
0
  0
BLOCK_RECORD
  5
12A6
330
1
100
AcDbSymbolTableRecord
100
AcDbBlockTableRecord
  2
*D23
340
0
  0
BLOCK_RECORD
  5
12AE
330
1
100
AcDbSymbolTableRecord
100
AcDbBlockTableRecord
  2
*D24
340
0
  0
BLOCK_RECORD
  5
12B6
330
1
100
AcDbSymbolTableRecord
100
AcDbBlockTableRecord
  2
*D25
340
0
  0
BLOCK_RECORD
  5
12BE
330
1
100
AcDbSymbolTableRecord
100
AcDbBlockTableRecord
  2
*D26
340
0
  0
BLOCK_RECORD
  5
12C6
330
1
100
AcDbSymbolTableRecord
100
AcDbBlockTableRecord
  2
*D27
340
0
  0
BLOCK_RECORD
  5
12CE
330
1
100
AcDbSymbolTableRecord
100
AcDbBlockTableRecord
  2
*D28
340
0
  0
BLOCK_RECORD
  5
12D8
330
1
100
AcDbSymbolTableRecord
100
AcDbBlockTableRecord
  2
*D29
340
0
  0
BLOCK_RECORD
  5
12E2
330
1
100
AcDbSymbolTableRecord
100
AcDbBlockTableRecord
  2
*D30
340
0
  0
BLOCK_RECORD
  5
12EA
330
1
100
AcDbSymbolTableRecord
100
AcDbBlockTableRecord
  2
*D31
340
0
  0
BLOCK_RECORD
  5
12F2
330
1
100
AcDbSymbolTableRecord
100
AcDbBlockTableRecord
  2
*D32
340
0
  0
BLOCK_RECORD
  5
12FA
330
1
100
AcDbSymbolTableRecord
100
AcDbBlockTableRecord
  2
*D33
340
0
  0
BLOCK_RECORD
  5
1304
330
1
100
AcDbSymbolTableRecord
100
AcDbBlockTableRecord
  2
*D34
340
0
  0
BLOCK_RECORD
  5
130C
330
1
100
AcDbSymbolTableRecord
100
AcDbBlockTableRecord
  2
*D35
340
0
  0
BLOCK_RECORD
  5
1319
330
1
100
AcDbSymbolTableRecord
100
AcDbBlockTableRecord
  2
*D36
340
0
  0
BLOCK_RECORD
  5
1323
330
1
100
AcDbSymbolTableRecord
100
AcDbBlockTableRecord
  2
*D37
340
0
  0
BLOCK_RECORD
  5
132B
330
1
100
AcDbSymbolTableRecord
100
AcDbBlockTableRecord
  2
*D38
340
0
  0
BLOCK_RECORD
  5
1333
330
1
100
AcDbSymbolTableRecord
100
AcDbBlockTableRecord
  2
*D39
340
0
  0
BLOCK_RECORD
  5
133B
330
1
100
AcDbSymbolTableRecord
100
AcDbBlockTableRecord
  2
*D40
340
0
  0
BLOCK_RECORD
  5
1523
330
1
100
AcDbSymbolTableRecord
100
AcDbBlockTableRecord
  2
*D41
340
0
  0
BLOCK_RECORD
  5
152D
330
1
100
AcDbSymbolTableRecord
100
AcDbBlockTableRecord
  2
*D42
340
0
  0
BLOCK_RECORD
  5
1535
330
1
100
AcDbSymbolTableRecord
100
AcDbBlockTableRecord
  2
*D43
340
0
  0
BLOCK_RECORD
  5
153D
330
1
100
AcDbSymbolTableRecord
100
AcDbBlockTableRecord
  2
*D44
340
0
  0
BLOCK_RECORD
  5
1545
330
1
100
AcDbSymbolTableRecord
100
AcDbBlockTableRecord
  2
*D45
340
0
  0
BLOCK_RECORD
  5
154F
330
1
100
AcDbSymbolTableRecord
100
AcDbBlockTableRecord
  2
*D46
340
0
  0
BLOCK_RECORD
  5
1559
330
1
100
AcDbSymbolTableRecord
100
AcDbBlockTableRecord
  2
*D47
340
0
  0
BLOCK_RECORD
  5
1563
330
1
100
AcDbSymbolTableRecord
100
AcDbBlockTableRecord
  2
*D48
340
0
  0
BLOCK_RECORD
  5
156B
330
1
100
AcDbSymbolTableRecord
100
AcDbBlockTableRecord
  2
*D49
340
0
  0
BLOCK_RECORD
  5
1573
330
1
100
AcDbSymbolTableRecord
100
AcDbBlockTableRecord
  2
*D50
340
0
  0
BLOCK_RECORD
  5
157B
330
1
100
AcDbSymbolTableRecord
100
AcDbBlockTableRecord
  2
*D51
340
0
  0
BLOCK_RECORD
  5
1583
330
1
100
AcDbSymbolTableRecord
100
AcDbBlockTableRecord
  2
*D52
340
0
  0
BLOCK_RECORD
  5
158D
330
1
100
AcDbSymbolTableRecord
100
AcDbBlockTableRecord
  2
*D53
340
0
  0
BLOCK_RECORD
  5
1597
330
1
100
AcDbSymbolTableRecord
100
AcDbBlockTableRecord
  2
*D54
340
0
  0
BLOCK_RECORD
  5
159F
330
1
100
AcDbSymbolTableRecord
100
AcDbBlockTableRecord
  2
*D55
340
0
  0
BLOCK_RECORD
  5
15A7
330
1
100
AcDbSymbolTableRecord
100
AcDbBlockTableRecord
  2
*D56
340
0
  0
BLOCK_RECORD
  5
15AF
330
1
100
AcDbSymbolTableRecord
100
AcDbBlockTableRecord
  2
*D57
340
0
  0
BLOCK_RECORD
  5
15B9
330
1
100
AcDbSymbolTableRecord
100
AcDbBlockTableRecord
  2
*D58
340
0
  0
BLOCK_RECORD
  5
15C3
330
1
100
AcDbSymbolTableRecord
100
AcDbBlockTableRecord
  2
*D59
340
0
  0
BLOCK_RECORD
  5
15CE
330
1
100
AcDbSymbolTableRecord
100
AcDbBlockTableRecord
  2
*D60
340
0
  0
BLOCK_RECORD
  5
15D6
330
1
100
AcDbSymbolTableRecord
100
AcDbBlockTableRecord
  2
*D61
340
0
  0
BLOCK_RECORD
  5
15E0
330
1
100
AcDbSymbolTableRecord
100
AcDbBlockTableRecord
  2
*D62
340
0
  0
BLOCK_RECORD
  5
15EA
330
1
100
AcDbSymbolTableRecord
100
AcDbBlockTableRecord
  2
*D63
340
0
  0
BLOCK_RECORD
  5
16BF
330
1
100
AcDbSymbolTableRecord
100
AcDbBlockTableRecord
  2
*D65
340
0
  0
BLOCK_RECORD
  5
16CA
330
1
100
AcDbSymbolTableRecord
100
AcDbBlockTableRecord
  2
*D66
340
0
  0
BLOCK_RECORD
  5
16D4
330
1
100
AcDbSymbolTableRecord
100
AcDbBlockTableRecord
  2
*D67
340
0
  0
BLOCK_RECORD
  5
16DE
330
1
100
AcDbSymbolTableRecord
100
AcDbBlockTableRecord
  2
*D68
340
0
  0
BLOCK_RECORD
  5
16E6
330
1
100
AcDbSymbolTableRecord
100
AcDbBlockTableRecord
  2
*D69
340
0
  0
BLOCK_RECORD
  5
16F1
330
1
100
AcDbSymbolTableRecord
100
AcDbBlockTableRecord
  2
*D70
340
0
  0
BLOCK_RECORD
  5
16FB
330
1
100
AcDbSymbolTableRecord
100
AcDbBlockTableRecord
  2
*D71
340
0
  0
BLOCK_RECORD
  5
1703
330
1
100
AcDbSymbolTableRecord
100
AcDbBlockTableRecord
  2
*D72
340
0
  0
BLOCK_RECORD
  5
170B
330
1
100
AcDbSymbolTableRecord
100
AcDbBlockTableRecord
  2
*D73
340
0
  0
BLOCK_RECORD
  5
1713
330
1
100
AcDbSymbolTableRecord
100
AcDbBlockTableRecord
  2
*D74
340
0
  0
BLOCK_RECORD
  5
171D
330
1
100
AcDbSymbolTableRecord
100
AcDbBlockTableRecord
  2
*D75
340
0
  0
BLOCK_RECORD
  5
1727
330
1
100
AcDbSymbolTableRecord
100
AcDbBlockTableRecord
  2
*D76
340
0
  0
BLOCK_RECORD
  5
1731
330
1
100
AcDbSymbolTableRecord
100
AcDbBlockTableRecord
  2
*D77
340
0
  0
BLOCK_RECORD
  5
1739
330
1
100
AcDbSymbolTableRecord
100
AcDbBlockTableRecord
  2
*D78
340
0
  0
BLOCK_RECORD
  5
1741
330
1
100
AcDbSymbolTableRecord
100
AcDbBlockTableRecord
  2
*D79
340
0
  0
BLOCK_RECORD
  5
1749
330
1
100
AcDbSymbolTableRecord
100
AcDbBlockTableRecord
  2
*D80
340
0
  0
BLOCK_RECORD
  5
1753
330
1
100
AcDbSymbolTableRecord
100
AcDbBlockTableRecord
  2
*D81
340
0
  0
BLOCK_RECORD
  5
175D
330
1
100
AcDbSymbolTableRecord
100
AcDbBlockTableRecord
  2
*D82
340
0
  0
BLOCK_RECORD
  5
1765
330
1
100
AcDbSymbolTableRecord
100
AcDbBlockTableRecord
  2
*D83
340
0
  0
BLOCK_RECORD
  5
176D
330
1
100
AcDbSymbolTableRecord
100
AcDbBlockTableRecord
  2
*D84
340
0
  0
BLOCK_RECORD
  5
1775
330
1
100
AcDbSymbolTableRecord
100
AcDbBlockTableRecord
  2
*D85
340
0
  0
BLOCK_RECORD
  5
177D
330
1
100
AcDbSymbolTableRecord
100
AcDbBlockTableRecord
  2
*D86
340
0
  0
BLOCK_RECORD
  5
1787
330
1
100
AcDbSymbolTableRecord
100
AcDbBlockTableRecord
  2
*D87
340
0
  0
ENDTAB
  0
ENDSEC
  0
SECTION
  2
BLOCKS
  0
BLOCK
  5
20
330
1F
100
AcDbEntity
  8
0
100
AcDbBlockBegin
  2
*Model_Space
 70
     0
 10
0.0
 20
0.0
 30
0.0
  3
*Model_Space
  1

  0
ENDBLK
  5
21
330
1F
100
AcDbEntity
  8
0
100
AcDbBlockEnd
  0
BLOCK
  5
5A
330
58
100
AcDbEntity
 67
     1
  8
0
100
AcDbBlockBegin
  2
*Paper_Space
 70
     0
 10
0.0
 20
0.0
 30
0.0
  3
*Paper_Space
  1

  0
ENDBLK
  5
5B
330
58
100
AcDbEntity
 67
     1
  8
0
100
AcDbBlockEnd
  0
BLOCK
  5
5F
330
5D
100
AcDbEntity
  8
0
100
AcDbBlockBegin
  2
*Paper_Space0
 70
     0
 10
0.0
 20
0.0
 30
0.0
  3
*Paper_Space0
  1

  0
ENDBLK
  5
60
330
5D
100
AcDbEntity
  8
0
100
AcDbBlockEnd
  0
BLOCK
  5
8A
330
89
100
AcDbEntity
  8
0
100
AcDbBlockBegin
  2
*X1
 70
     1
 10
0.0
 20
0.0
 30
0.0
  3
*X1
  1

  0
LINE
  5
8B
330
89
100
AcDbEntity
  8
0
 62
     0
100
AcDbLine
 10
58.66851760115173
 20
-14.87058764224921
 30
0.0
 11
58.91924182298996
 21
-14.61986342041098
 31
0.0
  0
LINE
  5
8C
330
89
100
AcDbEntity
  8
0
 62
     0
100
AcDbLine
 10
58.66851760115173
 20
-14.69381094695257
 30
0.0
 11
58.74246512769332
 21
-14.61986342041098
 31
0.0
  0
ENDBLK
  5
8D
330
89
100
AcDbEntity
  8
0
100
AcDbBlockEnd
  0
BLOCK
  5
8F
330
8E
100
AcDbEntity
  8
0
100
AcDbBlockBegin
  2
*X2
 70
     1
 10
0.0
 20
0.0
 30
0.0
  3
*X2
  1

  0
LINE
  5
90
330
8E
100
AcDbEntity
  8
0
 62
     0
100
AcDbLine
 10
70.46176521769962
 20
-44.61986342041098
 30
0.0
 11
70.79351760115173
 21
-44.28811103695887
 31
0.0
  0
LINE
  5
91
330
8E
100
AcDbEntity
  8
0
 62
     0
100
AcDbLine
 10
70.63854191299625
 20
-44.61986342041098
 30
0.0
 11
70.79351760115173
 21
-44.46488773225548
 31
0.0
  0
LINE
  5
92
330
8E
100
AcDbEntity
  8
0
 62
     0
100
AcDbLine
 10
70.79351760115173
 20
-44.64166442755213
 30
0.0
 11
70.8153186082929
 21
-44.61986342041098
 31
0.0
  0
ENDBLK
  5
93
330
8E
100
AcDbEntity
  8
0
100
AcDbBlockEnd
  0
BLOCK
  5
95
330
94
100
AcDbEntity
  8
0
100
AcDbBlockBegin
  2
*D3
 70
     1
 10
0.0
 20
0.0
 30
0.0
  3
*D3
  1

  0
LINE
  5
96
330
94
100
AcDbEntity
  8
DIM
 62
     0
370
    -2
100
AcDbLine
 10
386.8052483226558
 20
196.9806824679661
 30
0.0
 11
392.4399785890072
 21
196.9806824679661
 31
0.0
  0
MTEXT
  5
97
330
94
100
AcDbEntity
  8
DIM
 62
     0
100
AcDbMText
 10
395.4399785890072
 20
196.9806824679661
 30
0.0
 40
0.9999999999999998
 41
0.0
 71
     5
 72
     1
  1
\A1;24.857
 73
     1
 44
1.0
1001
ACAD
1000
MTEXTBEGIN
1070
    73
1070
     1
1070
    44
1040
1.0
1070
    74
1070
     0
1000
MTEXTEND
  0
POINT
  5
98
330
94
100
AcDbEntity
  8
Defpoints
 62
     0
100
AcDbPoint
 10
386.4302483226558
 20
196.9806824679661
 30
0.0
  0
POINT
  5
99
330
94
100
AcDbEntity
  8
Defpoints
 62
     0
100
AcDbPoint
 10
392.4399785890072
 20
196.9806824679661
 30
0.0
  0
POINT
  5
9A
330
94
100
AcDbEntity
  8
Defpoints
 62
     0
100
AcDbPoint
 10
376.1524996131811
 20
172.1232244631834
 30
0.0
  0
ENDBLK
  5
9B
330
94
100
AcDbEntity
  8
0
100
AcDbBlockEnd
  0
BLOCK
  5
9D
330
9C
100
AcDbEntity
  8
0
100
AcDbBlockBegin
  2
*D4
 70
     1
 10
0.0
 20
0.0
 30
0.0
  3
*D4
  1

  0
LINE
  5
9E
330
9C
100
AcDbEntity
  8
DIM
 62
     0
370
    -2
100
AcDbLine
 10
386.8052483226541
 20
201.4306824679658
 30
0.0
 11
388.4399785890072
 21
201.4306824679658
 31
0.0
  0
LINE
  5
9F
330
9C
100
AcDbEntity
  8
DIM
 62
     0
370
    -2
100
AcDbLine
 10
388.4399785890072
 20
201.4306824679658
 30
0.0
 11
390.4399785890072
 21
200.6787777864514
 31
0.0
  0
LINE
  5
A0
330
9C
100
AcDbEntity
  8
DIM
 62
     0
370
    -2
100
AcDbLine
 10
390.4399785890072
 20
200.6787777864514
 30
0.0
 11
392.4399785890072
 21
200.6787777864514
 31
0.0
  0
MTEXT
  5
A1
330
9C
100
AcDbEntity
  8
DIM
 62
     0
100
AcDbMText
 10
395.3566452556739
 20
200.6787777864514
 30
0.0
 40
0.9999999999999998
 41
0.0
 71
     5
 72
     1
  1
\A1;29.307
 73
     1
 44
1.0
1001
ACAD
1000
MTEXTBEGIN
1070
    73
1070
     1
1070
    44
1040
1.0
1070
    74
1070
     0
1000
MTEXTEND
  0
POINT
  5
A2
330
9C
100
AcDbEntity
  8
Defpoints
 62
     0
100
AcDbPoint
 10
386.430248322654
 20
201.4306824679658
 30
0.0
  0
POINT
  5
A3
330
9C
100
AcDbEntity
  8
Defpoints
 62
     0
100
AcDbPoint
 10
392.4399785890072
 20
200.6787777864514
 30
0.0
  0
POINT
  5
A4
330
9C
100
AcDbEntity
  8
Defpoints
 62
     0
100
AcDbPoint
 10
376.1524996131811
 20
172.1232244631834
 30
0.0
  0
ENDBLK
  5
A5
330
9C
100
AcDbEntity
  8
0
100
AcDbBlockEnd
  0
BLOCK
  5
A7
330
A6
100
AcDbEntity
  8
0
100
AcDbBlockBegin
  2
*D5
 70
     1
 10
0.0
 20
0.0
 30
0.0
  3
*D5
  1

  0
LINE
  5
A8
330
A6
100
AcDbEntity
  8
DIM
 62
     0
370
    -2
100
AcDbLine
 10
388.7974983226556
 20
202.2141824679663
 30
0.0
 11
392.4399785890072
 21
202.2141824679663
 31
0.0
  0
MTEXT
  5
A9
330
A6
100
AcDbEntity
  8
DIM
 62
     0
100
AcDbMText
 10
395.1066452556739
 20
202.2141824679663
 30
0.0
 40
0.9999999999999998
 41
0.0
 71
     5
 72
     1
  1
\A1;30.091
 73
     1
 44
1.0
1001
ACAD
1000
MTEXTBEGIN
1070
    73
1070
     1
1070
    44
1040
1.0
1070
    74
1070
     0
1000
MTEXTEND
  0
POINT
  5
AA
330
A6
100
AcDbEntity
  8
Defpoints
 62
     0
100
AcDbPoint
 10
388.4224983226557
 20
202.2141824679663
 30
0.0
  0
POINT
  5
AB
330
A6
100
AcDbEntity
  8
Defpoints
 62
     0
100
AcDbPoint
 10
392.4399785890072
 20
202.2141824679663
 30
0.0
  0
POINT
  5
AC
330
A6
100
AcDbEntity
  8
Defpoints
 62
     0
100
AcDbPoint
 10
376.1524996131811
 20
172.1232244631834
 30
0.0
  0
ENDBLK
  5
AD
330
A6
100
AcDbEntity
  8
0
100
AcDbBlockEnd
  0
BLOCK
  5
AF
330
AE
100
AcDbEntity
  8
0
100
AcDbBlockBegin
  2
*D6
 70
     1
 10
0.0
 20
0.0
 30
0.0
  3
*D6
  1

  0
LINE
  5
B0
330
AE
100
AcDbEntity
  8
DIM
 62
     0
370
    -2
100
AcDbLine
 10
388.0364983226556
 20
200.4381824679661
 30
0.0
 11
388.0364983226556
 21
206.133843057843
 31
0.0
  0
MTEXT
  5
B1
330
AE
100
AcDbEntity
  8
DIM
 62
     0
100
AcDbMText
 10
388.0364983226556
 20
208.8005097245098
 30
0.0
 40
0.9999999999999998
 41
0.0
 71
     5
 72
     1
  1
\A1;11.884
 11
0.0000000000000001
 21
1.0
 31
0.0
 73
     1
 44
1.0
1001
ACAD
1000
MTEXTBEGIN
1070
    73
1070
     1
1070
    44
1040
1.0
1070
    74
1070
     0
1000
MTEXTEND
  0
POINT
  5
B2
330
AE
100
AcDbEntity
  8
Defpoints
 62
     0
100
AcDbPoint
 10
388.0364983226556
 20
200.0631824679661
 30
0.0
  0
POINT
  5
B3
330
AE
100
AcDbEntity
  8
Defpoints
 62
     0
100
AcDbPoint
 10
388.0364983226556
 20
206.133843057843
 30
0.0
  0
POINT
  5
B4
330
AE
100
AcDbEntity
  8
Defpoints
 62
     0
100
AcDbPoint
 10
376.1524996131811
 20
172.1232244631834
 30
0.0
  0
ENDBLK
  5
B5
330
AE
100
AcDbEntity
  8
0
100
AcDbBlockEnd
  0
BLOCK
  5
B7
330
B6
100
AcDbEntity
  8
0
100
AcDbBlockBegin
  2
*D7
 70
     1
 10
0.0
 20
0.0
 30
0.0
  3
*D7
  1

  0
LINE
  5
B8
330
B6
100
AcDbEntity
  8
DIM
 62
     0
370
    -2
100
AcDbLine
 10
386.430248322654
 20
201.8056824679658
 30
0.0
 11
386.430248322654
 21
206.2150193562948
 31
0.0
  0
MTEXT
  5
B9
330
B6
100
AcDbEntity
  8
DIM
 62
     0
100
AcDbMText
 10
386.430248322654
 20
208.9650193562948
 30
0.0
 40
0.9999999999999998
 41
0.0
 71
     5
 72
     1
  1
\A1;10.278
 11
0.0000000000000001
 21
1.0
 31
0.0
 73
     1
 44
1.0
1001
ACAD
1000
MTEXTBEGIN
1070
    73
1070
     1
1070
    44
1040
1.0
1070
    74
1070
     0
1000
MTEXTEND
  0
POINT
  5
BA
330
B6
100
AcDbEntity
  8
Defpoints
 62
     0
100
AcDbPoint
 10
386.430248322654
 20
201.4306824679658
 30
0.0
  0
POINT
  5
BB
330
B6
100
AcDbEntity
  8
Defpoints
 62
     0
100
AcDbPoint
 10
386.430248322654
 20
206.2150193562948
 30
0.0
  0
POINT
  5
BC
330
B6
100
AcDbEntity
  8
Defpoints
 62
     0
100
AcDbPoint
 10
376.1524996131811
 20
172.1232244631834
 30
0.0
  0
ENDBLK
  5
BD
330
B6
100
AcDbEntity
  8
0
100
AcDbBlockEnd
  0
BLOCK
  5
BF
330
BE
100
AcDbEntity
  8
0
100
AcDbBlockBegin
  2
*D8
 70
     1
 10
0.0
 20
0.0
 30
0.0
  3
*D8
  1

  0
LINE
  5
C0
330
BE
100
AcDbEntity
  8
DIM
 62
     0
370
    -2
100
AcDbLine
 10
376.5364983226556
 20
200.4381824679661
 30
0.0
 11
376.5364983226556
 21
202.1825486809364
 31
0.0
  0
LINE
  5
C1
330
BE
100
AcDbEntity
  8
DIM
 62
     0
370
    -2
100
AcDbLine
 10
376.5364983226556
 20
202.1825486809364
 30
0.0
 11
375.2607839560759
 21
204.1825486809364
 31
0.0
  0
LINE
  5
C2
330
BE
100
AcDbEntity
  8
DIM
 62
     0
370
    -2
100
AcDbLine
 10
375.2607839560759
 20
204.1825486809364
 30
0.0
 11
375.2607839560759
 21
206.1825486809364
 31
0.0
  0
MTEXT
  5
C3
330
BE
100
AcDbEntity
  8
DIM
 62
     0
100
AcDbMText
 10
375.2607839560758
 20
208.5992153476031
 30
0.0
 40
0.9999999999999998
 41
0.0
 71
     5
 72
     1
  1
\A1;0.384
 11
0.0000000000000001
 21
1.0
 31
0.0
 73
     1
 44
1.0
1001
ACAD
1000
MTEXTBEGIN
1070
    73
1070
     1
1070
    44
1040
1.0
1070
    74
1070
     0
1000
MTEXTEND
  0
POINT
  5
C4
330
BE
100
AcDbEntity
  8
Defpoints
 62
     0
100
AcDbPoint
 10
376.5364983226556
 20
200.0631824679661
 30
0.0
  0
POINT
  5
C5
330
BE
100
AcDbEntity
  8
Defpoints
 62
     0
100
AcDbPoint
 10
375.2607839560759
 20
206.1825486809364
 30
0.0
  0
POINT
  5
C6
330
BE
100
AcDbEntity
  8
Defpoints
 62
     0
100
AcDbPoint
 10
376.1524996131811
 20
172.1232244631834
 30
0.0
  0
ENDBLK
  5
C7
330
BE
100
AcDbEntity
  8
0
100
AcDbBlockEnd
  0
BLOCK
  5
C9
330
C8
100
AcDbEntity
  8
0
100
AcDbBlockBegin
  2
*D9
 70
     1
 10
0.0
 20
0.0
 30
0.0
  3
*D9
  1

  0
LINE
  5
CA
330
C8
100
AcDbEntity
  8
DIM
 62
     0
370
    -2
100
AcDbLine
 10
383.5927483226557
 20
201.8056824679659
 30
0.0
 11
383.5927483226557
 21
203.430682467966
 31
0.0
  0
LINE
  5
CB
330
C8
100
AcDbEntity
  8
DIM
 62
     0
370
    -2
100
AcDbLine
 10
383.5927483226557
 20
203.430682467966
 30
0.0
 11
384.3623439437008
 21
204.2150193562948
 31
0.0
  0
LINE
  5
CC
330
C8
100
AcDbEntity
  8
DIM
 62
     0
370
    -2
100
AcDbLine
 10
384.3623439437008
 20
204.2150193562948
 30
0.0
 11
384.3623439437008
 21
206.2150193562948
 31
0.0
  0
MTEXT
  5
CD
330
C8
100
AcDbEntity
  8
DIM
 62
     0
100
AcDbMText
 10
384.3623439437008
 20
208.6316860229615
 30
0.0
 40
0.9999999999999998
 41
0.0
 71
     5
 72
     1
  1
\A1;7.440
 11
0.0000000000000001
 21
1.0
 31
0.0
 73
     1
 44
1.0
1001
ACAD
1000
MTEXTBEGIN
1070
    73
1070
     1
1070
    44
1040
1.0
1070
    74
1070
     0
1000
MTEXTEND
  0
POINT
  5
CE
330
C8
100
AcDbEntity
  8
Defpoints
 62
     0
100
AcDbPoint
 10
383.5927483226557
 20
201.430682467966
 30
0.0
  0
POINT
  5
CF
330
C8
100
AcDbEntity
  8
Defpoints
 62
     0
100
AcDbPoint
 10
384.3623439437008
 20
206.2150193562948
 30
0.0
  0
POINT
  5
D0
330
C8
100
AcDbEntity
  8
Defpoints
 62
     0
100
AcDbPoint
 10
376.1524996131811
 20
172.1232244631834
 30
0.0
  0
ENDBLK
  5
D1
330
C8
100
AcDbEntity
  8
0
100
AcDbBlockEnd
  0
BLOCK
  5
D3
330
D2
100
AcDbEntity
  8
0
100
AcDbBlockBegin
  2
*D10
 70
     1
 10
0.0
 20
0.0
 30
0.0
  3
*D10
  1

  0
LINE
  5
D4
330
D2
100
AcDbEntity
  8
DIM
 62
     0
370
    -2
100
AcDbLine
 10
382.8117483226557
 20
202.2471824679662
 30
0.0
 11
382.8117483226557
 21
206.2150193562948
 31
0.0
  0
MTEXT
  5
D5
330
D2
100
AcDbEntity
  8
DIM
 62
     0
100
AcDbMText
 10
382.8117483226557
 20
208.7150193562948
 30
0.0
 40
0.9999999999999998
 41
0.0
 71
     5
 72
     1
  1
\A1;6.659
 11
0.0000000000000001
 21
1.0
 31
0.0
 73
     1
 44
1.0
1001
ACAD
1000
MTEXTBEGIN
1070
    73
1070
     1
1070
    44
1040
1.0
1070
    74
1070
     0
1000
MTEXTEND
  0
POINT
  5
D6
330
D2
100
AcDbEntity
  8
Defpoints
 62
     0
100
AcDbPoint
 10
382.8117483226557
 20
201.8721824679662
 30
0.0
  0
POINT
  5
D7
330
D2
100
AcDbEntity
  8
Defpoints
 62
     0
100
AcDbPoint
 10
382.8117483226557
 20
206.2150193562948
 30
0.0
  0
POINT
  5
D8
330
D2
100
AcDbEntity
  8
Defpoints
 62
     0
100
AcDbPoint
 10
376.1524996131811
 20
172.1232244631834
 30
0.0
  0
ENDBLK
  5
D9
330
D2
100
AcDbEntity
  8
0
100
AcDbBlockEnd
  0
BLOCK
  5
DB
330
DA
100
AcDbEntity
  8
0
100
AcDbBlockBegin
  2
*D11
 70
     1
 10
0.0
 20
0.0
 30
0.0
  3
*D11
  1

  0
LINE
  5
DC
330
DA
100
AcDbEntity
  8
DIM
 62
     0
370
    -2
100
AcDbLine
 10
376.7492483226557
 20
202.247182467966
 30
0.0
 11
376.7492483226557
 21
206.2150193562948
 31
0.0
  0
MTEXT
  5
DD
330
DA
100
AcDbEntity
  8
DIM
 62
     0
100
AcDbMText
 10
376.7492483226555
 20
208.6316860229615
 30
0.0
 40
0.9999999999999998
 41
0.0
 71
     5
 72
     1
  1
\A1;0.597
 11
0.0000000000000001
 21
1.0
 31
0.0
 73
     1
 44
1.0
1001
ACAD
1000
MTEXTBEGIN
1070
    73
1070
     1
1070
    44
1040
1.0
1070
    74
1070
     0
1000
MTEXTEND
  0
POINT
  5
DE
330
DA
100
AcDbEntity
  8
Defpoints
 62
     0
100
AcDbPoint
 10
376.7492483226557
 20
201.872182467966
 30
0.0
  0
POINT
  5
DF
330
DA
100
AcDbEntity
  8
Defpoints
 62
     0
100
AcDbPoint
 10
376.7492483226557
 20
206.2150193562948
 30
0.0
  0
POINT
  5
E0
330
DA
100
AcDbEntity
  8
Defpoints
 62
     0
100
AcDbPoint
 10
376.1524996131811
 20
172.1232244631834
 30
0.0
  0
ENDBLK
  5
E1
330
DA
100
AcDbEntity
  8
0
100
AcDbBlockEnd
  0
BLOCK
  5
E3
330
E2
100
AcDbEntity
  8
0
100
AcDbBlockBegin
  2
*D12
 70
     1
 10
0.0
 20
0.0
 30
0.0
  3
*D12
  1

  0
LINE
  5
E4
330
E2
100
AcDbEntity
  8
DIM
 62
     0
370
    -2
100
AcDbLine
 10
376.3742483226557
 20
201.872182467966
 30
0.0
 11
374.1485281450994
 21
201.872182467966
 31
0.0
  0
MTEXT
  5
E5
330
E2
100
AcDbEntity
  8
DIM
 62
     0
100
AcDbMText
 10
371.2318614784327
 20
201.872182467966
 30
0.0
 40
0.9999999999999998
 41
0.0
 71
     5
 72
     1
  1
\A1;29.750
 73
     1
 44
1.0
1001
ACAD
1000
MTEXTBEGIN
1070
    73
1070
     1
1070
    44
1040
1.0
1070
    74
1070
     0
1000
MTEXTEND
  0
POINT
  5
E6
330
E2
100
AcDbEntity
  8
Defpoints
 62
     0
100
AcDbPoint
 10
376.7492483226557
 20
201.872182467966
 30
0.0
  0
POINT
  5
E7
330
E2
100
AcDbEntity
  8
Defpoints
 62
     0
100
AcDbPoint
 10
374.1485281450994
 20
201.872182467966
 30
0.0
  0
POINT
  5
E8
330
E2
100
AcDbEntity
  8
Defpoints
 62
     0
100
AcDbPoint
 10
376.1524996131811
 20
172.1232244631834
 30
0.0
  0
ENDBLK
  5
E9
330
E2
100
AcDbEntity
  8
0
100
AcDbBlockEnd
  0
BLOCK
  5
EB
330
EA
100
AcDbEntity
  8
0
100
AcDbBlockBegin
  2
*D13
 70
     1
 10
0.0
 20
0.0
 30
0.0
  3
*D13
  1

  0
LINE
  5
EC
330
EA
100
AcDbEntity
  8
DIM
 62
     0
370
    -2
100
AcDbLine
 10
376.1614983226556
 20
200.0631824679661
 30
0.0
 11
374.1485281450994
 21
200.0631824679661
 31
0.0
  0
MTEXT
  5
ED
330
EA
100
AcDbEntity
  8
DIM
 62
     0
100
AcDbMText
 10
371.2318614784327
 20
200.0631824679661
 30
0.0
 40
0.9999999999999998
 41
0.0
 71
     5
 72
     1
  1
\A1;27.940
 73
     1
 44
1.0
1001
ACAD
1000
MTEXTBEGIN
1070
    73
1070
     1
1070
    44
1040
1.0
1070
    74
1070
     0
1000
MTEXTEND
  0
POINT
  5
EE
330
EA
100
AcDbEntity
  8
Defpoints
 62
     0
100
AcDbPoint
 10
376.5364983226556
 20
200.0631824679661
 30
0.0
  0
POINT
  5
EF
330
EA
100
AcDbEntity
  8
Defpoints
 62
     0
100
AcDbPoint
 10
374.1485281450994
 20
200.0631824679661
 30
0.0
  0
POINT
  5
F0
330
EA
100
AcDbEntity
  8
Defpoints
 62
     0
100
AcDbPoint
 10
376.1524996131811
 20
172.1232244631834
 30
0.0
  0
ENDBLK
  5
F1
330
EA
100
AcDbEntity
  8
0
100
AcDbBlockEnd
  0
BLOCK
  5
F3
330
F2
100
AcDbEntity
  8
0
100
AcDbBlockBegin
  2
*D14
 70
     1
 10
0.0
 20
0.0
 30
0.0
  3
*D14
  1

  0
LINE
  5
F4
330
F2
100
AcDbEntity
  8
DIM
 62
     0
370
    -2
100
AcDbLine
 10
381.9814983226557
 20
190.883182467966
 30
0.0
 11
374.1018900688621
 21
190.883182467966
 31
0.0
  0
MTEXT
  5
F5
330
F2
100
AcDbEntity
  8
DIM
 62
     0
100
AcDbMText
 10
371.3518900688622
 20
190.883182467966
 30
0.0
 40
0.9999999999999998
 41
0.0
 71
     5
 72
     1
  1
\A1;18.760
 73
     1
 44
1.0
1001
ACAD
1000
MTEXTBEGIN
1070
    73
1070
     1
1070
    44
1040
1.0
1070
    74
1070
     0
1000
MTEXTEND
  0
POINT
  5
F6
330
F2
100
AcDbEntity
  8
Defpoints
 62
     0
100
AcDbPoint
 10
382.3564983226557
 20
190.883182467966
 30
0.0
  0
POINT
  5
F7
330
F2
100
AcDbEntity
  8
Defpoints
 62
     0
100
AcDbPoint
 10
374.1018900688621
 20
190.883182467966
 30
0.0
  0
POINT
  5
F8
330
F2
100
AcDbEntity
  8
Defpoints
 62
     0
100
AcDbPoint
 10
376.1524996131811
 20
172.1232244631834
 30
0.0
  0
ENDBLK
  5
F9
330
F2
100
AcDbEntity
  8
0
100
AcDbBlockEnd
  0
BLOCK
  5
FB
330
FA
100
AcDbEntity
  8
0
100
AcDbBlockBegin
  2
*D15
 70
     1
 10
0.0
 20
0.0
 30
0.0
  3
*D15
  1

  0
LINE
  5
FC
330
FA
100
AcDbEntity
  8
DIM
 62
     0
370
    -2
100
AcDbLine
 10
378.1614983226556
 20
187.063182467966
 30
0.0
 11
374.1741449812608
 21
187.063182467966
 31
0.0
  0
MTEXT
  5
FD
330
FA
100
AcDbEntity
  8
DIM
 62
     0
100
AcDbMText
 10
371.4241449812608
 20
187.063182467966
 30
0.0
 40
0.9999999999999998
 41
0.0
 71
     5
 72
     1
  1
\A1;14.940
 73
     1
 44
1.0
1001
ACAD
1000
MTEXTBEGIN
1070
    73
1070
     1
1070
    44
1040
1.0
1070
    74
1070
     0
1000
MTEXTEND
  0
POINT
  5
FE
330
FA
100
AcDbEntity
  8
Defpoints
 62
     0
100
AcDbPoint
 10
378.5364983226557
 20
187.063182467966
 30
0.0
  0
POINT
  5
FF
330
FA
100
AcDbEntity
  8
Defpoints
 62
     0
100
AcDbPoint
 10
374.1741449812608
 20
187.063182467966
 30
0.0
  0
POINT
  5
100
330
FA
100
AcDbEntity
  8
Defpoints
 62
     0
100
AcDbPoint
 10
376.1524996131811
 20
172.1232244631834
 30
0.0
  0
ENDBLK
  5
101
330
FA
100
AcDbEntity
  8
0
100
AcDbBlockEnd
  0
BLOCK
  5
103
330
102
100
AcDbEntity
  8
0
100
AcDbBlockBegin
  2
*D16
 70
     1
 10
0.0
 20
0.0
 30
0.0
  3
*D16
  1

  0
LINE
  5
104
330
102
100
AcDbEntity
  8
DIM
 62
     0
370
    -2
100
AcDbLine
 10
381.9814983226557
 20
189.383182467966
 30
0.0
 11
372.1524983226556
 21
189.383182467966
 31
0.0
  0
MTEXT
  5
105
330
102
100
AcDbEntity
  8
DIM
 62
     0
100
AcDbMText
 10
369.4024983226556
 20
189.383182467966
 30
0.0
 40
1.0
 41
0.0
 71
     5
 72
     1
  1
\A1;17.260
 73
     1
 44
1.0
1001
ACAD
1000
MTEXTBEGIN
1070
    73
1070
     1
1070
    44
1040
1.0
1070
    74
1070
     0
1000
MTEXTEND
  0
POINT
  5
106
330
102
100
AcDbEntity
  8
Defpoints
 62
     0
100
AcDbPoint
 10
382.3564983226557
 20
189.383182467966
 30
0.0
  0
POINT
  5
107
330
102
100
AcDbEntity
  8
Defpoints
 62
     0
100
AcDbPoint
 10
372.1524983226556
 20
189.383182467966
 30
0.0
  0
POINT
  5
108
330
102
100
AcDbEntity
  8
Defpoints
 62
     0
100
AcDbPoint
 10
376.1525054969407
 20
172.1231591023006
 30
0.0
  0
ENDBLK
  5
109
330
102
100
AcDbEntity
  8
0
100
AcDbBlockEnd
  0
BLOCK
  5
10B
330
10A
100
AcDbEntity
  8
0
100
AcDbBlockBegin
  2
*D17
 70
     1
 10
0.0
 20
0.0
 30
0.0
  3
*D17
  1

  0
LINE
  5
10C
330
10A
100
AcDbEntity
  8
DIM
 62
     0
370
    -2
100
AcDbLine
 10
375.7774983226556
 20
172.123182467966
 30
0.0
 11
372.1524983226556
 21
172.123182467966
 31
0.0
  0
MTEXT
  5
10D
330
10A
100
AcDbEntity
  8
DIM
 62
     0
100
AcDbMText
 10
369.9858316559888
 20
172.123182467966
 30
0.0
 40
0.9999999999999998
 41
0.0
 71
     5
 72
     1
  1
\A1;0.000
 73
     1
 44
1.0
1001
ACAD
1000
MTEXTBEGIN
1070
    73
1070
     1
1070
    44
1040
1.0
1070
    74
1070
     0
1000
MTEXTEND
  0
POINT
  5
10E
330
10A
100
AcDbEntity
  8
Defpoints
 62
     0
100
AcDbPoint
 10
376.1524983226556
 20
172.123182467966
 30
0.0
  0
POINT
  5
10F
330
10A
100
AcDbEntity
  8
Defpoints
 62
     0
100
AcDbPoint
 10
372.1524983226556
 20
172.123182467966
 30
0.0
  0
POINT
  5
110
330
10A
100
AcDbEntity
  8
Defpoints
 62
     0
100
AcDbPoint
 10
376.1525054969407
 20
172.1231591023006
 30
0.0
  0
ENDBLK
  5
111
330
10A
100
AcDbEntity
  8
0
100
AcDbBlockEnd
  0
BLOCK
  5
113
330
112
100
AcDbEntity
  8
0
100
AcDbBlockBegin
  2
*D18
 70
     1
 10
0.0
 20
0.0
 30
0.0
  3
*D18
  1

  0
LINE
  5
114
330
112
100
AcDbEntity
  8
DIM
 62
     0
370
    -2
100
AcDbLine
 10
378.1614983226556
 20
174.0631824679661
 30
0.0
 11
372.1524983226556
 21
174.0631824679661
 31
0.0
  0
MTEXT
  5
115
330
112
100
AcDbEntity
  8
DIM
 62
     0
100
AcDbMText
 10
369.9024983226556
 20
174.0631824679661
 30
0.0
 40
0.9999999999999998
 41
0.0
 71
     5
 72
     1
  1
\A1;1.940
 73
     1
 44
1.0
1001
ACAD
1000
MTEXTBEGIN
1070
    73
1070
     1
1070
    44
1040
1.0
1070
    74
1070
     0
1000
MTEXTEND
  0
POINT
  5
116
330
112
100
AcDbEntity
  8
Defpoints
 62
     0
100
AcDbPoint
 10
378.5364983226557
 20
174.0631824679661
 30
0.0
  0
POINT
  5
117
330
112
100
AcDbEntity
  8
Defpoints
 62
     0
100
AcDbPoint
 10
372.1524983226556
 20
174.0631824679661
 30
0.0
  0
POINT
  5
118
330
112
100
AcDbEntity
  8
Defpoints
 62
     0
100
AcDbPoint
 10
376.1525054969407
 20
172.1231591023006
 30
0.0
  0
ENDBLK
  5
119
330
112
100
AcDbEntity
  8
0
100
AcDbBlockEnd
  0
BLOCK
  5
11B
330
11A
100
AcDbEntity
  8
0
100
AcDbBlockBegin
  2
*D19
 70
     1
 10
0.0
 20
0.0
 30
0.0
  3
*D19
  1

  0
LINE
  5
11C
330
11A
100
AcDbEntity
  8
DIM
 62
     0
370
    -2
100
AcDbLine
 10
376.9779983226556
 20
192.633182467966
 30
0.0
 11
372.1524983226556
 21
192.633182467966
 31
0.0
  0
MTEXT
  5
11D
330
11A
100
AcDbEntity
  8
DIM
 62
     0
100
AcDbMText
 10
369.4858316559888
 20
192.633182467966
 30
0.0
 40
0.9999999999999998
 41
0.0
 71
     5
 72
     1
  1
\A1;20.510
 73
     1
 44
1.0
1001
ACAD
1000
MTEXTBEGIN
1070
    73
1070
     1
1070
    44
1040
1.0
1070
    74
1070
     0
1000
MTEXTEND
  0
POINT
  5
11E
330
11A
100
AcDbEntity
  8
Defpoints
 62
     0
100
AcDbPoint
 10
377.3529983226556
 20
192.633182467966
 30
0.0
  0
POINT
  5
11F
330
11A
100
AcDbEntity
  8
Defpoints
 62
     0
100
AcDbPoint
 10
372.1524983226556
 20
192.633182467966
 30
0.0
  0
POINT
  5
120
330
11A
100
AcDbEntity
  8
Defpoints
 62
     0
100
AcDbPoint
 10
376.1525054969407
 20
172.1231591023006
 30
0.0
  0
ENDBLK
  5
121
330
11A
100
AcDbEntity
  8
0
100
AcDbBlockEnd
  0
BLOCK
  5
123
330
122
100
AcDbEntity
  8
0
100
AcDbBlockBegin
  2
*D20
 70
     1
 10
0.0
 20
0.0
 30
0.0
  3
*D20
  1

  0
LINE
  5
124
330
122
100
AcDbEntity
  8
DIM
 62
     0
370
    -2
100
AcDbLine
 10
376.3742483226557
 20
193.122182467966
 30
0.0
 11
374.7492483226557
 21
193.122182467966
 31
0.0
  0
LINE
  5
125
330
122
100
AcDbEntity
  8
DIM
 62
     0
370
    -2
100
AcDbLine
 10
374.7492483226557
 20
193.122182467966
 30
0.0
 11
374.1524983226556
 21
194.622182467966
 31
0.0
  0
LINE
  5
126
330
122
100
AcDbEntity
  8
DIM
 62
     0
370
    -2
100
AcDbLine
 10
374.1524983226556
 20
194.622182467966
 30
0.0
 11
372.1524983226556
 21
194.622182467966
 31
0.0
  0
MTEXT
  5
127
330
122
100
AcDbEntity
  8
DIM
 62
     0
100
AcDbMText
 10
369.5691649893223
 20
194.622182467966
 30
0.0
 40
0.9999999999999998
 41
0.0
 71
     5
 72
     1
  1
\A1;21.000
 73
     1
 44
1.0
1001
ACAD
1000
MTEXTBEGIN
1070
    73
1070
     1
1070
    44
1040
1.0
1070
    74
1070
     0
1000
MTEXTEND
  0
POINT
  5
128
330
122
100
AcDbEntity
  8
Defpoints
 62
     0
100
AcDbPoint
 10
376.7492483226557
 20
193.122182467966
 30
0.0
  0
POINT
  5
129
330
122
100
AcDbEntity
  8
Defpoints
 62
     0
100
AcDbPoint
 10
372.1524983226556
 20
194.622182467966
 30
0.0
  0
POINT
  5
12A
330
122
100
AcDbEntity
  8
Defpoints
 62
     0
100
AcDbPoint
 10
376.1525054969407
 20
172.1231591023006
 30
0.0
  0
ENDBLK
  5
12B
330
122
100
AcDbEntity
  8
0
100
AcDbBlockEnd
  0
BLOCK
  5
12D
330
12C
100
AcDbEntity
  8
0
100
AcDbBlockBegin
  2
*D21
 70
     1
 10
0.0
 20
0.0
 30
0.0
  3
*D21
  1

  0
LINE
  5
12E
330
12C
100
AcDbEntity
  8
DIM
 62
     0
370
    -2
100
AcDbLine
 10
383.7307506333623
 20
222.3540488398666
 30
0.0
 11
383.7307506333623
 21
219.9347715258769
 31
0.0
  0
LINE
  5
12F
330
12C
100
AcDbEntity
  8
DIM
 62
     0
370
    -2
100
AcDbLine
 10
384.2197506333624
 20
221.7915488398666
 30
0.0
 11
384.2197506333624
 21
219.9347715258769
 31
0.0
  0
LINE
  5
130
330
12C
100
AcDbEntity
  8
DIM
 62
     0
370
    -2
100
AcDbLine
 10
385.2197506333624
 20
220.934771525877
 30
0.0
 11
386.2197506333624
 21
220.934771525877
 31
0.0
  0
LINE
  5
131
330
12C
100
AcDbEntity
  8
DIM
 62
     0
370
    -2
100
AcDbLine
 10
382.7307506333623
 20
220.934771525877
 30
0.0
 11
381.5640839666956
 21
220.934771525877
 31
0.0
  0
SOLID
  5
132
330
12C
100
AcDbEntity
  8
DIM
 62
     0
100
AcDbTrace
 10
385.2197506333624
 20
221.1014381925436
 30
0.0
 11
385.2197506333624
 21
220.7681048592103
 31
0.0
 12
384.2197506333624
 22
220.934771525877
 32
0.0
 13
384.2197506333624
 23
220.934771525877
 33
0.0
  0
SOLID
  5
133
330
12C
100
AcDbEntity
  8
DIM
 62
     0
100
AcDbTrace
 10
382.7307506333623
 20
221.1014381925436
 30
0.0
 11
382.7307506333623
 21
220.7681048592103
 31
0.0
 12
383.7307506333623
 22
220.934771525877
 32
0.0
 13
383.7307506333623
 23
220.934771525877
 33
0.0
  0
MTEXT
  5
134
330
12C
100
AcDbEntity
  8
DIM
 62
     0
100
AcDbMText
 10
379.3140839666957
 20
220.934771525877
 30
0.0
 40
0.9999999999999998
 41
0.0
 71
     5
 72
     1
  1
\A1;0.500
 73
     1
 44
1.0
1001
ACAD
1000
MTEXTBEGIN
1070
    73
1070
     1
1070
    44
1040
1.0
1070
    74
1070
     0
1000
MTEXTEND
  0
POINT
  5
135
330
12C
100
AcDbEntity
  8
Defpoints
 62
     0
100
AcDbPoint
 10
383.7307506333623
 20
222.7290488398666
 30
0.0
  0
POINT
  5
136
330
12C
100
AcDbEntity
  8
Defpoints
 62
     0
100
AcDbPoint
 10
384.2197506333624
 20
222.1665488398666
 30
0.0
  0
POINT
  5
137
330
12C
100
AcDbEntity
  8
Defpoints
 62
     0
100
AcDbPoint
 10
384.2197506333624
 20
220.934771525877
 30
0.0
  0
ENDBLK
  5
138
330
12C
100
AcDbEntity
  8
0
100
AcDbBlockEnd
  0
BLOCK
  5
12A4
330
129E
100
AcDbEntity
  8
0
100
AcDbBlockBegin
  2
*D22
 70
     1
 10
0.0
 20
0.0
 30
0.0
  3
*D22
  1

  0
LINE
  5
1A4F
330
129E
100
AcDbEntity
  8
DIM
 62
     0
370
    -2
100
AcDbLine
 10
83.90860857049579
 20
29.83001388011127
 30
0.0
 11
79.92125522910095
 21
29.83001388011127
 31
0.0
  0
MTEXT
  5
1A50
330
129E
100
AcDbEntity
  8
DIM
 62
     0
100
AcDbMText
 10
77.17125522910095
 20
29.83001388011127
 30
0.0
 40
0.9999999999999998
 41
0.0
 71
     5
 72
     1
  1
\A1;14.940
 73
     1
 44
1.0
1001
ACAD
1000
MTEXTBEGIN
1070
    73
1070
     1
1070
    44
1040
1.0
1070
    74
1070
     0
1000
MTEXTEND
  0
POINT
  5
1A51
330
129E
100
AcDbEntity
  8
Defpoints
 62
     0
100
AcDbPoint
 10
84.28360857049581
 20
29.83001388011127
 30
0.0
  0
POINT
  5
1A52
330
129E
100
AcDbEntity
  8
Defpoints
 62
     0
100
AcDbPoint
 10
79.92125522910095
 20
29.83001388011127
 30
0.0
  0
POINT
  5
1A53
330
129E
100
AcDbEntity
  8
Defpoints
 62
     0
100
AcDbPoint
 10
81.89960986102125
 20
14.89005587532859
 30
0.0
  0
ENDBLK
  5
12A5
330
129E
100
AcDbEntity
  8
0
100
AcDbBlockEnd
  0
BLOCK
  5
12AC
330
12A6
100
AcDbEntity
  8
0
100
AcDbBlockBegin
  2
*D23
 70
     1
 10
0.0
 20
0.0
 30
0.0
  3
*D23
  1

  0
LINE
  5
1A4A
330
12A6
100
AcDbEntity
  8
DIM
 62
     0
370
    -2
100
AcDbLine
 10
87.72860857049584
 20
33.65001388011121
 30
0.0
 11
79.84900031670225
 21
33.65001388011121
 31
0.0
  0
MTEXT
  5
1A4B
330
12A6
100
AcDbEntity
  8
DIM
 62
     0
100
AcDbMText
 10
77.09900031670224
 20
33.65001388011121
 30
0.0
 40
0.9999999999999998
 41
0.0
 71
     5
 72
     1
  1
\A1;18.760
 73
     1
 44
1.0
1001
ACAD
1000
MTEXTBEGIN
1070
    73
1070
     1
1070
    44
1040
1.0
1070
    74
1070
     0
1000
MTEXTEND
  0
POINT
  5
1A4C
330
12A6
100
AcDbEntity
  8
Defpoints
 62
     0
100
AcDbPoint
 10
88.10360857049586
 20
33.65001388011121
 30
0.0
  0
POINT
  5
1A4D
330
12A6
100
AcDbEntity
  8
Defpoints
 62
     0
100
AcDbPoint
 10
79.84900031670225
 20
33.65001388011121
 30
0.0
  0
POINT
  5
1A4E
330
12A6
100
AcDbEntity
  8
Defpoints
 62
     0
100
AcDbPoint
 10
81.89960986102125
 20
14.89005587532859
 30
0.0
  0
ENDBLK
  5
12AD
330
12A6
100
AcDbEntity
  8
0
100
AcDbBlockEnd
  0
BLOCK
  5
12B4
330
12AE
100
AcDbEntity
  8
0
100
AcDbBlockBegin
  2
*D24
 70
     1
 10
0.0
 20
0.0
 30
0.0
  3
*D24
  1

  0
LINE
  5
1A45
330
12AE
100
AcDbEntity
  8
DIM
 62
     0
370
    -2
100
AcDbLine
 10
81.90860857049575
 20
42.83001388011127
 30
0.0
 11
79.89563839293953
 21
42.83001388011127
 31
0.0
  0
MTEXT
  5
1A46
330
12AE
100
AcDbEntity
  8
DIM
 62
     0
100
AcDbMText
 10
76.97897172627286
 20
42.83001388011127
 30
0.0
 40
0.9999999999999998
 41
0.0
 71
     5
 72
     1
  1
\A1;27.940
 73
     1
 44
1.0
1001
ACAD
1000
MTEXTBEGIN
1070
    73
1070
     1
1070
    44
1040
1.0
1070
    74
1070
     0
1000
MTEXTEND
  0
POINT
  5
1A47
330
12AE
100
AcDbEntity
  8
Defpoints
 62
     0
100
AcDbPoint
 10
82.28360857049574
 20
42.83001388011127
 30
0.0
  0
POINT
  5
1A48
330
12AE
100
AcDbEntity
  8
Defpoints
 62
     0
100
AcDbPoint
 10
79.89563839293953
 20
42.83001388011127
 30
0.0
  0
POINT
  5
1A49
330
12AE
100
AcDbEntity
  8
Defpoints
 62
     0
100
AcDbPoint
 10
81.89960986102125
 20
14.89005587532859
 30
0.0
  0
ENDBLK
  5
12B5
330
12AE
100
AcDbEntity
  8
0
100
AcDbBlockEnd
  0
BLOCK
  5
12BC
330
12B6
100
AcDbEntity
  8
0
100
AcDbBlockBegin
  2
*D25
 70
     1
 10
0.0
 20
0.0
 30
0.0
  3
*D25
  1

  0
LINE
  5
1A40
330
12B6
100
AcDbEntity
  8
DIM
 62
     0
370
    -2
100
AcDbLine
 10
82.12135857049577
 20
44.6390138801112
 30
0.0
 11
79.89563839293953
 21
44.6390138801112
 31
0.0
  0
MTEXT
  5
1A41
330
12B6
100
AcDbEntity
  8
DIM
 62
     0
100
AcDbMText
 10
76.97897172627286
 20
44.6390138801112
 30
0.0
 40
0.9999999999999998
 41
0.0
 71
     5
 72
     1
  1
\A1;29.750
 73
     1
 44
1.0
1001
ACAD
1000
MTEXTBEGIN
1070
    73
1070
     1
1070
    44
1040
1.0
1070
    74
1070
     0
1000
MTEXTEND
  0
POINT
  5
1A42
330
12B6
100
AcDbEntity
  8
Defpoints
 62
     0
100
AcDbPoint
 10
82.49635857049577
 20
44.6390138801112
 30
0.0
  0
POINT
  5
1A43
330
12B6
100
AcDbEntity
  8
Defpoints
 62
     0
100
AcDbPoint
 10
79.89563839293953
 20
44.6390138801112
 30
0.0
  0
POINT
  5
1A44
330
12B6
100
AcDbEntity
  8
Defpoints
 62
     0
100
AcDbPoint
 10
81.89960986102125
 20
14.89005587532859
 30
0.0
  0
ENDBLK
  5
12BD
330
12B6
100
AcDbEntity
  8
0
100
AcDbBlockEnd
  0
BLOCK
  5
12C4
330
12BE
100
AcDbEntity
  8
0
100
AcDbBlockBegin
  2
*D26
 70
     1
 10
0.0
 20
0.0
 30
0.0
  3
*D26
  1

  0
LINE
  5
1A3B
330
12BE
100
AcDbEntity
  8
DIM
 62
     0
370
    -2
100
AcDbLine
 10
82.49635857049577
 20
45.0140138801112
 30
0.0
 11
82.49635857049577
 21
48.98185076844002
 31
0.0
  0
MTEXT
  5
1A3C
330
12BE
100
AcDbEntity
  8
DIM
 62
     0
100
AcDbMText
 10
82.49635857049575
 20
51.3985174351067
 30
0.0
 40
0.9999999999999998
 41
0.0
 71
     5
 72
     1
  1
\A1;0.597
 11
0.0000000000000001
 21
1.0
 31
0.0
 73
     1
 44
1.0
1001
ACAD
1000
MTEXTBEGIN
1070
    73
1070
     1
1070
    44
1040
1.0
1070
    74
1070
     0
1000
MTEXTEND
  0
POINT
  5
1A3D
330
12BE
100
AcDbEntity
  8
Defpoints
 62
     0
100
AcDbPoint
 10
82.49635857049577
 20
44.6390138801112
 30
0.0
  0
POINT
  5
1A3E
330
12BE
100
AcDbEntity
  8
Defpoints
 62
     0
100
AcDbPoint
 10
82.49635857049577
 20
48.98185076844002
 30
0.0
  0
POINT
  5
1A3F
330
12BE
100
AcDbEntity
  8
Defpoints
 62
     0
100
AcDbPoint
 10
81.89960986102125
 20
14.89005587532859
 30
0.0
  0
ENDBLK
  5
12C5
330
12BE
100
AcDbEntity
  8
0
100
AcDbBlockEnd
  0
BLOCK
  5
12CC
330
12C6
100
AcDbEntity
  8
0
100
AcDbBlockBegin
  2
*D27
 70
     1
 10
0.0
 20
0.0
 30
0.0
  3
*D27
  1

  0
LINE
  5
1A36
330
12C6
100
AcDbEntity
  8
DIM
 62
     0
370
    -2
100
AcDbLine
 10
88.55885857049583
 20
45.01401388011137
 30
0.0
 11
88.55885857049583
 21
48.98185076844002
 31
0.0
  0
MTEXT
  5
1A37
330
12C6
100
AcDbEntity
  8
DIM
 62
     0
100
AcDbMText
 10
88.55885857049582
 20
51.48185076844004
 30
0.0
 40
0.9999999999999998
 41
0.0
 71
     5
 72
     1
  1
\A1;6.659
 11
0.0000000000000001
 21
1.0
 31
0.0
 73
     1
 44
1.0
1001
ACAD
1000
MTEXTBEGIN
1070
    73
1070
     1
1070
    44
1040
1.0
1070
    74
1070
     0
1000
MTEXTEND
  0
POINT
  5
1A38
330
12C6
100
AcDbEntity
  8
Defpoints
 62
     0
100
AcDbPoint
 10
88.55885857049583
 20
44.63901388011136
 30
0.0
  0
POINT
  5
1A39
330
12C6
100
AcDbEntity
  8
Defpoints
 62
     0
100
AcDbPoint
 10
88.55885857049583
 20
48.98185076844002
 30
0.0
  0
POINT
  5
1A3A
330
12C6
100
AcDbEntity
  8
Defpoints
 62
     0
100
AcDbPoint
 10
81.89960986102125
 20
14.89005587532859
 30
0.0
  0
ENDBLK
  5
12CD
330
12C6
100
AcDbEntity
  8
0
100
AcDbBlockEnd
  0
BLOCK
  5
12D6
330
12CE
100
AcDbEntity
  8
0
100
AcDbBlockBegin
  2
*D28
 70
     1
 10
0.0
 20
0.0
 30
0.0
  3
*D28
  1

  0
LINE
  5
1A2F
330
12CE
100
AcDbEntity
  8
DIM
 62
     0
370
    -2
100
AcDbLine
 10
89.33985857049583
 20
44.57251388011118
 30
0.0
 11
89.33985857049583
 21
46.19751388011118
 31
0.0
  0
LINE
  5
1A30
330
12CE
100
AcDbEntity
  8
DIM
 62
     0
370
    -2
100
AcDbLine
 10
89.33985857049583
 20
46.19751388011118
 30
0.0
 11
90.10945419154092
 21
46.98185076844002
 31
0.0
  0
LINE
  5
1A31
330
12CE
100
AcDbEntity
  8
DIM
 62
     0
370
    -2
100
AcDbLine
 10
90.10945419154092
 20
46.98185076844002
 30
0.0
 11
90.10945419154092
 21
48.98185076844002
 31
0.0
  0
MTEXT
  5
1A32
330
12CE
100
AcDbEntity
  8
DIM
 62
     0
100
AcDbMText
 10
90.1094541915409
 20
51.3985174351067
 30
0.0
 40
0.9999999999999998
 41
0.0
 71
     5
 72
     1
  1
\A1;7.440
 11
0.0000000000000001
 21
1.0
 31
0.0
 73
     1
 44
1.0
1001
ACAD
1000
MTEXTBEGIN
1070
    73
1070
     1
1070
    44
1040
1.0
1070
    74
1070
     0
1000
MTEXTEND
  0
POINT
  5
1A33
330
12CE
100
AcDbEntity
  8
Defpoints
 62
     0
100
AcDbPoint
 10
89.33985857049583
 20
44.19751388011118
 30
0.0
  0
POINT
  5
1A34
330
12CE
100
AcDbEntity
  8
Defpoints
 62
     0
100
AcDbPoint
 10
90.10945419154092
 20
48.98185076844002
 30
0.0
  0
POINT
  5
1A35
330
12CE
100
AcDbEntity
  8
Defpoints
 62
     0
100
AcDbPoint
 10
81.89960986102125
 20
14.89005587532859
 30
0.0
  0
ENDBLK
  5
12D7
330
12CE
100
AcDbEntity
  8
0
100
AcDbBlockEnd
  0
BLOCK
  5
12E0
330
12D8
100
AcDbEntity
  8
0
100
AcDbBlockBegin
  2
*D29
 70
     1
 10
0.0
 20
0.0
 30
0.0
  3
*D29
  1

  0
LINE
  5
1A28
330
12D8
100
AcDbEntity
  8
DIM
 62
     0
370
    -2
100
AcDbLine
 10
82.28360857049574
 20
43.20501388011127
 30
0.0
 11
82.28360857049574
 21
44.9493800930816
 31
0.0
  0
LINE
  5
1A29
330
12D8
100
AcDbEntity
  8
DIM
 62
     0
370
    -2
100
AcDbLine
 10
82.28360857049574
 20
44.9493800930816
 30
0.0
 11
81.00789420391601
 21
46.9493800930816
 31
0.0
  0
LINE
  5
1A2A
330
12D8
100
AcDbEntity
  8
DIM
 62
     0
370
    -2
100
AcDbLine
 10
81.00789420391601
 20
46.9493800930816
 30
0.0
 11
81.00789420391601
 21
48.94938009308161
 31
0.0
  0
MTEXT
  5
1A2B
330
12D8
100
AcDbEntity
  8
DIM
 62
     0
100
AcDbMText
 10
81.00789420391599
 20
51.36604675974829
 30
0.0
 40
0.9999999999999998
 41
0.0
 71
     5
 72
     1
  1
\A1;0.384
 11
0.0000000000000001
 21
1.0
 31
0.0
 73
     1
 44
1.0
1001
ACAD
1000
MTEXTBEGIN
1070
    73
1070
     1
1070
    44
1040
1.0
1070
    74
1070
     0
1000
MTEXTEND
  0
POINT
  5
1A2C
330
12D8
100
AcDbEntity
  8
Defpoints
 62
     0
100
AcDbPoint
 10
82.28360857049574
 20
42.83001388011127
 30
0.0
  0
POINT
  5
1A2D
330
12D8
100
AcDbEntity
  8
Defpoints
 62
     0
100
AcDbPoint
 10
81.00789420391601
 20
48.94938009308161
 30
0.0
  0
POINT
  5
1A2E
330
12D8
100
AcDbEntity
  8
Defpoints
 62
     0
100
AcDbPoint
 10
81.89960986102125
 20
14.89005587532859
 30
0.0
  0
ENDBLK
  5
12E1
330
12D8
100
AcDbEntity
  8
0
100
AcDbBlockEnd
  0
BLOCK
  5
12E8
330
12E2
100
AcDbEntity
  8
0
100
AcDbBlockBegin
  2
*D30
 70
     1
 10
0.0
 20
0.0
 30
0.0
  3
*D30
  1

  0
LINE
  5
1A23
330
12E2
100
AcDbEntity
  8
DIM
 62
     0
370
    -2
100
AcDbLine
 10
92.17735857049413
 20
44.57251388011102
 30
0.0
 11
92.17735857049413
 21
48.98185076844002
 31
0.0
  0
MTEXT
  5
1A24
330
12E2
100
AcDbEntity
  8
DIM
 62
     0
100
AcDbMText
 10
92.17735857049412
 20
51.73185076844004
 30
0.0
 40
0.9999999999999998
 41
0.0
 71
     5
 72
     1
  1
\A1;10.278
 11
0.0000000000000001
 21
1.0
 31
0.0
 73
     1
 44
1.0
1001
ACAD
1000
MTEXTBEGIN
1070
    73
1070
     1
1070
    44
1040
1.0
1070
    74
1070
     0
1000
MTEXTEND
  0
POINT
  5
1A25
330
12E2
100
AcDbEntity
  8
Defpoints
 62
     0
100
AcDbPoint
 10
92.17735857049413
 20
44.19751388011103
 30
0.0
  0
POINT
  5
1A26
330
12E2
100
AcDbEntity
  8
Defpoints
 62
     0
100
AcDbPoint
 10
92.17735857049413
 20
48.98185076844002
 30
0.0
  0
POINT
  5
1A27
330
12E2
100
AcDbEntity
  8
Defpoints
 62
     0
100
AcDbPoint
 10
81.89960986102125
 20
14.89005587532859
 30
0.0
  0
ENDBLK
  5
12E9
330
12E2
100
AcDbEntity
  8
0
100
AcDbBlockEnd
  0
BLOCK
  5
12F0
330
12EA
100
AcDbEntity
  8
0
100
AcDbBlockBegin
  2
*D31
 70
     1
 10
0.0
 20
0.0
 30
0.0
  3
*D31
  1

  0
LINE
  5
1A1E
330
12EA
100
AcDbEntity
  8
DIM
 62
     0
370
    -2
100
AcDbLine
 10
93.78360857049575
 20
43.20501388011127
 30
0.0
 11
93.78360857049575
 21
48.90067446998823
 31
0.0
  0
MTEXT
  5
1A1F
330
12EA
100
AcDbEntity
  8
DIM
 62
     0
100
AcDbMText
 10
93.78360857049573
 20
51.5673411366549
 30
0.0
 40
0.9999999999999998
 41
0.0
 71
     5
 72
     1
  1
\A1;11.884
 11
0.0000000000000001
 21
1.0
 31
0.0
 73
     1
 44
1.0
1001
ACAD
1000
MTEXTBEGIN
1070
    73
1070
     1
1070
    44
1040
1.0
1070
    74
1070
     0
1000
MTEXTEND
  0
POINT
  5
1A20
330
12EA
100
AcDbEntity
  8
Defpoints
 62
     0
100
AcDbPoint
 10
93.78360857049575
 20
42.83001388011127
 30
0.0
  0
POINT
  5
1A21
330
12EA
100
AcDbEntity
  8
Defpoints
 62
     0
100
AcDbPoint
 10
93.78360857049575
 20
48.90067446998823
 30
0.0
  0
POINT
  5
1A22
330
12EA
100
AcDbEntity
  8
Defpoints
 62
     0
100
AcDbPoint
 10
81.89960986102125
 20
14.89005587532859
 30
0.0
  0
ENDBLK
  5
12F1
330
12EA
100
AcDbEntity
  8
0
100
AcDbBlockEnd
  0
BLOCK
  5
12F8
330
12F2
100
AcDbEntity
  8
0
100
AcDbBlockBegin
  2
*D32
 70
     1
 10
0.0
 20
0.0
 30
0.0
  3
*D32
  1

  0
LINE
  5
1A19
330
12F2
100
AcDbEntity
  8
DIM
 62
     0
370
    -2
100
AcDbLine
 10
94.54460857049575
 20
44.9810138801115
 30
0.0
 11
98.18708883684728
 21
44.9810138801115
 31
0.0
  0
MTEXT
  5
1A1A
330
12F2
100
AcDbEntity
  8
DIM
 62
     0
100
AcDbMText
 10
100.8537555035139
 20
44.9810138801115
 30
0.0
 40
0.9999999999999998
 41
0.0
 71
     5
 72
     1
  1
\A1;30.091
 73
     1
 44
1.0
1001
ACAD
1000
MTEXTBEGIN
1070
    73
1070
     1
1070
    44
1040
1.0
1070
    74
1070
     0
1000
MTEXTEND
  0
POINT
  5
1A1B
330
12F2
100
AcDbEntity
  8
Defpoints
 62
     0
100
AcDbPoint
 10
94.16960857049575
 20
44.9810138801115
 30
0.0
  0
POINT
  5
1A1C
330
12F2
100
AcDbEntity
  8
Defpoints
 62
     0
100
AcDbPoint
 10
98.18708883684728
 20
44.9810138801115
 30
0.0
  0
POINT
  5
1A1D
330
12F2
100
AcDbEntity
  8
Defpoints
 62
     0
100
AcDbPoint
 10
81.89960986102125
 20
14.89005587532859
 30
0.0
  0
ENDBLK
  5
12F9
330
12F2
100
AcDbEntity
  8
0
100
AcDbBlockEnd
  0
BLOCK
  5
1302
330
12FA
100
AcDbEntity
  8
0
100
AcDbBlockBegin
  2
*D33
 70
     1
 10
0.0
 20
0.0
 30
0.0
  3
*D33
  1

  0
LINE
  5
1A12
330
12FA
100
AcDbEntity
  8
DIM
 62
     0
370
    -2
100
AcDbLine
 10
92.55235857049413
 20
44.19751388011103
 30
0.0
 11
94.18708883684727
 21
44.19751388011103
 31
0.0
  0
LINE
  5
1A13
330
12FA
100
AcDbEntity
  8
DIM
 62
     0
370
    -2
100
AcDbLine
 10
94.18708883684727
 20
44.19751388011103
 30
0.0
 11
96.18708883684726
 21
43.44560919859659
 31
0.0
  0
LINE
  5
1A14
330
12FA
100
AcDbEntity
  8
DIM
 62
     0
370
    -2
100
AcDbLine
 10
96.18708883684726
 20
43.44560919859659
 30
0.0
 11
98.18708883684728
 21
43.44560919859659
 31
0.0
  0
MTEXT
  5
1A15
330
12FA
100
AcDbEntity
  8
DIM
 62
     0
100
AcDbMText
 10
101.1037555035139
 20
43.44560919859659
 30
0.0
 40
0.9999999999999998
 41
0.0
 71
     5
 72
     1
  1
\A1;29.307
 73
     1
 44
1.0
1001
ACAD
1000
MTEXTBEGIN
1070
    73
1070
     1
1070
    44
1040
1.0
1070
    74
1070
     0
1000
MTEXTEND
  0
POINT
  5
1A16
330
12FA
100
AcDbEntity
  8
Defpoints
 62
     0
100
AcDbPoint
 10
92.17735857049413
 20
44.19751388011103
 30
0.0
  0
POINT
  5
1A17
330
12FA
100
AcDbEntity
  8
Defpoints
 62
     0
100
AcDbPoint
 10
98.18708883684728
 20
43.44560919859659
 30
0.0
  0
POINT
  5
1A18
330
12FA
100
AcDbEntity
  8
Defpoints
 62
     0
100
AcDbPoint
 10
81.89960986102125
 20
14.89005587532859
 30
0.0
  0
ENDBLK
  5
1303
330
12FA
100
AcDbEntity
  8
0
100
AcDbBlockEnd
  0
BLOCK
  5
130A
330
1304
100
AcDbEntity
  8
0
100
AcDbBlockBegin
  2
*D34
 70
     1
 10
0.0
 20
0.0
 30
0.0
  3
*D34
  1

  0
LINE
  5
1A0D
330
1304
100
AcDbEntity
  8
DIM
 62
     0
370
    -2
100
AcDbLine
 10
92.55235857049589
 20
39.74751388011129
 30
0.0
 11
98.18708883684728
 21
39.74751388011129
 31
0.0
  0
MTEXT
  5
1A0E
330
1304
100
AcDbEntity
  8
DIM
 62
     0
100
AcDbMText
 10
101.1870888368472
 20
39.74751388011129
 30
0.0
 40
0.9999999999999998
 41
0.0
 71
     5
 72
     1
  1
\A1;24.857
 73
     1
 44
1.0
1001
ACAD
1000
MTEXTBEGIN
1070
    73
1070
     1
1070
    44
1040
1.0
1070
    74
1070
     0
1000
MTEXTEND
  0
POINT
  5
1A0F
330
1304
100
AcDbEntity
  8
Defpoints
 62
     0
100
AcDbPoint
 10
92.17735857049589
 20
39.74751388011129
 30
0.0
  0
POINT
  5
1A10
330
1304
100
AcDbEntity
  8
Defpoints
 62
     0
100
AcDbPoint
 10
98.18708883684728
 20
39.74751388011129
 30
0.0
  0
POINT
  5
1A11
330
1304
100
AcDbEntity
  8
Defpoints
 62
     0
100
AcDbPoint
 10
81.89960986102125
 20
14.89005587532859
 30
0.0
  0
ENDBLK
  5
130B
330
1304
100
AcDbEntity
  8
0
100
AcDbBlockEnd
  0
BLOCK
  5
1317
330
130C
100
AcDbEntity
  8
0
100
AcDbBlockBegin
  2
*D35
 70
     1
 10
0.0
 20
0.0
 30
0.0
  3
*D35
  1

  0
LINE
  5
138A
330
130C
100
AcDbEntity
  8
DIM
 62
     0
370
    -2
100
AcDbLine
 10
41.62858157925675
 20
65.1208802520118
 30
0.0
 11
41.62858157925675
 21
62.70160293802221
 31
0.0
  0
LINE
  5
138B
330
130C
100
AcDbEntity
  8
DIM
 62
     0
370
    -2
100
AcDbLine
 10
42.11758157925678
 20
64.5583802520118
 30
0.0
 11
42.11758157925678
 21
62.70160293802221
 31
0.0
  0
LINE
  5
138C
330
130C
100
AcDbEntity
  8
DIM
 62
     0
370
    -2
100
AcDbLine
 10
43.11758157925678
 20
63.70160293802221
 30
0.0
 11
44.11758157925677
 21
63.70160293802221
 31
0.0
  0
LINE
  5
138D
330
130C
100
AcDbEntity
  8
DIM
 62
     0
370
    -2
100
AcDbLine
 10
40.62858157925674
 20
63.70160293802221
 30
0.0
 11
39.46191491259012
 21
63.70160293802221
 31
0.0
  0
SOLID
  5
138E
330
130C
100
AcDbEntity
  8
DIM
 62
     0
100
AcDbTrace
 10
43.11758157925678
 20
63.86826960468886
 30
0.0
 11
43.11758157925678
 21
63.53493627135554
 31
0.0
 12
42.11758157925678
 22
63.70160293802221
 32
0.0
 13
42.11758157925678
 23
63.70160293802221
 33
0.0
  0
SOLID
  5
138F
330
130C
100
AcDbEntity
  8
DIM
 62
     0
100
AcDbTrace
 10
40.62858157925674
 20
63.86826960468886
 30
0.0
 11
40.62858157925674
 21
63.53493627135554
 31
0.0
 12
41.62858157925675
 22
63.70160293802221
 32
0.0
 13
41.62858157925675
 23
63.70160293802221
 33
0.0
  0
MTEXT
  5
1390
330
130C
100
AcDbEntity
  8
DIM
 62
     0
100
AcDbMText
 10
37.21191491259012
 20
63.70160293802221
 30
0.0
 40
0.9999999999999998
 41
0.0
 71
     5
 72
     1
  1
\A1;0.500
 73
     1
 44
1.0
1001
ACAD
1000
MTEXTBEGIN
1070
    73
1070
     1
1070
    44
1040
1.0
1070
    74
1070
     0
1000
MTEXTEND
  0
POINT
  5
1391
330
130C
100
AcDbEntity
  8
Defpoints
 62
     0
100
AcDbPoint
 10
41.62858157925675
 20
65.4958802520118
 30
0.0
  0
POINT
  5
1392
330
130C
100
AcDbEntity
  8
Defpoints
 62
     0
100
AcDbPoint
 10
42.11758157925678
 20
64.9333802520118
 30
0.0
  0
POINT
  5
1393
330
130C
100
AcDbEntity
  8
Defpoints
 62
     0
100
AcDbPoint
 10
42.11758157925678
 20
63.70160293802221
 30
0.0
  0
ENDBLK
  5
1318
330
130C
100
AcDbEntity
  8
0
100
AcDbBlockEnd
  0
BLOCK
  5
1321
330
1319
100
AcDbEntity
  8
0
100
AcDbBlockBegin
  2
*D36
 70
     1
 10
0.0
 20
0.0
 30
0.0
  3
*D36
  1

  0
LINE
  5
1A06
330
1319
100
AcDbEntity
  8
DIM
 62
     0
370
    -2
100
AcDbLine
 10
82.12135857049577
 20
35.88901388011127
 30
0.0
 11
80.49635857049578
 21
35.88901388011127
 31
0.0
  0
LINE
  5
1A07
330
1319
100
AcDbEntity
  8
DIM
 62
     0
370
    -2
100
AcDbLine
 10
80.49635857049578
 20
35.88901388011127
 30
0.0
 11
79.89960857049573
 21
37.38901388011127
 31
0.0
  0
LINE
  5
1A08
330
1319
100
AcDbEntity
  8
DIM
 62
     0
370
    -2
100
AcDbLine
 10
79.89960857049573
 20
37.38901388011127
 30
0.0
 11
77.89960857049573
 21
37.38901388011127
 31
0.0
  0
MTEXT
  5
1A09
330
1319
100
AcDbEntity
  8
DIM
 62
     0
100
AcDbMText
 10
75.3162752371624
 20
37.38901388011127
 30
0.0
 40
0.9999999999999998
 41
0.0
 71
     5
 72
     1
  1
\A1;21.000
 73
     1
 44
1.0
1001
ACAD
1000
MTEXTBEGIN
1070
    73
1070
     1
1070
    44
1040
1.0
1070
    74
1070
     0
1000
MTEXTEND
  0
POINT
  5
1A0A
330
1319
100
AcDbEntity
  8
Defpoints
 62
     0
100
AcDbPoint
 10
82.49635857049577
 20
35.88901388011127
 30
0.0
  0
POINT
  5
1A0B
330
1319
100
AcDbEntity
  8
Defpoints
 62
     0
100
AcDbPoint
 10
77.89960857049573
 20
37.38901388011127
 30
0.0
  0
POINT
  5
1A0C
330
1319
100
AcDbEntity
  8
Defpoints
 62
     0
100
AcDbPoint
 10
81.89961574478081
 20
14.8899905144458
 30
0.0
  0
ENDBLK
  5
1322
330
1319
100
AcDbEntity
  8
0
100
AcDbBlockEnd
  0
BLOCK
  5
1329
330
1323
100
AcDbEntity
  8
0
100
AcDbBlockBegin
  2
*D37
 70
     1
 10
0.0
 20
0.0
 30
0.0
  3
*D37
  1

  0
LINE
  5
1A01
330
1323
100
AcDbEntity
  8
DIM
 62
     0
370
    -2
100
AcDbLine
 10
82.72510857049576
 20
35.40001388011121
 30
0.0
 11
77.89960857049573
 21
35.40001388011121
 31
0.0
  0
MTEXT
  5
1A02
330
1323
100
AcDbEntity
  8
DIM
 62
     0
100
AcDbMText
 10
75.23294190382905
 20
35.40001388011121
 30
0.0
 40
0.9999999999999998
 41
0.0
 71
     5
 72
     1
  1
\A1;20.510
 73
     1
 44
1.0
1001
ACAD
1000
MTEXTBEGIN
1070
    73
1070
     1
1070
    44
1040
1.0
1070
    74
1070
     0
1000
MTEXTEND
  0
POINT
  5
1A03
330
1323
100
AcDbEntity
  8
Defpoints
 62
     0
100
AcDbPoint
 10
83.10010857049576
 20
35.40001388011121
 30
0.0
  0
POINT
  5
1A04
330
1323
100
AcDbEntity
  8
Defpoints
 62
     0
100
AcDbPoint
 10
77.89960857049573
 20
35.40001388011121
 30
0.0
  0
POINT
  5
1A05
330
1323
100
AcDbEntity
  8
Defpoints
 62
     0
100
AcDbPoint
 10
81.89961574478081
 20
14.8899905144458
 30
0.0
  0
ENDBLK
  5
132A
330
1323
100
AcDbEntity
  8
0
100
AcDbBlockEnd
  0
BLOCK
  5
1331
330
132B
100
AcDbEntity
  8
0
100
AcDbBlockBegin
  2
*D38
 70
     1
 10
0.0
 20
0.0
 30
0.0
  3
*D38
  1

  0
LINE
  5
19FC
330
132B
100
AcDbEntity
  8
DIM
 62
     0
370
    -2
100
AcDbLine
 10
83.90860857049579
 20
16.83001388011127
 30
0.0
 11
77.89960857049573
 21
16.83001388011127
 31
0.0
  0
MTEXT
  5
19FD
330
132B
100
AcDbEntity
  8
DIM
 62
     0
100
AcDbMText
 10
75.64960857049573
 20
16.83001388011127
 30
0.0
 40
0.9999999999999998
 41
0.0
 71
     5
 72
     1
  1
\A1;1.940
 73
     1
 44
1.0
1001
ACAD
1000
MTEXTBEGIN
1070
    73
1070
     1
1070
    44
1040
1.0
1070
    74
1070
     0
1000
MTEXTEND
  0
POINT
  5
19FE
330
132B
100
AcDbEntity
  8
Defpoints
 62
     0
100
AcDbPoint
 10
84.28360857049581
 20
16.83001388011127
 30
0.0
  0
POINT
  5
19FF
330
132B
100
AcDbEntity
  8
Defpoints
 62
     0
100
AcDbPoint
 10
77.89960857049573
 20
16.83001388011127
 30
0.0
  0
POINT
  5
1A00
330
132B
100
AcDbEntity
  8
Defpoints
 62
     0
100
AcDbPoint
 10
81.89961574478081
 20
14.8899905144458
 30
0.0
  0
ENDBLK
  5
1332
330
132B
100
AcDbEntity
  8
0
100
AcDbBlockEnd
  0
BLOCK
  5
1339
330
1333
100
AcDbEntity
  8
0
100
AcDbBlockBegin
  2
*D39
 70
     1
 10
0.0
 20
0.0
 30
0.0
  3
*D39
  1

  0
LINE
  5
19F7
330
1333
100
AcDbEntity
  8
DIM
 62
     0
370
    -2
100
AcDbLine
 10
81.52460857049574
 20
14.89001388011119
 30
0.0
 11
77.89960857049573
 21
14.89001388011119
 31
0.0
  0
MTEXT
  5
19F8
330
1333
100
AcDbEntity
  8
DIM
 62
     0
100
AcDbMText
 10
75.73294190382906
 20
14.89001388011119
 30
0.0
 40
0.9999999999999998
 41
0.0
 71
     5
 72
     1
  1
\A1;0.000
 73
     1
 44
1.0
1001
ACAD
1000
MTEXTBEGIN
1070
    73
1070
     1
1070
    44
1040
1.0
1070
    74
1070
     0
1000
MTEXTEND
  0
POINT
  5
19F9
330
1333
100
AcDbEntity
  8
Defpoints
 62
     0
100
AcDbPoint
 10
81.89960857049573
 20
14.89001388011119
 30
0.0
  0
POINT
  5
19FA
330
1333
100
AcDbEntity
  8
Defpoints
 62
     0
100
AcDbPoint
 10
77.89960857049573
 20
14.89001388011119
 30
0.0
  0
POINT
  5
19FB
330
1333
100
AcDbEntity
  8
Defpoints
 62
     0
100
AcDbPoint
 10
81.89961574478081
 20
14.8899905144458
 30
0.0
  0
ENDBLK
  5
133A
330
1333
100
AcDbEntity
  8
0
100
AcDbBlockEnd
  0
BLOCK
  5
1341
330
133B
100
AcDbEntity
  8
0
100
AcDbBlockBegin
  2
*D40
 70
     1
 10
0.0
 20
0.0
 30
0.0
  3
*D40
  1

  0
LINE
  5
19F2
330
133B
100
AcDbEntity
  8
DIM
 62
     0
370
    -2
100
AcDbLine
 10
87.72860857049584
 20
32.15001388011121
 30
0.0
 11
77.89960857049573
 21
32.15001388011121
 31
0.0
  0
MTEXT
  5
19F3
330
133B
100
AcDbEntity
  8
DIM
 62
     0
100
AcDbMText
 10
75.55960857049573
 20
32.15001388011121
 30
0.0
 40
1.0
 41
0.0
 71
     5
 72
     1
  1
\A1;17.260
 73
     1
 44
1.0
1001
ACAD
1000
MTEXTBEGIN
1070
    73
1070
     1
1070
    44
1040
1.0
1070
    74
1070
     0
1000
MTEXTEND
  0
POINT
  5
19F4
330
133B
100
AcDbEntity
  8
Defpoints
 62
     0
100
AcDbPoint
 10
88.10360857049586
 20
32.15001388011121
 30
0.0
  0
POINT
  5
19F5
330
133B
100
AcDbEntity
  8
Defpoints
 62
     0
100
AcDbPoint
 10
77.89960857049573
 20
32.15001388011121
 30
0.0
  0
POINT
  5
19F6
330
133B
100
AcDbEntity
  8
Defpoints
 62
     0
100
AcDbPoint
 10
81.89961574478081
 20
14.8899905144458
 30
0.0
  0
ENDBLK
  5
1342
330
133B
100
AcDbEntity
  8
0
100
AcDbBlockEnd
  0
BLOCK
  5
1524
330
1523
100
AcDbEntity
  8
0
100
AcDbBlockBegin
  2
*D41
 70
     1
 10
0.0
 20
0.0
 30
0.0
  3
*D41
  1

  0
LINE
  5
1525
330
1523
100
AcDbEntity
  8
DIM
 62
     0
370
    -2
100
AcDbLine
 10
-2069.968916504858
 20
383.9825325408768
 30
0.0
 11
-2071.593916504858
 21
383.9825325408768
 31
0.0
  0
LINE
  5
1526
330
1523
100
AcDbEntity
  8
DIM
 62
     0
370
    -2
100
AcDbLine
 10
-2071.593916504858
 20
383.9825325408768
 30
0.0
 11
-2072.190666504857
 21
385.4825325408768
 31
0.0
  0
LINE
  5
1527
330
1523
100
AcDbEntity
  8
DIM
 62
     0
370
    -2
100
AcDbLine
 10
-2072.190666504857
 20
385.4825325408768
 30
0.0
 11
-2074.190666504858
 21
385.4825325408768
 31
0.0
  0
MTEXT
  5
1528
330
1523
100
AcDbEntity
  8
DIM
 62
     0
100
AcDbMText
 10
-2076.253166504857
 20
385.4825325408768
 30
0.0
 40
0.75
 41
0.0
 71
     5
 72
     1
  1
\A1;21.000
 73
     1
 44
1.0
1001
ACAD
1000
MTEXTBEGIN
1070
    73
1070
     1
1070
    44
1040
1.0
1070
    74
1070
     0
1000
MTEXTEND
  0
POINT
  5
1529
330
1523
100
AcDbEntity
  8
Defpoints
 62
     0
100
AcDbPoint
 10
-2069.593916504858
 20
383.9825325408768
 30
0.0
  0
POINT
  5
152A
330
1523
100
AcDbEntity
  8
Defpoints
 62
     0
100
AcDbPoint
 10
-2074.190666504858
 20
385.4825325408768
 30
0.0
  0
POINT
  5
152B
330
1523
100
AcDbEntity
  8
Defpoints
 62
     0
100
AcDbPoint
 10
-2070.190659330573
 20
362.9835091752113
 30
0.0
  0
ENDBLK
  5
152C
330
1523
100
AcDbEntity
  8
0
100
AcDbBlockEnd
  0
BLOCK
  5
152E
330
152D
100
AcDbEntity
  8
0
100
AcDbBlockBegin
  2
*D42
 70
     1
 10
0.0
 20
0.0
 30
0.0
  3
*D42
  1

  0
LINE
  5
152F
330
152D
100
AcDbEntity
  8
DIM
 62
     0
370
    -2
100
AcDbLine
 10
-2069.365166504857
 20
383.4935325408767
 30
0.0
 11
-2074.190666504858
 21
383.4935325408767
 31
0.0
  0
MTEXT
  5
1530
330
152D
100
AcDbEntity
  8
DIM
 62
     0
100
AcDbMText
 10
-2076.315666504857
 20
383.4935325408767
 30
0.0
 40
0.75
 41
0.0
 71
     5
 72
     1
  1
\A1;20.510
 73
     1
 44
1.0
1001
ACAD
1000
MTEXTBEGIN
1070
    73
1070
     1
1070
    44
1040
1.0
1070
    74
1070
     0
1000
MTEXTEND
  0
POINT
  5
1531
330
152D
100
AcDbEntity
  8
Defpoints
 62
     0
100
AcDbPoint
 10
-2068.990166504857
 20
383.4935325408767
 30
0.0
  0
POINT
  5
1532
330
152D
100
AcDbEntity
  8
Defpoints
 62
     0
100
AcDbPoint
 10
-2074.190666504858
 20
383.4935325408767
 30
0.0
  0
POINT
  5
1533
330
152D
100
AcDbEntity
  8
Defpoints
 62
     0
100
AcDbPoint
 10
-2070.190659330573
 20
362.9835091752113
 30
0.0
  0
ENDBLK
  5
1534
330
152D
100
AcDbEntity
  8
0
100
AcDbBlockEnd
  0
BLOCK
  5
1536
330
1535
100
AcDbEntity
  8
0
100
AcDbBlockBegin
  2
*D43
 70
     1
 10
0.0
 20
0.0
 30
0.0
  3
*D43
  1

  0
LINE
  5
1537
330
1535
100
AcDbEntity
  8
DIM
 62
     0
370
    -2
100
AcDbLine
 10
-2068.181666504857
 20
364.9235325408769
 30
0.0
 11
-2074.190666504858
 21
364.9235325408769
 31
0.0
  0
MTEXT
  5
1538
330
1535
100
AcDbEntity
  8
DIM
 62
     0
100
AcDbMText
 10
-2076.003166504857
 20
364.9235325408769
 30
0.0
 40
0.75
 41
0.0
 71
     5
 72
     1
  1
\A1;1.940
 73
     1
 44
1.0
1001
ACAD
1000
MTEXTBEGIN
1070
    73
1070
     1
1070
    44
1040
1.0
1070
    74
1070
     0
1000
MTEXTEND
  0
POINT
  5
1539
330
1535
100
AcDbEntity
  8
Defpoints
 62
     0
100
AcDbPoint
 10
-2067.806666504857
 20
364.9235325408769
 30
0.0
  0
POINT
  5
153A
330
1535
100
AcDbEntity
  8
Defpoints
 62
     0
100
AcDbPoint
 10
-2074.190666504858
 20
364.9235325408769
 30
0.0
  0
POINT
  5
153B
330
1535
100
AcDbEntity
  8
Defpoints
 62
     0
100
AcDbPoint
 10
-2070.190659330573
 20
362.9835091752113
 30
0.0
  0
ENDBLK
  5
153C
330
1535
100
AcDbEntity
  8
0
100
AcDbBlockEnd
  0
BLOCK
  5
153E
330
153D
100
AcDbEntity
  8
0
100
AcDbBlockBegin
  2
*D44
 70
     1
 10
0.0
 20
0.0
 30
0.0
  3
*D44
  1

  0
LINE
  5
153F
330
153D
100
AcDbEntity
  8
DIM
 62
     0
370
    -2
100
AcDbLine
 10
-2070.565666504857
 20
362.9835325408767
 30
0.0
 11
-2074.190666504858
 21
362.9835325408767
 31
0.0
  0
MTEXT
  5
1540
330
153D
100
AcDbEntity
  8
DIM
 62
     0
100
AcDbMText
 10
-2075.940666504857
 20
362.9835325408767
 30
0.0
 40
0.75
 41
0.0
 71
     5
 72
     1
  1
\A1;0.000
 73
     1
 44
1.0
1001
ACAD
1000
MTEXTBEGIN
1070
    73
1070
     1
1070
    44
1040
1.0
1070
    74
1070
     0
1000
MTEXTEND
  0
POINT
  5
1541
330
153D
100
AcDbEntity
  8
Defpoints
 62
     0
100
AcDbPoint
 10
-2070.190666504857
 20
362.9835325408767
 30
0.0
  0
POINT
  5
1542
330
153D
100
AcDbEntity
  8
Defpoints
 62
     0
100
AcDbPoint
 10
-2074.190666504858
 20
362.9835325408767
 30
0.0
  0
POINT
  5
1543
330
153D
100
AcDbEntity
  8
Defpoints
 62
     0
100
AcDbPoint
 10
-2070.190659330573
 20
362.9835091752113
 30
0.0
  0
ENDBLK
  5
1544
330
153D
100
AcDbEntity
  8
0
100
AcDbBlockEnd
  0
BLOCK
  5
1546
330
1545
100
AcDbEntity
  8
0
100
AcDbBlockBegin
  2
*D45
 70
     1
 10
0.0
 20
0.0
 30
0.0
  3
*D45
  1

  0
LINE
  5
1547
330
1545
100
AcDbEntity
  8
DIM
 62
     0
370
    -2
100
AcDbLine
 10
-2064.361666504858
 20
380.2435325408767
 30
0.0
 11
-2069.079362731895
 21
380.2435325408767
 31
0.0
  0
LINE
  5
1548
330
1545
100
AcDbEntity
  8
DIM
 62
     0
370
    -2
100
AcDbLine
 10
-2069.079362731895
 20
380.2435325408767
 30
0.0
 11
-2071.079362731895
 21
379.1837082944976
 31
0.0
  0
LINE
  5
1549
330
1545
100
AcDbEntity
  8
DIM
 62
     0
370
    -2
100
AcDbLine
 10
-2071.079362731895
 20
379.1837082944976
 30
0.0
 11
-2073.079362731895
 21
379.1837082944976
 31
0.0
  0
MTEXT
  5
154A
330
1545
100
AcDbEntity
  8
DIM
 62
     0
100
AcDbMText
 10
-2075.266862731894
 20
379.1837082944976
 30
0.0
 40
0.75
 41
0.0
 71
     5
 72
     1
  1
\A1;17.260
 73
     1
 44
1.0
1001
ACAD
1000
MTEXTBEGIN
1070
    73
1070
     1
1070
    44
1040
1.0
1070
    74
1070
     0
1000
MTEXTEND
  0
POINT
  5
154B
330
1545
100
AcDbEntity
  8
Defpoints
 62
     0
100
AcDbPoint
 10
-2063.986666504858
 20
380.2435325408767
 30
0.0
  0
POINT
  5
154C
330
1545
100
AcDbEntity
  8
Defpoints
 62
     0
100
AcDbPoint
 10
-2073.079362731895
 20
379.1837082944976
 30
0.0
  0
POINT
  5
154D
330
1545
100
AcDbEntity
  8
Defpoints
 62
     0
100
AcDbPoint
 10
-2070.190659330573
 20
362.9835091752113
 30
0.0
  0
ENDBLK
  5
154E
330
1545
100
AcDbEntity
  8
0
100
AcDbBlockEnd
  0
BLOCK
  5
1550
330
154F
100
AcDbEntity
  8
0
100
AcDbBlockBegin
  2
*D46
 70
     1
 10
0.0
 20
0.0
 30
0.0
  3
*D46
  1

  0
LINE
  5
1551
330
154F
100
AcDbEntity
  8
DIM
 62
     0
370
    -2
100
AcDbLine
 10
-2068.181666504857
 20
377.9235325408769
 30
0.0
 11
-2069.806666504857
 21
377.9235325408769
 31
0.0
  0
LINE
  5
1552
330
154F
100
AcDbEntity
  8
DIM
 62
     0
370
    -2
100
AcDbLine
 10
-2069.806666504857
 20
377.9235325408769
 30
0.0
 11
-2071.641862731894
 21
376.4883356524901
 31
0.0
  0
LINE
  5
1553
330
154F
100
AcDbEntity
  8
DIM
 62
     0
370
    -2
100
AcDbLine
 10
-2071.641862731894
 20
376.4883356524901
 30
0.0
 11
-2073.641862731895
 21
376.4883356524901
 31
0.0
  0
MTEXT
  5
1554
330
154F
100
AcDbEntity
  8
DIM
 62
     0
100
AcDbMText
 10
-2075.829362731894
 20
376.4883356524901
 30
0.0
 40
0.75
 41
0.0
 71
     5
 72
     1
  1
\A1;14.940
 73
     1
 44
1.0
1001
ACAD
1000
MTEXTBEGIN
1070
    73
1070
     1
1070
    44
1040
1.0
1070
    74
1070
     0
1000
MTEXTEND
  0
POINT
  5
1555
330
154F
100
AcDbEntity
  8
Defpoints
 62
     0
100
AcDbPoint
 10
-2067.806666504857
 20
377.9235325408769
 30
0.0
  0
POINT
  5
1556
330
154F
100
AcDbEntity
  8
Defpoints
 62
     0
100
AcDbPoint
 10
-2073.641862731895
 20
376.4883356524901
 30
0.0
  0
POINT
  5
1557
330
154F
100
AcDbEntity
  8
Defpoints
 62
     0
100
AcDbPoint
 10
-2070.190665214332
 20
362.9835745360941
 30
0.0
  0
ENDBLK
  5
1558
330
154F
100
AcDbEntity
  8
0
100
AcDbBlockEnd
  0
BLOCK
  5
155A
330
1559
100
AcDbEntity
  8
0
100
AcDbBlockBegin
  2
*D47
 70
     1
 10
0.0
 20
0.0
 30
0.0
  3
*D47
  1

  0
LINE
  5
155B
330
1559
100
AcDbEntity
  8
DIM
 62
     0
370
    -2
100
AcDbLine
 10
-2064.361666504858
 20
381.7435325408767
 30
0.0
 11
-2069.079362731895
 21
381.7435325408767
 31
0.0
  0
LINE
  5
155C
330
1559
100
AcDbEntity
  8
DIM
 62
     0
370
    -2
100
AcDbLine
 10
-2069.079362731895
 20
381.7435325408767
 30
0.0
 11
-2071.079362731895
 21
380.5313311799437
 31
0.0
  0
LINE
  5
155D
330
1559
100
AcDbEntity
  8
DIM
 62
     0
370
    -2
100
AcDbLine
 10
-2071.079362731895
 20
380.5313311799437
 30
0.0
 11
-2073.079362731895
 21
380.5313311799437
 31
0.0
  0
MTEXT
  5
155E
330
1559
100
AcDbEntity
  8
DIM
 62
     0
100
AcDbMText
 10
-2075.266862731894
 20
380.5313311799437
 30
0.0
 40
0.75
 41
0.0
 71
     5
 72
     1
  1
\A1;18.760
 73
     1
 44
1.0
1001
ACAD
1000
MTEXTBEGIN
1070
    73
1070
     1
1070
    44
1040
1.0
1070
    74
1070
     0
1000
MTEXTEND
  0
POINT
  5
155F
330
1559
100
AcDbEntity
  8
Defpoints
 62
     0
100
AcDbPoint
 10
-2063.986666504858
 20
381.7435325408767
 30
0.0
  0
POINT
  5
1560
330
1559
100
AcDbEntity
  8
Defpoints
 62
     0
100
AcDbPoint
 10
-2073.079362731895
 20
380.5313311799437
 30
0.0
  0
POINT
  5
1561
330
1559
100
AcDbEntity
  8
Defpoints
 62
     0
100
AcDbPoint
 10
-2070.190665214332
 20
362.9835745360941
 30
0.0
  0
ENDBLK
  5
1562
330
1559
100
AcDbEntity
  8
0
100
AcDbBlockEnd
  0
BLOCK
  5
1564
330
1563
100
AcDbEntity
  8
0
100
AcDbBlockBegin
  2
*D48
 70
     1
 10
0.0
 20
0.0
 30
0.0
  3
*D48
  1

  0
LINE
  5
1565
330
1563
100
AcDbEntity
  8
DIM
 62
     0
370
    -2
100
AcDbLine
 10
-2070.181666504857
 20
390.9235325408769
 30
0.0
 11
-2072.194636682414
 21
390.9235325408769
 31
0.0
  0
MTEXT
  5
1566
330
1563
100
AcDbEntity
  8
DIM
 62
     0
100
AcDbMText
 10
-2074.507136682414
 20
390.9235325408769
 30
0.0
 40
0.75
 41
0.0
 71
     5
 72
     1
  1
\A1;27.940
 73
     1
 44
1.0
1001
ACAD
1000
MTEXTBEGIN
1070
    73
1070
     1
1070
    44
1040
1.0
1070
    74
1070
     0
1000
MTEXTEND
  0
POINT
  5
1567
330
1563
100
AcDbEntity
  8
Defpoints
 62
     0
100
AcDbPoint
 10
-2069.806666504857
 20
390.9235325408769
 30
0.0
  0
POINT
  5
1568
330
1563
100
AcDbEntity
  8
Defpoints
 62
     0
100
AcDbPoint
 10
-2072.194636682414
 20
390.9235325408769
 30
0.0
  0
POINT
  5
1569
330
1563
100
AcDbEntity
  8
Defpoints
 62
     0
100
AcDbPoint
 10
-2070.190665214332
 20
362.9835745360941
 30
0.0
  0
ENDBLK
  5
156A
330
1563
100
AcDbEntity
  8
0
100
AcDbBlockEnd
  0
BLOCK
  5
156C
330
156B
100
AcDbEntity
  8
0
100
AcDbBlockBegin
  2
*D49
 70
     1
 10
0.0
 20
0.0
 30
0.0
  3
*D49
  1

  0
LINE
  5
156D
330
156B
100
AcDbEntity
  8
DIM
 62
     0
370
    -2
100
AcDbLine
 10
-2069.968916504858
 20
392.7325325408767
 30
0.0
 11
-2072.194636682414
 21
392.7325325408767
 31
0.0
  0
MTEXT
  5
156E
330
156B
100
AcDbEntity
  8
DIM
 62
     0
100
AcDbMText
 10
-2074.507136682414
 20
392.7325325408767
 30
0.0
 40
0.75
 41
0.0
 71
     5
 72
     1
  1
\A1;29.750
 73
     1
 44
1.0
1001
ACAD
1000
MTEXTBEGIN
1070
    73
1070
     1
1070
    44
1040
1.0
1070
    74
1070
     0
1000
MTEXTEND
  0
POINT
  5
156F
330
156B
100
AcDbEntity
  8
Defpoints
 62
     0
100
AcDbPoint
 10
-2069.593916504858
 20
392.7325325408767
 30
0.0
  0
POINT
  5
1570
330
156B
100
AcDbEntity
  8
Defpoints
 62
     0
100
AcDbPoint
 10
-2072.194636682414
 20
392.7325325408767
 30
0.0
  0
POINT
  5
1571
330
156B
100
AcDbEntity
  8
Defpoints
 62
     0
100
AcDbPoint
 10
-2070.190665214332
 20
362.9835745360941
 30
0.0
  0
ENDBLK
  5
1572
330
156B
100
AcDbEntity
  8
0
100
AcDbBlockEnd
  0
BLOCK
  5
1574
330
1573
100
AcDbEntity
  8
0
100
AcDbBlockBegin
  2
*D50
 70
     1
 10
0.0
 20
0.0
 30
0.0
  3
*D50
  1

  0
LINE
  5
1575
330
1573
100
AcDbEntity
  8
DIM
 62
     0
370
    -2
100
AcDbLine
 10
-2069.593916504858
 20
393.1075325408767
 30
0.0
 11
-2069.593916504858
 21
397.0753694292055
 31
0.0
  0
MTEXT
  5
1576
330
1573
100
AcDbEntity
  8
DIM
 62
     0
100
AcDbMText
 10
-2069.593916504858
 20
399.0128694292051
 30
0.0
 40
0.75
 41
0.0
 71
     5
 72
     1
  1
\A1;0.597
 11
0.0000000000000001
 21
1.0
 31
0.0
 73
     1
 44
1.0
1001
ACAD
1000
MTEXTBEGIN
1070
    73
1070
     1
1070
    44
1040
1.0
1070
    74
1070
     0
1000
MTEXTEND
  0
POINT
  5
1577
330
1573
100
AcDbEntity
  8
Defpoints
 62
     0
100
AcDbPoint
 10
-2069.593916504858
 20
392.7325325408767
 30
0.0
  0
POINT
  5
1578
330
1573
100
AcDbEntity
  8
Defpoints
 62
     0
100
AcDbPoint
 10
-2069.593916504858
 20
397.0753694292055
 30
0.0
  0
POINT
  5
1579
330
1573
100
AcDbEntity
  8
Defpoints
 62
     0
100
AcDbPoint
 10
-2070.190665214332
 20
362.9835745360941
 30
0.0
  0
ENDBLK
  5
157A
330
1573
100
AcDbEntity
  8
0
100
AcDbBlockEnd
  0
BLOCK
  5
157C
330
157B
100
AcDbEntity
  8
0
100
AcDbBlockBegin
  2
*D51
 70
     1
 10
0.0
 20
0.0
 30
0.0
  3
*D51
  1

  0
LINE
  5
157D
330
157B
100
AcDbEntity
  8
DIM
 62
     0
370
    -2
100
AcDbLine
 10
-2063.531416504858
 20
393.107532540877
 30
0.0
 11
-2063.531416504858
 21
397.0753694292055
 31
0.0
  0
MTEXT
  5
157E
330
157B
100
AcDbEntity
  8
DIM
 62
     0
100
AcDbMText
 10
-2063.531416504858
 20
399.0753694292051
 30
0.0
 40
0.75
 41
0.0
 71
     5
 72
     1
  1
\A1;6.659
 11
0.0000000000000001
 21
1.0
 31
0.0
 73
     1
 44
1.0
1001
ACAD
1000
MTEXTBEGIN
1070
    73
1070
     1
1070
    44
1040
1.0
1070
    74
1070
     0
1000
MTEXTEND
  0
POINT
  5
157F
330
157B
100
AcDbEntity
  8
Defpoints
 62
     0
100
AcDbPoint
 10
-2063.531416504858
 20
392.7325325408769
 30
0.0
  0
POINT
  5
1580
330
157B
100
AcDbEntity
  8
Defpoints
 62
     0
100
AcDbPoint
 10
-2063.531416504858
 20
397.0753694292055
 30
0.0
  0
POINT
  5
1581
330
157B
100
AcDbEntity
  8
Defpoints
 62
     0
100
AcDbPoint
 10
-2070.190665214332
 20
362.9835745360941
 30
0.0
  0
ENDBLK
  5
1582
330
157B
100
AcDbEntity
  8
0
100
AcDbBlockEnd
  0
BLOCK
  5
1584
330
1583
100
AcDbEntity
  8
0
100
AcDbBlockBegin
  2
*D52
 70
     1
 10
0.0
 20
0.0
 30
0.0
  3
*D52
  1

  0
LINE
  5
1585
330
1583
100
AcDbEntity
  8
DIM
 62
     0
370
    -2
100
AcDbLine
 10
-2062.750416504858
 20
392.6660325408766
 30
0.0
 11
-2062.750416504858
 21
394.2910325408766
 31
0.0
  0
LINE
  5
1586
330
1583
100
AcDbEntity
  8
DIM
 62
     0
370
    -2
100
AcDbLine
 10
-2062.750416504858
 20
394.2910325408766
 30
0.0
 11
-2061.980820883812
 21
395.0753694292055
 31
0.0
  0
LINE
  5
1587
330
1583
100
AcDbEntity
  8
DIM
 62
     0
370
    -2
100
AcDbLine
 10
-2061.980820883812
 20
395.0753694292055
 30
0.0
 11
-2061.980820883812
 21
397.0753694292055
 31
0.0
  0
MTEXT
  5
1588
330
1583
100
AcDbEntity
  8
DIM
 62
     0
100
AcDbMText
 10
-2061.980820883812
 20
399.0128694292051
 30
0.0
 40
0.75
 41
0.0
 71
     5
 72
     1
  1
\A1;7.440
 11
0.0000000000000001
 21
1.0
 31
0.0
 73
     1
 44
1.0
1001
ACAD
1000
MTEXTBEGIN
1070
    73
1070
     1
1070
    44
1040
1.0
1070
    74
1070
     0
1000
MTEXTEND
  0
POINT
  5
1589
330
1583
100
AcDbEntity
  8
Defpoints
 62
     0
100
AcDbPoint
 10
-2062.750416504858
 20
392.2910325408766
 30
0.0
  0
POINT
  5
158A
330
1583
100
AcDbEntity
  8
Defpoints
 62
     0
100
AcDbPoint
 10
-2061.980820883812
 20
397.0753694292055
 30
0.0
  0
POINT
  5
158B
330
1583
100
AcDbEntity
  8
Defpoints
 62
     0
100
AcDbPoint
 10
-2070.190665214332
 20
362.9835745360941
 30
0.0
  0
ENDBLK
  5
158C
330
1583
100
AcDbEntity
  8
0
100
AcDbBlockEnd
  0
BLOCK
  5
158E
330
158D
100
AcDbEntity
  8
0
100
AcDbBlockBegin
  2
*D53
 70
     1
 10
0.0
 20
0.0
 30
0.0
  3
*D53
  1

  0
LINE
  5
158F
330
158D
100
AcDbEntity
  8
DIM
 62
     0
370
    -2
100
AcDbLine
 10
-2069.806666504857
 20
391.2985325408769
 30
0.0
 11
-2069.806666504857
 21
393.0428987538471
 31
0.0
  0
LINE
  5
1590
330
158D
100
AcDbEntity
  8
DIM
 62
     0
370
    -2
100
AcDbLine
 10
-2069.806666504857
 20
393.0428987538471
 30
0.0
 11
-2071.082380871438
 21
395.0428987538471
 31
0.0
  0
LINE
  5
1591
330
158D
100
AcDbEntity
  8
DIM
 62
     0
370
    -2
100
AcDbLine
 10
-2071.082380871438
 20
395.0428987538471
 30
0.0
 11
-2071.082380871438
 21
397.0428987538471
 31
0.0
  0
MTEXT
  5
1592
330
158D
100
AcDbEntity
  8
DIM
 62
     0
100
AcDbMText
 10
-2071.082380871438
 20
398.9803987538468
 30
0.0
 40
0.75
 41
0.0
 71
     5
 72
     1
  1
\A1;0.384
 11
0.0000000000000001
 21
1.0
 31
0.0
 73
     1
 44
1.0
1001
ACAD
1000
MTEXTBEGIN
1070
    73
1070
     1
1070
    44
1040
1.0
1070
    74
1070
     0
1000
MTEXTEND
  0
POINT
  5
1593
330
158D
100
AcDbEntity
  8
Defpoints
 62
     0
100
AcDbPoint
 10
-2069.806666504857
 20
390.9235325408769
 30
0.0
  0
POINT
  5
1594
330
158D
100
AcDbEntity
  8
Defpoints
 62
     0
100
AcDbPoint
 10
-2071.082380871438
 20
397.0428987538471
 30
0.0
  0
POINT
  5
1595
330
158D
100
AcDbEntity
  8
Defpoints
 62
     0
100
AcDbPoint
 10
-2070.190665214332
 20
362.9835745360941
 30
0.0
  0
ENDBLK
  5
1596
330
158D
100
AcDbEntity
  8
0
100
AcDbBlockEnd
  0
BLOCK
  5
1598
330
1597
100
AcDbEntity
  8
0
100
AcDbBlockBegin
  2
*D54
 70
     1
 10
0.0
 20
0.0
 30
0.0
  3
*D54
  1

  0
LINE
  5
1599
330
1597
100
AcDbEntity
  8
DIM
 62
     0
370
    -2
100
AcDbLine
 10
-2059.912916504859
 20
392.6660325408766
 30
0.0
 11
-2059.912916504859
 21
397.0753694292055
 31
0.0
  0
MTEXT
  5
159A
330
1597
100
AcDbEntity
  8
DIM
 62
     0
100
AcDbMText
 10
-2059.912916504859
 20
399.2628694292051
 30
0.0
 40
0.75
 41
0.0
 71
     5
 72
     1
  1
\A1;10.278
 11
0.0000000000000001
 21
1.0
 31
0.0
 73
     1
 44
1.0
1001
ACAD
1000
MTEXTBEGIN
1070
    73
1070
     1
1070
    44
1040
1.0
1070
    74
1070
     0
1000
MTEXTEND
  0
POINT
  5
159B
330
1597
100
AcDbEntity
  8
Defpoints
 62
     0
100
AcDbPoint
 10
-2059.912916504859
 20
392.2910325408766
 30
0.0
  0
POINT
  5
159C
330
1597
100
AcDbEntity
  8
Defpoints
 62
     0
100
AcDbPoint
 10
-2059.912916504859
 20
397.0753694292055
 30
0.0
  0
POINT
  5
159D
330
1597
100
AcDbEntity
  8
Defpoints
 62
     0
100
AcDbPoint
 10
-2070.190665214332
 20
362.9835745360941
 30
0.0
  0
ENDBLK
  5
159E
330
1597
100
AcDbEntity
  8
0
100
AcDbBlockEnd
  0
BLOCK
  5
15A0
330
159F
100
AcDbEntity
  8
0
100
AcDbBlockBegin
  2
*D55
 70
     1
 10
0.0
 20
0.0
 30
0.0
  3
*D55
  1

  0
LINE
  5
15A1
330
159F
100
AcDbEntity
  8
DIM
 62
     0
370
    -2
100
AcDbLine
 10
-2058.306666504857
 20
391.2985325408769
 30
0.0
 11
-2058.306666504857
 21
396.9941931307537
 31
0.0
  0
MTEXT
  5
15A2
330
159F
100
AcDbEntity
  8
DIM
 62
     0
100
AcDbMText
 10
-2058.306666504857
 20
399.1191931307534
 30
0.0
 40
0.75
 41
0.0
 71
     5
 72
     1
  1
\A1;11.884
 11
0.0000000000000001
 21
1.0
 31
0.0
 73
     1
 44
1.0
1001
ACAD
1000
MTEXTBEGIN
1070
    73
1070
     1
1070
    44
1040
1.0
1070
    74
1070
     0
1000
MTEXTEND
  0
POINT
  5
15A3
330
159F
100
AcDbEntity
  8
Defpoints
 62
     0
100
AcDbPoint
 10
-2058.306666504857
 20
390.9235325408769
 30
0.0
  0
POINT
  5
15A4
330
159F
100
AcDbEntity
  8
Defpoints
 62
     0
100
AcDbPoint
 10
-2058.306666504857
 20
396.9941931307537
 30
0.0
  0
POINT
  5
15A5
330
159F
100
AcDbEntity
  8
Defpoints
 62
     0
100
AcDbPoint
 10
-2070.190665214332
 20
362.9835745360941
 30
0.0
  0
ENDBLK
  5
15A6
330
159F
100
AcDbEntity
  8
0
100
AcDbBlockEnd
  0
BLOCK
  5
15A8
330
15A7
100
AcDbEntity
  8
0
100
AcDbBlockBegin
  2
*D56
 70
     1
 10
0.0
 20
0.0
 30
0.0
  3
*D56
  1

  0
LINE
  5
15A9
330
15A7
100
AcDbEntity
  8
DIM
 62
     0
370
    -2
100
AcDbLine
 10
-2057.545666504858
 20
393.0745325408769
 30
0.0
 11
-2053.903186238506
 21
393.0745325408769
 31
0.0
  0
MTEXT
  5
15AA
330
15A7
100
AcDbEntity
  8
DIM
 62
     0
100
AcDbMText
 10
-2051.778186238506
 20
393.0745325408769
 30
0.0
 40
0.75
 41
0.0
 71
     5
 72
     1
  1
\A1;30.091
 73
     1
 44
1.0
1001
ACAD
1000
MTEXTBEGIN
1070
    73
1070
     1
1070
    44
1040
1.0
1070
    74
1070
     0
1000
MTEXTEND
  0
POINT
  5
15AB
330
15A7
100
AcDbEntity
  8
Defpoints
 62
     0
100
AcDbPoint
 10
-2057.920666504858
 20
393.0745325408769
 30
0.0
  0
POINT
  5
15AC
330
15A7
100
AcDbEntity
  8
Defpoints
 62
     0
100
AcDbPoint
 10
-2053.903186238506
 20
393.0745325408769
 30
0.0
  0
POINT
  5
15AD
330
15A7
100
AcDbEntity
  8
Defpoints
 62
     0
100
AcDbPoint
 10
-2070.190665214332
 20
362.9835745360941
 30
0.0
  0
ENDBLK
  5
15AE
330
15A7
100
AcDbEntity
  8
0
100
AcDbBlockEnd
  0
BLOCK
  5
15B0
330
15AF
100
AcDbEntity
  8
0
100
AcDbBlockBegin
  2
*D57
 70
     1
 10
0.0
 20
0.0
 30
0.0
  3
*D57
  1

  0
LINE
  5
15B1
330
15AF
100
AcDbEntity
  8
DIM
 62
     0
370
    -2
100
AcDbLine
 10
-2059.537916504859
 20
392.2910325408766
 30
0.0
 11
-2057.903186238506
 21
392.2910325408766
 31
0.0
  0
LINE
  5
15B2
330
15AF
100
AcDbEntity
  8
DIM
 62
     0
370
    -2
100
AcDbLine
 10
-2057.903186238506
 20
392.2910325408766
 30
0.0
 11
-2055.903186238506
 21
391.5391278593621
 31
0.0
  0
LINE
  5
15B3
330
15AF
100
AcDbEntity
  8
DIM
 62
     0
370
    -2
100
AcDbLine
 10
-2055.903186238506
 20
391.5391278593621
 30
0.0
 11
-2053.903186238506
 21
391.5391278593621
 31
0.0
  0
MTEXT
  5
15B4
330
15AF
100
AcDbEntity
  8
DIM
 62
     0
100
AcDbMText
 10
-2051.590686238506
 20
391.5391278593621
 30
0.0
 40
0.75
 41
0.0
 71
     5
 72
     1
  1
\A1;29.307
 73
     1
 44
1.0
1001
ACAD
1000
MTEXTBEGIN
1070
    73
1070
     1
1070
    44
1040
1.0
1070
    74
1070
     0
1000
MTEXTEND
  0
POINT
  5
15B5
330
15AF
100
AcDbEntity
  8
Defpoints
 62
     0
100
AcDbPoint
 10
-2059.912916504859
 20
392.2910325408766
 30
0.0
  0
POINT
  5
15B6
330
15AF
100
AcDbEntity
  8
Defpoints
 62
     0
100
AcDbPoint
 10
-2053.903186238506
 20
391.5391278593621
 30
0.0
  0
POINT
  5
15B7
330
15AF
100
AcDbEntity
  8
Defpoints
 62
     0
100
AcDbPoint
 10
-2070.190665214332
 20
362.9835745360941
 30
0.0
  0
ENDBLK
  5
15B8
330
15AF
100
AcDbEntity
  8
0
100
AcDbBlockEnd
  0
BLOCK
  5
15BA
330
15B9
100
AcDbEntity
  8
0
100
AcDbBlockBegin
  2
*D58
 70
     1
 10
0.0
 20
0.0
 30
0.0
  3
*D58
  1

  0
LINE
  5
15BB
330
15B9
100
AcDbEntity
  8
DIM
 62
     0
370
    -2
100
AcDbLine
 10
-2059.537916504857
 20
387.8410325408769
 30
0.0
 11
-2057.197127599573
 21
387.8410325408769
 31
0.0
  0
LINE
  5
15BC
330
15B9
100
AcDbEntity
  8
DIM
 62
     0
370
    -2
100
AcDbLine
 10
-2057.197127599573
 20
387.8410325408769
 30
0.0
 11
-2055.197127599573
 21
388.9313409354163
 31
0.0
  0
LINE
  5
15BD
330
15B9
100
AcDbEntity
  8
DIM
 62
     0
370
    -2
100
AcDbLine
 10
-2055.197127599573
 20
388.9313409354163
 30
0.0
 11
-2053.197127599573
 21
388.9313409354163
 31
0.0
  0
MTEXT
  5
15BE
330
15B9
100
AcDbEntity
  8
DIM
 62
     0
100
AcDbMText
 10
-2050.822127599573
 20
388.9313409354163
 30
0.0
 40
0.75
 41
0.0
 71
     5
 72
     1
  1
\A1;24.857
 73
     1
 44
1.0
1001
ACAD
1000
MTEXTBEGIN
1070
    73
1070
     1
1070
    44
1040
1.0
1070
    74
1070
     0
1000
MTEXTEND
  0
POINT
  5
15BF
330
15B9
100
AcDbEntity
  8
Defpoints
 62
     0
100
AcDbPoint
 10
-2059.912916504857
 20
387.8410325408769
 30
0.0
  0
POINT
  5
15C0
330
15B9
100
AcDbEntity
  8
Defpoints
 62
     0
100
AcDbPoint
 10
-2053.197127599573
 20
388.9313409354163
 30
0.0
  0
POINT
  5
15C1
330
15B9
100
AcDbEntity
  8
Defpoints
 62
     0
100
AcDbPoint
 10
-2070.190665214332
 20
362.9835745360941
 30
0.0
  0
ENDBLK
  5
15C2
330
15B9
100
AcDbEntity
  8
0
100
AcDbBlockEnd
  0
BLOCK
  5
15C4
330
15C3
100
AcDbEntity
  8
0
100
AcDbBlockBegin
  2
*D59
 70
     1
 10
0.0
 20
0.0
 30
0.0
  3
*D59
  1

  0
LINE
  5
15C5
330
15C3
100
AcDbEntity
  8
DIMENSION
 62
     0
370
    -2
100
AcDbLine
 10
-2071.84940541945
 20
370.7075991288017
 30
0.0
 11
-2071.099405419449
 21
370.7075991288017
 31
0.0
  0
LINE
  5
15C6
330
15C3
100
AcDbEntity
  8
DIMENSION
 62
     0
370
    -2
100
AcDbLine
 10
-2071.099405419449
 20
370.7075991288017
 30
0.0
 11
-2064.80876311932
 21
379.1413609768775
 31
0.0
  0
MTEXT
  5
15C7
330
15C3
100
AcDbEntity
  8
DIMENSION
 62
     0
100
AcDbMText
 10
-2072.22440541945
 20
373.5825991288014
 30
0.0
 40
0.75
 41
0.0
 71
     3
 72
     1
  1
\A1;\U+22051.250 (1)\POPTIONAL:\PEXTERNAL\PHEAT \POUTPUT
 73
     1
 44
1.0
1001
ACAD
1000
MTEXTBEGIN
1070
    73
1070
     1
1070
    44
1040
1.0
1070
    74
1070
     0
1000
MTEXTEND
  0
SOLID
  5
15C8
330
15C3
100
AcDbEntity
  8
DIMENSION
 62
     0
100
AcDbTrace
 10
-2064.908960534229
 20
379.2160970327378
 30
0.0
 11
-2064.708565704411
 21
379.0666249210172
 31
0.0
 12
-2064.360346784159
 22
379.7425454663316
 32
0.0
 13
-2064.360346784159
 23
379.7425454663316
 33
0.0
  0
LINE
  5
15C9
330
15C3
100
AcDbEntity
  8
DIMENSION
 62
     0
370
    -2
100
AcDbLine
 10
-2064.076666504857
 20
380.2435325408768
 30
0.0
 11
-2063.896666504857
 21
380.2435325408769
 31
0.0
  0
LINE
  5
15CA
330
15C3
100
AcDbEntity
  8
DIMENSION
 62
     0
370
    -2
100
AcDbLine
 10
-2063.986666504857
 20
380.1535325408768
 30
0.0
 11
-2063.986666504857
 21
380.3335325408767
 31
0.0
  0
POINT
  5
15CB
330
15C3
100
AcDbEntity
  8
Defpoints
 62
     0
100
AcDbPoint
 10
-2064.360346784159
 20
379.7425454663316
 30
0.0
  0
POINT
  5
15CC
330
15C3
100
AcDbEntity
  8
Defpoints
 62
     0
100
AcDbPoint
 10
-2063.612986225556
 20
380.7445196154217
 30
0.0
  0
ENDBLK
  5
15CD
330
15C3
100
AcDbEntity
  8
0
100
AcDbBlockEnd
  0
BLOCK
  5
15CF
330
15CE
100
AcDbEntity
  8
0
100
AcDbBlockBegin
  2
*D60
 70
     1
 10
0.0
 20
0.0
 30
0.0
  3
*D60
  1

  0
LINE
  5
15D0
330
15CE
100
AcDbEntity
  8
DIM
 62
     0
370
    -2
100
AcDbLine
 10
-2066.486666504857
 20
382.8685325408767
 30
0.0
 11
-2066.486666504857
 21
397.3515168548647
 31
0.0
  0
MTEXT
  5
15D1
330
15CE
100
AcDbEntity
  8
DIM
 62
     0
100
AcDbMText
 10
-2066.486666504857
 20
399.2890168548644
 30
0.0
 40
0.75
 41
0.0
 71
     5
 72
     1
  1
\A1;3.704
 11
0.0000000000000001
 21
1.0
 31
0.0
 73
     1
 44
1.0
1001
ACAD
1000
MTEXTBEGIN
1070
    73
1070
     1
1070
    44
1040
1.0
1070
    74
1070
     0
1000
MTEXTEND
  0
POINT
  5
15D2
330
15CE
100
AcDbEntity
  8
Defpoints
 62
     0
100
AcDbPoint
 10
-2066.486666504857
 20
382.4935325408767
 30
0.0
  0
POINT
  5
15D3
330
15CE
100
AcDbEntity
  8
Defpoints
 62
     0
100
AcDbPoint
 10
-2066.486666504857
 20
397.3515168548647
 30
0.0
  0
POINT
  5
15D4
330
15CE
100
AcDbEntity
  8
Defpoints
 62
     0
100
AcDbPoint
 10
-2070.190665214332
 20
362.9835745360941
 30
0.0
  0
ENDBLK
  5
15D5
330
15CE
100
AcDbEntity
  8
0
100
AcDbBlockEnd
  0
BLOCK
  5
15D7
330
15D6
100
AcDbEntity
  8
0
100
AcDbBlockBegin
  2
*D61
 70
     1
 10
0.0
 20
0.0
 30
0.0
  3
*D61
  1

  0
LINE
  5
15D8
330
15D6
100
AcDbEntity
  8
DIM
 62
     0
370
    -2
100
AcDbLine
 10
-2066.861666504857
 20
382.4935325408767
 30
0.0
 11
-2069.202690994226
 21
382.4935325408767
 31
0.0
  0
LINE
  5
15D9
330
15D6
100
AcDbEntity
  8
DIM
 62
     0
370
    -2
100
AcDbLine
 10
-2069.202690994226
 20
382.4935325408767
 30
0.0
 11
-2071.202690994225
 21
381.932667067098
 31
0.0
  0
LINE
  5
15DA
330
15D6
100
AcDbEntity
  8
DIM
 62
     0
370
    -2
100
AcDbLine
 10
-2071.202690994225
 20
381.932667067098
 30
0.0
 11
-2073.202690994225
 21
381.932667067098
 31
0.0
  0
MTEXT
  5
15DB
330
15D6
100
AcDbEntity
  8
DIM
 62
     0
100
AcDbMText
 10
-2075.265190994225
 20
381.932667067098
 30
0.0
 40
0.75
 41
0.0
 71
     5
 72
     1
  1
\A1;19.510
 73
     1
 44
1.0
1001
ACAD
1000
MTEXTBEGIN
1070
    73
1070
     1
1070
    44
1040
1.0
1070
    74
1070
     0
1000
MTEXTEND
  0
POINT
  5
15DC
330
15D6
100
AcDbEntity
  8
Defpoints
 62
     0
100
AcDbPoint
 10
-2066.486666504857
 20
382.4935325408767
 30
0.0
  0
POINT
  5
15DD
330
15D6
100
AcDbEntity
  8
Defpoints
 62
     0
100
AcDbPoint
 10
-2073.202690994225
 20
381.932667067098
 30
0.0
  0
POINT
  5
15DE
330
15D6
100
AcDbEntity
  8
Defpoints
 62
     0
100
AcDbPoint
 10
-2070.190665214332
 20
362.9835745360941
 30
0.0
  0
ENDBLK
  5
15DF
330
15D6
100
AcDbEntity
  8
0
100
AcDbBlockEnd
  0
BLOCK
  5
15E1
330
15E0
100
AcDbEntity
  8
0
100
AcDbBlockBegin
  2
*D62
 70
     1
 10
0.0
 20
0.0
 30
0.0
  3
*D62
  1

  0
LINE
  5
15E2
330
15E0
100
AcDbEntity
  8
DIM
 62
     0
370
    -2
100
AcDbLine
 10
-2056.996734251212
 20
384.2728432151678
 30
0.0
 11
-2065.135215916229
 21
382.746922174633
 31
0.0
  0
MTEXT
  5
15E3
330
15E0
100
AcDbEntity
  8
DIM
 62
     0
100
AcDbMText
 10
-2056.621734251212
 20
387.1478432151678
 30
0.0
 40
0.75
 41
0.0
 71
     1
 72
     1
  1
\A1;\U+22051.250 (1)\POPTIONAL:\PETHERNET\PCONNECTION\PPORT
 73
     1
 44
1.0
1001
ACAD
1000
MTEXTBEGIN
1070
    73
1070
     1
1070
    44
1040
1.0
1070
    74
1070
     0
1000
MTEXTEND
  0
SOLID
  5
15E4
330
15E0
100
AcDbEntity
  8
DIM
 62
     0
100
AcDbTrace
 10
-2065.15825133748
 20
382.8697813190538
 30
0.0
 11
-2065.112180494979
 21
382.6240630302123
 31
0.0
 12
-2065.872370782753
 22
382.6087096471296
 32
0.0
 13
-2065.872370782753
 23
382.6087096471296
 33
0.0
  0
LINE
  5
15E5
330
15E0
100
AcDbEntity
  8
DIM
 62
     0
370
    -2
100
AcDbLine
 10
-2066.576666504857
 20
382.4935325408767
 30
0.0
 11
-2066.396666504857
 21
382.4935325408768
 31
0.0
  0
LINE
  5
15E6
330
15E0
100
AcDbEntity
  8
DIM
 62
     0
370
    -2
100
AcDbLine
 10
-2066.486666504857
 20
382.4035325408767
 30
0.0
 11
-2066.486666504858
 21
382.5835325408766
 31
0.0
  0
POINT
  5
15E7
330
15E0
100
AcDbEntity
  8
Defpoints
 62
     0
100
AcDbPoint
 10
-2065.872370782753
 20
382.6087096471296
 30
0.0
  0
POINT
  5
15E8
330
15E0
100
AcDbEntity
  8
Defpoints
 62
     0
100
AcDbPoint
 10
-2067.100962226962
 20
382.3783554346237
 30
0.0
  0
ENDBLK
  5
15E9
330
15E0
100
AcDbEntity
  8
0
100
AcDbBlockEnd
  0
BLOCK
  5
15EB
330
15EA
100
AcDbEntity
  8
0
100
AcDbBlockBegin
  2
*D63
 70
     1
 10
0.0
 20
0.0
 30
0.0
  3
*D63
  1

  0
LINE
  5
15EC
330
15EA
100
AcDbEntity
  8
DIMENSION
 62
     0
370
    -2
100
AcDbLine
 10
-2055.837070139807
 20
376.1963079454592
 30
0.0
 11
-2057.274570139807
 21
376.1963079454592
 31
0.0
  0
LINE
  5
15ED
330
15EA
100
AcDbEntity
  8
DIMENSION
 62
     0
370
    -2
100
AcDbLine
 10
-2057.274570139807
 20
376.1963079454592
 30
0.0
 11
-2062.92678402768
 21
380.8675906851745
 31
0.0
  0
MTEXT
  5
15EE
330
15EA
100
AcDbEntity
  8
DIMENSION
 62
     0
100
AcDbMText
 10
-2055.462070139806
 20
377.8213079454592
 30
0.0
 40
0.75
 41
0.0
 71
     1
 72
     1
  1
\A1;\U+22051.250 (1)\PPOWER\PSUPPLY
 73
     1
 44
1.0
1001
ACAD
1000
MTEXTBEGIN
1070
    73
1070
     1
1070
    44
1040
1.0
1070
    74
1070
     0
1000
MTEXTEND
  0
SOLID
  5
15EF
330
15EA
100
AcDbEntity
  8
DIMENSION
 62
     0
100
AcDbTrace
 10
-2062.847152949888
 20
380.9639436376452
 30
0.0
 11
-2063.006415105471
 21
380.7712377327037
 31
0.0
 12
-2063.504901742504
 22
381.3453771519212
 32
0.0
 13
-2063.504901742504
 23
381.3453771519212
 33
0.0
  0
LINE
  5
15F0
330
15EA
100
AcDbEntity
  8
DIMENSION
 62
     0
370
    -2
100
AcDbLine
 10
-2064.076666504858
 20
381.7435325408764
 30
0.0
 11
-2063.896666504858
 21
381.7435325408766
 31
0.0
  0
LINE
  5
15F1
330
15EA
100
AcDbEntity
  8
DIMENSION
 62
     0
370
    -2
100
AcDbLine
 10
-2063.986666504857
 20
381.6535325408763
 30
0.0
 11
-2063.986666504858
 21
381.8335325408764
 31
0.0
  0
POINT
  5
15F2
330
15EA
100
AcDbEntity
  8
Defpoints
 62
     0
100
AcDbPoint
 10
-2063.504901742504
 20
381.3453771519212
 30
0.0
  0
POINT
  5
15F3
330
15EA
100
AcDbEntity
  8
Defpoints
 62
     0
100
AcDbPoint
 10
-2064.468431267211
 20
382.1416879298321
 30
0.0
  0
ENDBLK
  5
15F4
330
15EA
100
AcDbEntity
  8
0
100
AcDbBlockEnd
  0
BLOCK
  5
16C8
330
16BF
100
AcDbEntity
  8
0
100
AcDbBlockBegin
  2
*D65
 70
     1
 10
0.0
 20
0.0
 30
0.0
  3
*D65
  1

  0
LINE
  5
1AF2
330
16BF
100
AcDbEntity
  8
DIMENSION
 62
     0
370
    -2
100
AcDbLine
 10
48.99999475680296
 20
28.24487486363741
 30
0.0
 11
47.06249475680261
 21
28.2448748636374
 31
0.0
  0
LINE
  5
1AF3
330
16BF
100
AcDbEntity
  8
DIMENSION
 62
     0
370
    -2
100
AcDbLine
 10
47.06249475680261
 20
28.2448748636374
 30
0.0
 11
41.60298677387134
 21
32.75689544777051
 31
0.0
  0
MTEXT
  5
1AF4
330
16BF
100
AcDbEntity
  8
DIMENSION
 62
     0
100
AcDbMText
 10
49.08999475680296
 20
29.8698748636374
 30
0.0
 40
0.75
 41
0.0
 71
     1
 72
     1
  1
\A1;\U+22051.250 (1)\PPOWER\PSUPPLY
 73
     1
 44
1.0
1001
ACAD
1000
MTEXTBEGIN
1070
    73
1070
     1
1070
    44
1040
1.0
1070
    74
1070
     0
1000
MTEXTEND
  0
SOLID
  5
1AF5
330
16BF
100
AcDbEntity
  8
DIMENSION
 62
     0
100
AcDbTrace
 10
41.70916154425948
 20
32.88536605106482
 30
0.0
 11
41.49681200348321
 21
32.6284248444762
 31
0.0
 12
40.83216315410548
 22
33.39394407009933
 32
0.0
 13
40.83216315410548
 23
33.39394407009933
 33
0.0
  0
LINE
  5
1AF6
330
16BF
100
AcDbEntity
  8
DIMENSION
 62
     0
370
    -2
100
AcDbLine
 10
40.2603983917519
 20
33.79209945905478
 30
0.0
 11
40.44039839175191
 21
33.79209945905477
 31
0.0
  0
LINE
  5
1AF7
330
16BF
100
AcDbEntity
  8
DIMENSION
 62
     0
370
    -2
100
AcDbLine
 10
40.3503983917519
 20
33.70209945905477
 30
0.0
 11
40.3503983917519
 21
33.88209945905478
 31
0.0
  0
POINT
  5
1AF8
330
16BF
100
AcDbEntity
  8
Defpoints
 62
     0
100
AcDbPoint
 10
40.83216315410548
 20
33.39394407009933
 30
0.0
  0
POINT
  5
1AF9
330
16BF
100
AcDbEntity
  8
Defpoints
 62
     0
100
AcDbPoint
 10
39.86863362939832
 20
34.19025484801021
 30
0.0
  0
ENDBLK
  5
16C9
330
16BF
100
AcDbEntity
  8
0
100
AcDbBlockEnd
  0
BLOCK
  5
16D2
330
16CA
100
AcDbEntity
  8
0
100
AcDbBlockBegin
  2
*D66
 70
     1
 10
0.0
 20
0.0
 30
0.0
  3
*D66
  1

  0
LINE
  5
1AEB
330
16CA
100
AcDbEntity
  8
DIM
 62
     0
370
    -2
100
AcDbLine
 10
47.34033064539669
 20
36.32141013334704
 30
0.0
 11
39.44756726922183
 21
34.84155993531253
 31
0.0
  0
MTEXT
  5
1AEC
330
16CA
100
AcDbEntity
  8
DIM
 62
     0
100
AcDbMText
 10
47.43033064539669
 20
39.19641013334704
 30
0.0
 40
0.75
 41
0.0
 71
     1
 72
     1
  1
\A1;\U+22051.250 (1)\POPTIONAL:\PETHERNET\PCONNECTION\PPORT
 73
     1
 44
1.0
1001
ACAD
1000
MTEXTBEGIN
1070
    73
1070
     1
1070
    44
1040
1.0
1070
    74
1070
     0
1000
MTEXTEND
  0
SOLID
  5
1AED
330
16CA
100
AcDbEntity
  8
DIM
 62
     0
100
AcDbTrace
 10
39.41685337422104
 20
35.00537212787358
 30
0.0
 11
39.47828116422262
 21
34.67774774275148
 31
0.0
 12
38.46469411385554
 22
34.65727656530777
 32
0.0
 13
38.46469411385554
 23
34.65727656530777
 33
0.0
  0
LINE
  5
1AEE
330
16CA
100
AcDbEntity
  8
DIM
 62
     0
370
    -2
100
AcDbLine
 10
37.76039839175168
 20
34.54209945905482
 30
0.0
 11
37.94039839175169
 21
34.54209945905482
 31
0.0
  0
LINE
  5
1AEF
330
16CA
100
AcDbEntity
  8
DIM
 62
     0
370
    -2
100
AcDbLine
 10
37.85039839175168
 20
34.45209945905482
 30
0.0
 11
37.85039839175168
 21
34.63209945905483
 31
0.0
  0
POINT
  5
1AF0
330
16CA
100
AcDbEntity
  8
Defpoints
 62
     0
100
AcDbPoint
 10
38.46469411385554
 20
34.65727656530777
 30
0.0
  0
POINT
  5
1AF1
330
16CA
100
AcDbEntity
  8
Defpoints
 62
     0
100
AcDbPoint
 10
37.23610266964782
 20
34.42692235280186
 30
0.0
  0
ENDBLK
  5
16D3
330
16CA
100
AcDbEntity
  8
0
100
AcDbBlockEnd
  0
BLOCK
  5
16DC
330
16D4
100
AcDbEntity
  8
0
100
AcDbBlockBegin
  2
*D67
 70
     1
 10
0.0
 20
0.0
 30
0.0
  3
*D67
  1

  0
LINE
  5
1B2A
330
16D4
100
AcDbEntity
  8
DIM
 62
     0
370
    -2
100
AcDbLine
 10
37.47539839175191
 20
34.54209945905484
 30
0.0
 11
35.13437390238435
 21
34.54209945905484
 31
0.0
  0
LINE
  5
1B2B
330
16D4
100
AcDbEntity
  8
DIM
 62
     0
370
    -2
100
AcDbLine
 10
35.13437390238435
 20
34.54209945905484
 30
0.0
 11
33.13437390238436
 21
33.98123398527616
 31
0.0
  0
LINE
  5
1B2C
330
16D4
100
AcDbEntity
  8
DIM
 62
     0
370
    -2
100
AcDbLine
 10
33.13437390238436
 20
33.98123398527616
 30
0.0
 11
31.13437390238436
 21
33.98123398527616
 31
0.0
  0
MTEXT
  5
1B2D
330
16D4
100
AcDbEntity
  8
DIM
 62
     0
100
AcDbMText
 10
29.07187390238436
 20
33.98123398527616
 30
0.0
 40
0.75
 41
0.0
 71
     5
 72
     1
  1
\A1;19.510
 73
     1
 44
1.0
1001
ACAD
1000
MTEXTBEGIN
1070
    73
1070
     1
1070
    44
1040
1.0
1070
    74
1070
     0
1000
MTEXTEND
  0
POINT
  5
1B2E
330
16D4
100
AcDbEntity
  8
Defpoints
 62
     0
100
AcDbPoint
 10
37.85039839175191
 20
34.54209945905484
 30
0.0
  0
POINT
  5
1B2F
330
16D4
100
AcDbEntity
  8
Defpoints
 62
     0
100
AcDbPoint
 10
31.13437390238436
 20
33.98123398527616
 30
0.0
  0
POINT
  5
1B30
330
16D4
100
AcDbEntity
  8
Defpoints
 62
     0
100
AcDbPoint
 10
34.14639968227742
 20
15.03214145427228
 30
0.0
  0
ENDBLK
  5
16DD
330
16D4
100
AcDbEntity
  8
0
100
AcDbBlockEnd
  0
BLOCK
  5
16E4
330
16DE
100
AcDbEntity
  8
0
100
AcDbBlockBegin
  2
*D68
 70
     1
 10
0.0
 20
0.0
 30
0.0
  3
*D68
  1

  0
LINE
  5
1B66
330
16DE
100
AcDbEntity
  8
DIM
 62
     0
370
    -2
100
AcDbLine
 10
37.85039839175191
 20
34.91709945905484
 30
0.0
 11
37.85039839175191
 21
49.40008377304287
 31
0.0
  0
MTEXT
  5
1B67
330
16DE
100
AcDbEntity
  8
DIM
 62
     0
100
AcDbMText
 10
37.8503983917519
 20
51.33758377304287
 30
0.0
 40
0.75
 41
0.0
 71
     5
 72
     1
  1
\A1;3.704
 11
0.0000000000000001
 21
1.0
 31
0.0
 73
     1
 44
1.0
1001
ACAD
1000
MTEXTBEGIN
1070
    73
1070
     1
1070
    44
1040
1.0
1070
    74
1070
     0
1000
MTEXTEND
  0
POINT
  5
1B68
330
16DE
100
AcDbEntity
  8
Defpoints
 62
     0
100
AcDbPoint
 10
37.85039839175191
 20
34.54209945905484
 30
0.0
  0
POINT
  5
1B69
330
16DE
100
AcDbEntity
  8
Defpoints
 62
     0
100
AcDbPoint
 10
37.85039839175191
 20
49.40008377304287
 30
0.0
  0
POINT
  5
1B6A
330
16DE
100
AcDbEntity
  8
Defpoints
 62
     0
100
AcDbPoint
 10
34.14639968227742
 20
15.03214145427228
 30
0.0
  0
ENDBLK
  5
16E5
330
16DE
100
AcDbEntity
  8
0
100
AcDbBlockEnd
  0
BLOCK
  5
16EF
330
16E6
100
AcDbEntity
  8
0
100
AcDbBlockBegin
  2
*D69
 70
     1
 10
0.0
 20
0.0
 30
0.0
  3
*D69
  1

  0
LINE
  5
1AD7
330
16E6
100
AcDbEntity
  8
DIMENSION
 62
     0
370
    -2
100
AcDbLine
 10
31.27932614382697
 20
22.75616604697962
 30
0.0
 11
33.23765947716593
 21
22.75616604697962
 31
0.0
  0
LINE
  5
1AD8
330
16E6
100
AcDbEntity
  8
DIMENSION
 62
     0
370
    -2
100
AcDbLine
 10
33.23765947716593
 20
22.75616604697962
 30
0.0
 11
39.37882966556896
 21
30.98953306523749
 31
0.0
  0
MTEXT
  5
1AD9
330
16E6
100
AcDbEntity
  8
DIMENSION
 62
     0
100
AcDbMText
 10
31.18932614382698
 20
25.63116604697962
 30
0.0
 40
0.75
 41
0.0
 71
     3
 72
     1
  1
\A1;\U+22051.250 (1)\POPTIONAL:\PEXTERNAL\PHEAT \POUTPUT
 73
     1
 44
1.0
1001
ACAD
1000
MTEXTBEGIN
1070
    73
1070
     1
1070
    44
1040
1.0
1070
    74
1070
     0
1000
MTEXTEND
  0
SOLID
  5
1ADA
330
16E6
100
AcDbEntity
  8
DIMENSION
 62
     0
100
AcDbTrace
 10
39.24523311235691
 20
31.08918113971782
 30
0.0
 11
39.51242621878101
 21
30.88988499075716
 31
0.0
 12
39.97671811245094
 22
31.7911123845098
 32
0.0
 13
39.97671811245094
 23
31.7911123845098
 33
0.0
  0
LINE
  5
1ADB
330
16E6
100
AcDbEntity
  8
DIMENSION
 62
     0
370
    -2
100
AcDbLine
 10
40.26039839175213
 20
32.29209945905494
 30
0.0
 11
40.44039839175214
 21
32.29209945905494
 31
0.0
  0
LINE
  5
1ADC
330
16E6
100
AcDbEntity
  8
DIMENSION
 62
     0
370
    -2
100
AcDbLine
 10
40.35039839175214
 20
32.20209945905494
 30
0.0
 11
40.35039839175214
 21
32.38209945905494
 31
0.0
  0
POINT
  5
1ADD
330
16E6
100
AcDbEntity
  8
Defpoints
 62
     0
100
AcDbPoint
 10
39.97671811245094
 20
31.7911123845098
 30
0.0
  0
POINT
  5
1ADE
330
16E6
100
AcDbEntity
  8
Defpoints
 62
     0
100
AcDbPoint
 10
40.72407867105334
 20
32.7930865336001
 30
0.0
  0
ENDBLK
  5
16F0
330
16E6
100
AcDbEntity
  8
0
100
AcDbBlockEnd
  0
BLOCK
  5
16F9
330
16F1
100
AcDbEntity
  8
0
100
AcDbBlockBegin
  2
*D70
 70
     1
 10
0.0
 20
0.0
 30
0.0
  3
*D70
  1

  0
LINE
  5
1B23
330
16F1
100
AcDbEntity
  8
DIM
 62
     0
370
    -2
100
AcDbLine
 10
39.97539839175191
 20
32.29209945905484
 30
0.0
 11
35.25770216471504
 21
32.29209945905484
 31
0.0
  0
LINE
  5
1B24
330
16F1
100
AcDbEntity
  8
DIM
 62
     0
370
    -2
100
AcDbLine
 10
35.25770216471504
 20
32.29209945905484
 30
0.0
 11
33.25770216471504
 21
31.23227521267575
 31
0.0
  0
LINE
  5
1B25
330
16F1
100
AcDbEntity
  8
DIM
 62
     0
370
    -2
100
AcDbLine
 10
33.25770216471504
 20
31.23227521267575
 30
0.0
 11
31.25770216471504
 21
31.23227521267575
 31
0.0
  0
MTEXT
  5
1B26
330
16F1
100
AcDbEntity
  8
DIM
 62
     0
100
AcDbMText
 10
29.07020216471504
 20
31.23227521267575
 30
0.0
 40
0.75
 41
0.0
 71
     5
 72
     1
  1
\A1;17.260
 73
     1
 44
1.0
1001
ACAD
1000
MTEXTBEGIN
1070
    73
1070
     1
1070
    44
1040
1.0
1070
    74
1070
     0
1000
MTEXTEND
  0
POINT
  5
1B27
330
16F1
100
AcDbEntity
  8
Defpoints
 62
     0
100
AcDbPoint
 10
40.3503983917519
 20
32.29209945905484
 30
0.0
  0
POINT
  5
1B28
330
16F1
100
AcDbEntity
  8
Defpoints
 62
     0
100
AcDbPoint
 10
31.25770216471504
 20
31.23227521267575
 30
0.0
  0
POINT
  5
1B29
330
16F1
100
AcDbEntity
  8
Defpoints
 62
     0
100
AcDbPoint
 10
34.14640556603693
 20
15.03207609338949
 30
0.0
  0
ENDBLK
  5
16FA
330
16F1
100
AcDbEntity
  8
0
100
AcDbBlockEnd
  0
BLOCK
  5
1701
330
16FB
100
AcDbEntity
  8
0
100
AcDbBlockBegin
  2
*D71
 70
     1
 10
0.0
 20
0.0
 30
0.0
  3
*D71
  1

  0
LINE
  5
1ACB
330
16FB
100
AcDbEntity
  8
DIM
 62
     0
370
    -2
100
AcDbLine
 10
33.77139839175219
 20
15.03209945905485
 30
0.0
 11
30.14639839175219
 21
15.03209945905485
 31
0.0
  0
MTEXT
  5
1ACC
330
16FB
100
AcDbEntity
  8
DIM
 62
     0
100
AcDbMText
 10
28.39639839175219
 20
15.03209945905485
 30
0.0
 40
0.75
 41
0.0
 71
     5
 72
     1
  1
\A1;0.000
 73
     1
 44
1.0
1001
ACAD
1000
MTEXTBEGIN
1070
    73
1070
     1
1070
    44
1040
1.0
1070
    74
1070
     0
1000
MTEXTEND
  0
POINT
  5
1ACD
330
16FB
100
AcDbEntity
  8
Defpoints
 62
     0
100
AcDbPoint
 10
34.14639839175219
 20
15.03209945905485
 30
0.0
  0
POINT
  5
1ACE
330
16FB
100
AcDbEntity
  8
Defpoints
 62
     0
100
AcDbPoint
 10
30.14639839175219
 20
15.03209945905485
 30
0.0
  0
POINT
  5
1ACF
330
16FB
100
AcDbEntity
  8
Defpoints
 62
     0
100
AcDbPoint
 10
34.14640556603693
 20
15.03207609338949
 30
0.0
  0
ENDBLK
  5
1702
330
16FB
100
AcDbEntity
  8
0
100
AcDbBlockEnd
  0
BLOCK
  5
1709
330
1703
100
AcDbEntity
  8
0
100
AcDbBlockBegin
  2
*D72
 70
     1
 10
0.0
 20
0.0
 30
0.0
  3
*D72
  1

  0
LINE
  5
1AFA
330
1703
100
AcDbEntity
  8
DIM
 62
     0
370
    -2
100
AcDbLine
 10
36.1553983917522
 20
16.97209945905501
 30
0.0
 11
30.14639839175219
 21
16.97209945905501
 31
0.0
  0
MTEXT
  5
1AFB
330
1703
100
AcDbEntity
  8
DIM
 62
     0
100
AcDbMText
 10
28.33389839175218
 20
16.97209945905501
 30
0.0
 40
0.75
 41
0.0
 71
     5
 72
     1
  1
\A1;1.940
 73
     1
 44
1.0
1001
ACAD
1000
MTEXTBEGIN
1070
    73
1070
     1
1070
    44
1040
1.0
1070
    74
1070
     0
1000
MTEXTEND
  0
POINT
  5
1AFC
330
1703
100
AcDbEntity
  8
Defpoints
 62
     0
100
AcDbPoint
 10
36.5303983917522
 20
16.97209945905501
 30
0.0
  0
POINT
  5
1AFD
330
1703
100
AcDbEntity
  8
Defpoints
 62
     0
100
AcDbPoint
 10
30.14639839175219
 20
16.97209945905501
 30
0.0
  0
POINT
  5
1AFE
330
1703
100
AcDbEntity
  8
Defpoints
 62
     0
100
AcDbPoint
 10
34.14640556603693
 20
15.03207609338949
 30
0.0
  0
ENDBLK
  5
170A
330
1703
100
AcDbEntity
  8
0
100
AcDbBlockEnd
  0
BLOCK
  5
1711
330
170B
100
AcDbEntity
  8
0
100
AcDbBlockBegin
  2
*D73
 70
     1
 10
0.0
 20
0.0
 30
0.0
  3
*D73
  1

  0
LINE
  5
1B1E
330
170B
100
AcDbEntity
  8
DIM
 62
     0
370
    -2
100
AcDbLine
 10
34.97189839175211
 20
35.54209945905484
 30
0.0
 11
30.14639839175219
 21
35.54209945905484
 31
0.0
  0
MTEXT
  5
1B1F
330
170B
100
AcDbEntity
  8
DIM
 62
     0
100
AcDbMText
 10
28.02139839175218
 20
35.54209945905484
 30
0.0
 40
0.75
 41
0.0
 71
     5
 72
     1
  1
\A1;20.510
 73
     1
 44
1.0
1001
ACAD
1000
MTEXTBEGIN
1070
    73
1070
     1
1070
    44
1040
1.0
1070
    74
1070
     0
1000
MTEXTEND
  0
POINT
  5
1B20
330
170B
100
AcDbEntity
  8
Defpoints
 62
     0
100
AcDbPoint
 10
35.34689839175211
 20
35.54209945905484
 30
0.0
  0
POINT
  5
1B21
330
170B
100
AcDbEntity
  8
Defpoints
 62
     0
100
AcDbPoint
 10
30.14639839175219
 20
35.54209945905484
 30
0.0
  0
POINT
  5
1B22
330
170B
100
AcDbEntity
  8
Defpoints
 62
     0
100
AcDbPoint
 10
34.14640556603693
 20
15.03207609338949
 30
0.0
  0
ENDBLK
  5
1712
330
170B
100
AcDbEntity
  8
0
100
AcDbBlockEnd
  0
BLOCK
  5
171B
330
1713
100
AcDbEntity
  8
0
100
AcDbBlockBegin
  2
*D74
 70
     1
 10
0.0
 20
0.0
 30
0.0
  3
*D74
  1

  0
LINE
  5
1B17
330
1713
100
AcDbEntity
  8
DIM
 62
     0
370
    -2
100
AcDbLine
 10
34.36814839175189
 20
36.03109945905499
 30
0.0
 11
32.74314839175189
 21
36.03109945905499
 31
0.0
  0
LINE
  5
1B18
330
1713
100
AcDbEntity
  8
DIM
 62
     0
370
    -2
100
AcDbLine
 10
32.74314839175189
 20
36.03109945905499
 30
0.0
 11
32.14639839175219
 21
37.53109945905499
 31
0.0
  0
LINE
  5
1B19
330
1713
100
AcDbEntity
  8
DIM
 62
     0
370
    -2
100
AcDbLine
 10
32.14639839175219
 20
37.53109945905499
 30
0.0
 11
30.14639839175219
 21
37.53109945905499
 31
0.0
  0
MTEXT
  5
1B1A
330
1713
100
AcDbEntity
  8
DIM
 62
     0
100
AcDbMText
 10
28.08389839175219
 20
37.53109945905499
 30
0.0
 40
0.75
 41
0.0
 71
     5
 72
     1
  1
\A1;21.000
 73
     1
 44
1.0
1001
ACAD
1000
MTEXTBEGIN
1070
    73
1070
     1
1070
    44
1040
1.0
1070
    74
1070
     0
1000
MTEXTEND
  0
POINT
  5
1B1B
330
1713
100
AcDbEntity
  8
Defpoints
 62
     0
100
AcDbPoint
 10
34.74314839175189
 20
36.03109945905499
 30
0.0
  0
POINT
  5
1B1C
330
1713
100
AcDbEntity
  8
Defpoints
 62
     0
100
AcDbPoint
 10
30.14639839175219
 20
37.53109945905499
 30
0.0
  0
POINT
  5
1B1D
330
1713
100
AcDbEntity
  8
Defpoints
 62
     0
100
AcDbPoint
 10
34.14640556603693
 20
15.03207609338949
 30
0.0
  0
ENDBLK
  5
171C
330
1713
100
AcDbEntity
  8
0
100
AcDbBlockEnd
  0
BLOCK
  5
1725
330
171D
100
AcDbEntity
  8
0
100
AcDbBlockBegin
  2
*D75
 70
     1
 10
0.0
 20
0.0
 30
0.0
  3
*D75
  1

  0
LINE
  5
1B3D
330
171D
100
AcDbEntity
  8
DIM
 62
     0
370
    -2
100
AcDbLine
 10
44.79914839175238
 20
39.88959945905504
 30
0.0
 11
47.13993729703655
 21
39.88959945905504
 31
0.0
  0
LINE
  5
1B3E
330
171D
100
AcDbEntity
  8
DIM
 62
     0
370
    -2
100
AcDbLine
 10
47.13993729703655
 20
39.88959945905504
 30
0.0
 11
49.13993729703655
 21
40.97990785359445
 31
0.0
  0
LINE
  5
1B3F
330
171D
100
AcDbEntity
  8
DIM
 62
     0
370
    -2
100
AcDbLine
 10
49.13993729703655
 20
40.97990785359445
 30
0.0
 11
51.13993729703655
 21
40.97990785359445
 31
0.0
  0
MTEXT
  5
1B40
330
171D
100
AcDbEntity
  8
DIM
 62
     0
100
AcDbMText
 10
53.51493729703655
 20
40.97990785359445
 30
0.0
 40
0.75
 41
0.0
 71
     5
 72
     1
  1
\A1;24.857
 73
     1
 44
1.0
1001
ACAD
1000
MTEXTBEGIN
1070
    73
1070
     1
1070
    44
1040
1.0
1070
    74
1070
     0
1000
MTEXTEND
  0
POINT
  5
1B41
330
171D
100
AcDbEntity
  8
Defpoints
 62
     0
100
AcDbPoint
 10
44.42414839175238
 20
39.88959945905504
 30
0.0
  0
POINT
  5
1B42
330
171D
100
AcDbEntity
  8
Defpoints
 62
     0
100
AcDbPoint
 10
51.13993729703655
 20
40.97990785359445
 30
0.0
  0
POINT
  5
1B43
330
171D
100
AcDbEntity
  8
Defpoints
 62
     0
100
AcDbPoint
 10
34.14639968227742
 20
15.03214145427228
 30
0.0
  0
ENDBLK
  5
1726
330
171D
100
AcDbEntity
  8
0
100
AcDbBlockEnd
  0
BLOCK
  5
172F
330
1727
100
AcDbEntity
  8
0
100
AcDbBlockBegin
  2
*D76
 70
     1
 10
0.0
 20
0.0
 30
0.0
  3
*D76
  1

  0
LINE
  5
1B36
330
1727
100
AcDbEntity
  8
DIM
 62
     0
370
    -2
100
AcDbLine
 10
44.79914839175056
 20
44.33959945905473
 30
0.0
 11
46.43387865810358
 21
44.33959945905473
 31
0.0
  0
LINE
  5
1B37
330
1727
100
AcDbEntity
  8
DIM
 62
     0
370
    -2
100
AcDbLine
 10
46.43387865810358
 20
44.33959945905473
 30
0.0
 11
48.43387865810358
 21
43.58769477754026
 31
0.0
  0
LINE
  5
1B38
330
1727
100
AcDbEntity
  8
DIM
 62
     0
370
    -2
100
AcDbLine
 10
48.43387865810358
 20
43.58769477754026
 30
0.0
 11
50.43387865810358
 21
43.58769477754026
 31
0.0
  0
MTEXT
  5
1B39
330
1727
100
AcDbEntity
  8
DIM
 62
     0
100
AcDbMText
 10
52.74637865810358
 20
43.58769477754026
 30
0.0
 40
0.75
 41
0.0
 71
     5
 72
     1
  1
\A1;29.307
 73
     1
 44
1.0
1001
ACAD
1000
MTEXTBEGIN
1070
    73
1070
     1
1070
    44
1040
1.0
1070
    74
1070
     0
1000
MTEXTEND
  0
POINT
  5
1B3A
330
1727
100
AcDbEntity
  8
Defpoints
 62
     0
100
AcDbPoint
 10
44.42414839175056
 20
44.33959945905473
 30
0.0
  0
POINT
  5
1B3B
330
1727
100
AcDbEntity
  8
Defpoints
 62
     0
100
AcDbPoint
 10
50.43387865810358
 20
43.58769477754026
 30
0.0
  0
POINT
  5
1B3C
330
1727
100
AcDbEntity
  8
Defpoints
 62
     0
100
AcDbPoint
 10
34.14639968227742
 20
15.03214145427228
 30
0.0
  0
ENDBLK
  5
1730
330
1727
100
AcDbEntity
  8
0
100
AcDbBlockEnd
  0
BLOCK
  5
1737
330
1731
100
AcDbEntity
  8
0
100
AcDbBlockBegin
  2
*D77
 70
     1
 10
0.0
 20
0.0
 30
0.0
  3
*D77
  1

  0
LINE
  5
1B31
330
1731
100
AcDbEntity
  8
DIM
 62
     0
370
    -2
100
AcDbLine
 10
46.79139839175171
 20
45.12309945905508
 30
0.0
 11
50.43387865810358
 21
45.12309945905508
 31
0.0
  0
MTEXT
  5
1B32
330
1731
100
AcDbEntity
  8
DIM
 62
     0
100
AcDbMText
 10
52.55887865810358
 20
45.12309945905508
 30
0.0
 40
0.75
 41
0.0
 71
     5
 72
     1
  1
\A1;30.091
 73
     1
 44
1.0
1001
ACAD
1000
MTEXTBEGIN
1070
    73
1070
     1
1070
    44
1040
1.0
1070
    74
1070
     0
1000
MTEXTEND
  0
POINT
  5
1B33
330
1731
100
AcDbEntity
  8
Defpoints
 62
     0
100
AcDbPoint
 10
46.41639839175171
 20
45.12309945905508
 30
0.0
  0
POINT
  5
1B34
330
1731
100
AcDbEntity
  8
Defpoints
 62
     0
100
AcDbPoint
 10
50.43387865810358
 20
45.12309945905508
 30
0.0
  0
POINT
  5
1B35
330
1731
100
AcDbEntity
  8
Defpoints
 62
     0
100
AcDbPoint
 10
34.14639968227742
 20
15.03214145427228
 30
0.0
  0
ENDBLK
  5
1738
330
1731
100
AcDbEntity
  8
0
100
AcDbBlockEnd
  0
BLOCK
  5
173F
330
1739
100
AcDbEntity
  8
0
100
AcDbBlockBegin
  2
*D78
 70
     1
 10
0.0
 20
0.0
 30
0.0
  3
*D78
  1

  0
LINE
  5
1B61
330
1739
100
AcDbEntity
  8
DIM
 62
     0
370
    -2
100
AcDbLine
 10
46.03039839175219
 20
43.34709945905501
 30
0.0
 11
46.03039839175219
 21
49.04276004893188
 31
0.0
  0
MTEXT
  5
1B62
330
1739
100
AcDbEntity
  8
DIM
 62
     0
100
AcDbMText
 10
46.03039839175218
 20
51.16776004893189
 30
0.0
 40
0.75
 41
0.0
 71
     5
 72
     1
  1
\A1;11.884
 11
0.0000000000000001
 21
1.0
 31
0.0
 73
     1
 44
1.0
1001
ACAD
1000
MTEXTBEGIN
1070
    73
1070
     1
1070
    44
1040
1.0
1070
    74
1070
     0
1000
MTEXTEND
  0
POINT
  5
1B63
330
1739
100
AcDbEntity
  8
Defpoints
 62
     0
100
AcDbPoint
 10
46.03039839175219
 20
42.97209945905501
 30
0.0
  0
POINT
  5
1B64
330
1739
100
AcDbEntity
  8
Defpoints
 62
     0
100
AcDbPoint
 10
46.03039839175219
 20
49.04276004893188
 30
0.0
  0
POINT
  5
1B65
330
1739
100
AcDbEntity
  8
Defpoints
 62
     0
100
AcDbPoint
 10
34.14639968227742
 20
15.03214145427228
 30
0.0
  0
ENDBLK
  5
1740
330
1739
100
AcDbEntity
  8
0
100
AcDbBlockEnd
  0
BLOCK
  5
1747
330
1741
100
AcDbEntity
  8
0
100
AcDbBlockBegin
  2
*D79
 70
     1
 10
0.0
 20
0.0
 30
0.0
  3
*D79
  1

  0
LINE
  5
1B5C
330
1741
100
AcDbEntity
  8
DIM
 62
     0
370
    -2
100
AcDbLine
 10
44.42414839175056
 20
44.71459945905474
 30
0.0
 11
44.42414839175056
 21
49.12393634738362
 31
0.0
  0
MTEXT
  5
1B5D
330
1741
100
AcDbEntity
  8
DIM
 62
     0
100
AcDbMText
 10
44.42414839175055
 20
51.31143634738362
 30
0.0
 40
0.75
 41
0.0
 71
     5
 72
     1
  1
\A1;10.278
 11
0.0000000000000001
 21
1.0
 31
0.0
 73
     1
 44
1.0
1001
ACAD
1000
MTEXTBEGIN
1070
    73
1070
     1
1070
    44
1040
1.0
1070
    74
1070
     0
1000
MTEXTEND
  0
POINT
  5
1B5E
330
1741
100
AcDbEntity
  8
Defpoints
 62
     0
100
AcDbPoint
 10
44.42414839175056
 20
44.33959945905473
 30
0.0
  0
POINT
  5
1B5F
330
1741
100
AcDbEntity
  8
Defpoints
 62
     0
100
AcDbPoint
 10
44.42414839175056
 20
49.12393634738362
 30
0.0
  0
POINT
  5
1B60
330
1741
100
AcDbEntity
  8
Defpoints
 62
     0
100
AcDbPoint
 10
34.14639968227742
 20
15.03214145427228
 30
0.0
  0
ENDBLK
  5
1748
330
1741
100
AcDbEntity
  8
0
100
AcDbBlockEnd
  0
BLOCK
  5
1751
330
1749
100
AcDbEntity
  8
0
100
AcDbBlockBegin
  2
*D80
 70
     1
 10
0.0
 20
0.0
 30
0.0
  3
*D80
  1

  0
LINE
  5
1B55
330
1749
100
AcDbEntity
  8
DIM
 62
     0
370
    -2
100
AcDbLine
 10
34.5303983917522
 20
43.34709945905501
 30
0.0
 11
34.5303983917522
 21
45.09146567202527
 31
0.0
  0
LINE
  5
1B56
330
1749
100
AcDbEntity
  8
DIM
 62
     0
370
    -2
100
AcDbLine
 10
34.5303983917522
 20
45.09146567202527
 30
0.0
 11
33.25468402517229
 21
47.09146567202526
 31
0.0
  0
LINE
  5
1B57
330
1749
100
AcDbEntity
  8
DIM
 62
     0
370
    -2
100
AcDbLine
 10
33.25468402517229
 20
47.09146567202526
 30
0.0
 11
33.2546840251723
 21
49.09146567202526
 31
0.0
  0
MTEXT
  5
1B58
330
1749
100
AcDbEntity
  8
DIM
 62
     0
100
AcDbMText
 10
33.25468402517228
 20
51.02896567202527
 30
0.0
 40
0.75
 41
0.0
 71
     5
 72
     1
  1
\A1;0.384
 11
0.0000000000000001
 21
1.0
 31
0.0
 73
     1
 44
1.0
1001
ACAD
1000
MTEXTBEGIN
1070
    73
1070
     1
1070
    44
1040
1.0
1070
    74
1070
     0
1000
MTEXTEND
  0
POINT
  5
1B59
330
1749
100
AcDbEntity
  8
Defpoints
 62
     0
100
AcDbPoint
 10
34.5303983917522
 20
42.97209945905501
 30
0.0
  0
POINT
  5
1B5A
330
1749
100
AcDbEntity
  8
Defpoints
 62
     0
100
AcDbPoint
 10
33.2546840251723
 20
49.09146567202526
 30
0.0
  0
POINT
  5
1B5B
330
1749
100
AcDbEntity
  8
Defpoints
 62
     0
100
AcDbPoint
 10
34.14639968227742
 20
15.03214145427228
 30
0.0
  0
ENDBLK
  5
1752
330
1749
100
AcDbEntity
  8
0
100
AcDbBlockEnd
  0
BLOCK
  5
175B
330
1753
100
AcDbEntity
  8
0
100
AcDbBlockBegin
  2
*D81
 70
     1
 10
0.0
 20
0.0
 30
0.0
  3
*D81
  1

  0
LINE
  5
1B4E
330
1753
100
AcDbEntity
  8
DIM
 62
     0
370
    -2
100
AcDbLine
 10
41.58664839175183
 20
44.71459945905474
 30
0.0
 11
41.58664839175183
 21
46.33959945905473
 31
0.0
  0
LINE
  5
1B4F
330
1753
100
AcDbEntity
  8
DIM
 62
     0
370
    -2
100
AcDbLine
 10
41.58664839175183
 20
46.33959945905473
 30
0.0
 11
42.35624401279731
 21
47.12393634738361
 31
0.0
  0
LINE
  5
1B50
330
1753
100
AcDbEntity
  8
DIM
 62
     0
370
    -2
100
AcDbLine
 10
42.35624401279731
 20
47.12393634738361
 30
0.0
 11
42.35624401279731
 21
49.12393634738362
 31
0.0
  0
MTEXT
  5
1B51
330
1753
100
AcDbEntity
  8
DIM
 62
     0
100
AcDbMText
 10
42.3562440127973
 20
51.06143634738362
 30
0.0
 40
0.75
 41
0.0
 71
     5
 72
     1
  1
\A1;7.440
 11
0.0000000000000001
 21
1.0
 31
0.0
 73
     1
 44
1.0
1001
ACAD
1000
MTEXTBEGIN
1070
    73
1070
     1
1070
    44
1040
1.0
1070
    74
1070
     0
1000
MTEXTEND
  0
POINT
  5
1B52
330
1753
100
AcDbEntity
  8
Defpoints
 62
     0
100
AcDbPoint
 10
41.58664839175183
 20
44.33959945905473
 30
0.0
  0
POINT
  5
1B53
330
1753
100
AcDbEntity
  8
Defpoints
 62
     0
100
AcDbPoint
 10
42.35624401279731
 20
49.12393634738362
 30
0.0
  0
POINT
  5
1B54
330
1753
100
AcDbEntity
  8
Defpoints
 62
     0
100
AcDbPoint
 10
34.14639968227742
 20
15.03214145427228
 30
0.0
  0
ENDBLK
  5
175C
330
1753
100
AcDbEntity
  8
0
100
AcDbBlockEnd
  0
BLOCK
  5
1763
330
175D
100
AcDbEntity
  8
0
100
AcDbBlockBegin
  2
*D82
 70
     1
 10
0.0
 20
0.0
 30
0.0
  3
*D82
  1

  0
LINE
  5
1B49
330
175D
100
AcDbEntity
  8
DIM
 62
     0
370
    -2
100
AcDbLine
 10
40.80564839175188
 20
45.15609945905509
 30
0.0
 11
40.80564839175188
 21
49.12393634738362
 31
0.0
  0
MTEXT
  5
1B4A
330
175D
100
AcDbEntity
  8
DIM
 62
     0
100
AcDbMText
 10
40.80564839175187
 20
51.12393634738363
 30
0.0
 40
0.75
 41
0.0
 71
     5
 72
     1
  1
\A1;6.659
 11
0.0000000000000001
 21
1.0
 31
0.0
 73
     1
 44
1.0
1001
ACAD
1000
MTEXTBEGIN
1070
    73
1070
     1
1070
    44
1040
1.0
1070
    74
1070
     0
1000
MTEXTEND
  0
POINT
  5
1B4B
330
175D
100
AcDbEntity
  8
Defpoints
 62
     0
100
AcDbPoint
 10
40.80564839175188
 20
44.7810994590551
 30
0.0
  0
POINT
  5
1B4C
330
175D
100
AcDbEntity
  8
Defpoints
 62
     0
100
AcDbPoint
 10
40.80564839175188
 20
49.12393634738362
 30
0.0
  0
POINT
  5
1B4D
330
175D
100
AcDbEntity
  8
Defpoints
 62
     0
100
AcDbPoint
 10
34.14639968227742
 20
15.03214145427228
 30
0.0
  0
ENDBLK
  5
1764
330
175D
100
AcDbEntity
  8
0
100
AcDbBlockEnd
  0
BLOCK
  5
176B
330
1765
100
AcDbEntity
  8
0
100
AcDbBlockBegin
  2
*D83
 70
     1
 10
0.0
 20
0.0
 30
0.0
  3
*D83
  1

  0
LINE
  5
1B44
330
1765
100
AcDbEntity
  8
DIM
 62
     0
370
    -2
100
AcDbLine
 10
34.74314839175189
 20
45.15609945905487
 30
0.0
 11
34.74314839175189
 21
49.12393634738362
 31
0.0
  0
MTEXT
  5
1B45
330
1765
100
AcDbEntity
  8
DIM
 62
     0
100
AcDbMText
 10
34.74314839175188
 20
51.06143634738362
 30
0.0
 40
0.75
 41
0.0
 71
     5
 72
     1
  1
\A1;0.597
 11
0.0000000000000001
 21
1.0
 31
0.0
 73
     1
 44
1.0
1001
ACAD
1000
MTEXTBEGIN
1070
    73
1070
     1
1070
    44
1040
1.0
1070
    74
1070
     0
1000
MTEXTEND
  0
POINT
  5
1B46
330
1765
100
AcDbEntity
  8
Defpoints
 62
     0
100
AcDbPoint
 10
34.74314839175189
 20
44.78109945905487
 30
0.0
  0
POINT
  5
1B47
330
1765
100
AcDbEntity
  8
Defpoints
 62
     0
100
AcDbPoint
 10
34.74314839175189
 20
49.12393634738362
 30
0.0
  0
POINT
  5
1B48
330
1765
100
AcDbEntity
  8
Defpoints
 62
     0
100
AcDbPoint
 10
34.14639968227742
 20
15.03214145427228
 30
0.0
  0
ENDBLK
  5
176C
330
1765
100
AcDbEntity
  8
0
100
AcDbBlockEnd
  0
BLOCK
  5
1773
330
176D
100
AcDbEntity
  8
0
100
AcDbBlockBegin
  2
*D84
 70
     1
 10
0.0
 20
0.0
 30
0.0
  3
*D84
  1

  0
LINE
  5
1B12
330
176D
100
AcDbEntity
  8
DIM
 62
     0
370
    -2
100
AcDbLine
 10
34.36814839175189
 20
44.78109945905487
 30
0.0
 11
32.14242821419542
 21
44.78109945905487
 31
0.0
  0
MTEXT
  5
1B13
330
176D
100
AcDbEntity
  8
DIM
 62
     0
100
AcDbMText
 10
29.82992821419542
 20
44.78109945905487
 30
0.0
 40
0.75
 41
0.0
 71
     5
 72
     1
  1
\A1;29.750
 73
     1
 44
1.0
1001
ACAD
1000
MTEXTBEGIN
1070
    73
1070
     1
1070
    44
1040
1.0
1070
    74
1070
     0
1000
MTEXTEND
  0
POINT
  5
1B14
330
176D
100
AcDbEntity
  8
Defpoints
 62
     0
100
AcDbPoint
 10
34.74314839175189
 20
44.78109945905487
 30
0.0
  0
POINT
  5
1B15
330
176D
100
AcDbEntity
  8
Defpoints
 62
     0
100
AcDbPoint
 10
32.14242821419542
 20
44.78109945905487
 30
0.0
  0
POINT
  5
1B16
330
176D
100
AcDbEntity
  8
Defpoints
 62
     0
100
AcDbPoint
 10
34.14639968227742
 20
15.03214145427228
 30
0.0
  0
ENDBLK
  5
1774
330
176D
100
AcDbEntity
  8
0
100
AcDbBlockEnd
  0
BLOCK
  5
177B
330
1775
100
AcDbEntity
  8
0
100
AcDbBlockBegin
  2
*D85
 70
     1
 10
0.0
 20
0.0
 30
0.0
  3
*D85
  1

  0
LINE
  5
1B0D
330
1775
100
AcDbEntity
  8
DIM
 62
     0
370
    -2
100
AcDbLine
 10
34.1553983917522
 20
42.97209945905501
 30
0.0
 11
32.14242821419542
 21
42.97209945905501
 31
0.0
  0
MTEXT
  5
1B0E
330
1775
100
AcDbEntity
  8
DIM
 62
     0
100
AcDbMText
 10
29.82992821419542
 20
42.97209945905501
 30
0.0
 40
0.75
 41
0.0
 71
     5
 72
     1
  1
\A1;27.940
 73
     1
 44
1.0
1001
ACAD
1000
MTEXTBEGIN
1070
    73
1070
     1
1070
    44
1040
1.0
1070
    74
1070
     0
1000
MTEXTEND
  0
POINT
  5
1B0F
330
1775
100
AcDbEntity
  8
Defpoints
 62
     0
100
AcDbPoint
 10
34.5303983917522
 20
42.97209945905501
 30
0.0
  0
POINT
  5
1B10
330
1775
100
AcDbEntity
  8
Defpoints
 62
     0
100
AcDbPoint
 10
32.14242821419542
 20
42.97209945905501
 30
0.0
  0
POINT
  5
1B11
330
1775
100
AcDbEntity
  8
Defpoints
 62
     0
100
AcDbPoint
 10
34.14639968227742
 20
15.03214145427228
 30
0.0
  0
ENDBLK
  5
177C
330
1775
100
AcDbEntity
  8
0
100
AcDbBlockEnd
  0
BLOCK
  5
1785
330
177D
100
AcDbEntity
  8
0
100
AcDbBlockBegin
  2
*D86
 70
     1
 10
0.0
 20
0.0
 30
0.0
  3
*D86
  1

  0
LINE
  5
1B06
330
177D
100
AcDbEntity
  8
DIM
 62
     0
370
    -2
100
AcDbLine
 10
39.97539839175191
 20
33.79209945905484
 30
0.0
 11
35.25770216471504
 21
33.79209945905484
 31
0.0
  0
LINE
  5
1B07
330
177D
100
AcDbEntity
  8
DIM
 62
     0
370
    -2
100
AcDbLine
 10
35.25770216471504
 20
33.79209945905484
 30
0.0
 11
33.25770216471504
 21
32.57989809812182
 31
0.0
  0
LINE
  5
1B08
330
177D
100
AcDbEntity
  8
DIM
 62
     0
370
    -2
100
AcDbLine
 10
33.25770216471504
 20
32.57989809812182
 30
0.0
 11
31.25770216471504
 21
32.57989809812182
 31
0.0
  0
MTEXT
  5
1B09
330
177D
100
AcDbEntity
  8
DIM
 62
     0
100
AcDbMText
 10
29.07020216471504
 20
32.57989809812182
 30
0.0
 40
0.75
 41
0.0
 71
     5
 72
     1
  1
\A1;18.760
 73
     1
 44
1.0
1001
ACAD
1000
MTEXTBEGIN
1070
    73
1070
     1
1070
    44
1040
1.0
1070
    74
1070
     0
1000
MTEXTEND
  0
POINT
  5
1B0A
330
177D
100
AcDbEntity
  8
Defpoints
 62
     0
100
AcDbPoint
 10
40.3503983917519
 20
33.79209945905484
 30
0.0
  0
POINT
  5
1B0B
330
177D
100
AcDbEntity
  8
Defpoints
 62
     0
100
AcDbPoint
 10
31.25770216471504
 20
32.57989809812182
 30
0.0
  0
POINT
  5
1B0C
330
177D
100
AcDbEntity
  8
Defpoints
 62
     0
100
AcDbPoint
 10
34.14639968227742
 20
15.03214145427228
 30
0.0
  0
ENDBLK
  5
1786
330
177D
100
AcDbEntity
  8
0
100
AcDbBlockEnd
  0
BLOCK
  5
178F
330
1787
100
AcDbEntity
  8
0
100
AcDbBlockBegin
  2
*D87
 70
     1
 10
0.0
 20
0.0
 30
0.0
  3
*D87
  1

  0
LINE
  5
1AFF
330
1787
100
AcDbEntity
  8
DIM
 62
     0
370
    -2
100
AcDbLine
 10
36.1553983917522
 20
29.97209945905502
 30
0.0
 11
34.5303983917522
 21
29.97209945905502
 31
0.0
  0
LINE
  5
1B00
330
1787
100
AcDbEntity
  8
DIM
 62
     0
370
    -2
100
AcDbLine
 10
34.5303983917522
 20
29.97209945905502
 30
0.0
 11
32.69520216471504
 21
28.5369025706683
 31
0.0
  0
LINE
  5
1B01
330
1787
100
AcDbEntity
  8
DIM
 62
     0
370
    -2
100
AcDbLine
 10
32.69520216471504
 20
28.5369025706683
 30
0.0
 11
30.69520216471504
 21
28.5369025706683
 31
0.0
  0
MTEXT
  5
1B02
330
1787
100
AcDbEntity
  8
DIM
 62
     0
100
AcDbMText
 10
28.50770216471504
 20
28.5369025706683
 30
0.0
 40
0.75
 41
0.0
 71
     5
 72
     1
  1
\A1;14.940
 73
     1
 44
1.0
1001
ACAD
1000
MTEXTBEGIN
1070
    73
1070
     1
1070
    44
1040
1.0
1070
    74
1070
     0
1000
MTEXTEND
  0
POINT
  5
1B03
330
1787
100
AcDbEntity
  8
Defpoints
 62
     0
100
AcDbPoint
 10
36.5303983917522
 20
29.97209945905502
 30
0.0
  0
POINT
  5
1B04
330
1787
100
AcDbEntity
  8
Defpoints
 62
     0
100
AcDbPoint
 10
30.69520216471504
 20
28.5369025706683
 30
0.0
  0
POINT
  5
1B05
330
1787
100
AcDbEntity
  8
Defpoints
 62
     0
100
AcDbPoint
 10
34.14639968227742
 20
15.03214145427228
 30
0.0
  0
ENDBLK
  5
1790
330
1787
100
AcDbEntity
  8
0
100
AcDbBlockEnd
  0
ENDSEC
  0
SECTION
  2
ENTITIES
  0
LINE
  5
9F9
330
1F
100
AcDbEntity
  8
THERMOSTATCVR
100
AcDbLine
 10
45.18158829413887
 20
0.6166510784650116
 30
0.0
 11
45.18158829413887
 21
-1.314486119888677
 31
0.0
  0
LINE
  5
9FA
330
1F
100
AcDbEntity
  8
THERMOSTATCVR
100
AcDbLine
 10
51.46921359704425
 20
0.6166510784650116
 30
0.0
 11
45.18158829413887
 21
0.6166510784650116
 31
0.0
  0
LINE
  5
9FB
330
1F
100
AcDbEntity
  8
BORDER
100
AcDbLine
 10
51.46921359704425
 20
-1.314486119888677
 30
0.0
 11
51.46921359704425
 21
0.404263880111323
 31
0.0
  0
LINE
  5
9FC
330
1F
100
AcDbEntity
  8
BORDER
100
AcDbLine
 10
51.46921359704425
 20
-1.314486119888677
 30
0.0
 11
45.1222205571714
 21
-1.314486119888677
 31
0.0
  0
TEXT
  5
9FD
330
1F
100
AcDbEntity
  8
TEXT
100
AcDbText
 10
45.43113374377447
 20
-0.0644861198886772
 30
0.0
 40
0.3125
  1
PROPRIETARY DRAWING
 72
     1
 11
48.2957170771078
 21
0.0917638801113228
 31
0.0
100
AcDbText
 73
     2
  0
TEXT
  5
9FE
330
1F
100
AcDbEntity
  8
TEXT
100
AcDbText
 10
45.66550874377454
 20
-0.3769861198886772
 30
0.0
 40
0.15625
  1
THIS DRAWING IS THE PROPERTY OF ICE
 72
     1
 11
48.29571707710787
 21
-0.2988611198886772
 31
0.0
100
AcDbText
 73
     2
  0
TEXT
  5
9FF
330
1F
100
AcDbEntity
  8
TEXT
100
AcDbText
 10
45.52227957710786
 20
-0.6113611198886773
 30
0.0
 40
0.15625
  1
QUBE, INC. AND IS NOT TO BE DUPLICATED
 72
     1
 11
48.29571707710787
 21
-0.5332361198886773
 31
0.0
100
AcDbText
 73
     2
  0
TEXT
  5
A00
330
1F
100
AcDbEntity
  8
TEXT
100
AcDbText
 10
45.63946707710786
 20
-0.8457361198886772
 30
0.0
 40
0.15625
  1
OR ALTERED WITHOUT AUTHORIZATION OF
 72
     1
 11
48.29571707710787
 21
-0.7676111198886773
 31
0.0
100
AcDbText
 73
     2
  0
TEXT
  5
A01
330
1F
100
AcDbEntity
  8
TEXT
100
AcDbText
 10
47.3712379104412
 20
-1.080111119888677
 30
0.0
 40
0.15625
  1
ICE QUBE, INC.
 72
     1
 11
48.29571707710787
 21
-1.001986119888677
 31
0.0
100
AcDbText
 73
     2
  0
LWPOLYLINE
  5
A02
330
1F
100
AcDbEntity
  8
BORDER
100
AcDbPolyline
 90
        4
 70
     1
 43
0.0
 10
16.43619012582621
 20
61.18551388011137
 10
63.93446841127389
 20
61.18551388011137
 10
63.93446841127389
 20
-1.314486119888672
 10
16.43619012582621
 20
-1.314486119888672
  0
TEXT
  5
A03
330
1F
100
AcDbEntity
  8
TEXT
100
AcDbText
 10
21.71639845915969
 20
-1.18948611988874
 30
0.0
 40
0.25
  1
REVISIONS
 72
     1
 11
22.75806512582636
 21
-1.06448611988874
 31
0.0
100
AcDbText
 73
     2
  0
LINE
  5
A04
330
1F
100
AcDbEntity
  8
DIMENSION
100
AcDbLine
 10
51.46921359704425
 20
0.6166510784650116
 30
0.0
 11
51.46921359704425
 21
-1.314486119888677
 31
0.0
  0
ARC
  5
A05
330
1F
100
AcDbEntity
  8
TEXT
100
AcDbCircle
 10
57.126967011231
 20
1.276020090544754
 30
0.0
 40
0.0192770428186735
100
AcDbArc
 50
177.2189023070875
 51
10.53261226457853
  0
ARC
  5
A06
330
1F
100
AcDbEntity
  8
TEXT
100
AcDbCircle
 10
57.094014935192
 20
1.47093259910612
 30
0.0
 40
0.0237893523154895
100
AcDbArc
 50
218.2556843178653
 51
317.6564247238852
  0
ARC
  5
A07
330
1F
100
AcDbEntity
  8
TEXT
100
AcDbCircle
 10
57.12444193044483
 20
1.445506826189505
 30
0.0
 40
0.0159172569840616
100
AcDbArc
 50
48.87596376793558
 51
143.7953529790059
  0
ARC
  5
A08
330
1F
100
AcDbEntity
  8
TEXT
100
AcDbCircle
 10
57.146725558725
 20
1.460427993976374
 30
0.0
 40
0.0121730875667031
100
AcDbArc
 50
193.9319034609793
 51
333.0378283509304
  0
ARC
  5
A09
330
1F
100
AcDbEntity
  8
TEXT
100
AcDbCircle
 10
57.18603468383239
 20
1.436013570522369
 30
0.0
 40
0.0282821218467122
100
AcDbArc
 50
222.9877626572331
 51
344.3358851615581
  0
ARC
  5
A0A
330
1F
100
AcDbEntity
  8
TEXT
100
AcDbCircle
 10
57.15675917128621
 20
1.411164910545871
 30
0.0
 40
0.0102325645886126
100
AcDbArc
 50
32.94435831946174
 51
185.0814072168598
  0
LINE
  5
A0B
330
1F
100
AcDbEntity
  8
TEXT
100
AcDbLine
 10
57.14591925556764
 20
1.27954384059732
 30
0.0
 11
57.14656682211276
 21
1.410258601335009
 31
0.0
  0
LINE
  5
A0C
330
1F
100
AcDbEntity
  8
TEXT
100
AcDbLine
 10
57.10317968104025
 20
1.405728884200434
 30
0.0
 11
57.1077126729347
 21
1.276955417549316
 31
0.0
  0
ARC
  5
A0D
330
1F
100
AcDbEntity
  8
TEXT
100
AcDbCircle
 10
57.09179224380829
 20
1.413081537031195
 30
0.0
 40
0.0135548969144405
100
AcDbArc
 50
327.1504341221703
 51
80.13862259361699
  0
LINE
  5
A0E
330
1F
100
AcDbEntity
  8
TEXT
100
AcDbLine
 10
57.0635467881707
 20
1.431105337836745
 30
0.0
 11
57.09411372333028
 21
1.426436160320128
 31
0.0
  0
ARC
  5
A0F
330
1F
100
AcDbEntity
  8
TEXT
100
AcDbCircle
 10
57.05980554766529
 20
1.424619485675058
 30
0.0
 40
0.0074875335580206
100
AcDbArc
 50
60.02231951668116
 51
227.1694577924197
  0
LINE
  5
A10
330
1F
100
AcDbEntity
  8
TEXT
100
AcDbLine
 10
57.05742386667257
 20
1.352947668966514
 30
0.0
 11
57.05471528027093
 21
1.419128371340383
 31
0.0
  0
ARC
  5
A11
330
1F
100
AcDbEntity
  8
TEXT
100
AcDbCircle
 10
57.04095065894467
 20
1.345825962926689
 30
0.0
 40
0.0179467342367279
100
AcDbArc
 50
165.6416373020919
 51
23.37981978602106
  0
LINE
  5
A12
330
1F
100
AcDbEntity
  8
TEXT
100
AcDbLine
 10
57.01465417095143
 20
1.424179181875435
 30
0.0
 11
57.02356451553374
 21
1.350276500765495
 31
0.0
  0
ARC
  5
A13
330
1F
100
AcDbEntity
  8
TEXT
100
AcDbCircle
 10
56.99611246482394
 20
1.421747291177004
 30
0.0
 40
0.0187005069045984
100
AcDbArc
 50
7.472141028409517
 51
164.1640293291675
  0
LINE
  5
A14
330
1F
100
AcDbEntity
  8
TEXT
100
AcDbLine
 10
56.97901274046447
 20
1.413494462672311
 30
0.0
 11
56.97812170079052
 21
1.426850365542831
 31
0.0
  0
ARC
  5
A15
330
1F
100
AcDbEntity
  8
TEXT
100
AcDbCircle
 10
56.96578957375879
 20
1.415464018976114
 30
0.0
 40
0.0133690422155094
100
AcDbArc
 50
208.7068196476631
 51
351.5282258973499
  0
LINE
  5
A16
330
1F
100
AcDbEntity
  8
TEXT
100
AcDbLine
 10
56.94604442899962
 20
1.427740765254055
 30
0.0
 11
56.95406373390781
 21
1.409042495048758
 31
0.0
  0
LINE
  5
A17
330
1F
100
AcDbEntity
  8
TEXT
100
AcDbLine
 10
56.95317269423389
 20
1.355618852633874
 30
0.0
 11
56.94604442899962
 21
1.427740765254055
 31
0.0
  0
ARC
  5
A18
330
1F
100
AcDbEntity
  8
TEXT
100
AcDbCircle
 10
56.93531520324274
 20
1.354773957216202
 30
0.0
 40
0.0178774671797511
100
AcDbArc
 50
185.8633287467241
 51
2.708827809510318
  0
LINE
  5
A19
330
1F
100
AcDbEntity
  8
TEXT
100
AcDbLine
 10
56.91396713112986
 20
1.440206268413319
 30
0.0
 11
56.91753126374695
 21
1.352947668966514
 31
0.0
  0
ARC
  5
A1A
330
1F
100
AcDbEntity
  8
TEXT
100
AcDbCircle
 10
56.89970409284703
 20
1.441472811147193
 30
0.0
 40
0.0143191616917265
100
AcDbArc
 50
354.9255052590734
 51
174.3705062402905
  0
LINE
  5
A1B
330
1F
100
AcDbEntity
  8
TEXT
100
AcDbLine
 10
56.88545399195607
 20
1.411713663249754
 30
0.0
 11
56.88545399195607
 21
1.442877452080749
 31
0.0
  0
ARC
  5
A1C
330
1F
100
AcDbEntity
  8
TEXT
100
AcDbCircle
 10
56.87501828029891
 20
1.407740498155369
 30
0.0
 40
0.0111664729730421
100
AcDbArc
 50
168.6772178130464
 51
20.84321825743643
  0
LINE
  5
A1D
330
1F
100
AcDbEntity
  8
TEXT
100
AcDbLine
 10
56.85515877343423
 20
1.45623337041762
 30
0.0
 11
56.86406914409548
 21
1.40993287929362
 31
0.0
  0
LINE
  5
A1E
330
1F
100
AcDbEntity
  8
TEXT
100
AcDbLine
 10
56.80971595869113
 20
1.428631149498931
 30
0.0
 11
56.80793387934301
 21
1.461575722286061
 31
0.0
  0
ARC
  5
A1F
330
1F
100
AcDbEntity
  8
TEXT
100
AcDbCircle
 10
56.78893653687215
 20
1.420588886285876
 30
0.0
 40
0.0222814355173959
100
AcDbArc
 50
170.7272794785988
 51
21.1579410394864
  0
ARC
  5
A20
330
1F
100
AcDbEntity
  8
TEXT
100
AcDbCircle
 10
56.69936522416385
 20
1.398009725440066
 30
0.0
 40
0.0183790483469612
100
AcDbArc
 50
167.7181143692787
 51
23.98551077365516
  0
ARC
  5
A21
330
1F
100
AcDbEntity
  8
TEXT
100
AcDbCircle
 10
56.45463482062016
 20
1.460875057048248
 30
0.0
 40
0.0211999344698838
100
AcDbArc
 50
225.9317407160004
 51
327.3216812937225
  0
ARC
  5
A22
330
1F
100
AcDbEntity
  8
TEXT
100
AcDbCircle
 10
56.75546775166054
 20
2.767852582623623
 30
0.0
 40
0.0135055962967152
100
AcDbArc
 50
305.0065695458968
 51
188.3798152009864
  0
ARC
  5
A23
330
1F
100
AcDbEntity
  8
TEXT
100
AcDbCircle
 10
56.72724072803639
 20
2.764521342450938
 30
0.0
 40
0.0149279721050864
100
AcDbArc
 50
183.0745908828774
 51
5.23872674582437
  0
ARC
  5
A24
330
1F
100
AcDbEntity
  8
TEXT
100
AcDbCircle
 10
56.69864983317046
 20
2.760476119844121
 30
0.0
 40
0.0140637895856828
100
AcDbArc
 50
13.33841226381443
 51
197.9246330182949
  0
ARC
  5
A25
330
1F
100
AcDbEntity
  8
TEXT
100
AcDbCircle
 10
56.67809461760149
 20
2.772168683260055
 30
0.0
 40
0.0175538244621736
100
AcDbArc
 50
191.7667831442131
 51
294.1224948725134
  0
ARC
  5
A26
330
1F
100
AcDbEntity
  8
TEXT
100
AcDbCircle
 10
56.64458319759495
 20
2.747864721999313
 30
0.0
 40
0.026382716840622
100
AcDbArc
 50
51.76909225769957
 51
154.0890012254434
  0
ARC
  5
A27
330
1F
100
AcDbEntity
  8
TEXT
100
AcDbCircle
 10
56.60468729234548
 20
2.765820204409074
 30
0.0
 40
0.0173960732958633
100
AcDbArc
 50
179.7887253899368
 51
338.3185482084487
  0
ARC
  5
A28
330
1F
100
AcDbEntity
  8
TEXT
100
AcDbCircle
 10
56.57592139096831
 20
2.769973845562056
 30
0.0
 40
0.0120830312488348
100
AcDbArc
 50
340.2175703033617
 51
119.5111127021386
  0
ARC
  5
A29
330
1F
100
AcDbEntity
  8
TEXT
100
AcDbCircle
 10
56.55981010362413
 20
2.77743064934787
 30
0.0
 40
0.0106097046542174
100
AcDbArc
 50
208.4553291170971
 51
16.75507449313859
  0
ARC
  5
A2A
330
1F
100
AcDbEntity
  8
TEXT
100
AcDbCircle
 10
56.53888661478538
 20
2.77083490078157
 30
0.0
 40
0.0116974376118937
100
AcDbArc
 50
7.567610287757204
 51
183.0538693842452
  0
ARC
  5
A2B
330
1F
100
AcDbEntity
  8
TEXT
100
AcDbCircle
 10
56.51255979772006
 20
2.768616193298568
 30
0.0
 40
0.0147326429050978
100
AcDbArc
 50
151.610876507044
 51
6.21726120177066
  0
ARC
  5
A2C
330
1F
100
AcDbEntity
  8
TEXT
100
AcDbCircle
 10
56.48812595710555
 20
2.774955379291874
 30
0.0
 40
0.0114922508353156
100
AcDbArc
 50
3.320051391017488
 51
168.5145862198272
  0
ARC
  5
A2D
330
1F
100
AcDbEntity
  8
TEXT
100
AcDbCircle
 10
56.46275025509375
 20
2.771803354086939
 30
0.0
 40
0.0151258206016299
100
AcDbArc
 50
181.9314217622489
 51
21.08009584438978
  0
ARC
  5
A2E
330
1F
100
AcDbEntity
  8
TEXT
100
AcDbCircle
 10
56.43047691444484
 20
2.760179328915249
 30
0.0
 40
0.0204415862877363
100
AcDbArc
 50
32.93635467158787
 51
189.5430854165201
  0
ARC
  5
A2F
330
1F
100
AcDbEntity
  8
TEXT
100
AcDbCircle
 10
57.80089466519019
 20
1.690323942467875
 30
0.0
 40
0.138801672189514
100
AcDbArc
 50
312.2086974257856
 51
3.264333629957681
  0
ARC
  5
A30
330
1F
100
AcDbEntity
  8
TEXT
100
AcDbCircle
 10
57.77944236007844
 20
1.730982508159683
 30
0.0
 40
0.1836856613538935
100
AcDbArc
 50
264.6664639047648
 51
308.6423664458139
  0
ARC
  5
A31
330
1F
100
AcDbEntity
  8
TEXT
100
AcDbCircle
 10
57.76328587430374
 20
1.703935203394628
 30
0.0
 40
0.1558457845586532
100
AcDbArc
 50
231.6935697703411
 51
269.6626044169122
  0
ARC
  5
A32
330
1F
100
AcDbEntity
  8
TEXT
100
AcDbCircle
 10
57.79202011355284
 20
1.67470473588731
 30
0.0
 40
0.088960611637759
100
AcDbArc
 50
343.5952529167622
 51
35.13836089167874
  0
ARC
  5
A33
330
1F
100
AcDbEntity
  8
TEXT
100
AcDbCircle
 10
57.79767607781469
 20
1.699365001323761
 30
0.0
 40
0.0721518704931053
100
AcDbArc
 50
21.58325850317298
 51
95.38396011116695
  0
ARC
  5
A34
330
1F
100
AcDbEntity
  8
TEXT
100
AcDbCircle
 10
57.77894554376732
 20
1.710399372943292
 30
0.0
 40
0.0619644708011938
100
AcDbArc
 50
78.87075864991586
 51
146.7670066549805
  0
ARC
  5
A35
330
1F
100
AcDbEntity
  8
TEXT
100
AcDbCircle
 10
57.82521514027394
 20
1.698487189343609
 30
0.0
 40
0.1142562801072371
100
AcDbArc
 50
359.8698564192901
 51
62.37231490188353
  0
ARC
  5
A36
330
1F
100
AcDbEntity
  8
TEXT
100
AcDbCircle
 10
57.82509468984507
 20
1.644789763492298
 30
0.0
 40
0.1637746448834882
100
AcDbArc
 50
71.07988584761978
 51
127.1124618564865
  0
LINE
  5
A37
330
1F
100
AcDbEntity
  8
TEXT
100
AcDbLine
 10
57.72711543252217
 20
1.744358689926831
 30
0.0
 11
57.72795478370631
 21
1.600094371727998
 31
0.0
  0
LINE
  5
A38
330
1F
100
AcDbEntity
  8
TEXT
100
AcDbLine
 10
57.62555401747906
 20
1.888623008125698
 30
0.0
 11
57.66080674113374
 21
1.8861067666905
 31
0.0
  0
LINE
  5
A39
330
1F
100
AcDbEntity
  8
TEXT
100
AcDbLine
 10
57.6238753151108
 20
1.907075409228866
 30
0.0
 11
57.62555401747906
 21
1.888623008125698
 31
0.0
  0
ARC
  5
A3A
330
1F
100
AcDbEntity
  8
TEXT
100
AcDbCircle
 10
57.60041272210916
 20
2.286301695014123
 30
0.0
 40
0.3799514036042447
100
AcDbArc
 50
273.5403564160214
 51
289.075801678542
  0
LINE
  5
A3B
330
1F
100
AcDbEntity
  8
TEXT
100
AcDbLine
 10
57.72458797618901
 20
1.927214553257293
 30
0.0
 11
57.72627610741704
 21
1.775392298205936
 31
0.0
  0
LINE
  5
A3C
330
1F
100
AcDbEntity
  8
TEXT
100
AcDbLine
 10
57.66080674113374
 20
1.8861067666905
 30
0.0
 11
57.66668219942268
 21
1.581641955158444
 31
0.0
  0
ARC
  5
A3D
330
1F
100
AcDbEntity
  8
TEXT
100
AcDbCircle
 10
57.60411954959412
 20
1.374459267459805
 30
0.0
 40
0.1973247184719365
100
AcDbArc
 50
88.18956599987521
 51
113.1652090520224
  0
ARC
  5
A3E
330
1F
100
AcDbEntity
  8
TEXT
100
AcDbCircle
 10
57.51686327556277
 20
1.558806866736935
 30
0.0
 40
0.0100684028850535
100
AcDbArc
 50
201.7006027724343
 51
343.0678677067634
  0
LINE
  5
A3F
330
1F
100
AcDbEntity
  8
TEXT
100
AcDbLine
 10
57.50671730246884
 20
1.585124783711115
 30
0.0
 11
57.50750843366418
 21
1.55508400900276
 31
0.0
  0
ARC
  5
A40
330
1F
100
AcDbEntity
  8
TEXT
100
AcDbCircle
 10
57.41128712963362
 20
1.687220107295068
 30
0.0
 40
0.139751110854478
100
AcDbArc
 50
260.0995263030863
 51
313.0673878832468
  0
ARC
  5
A41
330
1F
100
AcDbEntity
  8
TEXT
100
AcDbCircle
 10
57.38722519232712
 20
1.610437976526363
 30
0.0
 40
0.0608878024473341
100
AcDbArc
 50
180.7587023263156
 51
270.031539090741
  0
ARC
  5
A42
330
1F
100
AcDbEntity
  8
TEXT
100
AcDbCircle
 10
57.49462017841413
 20
1.766961183716991
 30
0.0
 40
0.0122648247632313
100
AcDbArc
 50
337.1943218370272
 51
115.6412778855142
  0
LINE
  5
A43
330
1F
100
AcDbEntity
  8
TEXT
100
AcDbLine
 10
57.50671730246884
 20
1.611212830196428
 30
0.0
 11
57.50592619735247
 21
1.762207252476506
 31
0.0
  0
LINE
  5
A44
330
1F
100
AcDbEntity
  8
TEXT
100
AcDbLine
 10
57.460832553745
 20
1.779599278311201
 30
0.0
 11
57.489312755198
 21
1.778018180835374
 31
0.0
  0
LINE
  5
A45
330
1F
100
AcDbEntity
  8
TEXT
100
AcDbLine
 10
57.4616236588614
 20
1.794619673398563
 30
0.0
 11
57.460832553745
 21
1.779599278311201
 31
0.0
  0
LINE
  5
A46
330
1F
100
AcDbEntity
  8
TEXT
100
AcDbLine
 10
57.30102699920966
 20
1.781180375787009
 30
0.0
 11
57.28441355705505
 21
1.783552006534313
 31
0.0
  0
LINE
  5
A47
330
1F
100
AcDbEntity
  8
TEXT
100
AcDbLine
 10
57.28362245193871
 20
1.794619673398563
 30
0.0
 11
57.28441355705505
 21
1.783552006534313
 31
0.0
  0
ARC
  5
A48
330
1F
100
AcDbEntity
  8
TEXT
100
AcDbCircle
 10
57.30625482683199
 20
1.763423389088563
 30
0.0
 40
0.0185105580212536
100
AcDbArc
 50
358.6825606331185
 51
106.4049357729542
  0
LINE
  5
A49
330
1F
100
AcDbEntity
  8
TEXT
100
AcDbLine
 10
57.56288657417932
 20
1.798572401621745
 30
0.0
 11
57.56446881049111
 21
1.619118286642679
 31
0.0
  0
LINE
  5
A4A
330
1F
100
AcDbEntity
  8
TEXT
100
AcDbLine
 10
57.38488536725657
 20
1.798572401621745
 30
0.0
 11
57.38646760356832
 21
1.624652112341685
 31
0.0
  0
LINE
  5
A4B
330
1F
100
AcDbEntity
  8
TEXT
100
AcDbLine
 10
57.32476049172738
 20
1.762997801214375
 30
0.0
 11
57.32634272803912
 21
1.609631732720636
 31
0.0
  0
LINE
  5
A4C
330
1F
100
AcDbEntity
  8
TEXT
100
AcDbLine
 10
57.4616236588614
 20
1.794619673398563
 30
0.0
 11
57.56288657417932
 21
1.798572401621745
 31
0.0
  0
LINE
  5
A4D
330
1F
100
AcDbEntity
  8
TEXT
100
AcDbLine
 10
57.28362245193871
 20
1.794619673398563
 30
0.0
 11
57.38488536725657
 21
1.798572401621745
 31
0.0
  0
LINE
  5
A4E
330
1F
100
AcDbEntity
  8
TEXT
100
AcDbLine
 10
56.64476059280474
 20
2.040147370577754
 30
0.0
 11
56.63516640585019
 21
2.018576018531879
 31
0.0
  0
ARC
  5
A4F
330
1F
100
AcDbEntity
  8
TEXT
100
AcDbCircle
 10
56.65855222677229
 20
2.040876106002933
 30
0.0
 40
0.0138108733544406
100
AcDbArc
 50
183.0246359049376
 51
356.9753640950624
  0
LINE
  5
A50
330
1F
100
AcDbEntity
  8
TEXT
100
AcDbLine
 10
56.67714092813799
 20
2.077298026419875
 30
0.0
 11
56.67234386073963
 21
2.040147370577754
 31
0.0
  0
ARC
  5
A51
330
1F
100
AcDbEntity
  8
TEXT
100
AcDbCircle
 10
56.68754575363436
 20
2.081694119940387
 30
0.0
 40
0.0112953987026185
100
AcDbArc
 50
8.122642540875142
 51
202.9043136183461
  0
LINE
  5
A52
330
1F
100
AcDbEntity
  8
TEXT
100
AcDbLine
 10
56.68913367487056
 20
2.011385573005362
 30
0.0
 11
56.69872783574607
 21
2.083290074669504
 31
0.0
  0
ARC
  5
A53
330
1F
100
AcDbEntity
  8
TEXT
100
AcDbCircle
 10
56.71071162677961
 20
2.012306942349389
 30
0.0
 40
0.0215976139899841
100
AcDbArc
 50
182.4450201076249
 51
0.7349407504797633
  0
LINE
  5
A54
330
1F
100
AcDbEntity
  8
TEXT
100
AcDbLine
 10
56.73230746400782
 20
2.070107580893369
 30
0.0
 11
56.73230746400782
 21
2.012583970282243
 31
0.0
  0
ARC
  5
A55
330
1F
100
AcDbEntity
  8
TEXT
100
AcDbCircle
 10
56.74854201996955
 20
2.069857183253184
 30
0.0
 40
0.0162364868814825
100
AcDbArc
 50
179.1163546128549
 51
32.14670843865866
  0
LINE
  5
A56
330
1F
100
AcDbEntity
  8
TEXT
100
AcDbLine
 10
56.76228926564203
 20
2.094075742959324
 30
0.0
 11
56.76228926564203
 21
2.078496439163139
 31
0.0
  0
ARC
  5
A57
330
1F
100
AcDbEntity
  8
TEXT
100
AcDbCircle
 10
56.77914346708249
 20
2.08989285388737
 30
0.0
 40
0.0173655022151764
100
AcDbArc
 50
26.60941129939664
 51
166.0619000058105
  0
LINE
  5
A58
330
1F
100
AcDbEntity
  8
TEXT
100
AcDbLine
 10
56.79706816075327
 20
2.06291713536688
 30
0.0
 11
56.79466962705415
 21
2.097670965722571
 31
0.0
  0
ARC
  5
A59
330
1F
100
AcDbEntity
  8
TEXT
100
AcDbCircle
 10
56.81418234714275
 20
2.058456749944546
 30
0.0
 40
0.0176858817674158
100
AcDbArc
 50
165.3922446503681
 51
2.803879044206354
  0
LINE
  5
A5A
330
1F
100
AcDbEntity
  8
TEXT
100
AcDbLine
 10
56.83304632271401
 20
2.104861426715435
 30
0.0
 11
56.83184705586453
 21
2.059321897137257
 31
0.0
  0
ARC
  5
A5B
330
1F
100
AcDbEntity
  8
TEXT
100
AcDbCircle
 10
56.8716118707089
 20
1.917289204998126
 30
0.0
 40
0.1914957959123389
100
AcDbArc
 50
60.82353397560609
 51
101.6183182656855
  0
ARC
  5
A5C
330
1F
100
AcDbEntity
  8
TEXT
100
AcDbCircle
 10
56.92875653147471
 20
2.057651773986428
 30
0.0
 40
0.0450705442028974
100
AcDbArc
 50
335.4827230531633
 51
36.54383594003247
  0
ARC
  5
A5D
330
1F
100
AcDbEntity
  8
TEXT
100
AcDbCircle
 10
56.97992184728281
 20
2.024222883947452
 30
0.0
 40
0.0178900098840057
100
AcDbArc
 50
124.5991194751618
 51
24.91162951380401
  0
ARC
  5
A5E
330
1F
100
AcDbEntity
  8
TEXT
100
AcDbCircle
 10
57.00264212626453
 20
2.041760977309484
 30
0.0
 40
0.0119260847182272
100
AcDbArc
 50
15.4647115143362
 51
237.0036058083551
  0
ARC
  5
A5F
330
1F
100
AcDbEntity
  8
TEXT
100
AcDbCircle
 10
56.97096843796703
 20
2.016557880756622
 30
0.0
 40
0.0516631101119713
100
AcDbArc
 50
331.8837666959812
 51
33.32508059324509
  0
ARC
  5
A60
330
1F
100
AcDbEntity
  8
TEXT
100
AcDbCircle
 10
57.027928046375
 20
1.979343167242575
 30
0.0
 40
0.0171867493656786
100
AcDbArc
 50
131.5213803610228
 51
48.47861963898631
  0
ARC
  5
A61
330
1F
100
AcDbEntity
  8
TEXT
100
AcDbCircle
 10
57.04761265687654
 20
1.994133646356566
 30
0.0
 40
0.0085115103283491
100
AcDbArc
 50
3.193725348484613
 51
193.0548754998599
  0
ARC
  5
A62
330
1F
100
AcDbEntity
  8
TEXT
100
AcDbCircle
 10
57.10843175122484
 20
1.971302868346105
 30
0.0
 40
0.0572764194780507
100
AcDbArc
 50
155.990632901348
 51
206.8057304576943
  0
ARC
  5
A63
330
1F
100
AcDbEntity
  8
TEXT
100
AcDbCircle
 10
56.82374028557692
 20
1.838648682949234
 30
0.0
 40
0.2568391883961405
100
AcDbArc
 50
344.8914411173261
 51
24.57723374822051
  0
ARC
  5
A64
330
1F
100
AcDbEntity
  8
TEXT
100
AcDbCircle
 10
56.98965601236455
 20
1.74711642673562
 30
0.0
 40
0.0856504748170368
100
AcDbArc
 50
300.6537348898137
 51
16.68245916375941
  0
ARC
  5
A65
330
1F
100
AcDbEntity
  8
TEXT
100
AcDbCircle
 10
56.91339755370132
 20
1.564007955480875
 30
0.0
 40
0.0329030971158398
100
AcDbArc
 50
244.0629515517946
 51
24.32612031264366
  0
ARC
  5
A66
330
1F
100
AcDbEntity
  8
TEXT
100
AcDbCircle
 10
56.85703177706077
 20
1.506448233380126
 30
0.0
 40
0.0504403035036899
100
AcDbArc
 50
33.67851647490055
 51
106.5775508010122
  0
ARC
  5
A67
330
1F
100
AcDbEntity
  8
TEXT
100
AcDbCircle
 10
56.82502999128892
 20
1.564775360065127
 30
0.0
 40
0.0202434850951048
100
AcDbArc
 50
194.854618224045
 51
330.4510994340791
  0
ARC
  5
A68
330
1F
100
AcDbEntity
  8
TEXT
100
AcDbCircle
 10
56.78271387862835
 20
1.585527189873871
 30
0.0
 40
0.0345034994608953
100
AcDbArc
 50
223.0305625061282
 51
311.2487591160725
  0
ARC
  5
A69
330
1F
100
AcDbEntity
  8
TEXT
100
AcDbCircle
 10
56.73833382508309
 20
1.59648679291262
 30
0.0
 40
0.0394663806242486
100
AcDbArc
 50
214.7934494581964
 51
299.0409507876108
  0
ARC
  5
A6A
330
1F
100
AcDbEntity
  8
TEXT
100
AcDbCircle
 10
56.69419317782267
 20
1.573626902967504
 30
0.0
 40
0.0117351997935574
100
AcDbArc
 50
1.658272028068529
 51
160.4091839300749
  0
ARC
  5
A6B
330
1F
100
AcDbEntity
  8
TEXT
100
AcDbCircle
 10
56.67379115356499
 20
1.576121159453938
 30
0.0
 40
0.0094565292621038
100
AcDbArc
 50
156.0593073728625
 51
8.762281217120088
  0
ARC
  5
A6C
330
1F
100
AcDbEntity
  8
TEXT
100
AcDbCircle
 10
56.5971374979416
 20
1.557533566100679
 30
0.0
 40
0.0716123991500209
100
AcDbArc
 50
18.24878221232197
 51
92.19784172829085
  0
ARC
  5
A6D
330
1F
100
AcDbEntity
  8
TEXT
100
AcDbCircle
 10
56.55781949535523
 20
1.638601773579253
 30
0.0
 40
0.0377875286239628
100
AcDbArc
 50
345.4259909574667
 51
72.46181126870034
  0
ARC
  5
A6E
330
1F
100
AcDbEntity
  8
TEXT
100
AcDbCircle
 10
56.48884249322256
 20
1.693208126462122
 30
0.0
 40
0.0824827685733273
100
AcDbArc
 50
346.9852122362369
 51
34.01252680042804
  0
ARC
  5
A6F
330
1F
100
AcDbEntity
  8
TEXT
100
AcDbCircle
 10
56.90210445554981
 20
1.82108384465136
 30
0.0
 40
0.3544440067106097
100
AcDbArc
 50
153.5374647244112
 51
193.3327646348703
  0
ARC
  5
A70
330
1F
100
AcDbEntity
  8
TEXT
100
AcDbCircle
 10
56.60276725390488
 20
1.988192472917054
 30
0.0
 40
0.020171963693018
100
AcDbArc
 50
103.7022990326948
 51
207.0193065629252
  0
ARC
  5
A71
330
1F
100
AcDbEntity
  8
TEXT
100
AcDbCircle
 10
56.61434255443964
 20
2.020887523339494
 30
0.0
 40
0.0209517503337112
100
AcDbArc
 50
218.6904014524236
 51
353.6659411500762
  0
ARC
  5
A72
330
1F
100
AcDbEntity
  8
TEXT
100
AcDbCircle
 10
56.65577437891662
 20
1.989662091867764
 30
0.0
 40
0.1126100916963402
100
AcDbArc
 50
120.6947626763563
 51
155.9971516553445
  0
LINE
  5
A73
330
1F
100
AcDbEntity
  8
TEXT
100
AcDbLine
 10
56.55371272613592
 20
2.096214542765955
 30
0.0
 11
56.55290221827655
 21
2.035469856680371
 31
0.0
  0
LINE
  5
A74
330
1F
100
AcDbEntity
  8
TEXT
100
AcDbLine
 10
56.59991196098463
 20
2.109983336216508
 30
0.0
 11
56.59829094526603
 21
2.086495389899004
 31
0.0
  0
ARC
  5
A75
330
1F
100
AcDbEntity
  8
TEXT
100
AcDbCircle
 10
56.57918432667063
 20
2.095140086366831
 30
0.0
 40
0.0254942521042418
100
AcDbArc
 50
35.60679995345882
 51
177.5845513854531
  0
ARC
  5
A76
330
1F
100
AcDbEntity
  8
TEXT
100
AcDbCircle
 10
56.65894404392002
 20
2.17395386176026
 30
0.0
 40
0.0177275194936825
100
AcDbArc
 50
318.2823815987275
 51
84.36248438139953
  0
ARC
  5
A77
330
1F
100
AcDbEntity
  8
TEXT
100
AcDbCircle
 10
56.6994083269725
 20
2.115064540780571
 30
0.0
 40
0.0543991327960405
100
AcDbArc
 50
81.18509483549695
 51
120.0392913824101
  0
ARC
  5
A78
330
1F
100
AcDbEntity
  8
TEXT
100
AcDbCircle
 10
56.72562308339777
 20
2.069687739434748
 30
0.0
 40
0.1007326717255064
100
AcDbArc
 50
70.05468846035606
 51
100.2232656721042
  0
ARC
  5
A79
330
1F
100
AcDbEntity
  8
TEXT
100
AcDbCircle
 10
56.77165610930152
 20
2.160893715786505
 30
0.0
 40
0.0121798952203543
100
AcDbArc
 50
163.3756550464657
 51
16.62434495353021
  0
ARC
  5
A7A
330
1F
100
AcDbEntity
  8
TEXT
100
AcDbCircle
 10
56.80438652270185
 20
2.13983219952226
 30
0.0
 40
0.0323422366599906
100
AcDbArc
 50
46.43616582623978
 51
130.6283095026658
  0
ARC
  5
A7B
330
1F
100
AcDbEntity
  8
TEXT
100
AcDbCircle
 10
56.83742203528982
 20
2.163936320661624
 30
0.0
 40
0.0107672478568685
100
AcDbArc
 50
183.5606974541693
 51
344.4298925613469
  0
ARC
  5
A7C
330
1F
100
AcDbEntity
  8
TEXT
100
AcDbCircle
 10
56.86724548264371
 20
2.153621229174496
 30
0.0
 40
0.0208202889485251
100
AcDbArc
 50
20.89289471578113
 51
159.1071052842188
  0
ARC
  5
A7D
330
1F
100
AcDbEntity
  8
TEXT
100
AcDbCircle
 10
56.90010517619217
 20
2.139207162927808
 30
0.0
 40
0.0256267055491746
100
AcDbArc
 50
24.75773987532677
 51
121.5483884163395
  0
ARC
  5
A7E
330
1F
100
AcDbEntity
  8
TEXT
100
AcDbCircle
 10
56.94106815461054
 20
2.140775707583698
 30
0.0
 40
0.019923999934833
100
AcDbArc
 50
47.61705801860776
 51
152.6179806586006
  0
ARC
  5
A7F
330
1F
100
AcDbEntity
  8
TEXT
100
AcDbCircle
 10
56.96647832721867
 20
2.144179641489194
 30
0.0
 40
0.0164772438173263
100
AcDbArc
 50
136.6395135700794
 51
16.38775991618464
  0
ARC
  5
A80
330
1F
100
AcDbEntity
  8
TEXT
100
AcDbCircle
 10
56.9862669455426
 20
2.099566274231996
 30
0.0
 40
0.0494227766538583
100
AcDbArc
 50
41.27304036069129
 51
94.61991284103847
  0
ARC
  5
A81
330
1F
100
AcDbEntity
  8
TEXT
100
AcDbCircle
 10
57.04331272678075
 20
2.130145851578078
 30
0.0
 40
0.0200033413087927
100
AcDbArc
 50
174.1982733486935
 51
308.0634596483613
  0
ARC
  5
A82
330
1F
100
AcDbEntity
  8
TEXT
100
AcDbCircle
 10
57.07029136825028
 20
2.106099411803441
 30
0.0
 40
0.0168329057250599
100
AcDbArc
 50
296.7794474250815
 51
150.4674482996605
  0
ARC
  5
A83
330
1F
100
AcDbEntity
  8
TEXT
100
AcDbCircle
 10
57.08398882963038
 20
1.96983204604887
 30
0.0
 40
0.1213938581589665
100
AcDbArc
 50
78.6467194011529
 51
92.8865786316482
  0
ARC
  5
A84
330
1F
100
AcDbEntity
  8
TEXT
100
AcDbCircle
 10
57.06821640648499
 20
2.040161944928918
 30
0.0
 40
0.0628033698317426
100
AcDbArc
 50
356.7791343814141
 51
50.82801334298929
  0
ARC
  5
A85
330
1F
100
AcDbEntity
  8
TEXT
100
AcDbCircle
 10
57.14431490430175
 20
1.994352580530323
 30
0.0
 40
0.0443516632740007
100
AcDbArc
 50
51.01090143870909
 51
107.577946053111
  0
ARC
  5
A86
330
1F
100
AcDbEntity
  8
TEXT
100
AcDbCircle
 10
56.95044380238715
 20
1.838613361260249
 30
0.0
 40
0.2921733560609443
100
AcDbArc
 50
317.9732863042378
 51
40.61894937560235
  0
ARC
  5
A87
330
1F
100
AcDbEntity
  8
TEXT
100
AcDbCircle
 10
57.45189020800285
 20
1.583635837519188
 30
0.0
 40
0.2893295131371159
100
AcDbArc
 50
179.4662202071271
 51
190.5890997840381
  0
ARC
  5
A88
330
1F
100
AcDbEntity
  8
TEXT
100
AcDbCircle
 10
57.14296735954738
 20
1.518848086794314
 30
0.0
 40
0.0271341882191743
100
AcDbArc
 50
282.9712622283036
 51
25.35441378639511
  0
ARC
  5
A89
330
1F
100
AcDbEntity
  8
TEXT
100
AcDbCircle
 10
57.18265608926813
 20
1.52389291481249
 30
0.0
 40
0.0460460836471324
100
AcDbArc
 50
169.4684867573188
 51
223.1418439421422
  0
ARC
  5
A8A
330
1F
100
AcDbEntity
  8
TEXT
100
AcDbCircle
 10
57.07853642877157
 20
1.556864599629058
 30
0.0
 40
0.0637668312167232
100
AcDbArc
 50
337.3510782224613
 51
22.64892177753877
  0
ARC
  5
A8B
330
1F
100
AcDbEntity
  8
TEXT
100
AcDbCircle
 10
56.91297094581688
 20
1.748222861359813
 30
0.0
 40
0.2509979489351848
100
AcDbArc
 50
311.6071689301099
 51
318.3515702307968
  0
ARC
  5
A8C
330
1F
100
AcDbEntity
  8
TEXT
100
AcDbCircle
 10
57.07950159360327
 20
1.552211331176188
 30
0.0
 40
0.0083377203270588
100
AcDbArc
 50
89.05883162362073
 51
223.9137905963003
  0
ARC
  5
A8D
330
1F
100
AcDbEntity
  8
TEXT
100
AcDbCircle
 10
57.00779724531917
 20
1.536937561458747
 30
0.0
 40
0.0663799911478199
100
AcDbArc
 50
322.6907301981538
 51
8.220255073941016
  0
ARC
  5
A8E
330
1F
100
AcDbEntity
  8
TEXT
100
AcDbCircle
 10
57.07105871122499
 20
1.483851198407995
 30
0.0
 40
0.0165736773362276
100
AcDbArc
 50
129.1527393458019
 51
254.8870408388506
  0
ARC
  5
A8F
330
1F
100
AcDbEntity
  8
TEXT
100
AcDbCircle
 10
57.07038563879525
 20
1.461546903795939
 30
0.0
 40
0.0072833212418134
100
AcDbArc
 50
312.7998628402737
 51
120.0581864533371
  0
ARC
  5
A90
330
1F
100
AcDbEntity
  8
TEXT
100
AcDbCircle
 10
57.19783415667992
 20
1.402999184899492
 30
0.0
 40
0.0656913671942501
100
AcDbArc
 50
99.17143729878524
 51
127.795528329094
  0
ARC
  5
A91
330
1F
100
AcDbEntity
  8
TEXT
100
AcDbCircle
 10
57.18474230273319
 20
1.43789510793939
 30
0.0
 40
0.0300701126135258
100
AcDbArc
 50
341.5477100758352
 51
84.99888070834156
  0
ARC
  5
A92
330
1F
100
AcDbEntity
  8
TEXT
100
AcDbCircle
 10
57.04694896284625
 20
1.51490054877032
 30
0.0
 40
0.0487032855846518
100
AcDbArc
 50
156.288597549796
 51
210.2571046136436
  0
ARC
  5
A93
330
1F
100
AcDbEntity
  8
TEXT
100
AcDbCircle
 10
57.01227090027234
 20
1.53091287904157
 30
0.0
 40
0.0105379370460883
100
AcDbArc
 50
31.23099864076702
 51
160.1819529381847
  0
LINE
  5
A94
330
1F
100
AcDbEntity
  8
TEXT
100
AcDbLine
 10
57.0206508963837
 20
1.488468778577995
 30
0.0
 11
57.02128172023922
 21
1.536376690962929
 31
0.0
  0
ARC
  5
A95
330
1F
100
AcDbEntity
  8
TEXT
100
AcDbCircle
 10
57.01225029940093
 20
1.485116768393004
 30
0.0
 40
0.0090446670445143
100
AcDbArc
 50
144.5711585108377
 51
21.75301147886979
  0
ARC
  5
A96
330
1F
100
AcDbEntity
  8
TEXT
100
AcDbCircle
 10
56.84138803840671
 20
1.465389353338245
 30
0.0
 40
0.0165367822276326
100
AcDbArc
 50
177.7877751662291
 51
326.380582641936
  0
ARC
  5
A97
330
1F
100
AcDbEntity
  8
TEXT
100
AcDbCircle
 10
56.8155792214225
 20
1.466918089620818
 30
0.0
 40
0.0093269579312538
100
AcDbArc
 50
354.5219056877808
 51
214.944854376383
  0
LINE
  5
A98
330
1F
100
AcDbEntity
  8
TEXT
100
AcDbLine
 10
56.76516418362187
 20
1.479383608246428
 30
0.0
 11
56.76694626296995
 21
1.424179181875435
 31
0.0
  0
ARC
  5
A99
330
1F
100
AcDbEntity
  8
TEXT
100
AcDbCircle
 10
56.72847760746924
 20
1.495368494119873
 30
0.0
 40
0.0099990764344
100
AcDbArc
 50
5.351678383090828
 51
195.24354880264
  0
LINE
  5
A9A
330
1F
100
AcDbEntity
  8
TEXT
100
AcDbLine
 10
56.71615721018277
 20
1.405480911670125
 30
0.0
 11
56.71883032920469
 21
1.492739511116999
 31
0.0
  0
LINE
  5
A9B
330
1F
100
AcDbEntity
  8
TEXT
100
AcDbLine
 10
56.67338751446152
 20
1.512328181033559
 30
0.0
 11
56.68140681936981
 21
1.401919343757874
 31
0.0
  0
ARC
  5
A9C
330
1F
100
AcDbEntity
  8
TEXT
100
AcDbCircle
 10
56.65451668107443
 20
1.509807934215174
 30
0.0
 40
0.0190383821988919
100
AcDbArc
 50
7.606980527162049
 51
103.0413594591622
  0
ARC
  5
A9D
330
1F
100
AcDbEntity
  8
TEXT
100
AcDbCircle
 10
56.64220126930519
 20
1.511005902951559
 30
0.0
 40
0.0191130822490872
100
AcDbArc
 50
65.19241843010758
 51
139.0508106988796
  0
LINE
  5
A9E
330
1F
100
AcDbEntity
  8
TEXT
100
AcDbLine
 10
56.62776532866214
 20
1.499464557690686
 30
0.0
 11
56.62776532866214
 21
1.523532416066117
 31
0.0
  0
ARC
  5
A9F
330
1F
100
AcDbEntity
  8
TEXT
100
AcDbCircle
 10
56.61706561337843
 20
1.496587577218553
 30
0.0
 40
0.0110797528757836
100
AcDbArc
 50
168.3169857564316
 51
15.04995211451624
  0
LINE
  5
AA0
330
1F
100
AcDbEntity
  8
TEXT
100
AcDbLine
 10
56.60304631241436
 20
1.527965963226625
 30
0.0
 11
56.60621540101296
 21
1.498831193810621
 31
0.0
  0
ARC
  5
AA1
330
1F
100
AcDbEntity
  8
TEXT
100
AcDbCircle
 10
56.59868094214422
 20
1.531807643266738
 30
0.0
 40
0.0058150634670569
100
AcDbArc
 50
318.6510821797588
 51
186.6644145786489
  0
LINE
  5
AA2
330
1F
100
AcDbEntity
  8
TEXT
100
AcDbLine
 10
56.59036987978327
 20
1.508965015891753
 30
0.0
 11
56.5929051715253
 21
1.53113278262699
 31
0.0
  0
ARC
  5
AA3
330
1F
100
AcDbEntity
  8
TEXT
100
AcDbCircle
 10
56.574715657337
 20
1.504824136554814
 30
0.0
 40
0.0161926391326401
100
AcDbArc
 50
172.0457056516397
 51
14.81661014794185
  0
LINE
  5
AA4
330
1F
100
AcDbEntity
  8
TEXT
100
AcDbLine
 10
56.55487589971108
 20
1.560267567509328
 30
0.0
 11
56.55867881124514
 21
1.507064924251558
 31
0.0
  0
ARC
  5
AA5
330
1F
100
AcDbEntity
  8
TEXT
100
AcDbCircle
 10
56.55905785927386
 20
1.599028408340122
 30
0.0
 40
0.0389857867394515
100
AcDbArc
 50
209.3802246625985
 51
263.8421008682745
  0
ARC
  5
AA6
330
1F
100
AcDbEntity
  8
TEXT
100
AcDbCircle
 10
56.51023881310297
 20
1.575172116051426
 30
0.0
 40
0.0155826305602638
100
AcDbArc
 50
17.66955929970817
 51
146.8111142491876
  0
ARC
  5
AA7
330
1F
100
AcDbEntity
  8
TEXT
100
AcDbCircle
 10
56.49105570775873
 20
1.579654833590494
 30
0.0
 40
0.0073559424006224
100
AcDbArc
 50
192.9866902548921
 51
33.38063139741077
  0
LINE
  5
AA8
330
1F
100
AcDbEntity
  8
TEXT
100
AcDbLine
 10
56.4838879134875
 20
1.600802902233004
 30
0.0
 11
56.4838879134875
 21
1.578001771617678
 31
0.0
  0
ARC
  5
AA9
330
1F
100
AcDbEntity
  8
TEXT
100
AcDbCircle
 10
56.47903780666954
 20
1.603201248905129
 30
0.0
 40
0.0054106933848193
100
AcDbArc
 50
333.6879001367203
 51
192.0722457553379
  0
LINE
  5
AAA
330
1F
100
AcDbEntity
  8
TEXT
100
AcDbLine
 10
56.47374677259836
 20
1.60206962999313
 30
0.0
 11
56.47247912672746
 21
1.449428749299691
 31
0.0
  0
ARC
  5
AAB
330
1F
100
AcDbEntity
  8
TEXT
100
AcDbCircle
 10
59.5990435537767
 20
1.542177472693303
 30
0.0
 40
3.160628174278595
100
AcDbArc
 50
178.0464319449979
 51
181.7502526685599
  0
ARC
  5
AAC
330
1F
100
AcDbEntity
  8
TEXT
100
AcDbCircle
 10
56.40611882491871
 20
1.640666356286253
 30
0.0
 40
0.0353661901713158
100
AcDbArc
 50
15.17145974978885
 51
87.54918714297627
  0
ARC
  5
AAD
330
1F
100
AcDbEntity
  8
TEXT
100
AcDbCircle
 10
57.16534354869924
 20
1.834210776574563
 30
0.0
 40
0.7740534065258921
100
AcDbArc
 50
175.4121316267021
 51
191.7939289657056
  0
ARC
  5
AAE
330
1F
100
AcDbEntity
  8
TEXT
100
AcDbCircle
 10
56.5762880253284
 20
1.894017853033694
 30
0.0
 40
0.1825298605922834
100
AcDbArc
 50
117.3222180892419
 51
179.3383492613259
  0
ARC
  5
AAF
330
1F
100
AcDbEntity
  8
TEXT
100
AcDbCircle
 10
56.47674817800568
 20
2.07309260470506
 30
0.0
 40
0.0231138652678936
100
AcDbArc
 50
312.9867785858866
 51
66.99118422926675
  0
ARC
  5
AB0
330
1F
100
AcDbEntity
  8
TEXT
100
AcDbCircle
 10
56.47432204345411
 20
2.100386645937298
 30
0.0
 40
0.0129451309621158
100
AcDbArc
 50
332.2921775479049
 51
119.56785717599
  0
ARC
  5
AB1
330
1F
100
AcDbEntity
  8
TEXT
100
AcDbCircle
 10
56.4798549367014
 20
2.091995360870106
 30
0.0
 40
0.0229836788276261
100
AcDbArc
 50
121.2424246402126
 51
213.473239708375
  0
ARC
  5
AB2
330
1F
100
AcDbEntity
  8
TEXT
100
AcDbCircle
 10
56.45548022665735
 20
2.07463943634444
 30
0.0
 40
0.0069976873342193
100
AcDbArc
 50
201.5154657473982
 51
41.96660508022781
  0
ARC
  5
AB3
330
1F
100
AcDbEntity
  8
TEXT
100
AcDbCircle
 10
56.45565855308539
 20
2.097268818576429
 30
0.0
 40
0.0260684316724221
100
AcDbArc
 50
160.2627782819643
 51
255.1333022011723
  0
ARC
  5
AB4
330
1F
100
AcDbEntity
  8
TEXT
100
AcDbCircle
 10
56.42533908875343
 20
2.110959115874313
 30
0.0
 40
0.0075708934653655
100
AcDbArc
 50
124.2167745950179
 51
319.7988197133694
  0
ARC
  5
AB5
330
1F
100
AcDbEntity
  8
TEXT
100
AcDbCircle
 10
56.4091302559807
 20
2.117899863651118
 30
0.0
 40
0.0119708699890584
100
AcDbArc
 50
356.7423630506752
 51
136.5172760690074
  0
ARC
  5
AB6
330
1F
100
AcDbEntity
  8
TEXT
100
AcDbCircle
 10
56.40365161498824
 20
2.141855598622193
 30
0.0
 40
0.0160420204804056
100
AcDbArc
 50
116.3151684036786
 51
258.4674100382153
  0
ARC
  5
AB7
330
1F
100
AcDbEntity
  8
TEXT
100
AcDbCircle
 10
56.40506876572988
 20
2.148075033538745
 30
0.0
 40
0.0118036776942274
100
AcDbArc
 50
348.1206509806769
 51
136.2651890953771
  0
ARC
  5
AB8
330
1F
100
AcDbEntity
  8
TEXT
100
AcDbCircle
 10
56.42426979559331
 20
2.142673623019639
 30
0.0
 40
0.0082070223616514
100
AcDbArc
 50
158.7719549350953
 51
25.46716058584042
  0
ARC
  5
AB9
330
1F
100
AcDbEntity
  8
TEXT
100
AcDbCircle
 10
56.45373029894589
 20
2.144350133494633
 30
0.0
 40
0.0221286157777855
100
AcDbArc
 50
32.4856949474357
 51
175.1979664789355
  0
ARC
  5
ABA
330
1F
100
AcDbEntity
  8
TEXT
100
AcDbCircle
 10
56.48152969084307
 20
2.152154393594308
 30
0.0
 40
0.0100035300295991
100
AcDbArc
 50
155.9249042338181
 51
10.66497725508788
  0
ARC
  5
ABB
330
1F
100
AcDbEntity
  8
TEXT
100
AcDbCircle
 10
56.5238876683282
 20
2.160348500488614
 30
0.0
 40
0.0331398983173351
100
AcDbArc
 50
109.4580308571273
 51
191.0341765877006
  0
LINE
  5
ABC
330
1F
100
AcDbEntity
  8
TEXT
100
AcDbLine
 10
58.03900825483726
 20
1.707204400984018
 30
0.0
 11
58.24699986302426
 21
1.707204400984018
 31
0.0
  0
ARC
  5
ABD
330
1F
100
AcDbEntity
  8
TEXT
100
AcDbCircle
 10
58.15252165914703
 20
1.711597704030744
 30
0.0
 40
0.0945802945625412
100
AcDbArc
 50
357.337623744369
 51
85.63084243886233
  0
ARC
  5
ABE
330
1F
100
AcDbEntity
  8
TEXT
100
AcDbCircle
 10
58.12303767254807
 20
1.630949229555063
 30
0.0
 40
0.1787595523837168
100
AcDbArc
 50
78.15621523985547
 51
106.6122408520356
  0
LINE
  5
ABF
330
1F
100
AcDbEntity
  8
TEXT
100
AcDbLine
 10
58.03900825483726
 20
1.729659663654315
 30
0.0
 11
58.17540476791382
 21
1.729659663654315
 31
0.0
  0
ARC
  5
AC0
330
1F
100
AcDbEntity
  8
TEXT
100
AcDbCircle
 10
58.1054638194789
 20
1.716680140562445
 30
0.0
 40
0.0677112257424498
100
AcDbArc
 50
103.9179608005984
 51
168.9486088950471
  0
ARC
  5
AC1
330
1F
100
AcDbEntity
  8
TEXT
100
AcDbCircle
 10
58.12104331358789
 20
1.731376700634255
 30
0.0
 40
0.0543885643533876
100
AcDbArc
 50
358.1908821763629
 51
69.74957583402911
  0
ARC
  5
AC2
330
1F
100
AcDbEntity
  8
TEXT
100
AcDbCircle
 10
58.11452279101164
 20
1.575987930603304
 30
0.0
 40
0.2079657856617219
100
AcDbArc
 50
82.99970676551488
 51
97.00029323448513
  0
ARC
  5
AC3
330
1F
100
AcDbEntity
  8
TEXT
100
AcDbCircle
 10
58.11302215600971
 20
1.679736866069085
 30
0.0
 40
0.1292181297135794
100
AcDbArc
 50
108.5416613320802
 51
149.7652339536174
  0
ARC
  5
AC4
330
1F
100
AcDbEntity
  8
TEXT
100
AcDbCircle
 10
58.11384917468945
 20
1.675800538281746
 30
0.0
 40
0.1319485192661753
100
AcDbArc
 50
148.4692011102827
 51
195.5802361373378
  0
ARC
  5
AC5
330
1F
100
AcDbEntity
  8
TEXT
100
AcDbCircle
 10
58.11140834152656
 20
1.671869125758313
 30
0.0
 40
0.1285795811377622
100
AcDbArc
 50
194.1847393568157
 51
248.6586767321129
  0
ARC
  5
AC6
330
1F
100
AcDbEntity
  8
TEXT
100
AcDbCircle
 10
58.16422314615413
 20
1.70566572822963
 30
0.0
 40
0.1252243447630968
100
AcDbArc
 50
179.2959701761241
 51
227.5915484940839
  0
ARC
  5
AC7
330
1F
100
AcDbEntity
  8
TEXT
100
AcDbCircle
 10
58.13691399949369
 20
1.68337461279325
 30
0.0
 40
0.0904935239504756
100
AcDbArc
 50
230.8416488637728
 51
280.5326941523482
  0
ARC
  5
AC8
330
1F
100
AcDbEntity
  8
TEXT
100
AcDbCircle
 10
58.14874058662983
 20
1.707894147640123
 30
0.0
 40
0.1135862276716573
100
AcDbArc
 50
272.3792098458871
 51
327.3581874363218
  0
ARC
  5
AC9
330
1F
100
AcDbEntity
  8
TEXT
100
AcDbCircle
 10
58.11516105292148
 20
1.731745596584488
 30
0.0
 40
0.1866149158157418
100
AcDbArc
 50
254.28478308494
 51
294.1819270465997
  0
ARC
  5
ACA
330
1F
100
AcDbEntity
  8
TEXT
100
AcDbCircle
 10
58.1303097035559
 20
1.685400715280493
 30
0.0
 40
0.1382279414268217
100
AcDbArc
 50
296.3233923707221
 51
339.834833147579
  0
ARC
  5
ACB
330
1F
100
AcDbEntity
  8
TEXT
100
AcDbCircle
 10
58.25071326729986
 20
1.639517506248997
 30
0.0
 40
0.0095170105473448
100
AcDbArc
 50
349.2952029716972
 51
131.6626905469363
  0
ARC
  5
ACC
330
1F
100
AcDbEntity
  8
TEXT
100
AcDbCircle
 10
56.74645573176963
 20
2.681443741091576
 30
0.0
 40
0.019139394018822
100
AcDbArc
 50
146.5485285753443
 51
33.4514714246557
  0
ARC
  5
ACD
330
1F
100
AcDbEntity
  8
TEXT
100
AcDbCircle
 10
56.71582983157764
 20
2.715406149811945
 30
0.0
 40
0.0148416309955998
100
AcDbArc
 50
2.749965920202094
 51
141.7961814814361
  0
LINE
  5
ACE
330
1F
100
AcDbEntity
  8
TEXT
100
AcDbLine
 10
56.76321551190588
 20
2.756790334094866
 30
0.0
 11
56.76242474267122
 21
2.691993958825377
 31
0.0
  0
LINE
  5
ACF
330
1F
100
AcDbEntity
  8
TEXT
100
AcDbLine
 10
56.73065437117393
 20
2.716118214673563
 30
0.0
 11
56.73048672086792
 21
2.691993958825377
 31
0.0
  0
LINE
  5
AD0
330
1F
100
AcDbEntity
  8
TEXT
100
AcDbLine
 10
56.70416704526664
 20
2.724585116315643
 30
0.0
 11
56.66068549837503
 21
2.701411663444749
 31
0.0
  0
LINE
  5
AD1
330
1F
100
AcDbEntity
  8
TEXT
100
AcDbLine
 10
56.46936668162027
 20
2.724585116315643
 30
0.0
 11
56.51284822851201
 21
2.701411663444749
 31
0.0
  0
ARC
  5
AD2
330
1F
100
AcDbEntity
  8
TEXT
100
AcDbCircle
 10
56.45770389530948
 20
2.715406149811945
 30
0.0
 40
0.0148416309955998
100
AcDbArc
 50
38.2038185185639
 51
177.2500340797979
  0
LINE
  5
AD3
330
1F
100
AcDbEntity
  8
TEXT
100
AcDbLine
 10
56.66068549837503
 20
2.701411663444749
 30
0.0
 11
56.66068549837503
 21
2.191595638421936
 31
0.0
  0
LINE
  5
AD4
330
1F
100
AcDbEntity
  8
TEXT
100
AcDbLine
 10
56.51284822851201
 20
2.701411663444749
 30
0.0
 11
56.51284822851201
 21
2.191595638421936
 31
0.0
  0
ARC
  5
AD5
330
1F
100
AcDbEntity
  8
TEXT
100
AcDbCircle
 10
56.42965139229068
 20
2.422719211676565
 30
0.0
 40
0.0152732974154362
100
AcDbArc
 50
177.899482485688
 51
2.100517514311875
  0
LINE
  5
AD6
330
1F
100
AcDbEntity
  8
TEXT
100
AcDbLine
 10
56.44287935571302
 20
2.716118214673563
 30
0.0
 11
56.44491442700882
 21
2.423279019798805
 31
0.0
  0
LINE
  5
AD7
330
1F
100
AcDbEntity
  8
TEXT
100
AcDbLine
 10
56.4103182149811
 20
2.756790334094866
 30
0.0
 11
56.41438835757266
 21
2.423279019798805
 31
0.0
  0
ARC
  5
AD8
330
1F
100
AcDbEntity
  8
TEXT
100
AcDbCircle
 10
56.99735239723413
 20
2.310888051469198
 30
0.0
 40
0.0124561803706211
100
AcDbArc
 50
3.288025410275711
 51
105.9275278804377
  0
ARC
  5
AD9
330
1F
100
AcDbEntity
  8
TEXT
100
AcDbCircle
 10
56.90039757684679
 20
2.384637278160063
 30
0.0
 40
0.1120927222252192
100
AcDbArc
 50
282.162842666785
 51
326.5593609179315
  0
ARC
  5
ADA
330
1F
100
AcDbEntity
  8
TEXT
100
AcDbCircle
 10
56.89957435271924
 20
2.362279633676998
 30
0.0
 40
0.0905784598489114
100
AcDbArc
 50
213.1462108998124
 51
285.6537258536393
  0
ARC
  5
ADB
330
1F
100
AcDbEntity
  8
TEXT
100
AcDbCircle
 10
56.9251594197556
 20
2.3764531343512
 30
0.0
 40
0.1197688266097961
100
AcDbArc
 50
167.0430028911414
 51
212.1309371309446
  0
ARC
  5
ADC
330
1F
100
AcDbEntity
  8
TEXT
100
AcDbCircle
 10
56.91106137101513
 20
2.366139517010806
 30
0.0
 40
0.1091448673447349
100
AcDbArc
 50
117.3722826858103
 51
160.0902491401812
  0
ARC
  5
ADD
330
1F
100
AcDbEntity
  8
TEXT
100
AcDbCircle
 10
56.86259120499673
 20
2.392166202046936
 30
0.0
 40
0.1678017612198071
100
AcDbArc
 50
310.2152586008207
 51
331.3072507285895
  0
ARC
  5
ADE
330
1F
100
AcDbEntity
  8
TEXT
100
AcDbCircle
 10
56.87861085068326
 20
2.35189094785719
 30
0.0
 40
0.1274495304475066
100
AcDbArc
 50
251.6347706403313
 51
316.4182924463649
  0
ARC
  5
ADF
330
1F
100
AcDbEntity
  8
TEXT
100
AcDbCircle
 10
56.8597517491278
 20
2.347087769791613
 30
0.0
 40
0.1180912454887081
100
AcDbArc
 50
194.9511061487668
 51
259.6103135862126
  0
ARC
  5
AE0
330
1F
100
AcDbEntity
  8
TEXT
100
AcDbCircle
 10
56.87215130564499
 20
2.351063435015738
 30
0.0
 40
0.1310983043162969
100
AcDbArc
 50
135.7093780000635
 51
195.2317137751531
  0
ARC
  5
AE1
330
1F
100
AcDbEntity
  8
TEXT
100
AcDbCircle
 10
56.87323413460961
 20
2.369767855045572
 30
0.0
 40
0.1196511698431431
100
AcDbArc
 50
97.06566064011491
 51
142.4986334312247
  0
ARC
  5
AE2
330
1F
100
AcDbEntity
  8
TEXT
100
AcDbCircle
 10
56.88713276928488
 20
2.078349914334756
 30
0.0
 40
0.3856090945596675
100
AcDbArc
 50
86.31431733544655
 51
93.90381943516556
  0
ARC
  5
AE3
330
1F
100
AcDbEntity
  8
TEXT
100
AcDbCircle
 10
56.87896812768733
 20
2.429065079309232
 30
0.0
 40
0.0474177752828994
100
AcDbArc
 50
16.71684440730664
 51
45.97719400399792
  0
ARC
  5
AE4
330
1F
100
AcDbEntity
  8
TEXT
100
AcDbCircle
 10
56.97056727663142
 20
2.442713032163509
 30
0.0
 40
0.046185345798517
100
AcDbArc
 50
180.010674400693
 51
201.8251852718026
  0
ARC
  5
AE5
330
1F
100
AcDbEntity
  8
TEXT
100
AcDbCircle
 10
56.96252866208173
 20
2.44188761130669
 30
0.0
 40
0.0384802722134761
100
AcDbArc
 50
205.1359642898991
 51
307.6679722285764
  0
ARC
  5
AE6
330
1F
100
AcDbEntity
  8
TEXT
100
AcDbCircle
 10
56.95494589791255
 20
2.436470472800314
 30
0.0
 40
0.0399271801820827
100
AcDbArc
 50
321.1558234807585
 51
36.9421790422998
  0
ARC
  5
AE7
330
1F
100
AcDbEntity
  8
TEXT
100
AcDbCircle
 10
56.91981182567139
 20
2.39757834583237
 30
0.0
 40
0.091924416877587
100
AcDbArc
 50
43.16761867319007
 51
81.57335966331341
  0
ARC
  5
AE8
330
1F
100
AcDbEntity
  8
TEXT
100
AcDbCircle
 10
56.89589947072683
 20
2.091467513691986
 30
0.0
 40
0.3987988710058952
100
AcDbArc
 50
84.62122141578806
 51
95.37877858421195
  0
ARC
  5
AE9
330
1F
100
AcDbEntity
  8
TEXT
100
AcDbCircle
 10
57.29951760556025
 20
2.319796449666815
 30
0.0
 40
0.0095170105473448
100
AcDbArc
 50
349.2952029716972
 51
131.6626905469363
  0
ARC
  5
AEA
330
1F
100
AcDbEntity
  8
TEXT
100
AcDbCircle
 10
57.17911404181624
 20
2.365679658698383
 30
0.0
 40
0.1382279414268217
100
AcDbArc
 50
296.3233923707221
 51
339.834833147579
  0
ARC
  5
AEB
330
1F
100
AcDbEntity
  8
TEXT
100
AcDbCircle
 10
57.16396539118185
 20
2.412024540002306
 30
0.0
 40
0.1866149158157418
100
AcDbArc
 50
254.28478308494
 51
294.1819270465997
  0
ARC
  5
AEC
330
1F
100
AcDbEntity
  8
TEXT
100
AcDbCircle
 10
57.1975449248902
 20
2.388173091058069
 30
0.0
 40
0.1135862276716573
100
AcDbArc
 50
272.3792098458871
 51
327.3581874363218
  0
ARC
  5
AED
330
1F
100
AcDbEntity
  8
TEXT
100
AcDbCircle
 10
57.18571833775405
 20
2.363653556211068
 30
0.0
 40
0.0904935239504756
100
AcDbArc
 50
230.8416488637728
 51
280.5326941523482
  0
ARC
  5
AEE
330
1F
100
AcDbEntity
  8
TEXT
100
AcDbCircle
 10
57.21302748441448
 20
2.385944671647569
 30
0.0
 40
0.1252243447630968
100
AcDbArc
 50
179.2959701761241
 51
227.5915484940839
  0
ARC
  5
AEF
330
1F
100
AcDbEntity
  8
TEXT
100
AcDbCircle
 10
57.16021267978693
 20
2.352148069176201
 30
0.0
 40
0.1285795811377622
100
AcDbArc
 50
194.1847393568157
 51
248.6586767321129
  0
ARC
  5
AF0
330
1F
100
AcDbEntity
  8
TEXT
100
AcDbCircle
 10
57.16265351294982
 20
2.356079481699635
 30
0.0
 40
0.1319485192661753
100
AcDbArc
 50
148.4692011102827
 51
195.5802361373378
  0
ARC
  5
AF1
330
1F
100
AcDbEntity
  8
TEXT
100
AcDbCircle
 10
57.16182649426999
 20
2.360015809486879
 30
0.0
 40
0.1292181297135794
100
AcDbArc
 50
108.5416613320802
 51
149.7652339536174
  0
ARC
  5
AF2
330
1F
100
AcDbEntity
  8
TEXT
100
AcDbCircle
 10
57.16332712927201
 20
2.256266874021193
 30
0.0
 40
0.2079657856617219
100
AcDbArc
 50
82.99970676551488
 51
97.00029323448513
  0
ARC
  5
AF3
330
1F
100
AcDbEntity
  8
TEXT
100
AcDbCircle
 10
57.16984765184829
 20
2.411655644052125
 30
0.0
 40
0.0543885643533876
100
AcDbArc
 50
358.1908821763629
 51
69.74957583402911
  0
ARC
  5
AF4
330
1F
100
AcDbEntity
  8
TEXT
100
AcDbCircle
 10
57.15426815773923
 20
2.396959083980263
 30
0.0
 40
0.0677112257424498
100
AcDbArc
 50
103.9179608005984
 51
168.9486088950471
  0
LINE
  5
AF5
330
1F
100
AcDbEntity
  8
TEXT
100
AcDbLine
 10
57.08781259309763
 20
2.409938607072134
 30
0.0
 11
57.22420910617419
 21
2.409938607072134
 31
0.0
  0
ARC
  5
AF6
330
1F
100
AcDbEntity
  8
TEXT
100
AcDbCircle
 10
57.17184201080844
 20
2.311228172972938
 30
0.0
 40
0.1787595523837168
100
AcDbArc
 50
78.15621523985547
 51
106.6122408520356
  0
ARC
  5
AF7
330
1F
100
AcDbEntity
  8
TEXT
100
AcDbCircle
 10
57.20132599740747
 20
2.391876647448562
 30
0.0
 40
0.0945802945625412
100
AcDbArc
 50
357.337623744369
 51
85.63084243886233
  0
LINE
  5
AF8
330
1F
100
AcDbEntity
  8
TEXT
100
AcDbLine
 10
57.08781259309763
 20
2.387483344401884
 30
0.0
 11
57.29580420128463
 21
2.387483344401884
 31
0.0
  0
ARC
  5
AF9
330
1F
100
AcDbEntity
  8
TEXT
100
AcDbCircle
 10
57.79642503651806
 20
1.654653512954005
 30
0.0
 40
0.0810929943736197
100
AcDbArc
 50
325.2939034707323
 51
356.4132772462207
  0
ARC
  5
AFA
330
1F
100
AcDbEntity
  8
TEXT
100
AcDbCircle
 10
57.7995011349073
 20
1.643383209810629
 30
0.0
 40
0.0725374442393223
100
AcDbArc
 50
261.8576121462839
 51
331.2394802847383
  0
ARC
  5
AFB
330
1F
100
AcDbEntity
  8
TEXT
100
AcDbCircle
 10
57.77491983495746
 20
1.620919744317568
 30
0.0
 40
0.0513752098052219
100
AcDbArc
 50
203.9135879631549
 51
286.1701931802542
  0
ARC
  5
AFC
330
1F
100
AcDbEntity
  8
TEXT
100
AcDbCircle
 10
57.58449393884152
 20
1.610201047210253
 30
0.0
 40
0.0219208331170951
100
AcDbArc
 50
155.9964711746257
 51
271.4218156194853
  0
LINE
  5
AFD
330
1F
100
AcDbEntity
  8
TEXT
100
AcDbLine
 10
57.61193579552659
 20
1.589868060672188
 30
0.0
 11
57.58503785646431
 21
1.58828696319636
 31
0.0
  0
LINE
  5
AFE
330
1F
100
AcDbEntity
  8
TEXT
100
AcDbLine
 10
57.61035358529369
 20
1.571685486099561
 30
0.0
 11
57.61193579552659
 21
1.589868060672188
 31
0.0
  0
ARC
  5
AFF
330
1F
100
AcDbEntity
  8
TEXT
100
AcDbCircle
 10
57.43713098603535
 20
1.682204124163745
 30
0.0
 40
0.0994083459973538
100
AcDbArc
 50
257.5730930866192
 51
314.4273867462272
  0
ARC
  5
B00
330
1F
100
AcDbEntity
  8
TEXT
100
AcDbCircle
 10
57.43776476745259
 20
1.632037520661313
 30
0.0
 40
0.0518260868541633
100
AcDbArc
 50
188.1927496775748
 51
244.8496170020145
  0
ARC
  5
B01
330
1F
100
AcDbEntity
  8
TEXT
100
AcDbCircle
 10
57.01384567236583
 20
1.657855082001681
 30
0.0
 40
0.0249429364567843
100
AcDbArc
 50
253.92908891256
 51
38.652674775114
  0
ARC
  5
B02
330
1F
100
AcDbEntity
  8
TEXT
100
AcDbCircle
 10
57.103864887134
 20
1.619965194601995
 30
0.0
 40
0.0676602827344026
100
AcDbArc
 50
330.1916644163833
 51
19.91318758187982
  0
ARC
  5
B03
330
1F
100
AcDbEntity
  8
TEXT
100
AcDbCircle
 10
57.11895574097173
 20
1.537204845855432
 30
0.0
 40
0.047902564587344
100
AcDbArc
 50
67.37252950712522
 51
112.6274704928675
  0
ARC
  5
B04
330
1F
100
AcDbEntity
  8
TEXT
100
AcDbCircle
 10
56.91294288606655
 20
1.675934709449682
 30
0.0
 40
0.1029739000996109
100
AcDbArc
 50
287.1920036507392
 51
335.8997504051534
  0
LINE
  5
B05
330
1F
100
AcDbEntity
  8
TEXT
100
AcDbLine
 10
56.73843309771736
 20
1.496301094495628
 30
0.0
 11
56.76516418362187
 21
1.479383608246428
 31
0.0
  0
LINE
  5
B06
330
1F
100
AcDbEntity
  8
BORDER
100
AcDbLine
 10
55.84421359704425
 20
-1.314486119888748
 30
0.0
 11
55.84421359704425
 21
2.80415107846501
 31
0.0
  0
LINE
  5
B07
330
1F
100
AcDbEntity
  8
BORDER
100
AcDbLine
 10
51.46921359704425
 20
-0.0083489215349886
 30
0.0
 11
55.84421359704425
 21
-0.0083489215349886
 31
0.0
  0
LINE
  5
B08
330
1F
100
AcDbEntity
  8
BORDER
100
AcDbLine
 10
51.46921359704425
 20
0.6166510784650116
 30
0.0
 11
55.84421359704425
 21
0.6166510784650116
 31
0.0
  0
TEXT
  5
B09
330
1F
100
AcDbEntity
  8
TEXT
100
AcDbText
 10
54.35358859704425
 20
0.0472760784649395
 30
0.0
 40
0.234375
  1
NONE
 72
     1
 11
54.78327609704425
 21
0.1644635784649395
 31
0.0
100
AcDbText
 73
     2
  0
TEXT
  5
B0A
330
1F
100
AcDbEntity
  8
TEXT
100
AcDbText
 10
53.81296359704425
 20
0.3822760784650114
 30
0.0
 40
0.15625
  1
SCALE
100
AcDbText
  0
TEXT
  5
B0B
330
1F
100
AcDbEntity
  8
TEXT
100
AcDbText
 10
51.55983859704424
 20
0.3822760784650114
 30
0.0
 40
0.15625
  1
DRAWN
100
AcDbText
  0
TEXT
  5
B0C
330
1F
100
AcDbEntity
  8
TEXT
100
AcDbText
 10
52.21765109704424
 20
0.0472760784649395
 30
0.0
 40
0.234375
  1
JJH
 72
     1
 11
52.53015109704424
 21
0.1644635784649395
 31
0.0
100
AcDbText
 73
     2
  0
TEXT
  5
B0D
330
1F
100
AcDbEntity
  8
TEXT
100
AcDbText
 10
51.62546359704425
 20
-0.2427239215349886
 30
0.0
 40
0.15625
  1
DATE
100
AcDbText
  0
TEXT
  5
B0E
330
1F
100
AcDbEntity
  8
TEXT
100
AcDbText
 10
52.69317193037758
 20
-0.4720638848373895
 30
0.0
 40
0.3125
  1
9-17-09
 72
     1
 11
53.65671359704425
 21
-0.3158138848373895
 31
0.0
100
AcDbText
 73
     2
  0
LINE
  5
B0F
330
1F
100
AcDbEntity
  8
BORDER
100
AcDbLine
 10
51.46921359704425
 20
-0.6333489215349886
 30
0.0
 11
55.84421359704425
 21
-0.6333489215349886
 31
0.0
  0
TEXT
  5
B10
330
1F
100
AcDbEntity
  8
TEXT
100
AcDbText
 10
51.95401516866624
 20
-1.127668475563488
 30
0.0
 40
0.3125
  1
SHEET 1 OF 1
 72
     1
 11
53.67276516866624
 21
-0.9714184755634887
 31
0.0
100
AcDbText
 73
     2
  0
LINE
  5
B11
330
1F
100
AcDbEntity
  8
BORDER
100
AcDbLine
 10
62.22096629247733
 20
-0.0083489215349886
 30
0.0
 11
62.22096629247733
 21
-1.314486119888677
 31
0.0
  0
LINE
  5
B12
330
1F
100
AcDbEntity
  8
BORDER
100
AcDbLine
 10
55.84421359704425
 20
-0.0083489215349886
 30
0.0
 11
63.93446841127389
 21
-0.0083489215349886
 31
0.0
  0
LINE
  5
B13
330
1F
100
AcDbEntity
  8
BORDER
100
AcDbLine
 10
55.84421359704425
 20
1.24165107846501
 30
0.0
 11
63.93446841127389
 21
1.24165107846501
 31
0.0
  0
LINE
  5
B14
330
1F
100
AcDbEntity
  8
BORDER
100
AcDbLine
 10
55.84421359704425
 20
2.80415107846501
 30
0.0
 11
63.93446841127389
 21
2.80415107846501
 31
0.0
  0
TEXT
  5
B15
330
1F
100
AcDbEntity
  8
TEXT
100
AcDbText
 10
60.07163267082569
 20
1.296338578464997
 30
0.0
 40
0.15625
  1
FAX  724-837-3386
 72
     1
 11
61.37371600415903
 21
1.374463578464997
 31
0.0
100
AcDbText
 73
     2
  0
TEXT
  5
B16
330
1F
100
AcDbEntity
  8
TEXT
100
AcDbText
 10
59.31642433749236
 20
2.530713578465009
 30
0.0
 40
0.15625
  1
INDUSTRIAL COOLING EQUIPMENT
 72
     1
 11
61.37371600415903
 21
2.608838578465009
 31
0.0
100
AcDbText
 73
     2
  0
TEXT
  5
B17
330
1F
100
AcDbEntity
  8
TEXT
100
AcDbText
 10
60.09767433749236
 20
2.233838578464997
 30
0.0
 40
0.15625
  1
141 WILSON AVENUE
 72
     1
 11
61.37371600415903
 21
2.311963578464997
 31
0.0
100
AcDbText
 73
     2
  0
TEXT
  5
B18
330
1F
100
AcDbEntity
  8
TEXT
100
AcDbText
 10
59.86329933749236
 20
1.921338578464995
 30
0.0
 40
0.15625
  1
GREENSBURG, PA  15601
 72
     1
 11
61.37371600415903
 21
1.999463578464995
 31
0.0
100
AcDbText
 73
     2
  0
TEXT
  5
B19
330
1F
100
AcDbEntity
  8
TEXT
100
AcDbText
 10
59.01694517082569
 20
1.608838578464995
 30
0.0
 40
0.15625
  1
724-837-2204  *  1-888-867-8234
 72
     1
 11
61.37371600415903
 21
1.686963578464995
 31
0.0
100
AcDbText
 73
     2
  0
TEXT
  5
B1A
330
1F
100
AcDbEntity
  8
TEXT
100
AcDbText
 10
56.08690721446402
 20
0.1791510784650045
 30
0.0
 40
0.625
  1
IQ4-55-6000VS
 72
     1
 11
59.88899054779736
 21
0.4916510784650045
 31
0.0
100
AcDbText
 73
     2
  0
TEXT
  5
B1B
330
1F
100
AcDbEntity
  8
TEXT
100
AcDbText
 10
56.79300661142748
 20
-1.091105020711871
 30
0.0
 40
0.625
  1
IQ290925
 72
     1
 11
59.03258994476082
 21
-0.7786050207118721
 31
0.0
100
AcDbText
 73
     2
  0
TEXT
  5
B1C
330
1F
100
AcDbEntity
  8
TEXT
100
AcDbText
 10
62.97355068520895
 20
-1.091105020711871
 30
0.0
 40
0.625
  1
1
 72
     1
 11
63.07771735187561
 21
-0.7786050207118721
 31
0.0
100
AcDbText
 73
     2
  0
LINE
  5
B1D
330
1F
100
AcDbEntity
  8
BORDER
100
AcDbLine
 10
32.68169337175091
 20
-1.314486119888677
 30
0.0
 11
16.43619012582621
 21
-1.314486119888677
 31
0.0
  0
LINE
  5
B1E
330
1F
100
AcDbEntity
  8
BORDER
100
AcDbLine
 10
32.68169337175091
 20
1.185513880111414
 30
0.0
 11
32.68169337175091
 21
-1.314486119888677
 31
0.0
  0
LINE
  5
B1F
330
1F
100
AcDbEntity
  8
BORDER
100
AcDbLine
 10
16.43619012582621
 20
-0.8144861198886841
 30
0.0
 11
32.68169337175091
 21
-0.8144861198886841
 31
0.0
  0
LINE
  5
B20
330
1F
100
AcDbEntity
  8
BORDER
100
AcDbLine
 10
27.98619012582623
 20
-0.8144861198886841
 30
0.0
 11
27.98619012582623
 21
-0.3144861198886772
 31
0.0
  0
TEXT
  5
B21
330
1F
100
AcDbEntity
  8
TEXT
100
AcDbText
 10
28.62785679249289
 20
-0.6894861198887341
 30
0.0
 40
0.25
  1
DATE
 72
     1
 11
29.08619012582622
 21
-0.5644861198887341
 31
0.0
100
AcDbText
 73
     2
  0
LINE
  5
B22
330
1F
100
AcDbEntity
  8
BORDER
100
AcDbLine
 10
30.18619012582622
 20
-0.8144861198886841
 30
0.0
 11
30.18619012582622
 21
-0.3144861198886772
 31
0.0
  0
TEXT
  5
B23
330
1F
100
AcDbEntity
  8
TEXT
100
AcDbText
 10
30.60060841545523
 20
-0.6894861198887341
 30
0.0
 40
0.25
  1
CHECKED
 72
     1
 11
31.43394174878856
 21
-0.5644861198887341
 31
0.0
100
AcDbText
 73
     2
  0
TEXT
  5
B24
330
1F
100
AcDbEntity
  8
TEXT
100
AcDbText
 10
21.50806512582636
 20
-0.6894861198887341
 30
0.0
 40
0.25
  1
DESCRIPTION
 72
     1
 11
22.75806512582636
 21
-0.5644861198887341
 31
0.0
100
AcDbText
 73
     2
  0
LINE
  5
B25
330
1F
100
AcDbEntity
  8
BORDER
100
AcDbLine
 10
17.52994012582621
 20
-0.8144861198886841
 30
0.0
 11
17.52994012582621
 21
-0.3144861198886772
 31
0.0
  0
LINE
  5
B26
330
1F
100
AcDbEntity
  8
BORDER
100
AcDbLine
 10
16.43619012582621
 20
-1.314486119888677
 30
0.0
 11
16.43619012582621
 21
1.685513880111505
 31
0.0
  0
TEXT
  5
B27
330
1F
100
AcDbEntity
  8
TEXT
100
AcDbText
 10
16.60806512582621
 20
-0.6894861198887341
 30
0.0
 40
0.25
  1
REV
 72
     1
 11
16.98306512582621
 21
-0.5644861198887341
 31
0.0
100
AcDbText
 73
     2
  0
LINE
  5
B28
330
1F
100
AcDbEntity
  8
BORDER
100
AcDbLine
 10
32.68169337175091
 20
-0.3144861198886772
 30
0.0
 11
16.43619012582621
 21
-0.3144861198886772
 31
0.0
  0
LINE
  5
B29
330
1F
100
AcDbEntity
  8
BORDER
100
AcDbLine
 10
32.68169337175091
 20
-0.8144861198886841
 30
0.0
 11
16.43619012582621
 21
-0.8144861198886841
 31
0.0
  0
LINE
  5
B2A
330
1F
100
AcDbEntity
  8
BORDER
100
AcDbLine
 10
27.98619012582623
 20
-0.3144861198886772
 30
0.0
 11
27.98619012582623
 21
1.185513880111414
 31
0.0
  0
TEXT
  5
B2B
330
1F
100
AcDbEntity
  8
TEXT
100
AcDbText
 10
28.31535679249289
 20
-0.1894861198886773
 30
0.0
 40
0.25
  1
9-17-09
 72
     1
 11
29.08619012582622
 21
-0.0644861198886773
 31
0.0
100
AcDbText
 73
     2
  0
LINE
  5
B2C
330
1F
100
AcDbEntity
  8
BORDER
100
AcDbLine
 10
30.18619012582622
 20
-0.3144861198886772
 30
0.0
 11
30.18619012582622
 21
1.185513880111414
 31
0.0
  0
TEXT
  5
B2D
330
1F
100
AcDbEntity
  8
TEXT
100
AcDbText
 10
31.10060841545522
 20
-0.1894861198886773
 30
0.0
 40
0.25
  1
JJH
 72
     1
 11
31.43394174878856
 21
-0.0644861198886773
 31
0.0
100
AcDbText
 73
     2
  0
TEXT
  5
B2E
330
1F
100
AcDbEntity
  8
TEXT
100
AcDbText
 10
21.04973179249303
 20
-0.1894861198886773
 30
0.0
 40
0.25
  1
INITIAL RELEASE
 72
     1
 11
22.75806512582636
 21
-0.0644861198886773
 31
0.0
100
AcDbText
 73
     2
  0
LINE
  5
B2F
330
1F
100
AcDbEntity
  8
BORDER
100
AcDbLine
 10
17.52994012582621
 20
-0.3144861198886772
 30
0.0
 11
17.52994012582621
 21
1.185513880111414
 31
0.0
  0
TEXT
  5
B30
330
1F
100
AcDbEntity
  8
TEXT
100
AcDbText
 10
16.92056512582621
 20
-0.1894861198886773
 30
0.0
 40
0.25
  1
0
 72
     1
 11
16.98306512582621
 21
-0.0644861198886773
 31
0.0
100
AcDbText
 73
     2
  0
LINE
  5
B31
330
1F
100
AcDbEntity
  8
BORDER
100
AcDbLine
 10
32.68169337175091
 20
0.1855138801113654
 30
0.0
 11
16.43619012582621
 21
0.1855138801113654
 31
0.0
  0
TEXT
  5
E83
330
1F
100
AcDbEntity
  8
0
100
AcDbText
 10
35.81751887232669
 20
55.71114264746849
 30
0.0
 40
1.0
  1
IQ6000VS
 72
     1
 11
39.40085220566002
 21
55.71114264746849
 31
0.0
100
AcDbText
  0
TEXT
  5
E84
330
1F
100
AcDbEntity
  8
0
100
AcDbText
 10
35.73418553899336
 20
57.37780931413511
 30
0.0
 40
1.0
  1
IQ5500VS
 72
     1
 11
39.40085220566002
 21
57.37780931413511
 31
0.0
100
AcDbText
  0
TEXT
  5
129C
330
1F
100
AcDbEntity
  8
0
100
AcDbText
 10
35.81751887232669
 20
59.03657751776028
 30
0.0
 40
1.0
  1
IQ4000VS
 72
     1
 11
39.40085220566002
 21
59.03657751776028
 31
0.0
100
AcDbText
  0
LINE
  5
165C
330
1F
100
AcDbEntity
  8
DIMENSION
100
AcDbLine
 10
46.03039839175219
 20
42.88209945905504
 30
0.0
 11
46.03039839175219
 21
43.06209945905499
 31
0.0
  0
LINE
  5
165D
330
1F
100
AcDbEntity
  8
DIMENSION
100
AcDbLine
 10
45.94039839175205
 20
42.97209945905501
 30
0.0
 11
46.12039839175234
 21
42.97209945905501
 31
0.0
  0
LINE
  5
165E
330
1F
100
AcDbEntity
  8
DIMENSION
100
AcDbLine
 10
34.5303983917522
 20
42.88209945905504
 30
0.0
 11
34.5303983917522
 21
43.06209945905499
 31
0.0
  0
LINE
  5
165F
330
1F
100
AcDbEntity
  8
DIMENSION
100
AcDbLine
 10
34.44039839175206
 20
42.97209945905501
 30
0.0
 11
34.62039839175235
 21
42.97209945905501
 31
0.0
  0
LINE
  5
1660
330
1F
100
AcDbEntity
  8
DIMENSION
100
AcDbLine
 10
35.34689839175211
 20
35.45209945905487
 30
0.0
 11
35.34689839175211
 21
35.63209945905482
 31
0.0
  0
LINE
  5
1661
330
1F
100
AcDbEntity
  8
DIMENSION
100
AcDbLine
 10
35.25689839175196
 20
35.54209945905484
 30
0.0
 11
35.43689839175225
 21
35.54209945905484
 31
0.0
  0
LINE
  5
1662
330
1F
100
AcDbEntity
  8
DIMENSION
100
AcDbLine
 10
45.21539839175169
 20
35.45209945905487
 30
0.0
 11
45.21539839175169
 21
35.63209945905482
 31
0.0
  0
LINE
  5
1663
330
1F
100
AcDbEntity
  8
DIMENSION
100
AcDbLine
 10
45.12539839175154
 20
35.54209945905484
 30
0.0
 11
45.30539839175183
 21
35.54209945905484
 31
0.0
  0
LINE
  5
1664
330
1F
100
AcDbEntity
  8
DIMENSION
100
AcDbLine
 10
36.5303983917522
 20
29.88209945905504
 30
0.0
 11
36.5303983917522
 21
30.06209945905499
 31
0.0
  0
LINE
  5
1665
330
1F
100
AcDbEntity
  8
DIMENSION
100
AcDbLine
 10
36.44039839175206
 20
29.97209945905502
 30
0.0
 11
36.62039839175235
 21
29.97209945905502
 31
0.0
  0
LINE
  5
1666
330
1F
100
AcDbEntity
  8
DIMENSION
100
AcDbLine
 10
44.0303983917522
 20
29.88209945905504
 30
0.0
 11
44.0303983917522
 21
30.06209945905499
 31
0.0
  0
LINE
  5
1667
330
1F
100
AcDbEntity
  8
DIMENSION
100
AcDbLine
 10
43.94039839175206
 20
29.97209945905502
 30
0.0
 11
44.12039839175235
 21
29.97209945905502
 31
0.0
  0
LINE
  5
1668
330
1F
100
AcDbEntity
  8
DIMENSION
100
AcDbLine
 10
36.5303983917522
 20
16.88209945905504
 30
0.0
 11
36.5303983917522
 21
17.06209945905499
 31
0.0
  0
LINE
  5
1669
330
1F
100
AcDbEntity
  8
DIMENSION
100
AcDbLine
 10
36.44039839175206
 20
16.97209945905501
 30
0.0
 11
36.62039839175235
 21
16.97209945905501
 31
0.0
  0
LINE
  5
166A
330
1F
100
AcDbEntity
  8
DIMENSION
100
AcDbLine
 10
44.0303983917522
 20
16.88209945905504
 30
0.0
 11
44.0303983917522
 21
17.06209945905499
 31
0.0
  0
LINE
  5
166B
330
1F
100
AcDbEntity
  8
DIMENSION
100
AcDbLine
 10
43.94039839175206
 20
16.97209945905501
 30
0.0
 11
44.12039839175235
 21
16.97209945905501
 31
0.0
  0
DIMENSION
  5
166C
330
1F
100
AcDbEntity
  8
DIMENSION
100
AcDbDimension
  2
*D65
 10
39.86863362939832
 20
34.19025484801021
 30
0.0
 11
51.90249475680296
 21
28.2448748636374
 31
0.0
 70
   163
  1
<> (1)\PPOWER\PSUPPLY
 42
1.249999999999772
  3
Standard
100
AcDbDiametricDimension
 15
40.83216315410548
 25
33.39394407009933
 35
0.0
 40
0.0
1001
ACAD
1000
DSTYLE
1002
{
1070
   140
1040
0.75
1002
}
  0
DIMENSION
  5
166D
330
1F
100
AcDbEntity
  8
DIM
100
AcDbDimension
  2
*D66
 10
37.23610266964782
 20
34.42692235280186
 30
0.0
 11
47.34033064539669
 21
36.32141013334704
 31
0.0
 70
   163
  1
<> (1)\POPTIONAL:\PETHERNET\PCONNECTION\PPORT
 42
1.249999999999857
  3
Standard
100
AcDbDiametricDimension
 15
38.46469411385554
 25
34.65727656530777
 35
0.0
 40
0.0
1001
ACAD
1000
DSTYLE
1002
{
1070
   140
1040
0.75
1002
}
  0
DIMENSION
  5
166E
330
1F
100
AcDbEntity
  8
DIM
100
AcDbDimension
  2
*D67
 10
34.14639968227742
 20
15.03214145427228
 30
0.0
 11
29.07187390238436
 21
33.98123398527616
 31
0.0
 70
    38
 71
     5
 42
19.50995800478256
  3
Standard
100
AcDbOrdinateDimension
 13
37.85039839175191
 23
34.54209945905484
 33
0.0
 14
31.13437390238436
 24
33.98123398527616
 34
0.0
1001
ACAD
1000
DSTYLE
1002
{
1070
   140
1040
0.75
1070
    41
1040
1.0
1070
    43
1040
2.125
1070
    44
1040
1.0
1070
   141
1040
0.5
1070
   147
1040
0.5
1002
}
  0
DIMENSION
  5
166F
330
1F
100
AcDbEntity
  8
DIM
100
AcDbDimension
  2
*D68
 10
34.14639968227742
 20
15.03214145427228
 30
0.0
 11
37.8503983917519
 21
51.33758377304287
 31
0.0
 70
   102
 71
     5
 42
3.703998709474483
  3
Standard
100
AcDbOrdinateDimension
 13
37.85039839175191
 23
34.54209945905484
 33
0.0
 14
37.85039839175191
 24
49.40008377304287
 34
0.0
1001
ACAD
1000
DSTYLE
1002
{
1070
   140
1040
0.75
1070
    41
1040
1.0
1070
    43
1040
2.125
1070
    44
1040
1.0
1070
   141
1040
0.5
1070
   147
1040
0.5
1002
}
  0
DIMENSION
  5
1670
330
1F
100
AcDbEntity
  8
DIMENSION
100
AcDbDimension
  2
*D69
 10
40.72407867105334
 20
32.7930865336001
 30
0.0
 11
28.31432614382697
 21
22.75616604697962
 31
0.0
 70
   163
  1
<> (1)\POPTIONAL:\PEXTERNAL\PHEAT \POUTPUT
 71
     3
 42
1.249999999999893
  3
Standard
100
AcDbDiametricDimension
 15
39.97671811245094
 25
31.7911123845098
 35
0.0
 40
0.0
1001
ACAD
1000
DSTYLE
1002
{
1070
   140
1040
0.75
1002
}
  0
CIRCLE
  5
1671
330
1F
100
AcDbEntity
  8
TEMPLATE
100
AcDbCircle
 10
37.85039839175191
 20
34.54209945905484
 30
0.0
 40
0.625
  0
LINE
  5
1672
330
1F
100
AcDbEntity
  8
0
100
AcDbLine
 10
40.3503983917519
 20
32.66486387820066
 30
0.0
 11
40.3503983917519
 21
33.41933503990913
 31
0.0
  0
DIMENSION
  5
1673
330
1F
100
AcDbEntity
  8
DIM
100
AcDbDimension
  2
*D70
 10
34.14640556603693
 20
15.03207609338949
 30
0.0
 11
29.07020216471504
 21
31.23227521267575
 31
0.0
 70
    38
 71
     5
 42
17.26002336566535
  3
Standard
100
AcDbOrdinateDimension
 13
40.3503983917519
 23
32.29209945905484
 33
0.0
 14
31.25770216471504
 24
31.23227521267575
 34
0.0
1001
ACAD
1000
DSTYLE
1002
{
1070
   140
1040
0.75
1070
    41
1040
1.0
1070
    43
1040
2.125
1070
    44
1040
1.0
1070
   141
1040
0.5
1070
   147
1040
0.5
1002
}
  0
CIRCLE
  5
1674
330
1F
100
AcDbEntity
  8
TEMPLATE
100
AcDbCircle
 10
40.3503983917519
 20
32.29209945905484
 30
0.0
 40
0.625
  0
MTEXT
  5
1675
102
{ACAD_REACTORS
330
1676
102
}
330
1F
100
AcDbEntity
  8
DIM
100
AcDbMText
 10
49.96915185026522
 20
24.46761088979167
 30
0.0
 40
0.75
 41
0.0
 71
     1
 72
     1
  1
%%C0.375 (8)
 73
     1
 44
1.0
1001
ACAD
1000
MTEXTBEGIN
1070
    73
1070
     1
1070
    44
1040
1.0
1070
    74
1070
     0
1000
MTEXTEND
  0
LEADER
  5
1676
330
1F
100
AcDbEntity
  8
DIM
100
AcDbLeader
  3
Standard
 73
     0
 40
0.7500000000000002
 41
6.125
 76
     3
 10
44.25533150331033
 20
29.66033996413774
 30
0.0
 10
48.41639839175171
 20
23.96761088979167
 30
0.0
 10
49.46915185026522
 20
23.96761088979167
 30
0.0
213
0.0
223
-0.5
233
0.0
1001
ACAD
1000
DSTYLE
1002
{
1070
    77
1070
     0
1070
    41
1040
1.0
1070
    42
1040
0.375
1070
    43
1040
2.125
1070
    44
1040
1.0
1070
   140
1040
0.9999999999999998
1070
   141
1040
0.5
1070
   147
1040
0.5
1070
   271
1070
     3
1070
   272
1070
     3
1070
   288
1070
     1
1002
}
  0
TEXT
  5
1677
330
1F
100
AcDbEntity
  8
DIM
100
AcDbText
 10
45.90639839175195
 20
7.534924601081344
 30
0.0
 40
0.75
  1
11.069
 50
90.0
 72
     2
 11
45.53139839175194
 21
10.65992460108134
 31
0.0
100
AcDbText
 73
     2
  0
TEXT
  5
1678
330
1F
100
AcDbEntity
  8
DIM
100
AcDbText
 10
47.40639839175194
 20
7.284924601081344
 30
0.0
 40
0.75
  1
12.270
 50
90.0
 72
     2
 11
47.03139839175195
 21
10.65992460108134
 31
0.0
100
AcDbText
 73
     2
  0
TEXT
  5
1679
330
1F
100
AcDbEntity
  8
DIM
100
AcDbText
 10
44.40639839175195
 20
7.659924601081344
 30
0.0
 40
0.75
  1
9.884
 50
90.0
 72
     2
 11
44.03139839175195
 21
10.65992460108134
 31
0.0
100
AcDbText
 73
     2
  0
TEXT
  5
167A
330
1F
100
AcDbEntity
  8
DIM
100
AcDbText
 10
38.40639839175195
 20
7.659924601081344
 30
0.0
 40
0.75
  1
2.384
 50
90.0
 72
     2
 11
38.03139839175195
 21
10.65992460108134
 31
0.0
100
AcDbText
 73
     2
  0
TEXT
  5
167B
330
1F
100
AcDbEntity
  8
DIM
100
AcDbText
 10
35.40639839175195
 20
8.159924601081344
 30
0.0
 40
0.75
  1
1.200
 50
90.0
 72
     2
 11
35.03139839175195
 21
10.65992460108134
 31
0.0
100
AcDbText
 73
     2
  0
TEXT
  5
167C
330
1F
100
AcDbEntity
  8
DIM
100
AcDbText
 10
33.90639839175195
 20
8.159924601081344
 30
0.0
 40
0.75
  1
0.000
 50
90.0
 72
     2
 11
33.53139839175195
 21
10.65992460108134
 31
0.0
100
AcDbText
 73
     2
  0
LINE
  5
167D
330
1F
100
AcDbEntity
  8
DIM
100
AcDbLine
 10
46.41639839175171
 20
14.03492460108134
 30
0.0
 11
47.03139839175195
 21
12.03492460108134
 31
0.0
  0
LINE
  5
167E
330
1F
100
AcDbEntity
  8
DIM
100
AcDbLine
 10
45.21539839175169
 20
14.03492460108134
 30
0.0
 11
45.53139839175194
 21
12.03492460108134
 31
0.0
  0
LINE
  5
167F
330
1F
100
AcDbEntity
  8
DIM
100
AcDbLine
 10
44.0303983917522
 20
14.03492460108134
 30
0.0
 11
44.03139839175195
 21
12.03492460108134
 31
0.0
  0
LINE
  5
1680
330
1F
100
AcDbEntity
  8
DIM
100
AcDbLine
 10
36.5303983917522
 20
14.03492460108134
 30
0.0
 11
38.03139839175195
 21
12.03492460108134
 31
0.0
  0
LINE
  5
1681
330
1F
100
AcDbEntity
  8
DIM
100
AcDbLine
 10
35.34689839175211
 20
14.03492460108134
 30
0.0
 11
35.03139839175195
 21
12.03492460108134
 31
0.0
  0
LINE
  5
1682
330
1F
100
AcDbEntity
  8
DIM
100
AcDbLine
 10
34.14639839175219
 20
14.03492460108134
 30
0.0
 11
33.53139839175195
 21
12.03492460108134
 31
0.0
  0
LINE
  5
1683
330
1F
100
AcDbEntity
  8
DIM
100
AcDbLine
 10
47.03139839175195
 20
12.03492460108134
 30
0.0
 11
47.03139839175195
 21
11.03492460108134
 31
0.0
  0
LINE
  5
1684
330
1F
100
AcDbEntity
  8
DIM
100
AcDbLine
 10
33.53139839175195
 20
12.03492460108134
 30
0.0
 11
33.53139839175195
 21
11.03492460108134
 31
0.0
  0
LINE
  5
1685
330
1F
100
AcDbEntity
  8
DIM
100
AcDbLine
 10
45.53139839175194
 20
12.03492460108134
 30
0.0
 11
45.53139839175194
 21
11.03492460108134
 31
0.0
  0
LINE
  5
1686
330
1F
100
AcDbEntity
  8
DIM
100
AcDbLine
 10
35.03139839175195
 20
12.03492460108134
 30
0.0
 11
35.03139839175195
 21
11.03492460108134
 31
0.0
  0
LINE
  5
1687
330
1F
100
AcDbEntity
  8
DIM
100
AcDbLine
 10
44.03139839175195
 20
12.03492460108134
 30
0.0
 11
44.03139839175195
 21
11.03492460108134
 31
0.0
  0
LINE
  5
1688
330
1F
100
AcDbEntity
  8
DIM
100
AcDbLine
 10
38.03139839175195
 20
12.03492460108134
 30
0.0
 11
38.03139839175195
 21
11.03492460108134
 31
0.0
  0
LINE
  5
1689
330
1F
100
AcDbEntity
  8
DIM
100
AcDbLine
 10
46.41639839175171
 20
14.65709945905485
 30
0.0
 11
46.41639839175171
 21
14.03492460108134
 31
0.0
  0
LINE
  5
168A
330
1F
100
AcDbEntity
  8
DIM
100
AcDbLine
 10
45.21539839175169
 20
35.16709945905484
 30
0.0
 11
45.21539839175169
 21
14.03492460108134
 31
0.0
  0
LINE
  5
168B
330
1F
100
AcDbEntity
  8
DIM
100
AcDbLine
 10
44.0303983917522
 20
16.59709945905501
 30
0.0
 11
44.0303983917522
 21
14.03492460108134
 31
0.0
  0
LINE
  5
168C
330
1F
100
AcDbEntity
  8
DIM
100
AcDbLine
 10
36.5303983917522
 20
16.59709945905501
 30
0.0
 11
36.5303983917522
 21
14.03492460108134
 31
0.0
  0
LINE
  5
168D
330
1F
100
AcDbEntity
  8
DIM
100
AcDbLine
 10
34.14639839175219
 20
14.65709945905485
 30
0.0
 11
34.14639839175219
 21
14.03492460108134
 31
0.0
  0
LINE
  5
168E
330
1F
100
AcDbEntity
  8
DIM
100
AcDbLine
 10
35.34689839175211
 20
35.16709945905484
 30
0.0
 11
35.34689839175211
 21
14.03492460108134
 31
0.0
  0
DIMENSION
  5
168F
330
1F
100
AcDbEntity
  8
DIM
100
AcDbDimension
  2
*D71
 10
34.14640556603693
 20
15.03207609338949
 30
0.0
 11
28.39639839175219
 21
15.03209945905485
 31
0.0
 70
    38
 71
     5
 42
0.0000233656653563
  3
Standard
100
AcDbOrdinateDimension
 13
34.14639839175219
 23
15.03209945905485
 33
0.0
 14
30.14639839175219
 24
15.03209945905485
 34
0.0
1001
ACAD
1000
DSTYLE
1002
{
1070
    41
1040
1.0
1070
    42
1040
0.375
1070
    43
1040
2.125
1070
    44
1040
1.0
1070
   140
1040
0.75
1070
   141
1040
0.5
1070
   147
1040
0.5
1070
   271
1070
     3
1070
   272
1070
     3
1070
   288
1070
     1
1002
}
  0
DIMENSION
  5
1690
330
1F
100
AcDbEntity
  8
DIM
100
AcDbDimension
  2
*D72
 10
34.14640556603693
 20
15.03207609338949
 30
0.0
 11
28.33389839175218
 21
16.97209945905501
 31
0.0
 70
    38
 71
     5
 42
1.940023365665522
  3
Standard
100
AcDbOrdinateDimension
 13
36.5303983917522
 23
16.97209945905501
 33
0.0
 14
30.14639839175219
 24
16.97209945905501
 34
0.0
1001
ACAD
1000
DSTYLE
1002
{
1070
   140
1040
0.75
1070
    41
1040
1.0
1070
    43
1040
2.125
1070
    44
1040
1.0
1070
   141
1040
0.5
1070
   147
1040
0.5
1002
}
  0
DIMENSION
  5
1691
330
1F
100
AcDbEntity
  8
DIM
100
AcDbDimension
  2
*D73
 10
34.14640556603693
 20
15.03207609338949
 30
0.0
 11
28.02139839175218
 21
35.54209945905484
 31
0.0
 70
    38
 71
     5
 42
20.51002336566535
  3
Standard
100
AcDbOrdinateDimension
 13
35.34689839175211
 23
35.54209945905484
 33
0.0
 14
30.14639839175219
 24
35.54209945905484
 34
0.0
1001
ACAD
1000
DSTYLE
1002
{
1070
   140
1040
0.75
1070
    41
1040
1.0
1070
    43
1040
2.125
1070
    44
1040
1.0
1070
   141
1040
0.5
1070
   147
1040
0.5
1002
}
  0
DIMENSION
  5
1692
330
1F
100
AcDbEntity
  8
DIM
100
AcDbDimension
  2
*D74
 10
34.14640556603693
 20
15.03207609338949
 30
0.0
 11
28.08389839175219
 21
37.53109945905499
 31
0.0
 70
    38
  1
21.000
 71
     5
 42
20.99902336566549
  3
Standard
100
AcDbOrdinateDimension
 13
34.74314839175189
 23
36.03109945905499
 33
0.0
 14
30.14639839175219
 24
37.53109945905499
 34
0.0
1001
ACAD
1000
DSTYLE
1002
{
1070
   140
1040
0.75
1070
    41
1040
1.0
1070
    43
1040
2.125
1070
    44
1040
1.0
1070
   141
1040
0.5
1070
   147
1040
0.5
1002
}
  0
LINE
  5
1693
330
1F
100
AcDbEntity
  8
TEMPLATE
  6
HIDDEN
100
AcDbLine
 10
46.41639839175171
 20
15.03209945905485
 30
0.0
 11
46.41639839175171
 21
45.12309945905508
 31
0.0
  0
LINE
  5
1694
330
1F
100
AcDbEntity
  8
TEMPLATE
  6
HIDDEN
100
AcDbLine
 10
34.14639839175219
 20
15.03209945905485
 30
0.0
 11
34.14639839175219
 21
45.12309945905508
 31
0.0
  0
LINE
  5
1695
330
1F
100
AcDbEntity
  8
TEMPLATE
  6
HIDDEN
100
AcDbLine
 10
34.221398391752
 20
15.03209945905485
 30
0.0
 11
46.34039839175168
 21
15.03209945905485
 31
0.0
  0
LINE
  5
1696
330
1F
100
AcDbEntity
  8
TEMPLATE
  6
HIDDEN
100
AcDbLine
 10
34.14639839175219
 20
15.03209945905485
 30
0.0
 11
46.41639839175171
 21
15.03209945905485
 31
0.0
  0
LINE
  5
1697
330
1F
100
AcDbEntity
  8
TEMPLATE
100
AcDbLine
 10
46.90539839175174
 20
15.59459945905485
 30
0.0
 11
46.90539839175174
 21
15.96959945905485
 31
0.0
  0
LINE
  5
1699
330
1F
100
AcDbEntity
  8
TEMPLATE
100
AcDbLine
 10
46.90539839175174
 20
15.59459945905485
 30
0.0
 11
46.41639839175171
 21
15.59459945905485
 31
0.0
  0
LINE
  5
169B
330
1F
100
AcDbEntity
  8
TEMPLATE
100
AcDbLine
 10
46.90539839175174
 20
15.96959945905485
 30
0.0
 11
46.41639839175171
 21
15.96959945905496
 31
0.0
  0
CIRCLE
  5
169C
330
1F
100
AcDbEntity
  8
TEMPLATE
100
AcDbCircle
 10
44.0303983917522
 20
16.97209945905501
 30
0.0
 40
0.1875
  0
CIRCLE
  5
169D
330
1F
100
AcDbEntity
  8
TEMPLATE
100
AcDbCircle
 10
36.5303983917522
 20
16.97209945905501
 30
0.0
 40
0.1875
  0
CIRCLE
  5
169E
330
1F
100
AcDbEntity
  8
TEMPLATE
100
AcDbCircle
 10
44.0303983917522
 20
29.97209945905502
 30
0.0
 40
0.1875
  0
CIRCLE
  5
169F
330
1F
100
AcDbEntity
  8
TEMPLATE
100
AcDbCircle
 10
36.5303983917522
 20
29.97209945905502
 30
0.0
 40
0.1875
  0
LINE
  5
16A0
330
1F
100
AcDbEntity
  8
TEMPLATE
100
AcDbLine
 10
34.74314839175189
 20
44.78109945905487
 30
0.0
 11
34.74314839175189
 21
36.03109945905499
 31
0.0
  0
LINE
  5
16A1
330
1F
100
AcDbEntity
  8
TEMPLATE
100
AcDbLine
 10
40.80564839175188
 20
36.03109945905499
 30
0.0
 11
40.80564839175188
 21
44.78109945905487
 31
0.0
  0
LINE
  5
16A2
330
1F
100
AcDbEntity
  8
TEMPLATE
100
AcDbLine
 10
41.58664839175183
 20
44.33959945905473
 30
0.0
 11
41.58664839175183
 21
39.88959945905504
 31
0.0
  0
LINE
  5
16A3
330
1F
100
AcDbEntity
  8
TEMPLATE
100
AcDbLine
 10
44.42414839175192
 20
39.88959945905504
 30
0.0
 11
44.42414839175192
 21
44.33959945905473
 31
0.0
  0
LINE
  5
16A4
330
1F
100
AcDbEntity
  8
TEMPLATE
100
AcDbLine
 10
44.42414839175192
 20
39.88959945905504
 30
0.0
 11
41.58664839175183
 21
39.88959945905504
 31
0.0
  0
CIRCLE
  5
16A5
330
1F
100
AcDbEntity
  8
TEMPLATE
100
AcDbCircle
 10
45.21539839175169
 20
35.54209945905484
 30
0.0
 40
0.1875
  0
CIRCLE
  5
16A6
330
1F
100
AcDbEntity
  8
TEMPLATE
100
AcDbCircle
 10
40.3503983917519
 20
33.79209945905484
 30
0.0
 40
0.625
  0
LINE
  5
16A7
330
1F
100
AcDbEntity
  8
TEMPLATE
100
AcDbLine
 10
40.80564839175188
 20
36.03109945905499
 30
0.0
 11
34.74314839175189
 21
36.03109945905499
 31
0.0
  0
CIRCLE
  5
16A8
330
1F
100
AcDbEntity
  8
TEMPLATE
100
AcDbCircle
 10
35.34689839175211
 20
35.54209945905484
 30
0.0
 40
0.1875
  0
LINE
  5
16A9
330
1F
100
AcDbEntity
  8
TEMPLATE
  6
HIDDEN
100
AcDbLine
 10
34.14639839175219
 20
45.12309945905508
 30
0.0
 11
46.41639839175171
 21
45.12309945905508
 31
0.0
  0
LINE
  5
16AA
330
1F
100
AcDbEntity
  8
TEMPLATE
100
AcDbLine
 10
41.58664839175183
 20
44.33959945905473
 30
0.0
 11
44.42414839175192
 21
44.33959945905473
 31
0.0
  0
CIRCLE
  5
16AB
330
1F
100
AcDbEntity
  8
TEMPLATE
100
AcDbCircle
 10
46.03039839175219
 20
42.97209945905501
 30
0.0
 40
0.1875
  0
LINE
  5
16AC
330
1F
100
AcDbEntity
  8
TEMPLATE
100
AcDbLine
 10
34.74314839175189
 20
44.78109945905487
 30
0.0
 11
40.80564839175188
 21
44.78109945905487
 31
0.0
  0
CIRCLE
  5
16AD
330
1F
100
AcDbEntity
  8
TEMPLATE
100
AcDbCircle
 10
34.5303983917522
 20
42.97209945905501
 30
0.0
 40
0.1875
  0
DIMENSION
  5
16AE
330
1F
100
AcDbEntity
  8
DIM
100
AcDbDimension
  2
*D75
 10
34.14639968227742
 20
15.03214145427228
 30
0.0
 11
53.51493729703655
 21
40.97990785359445
 31
0.0
 70
   166
 71
     5
 42
24.85745800478276
  3
Standard
100
AcDbOrdinateDimension
 13
44.42414839175238
 23
39.88959945905504
 33
0.0
 14
51.13993729703655
 24
40.97990785359445
 34
0.0
1001
ACAD
1000
DSTYLE
1002
{
1070
   140
1040
0.75
1070
    41
1040
1.0
1070
    43
1040
2.125
1070
    44
1040
1.0
1070
   141
1040
0.5
1070
   147
1040
0.5
1002
}
  0
DIMENSION
  5
16AF
330
1F
100
AcDbEntity
  8
DIM
100
AcDbDimension
  2
*D76
 10
34.14639968227742
 20
15.03214145427228
 30
0.0
 11
52.74637865810358
 21
43.58769477754026
 31
0.0
 70
    38
 71
     5
 42
29.30745800478246
  3
Standard
100
AcDbOrdinateDimension
 13
44.42414839175056
 23
44.33959945905473
 33
0.0
 14
50.43387865810358
 24
43.58769477754026
 34
0.0
1001
ACAD
1000
DSTYLE
1002
{
1070
   140
1040
0.75
1070
    41
1040
1.0
1070
    43
1040
2.125
1070
    44
1040
1.0
1070
   141
1040
0.5
1070
   147
1040
0.5
1002
}
  0
DIMENSION
  5
16B0
330
1F
100
AcDbEntity
  8
DIM
100
AcDbDimension
  2
*D77
 10
34.14639968227742
 20
15.03214145427228
 30
0.0
 11
52.55887865810358
 21
45.12309945905508
 31
0.0
 70
    38
 71
     5
 42
30.09095800478281
  3
Standard
100
AcDbOrdinateDimension
 13
46.41639839175171
 23
45.12309945905508
 33
0.0
 14
50.43387865810358
 24
45.12309945905508
 34
0.0
1001
ACAD
1000
DSTYLE
1002
{
1070
   140
1040
0.75
1070
    41
1040
1.0
1070
    43
1040
2.125
1070
    44
1040
1.0
1070
   141
1040
0.5
1070
   147
1040
0.5
1002
}
  0
DIMENSION
  5
16B1
330
1F
100
AcDbEntity
  8
DIM
100
AcDbDimension
  2
*D78
 10
34.14639968227742
 20
15.03214145427228
 30
0.0
 11
46.03039839175218
 21
51.16776004893189
 31
0.0
 70
   102
 71
     5
 42
11.88399870947477
  3
Standard
100
AcDbOrdinateDimension
 13
46.03039839175219
 23
42.97209945905501
 33
0.0
 14
46.03039839175219
 24
49.04276004893188
 34
0.0
1001
ACAD
1000
DSTYLE
1002
{
1070
   140
1040
0.75
1070
    41
1040
1.0
1070
    43
1040
2.125
1070
    44
1040
1.0
1070
   141
1040
0.5
1070
   147
1040
0.5
1002
}
  0
DIMENSION
  5
16B2
330
1F
100
AcDbEntity
  8
DIM
100
AcDbDimension
  2
*D79
 10
34.14639968227742
 20
15.03214145427228
 30
0.0
 11
44.42414839175055
 21
51.31143634738362
 31
0.0
 70
   102
 71
     5
 42
10.27774870947314
  3
Standard
100
AcDbOrdinateDimension
 13
44.42414839175056
 23
44.33959945905473
 33
0.0
 14
44.42414839175056
 24
49.12393634738362
 34
0.0
1001
ACAD
1000
DSTYLE
1002
{
1070
   140
1040
0.75
1070
    41
1040
1.0
1070
    43
1040
2.125
1070
    44
1040
1.0
1070
   141
1040
0.5
1070
   147
1040
0.5
1002
}
  0
DIMENSION
  5
16B3
330
1F
100
AcDbEntity
  8
DIM
100
AcDbDimension
  2
*D80
 10
34.14639968227742
 20
15.03214145427228
 30
0.0
 11
33.25468402517228
 21
51.02896567202527
 31
0.0
 70
   102
 71
     5
 42
0.3839987094747741
  3
Standard
100
AcDbOrdinateDimension
 13
34.5303983917522
 23
42.97209945905501
 33
0.0
 14
33.2546840251723
 24
49.09146567202526
 34
0.0
1001
ACAD
1000
DSTYLE
1002
{
1070
   140
1040
0.75
1070
    41
1040
1.0
1070
    43
1040
2.125
1070
    44
1040
1.0
1070
   141
1040
0.5
1070
   147
1040
0.5
1002
}
  0
DIMENSION
  5
16B4
330
1F
100
AcDbEntity
  8
DIM
100
AcDbDimension
  2
*D81
 10
34.14639968227742
 20
15.03214145427228
 30
0.0
 11
42.3562440127973
 21
51.06143634738362
 31
0.0
 70
   102
 71
     5
 42
7.44024870947441
  3
Standard
100
AcDbOrdinateDimension
 13
41.58664839175183
 23
44.33959945905473
 33
0.0
 14
42.35624401279731
 24
49.12393634738362
 34
0.0
1001
ACAD
1000
DSTYLE
1002
{
1070
   140
1040
0.75
1070
    41
1040
1.0
1070
    43
1040
2.125
1070
    44
1040
1.0
1070
   141
1040
0.5
1070
   147
1040
0.5
1002
}
  0
DIMENSION
  5
16B5
330
1F
100
AcDbEntity
  8
DIM
100
AcDbDimension
  2
*D82
 10
34.14639968227742
 20
15.03214145427228
 30
0.0
 11
40.80564839175187
 21
51.12393634738363
 31
0.0
 70
   102
 71
     5
 42
6.659248709474461
  3
Standard
100
AcDbOrdinateDimension
 13
40.80564839175188
 23
44.7810994590551
 33
0.0
 14
40.80564839175188
 24
49.12393634738362
 34
0.0
1001
ACAD
1000
DSTYLE
1002
{
1070
   140
1040
0.75
1070
    41
1040
1.0
1070
    43
1040
2.125
1070
    44
1040
1.0
1070
   141
1040
0.5
1070
   147
1040
0.5
1002
}
  0
DIMENSION
  5
16B6
330
1F
100
AcDbEntity
  8
DIM
100
AcDbDimension
  2
*D83
 10
34.14639968227742
 20
15.03214145427228
 30
0.0
 11
34.74314839175188
 21
51.06143634738362
 31
0.0
 70
   102
 71
     5
 42
0.5967487094744613
  3
Standard
100
AcDbOrdinateDimension
 13
34.74314839175189
 23
44.78109945905487
 33
0.0
 14
34.74314839175189
 24
49.12393634738362
 34
0.0
1001
ACAD
1000
DSTYLE
1002
{
1070
   140
1040
0.75
1070
    41
1040
1.0
1070
    43
1040
2.125
1070
    44
1040
1.0
1070
   141
1040
0.5
1070
   147
1040
0.5
1002
}
  0
DIMENSION
  5
16B7
330
1F
100
AcDbEntity
  8
DIM
100
AcDbDimension
  2
*D84
 10
34.14639968227742
 20
15.03214145427228
 30
0.0
 11
29.82992821419542
 21
44.78109945905487
 31
0.0
 70
    38
  1
29.750
 71
     5
 42
29.7489580047826
  3
Standard
100
AcDbOrdinateDimension
 13
34.74314839175189
 23
44.78109945905487
 33
0.0
 14
32.14242821419542
 24
44.78109945905487
 34
0.0
1001
ACAD
1000
DSTYLE
1002
{
1070
   140
1040
0.75
1070
    41
1040
1.0
1070
    43
1040
2.125
1070
    44
1040
1.0
1070
   141
1040
0.5
1070
   147
1040
0.5
1002
}
  0
DIMENSION
  5
16B8
330
1F
100
AcDbEntity
  8
DIM
100
AcDbDimension
  2
*D85
 10
34.14639968227742
 20
15.03214145427228
 30
0.0
 11
29.82992821419542
 21
42.97209945905501
 31
0.0
 70
    38
 71
     5
 42
27.93995800478274
  3
Standard
100
AcDbOrdinateDimension
 13
34.5303983917522
 23
42.97209945905501
 33
0.0
 14
32.14242821419542
 24
42.97209945905501
 34
0.0
1001
ACAD
1000
DSTYLE
1002
{
1070
   140
1040
0.75
1070
    41
1040
1.0
1070
    43
1040
2.125
1070
    44
1040
1.0
1070
   141
1040
0.5
1070
   147
1040
0.5
1002
}
  0
DIMENSION
  5
16B9
330
1F
100
AcDbEntity
  8
DIM
100
AcDbDimension
  2
*D86
 10
34.14639968227742
 20
15.03214145427228
 30
0.0
 11
29.07020216471504
 21
32.57989809812182
 31
0.0
 70
    38
 71
     5
 42
18.75995800478256
  3
Standard
100
AcDbOrdinateDimension
 13
40.3503983917519
 23
33.79209945905484
 33
0.0
 14
31.25770216471504
 24
32.57989809812182
 34
0.0
1001
ACAD
1000
DSTYLE
1002
{
1070
   140
1040
0.75
1070
    41
1040
1.0
1070
    43
1040
2.125
1070
    44
1040
1.0
1070
   141
1040
0.5
1070
   147
1040
0.5
1002
}
  0
DIMENSION
  5
16BA
330
1F
100
AcDbEntity
  8
DIM
100
AcDbDimension
  2
*D87
 10
34.14639968227742
 20
15.03214145427228
 30
0.0
 11
28.50770216471504
 21
28.5369025706683
 31
0.0
 70
   166
 71
     5
 42
14.93995800478274
  3
Standard
100
AcDbOrdinateDimension
 13
36.5303983917522
 23
29.97209945905502
 33
0.0
 14
30.69520216471504
 24
28.5369025706683
 34
0.0
1001
ACAD
1000
DSTYLE
1002
{
1070
   140
1040
0.75
1070
    41
1040
1.0
1070
    43
1040
2.125
1070
    44
1040
1.0
1070
   141
1040
0.5
1070
   147
1040
0.5
1002
}
  0
TEXT
  5
16BB
330
1F
100
AcDbEntity
  8
TEXT
100
AcDbText
 10
2256.495715316649
 20
-269.605764092069
 30
0.0
 40
1.0
  1
IQ5500VS
 72
     1
 11
2260.162381983315
 21
-269.605764092069
 31
0.0
100
AcDbText
  0
TEXT
  5
16BC
330
1F
100
AcDbEntity
  8
TEXT
100
AcDbText
 10
2253.329048649982
 20
-271.2724307587356
 30
0.0
 40
1.0
  1
CUTOUT DRAWING
 72
     1
 11
2260.162381983315
 21
-271.2724307587356
 31
0.0
100
AcDbText
  0
LINE
  5
16BD
330
1F
100
AcDbEntity
  8
0
100
AcDbLine
 10
40.3503983917519
 20
31.91709945905484
 30
0.0
 11
40.3503983917519
 21
11.16009641916275
 31
0.0
  0
MTEXT
  5
16BE
330
1F
100
AcDbEntity
  8
0
100
AcDbMText
 10
40.3503983917519
 20
8.743429752496128
 30
0.0
 40
0.75
 41
0.0
 71
     5
 72
     1
  1
\A1;6.204
 11
0.0000000000000001
 21
1.0
 31
0.0
 73
     1
 44
1.0
1001
ACAD
1000
MTEXTBEGIN
1070
    73
1070
     1
1070
    44
1040
1.0
1070
    74
1070
     0
1000
MTEXTEND
  0
TEXT
  5
1B6B
330
1F
100
AcDbEntity
  8
TEXT
100
AcDbText
 10
16.94139845915954
 20
0.8105138801113723
 30
0.0
 40
0.25
  1
1
 72
     1
 11
16.98306512582621
 21
0.9355138801113723
 31
0.0
100
AcDbText
 73
     2
  0
TEXT
  5
1B6C
330
1F
100
AcDbEntity
  8
TEXT
100
AcDbText
 10
17.77889845915969
 20
0.8105138801113723
 30
0.0
 40
0.25
  1
REMOVED IQ3800VS, ADDED IQ5500VS, IQ6000VS
 72
     1
 11
22.75806512582636
 21
0.9355138801113723
 31
0.0
100
AcDbText
 73
     2
  0
TEXT
  5
1B6D
330
1F
100
AcDbEntity
  8
TEXT
100
AcDbText
 10
28.37785679249289
 20
0.8105138801113723
 30
0.0
 40
0.25
  1
7-21-11
 72
     1
 11
29.08619012582622
 21
0.9355138801113723
 31
0.0
100
AcDbText
 73
     2
  0
TEXT
  5
1B6E
330
1F
100
AcDbEntity
  8
TEXT
100
AcDbText
 10
31.10060841545522
 20
0.8105138801113723
 30
0.0
 40
0.25
  1
JJH
 72
     1
 11
31.43394174878856
 21
0.9355138801113723
 31
0.0
100
AcDbText
 73
     2
  0
LINE
  5
1B6F
330
1F
100
AcDbEntity
  8
BORDER
100
AcDbLine
 10
32.68169337175091
 20
1.185513880111414
 30
0.0
 11
16.43619012582621
 21
1.185513880111414
 31
0.0
  0
TEXT
  5
1B72
330
1F
100
AcDbEntity
  8
TEXT
100
AcDbText
 10
19.09139845915969
 20
0.3105138801113296
 30
0.0
 40
0.25
  1
ADDED ETHERNET CONNECTION PORT
 72
     1
 11
22.75806512582636
 21
0.4355138801113297
 31
0.0
100
AcDbText
 73
     2
  0
TEXT
  5
1B73
330
1F
100
AcDbEntity
  8
0
100
AcDbText
 10
32.56751887232668
 20
54.04447598080187
 30
0.0
 40
1.0
  1
CUTOUT DRAWING
 72
     1
 11
39.40085220566002
 21
54.04447598080187
 31
0.0
100
AcDbText
  0
ENDSEC
  0
SECTION
  2
OBJECTS
  0
DICTIONARY
  5
C
330
0
100
AcDbDictionary
281
     1
  3
ACAD_COLOR
350
73
  3
ACAD_GROUP
350
D
  3
ACAD_LAYOUT
350
1A
  3
ACAD_MATERIAL
350
72
  3
ACAD_MLINESTYLE
350
17
  3
ACAD_PLOTSETTINGS
350
19
  3
ACAD_PLOTSTYLENAME
350
E
  3
ACDBHEADERROUNDTRIPXREC
350
1B95
  3
AcDbVariableDictionary
350
66
  0
DICTIONARY
  5
142
330
2
100
AcDbDictionary
280
     1
281
     1
  3
ACAD_LAYERSTATES
360
143
  0
DICTIONARY
  5
73
102
{ACAD_REACTORS
330
C
102
}
330
C
100
AcDbDictionary
281
     1
  0
DICTIONARY
  5
D
102
{ACAD_REACTORS
330
C
102
}
330
C
100
AcDbDictionary
281
     1
  0
DICTIONARY
  5
1A
102
{ACAD_REACTORS
330
C
102
}
330
C
100
AcDbDictionary
281
     1
  3
Layout1
350
59
  3
Layout2
350
5E
  3
Model
350
22
  0
DICTIONARY
  5
72
102
{ACAD_REACTORS
330
C
102
}
330
C
100
AcDbDictionary
281
     1
  0
DICTIONARY
  5
17
102
{ACAD_REACTORS
330
C
102
}
330
C
100
AcDbDictionary
281
     1
  3
Standard
350
18
  0
DICTIONARY
  5
19
102
{ACAD_REACTORS
330
C
102
}
330
C
100
AcDbDictionary
281
     1
  0
ACDBDICTIONARYWDFLT
  5
E
102
{ACAD_REACTORS
330
C
102
}
330
C
100
AcDbDictionary
281
     1
  3
Normal
350
F
100
AcDbDictionaryWithDefault
340
F
  0
DICTIONARY
  5
1B95
102
{ACAD_REACTORS
330
C
102
}
330
C
100
AcDbDictionary
281
     1
  3
COLORDICT
350
1B97
  3
MATERIALDICT
350
1B96
  0
DICTIONARY
  5
66
102
{ACAD_REACTORS
330
C
102
}
330
C
100
AcDbDictionary
281
     1
  3
DIMASSOC
350
67
  3
HIDETEXT
350
6B
  3
PROJECTNAME
350
13AF
  0
DICTIONARY
  5
143
102
{ACAD_REACTORS
330
142
102
}
330
142
100
AcDbDictionary
281
     1
  0
LAYOUT
  5
59
102
{ACAD_XDICTIONARY
360
1B9A
102
}
102
{ACAD_REACTORS
330
1A
102
}
330
1A
100
AcDbPlotSettings
  1

  2
None
  4

  6

 40
0.0
 41
0.0
 42
0.0
 43
0.0
 44
0.0
 45
0.0
 46
0.0
 47
0.0
 48
0.0
 49
0.0
140
0.0
141
0.0
142
1.0
143
1.0
 70
   688
 72
     0
 73
     0
 74
     5
  7

 75
    16
147
1.0
148
0.0
149
0.0
100
AcDbLayout
  1
Layout1
 70
     1
 71
     1
 10
0.0
 20
0.0
 11
12.0
 21
9.0
 12
0.0
 22
0.0
 32
0.0
 14
0.0
 24
0.0
 34
0.0
 15
0.0
 25
0.0
 35
0.0
146
0.0
 13
0.0
 23
0.0
 33
0.0
 16
1.0
 26
0.0
 36
0.0
 17
0.0
 27
1.0
 37
0.0
 76
     0
330
58
  0
LAYOUT
  5
5E
102
{ACAD_XDICTIONARY
360
1B9C
102
}
102
{ACAD_REACTORS
330
1A
102
}
330
1A
100
AcDbPlotSettings
  1

  2
None
  4

  6

 40
0.0
 41
0.0
 42
0.0
 43
0.0
 44
0.0
 45
0.0
 46
0.0
 47
0.0
 48
0.0
 49
0.0
140
0.0
141
0.0
142
1.0
143
1.0
 70
   688
 72
     0
 73
     0
 74
     5
  7

 75
    16
147
1.0
148
0.0
149
0.0
100
AcDbLayout
  1
Layout2
 70
     1
 71
     2
 10
0.0
 20
0.0
 11
12.0
 21
9.0
 12
0.0
 22
0.0
 32
0.0
 14
0.0
 24
0.0
 34
0.0
 15
0.0
 25
0.0
 35
0.0
146
0.0
 13
0.0
 23
0.0
 33
0.0
 16
1.0
 26
0.0
 36
0.0
 17
0.0
 27
1.0
 37
0.0
 76
     0
330
5D
  0
LAYOUT
  5
22
102
{ACAD_XDICTIONARY
360
1B98
102
}
102
{ACAD_REACTORS
330
1A
102
}
330
1A
100
AcDbPlotSettings
  1

  2
none_device
  4
ANSI_A_(8.50_x_11.00_Inches)
  6

 40
6.349999904632567
 41
19.04999923706055
 42
6.350006103515625
 43
19.04998779296875
 44
215.8999938964844
 45
279.3999938964844
 46
0.0
 47
0.0
 48
0.0
 49
0.0
140
0.0
141
0.0
142
1.0
143
2.584895464708373
 70
 11952
 72
     0
 73
     1
 74
     0
  7

 75
     0
147
0.3868628397755418
148
0.0
149
0.0
100
AcDbLayout
  1
Model
 70
     1
 71
     0
 10
0.0
 20
0.0
 11
12.0
 21
9.0
 12
0.0
 22
0.0
 32
0.0
 14
0.0
 24
0.0
 34
0.0
 15
0.0
 25
0.0
 35
0.0
146
0.0
 13
0.0
 23
0.0
 33
0.0
 16
1.0
 26
0.0
 36
0.0
 17
0.0
 27
1.0
 37
0.0
 76
     0
330
1F
  0
MLINESTYLE
  5
18
102
{ACAD_REACTORS
330
17
102
}
330
17
100
AcDbMlineStyle
  2
STANDARD
 70
     0
  3

 62
   256
 51
90.0
 52
90.0
 71
     2
 49
0.5
 62
   256
  6
BYLAYER
 49
-0.5
 62
   256
  6
BYLAYER
  0
ACDBPLACEHOLDER
  5
F
102
{ACAD_REACTORS
330
E
102
}
330
E
  0
XRECORD
  5
1B97
102
{ACAD_REACTORS
330
1B95
102
}
330
1B95
100
AcDbXrecord
280
     1
340
73
  0
XRECORD
  5
1B96
102
{ACAD_REACTORS
330
1B95
102
}
330
1B95
100
AcDbXrecord
280
     1
340
72
  0
DICTIONARYVAR
  5
67
102
{ACAD_REACTORS
330
66
102
}
330
66
100
DictionaryVariables
280
     0
  1
2
  0
DICTIONARYVAR
  5
6B
102
{ACAD_REACTORS
330
66
102
}
330
66
100
DictionaryVariables
280
     0
  1
1
  0
DICTIONARYVAR
  5
13AF
102
{ACAD_REACTORS
330
66
102
}
330
66
100
DictionaryVariables
280
     0
  1

  0
DICTIONARY
  5
1B9A
330
59
100
AcDbDictionary
280
     1
281
     1
  3
ACAD_XREC_ROUNDTRIP
360
1B9B
  0
DICTIONARY
  5
1B9C
330
5E
100
AcDbDictionary
280
     1
281
     1
  3
ACAD_XREC_ROUNDTRIP
360
1B9D
  0
DICTIONARY
  5
1B98
330
22
100
AcDbDictionary
280
     1
281
     1
  3
ACAD_XREC_ROUNDTRIP
360
1B99
  0
XRECORD
  5
1B9B
102
{ACAD_REACTORS
330
1B9A
102
}
330
1B9A
100
AcDbXrecord
280
     1
102
SHADEPLOT
 70
     0
102
SHADEPLOTRESLEVEL
 70
     2
102
SHADEPLOTCUSTOMDPI
 70
   300
  0
XRECORD
  5
1B9D
102
{ACAD_REACTORS
330
1B9C
102
}
330
1B9C
100
AcDbXrecord
280
     1
102
SHADEPLOT
 70
     0
102
SHADEPLOTRESLEVEL
 70
     2
102
SHADEPLOTCUSTOMDPI
 70
   300
  0
XRECORD
  5
1B99
102
{ACAD_REACTORS
330
1B98
102
}
330
1B98
100
AcDbXrecord
280
     1
102
SHADEPLOT
 70
     0
102
SHADEPLOTRESLEVEL
 70
     2
102
SHADEPLOTCUSTOMDPI
 70
   300
  0
ENDSEC
  0
EOF
