  0
SECTION
  2
HEADER
  9
$ACADVER
  1
AC1015
  9
$ACADMAINTVER
 70
    20
  9
$DWGCODEPAGE
  3
ANSI_1252
  9
$INSBASE
 10
0.0
 20
0.0
 30
0.0
  9
$EXTMIN
 10
-442.4138965987717
 20
-157.0605552906922
 30
0.0
  9
$EXTMAX
 10
-287.6413410605865
 20
-92.78327990764472
 30
0.0
  9
$LIMMIN
 10
0.0
 20
0.0
  9
$LIMMAX
 10
12.0
 20
9.0
  9
$ORTHOMODE
 70
     0
  9
$REGENMODE
 70
     1
  9
$FILLMODE
 70
     1
  9
$QTEXTMODE
 70
     0
  9
$MIRRTEXT
 70
     0
  9
$LTSCALE
 40
1.0
  9
$ATTMODE
 70
     1
  9
$TEXTSIZE
 40
0.2
  9
$TRACEWID
 40
0.05
  9
$TEXTSTYLE
  7
Standard
  9
$CLAYER
  8
0
  9
$CELTYPE
  6
ByLayer
  9
$CECOLOR
 62
   256
  9
$CELTSCALE
 40
1.0
  9
$DISPSILH
 70
     0
  9
$DIMSCALE
 40
1.0
  9
$DIMASZ
 40
1.0
  9
$DIMEXO
 40
0.2
  9
$DIMDLI
 40
0.38
  9
$DIMRND
 40
0.0
  9
$DIMDLE
 40
0.0
  9
$DIMEXE
 40
0.18
  9
$DIMTP
 40
0.0
  9
$DIMTM
 40
0.0
  9
$DIMTXT
 40
1.0
  9
$DIMCEN
 40
0.09
  9
$DIMTSZ
 40
0.0
  9
$DIMTOL
 70
     0
  9
$DIMLIM
 70
     0
  9
$DIMTIH
 70
     1
  9
$DIMTOH
 70
     1
  9
$DIMSE1
 70
     0
  9
$DIMSE2
 70
     0
  9
$DIMTAD
 70
     0
  9
$DIMZIN
 70
     0
  9
$DIMBLK
  1

  9
$DIMASO
 70
     1
  9
$DIMSHO
 70
     1
  9
$DIMPOST
  1

  9
$DIMAPOST
  1

  9
$DIMALT
 70
     0
  9
$DIMALTD
 70
     2
  9
$DIMALTF
 40
25.4
  9
$DIMLFAC
 40
1.0
  9
$DIMTOFL
 70
     0
  9
$DIMTVP
 40
0.0
  9
$DIMTIX
 70
     0
  9
$DIMSOXD
 70
     0
  9
$DIMSAH
 70
     0
  9
$DIMBLK1
  1

  9
$DIMBLK2
  1

  9
$DIMSTYLE
  2
Standard
  9
$DIMCLRD
 70
     0
  9
$DIMCLRE
 70
     0
  9
$DIMCLRT
 70
     0
  9
$DIMTFAC
 40
1.0
  9
$DIMGAP
 40
0.09
  9
$DIMJUST
 70
     0
  9
$DIMSD1
 70
     0
  9
$DIMSD2
 70
     0
  9
$DIMTOLJ
 70
     1
  9
$DIMTZIN
 70
     0
  9
$DIMALTZ
 70
     0
  9
$DIMALTTZ
 70
     0
  9
$DIMUPT
 70
     0
  9
$DIMDEC
 70
     3
  9
$DIMTDEC
 70
     3
  9
$DIMALTU
 70
     2
  9
$DIMALTTD
 70
     2
  9
$DIMTXSTY
  7
Standard
  9
$DIMAUNIT
 70
     0
  9
$DIMADEC
 70
     0
  9
$DIMALTRND
 40
0.0
  9
$DIMAZIN
 70
     0
  9
$DIMDSEP
 70
    46
  9
$DIMATFIT
 70
     3
  9
$DIMFRAC
 70
     0
  9
$DIMLDRBLK
  1

  9
$DIMLUNIT
 70
     2
  9
$DIMLWD
 70
    -2
  9
$DIMLWE
 70
    -2
  9
$DIMTMOVE
 70
     0
  9
$LUNITS
 70
     2
  9
$LUPREC
 70
     4
  9
$SKETCHINC
 40
0.1
  9
$FILLETRAD
 40
0.0
  9
$AUNITS
 70
     0
  9
$AUPREC
 70
     0
  9
$MENU
  1
.
  9
$ELEVATION
 40
0.0
  9
$PELEVATION
 40
0.0
  9
$THICKNESS
 40
0.0
  9
$LIMCHECK
 70
     0
  9
$CHAMFERA
 40
0.0
  9
$CHAMFERB
 40
0.0
  9
$CHAMFERC
 40
0.0
  9
$CHAMFERD
 40
0.0
  9
$SKPOLY
 70
     0
  9
$TDCREATE
 40
2455303.400119792
  9
$TDUCREATE
 40
2455303.566786458
  9
$TDUPDATE
 40
2455720.488354121
  9
$TDUUPDATE
 40
2455720.655020787
  9
$TDINDWG
 40
0.0123856713
  9
$TDUSRTIMER
 40
0.0123854861
  9
$USRTIMER
 70
     1
  9
$ANGBASE
 50
0.0
  9
$ANGDIR
 70
     0
  9
$PDMODE
 70
     0
  9
$PDSIZE
 40
0.0
  9
$PLINEWID
 40
0.0
  9
$SPLFRAME
 70
     0
  9
$SPLINETYPE
 70
     6
  9
$SPLINESEGS
 70
     8
  9
$HANDSEED
  5
B74
  9
$SURFTAB1
 70
     6
  9
$SURFTAB2
 70
     6
  9
$SURFTYPE
 70
     6
  9
$SURFU
 70
     6
  9
$SURFV
 70
     6
  9
$UCSBASE
  2

  9
$UCSNAME
  2

  9
$UCSORG
 10
0.0
 20
0.0
 30
0.0
  9
$UCSXDIR
 10
1.0
 20
0.0
 30
0.0
  9
$UCSYDIR
 10
0.0
 20
1.0
 30
0.0
  9
$UCSORTHOREF
  2

  9
$UCSORTHOVIEW
 70
     0
  9
$UCSORGTOP
 10
0.0
 20
0.0
 30
0.0
  9
$UCSORGBOTTOM
 10
0.0
 20
0.0
 30
0.0
  9
$UCSORGLEFT
 10
0.0
 20
0.0
 30
0.0
  9
$UCSORGRIGHT
 10
0.0
 20
0.0
 30
0.0
  9
$UCSORGFRONT
 10
0.0
 20
0.0
 30
0.0
  9
$UCSORGBACK
 10
0.0
 20
0.0
 30
0.0
  9
$PUCSBASE
  2

  9
$PUCSNAME
  2

  9
$PUCSORG
 10
0.0
 20
0.0
 30
0.0
  9
$PUCSXDIR
 10
1.0
 20
0.0
 30
0.0
  9
$PUCSYDIR
 10
0.0
 20
1.0
 30
0.0
  9
$PUCSORTHOREF
  2

  9
$PUCSORTHOVIEW
 70
     0
  9
$PUCSORGTOP
 10
0.0
 20
0.0
 30
0.0
  9
$PUCSORGBOTTOM
 10
0.0
 20
0.0
 30
0.0
  9
$PUCSORGLEFT
 10
0.0
 20
0.0
 30
0.0
  9
$PUCSORGRIGHT
 10
0.0
 20
0.0
 30
0.0
  9
$PUCSORGFRONT
 10
0.0
 20
0.0
 30
0.0
  9
$PUCSORGBACK
 10
0.0
 20
0.0
 30
0.0
  9
$USERI1
 70
     0
  9
$USERI2
 70
     0
  9
$USERI3
 70
     0
  9
$USERI4
 70
     0
  9
$USERI5
 70
     0
  9
$USERR1
 40
0.0
  9
$USERR2
 40
0.0
  9
$USERR3
 40
0.0
  9
$USERR4
 40
0.0
  9
$USERR5
 40
0.0
  9
$WORLDVIEW
 70
     1
  9
$SHADEDGE
 70
     3
  9
$SHADEDIF
 70
    70
  9
$TILEMODE
 70
     1
  9
$MAXACTVP
 70
    64
  9
$PINSBASE
 10
0.0
 20
0.0
 30
0.0
  9
$PLIMCHECK
 70
     0
  9
$PEXTMIN
 10
0.0
 20
0.0
 30
0.0
  9
$PEXTMAX
 10
0.0
 20
0.0
 30
0.0
  9
$PLIMMIN
 10
0.0
 20
0.0
  9
$PLIMMAX
 10
12.0
 20
9.0
  9
$UNITMODE
 70
     0
  9
$VISRETAIN
 70
     1
  9
$PLINEGEN
 70
     0
  9
$PSLTSCALE
 70
     1
  9
$TREEDEPTH
 70
  3020
  9
$CMLSTYLE
  2
Standard
  9
$CMLJUST
 70
     0
  9
$CMLSCALE
 40
1.0
  9
$PROXYGRAPHICS
 70
     1
  9
$MEASUREMENT
 70
     0
  9
$CELWEIGHT
370
    -1
  9
$ENDCAPS
280
     0
  9
$JOINSTYLE
280
     0
  9
$LWDISPLAY
290
     0
  9
$INSUNITS
 70
     1
  9
$HYPERLINKBASE
  1

  9
$STYLESHEET
  1

  9
$XEDIT
290
     1
  9
$CEPSNTYPE
380
     0
  9
$PSTYLEMODE
290
     1
  9
$FINGERPRINTGUID
  2
{FDEAD576-A652-11D2-9A35-0060089B3A3F}
  9
$VERSIONGUID
  2
{4488D4D0-8992-4816-817E-C1436637F2ED}
  9
$EXTNAMES
290
     1
  9
$PSVPSCALE
 40
0.0
  9
$OLESTARTUP
290
     0
  0
ENDSEC
  0
SECTION
  2
CLASSES
  0
CLASS
  1
ACDBDICTIONARYWDFLT
  2
AcDbDictionaryWithDefault
  3
ObjectDBX Classes
 90
        0
280
     0
281
     0
  0
CLASS
  1
ACDBPLACEHOLDER
  2
AcDbPlaceHolder
  3
ObjectDBX Classes
 90
        0
280
     0
281
     0
  0
CLASS
  1
LAYOUT
  2
AcDbLayout
  3
ObjectDBX Classes
 90
        0
280
     0
281
     0
  0
CLASS
  1
DICTIONARYVAR
  2
AcDbDictionaryVar
  3
ObjectDBX Classes
 90
        0
280
     0
281
     0
  0
CLASS
  1
SORTENTSTABLE
  2
AcDbSortentsTable
  3
ObjectDBX Classes
 90
        0
280
     0
281
     0
  0
ENDSEC
  0
SECTION
  2
TABLES
  0
TABLE
  2
VPORT
  5
8
330
0
100
AcDbSymbolTable
 70
     8
  0
VPORT
  5
B6A
330
8
100
AcDbSymbolTableRecord
100
AcDbViewportTableRecord
  2
*Active
 70
     0
 10
0.0
 20
0.0
 11
1.0
 21
1.0
 12
-362.9586074350521
 22
-129.1333349458812
 13
0.0
 23
0.0
 14
0.5
 24
0.5
 15
0.5
 25
0.5
 16
0.0
 26
0.0
 36
1.0
 17
0.0
 27
0.0
 37
0.0
 40
123.5414707571156
 41
2.028571428571428
 42
50.0
 43
0.0
 44
0.0
 50
0.0
 51
0.0
 71
     0
 72
  1000
 73
     1
 74
     3
 75
     0
 76
     0
 77
     0
 78
     0
281
     0
 65
     1
110
0.0
120
0.0
130
0.0
111
1.0
121
0.0
131
0.0
112
0.0
122
1.0
132
0.0
 79
     0
146
0.0
  0
ENDTAB
  0
TABLE
  2
LTYPE
  5
5
330
0
100
AcDbSymbolTable
 70
     2
  0
LTYPE
  5
14
330
5
100
AcDbSymbolTableRecord
100
AcDbLinetypeTableRecord
  2
ByBlock
 70
     0
  3

 72
    65
 73
     0
 40
0.0
  0
LTYPE
  5
15
330
5
100
AcDbSymbolTableRecord
100
AcDbLinetypeTableRecord
  2
ByLayer
 70
     0
  3

 72
    65
 73
     0
 40
0.0
  0
LTYPE
  5
16
330
5
100
AcDbSymbolTableRecord
100
AcDbLinetypeTableRecord
  2
Continuous
 70
     0
  3
Solid line
 72
    65
 73
     0
 40
0.0
  0
LTYPE
  5
15B
330
5
100
AcDbSymbolTableRecord
100
AcDbLinetypeTableRecord
  2
HIDDEN
 70
     0
  3
__ __ __ __ __ __ __ __ __ __ __ __ __ __ __ __
 72
    65
 73
     2
 40
0.375
 49
0.25
 74
     0
 49
-0.125
 74
     0
  0
ENDTAB
  0
TABLE
  2
LAYER
  5
2
102
{ACAD_XDICTIONARY
360
163
102
}
330
0
100
AcDbSymbolTable
 70
     9
  0
LAYER
  5
10
330
2
100
AcDbSymbolTableRecord
100
AcDbLayerTableRecord
  2
0
 70
     0
 62
     7
  6
Continuous
370
    -3
390
F
  0
LAYER
  5
15C
330
2
100
AcDbSymbolTableRecord
100
AcDbLayerTableRecord
  2
Defpoints
 70
     0
 62
     7
  6
Continuous
290
     0
370
    -3
390
F
  0
LAYER
  5
15D
330
2
100
AcDbSymbolTableRecord
100
AcDbLayerTableRecord
  2
DIM
 70
     0
 62
     7
  6
Continuous
370
    -3
390
F
  0
LAYER
  5
15E
330
2
100
AcDbSymbolTableRecord
100
AcDbLayerTableRecord
  2
TEXT
 70
     0
 62
    -7
  6
Continuous
370
    -3
390
F
  0
LAYER
  5
15F
330
2
100
AcDbSymbolTableRecord
100
AcDbLayerTableRecord
  2
TEMPLATE
 70
     0
 62
     7
  6
Continuous
370
    -3
390
F
  0
LAYER
  5
160
330
2
100
AcDbSymbolTableRecord
100
AcDbLayerTableRecord
  2
DIMENSION
 70
     0
 62
     7
  6
Continuous
370
    -3
390
F
  0
LAYER
  5
161
330
2
100
AcDbSymbolTableRecord
100
AcDbLayerTableRecord
  2
THERMOSTATCVR
 70
     0
 62
     7
  6
Continuous
370
    -3
390
F
  0
LAYER
  5
162
330
2
100
AcDbSymbolTableRecord
100
AcDbLayerTableRecord
  2
BORDER
 70
     0
 62
     7
  6
Continuous
370
    -3
390
F
  0
LAYER
  5
750
330
2
100
AcDbSymbolTableRecord
100
AcDbLayerTableRecord
  2
Washer
 70
     0
 62
     7
  6
Continuous
370
    -3
390
F
  0
ENDTAB
  0
TABLE
  2
STYLE
  5
3
330
0
100
AcDbSymbolTable
 70
     1
  0
STYLE
  5
11
330
3
100
AcDbSymbolTableRecord
100
AcDbTextStyleTableRecord
  2
Standard
 70
     0
 40
0.0
 41
1.0
 50
0.0
 71
     0
 42
0.2
  3
txt
  4

  0
ENDTAB
  0
TABLE
  2
VIEW
  5
6
330
0
100
AcDbSymbolTable
 70
     0
  0
ENDTAB
  0
TABLE
  2
UCS
  5
7
330
0
100
AcDbSymbolTable
 70
     0
  0
ENDTAB
  0
TABLE
  2
APPID
  5
9
330
0
100
AcDbSymbolTable
 70
     1
  0
APPID
  5
12
330
9
100
AcDbSymbolTableRecord
100
AcDbRegAppTableRecord
  2
ACAD
 70
     0
  0
ENDTAB
  0
TABLE
  2
DIMSTYLE
  5
A
330
0
100
AcDbSymbolTable
 70
     1
100
AcDbDimStyleTable
 71
     1
340
27
  0
DIMSTYLE
105
27
102
{ACAD_REACTORS
330
7E0
330
7ED
330
7EE
330
7EF
330
7F0
330
7F1
330
7F2
330
7F3
330
7F4
330
7AB
330
7AC
330
7AD
330
7AE
330
7AF
330
7B0
330
7B1
330
7B2
330
7B3
330
7B4
330
7B5
330
7B6
330
7B7
330
7B8
330
7B9
330
7C1
330
7C2
330
7C3
330
7C4
330
7C5
330
7C6
102
}
330
A
100
AcDbSymbolTableRecord
100
AcDbDimStyleTableRecord
  2
Standard
 70
     0
 41
1.0
 42
0.2
140
1.0
271
     3
272
     3
340
11
  0
ENDTAB
  0
TABLE
  2
BLOCK_RECORD
  5
1
330
0
100
AcDbSymbolTable
 70
   112
  0
BLOCK_RECORD
  5
1F
330
1
100
AcDbSymbolTableRecord
100
AcDbBlockTableRecord
  2
*Model_Space
340
22
  0
BLOCK_RECORD
  5
58
330
1
100
AcDbSymbolTableRecord
100
AcDbBlockTableRecord
  2
*Paper_Space
340
59
  0
BLOCK_RECORD
  5
5D
330
1
100
AcDbSymbolTableRecord
100
AcDbBlockTableRecord
  2
*Paper_Space0
340
5E
  0
BLOCK_RECORD
  5
89
330
1
100
AcDbSymbolTableRecord
100
AcDbBlockTableRecord
  2
*D1
340
0
  0
BLOCK_RECORD
  5
91
330
1
100
AcDbSymbolTableRecord
100
AcDbBlockTableRecord
  2
*D2
340
0
  0
BLOCK_RECORD
  5
99
330
1
100
AcDbSymbolTableRecord
100
AcDbBlockTableRecord
  2
*D3
340
0
  0
BLOCK_RECORD
  5
A1
330
1
100
AcDbSymbolTableRecord
100
AcDbBlockTableRecord
  2
*D4
340
0
  0
BLOCK_RECORD
  5
AB
330
1
100
AcDbSymbolTableRecord
100
AcDbBlockTableRecord
  2
*D5
340
0
  0
BLOCK_RECORD
  5
B5
330
1
100
AcDbSymbolTableRecord
100
AcDbBlockTableRecord
  2
*D6
340
0
  0
BLOCK_RECORD
  5
BD
330
1
100
AcDbSymbolTableRecord
100
AcDbBlockTableRecord
  2
*D7
340
0
  0
BLOCK_RECORD
  5
C5
330
1
100
AcDbSymbolTableRecord
100
AcDbBlockTableRecord
  2
*D8
340
0
  0
BLOCK_RECORD
  5
CD
330
1
100
AcDbSymbolTableRecord
100
AcDbBlockTableRecord
  2
*D9
340
0
  0
BLOCK_RECORD
  5
D7
330
1
100
AcDbSymbolTableRecord
100
AcDbBlockTableRecord
  2
*D10
340
0
  0
BLOCK_RECORD
  5
E1
330
1
100
AcDbSymbolTableRecord
100
AcDbBlockTableRecord
  2
*D11
340
0
  0
BLOCK_RECORD
  5
EB
330
1
100
AcDbSymbolTableRecord
100
AcDbBlockTableRecord
  2
*D12
340
0
  0
BLOCK_RECORD
  5
F3
330
1
100
AcDbSymbolTableRecord
100
AcDbBlockTableRecord
  2
*D13
340
0
  0
BLOCK_RECORD
  5
FB
330
1
100
AcDbSymbolTableRecord
100
AcDbBlockTableRecord
  2
*D14
340
0
  0
BLOCK_RECORD
  5
103
330
1
100
AcDbSymbolTableRecord
100
AcDbBlockTableRecord
  2
*D15
340
0
  0
BLOCK_RECORD
  5
10B
330
1
100
AcDbSymbolTableRecord
100
AcDbBlockTableRecord
  2
*D16
340
0
  0
BLOCK_RECORD
  5
113
330
1
100
AcDbSymbolTableRecord
100
AcDbBlockTableRecord
  2
*D17
340
0
  0
BLOCK_RECORD
  5
11D
330
1
100
AcDbSymbolTableRecord
100
AcDbBlockTableRecord
  2
*D18
340
0
  0
BLOCK_RECORD
  5
125
330
1
100
AcDbSymbolTableRecord
100
AcDbBlockTableRecord
  2
*D19
340
0
  0
BLOCK_RECORD
  5
12D
330
1
100
AcDbSymbolTableRecord
100
AcDbBlockTableRecord
  2
*D20
340
0
  0
BLOCK_RECORD
  5
135
330
1
100
AcDbSymbolTableRecord
100
AcDbBlockTableRecord
  2
*D21
340
0
  0
BLOCK_RECORD
  5
13F
330
1
100
AcDbSymbolTableRecord
100
AcDbBlockTableRecord
  2
*D22
340
0
  0
BLOCK_RECORD
  5
147
330
1
100
AcDbSymbolTableRecord
100
AcDbBlockTableRecord
  2
*D23
340
0
  0
BLOCK_RECORD
  5
151
330
1
100
AcDbSymbolTableRecord
100
AcDbBlockTableRecord
  2
*D24
340
0
  0
BLOCK_RECORD
  5
425
330
1
100
AcDbSymbolTableRecord
100
AcDbBlockTableRecord
  2
*D25
340
0
  0
BLOCK_RECORD
  5
42D
330
1
100
AcDbSymbolTableRecord
100
AcDbBlockTableRecord
  2
*D26
340
0
  0
BLOCK_RECORD
  5
435
330
1
100
AcDbSymbolTableRecord
100
AcDbBlockTableRecord
  2
*D27
340
0
  0
BLOCK_RECORD
  5
43D
330
1
100
AcDbSymbolTableRecord
100
AcDbBlockTableRecord
  2
*D28
340
0
  0
BLOCK_RECORD
  5
447
330
1
100
AcDbSymbolTableRecord
100
AcDbBlockTableRecord
  2
*D29
340
0
  0
BLOCK_RECORD
  5
451
330
1
100
AcDbSymbolTableRecord
100
AcDbBlockTableRecord
  2
*D30
340
0
  0
BLOCK_RECORD
  5
459
330
1
100
AcDbSymbolTableRecord
100
AcDbBlockTableRecord
  2
*D31
340
0
  0
BLOCK_RECORD
  5
461
330
1
100
AcDbSymbolTableRecord
100
AcDbBlockTableRecord
  2
*D32
340
0
  0
BLOCK_RECORD
  5
469
330
1
100
AcDbSymbolTableRecord
100
AcDbBlockTableRecord
  2
*D33
340
0
  0
BLOCK_RECORD
  5
473
330
1
100
AcDbSymbolTableRecord
100
AcDbBlockTableRecord
  2
*D34
340
0
  0
BLOCK_RECORD
  5
47D
330
1
100
AcDbSymbolTableRecord
100
AcDbBlockTableRecord
  2
*D35
340
0
  0
BLOCK_RECORD
  5
487
330
1
100
AcDbSymbolTableRecord
100
AcDbBlockTableRecord
  2
*D36
340
0
  0
BLOCK_RECORD
  5
48F
330
1
100
AcDbSymbolTableRecord
100
AcDbBlockTableRecord
  2
*D37
340
0
  0
BLOCK_RECORD
  5
497
330
1
100
AcDbSymbolTableRecord
100
AcDbBlockTableRecord
  2
*D38
340
0
  0
BLOCK_RECORD
  5
49F
330
1
100
AcDbSymbolTableRecord
100
AcDbBlockTableRecord
  2
*D39
340
0
  0
BLOCK_RECORD
  5
4A7
330
1
100
AcDbSymbolTableRecord
100
AcDbBlockTableRecord
  2
*D40
340
0
  0
BLOCK_RECORD
  5
4AF
330
1
100
AcDbSymbolTableRecord
100
AcDbBlockTableRecord
  2
*D41
340
0
  0
BLOCK_RECORD
  5
4B9
330
1
100
AcDbSymbolTableRecord
100
AcDbBlockTableRecord
  2
*D42
340
0
  0
BLOCK_RECORD
  5
4C1
330
1
100
AcDbSymbolTableRecord
100
AcDbBlockTableRecord
  2
*D43
340
0
  0
BLOCK_RECORD
  5
4C9
330
1
100
AcDbSymbolTableRecord
100
AcDbBlockTableRecord
  2
*D44
340
0
  0
BLOCK_RECORD
  5
4D1
330
1
100
AcDbSymbolTableRecord
100
AcDbBlockTableRecord
  2
*D45
340
0
  0
BLOCK_RECORD
  5
4DB
330
1
100
AcDbSymbolTableRecord
100
AcDbBlockTableRecord
  2
*D46
340
0
  0
BLOCK_RECORD
  5
4E3
330
1
100
AcDbSymbolTableRecord
100
AcDbBlockTableRecord
  2
*D47
340
0
  0
BLOCK_RECORD
  5
4ED
330
1
100
AcDbSymbolTableRecord
100
AcDbBlockTableRecord
  2
*D48
340
0
  0
BLOCK_RECORD
  5
633
330
1
100
AcDbSymbolTableRecord
100
AcDbBlockTableRecord
  2
*D49
340
0
  0
BLOCK_RECORD
  5
63D
330
1
100
AcDbSymbolTableRecord
100
AcDbBlockTableRecord
  2
*D50
340
0
  0
BLOCK_RECORD
  5
647
330
1
100
AcDbSymbolTableRecord
100
AcDbBlockTableRecord
  2
*D51
340
0
  0
BLOCK_RECORD
  5
64F
330
1
100
AcDbSymbolTableRecord
100
AcDbBlockTableRecord
  2
*D52
340
0
  0
BLOCK_RECORD
  5
659
330
1
100
AcDbSymbolTableRecord
100
AcDbBlockTableRecord
  2
*D53
340
0
  0
BLOCK_RECORD
  5
661
330
1
100
AcDbSymbolTableRecord
100
AcDbBlockTableRecord
  2
*D54
340
0
  0
BLOCK_RECORD
  5
669
330
1
100
AcDbSymbolTableRecord
100
AcDbBlockTableRecord
  2
*D55
340
0
  0
BLOCK_RECORD
  5
671
330
1
100
AcDbSymbolTableRecord
100
AcDbBlockTableRecord
  2
*D56
340
0
  0
BLOCK_RECORD
  5
67B
330
1
100
AcDbSymbolTableRecord
100
AcDbBlockTableRecord
  2
*D57
340
0
  0
BLOCK_RECORD
  5
683
330
1
100
AcDbSymbolTableRecord
100
AcDbBlockTableRecord
  2
*D58
340
0
  0
BLOCK_RECORD
  5
68D
330
1
100
AcDbSymbolTableRecord
100
AcDbBlockTableRecord
  2
*D59
340
0
  0
BLOCK_RECORD
  5
697
330
1
100
AcDbSymbolTableRecord
100
AcDbBlockTableRecord
  2
*D60
340
0
  0
BLOCK_RECORD
  5
6A1
330
1
100
AcDbSymbolTableRecord
100
AcDbBlockTableRecord
  2
*D61
340
0
  0
BLOCK_RECORD
  5
6A9
330
1
100
AcDbSymbolTableRecord
100
AcDbBlockTableRecord
  2
*D62
340
0
  0
BLOCK_RECORD
  5
6B3
330
1
100
AcDbSymbolTableRecord
100
AcDbBlockTableRecord
  2
*D63
340
0
  0
BLOCK_RECORD
  5
6BB
330
1
100
AcDbSymbolTableRecord
100
AcDbBlockTableRecord
  2
*D64
340
0
  0
BLOCK_RECORD
  5
6C3
330
1
100
AcDbSymbolTableRecord
100
AcDbBlockTableRecord
  2
*D65
340
0
  0
BLOCK_RECORD
  5
6CB
330
1
100
AcDbSymbolTableRecord
100
AcDbBlockTableRecord
  2
*D66
340
0
  0
BLOCK_RECORD
  5
6D5
330
1
100
AcDbSymbolTableRecord
100
AcDbBlockTableRecord
  2
*D67
340
0
  0
BLOCK_RECORD
  5
6DF
330
1
100
AcDbSymbolTableRecord
100
AcDbBlockTableRecord
  2
*D68
340
0
  0
BLOCK_RECORD
  5
6E7
330
1
100
AcDbSymbolTableRecord
100
AcDbBlockTableRecord
  2
*D69
340
0
  0
BLOCK_RECORD
  5
6EF
330
1
100
AcDbSymbolTableRecord
100
AcDbBlockTableRecord
  2
*D70
340
0
  0
BLOCK_RECORD
  5
6F7
330
1
100
AcDbSymbolTableRecord
100
AcDbBlockTableRecord
  2
*D71
340
0
  0
BLOCK_RECORD
  5
701
330
1
100
AcDbSymbolTableRecord
100
AcDbBlockTableRecord
  2
*D72
340
0
  0
BLOCK_RECORD
  5
70B
330
1
100
AcDbSymbolTableRecord
100
AcDbBlockTableRecord
  2
*D73
340
0
  0
BLOCK_RECORD
  5
715
330
1
100
AcDbSymbolTableRecord
100
AcDbBlockTableRecord
  2
*D74
340
0
  0
BLOCK_RECORD
  5
71F
330
1
100
AcDbSymbolTableRecord
100
AcDbBlockTableRecord
  2
*D75
340
0
  0
BLOCK_RECORD
  5
729
330
1
100
AcDbSymbolTableRecord
100
AcDbBlockTableRecord
  2
*D76
340
0
  0
BLOCK_RECORD
  5
731
330
1
100
AcDbSymbolTableRecord
100
AcDbBlockTableRecord
  2
*D77
340
0
  0
BLOCK_RECORD
  5
73B
330
1
100
AcDbSymbolTableRecord
100
AcDbBlockTableRecord
  2
*D78
340
0
  0
BLOCK_RECORD
  5
746
330
1
100
AcDbSymbolTableRecord
100
AcDbBlockTableRecord
  2
*D79
340
0
  0
BLOCK_RECORD
  5
7F7
330
1
100
AcDbSymbolTableRecord
100
AcDbBlockTableRecord
  2
*D81
340
0
  0
BLOCK_RECORD
  5
7FF
330
1
100
AcDbSymbolTableRecord
100
AcDbBlockTableRecord
  2
*D82
340
0
  0
BLOCK_RECORD
  5
809
330
1
100
AcDbSymbolTableRecord
100
AcDbBlockTableRecord
  2
*D83
340
0
  0
BLOCK_RECORD
  5
813
330
1
100
AcDbSymbolTableRecord
100
AcDbBlockTableRecord
  2
*D84
340
0
  0
BLOCK_RECORD
  5
81D
330
1
100
AcDbSymbolTableRecord
100
AcDbBlockTableRecord
  2
*D85
340
0
  0
BLOCK_RECORD
  5
827
330
1
100
AcDbSymbolTableRecord
100
AcDbBlockTableRecord
  2
*D86
340
0
  0
BLOCK_RECORD
  5
831
330
1
100
AcDbSymbolTableRecord
100
AcDbBlockTableRecord
  2
*D87
340
0
  0
BLOCK_RECORD
  5
839
330
1
100
AcDbSymbolTableRecord
100
AcDbBlockTableRecord
  2
*D88
340
0
  0
BLOCK_RECORD
  5
843
330
1
100
AcDbSymbolTableRecord
100
AcDbBlockTableRecord
  2
*D89
340
0
  0
BLOCK_RECORD
  5
84E
330
1
100
AcDbSymbolTableRecord
100
AcDbBlockTableRecord
  2
*D90
340
0
  0
BLOCK_RECORD
  5
858
330
1
100
AcDbSymbolTableRecord
100
AcDbBlockTableRecord
  2
*D91
340
0
  0
BLOCK_RECORD
  5
862
330
1
100
AcDbSymbolTableRecord
100
AcDbBlockTableRecord
  2
*D92
340
0
  0
BLOCK_RECORD
  5
86C
330
1
100
AcDbSymbolTableRecord
100
AcDbBlockTableRecord
  2
*D93
340
0
  0
BLOCK_RECORD
  5
874
330
1
100
AcDbSymbolTableRecord
100
AcDbBlockTableRecord
  2
*D94
340
0
  0
BLOCK_RECORD
  5
87E
330
1
100
AcDbSymbolTableRecord
100
AcDbBlockTableRecord
  2
*D95
340
0
  0
BLOCK_RECORD
  5
886
330
1
100
AcDbSymbolTableRecord
100
AcDbBlockTableRecord
  2
*D96
340
0
  0
BLOCK_RECORD
  5
88E
330
1
100
AcDbSymbolTableRecord
100
AcDbBlockTableRecord
  2
*D97
340
0
  0
BLOCK_RECORD
  5
896
330
1
100
AcDbSymbolTableRecord
100
AcDbBlockTableRecord
  2
*D98
340
0
  0
BLOCK_RECORD
  5
8A0
330
1
100
AcDbSymbolTableRecord
100
AcDbBlockTableRecord
  2
*D99
340
0
  0
BLOCK_RECORD
  5
8A8
330
1
100
AcDbSymbolTableRecord
100
AcDbBlockTableRecord
  2
*D100
340
0
  0
BLOCK_RECORD
  5
8B2
330
1
100
AcDbSymbolTableRecord
100
AcDbBlockTableRecord
  2
*D101
340
0
  0
BLOCK_RECORD
  5
8BC
330
1
100
AcDbSymbolTableRecord
100
AcDbBlockTableRecord
  2
*D102
340
0
  0
BLOCK_RECORD
  5
8C6
330
1
100
AcDbSymbolTableRecord
100
AcDbBlockTableRecord
  2
*D103
340
0
  0
BLOCK_RECORD
  5
8CE
330
1
100
AcDbSymbolTableRecord
100
AcDbBlockTableRecord
  2
*D104
340
0
  0
BLOCK_RECORD
  5
8D8
330
1
100
AcDbSymbolTableRecord
100
AcDbBlockTableRecord
  2
*D105
340
0
  0
BLOCK_RECORD
  5
8E0
330
1
100
AcDbSymbolTableRecord
100
AcDbBlockTableRecord
  2
*D106
340
0
  0
BLOCK_RECORD
  5
8E8
330
1
100
AcDbSymbolTableRecord
100
AcDbBlockTableRecord
  2
*D107
340
0
  0
BLOCK_RECORD
  5
8F0
330
1
100
AcDbSymbolTableRecord
100
AcDbBlockTableRecord
  2
*D108
340
0
  0
BLOCK_RECORD
  5
8FA
330
1
100
AcDbSymbolTableRecord
100
AcDbBlockTableRecord
  2
*D109
340
0
  0
BLOCK_RECORD
  5
904
330
1
100
AcDbSymbolTableRecord
100
AcDbBlockTableRecord
  2
*D110
340
0
  0
BLOCK_RECORD
  5
90C
330
1
100
AcDbSymbolTableRecord
100
AcDbBlockTableRecord
  2
*D111
340
0
  0
ENDTAB
  0
ENDSEC
  0
SECTION
  2
BLOCKS
  0
BLOCK
  5
20
330
1F
100
AcDbEntity
  8
0
100
AcDbBlockBegin
  2
*Model_Space
 70
     0
 10
0.0
 20
0.0
 30
0.0
  3
*Model_Space
  1

  0
ENDBLK
  5
21
330
1F
100
AcDbEntity
  8
0
100
AcDbBlockEnd
  0
BLOCK
  5
5A
330
58
100
AcDbEntity
 67
     1
  8
0
100
AcDbBlockBegin
  2
*Paper_Space
 70
     0
 10
0.0
 20
0.0
 30
0.0
  3
*Paper_Space
  1

  0
ENDBLK
  5
5B
330
58
100
AcDbEntity
 67
     1
  8
0
100
AcDbBlockEnd
  0
BLOCK
  5
5F
330
5D
100
AcDbEntity
  8
0
100
AcDbBlockBegin
  2
*Paper_Space0
 70
     0
 10
0.0
 20
0.0
 30
0.0
  3
*Paper_Space0
  1

  0
ENDBLK
  5
60
330
5D
100
AcDbEntity
  8
0
100
AcDbBlockEnd
  0
BLOCK
  5
8A
330
89
100
AcDbEntity
  8
0
100
AcDbBlockBegin
  2
*D1
 70
     1
 10
0.0
 20
0.0
 30
0.0
  3
*D1
  1

  0
LINE
  5
8B
330
89
100
AcDbEntity
  8
DIM
 62
     0
370
    -2
100
AcDbLine
 10
504.6158804103408
 20
170.4477056160425
 30
0.0
 11
500.9908804103408
 21
170.4477056160425
 31
0.0
  0
MTEXT
  5
8C
330
89
100
AcDbEntity
  8
DIM
 62
     0
100
AcDbMText
 10
498.824213743674
 20
170.4477056160425
 30
0.0
 40
0.9999999999999998
 41
0.0
 71
     5
 72
     1
  1
\A1;0.000
 73
     1
 44
1.0
1001
ACAD
1000
MTEXTBEGIN
1070
    73
1070
     1
1070
    44
1040
1.0
1070
    74
1070
     0
1000
MTEXTEND
  0
POINT
  5
8D
330
89
100
AcDbEntity
  8
Defpoints
 62
     0
100
AcDbPoint
 10
504.9908804103408
 20
170.4477056160425
 30
0.0
  0
POINT
  5
8E
330
89
100
AcDbEntity
  8
Defpoints
 62
     0
100
AcDbPoint
 10
500.9908804103408
 20
170.4477056160425
 30
0.0
  0
POINT
  5
8F
330
89
100
AcDbEntity
  8
Defpoints
 62
     0
100
AcDbPoint
 10
504.9908875846258
 20
170.4476822503771
 30
0.0
  0
ENDBLK
  5
90
330
89
100
AcDbEntity
  8
0
100
AcDbBlockEnd
  0
BLOCK
  5
92
330
91
100
AcDbEntity
  8
0
100
AcDbBlockBegin
  2
*D2
 70
     1
 10
0.0
 20
0.0
 30
0.0
  3
*D2
  1

  0
LINE
  5
93
330
91
100
AcDbEntity
  8
DIM
 62
     0
370
    -2
100
AcDbLine
 10
516.8748804103407
 20
202.7927056160429
 30
0.0
 11
516.8748804103407
 21
208.4883662059198
 31
0.0
  0
MTEXT
  5
94
330
91
100
AcDbEntity
  8
DIM
 62
     0
100
AcDbMText
 10
516.8748804103407
 20
211.1550328725865
 30
0.0
 40
0.9999999999999998
 41
0.0
 71
     5
 72
     1
  1
\A1;11.884
 11
0.0000000000000001
 21
1.0
 31
0.0
 73
     1
 44
1.0
1001
ACAD
1000
MTEXTBEGIN
1070
    73
1070
     1
1070
    44
1040
1.0
1070
    74
1070
     0
1000
MTEXTEND
  0
POINT
  5
95
330
91
100
AcDbEntity
  8
Defpoints
 62
     0
100
AcDbPoint
 10
516.8748804103407
 20
202.4177056160429
 30
0.0
  0
POINT
  5
96
330
91
100
AcDbEntity
  8
Defpoints
 62
     0
100
AcDbPoint
 10
516.8748804103407
 20
208.4883662059198
 30
0.0
  0
POINT
  5
97
330
91
100
AcDbEntity
  8
Defpoints
 62
     0
100
AcDbPoint
 10
504.9908817008663
 20
174.4777476112601
 30
0.0
  0
ENDBLK
  5
98
330
91
100
AcDbEntity
  8
0
100
AcDbBlockEnd
  0
BLOCK
  5
9A
330
99
100
AcDbEntity
  8
0
100
AcDbBlockBegin
  2
*D3
 70
     1
 10
0.0
 20
0.0
 30
0.0
  3
*D3
  1

  0
LINE
  5
9B
330
99
100
AcDbEntity
  8
DIM
 62
     0
370
    -2
100
AcDbLine
 10
515.2686304103392
 20
204.1602056160426
 30
0.0
 11
515.2686304103392
 21
208.5695425043715
 31
0.0
  0
MTEXT
  5
9C
330
99
100
AcDbEntity
  8
DIM
 62
     0
100
AcDbMText
 10
515.2686304103392
 20
211.3195425043716
 30
0.0
 40
0.9999999999999998
 41
0.0
 71
     5
 72
     1
  1
\A1;10.278
 11
0.0000000000000001
 21
1.0
 31
0.0
 73
     1
 44
1.0
1001
ACAD
1000
MTEXTBEGIN
1070
    73
1070
     1
1070
    44
1040
1.0
1070
    74
1070
     0
1000
MTEXTEND
  0
POINT
  5
9D
330
99
100
AcDbEntity
  8
Defpoints
 62
     0
100
AcDbPoint
 10
515.2686304103392
 20
203.7852056160426
 30
0.0
  0
POINT
  5
9E
330
99
100
AcDbEntity
  8
Defpoints
 62
     0
100
AcDbPoint
 10
515.2686304103392
 20
208.5695425043715
 30
0.0
  0
POINT
  5
9F
330
99
100
AcDbEntity
  8
Defpoints
 62
     0
100
AcDbPoint
 10
504.9908817008663
 20
174.4777476112601
 30
0.0
  0
ENDBLK
  5
A0
330
99
100
AcDbEntity
  8
0
100
AcDbBlockEnd
  0
BLOCK
  5
A2
330
A1
100
AcDbEntity
  8
0
100
AcDbBlockBegin
  2
*D4
 70
     1
 10
0.0
 20
0.0
 30
0.0
  3
*D4
  1

  0
LINE
  5
A3
330
A1
100
AcDbEntity
  8
DIM
 62
     0
370
    -2
100
AcDbLine
 10
505.3748804103409
 20
202.7927056160429
 30
0.0
 11
505.3748804103409
 21
204.5370718290131
 31
0.0
  0
LINE
  5
A4
330
A1
100
AcDbEntity
  8
DIM
 62
     0
370
    -2
100
AcDbLine
 10
505.3748804103409
 20
204.5370718290131
 30
0.0
 11
504.0991660437612
 21
206.5370718290131
 31
0.0
  0
LINE
  5
A5
330
A1
100
AcDbEntity
  8
DIM
 62
     0
370
    -2
100
AcDbLine
 10
504.0991660437612
 20
206.5370718290131
 30
0.0
 11
504.0991660437612
 21
208.5370718290131
 31
0.0
  0
MTEXT
  5
A6
330
A1
100
AcDbEntity
  8
DIM
 62
     0
100
AcDbMText
 10
504.0991660437611
 20
210.9537384956798
 30
0.0
 40
0.9999999999999998
 41
0.0
 71
     5
 72
     1
  1
\A1;0.384
 11
0.0000000000000001
 21
1.0
 31
0.0
 73
     1
 44
1.0
1001
ACAD
1000
MTEXTBEGIN
1070
    73
1070
     1
1070
    44
1040
1.0
1070
    74
1070
     0
1000
MTEXTEND
  0
POINT
  5
A7
330
A1
100
AcDbEntity
  8
Defpoints
 62
     0
100
AcDbPoint
 10
505.3748804103409
 20
202.4177056160429
 30
0.0
  0
POINT
  5
A8
330
A1
100
AcDbEntity
  8
Defpoints
 62
     0
100
AcDbPoint
 10
504.0991660437612
 20
208.5370718290131
 30
0.0
  0
POINT
  5
A9
330
A1
100
AcDbEntity
  8
Defpoints
 62
     0
100
AcDbPoint
 10
504.9908817008663
 20
174.4777476112601
 30
0.0
  0
ENDBLK
  5
AA
330
A1
100
AcDbEntity
  8
0
100
AcDbBlockEnd
  0
BLOCK
  5
AC
330
AB
100
AcDbEntity
  8
0
100
AcDbBlockBegin
  2
*D5
 70
     1
 10
0.0
 20
0.0
 30
0.0
  3
*D5
  1

  0
LINE
  5
AD
330
AB
100
AcDbEntity
  8
DIM
 62
     0
370
    -2
100
AcDbLine
 10
512.4311304103407
 20
204.1602056160427
 30
0.0
 11
512.4311304103407
 21
205.7852056160427
 31
0.0
  0
LINE
  5
AE
330
AB
100
AcDbEntity
  8
DIM
 62
     0
370
    -2
100
AcDbLine
 10
512.4311304103407
 20
205.7852056160427
 30
0.0
 11
513.200726031386
 21
206.5695425043715
 31
0.0
  0
LINE
  5
AF
330
AB
100
AcDbEntity
  8
DIM
 62
     0
370
    -2
100
AcDbLine
 10
513.200726031386
 20
206.5695425043715
 30
0.0
 11
513.200726031386
 21
208.5695425043715
 31
0.0
  0
MTEXT
  5
B0
330
AB
100
AcDbEntity
  8
DIM
 62
     0
100
AcDbMText
 10
513.200726031386
 20
210.9862091710382
 30
0.0
 40
0.9999999999999998
 41
0.0
 71
     5
 72
     1
  1
\A1;7.440
 11
0.0000000000000001
 21
1.0
 31
0.0
 73
     1
 44
1.0
1001
ACAD
1000
MTEXTBEGIN
1070
    73
1070
     1
1070
    44
1040
1.0
1070
    74
1070
     0
1000
MTEXTEND
  0
POINT
  5
B1
330
AB
100
AcDbEntity
  8
Defpoints
 62
     0
100
AcDbPoint
 10
512.4311304103407
 20
203.7852056160427
 30
0.0
  0
POINT
  5
B2
330
AB
100
AcDbEntity
  8
Defpoints
 62
     0
100
AcDbPoint
 10
513.200726031386
 20
208.5695425043715
 30
0.0
  0
POINT
  5
B3
330
AB
100
AcDbEntity
  8
Defpoints
 62
     0
100
AcDbPoint
 10
504.9908817008663
 20
174.4777476112601
 30
0.0
  0
ENDBLK
  5
B4
330
AB
100
AcDbEntity
  8
0
100
AcDbBlockEnd
  0
BLOCK
  5
B6
330
B5
100
AcDbEntity
  8
0
100
AcDbBlockBegin
  2
*D6
 70
     1
 10
0.0
 20
0.0
 30
0.0
  3
*D6
  1

  0
LINE
  5
B7
330
B5
100
AcDbEntity
  8
DIM
 62
     0
370
    -2
100
AcDbLine
 10
511.6501304103407
 20
204.601705616043
 30
0.0
 11
511.6501304103407
 21
208.5695425043715
 31
0.0
  0
MTEXT
  5
B8
330
B5
100
AcDbEntity
  8
DIM
 62
     0
100
AcDbMText
 10
511.6501304103406
 20
211.0695425043716
 30
0.0
 40
0.9999999999999998
 41
0.0
 71
     5
 72
     1
  1
\A1;6.659
 11
0.0000000000000001
 21
1.0
 31
0.0
 73
     1
 44
1.0
1001
ACAD
1000
MTEXTBEGIN
1070
    73
1070
     1
1070
    44
1040
1.0
1070
    74
1070
     0
1000
MTEXTEND
  0
POINT
  5
B9
330
B5
100
AcDbEntity
  8
Defpoints
 62
     0
100
AcDbPoint
 10
511.6501304103407
 20
204.226705616043
 30
0.0
  0
POINT
  5
BA
330
B5
100
AcDbEntity
  8
Defpoints
 62
     0
100
AcDbPoint
 10
511.6501304103407
 20
208.5695425043715
 30
0.0
  0
POINT
  5
BB
330
B5
100
AcDbEntity
  8
Defpoints
 62
     0
100
AcDbPoint
 10
504.9908817008663
 20
174.4777476112601
 30
0.0
  0
ENDBLK
  5
BC
330
B5
100
AcDbEntity
  8
0
100
AcDbBlockEnd
  0
BLOCK
  5
BE
330
BD
100
AcDbEntity
  8
0
100
AcDbBlockBegin
  2
*D7
 70
     1
 10
0.0
 20
0.0
 30
0.0
  3
*D7
  1

  0
LINE
  5
BF
330
BD
100
AcDbEntity
  8
DIM
 62
     0
370
    -2
100
AcDbLine
 10
505.5876304103407
 20
204.6017056160429
 30
0.0
 11
505.5876304103407
 21
208.5695425043715
 31
0.0
  0
MTEXT
  5
C0
330
BD
100
AcDbEntity
  8
DIM
 62
     0
100
AcDbMText
 10
505.5876304103406
 20
210.9862091710382
 30
0.0
 40
0.9999999999999998
 41
0.0
 71
     5
 72
     1
  1
\A1;0.597
 11
0.0000000000000001
 21
1.0
 31
0.0
 73
     1
 44
1.0
1001
ACAD
1000
MTEXTBEGIN
1070
    73
1070
     1
1070
    44
1040
1.0
1070
    74
1070
     0
1000
MTEXTEND
  0
POINT
  5
C1
330
BD
100
AcDbEntity
  8
Defpoints
 62
     0
100
AcDbPoint
 10
505.5876304103407
 20
204.2267056160429
 30
0.0
  0
POINT
  5
C2
330
BD
100
AcDbEntity
  8
Defpoints
 62
     0
100
AcDbPoint
 10
505.5876304103407
 20
208.5695425043715
 30
0.0
  0
POINT
  5
C3
330
BD
100
AcDbEntity
  8
Defpoints
 62
     0
100
AcDbPoint
 10
504.9908817008663
 20
174.4777476112601
 30
0.0
  0
ENDBLK
  5
C4
330
BD
100
AcDbEntity
  8
0
100
AcDbBlockEnd
  0
BLOCK
  5
C6
330
C5
100
AcDbEntity
  8
0
100
AcDbBlockBegin
  2
*D8
 70
     1
 10
0.0
 20
0.0
 30
0.0
  3
*D8
  1

  0
LINE
  5
C7
330
C5
100
AcDbEntity
  8
DIM
 62
     0
370
    -2
100
AcDbLine
 10
504.9908804103409
 20
170.0727056160425
 30
0.0
 11
504.9908804103409
 21
167.2802330844675
 31
0.0
  0
MTEXT
  5
C8
330
C5
100
AcDbEntity
  8
DIM
 62
     0
100
AcDbMText
 10
504.9908804103408
 20
165.1135664178009
 30
0.0
 40
1.0
 41
0.0
 71
     5
 72
     1
  1
\A1;0.000
 11
0.0000000000000001
 21
1.0
 31
0.0
 73
     1
 44
1.0
1001
ACAD
1000
MTEXTBEGIN
1070
    73
1070
     1
1070
    44
1040
1.0
1070
    74
1070
     0
1000
MTEXTEND
  0
POINT
  5
C9
330
C5
100
AcDbEntity
  8
Defpoints
 62
     0
100
AcDbPoint
 10
504.9908804103409
 20
170.4477056160425
 30
0.0
  0
POINT
  5
CA
330
C5
100
AcDbEntity
  8
Defpoints
 62
     0
100
AcDbPoint
 10
504.9908804103409
 20
167.2802330844675
 30
0.0
  0
POINT
  5
CB
330
C5
100
AcDbEntity
  8
Defpoints
 62
     0
100
AcDbPoint
 10
504.9908804103409
 20
170.4477056160425
 30
0.0
  0
ENDBLK
  5
CC
330
C5
100
AcDbEntity
  8
0
100
AcDbBlockEnd
  0
BLOCK
  5
CE
330
CD
100
AcDbEntity
  8
0
100
AcDbBlockBegin
  2
*D9
 70
     1
 10
0.0
 20
0.0
 30
0.0
  3
*D9
  1

  0
LINE
  5
CF
330
CD
100
AcDbEntity
  8
DIM
 62
     0
370
    -2
100
AcDbLine
 10
506.191380410341
 20
194.6127056160426
 30
0.0
 11
506.191380410341
 21
171.5594821333513
 31
0.0
  0
LINE
  5
D0
330
CD
100
AcDbEntity
  8
DIM
 62
     0
370
    -2
100
AcDbLine
 10
506.191380410341
 20
171.5594821333513
 30
0.0
 11
506.6406814568897
 21
169.5594821333513
 31
0.0
  0
LINE
  5
D1
330
CD
100
AcDbEntity
  8
DIM
 62
     0
370
    -2
100
AcDbLine
 10
506.6406814568897
 20
169.5594821333513
 30
0.0
 11
506.6406814568897
 21
167.5594821333513
 31
0.0
  0
MTEXT
  5
D2
330
CD
100
AcDbEntity
  8
DIM
 62
     0
100
AcDbMText
 10
506.6406814568897
 20
165.476148800018
 30
0.0
 40
1.0
 41
0.0
 71
     5
 72
     1
  1
\A1;1.201
 11
0.0000000000000001
 21
1.0
 31
0.0
 73
     1
 44
1.0
1001
ACAD
1000
MTEXTBEGIN
1070
    73
1070
     1
1070
    44
1040
1.0
1070
    74
1070
     0
1000
MTEXTEND
  0
POINT
  5
D3
330
CD
100
AcDbEntity
  8
Defpoints
 62
     0
100
AcDbPoint
 10
506.191380410341
 20
194.9877056160426
 30
0.0
  0
POINT
  5
D4
330
CD
100
AcDbEntity
  8
Defpoints
 62
     0
100
AcDbPoint
 10
506.6406814568897
 20
167.5594821333513
 30
0.0
  0
POINT
  5
D5
330
CD
100
AcDbEntity
  8
Defpoints
 62
     0
100
AcDbPoint
 10
504.9908804103409
 20
170.4477056160425
 30
0.0
  0
ENDBLK
  5
D6
330
CD
100
AcDbEntity
  8
0
100
AcDbBlockEnd
  0
BLOCK
  5
D8
330
D7
100
AcDbEntity
  8
0
100
AcDbBlockBegin
  2
*D10
 70
     1
 10
0.0
 20
0.0
 30
0.0
  3
*D10
  1

  0
LINE
  5
D9
330
D7
100
AcDbEntity
  8
DIM
 62
     0
370
    -2
100
AcDbLine
 10
516.0598804103408
 20
194.6127056160426
 30
0.0
 11
516.0598804103408
 21
172.367463058583
 31
0.0
  0
LINE
  5
DA
330
D7
100
AcDbEntity
  8
DIM
 62
     0
370
    -2
100
AcDbLine
 10
516.0598804103408
 20
172.367463058583
 30
0.0
 11
516.3735542293993
 21
170.367463058583
 31
0.0
  0
LINE
  5
DB
330
D7
100
AcDbEntity
  8
DIM
 62
     0
370
    -2
100
AcDbLine
 10
516.3735542293993
 20
170.367463058583
 30
0.0
 11
516.3735542293993
 21
168.367463058583
 31
0.0
  0
MTEXT
  5
DC
330
D7
100
AcDbEntity
  8
DIM
 62
     0
100
AcDbMText
 10
516.3735542293993
 20
165.7841297252497
 30
0.0
 40
1.0
 41
0.0
 71
     5
 72
     1
  1
\A1;11.069
 11
0.0000000000000001
 21
1.0
 31
0.0
 73
     1
 44
1.0
1001
ACAD
1000
MTEXTBEGIN
1070
    73
1070
     1
1070
    44
1040
1.0
1070
    74
1070
     0
1000
MTEXTEND
  0
POINT
  5
DD
330
D7
100
AcDbEntity
  8
Defpoints
 62
     0
100
AcDbPoint
 10
516.0598804103408
 20
194.9877056160426
 30
0.0
  0
POINT
  5
DE
330
D7
100
AcDbEntity
  8
Defpoints
 62
     0
100
AcDbPoint
 10
516.3735542293993
 20
168.367463058583
 30
0.0
  0
POINT
  5
DF
330
D7
100
AcDbEntity
  8
Defpoints
 62
     0
100
AcDbPoint
 10
504.9908804103409
 20
170.4477056160425
 30
0.0
  0
ENDBLK
  5
E0
330
D7
100
AcDbEntity
  8
0
100
AcDbBlockEnd
  0
BLOCK
  5
E2
330
E1
100
AcDbEntity
  8
0
100
AcDbBlockBegin
  2
*D11
 70
     1
 10
0.0
 20
0.0
 30
0.0
  3
*D11
  1

  0
LINE
  5
E3
330
E1
100
AcDbEntity
  8
DIM
 62
     0
370
    -2
100
AcDbLine
 10
517.2608804103409
 20
204.943705616043
 30
0.0
 11
517.2608804103409
 21
206.568705616043
 31
0.0
  0
LINE
  5
E4
330
E1
100
AcDbEntity
  8
DIM
 62
     0
370
    -2
100
AcDbLine
 10
517.2608804103409
 20
206.568705616043
 30
0.0
 11
518.4483281491225
 21
206.9907256125931
 31
0.0
  0
LINE
  5
E5
330
E1
100
AcDbEntity
  8
DIM
 62
     0
370
    -2
100
AcDbLine
 10
518.4483281491225
 20
206.9907256125931
 30
0.0
 11
518.4483281491225
 21
208.9907256125931
 31
0.0
  0
MTEXT
  5
E6
330
E1
100
AcDbEntity
  8
DIM
 62
     0
100
AcDbMText
 10
518.4483281491225
 20
211.7407256125932
 30
0.0
 40
0.9999999999999998
 41
0.0
 71
     5
 72
     1
  1
\A1;12.270
 11
0.0000000000000001
 21
1.0
 31
0.0
 73
     1
 44
1.0
1001
ACAD
1000
MTEXTBEGIN
1070
    73
1070
     1
1070
    44
1040
1.0
1070
    74
1070
     0
1000
MTEXTEND
  0
POINT
  5
E7
330
E1
100
AcDbEntity
  8
Defpoints
 62
     0
100
AcDbPoint
 10
517.2608804103409
 20
204.568705616043
 30
0.0
  0
POINT
  5
E8
330
E1
100
AcDbEntity
  8
Defpoints
 62
     0
100
AcDbPoint
 10
518.4483281491225
 20
208.9907256125931
 30
0.0
  0
POINT
  5
E9
330
E1
100
AcDbEntity
  8
Defpoints
 62
     0
100
AcDbPoint
 10
504.9908804103409
 20
170.4477056160425
 30
0.0
  0
ENDBLK
  5
EA
330
E1
100
AcDbEntity
  8
0
100
AcDbBlockEnd
  0
BLOCK
  5
EC
330
EB
100
AcDbEntity
  8
0
100
AcDbBlockBegin
  2
*D12
 70
     1
 10
0.0
 20
0.0
 30
0.0
  3
*D12
  1

  0
LINE
  5
ED
330
EB
100
AcDbEntity
  8
DIM
 62
     0
370
    -2
100
AcDbLine
 10
506.9998804103407
 20
176.4177056160428
 30
0.0
 11
501.2030964733971
 21
176.4177056160428
 31
0.0
  0
MTEXT
  5
EE
330
EB
100
AcDbEntity
  8
DIM
 62
     0
100
AcDbMText
 10
498.7864298067303
 20
176.4177056160428
 30
0.0
 40
0.9999999999999998
 41
0.0
 71
     5
 72
     1
  1
\A1;5.970
 73
     1
 44
1.0
1001
ACAD
1000
MTEXTBEGIN
1070
    73
1070
     1
1070
    44
1040
1.0
1070
    74
1070
     0
1000
MTEXTEND
  0
POINT
  5
EF
330
EB
100
AcDbEntity
  8
Defpoints
 62
     0
100
AcDbPoint
 10
507.3748804103408
 20
176.4177056160428
 30
0.0
  0
POINT
  5
F0
330
EB
100
AcDbEntity
  8
Defpoints
 62
     0
100
AcDbPoint
 10
501.2030964733971
 20
176.4177056160428
 30
0.0
  0
POINT
  5
F1
330
EB
100
AcDbEntity
  8
Defpoints
 62
     0
100
AcDbPoint
 10
504.9908804103409
 20
170.4477056160425
 30
0.0
  0
ENDBLK
  5
F2
330
EB
100
AcDbEntity
  8
0
100
AcDbBlockEnd
  0
BLOCK
  5
F4
330
F3
100
AcDbEntity
  8
0
100
AcDbBlockBegin
  2
*D13
 70
     1
 10
0.0
 20
0.0
 30
0.0
  3
*D13
  1

  0
LINE
  5
F5
330
F3
100
AcDbEntity
  8
DIM
 62
     0
370
    -2
100
AcDbLine
 10
506.9998804103407
 20
189.4177056160429
 30
0.0
 11
503.0125270689461
 21
189.4177056160429
 31
0.0
  0
MTEXT
  5
F6
330
F3
100
AcDbEntity
  8
DIM
 62
     0
100
AcDbMText
 10
500.2625270689462
 20
189.4177056160429
 30
0.0
 40
0.9999999999999998
 41
0.0
 71
     5
 72
     1
  1
\A1;18.970
 73
     1
 44
1.0
1001
ACAD
1000
MTEXTBEGIN
1070
    73
1070
     1
1070
    44
1040
1.0
1070
    74
1070
     0
1000
MTEXTEND
  0
POINT
  5
F7
330
F3
100
AcDbEntity
  8
Defpoints
 62
     0
100
AcDbPoint
 10
507.3748804103408
 20
189.4177056160429
 30
0.0
  0
POINT
  5
F8
330
F3
100
AcDbEntity
  8
Defpoints
 62
     0
100
AcDbPoint
 10
503.0125270689461
 20
189.4177056160429
 30
0.0
  0
POINT
  5
F9
330
F3
100
AcDbEntity
  8
Defpoints
 62
     0
100
AcDbPoint
 10
504.9908804103409
 20
170.4477056160425
 30
0.0
  0
ENDBLK
  5
FA
330
F3
100
AcDbEntity
  8
0
100
AcDbBlockEnd
  0
BLOCK
  5
FC
330
FB
100
AcDbEntity
  8
0
100
AcDbBlockBegin
  2
*D14
 70
     1
 10
0.0
 20
0.0
 30
0.0
  3
*D14
  1

  0
LINE
  5
FD
330
FB
100
AcDbEntity
  8
DIM
 62
     0
370
    -2
100
AcDbLine
 10
510.8198804103408
 20
191.7377056160426
 30
0.0
 11
500.9908804103408
 21
191.7377056160426
 31
0.0
  0
MTEXT
  5
FE
330
FB
100
AcDbEntity
  8
DIM
 62
     0
100
AcDbMText
 10
498.2408804103406
 20
191.7377056160426
 30
0.0
 40
0.9999999999999998
 41
0.0
 71
     5
 72
     1
  1
\A1;21.290
 73
     1
 44
1.0
1001
ACAD
1000
MTEXTBEGIN
1070
    73
1070
     1
1070
    44
1040
1.0
1070
    74
1070
     0
1000
MTEXTEND
  0
POINT
  5
FF
330
FB
100
AcDbEntity
  8
Defpoints
 62
     0
100
AcDbPoint
 10
511.1948804103408
 20
191.7377056160426
 30
0.0
  0
POINT
  5
100
330
FB
100
AcDbEntity
  8
Defpoints
 62
     0
100
AcDbPoint
 10
500.9908804103408
 20
191.7377056160426
 30
0.0
  0
POINT
  5
101
330
FB
100
AcDbEntity
  8
Defpoints
 62
     0
100
AcDbPoint
 10
504.9908804103409
 20
170.4477056160425
 30
0.0
  0
ENDBLK
  5
102
330
FB
100
AcDbEntity
  8
0
100
AcDbBlockEnd
  0
BLOCK
  5
104
330
103
100
AcDbEntity
  8
0
100
AcDbBlockBegin
  2
*D15
 70
     1
 10
0.0
 20
0.0
 30
0.0
  3
*D15
  1

  0
LINE
  5
105
330
103
100
AcDbEntity
  8
DIM
 62
     0
370
    -2
100
AcDbLine
 10
510.8198804103408
 20
193.2377056160428
 30
0.0
 11
502.9402721565474
 21
193.2377056160428
 31
0.0
  0
MTEXT
  5
106
330
103
100
AcDbEntity
  8
DIM
 62
     0
100
AcDbMText
 10
500.0236054898806
 20
193.2377056160428
 30
0.0
 40
0.9999999999999998
 41
0.0
 71
     5
 72
     1
  1
\A1;22.790
 73
     1
 44
1.0
1001
ACAD
1000
MTEXTBEGIN
1070
    73
1070
     1
1070
    44
1040
1.0
1070
    74
1070
     0
1000
MTEXTEND
  0
POINT
  5
107
330
103
100
AcDbEntity
  8
Defpoints
 62
     0
100
AcDbPoint
 10
511.1948804103408
 20
193.2377056160428
 30
0.0
  0
POINT
  5
108
330
103
100
AcDbEntity
  8
Defpoints
 62
     0
100
AcDbPoint
 10
502.9402721565474
 20
193.2377056160428
 30
0.0
  0
POINT
  5
109
330
103
100
AcDbEntity
  8
Defpoints
 62
     0
100
AcDbPoint
 10
504.9908804103409
 20
170.4477056160425
 30
0.0
  0
ENDBLK
  5
10A
330
103
100
AcDbEntity
  8
0
100
AcDbBlockEnd
  0
BLOCK
  5
10C
330
10B
100
AcDbEntity
  8
0
100
AcDbBlockBegin
  2
*D16
 70
     1
 10
0.0
 20
0.0
 30
0.0
  3
*D16
  1

  0
LINE
  5
10D
330
10B
100
AcDbEntity
  8
DIM
 62
     0
370
    -2
100
AcDbLine
 10
505.816380410341
 20
194.9877056160426
 30
0.0
 11
500.9908804103408
 21
194.9877056160426
 31
0.0
  0
MTEXT
  5
10E
330
10B
100
AcDbEntity
  8
DIM
 62
     0
100
AcDbMText
 10
498.0742137436741
 20
194.9877056160426
 30
0.0
 40
0.9999999999999998
 41
0.0
 71
     5
 72
     1
  1
\A1;24.540
 73
     1
 44
1.0
1001
ACAD
1000
MTEXTBEGIN
1070
    73
1070
     1
1070
    44
1040
1.0
1070
    74
1070
     0
1000
MTEXTEND
  0
POINT
  5
10F
330
10B
100
AcDbEntity
  8
Defpoints
 62
     0
100
AcDbPoint
 10
506.191380410341
 20
194.9877056160426
 30
0.0
  0
POINT
  5
110
330
10B
100
AcDbEntity
  8
Defpoints
 62
     0
100
AcDbPoint
 10
500.9908804103408
 20
194.9877056160426
 30
0.0
  0
POINT
  5
111
330
10B
100
AcDbEntity
  8
Defpoints
 62
     0
100
AcDbPoint
 10
504.9908804103409
 20
170.4477056160425
 30
0.0
  0
ENDBLK
  5
112
330
10B
100
AcDbEntity
  8
0
100
AcDbBlockEnd
  0
BLOCK
  5
114
330
113
100
AcDbEntity
  8
0
100
AcDbBlockBegin
  2
*D17
 70
     1
 10
0.0
 20
0.0
 30
0.0
  3
*D17
  1

  0
LINE
  5
115
330
113
100
AcDbEntity
  8
DIM
 62
     0
370
    -2
100
AcDbLine
 10
505.2126304103408
 20
195.4767056160428
 30
0.0
 11
503.5876304103409
 21
195.4767056160428
 31
0.0
  0
LINE
  5
116
330
113
100
AcDbEntity
  8
DIM
 62
     0
370
    -2
100
AcDbLine
 10
503.5876304103409
 20
195.4767056160428
 30
0.0
 11
502.9908804103406
 21
196.9767056160428
 31
0.0
  0
LINE
  5
117
330
113
100
AcDbEntity
  8
DIM
 62
     0
370
    -2
100
AcDbLine
 10
502.9908804103406
 20
196.9767056160428
 30
0.0
 11
500.9908804103408
 21
196.9767056160428
 31
0.0
  0
MTEXT
  5
118
330
113
100
AcDbEntity
  8
DIM
 62
     0
100
AcDbMText
 10
498.1575470770073
 20
196.9767056160428
 30
0.0
 40
0.9999999999999998
 41
0.0
 71
     5
 72
     1
  1
\A1;25.030
 73
     1
 44
1.0
1001
ACAD
1000
MTEXTBEGIN
1070
    73
1070
     1
1070
    44
1040
1.0
1070
    74
1070
     0
1000
MTEXTEND
  0
POINT
  5
119
330
113
100
AcDbEntity
  8
Defpoints
 62
     0
100
AcDbPoint
 10
505.5876304103407
 20
195.4767056160428
 30
0.0
  0
POINT
  5
11A
330
113
100
AcDbEntity
  8
Defpoints
 62
     0
100
AcDbPoint
 10
500.9908804103408
 20
196.9767056160428
 30
0.0
  0
POINT
  5
11B
330
113
100
AcDbEntity
  8
Defpoints
 62
     0
100
AcDbPoint
 10
504.9908804103409
 20
170.4477056160425
 30
0.0
  0
ENDBLK
  5
11C
330
113
100
AcDbEntity
  8
0
100
AcDbBlockEnd
  0
BLOCK
  5
11E
330
11D
100
AcDbEntity
  8
0
100
AcDbBlockBegin
  2
*D18
 70
     1
 10
0.0
 20
0.0
 30
0.0
  3
*D18
  1

  0
LINE
  5
11F
330
11D
100
AcDbEntity
  8
DIM
 62
     0
370
    -2
100
AcDbLine
 10
504.9998804103409
 20
202.4177056160429
 30
0.0
 11
502.9869102327845
 21
202.4177056160429
 31
0.0
  0
MTEXT
  5
120
330
11D
100
AcDbEntity
  8
DIM
 62
     0
100
AcDbMText
 10
500.2369102327845
 20
202.4177056160429
 30
0.0
 40
0.9999999999999998
 41
0.0
 71
     5
 72
     1
  1
\A1;31.970
 73
     1
 44
1.0
1001
ACAD
1000
MTEXTBEGIN
1070
    73
1070
     1
1070
    44
1040
1.0
1070
    74
1070
     0
1000
MTEXTEND
  0
POINT
  5
121
330
11D
100
AcDbEntity
  8
Defpoints
 62
     0
100
AcDbPoint
 10
505.3748804103409
 20
202.4177056160429
 30
0.0
  0
POINT
  5
122
330
11D
100
AcDbEntity
  8
Defpoints
 62
     0
100
AcDbPoint
 10
502.9869102327845
 20
202.4177056160429
 30
0.0
  0
POINT
  5
123
330
11D
100
AcDbEntity
  8
Defpoints
 62
     0
100
AcDbPoint
 10
504.9908804103409
 20
170.4477056160425
 30
0.0
  0
ENDBLK
  5
124
330
11D
100
AcDbEntity
  8
0
100
AcDbBlockEnd
  0
BLOCK
  5
126
330
125
100
AcDbEntity
  8
0
100
AcDbBlockBegin
  2
*D19
 70
     1
 10
0.0
 20
0.0
 30
0.0
  3
*D19
  1

  0
LINE
  5
127
330
125
100
AcDbEntity
  8
DIM
 62
     0
370
    -2
100
AcDbLine
 10
505.2126304103408
 20
204.2267056160429
 30
0.0
 11
502.9869102327845
 21
204.2267056160429
 31
0.0
  0
MTEXT
  5
128
330
125
100
AcDbEntity
  8
DIM
 62
     0
100
AcDbMText
 10
500.0702435661177
 20
204.2267056160429
 30
0.0
 40
0.9999999999999998
 41
0.0
 71
     5
 72
     1
  1
\A1;33.780
 73
     1
 44
1.0
1001
ACAD
1000
MTEXTBEGIN
1070
    73
1070
     1
1070
    44
1040
1.0
1070
    74
1070
     0
1000
MTEXTEND
  0
POINT
  5
129
330
125
100
AcDbEntity
  8
Defpoints
 62
     0
100
AcDbPoint
 10
505.5876304103407
 20
204.2267056160429
 30
0.0
  0
POINT
  5
12A
330
125
100
AcDbEntity
  8
Defpoints
 62
     0
100
AcDbPoint
 10
502.9869102327845
 20
204.2267056160429
 30
0.0
  0
POINT
  5
12B
330
125
100
AcDbEntity
  8
Defpoints
 62
     0
100
AcDbPoint
 10
504.9908804103409
 20
170.4477056160425
 30
0.0
  0
ENDBLK
  5
12C
330
125
100
AcDbEntity
  8
0
100
AcDbBlockEnd
  0
BLOCK
  5
12E
330
12D
100
AcDbEntity
  8
0
100
AcDbBlockBegin
  2
*D20
 70
     1
 10
0.0
 20
0.0
 30
0.0
  3
*D20
  1

  0
LINE
  5
12F
330
12D
100
AcDbEntity
  8
DIM
 62
     0
370
    -2
100
AcDbLine
 10
515.6436304103408
 20
199.3352056160429
 30
0.0
 11
521.2783606766922
 21
199.3352056160429
 31
0.0
  0
MTEXT
  5
130
330
12D
100
AcDbEntity
  8
DIM
 62
     0
100
AcDbMText
 10
524.2783606766924
 20
199.3352056160429
 30
0.0
 40
0.9999999999999998
 41
0.0
 71
     5
 72
     1
  1
\A1;28.888
 73
     1
 44
1.0
1001
ACAD
1000
MTEXTBEGIN
1070
    73
1070
     1
1070
    44
1040
1.0
1070
    74
1070
     0
1000
MTEXTEND
  0
POINT
  5
131
330
12D
100
AcDbEntity
  8
Defpoints
 62
     0
100
AcDbPoint
 10
515.2686304103408
 20
199.3352056160429
 30
0.0
  0
POINT
  5
132
330
12D
100
AcDbEntity
  8
Defpoints
 62
     0
100
AcDbPoint
 10
521.2783606766922
 20
199.3352056160429
 30
0.0
  0
POINT
  5
133
330
12D
100
AcDbEntity
  8
Defpoints
 62
     0
100
AcDbPoint
 10
504.9908804103409
 20
170.4477056160425
 30
0.0
  0
ENDBLK
  5
134
330
12D
100
AcDbEntity
  8
0
100
AcDbBlockEnd
  0
BLOCK
  5
136
330
135
100
AcDbEntity
  8
0
100
AcDbBlockBegin
  2
*D21
 70
     1
 10
0.0
 20
0.0
 30
0.0
  3
*D21
  1

  0
LINE
  5
137
330
135
100
AcDbEntity
  8
DIM
 62
     0
370
    -2
100
AcDbLine
 10
515.6436304103408
 20
203.7852056160427
 30
0.0
 11
517.2783606766922
 21
203.7852056160427
 31
0.0
  0
LINE
  5
138
330
135
100
AcDbEntity
  8
DIM
 62
     0
370
    -2
100
AcDbLine
 10
517.2783606766922
 20
203.7852056160427
 30
0.0
 11
519.2783606766924
 21
203.0333009345282
 31
0.0
  0
LINE
  5
139
330
135
100
AcDbEntity
  8
DIM
 62
     0
370
    -2
100
AcDbLine
 10
519.2783606766924
 20
203.0333009345282
 30
0.0
 11
521.2783606766922
 21
203.0333009345282
 31
0.0
  0
MTEXT
  5
13A
330
135
100
AcDbEntity
  8
DIM
 62
     0
100
AcDbMText
 10
524.2783606766924
 20
203.0333009345282
 30
0.0
 40
0.9999999999999998
 41
0.0
 71
     5
 72
     1
  1
\A1;33.338
 73
     1
 44
1.0
1001
ACAD
1000
MTEXTBEGIN
1070
    73
1070
     1
1070
    44
1040
1.0
1070
    74
1070
     0
1000
MTEXTEND
  0
POINT
  5
13B
330
135
100
AcDbEntity
  8
Defpoints
 62
     0
100
AcDbPoint
 10
515.2686304103408
 20
203.7852056160427
 30
0.0
  0
POINT
  5
13C
330
135
100
AcDbEntity
  8
Defpoints
 62
     0
100
AcDbPoint
 10
521.2783606766922
 20
203.0333009345282
 30
0.0
  0
POINT
  5
13D
330
135
100
AcDbEntity
  8
Defpoints
 62
     0
100
AcDbPoint
 10
504.9908804103409
 20
170.4477056160425
 30
0.0
  0
ENDBLK
  5
13E
330
135
100
AcDbEntity
  8
0
100
AcDbBlockEnd
  0
BLOCK
  5
140
330
13F
100
AcDbEntity
  8
0
100
AcDbBlockBegin
  2
*D22
 70
     1
 10
0.0
 20
0.0
 30
0.0
  3
*D22
  1

  0
LINE
  5
141
330
13F
100
AcDbEntity
  8
DIM
 62
     0
370
    -2
100
AcDbLine
 10
517.635880410341
 20
204.568705616043
 30
0.0
 11
521.2938502877472
 21
204.568705616043
 31
0.0
  0
MTEXT
  5
142
330
13F
100
AcDbEntity
  8
DIM
 62
     0
100
AcDbMText
 10
523.9605169544138
 20
204.568705616043
 30
0.0
 40
0.9999999999999998
 41
0.0
 71
     5
 72
     1
  1
\A1;34.121
 73
     1
 44
1.0
1001
ACAD
1000
MTEXTBEGIN
1070
    73
1070
     1
1070
    44
1040
1.0
1070
    74
1070
     0
1000
MTEXTEND
  0
POINT
  5
143
330
13F
100
AcDbEntity
  8
Defpoints
 62
     0
100
AcDbPoint
 10
517.2608804103409
 20
204.568705616043
 30
0.0
  0
POINT
  5
144
330
13F
100
AcDbEntity
  8
Defpoints
 62
     0
100
AcDbPoint
 10
521.2938502877472
 20
204.568705616043
 30
0.0
  0
POINT
  5
145
330
13F
100
AcDbEntity
  8
Defpoints
 62
     0
100
AcDbPoint
 10
504.9908804103409
 20
170.4477056160425
 30
0.0
  0
ENDBLK
  5
146
330
13F
100
AcDbEntity
  8
0
100
AcDbBlockEnd
  0
BLOCK
  5
148
330
147
100
AcDbEntity
  8
0
100
AcDbBlockBegin
  2
*D23
 70
     1
 10
0.0
 20
0.0
 30
0.0
  3
*D23
  1

  0
LINE
  5
149
330
147
100
AcDbEntity
  8
DIMENSION
 62
     0
370
    -2
100
AcDbLine
 10
508.6948804103409
 20
193.6127056160426
 30
0.0
 11
508.6948804103409
 21
172.2597603508314
 31
0.0
  0
LINE
  5
14A
330
147
100
AcDbEntity
  8
DIMENSION
 62
     0
370
    -2
100
AcDbLine
 10
508.6948804103409
 20
172.2597603508314
 30
0.0
 11
510.0491362192534
 21
170.2597603508314
 31
0.0
  0
LINE
  5
14B
330
147
100
AcDbEntity
  8
DIMENSION
 62
     0
370
    -2
100
AcDbLine
 10
510.0491362192534
 20
170.2597603508314
 30
0.0
 11
510.0491362192534
 21
168.2597603508314
 31
0.0
  0
MTEXT
  5
14C
330
147
100
AcDbEntity
  8
DIMENSION
 62
     0
100
AcDbMText
 10
510.0491362192534
 20
165.8430936841648
 30
0.0
 40
1.0
 41
0.0
 71
     5
 72
     1
  1
\A1;3.704
 11
0.0000000000000001
 21
1.0
 31
0.0
 73
     1
 44
1.0
1001
ACAD
1000
MTEXTBEGIN
1070
    73
1070
     1
1070
    44
1040
1.0
1070
    74
1070
     0
1000
MTEXTEND
  0
POINT
  5
14D
330
147
100
AcDbEntity
  8
Defpoints
 62
     0
100
AcDbPoint
 10
508.6948804103409
 20
193.9877056160426
 30
0.0
  0
POINT
  5
14E
330
147
100
AcDbEntity
  8
Defpoints
 62
     0
100
AcDbPoint
 10
510.0491362192534
 20
168.2597603508314
 30
0.0
  0
POINT
  5
14F
330
147
100
AcDbEntity
  8
Defpoints
 62
     0
100
AcDbPoint
 10
504.9908804103409
 20
170.4477056160425
 30
0.0
  0
ENDBLK
  5
150
330
147
100
AcDbEntity
  8
0
100
AcDbBlockEnd
  0
BLOCK
  5
152
330
151
100
AcDbEntity
  8
0
100
AcDbBlockBegin
  2
*D24
 70
     1
 10
0.0
 20
0.0
 30
0.0
  3
*D24
  1

  0
LINE
  5
153
330
151
100
AcDbEntity
  8
DIMENSION
 62
     0
370
    -2
100
AcDbLine
 10
509.0698804103409
 20
193.9877056160426
 30
0.0
 11
517.7003288286946
 21
193.9877056160426
 31
0.0
  0
LINE
  5
154
330
151
100
AcDbEntity
  8
DIMENSION
 62
     0
370
    -2
100
AcDbLine
 10
517.7003288286946
 20
193.9877056160426
 30
0.0
 11
519.7003288286946
 21
192.0086188050614
 31
0.0
  0
LINE
  5
155
330
151
100
AcDbEntity
  8
DIMENSION
 62
     0
370
    -2
100
AcDbLine
 10
519.7003288286946
 20
192.0086188050614
 30
0.0
 11
521.7003288286946
 21
192.0086188050614
 31
0.0
  0
MTEXT
  5
156
330
151
100
AcDbEntity
  8
DIMENSION
 62
     0
100
AcDbMText
 10
524.6169954953614
 20
192.0086188050614
 30
0.0
 40
1.0
 41
0.0
 71
     5
 72
     1
  1
\A1;23.540
 73
     1
 44
1.0
1001
ACAD
1000
MTEXTBEGIN
1070
    73
1070
     1
1070
    44
1040
1.0
1070
    74
1070
     0
1000
MTEXTEND
  0
POINT
  5
157
330
151
100
AcDbEntity
  8
Defpoints
 62
     0
100
AcDbPoint
 10
508.6948804103409
 20
193.9877056160426
 30
0.0
  0
POINT
  5
158
330
151
100
AcDbEntity
  8
Defpoints
 62
     0
100
AcDbPoint
 10
521.7003288286946
 20
192.0086188050614
 30
0.0
  0
POINT
  5
159
330
151
100
AcDbEntity
  8
Defpoints
 62
     0
100
AcDbPoint
 10
504.9908804103409
 20
170.4477056160425
 30
0.0
  0
ENDBLK
  5
15A
330
151
100
AcDbEntity
  8
0
100
AcDbBlockEnd
  0
BLOCK
  5
42B
330
425
100
AcDbEntity
  8
0
100
AcDbBlockBegin
  2
*D25
 70
     1
 10
0.0
 20
0.0
 30
0.0
  3
*D25
  1

  0
LINE
  5
A62
330
425
100
AcDbEntity
  8
DIMENSION
 62
     0
370
    -2
100
AcDbLine
 10
-316.7863410605864
 20
-143.108779907645
 30
0.0
 11
-320.4113410605864
 21
-143.108779907645
 31
0.0
  0
MTEXT
  5
A63
330
425
100
AcDbEntity
  8
DIMENSION
 62
     0
100
AcDbMText
 10
-322.5780077272531
 20
-143.108779907645
 30
0.0
 40
0.9999999999999998
 41
0.0
 71
     5
 72
     1
  1
\A1;0.000
 73
     1
 44
1.0
1001
ACAD
1000
MTEXTBEGIN
1070
    73
1070
     1
1070
    44
1040
1.0
1070
    74
1070
     0
1000
MTEXTEND
  0
POINT
  5
A64
330
425
100
AcDbEntity
  8
Defpoints
 62
     0
100
AcDbPoint
 10
-316.4113410605864
 20
-143.108779907645
 30
0.0
  0
POINT
  5
A65
330
425
100
AcDbEntity
  8
Defpoints
 62
     0
100
AcDbPoint
 10
-320.4113410605864
 20
-143.108779907645
 30
0.0
  0
POINT
  5
A66
330
425
100
AcDbEntity
  8
Defpoints
 62
     0
100
AcDbPoint
 10
-316.4113338863013
 20
-143.1088032733104
 30
0.0
  0
ENDBLK
  5
42C
330
425
100
AcDbEntity
  8
0
100
AcDbBlockEnd
  0
BLOCK
  5
433
330
42D
100
AcDbEntity
  8
0
100
AcDbBlockBegin
  2
*D26
 70
     1
 10
0.0
 20
0.0
 30
0.0
  3
*D26
  1

  0
LINE
  5
A5D
330
42D
100
AcDbEntity
  8
DIMENSION
 62
     0
370
    -2
100
AcDbLine
 10
-304.5273410605862
 20
-110.7637799076446
 30
0.0
 11
-304.5273410605862
 21
-105.0681193177677
 31
0.0
  0
MTEXT
  5
A5E
330
42D
100
AcDbEntity
  8
DIMENSION
 62
     0
100
AcDbMText
 10
-304.5273410605862
 20
-102.401452651101
 30
0.0
 40
0.9999999999999998
 41
0.0
 71
     5
 72
     1
  1
\A1;11.884
 11
0.0000000000000001
 21
1.0
 31
0.0
 73
     1
 44
1.0
1001
ACAD
1000
MTEXTBEGIN
1070
    73
1070
     1
1070
    44
1040
1.0
1070
    74
1070
     0
1000
MTEXTEND
  0
POINT
  5
A5F
330
42D
100
AcDbEntity
  8
Defpoints
 62
     0
100
AcDbPoint
 10
-304.5273410605862
 20
-111.1387799076446
 30
0.0
  0
POINT
  5
A60
330
42D
100
AcDbEntity
  8
Defpoints
 62
     0
100
AcDbPoint
 10
-304.5273410605862
 20
-105.0681193177677
 30
0.0
  0
POINT
  5
A61
330
42D
100
AcDbEntity
  8
Defpoints
 62
     0
100
AcDbPoint
 10
-316.4113397700607
 20
-139.0787379124274
 30
0.0
  0
ENDBLK
  5
434
330
42D
100
AcDbEntity
  8
0
100
AcDbBlockEnd
  0
BLOCK
  5
43B
330
435
100
AcDbEntity
  8
0
100
AcDbBlockBegin
  2
*D27
 70
     1
 10
0.0
 20
0.0
 30
0.0
  3
*D27
  1

  0
LINE
  5
A58
330
435
100
AcDbEntity
  8
DIMENSION
 62
     0
370
    -2
100
AcDbLine
 10
-306.1335910605878
 20
-109.3962799076449
 30
0.0
 11
-306.1335910605878
 21
-104.986943019316
 31
0.0
  0
MTEXT
  5
A59
330
435
100
AcDbEntity
  8
DIMENSION
 62
     0
100
AcDbMText
 10
-306.1335910605878
 20
-102.236943019316
 30
0.0
 40
0.9999999999999998
 41
0.0
 71
     5
 72
     1
  1
\A1;10.278
 11
0.0000000000000001
 21
1.0
 31
0.0
 73
     1
 44
1.0
1001
ACAD
1000
MTEXTBEGIN
1070
    73
1070
     1
1070
    44
1040
1.0
1070
    74
1070
     0
1000
MTEXTEND
  0
POINT
  5
A5A
330
435
100
AcDbEntity
  8
Defpoints
 62
     0
100
AcDbPoint
 10
-306.1335910605878
 20
-109.7712799076449
 30
0.0
  0
POINT
  5
A5B
330
435
100
AcDbEntity
  8
Defpoints
 62
     0
100
AcDbPoint
 10
-306.1335910605878
 20
-104.986943019316
 30
0.0
  0
POINT
  5
A5C
330
435
100
AcDbEntity
  8
Defpoints
 62
     0
100
AcDbPoint
 10
-316.4113397700607
 20
-139.0787379124274
 30
0.0
  0
ENDBLK
  5
43C
330
435
100
AcDbEntity
  8
0
100
AcDbBlockEnd
  0
BLOCK
  5
445
330
43D
100
AcDbEntity
  8
0
100
AcDbBlockBegin
  2
*D28
 70
     1
 10
0.0
 20
0.0
 30
0.0
  3
*D28
  1

  0
LINE
  5
A51
330
43D
100
AcDbEntity
  8
DIMENSION
 62
     0
370
    -2
100
AcDbLine
 10
-316.0273410605863
 20
-110.7637799076446
 30
0.0
 11
-316.0273410605863
 21
-109.0194136946744
 31
0.0
  0
LINE
  5
A52
330
43D
100
AcDbEntity
  8
DIMENSION
 62
     0
370
    -2
100
AcDbLine
 10
-316.0273410605863
 20
-109.0194136946744
 30
0.0
 11
-317.3030554271659
 21
-107.0194136946744
 31
0.0
  0
LINE
  5
A53
330
43D
100
AcDbEntity
  8
DIMENSION
 62
     0
370
    -2
100
AcDbLine
 10
-317.3030554271659
 20
-107.0194136946744
 30
0.0
 11
-317.3030554271659
 21
-105.0194136946744
 31
0.0
  0
MTEXT
  5
A54
330
43D
100
AcDbEntity
  8
DIMENSION
 62
     0
100
AcDbMText
 10
-317.3030554271659
 20
-102.6027470280078
 30
0.0
 40
0.9999999999999998
 41
0.0
 71
     5
 72
     1
  1
\A1;0.384
 11
0.0000000000000001
 21
1.0
 31
0.0
 73
     1
 44
1.0
1001
ACAD
1000
MTEXTBEGIN
1070
    73
1070
     1
1070
    44
1040
1.0
1070
    74
1070
     0
1000
MTEXTEND
  0
POINT
  5
A55
330
43D
100
AcDbEntity
  8
Defpoints
 62
     0
100
AcDbPoint
 10
-316.0273410605863
 20
-111.1387799076446
 30
0.0
  0
POINT
  5
A56
330
43D
100
AcDbEntity
  8
Defpoints
 62
     0
100
AcDbPoint
 10
-317.3030554271659
 20
-105.0194136946744
 30
0.0
  0
POINT
  5
A57
330
43D
100
AcDbEntity
  8
Defpoints
 62
     0
100
AcDbPoint
 10
-316.4113397700607
 20
-139.0787379124274
 30
0.0
  0
ENDBLK
  5
446
330
43D
100
AcDbEntity
  8
0
100
AcDbBlockEnd
  0
BLOCK
  5
44F
330
447
100
AcDbEntity
  8
0
100
AcDbBlockBegin
  2
*D29
 70
     1
 10
0.0
 20
0.0
 30
0.0
  3
*D29
  1

  0
LINE
  5
A4A
330
447
100
AcDbEntity
  8
DIMENSION
 62
     0
370
    -2
100
AcDbLine
 10
-308.9710910605863
 20
-109.3962799076449
 30
0.0
 11
-308.9710910605863
 21
-107.7712799076449
 31
0.0
  0
LINE
  5
A4B
330
447
100
AcDbEntity
  8
DIMENSION
 62
     0
370
    -2
100
AcDbLine
 10
-308.9710910605863
 20
-107.7712799076449
 30
0.0
 11
-308.2014954395412
 21
-106.986943019316
 31
0.0
  0
LINE
  5
A4C
330
447
100
AcDbEntity
  8
DIMENSION
 62
     0
370
    -2
100
AcDbLine
 10
-308.2014954395412
 20
-106.986943019316
 30
0.0
 11
-308.2014954395412
 21
-104.986943019316
 31
0.0
  0
MTEXT
  5
A4D
330
447
100
AcDbEntity
  8
DIMENSION
 62
     0
100
AcDbMText
 10
-308.2014954395412
 20
-102.5702763526494
 30
0.0
 40
0.9999999999999998
 41
0.0
 71
     5
 72
     1
  1
\A1;7.440
 11
0.0000000000000001
 21
1.0
 31
0.0
 73
     1
 44
1.0
1001
ACAD
1000
MTEXTBEGIN
1070
    73
1070
     1
1070
    44
1040
1.0
1070
    74
1070
     0
1000
MTEXTEND
  0
POINT
  5
A4E
330
447
100
AcDbEntity
  8
Defpoints
 62
     0
100
AcDbPoint
 10
-308.9710910605863
 20
-109.7712799076449
 30
0.0
  0
POINT
  5
A4F
330
447
100
AcDbEntity
  8
Defpoints
 62
     0
100
AcDbPoint
 10
-308.2014954395412
 20
-104.986943019316
 30
0.0
  0
POINT
  5
A50
330
447
100
AcDbEntity
  8
Defpoints
 62
     0
100
AcDbPoint
 10
-316.4113397700607
 20
-139.0787379124274
 30
0.0
  0
ENDBLK
  5
450
330
447
100
AcDbEntity
  8
0
100
AcDbBlockEnd
  0
BLOCK
  5
457
330
451
100
AcDbEntity
  8
0
100
AcDbBlockBegin
  2
*D30
 70
     1
 10
0.0
 20
0.0
 30
0.0
  3
*D30
  1

  0
LINE
  5
A45
330
451
100
AcDbEntity
  8
DIMENSION
 62
     0
370
    -2
100
AcDbLine
 10
-309.7520910605863
 20
-108.9547799076445
 30
0.0
 11
-309.7520910605863
 21
-104.986943019316
 31
0.0
  0
MTEXT
  5
A46
330
451
100
AcDbEntity
  8
DIMENSION
 62
     0
100
AcDbMText
 10
-309.7520910605863
 20
-102.486943019316
 30
0.0
 40
0.9999999999999998
 41
0.0
 71
     5
 72
     1
  1
\A1;6.659
 11
0.0000000000000001
 21
1.0
 31
0.0
 73
     1
 44
1.0
1001
ACAD
1000
MTEXTBEGIN
1070
    73
1070
     1
1070
    44
1040
1.0
1070
    74
1070
     0
1000
MTEXTEND
  0
POINT
  5
A47
330
451
100
AcDbEntity
  8
Defpoints
 62
     0
100
AcDbPoint
 10
-309.7520910605863
 20
-109.3297799076445
 30
0.0
  0
POINT
  5
A48
330
451
100
AcDbEntity
  8
Defpoints
 62
     0
100
AcDbPoint
 10
-309.7520910605863
 20
-104.986943019316
 30
0.0
  0
POINT
  5
A49
330
451
100
AcDbEntity
  8
Defpoints
 62
     0
100
AcDbPoint
 10
-316.4113397700607
 20
-139.0787379124274
 30
0.0
  0
ENDBLK
  5
458
330
451
100
AcDbEntity
  8
0
100
AcDbBlockEnd
  0
BLOCK
  5
45F
330
459
100
AcDbEntity
  8
0
100
AcDbBlockBegin
  2
*D31
 70
     1
 10
0.0
 20
0.0
 30
0.0
  3
*D31
  1

  0
LINE
  5
A40
330
459
100
AcDbEntity
  8
DIMENSION
 62
     0
370
    -2
100
AcDbLine
 10
-315.8145910605863
 20
-108.9547799076446
 30
0.0
 11
-315.8145910605863
 21
-104.986943019316
 31
0.0
  0
MTEXT
  5
A41
330
459
100
AcDbEntity
  8
DIMENSION
 62
     0
100
AcDbMText
 10
-315.8145910605863
 20
-102.5702763526494
 30
0.0
 40
0.9999999999999998
 41
0.0
 71
     5
 72
     1
  1
\A1;0.597
 11
0.0000000000000001
 21
1.0
 31
0.0
 73
     1
 44
1.0
1001
ACAD
1000
MTEXTBEGIN
1070
    73
1070
     1
1070
    44
1040
1.0
1070
    74
1070
     0
1000
MTEXTEND
  0
POINT
  5
A42
330
459
100
AcDbEntity
  8
Defpoints
 62
     0
100
AcDbPoint
 10
-315.8145910605863
 20
-109.3297799076446
 30
0.0
  0
POINT
  5
A43
330
459
100
AcDbEntity
  8
Defpoints
 62
     0
100
AcDbPoint
 10
-315.8145910605863
 20
-104.986943019316
 30
0.0
  0
POINT
  5
A44
330
459
100
AcDbEntity
  8
Defpoints
 62
     0
100
AcDbPoint
 10
-316.4113397700607
 20
-139.0787379124274
 30
0.0
  0
ENDBLK
  5
460
330
459
100
AcDbEntity
  8
0
100
AcDbBlockEnd
  0
BLOCK
  5
467
330
461
100
AcDbEntity
  8
0
100
AcDbBlockBegin
  2
*D32
 70
     1
 10
0.0
 20
0.0
 30
0.0
  3
*D32
  1

  0
LINE
  5
A3B
330
461
100
AcDbEntity
  8
DIMENSION
 62
     0
370
    -2
100
AcDbLine
 10
-316.4113410605863
 20
-143.3087799076449
 30
0.0
 11
-316.4113410605863
 21
-146.27625243922
 31
0.0
  0
MTEXT
  5
A3C
330
461
100
AcDbEntity
  8
DIMENSION
 62
     0
100
AcDbMText
 10
-316.4113410605862
 20
-148.0329191058867
 30
0.0
 40
1.0
 41
0.0
 71
     5
 72
     1
  1
\A1;0.000
 11
0.0000000000000001
 21
1.0
 31
0.0
 73
     1
 44
1.0
1001
ACAD
1000
MTEXTBEGIN
1070
    73
1070
     1
1070
    44
1040
1.0
1070
    74
1070
     0
1000
MTEXTEND
  0
POINT
  5
A3D
330
461
100
AcDbEntity
  8
Defpoints
 62
     0
100
AcDbPoint
 10
-316.4113410605863
 20
-143.108779907645
 30
0.0
  0
POINT
  5
A3E
330
461
100
AcDbEntity
  8
Defpoints
 62
     0
100
AcDbPoint
 10
-316.4113410605863
 20
-146.27625243922
 30
0.0
  0
POINT
  5
A3F
330
461
100
AcDbEntity
  8
Defpoints
 62
     0
100
AcDbPoint
 10
-316.4113410605863
 20
-143.108779907645
 30
0.0
  0
ENDBLK
  5
468
330
461
100
AcDbEntity
  8
0
100
AcDbBlockEnd
  0
BLOCK
  5
471
330
469
100
AcDbEntity
  8
0
100
AcDbBlockBegin
  2
*D33
 70
     1
 10
0.0
 20
0.0
 30
0.0
  3
*D33
  1

  0
LINE
  5
A34
330
469
100
AcDbEntity
  8
DIMENSION
 62
     0
370
    -2
100
AcDbLine
 10
-315.2108410605861
 20
-118.7687799076449
 30
0.0
 11
-315.2108410605862
 21
-141.9970033903362
 31
0.0
  0
LINE
  5
A35
330
469
100
AcDbEntity
  8
DIMENSION
 62
     0
370
    -2
100
AcDbLine
 10
-315.2108410605862
 20
-141.9970033903362
 30
0.0
 11
-314.7615400140374
 21
-143.9970033903362
 31
0.0
  0
LINE
  5
A36
330
469
100
AcDbEntity
  8
DIMENSION
 62
     0
370
    -2
100
AcDbLine
 10
-314.7615400140374
 20
-143.9970033903362
 30
0.0
 11
-314.7615400140374
 21
-145.9970033903362
 31
0.0
  0
MTEXT
  5
A37
330
469
100
AcDbEntity
  8
DIMENSION
 62
     0
100
AcDbMText
 10
-314.7615400140373
 20
-147.6703367236695
 30
0.0
 40
1.0
 41
0.0
 71
     5
 72
     1
  1
\A1;1.201
 11
0.0000000000000001
 21
1.0
 31
0.0
 73
     1
 44
1.0
1001
ACAD
1000
MTEXTBEGIN
1070
    73
1070
     1
1070
    44
1040
1.0
1070
    74
1070
     0
1000
MTEXTEND
  0
POINT
  5
A38
330
469
100
AcDbEntity
  8
Defpoints
 62
     0
100
AcDbPoint
 10
-315.2108410605861
 20
-118.5687799076449
 30
0.0
  0
POINT
  5
A39
330
469
100
AcDbEntity
  8
Defpoints
 62
     0
100
AcDbPoint
 10
-314.7615400140374
 20
-145.9970033903362
 30
0.0
  0
POINT
  5
A3A
330
469
100
AcDbEntity
  8
Defpoints
 62
     0
100
AcDbPoint
 10
-316.4113410605863
 20
-143.108779907645
 30
0.0
  0
ENDBLK
  5
472
330
469
100
AcDbEntity
  8
0
100
AcDbBlockEnd
  0
BLOCK
  5
47B
330
473
100
AcDbEntity
  8
0
100
AcDbBlockBegin
  2
*D34
 70
     1
 10
0.0
 20
0.0
 30
0.0
  3
*D34
  1

  0
LINE
  5
A2D
330
473
100
AcDbEntity
  8
DIMENSION
 62
     0
370
    -2
100
AcDbLine
 10
-305.3423410605864
 20
-118.7687799076449
 30
0.0
 11
-305.3423410605865
 21
-141.1890224651045
 31
0.0
  0
LINE
  5
A2E
330
473
100
AcDbEntity
  8
DIMENSION
 62
     0
370
    -2
100
AcDbLine
 10
-305.3423410605865
 20
-141.1890224651045
 30
0.0
 11
-305.0286672415278
 21
-143.1890224651045
 31
0.0
  0
LINE
  5
A2F
330
473
100
AcDbEntity
  8
DIMENSION
 62
     0
370
    -2
100
AcDbLine
 10
-305.0286672415278
 20
-143.1890224651045
 30
0.0
 11
-305.0286672415278
 21
-145.1890224651045
 31
0.0
  0
MTEXT
  5
A30
330
473
100
AcDbEntity
  8
DIMENSION
 62
     0
100
AcDbMText
 10
-305.0286672415277
 20
-147.3623557984379
 30
0.0
 40
1.0
 41
0.0
 71
     5
 72
     1
  1
\A1;11.069
 11
0.0000000000000001
 21
1.0
 31
0.0
 73
     1
 44
1.0
1001
ACAD
1000
MTEXTBEGIN
1070
    73
1070
     1
1070
    44
1040
1.0
1070
    74
1070
     0
1000
MTEXTEND
  0
POINT
  5
A31
330
473
100
AcDbEntity
  8
Defpoints
 62
     0
100
AcDbPoint
 10
-305.3423410605864
 20
-118.5687799076449
 30
0.0
  0
POINT
  5
A32
330
473
100
AcDbEntity
  8
Defpoints
 62
     0
100
AcDbPoint
 10
-305.0286672415278
 20
-145.1890224651045
 30
0.0
  0
POINT
  5
A33
330
473
100
AcDbEntity
  8
Defpoints
 62
     0
100
AcDbPoint
 10
-316.4113410605863
 20
-143.108779907645
 30
0.0
  0
ENDBLK
  5
47C
330
473
100
AcDbEntity
  8
0
100
AcDbBlockEnd
  0
BLOCK
  5
485
330
47D
100
AcDbEntity
  8
0
100
AcDbBlockBegin
  2
*D35
 70
     1
 10
0.0
 20
0.0
 30
0.0
  3
*D35
  1

  0
LINE
  5
A26
330
47D
100
AcDbEntity
  8
DIMENSION
 62
     0
370
    -2
100
AcDbLine
 10
-304.1413410605861
 20
-108.6127799076445
 30
0.0
 11
-304.1413410605861
 21
-106.9877799076445
 31
0.0
  0
LINE
  5
A27
330
47D
100
AcDbEntity
  8
DIMENSION
 62
     0
370
    -2
100
AcDbLine
 10
-304.1413410605861
 20
-106.9877799076445
 30
0.0
 11
-302.9538933218047
 21
-106.5657599110942
 31
0.0
  0
LINE
  5
A28
330
47D
100
AcDbEntity
  8
DIMENSION
 62
     0
370
    -2
100
AcDbLine
 10
-302.9538933218047
 20
-106.5657599110942
 30
0.0
 11
-302.9538933218047
 21
-104.5657599110942
 31
0.0
  0
MTEXT
  5
A29
330
47D
100
AcDbEntity
  8
DIMENSION
 62
     0
100
AcDbMText
 10
-302.9538933218047
 20
-101.8157599110943
 30
0.0
 40
0.9999999999999998
 41
0.0
 71
     5
 72
     1
  1
\A1;12.270
 11
0.0000000000000001
 21
1.0
 31
0.0
 73
     1
 44
1.0
1001
ACAD
1000
MTEXTBEGIN
1070
    73
1070
     1
1070
    44
1040
1.0
1070
    74
1070
     0
1000
MTEXTEND
  0
POINT
  5
A2A
330
47D
100
AcDbEntity
  8
Defpoints
 62
     0
100
AcDbPoint
 10
-304.1413410605861
 20
-108.9877799076445
 30
0.0
  0
POINT
  5
A2B
330
47D
100
AcDbEntity
  8
Defpoints
 62
     0
100
AcDbPoint
 10
-302.9538933218047
 20
-104.5657599110942
 30
0.0
  0
POINT
  5
A2C
330
47D
100
AcDbEntity
  8
Defpoints
 62
     0
100
AcDbPoint
 10
-316.4113410605863
 20
-143.108779907645
 30
0.0
  0
ENDBLK
  5
486
330
47D
100
AcDbEntity
  8
0
100
AcDbBlockEnd
  0
BLOCK
  5
48D
330
487
100
AcDbEntity
  8
0
100
AcDbBlockBegin
  2
*D36
 70
     1
 10
0.0
 20
0.0
 30
0.0
  3
*D36
  1

  0
LINE
  5
A21
330
487
100
AcDbEntity
  8
DIMENSION
 62
     0
370
    -2
100
AcDbLine
 10
-314.2273410605862
 20
-137.1387799076447
 30
0.0
 11
-320.1991249975301
 21
-137.1387799076447
 31
0.0
  0
MTEXT
  5
A22
330
487
100
AcDbEntity
  8
DIMENSION
 62
     0
100
AcDbMText
 10
-322.2057916641968
 20
-137.1387799076447
 30
0.0
 40
0.9999999999999998
 41
0.0
 71
     5
 72
     1
  1
\A1;5.970
 73
     1
 44
1.0
1001
ACAD
1000
MTEXTBEGIN
1070
    73
1070
     1
1070
    44
1040
1.0
1070
    74
1070
     0
1000
MTEXTEND
  0
POINT
  5
A23
330
487
100
AcDbEntity
  8
Defpoints
 62
     0
100
AcDbPoint
 10
-314.0273410605863
 20
-137.1387799076447
 30
0.0
  0
POINT
  5
A24
330
487
100
AcDbEntity
  8
Defpoints
 62
     0
100
AcDbPoint
 10
-320.1991249975301
 20
-137.1387799076447
 30
0.0
  0
POINT
  5
A25
330
487
100
AcDbEntity
  8
Defpoints
 62
     0
100
AcDbPoint
 10
-316.4113410605863
 20
-143.108779907645
 30
0.0
  0
ENDBLK
  5
48E
330
487
100
AcDbEntity
  8
0
100
AcDbBlockEnd
  0
BLOCK
  5
495
330
48F
100
AcDbEntity
  8
0
100
AcDbBlockBegin
  2
*D37
 70
     1
 10
0.0
 20
0.0
 30
0.0
  3
*D37
  1

  0
LINE
  5
A1C
330
48F
100
AcDbEntity
  8
DIMENSION
 62
     0
370
    -2
100
AcDbLine
 10
-314.2273410605862
 20
-124.1387799076446
 30
0.0
 11
-318.3896944019811
 21
-124.1387799076446
 31
0.0
  0
MTEXT
  5
A1D
330
48F
100
AcDbEntity
  8
DIMENSION
 62
     0
100
AcDbMText
 10
-320.729694401981
 20
-124.1387799076446
 30
0.0
 40
0.9999999999999998
 41
0.0
 71
     5
 72
     1
  1
\A1;18.970
 73
     1
 44
1.0
1001
ACAD
1000
MTEXTBEGIN
1070
    73
1070
     1
1070
    44
1040
1.0
1070
    74
1070
     0
1000
MTEXTEND
  0
POINT
  5
A1E
330
48F
100
AcDbEntity
  8
Defpoints
 62
     0
100
AcDbPoint
 10
-314.0273410605863
 20
-124.1387799076446
 30
0.0
  0
POINT
  5
A1F
330
48F
100
AcDbEntity
  8
Defpoints
 62
     0
100
AcDbPoint
 10
-318.3896944019811
 20
-124.1387799076446
 30
0.0
  0
POINT
  5
A20
330
48F
100
AcDbEntity
  8
Defpoints
 62
     0
100
AcDbPoint
 10
-316.4113410605863
 20
-143.108779907645
 30
0.0
  0
ENDBLK
  5
496
330
48F
100
AcDbEntity
  8
0
100
AcDbBlockEnd
  0
BLOCK
  5
49D
330
497
100
AcDbEntity
  8
0
100
AcDbBlockBegin
  2
*D38
 70
     1
 10
0.0
 20
0.0
 30
0.0
  3
*D38
  1

  0
LINE
  5
A17
330
497
100
AcDbEntity
  8
DIMENSION
 62
     0
370
    -2
100
AcDbLine
 10
-310.4073410605863
 20
-121.8187799076449
 30
0.0
 11
-320.4113410605864
 21
-121.8187799076449
 31
0.0
  0
MTEXT
  5
A18
330
497
100
AcDbEntity
  8
DIMENSION
 62
     0
100
AcDbMText
 10
-322.7513410605864
 20
-121.8187799076449
 30
0.0
 40
0.9999999999999998
 41
0.0
 71
     5
 72
     1
  1
\A1;21.290
 73
     1
 44
1.0
1001
ACAD
1000
MTEXTBEGIN
1070
    73
1070
     1
1070
    44
1040
1.0
1070
    74
1070
     0
1000
MTEXTEND
  0
POINT
  5
A19
330
497
100
AcDbEntity
  8
Defpoints
 62
     0
100
AcDbPoint
 10
-310.2073410605862
 20
-121.8187799076449
 30
0.0
  0
POINT
  5
A1A
330
497
100
AcDbEntity
  8
Defpoints
 62
     0
100
AcDbPoint
 10
-320.4113410605864
 20
-121.8187799076449
 30
0.0
  0
POINT
  5
A1B
330
497
100
AcDbEntity
  8
Defpoints
 62
     0
100
AcDbPoint
 10
-316.4113410605863
 20
-143.108779907645
 30
0.0
  0
ENDBLK
  5
49E
330
497
100
AcDbEntity
  8
0
100
AcDbBlockEnd
  0
BLOCK
  5
4A5
330
49F
100
AcDbEntity
  8
0
100
AcDbBlockBegin
  2
*D39
 70
     1
 10
0.0
 20
0.0
 30
0.0
  3
*D39
  1

  0
LINE
  5
A12
330
49F
100
AcDbEntity
  8
DIMENSION
 62
     0
370
    -2
100
AcDbLine
 10
-310.4073410605863
 20
-120.3187799076447
 30
0.0
 11
-318.4619493143797
 21
-120.3187799076447
 31
0.0
  0
MTEXT
  5
A13
330
49F
100
AcDbEntity
  8
DIMENSION
 62
     0
100
AcDbMText
 10
-320.9686159810464
 20
-120.3187799076447
 30
0.0
 40
0.9999999999999998
 41
0.0
 71
     5
 72
     1
  1
\A1;22.790
 73
     1
 44
1.0
1001
ACAD
1000
MTEXTBEGIN
1070
    73
1070
     1
1070
    44
1040
1.0
1070
    74
1070
     0
1000
MTEXTEND
  0
POINT
  5
A14
330
49F
100
AcDbEntity
  8
Defpoints
 62
     0
100
AcDbPoint
 10
-310.2073410605862
 20
-120.3187799076447
 30
0.0
  0
POINT
  5
A15
330
49F
100
AcDbEntity
  8
Defpoints
 62
     0
100
AcDbPoint
 10
-318.4619493143797
 20
-120.3187799076447
 30
0.0
  0
POINT
  5
A16
330
49F
100
AcDbEntity
  8
Defpoints
 62
     0
100
AcDbPoint
 10
-316.4113410605863
 20
-143.108779907645
 30
0.0
  0
ENDBLK
  5
4A6
330
49F
100
AcDbEntity
  8
0
100
AcDbBlockEnd
  0
BLOCK
  5
4AD
330
4A7
100
AcDbEntity
  8
0
100
AcDbBlockBegin
  2
*D40
 70
     1
 10
0.0
 20
0.0
 30
0.0
  3
*D40
  1

  0
LINE
  5
A0D
330
4A7
100
AcDbEntity
  8
DIMENSION
 62
     0
370
    -2
100
AcDbLine
 10
-315.4108410605861
 20
-118.5687799076449
 30
0.0
 11
-320.4113410605864
 21
-118.5687799076449
 31
0.0
  0
MTEXT
  5
A0E
330
4A7
100
AcDbEntity
  8
DIMENSION
 62
     0
100
AcDbMText
 10
-322.9180077272531
 20
-118.5687799076449
 30
0.0
 40
0.9999999999999998
 41
0.0
 71
     5
 72
     1
  1
\A1;24.540
 73
     1
 44
1.0
1001
ACAD
1000
MTEXTBEGIN
1070
    73
1070
     1
1070
    44
1040
1.0
1070
    74
1070
     0
1000
MTEXTEND
  0
POINT
  5
A0F
330
4A7
100
AcDbEntity
  8
Defpoints
 62
     0
100
AcDbPoint
 10
-315.2108410605861
 20
-118.5687799076449
 30
0.0
  0
POINT
  5
A10
330
4A7
100
AcDbEntity
  8
Defpoints
 62
     0
100
AcDbPoint
 10
-320.4113410605864
 20
-118.5687799076449
 30
0.0
  0
POINT
  5
A11
330
4A7
100
AcDbEntity
  8
Defpoints
 62
     0
100
AcDbPoint
 10
-316.4113410605863
 20
-143.108779907645
 30
0.0
  0
ENDBLK
  5
4AE
330
4A7
100
AcDbEntity
  8
0
100
AcDbBlockEnd
  0
BLOCK
  5
4B7
330
4AF
100
AcDbEntity
  8
0
100
AcDbBlockBegin
  2
*D41
 70
     1
 10
0.0
 20
0.0
 30
0.0
  3
*D41
  1

  0
LINE
  5
A06
330
4AF
100
AcDbEntity
  8
DIMENSION
 62
     0
370
    -2
100
AcDbLine
 10
-316.0145910605863
 20
-118.0797799076447
 30
0.0
 11
-317.8145910605863
 21
-118.0797799076447
 31
0.0
  0
LINE
  5
A07
330
4AF
100
AcDbEntity
  8
DIMENSION
 62
     0
370
    -2
100
AcDbLine
 10
-317.8145910605863
 20
-118.0797799076447
 30
0.0
 11
-318.4113410605864
 21
-116.5797799076447
 31
0.0
  0
LINE
  5
A08
330
4AF
100
AcDbEntity
  8
DIMENSION
 62
     0
370
    -2
100
AcDbLine
 10
-318.4113410605864
 20
-116.5797799076447
 30
0.0
 11
-320.4113410605864
 21
-116.5797799076447
 31
0.0
  0
MTEXT
  5
A09
330
4AF
100
AcDbEntity
  8
DIMENSION
 62
     0
100
AcDbMText
 10
-322.8346743939198
 20
-116.5797799076447
 30
0.0
 40
0.9999999999999998
 41
0.0
 71
     5
 72
     1
  1
\A1;25.030
 73
     1
 44
1.0
1001
ACAD
1000
MTEXTBEGIN
1070
    73
1070
     1
1070
    44
1040
1.0
1070
    74
1070
     0
1000
MTEXTEND
  0
POINT
  5
A0A
330
4AF
100
AcDbEntity
  8
Defpoints
 62
     0
100
AcDbPoint
 10
-315.8145910605863
 20
-118.0797799076447
 30
0.0
  0
POINT
  5
A0B
330
4AF
100
AcDbEntity
  8
Defpoints
 62
     0
100
AcDbPoint
 10
-320.4113410605864
 20
-116.5797799076447
 30
0.0
  0
POINT
  5
A0C
330
4AF
100
AcDbEntity
  8
Defpoints
 62
     0
100
AcDbPoint
 10
-316.4113410605863
 20
-143.108779907645
 30
0.0
  0
ENDBLK
  5
4B8
330
4AF
100
AcDbEntity
  8
0
100
AcDbBlockEnd
  0
BLOCK
  5
4BF
330
4B9
100
AcDbEntity
  8
0
100
AcDbBlockBegin
  2
*D42
 70
     1
 10
0.0
 20
0.0
 30
0.0
  3
*D42
  1

  0
LINE
  5
A01
330
4B9
100
AcDbEntity
  8
DIMENSION
 62
     0
370
    -2
100
AcDbLine
 10
-316.2273410605862
 20
-111.1387799076446
 30
0.0
 11
-318.4153112381426
 21
-111.1387799076446
 31
0.0
  0
MTEXT
  5
A02
330
4B9
100
AcDbEntity
  8
DIMENSION
 62
     0
100
AcDbMText
 10
-320.7553112381426
 20
-111.1387799076446
 30
0.0
 40
0.9999999999999998
 41
0.0
 71
     5
 72
     1
  1
\A1;31.970
 73
     1
 44
1.0
1001
ACAD
1000
MTEXTBEGIN
1070
    73
1070
     1
1070
    44
1040
1.0
1070
    74
1070
     0
1000
MTEXTEND
  0
POINT
  5
A03
330
4B9
100
AcDbEntity
  8
Defpoints
 62
     0
100
AcDbPoint
 10
-316.0273410605863
 20
-111.1387799076446
 30
0.0
  0
POINT
  5
A04
330
4B9
100
AcDbEntity
  8
Defpoints
 62
     0
100
AcDbPoint
 10
-318.4153112381426
 20
-111.1387799076446
 30
0.0
  0
POINT
  5
A05
330
4B9
100
AcDbEntity
  8
Defpoints
 62
     0
100
AcDbPoint
 10
-316.4113410605863
 20
-143.108779907645
 30
0.0
  0
ENDBLK
  5
4C0
330
4B9
100
AcDbEntity
  8
0
100
AcDbBlockEnd
  0
BLOCK
  5
4C7
330
4C1
100
AcDbEntity
  8
0
100
AcDbBlockBegin
  2
*D43
 70
     1
 10
0.0
 20
0.0
 30
0.0
  3
*D43
  1

  0
LINE
  5
9FC
330
4C1
100
AcDbEntity
  8
DIMENSION
 62
     0
370
    -2
100
AcDbLine
 10
-316.0145910605863
 20
-109.3297799076446
 30
0.0
 11
-318.4153112381426
 21
-109.3297799076446
 31
0.0
  0
MTEXT
  5
9FD
330
4C1
100
AcDbEntity
  8
DIMENSION
 62
     0
100
AcDbMText
 10
-320.9219779048092
 20
-109.3297799076446
 30
0.0
 40
0.9999999999999998
 41
0.0
 71
     5
 72
     1
  1
\A1;33.780
 73
     1
 44
1.0
1001
ACAD
1000
MTEXTBEGIN
1070
    73
1070
     1
1070
    44
1040
1.0
1070
    74
1070
     0
1000
MTEXTEND
  0
POINT
  5
9FE
330
4C1
100
AcDbEntity
  8
Defpoints
 62
     0
100
AcDbPoint
 10
-315.8145910605863
 20
-109.3297799076446
 30
0.0
  0
POINT
  5
9FF
330
4C1
100
AcDbEntity
  8
Defpoints
 62
     0
100
AcDbPoint
 10
-318.4153112381426
 20
-109.3297799076446
 30
0.0
  0
POINT
  5
A00
330
4C1
100
AcDbEntity
  8
Defpoints
 62
     0
100
AcDbPoint
 10
-316.4113410605863
 20
-143.108779907645
 30
0.0
  0
ENDBLK
  5
4C8
330
4C1
100
AcDbEntity
  8
0
100
AcDbBlockEnd
  0
BLOCK
  5
4CF
330
4C9
100
AcDbEntity
  8
0
100
AcDbBlockBegin
  2
*D44
 70
     1
 10
0.0
 20
0.0
 30
0.0
  3
*D44
  1

  0
LINE
  5
9F7
330
4C9
100
AcDbEntity
  8
DIMENSION
 62
     0
370
    -2
100
AcDbLine
 10
-305.9335910605863
 20
-114.2212799076446
 30
0.0
 11
-300.1238607942348
 21
-114.2212799076446
 31
0.0
  0
MTEXT
  5
9F8
330
4C9
100
AcDbEntity
  8
DIMENSION
 62
     0
100
AcDbMText
 10
-297.5338607942348
 20
-114.2212799076446
 30
0.0
 40
0.9999999999999998
 41
0.0
 71
     5
 72
     1
  1
\A1;28.888
 73
     1
 44
1.0
1001
ACAD
1000
MTEXTBEGIN
1070
    73
1070
     1
1070
    44
1040
1.0
1070
    74
1070
     0
1000
MTEXTEND
  0
POINT
  5
9F9
330
4C9
100
AcDbEntity
  8
Defpoints
 62
     0
100
AcDbPoint
 10
-306.1335910605862
 20
-114.2212799076446
 30
0.0
  0
POINT
  5
9FA
330
4C9
100
AcDbEntity
  8
Defpoints
 62
     0
100
AcDbPoint
 10
-300.1238607942348
 20
-114.2212799076446
 30
0.0
  0
POINT
  5
9FB
330
4C9
100
AcDbEntity
  8
Defpoints
 62
     0
100
AcDbPoint
 10
-316.4113410605863
 20
-143.108779907645
 30
0.0
  0
ENDBLK
  5
4D0
330
4C9
100
AcDbEntity
  8
0
100
AcDbBlockEnd
  0
BLOCK
  5
4D9
330
4D1
100
AcDbEntity
  8
0
100
AcDbBlockBegin
  2
*D45
 70
     1
 10
0.0
 20
0.0
 30
0.0
  3
*D45
  1

  0
LINE
  5
9F0
330
4D1
100
AcDbEntity
  8
DIMENSION
 62
     0
370
    -2
100
AcDbLine
 10
-305.9335910605863
 20
-109.7712799076449
 30
0.0
 11
-304.1238607942347
 21
-109.7712799076449
 31
0.0
  0
LINE
  5
9F1
330
4D1
100
AcDbEntity
  8
DIMENSION
 62
     0
370
    -2
100
AcDbLine
 10
-304.1238607942347
 20
-109.7712799076449
 30
0.0
 11
-302.1238607942347
 21
-110.5231845891593
 31
0.0
  0
LINE
  5
9F2
330
4D1
100
AcDbEntity
  8
DIMENSION
 62
     0
370
    -2
100
AcDbLine
 10
-302.1238607942347
 20
-110.5231845891593
 30
0.0
 11
-300.1238607942348
 21
-110.5231845891593
 31
0.0
  0
MTEXT
  5
9F3
330
4D1
100
AcDbEntity
  8
DIMENSION
 62
     0
100
AcDbMText
 10
-297.5338607942348
 20
-110.5231845891593
 30
0.0
 40
0.9999999999999998
 41
0.0
 71
     5
 72
     1
  1
\A1;33.338
 73
     1
 44
1.0
1001
ACAD
1000
MTEXTBEGIN
1070
    73
1070
     1
1070
    44
1040
1.0
1070
    74
1070
     0
1000
MTEXTEND
  0
POINT
  5
9F4
330
4D1
100
AcDbEntity
  8
Defpoints
 62
     0
100
AcDbPoint
 10
-306.1335910605862
 20
-109.7712799076449
 30
0.0
  0
POINT
  5
9F5
330
4D1
100
AcDbEntity
  8
Defpoints
 62
     0
100
AcDbPoint
 10
-300.1238607942348
 20
-110.5231845891593
 30
0.0
  0
POINT
  5
9F6
330
4D1
100
AcDbEntity
  8
Defpoints
 62
     0
100
AcDbPoint
 10
-316.4113410605863
 20
-143.108779907645
 30
0.0
  0
ENDBLK
  5
4DA
330
4D1
100
AcDbEntity
  8
0
100
AcDbBlockEnd
  0
BLOCK
  5
4E1
330
4DB
100
AcDbEntity
  8
0
100
AcDbBlockBegin
  2
*D46
 70
     1
 10
0.0
 20
0.0
 30
0.0
  3
*D46
  1

  0
LINE
  5
9EB
330
4DB
100
AcDbEntity
  8
DIMENSION
 62
     0
370
    -2
100
AcDbLine
 10
-303.9413410605861
 20
-108.9877799076445
 30
0.0
 11
-300.10837118318
 21
-108.9877799076445
 31
0.0
  0
MTEXT
  5
9EC
330
4DB
100
AcDbEntity
  8
DIMENSION
 62
     0
100
AcDbMText
 10
-297.8517045165133
 20
-108.9877799076445
 30
0.0
 40
0.9999999999999998
 41
0.0
 71
     5
 72
     1
  1
\A1;34.121
 73
     1
 44
1.0
1001
ACAD
1000
MTEXTBEGIN
1070
    73
1070
     1
1070
    44
1040
1.0
1070
    74
1070
     0
1000
MTEXTEND
  0
POINT
  5
9ED
330
4DB
100
AcDbEntity
  8
Defpoints
 62
     0
100
AcDbPoint
 10
-304.1413410605861
 20
-108.9877799076445
 30
0.0
  0
POINT
  5
9EE
330
4DB
100
AcDbEntity
  8
Defpoints
 62
     0
100
AcDbPoint
 10
-300.10837118318
 20
-108.9877799076445
 30
0.0
  0
POINT
  5
9EF
330
4DB
100
AcDbEntity
  8
Defpoints
 62
     0
100
AcDbPoint
 10
-316.4113410605863
 20
-143.108779907645
 30
0.0
  0
ENDBLK
  5
4E2
330
4DB
100
AcDbEntity
  8
0
100
AcDbBlockEnd
  0
BLOCK
  5
4EB
330
4E3
100
AcDbEntity
  8
0
100
AcDbBlockBegin
  2
*D47
 70
     1
 10
0.0
 20
0.0
 30
0.0
  3
*D47
  1

  0
LINE
  5
9E4
330
4E3
100
AcDbEntity
  8
DIMENSION
 62
     0
370
    -2
100
AcDbLine
 10
-312.7073410605863
 20
-119.7687799076449
 30
0.0
 11
-312.7073410605863
 21
-141.706725172856
 31
0.0
  0
LINE
  5
9E5
330
4E3
100
AcDbEntity
  8
DIMENSION
 62
     0
370
    -2
100
AcDbLine
 10
-312.7073410605863
 20
-141.706725172856
 30
0.0
 11
-311.3530852516738
 21
-143.706725172856
 31
0.0
  0
LINE
  5
9E6
330
4E3
100
AcDbEntity
  8
DIMENSION
 62
     0
370
    -2
100
AcDbLine
 10
-311.3530852516738
 20
-143.706725172856
 30
0.0
 11
-311.3530852516738
 21
-145.706725172856
 31
0.0
  0
MTEXT
  5
9E7
330
4E3
100
AcDbEntity
  8
DIMENSION
 62
     0
100
AcDbMText
 10
-311.3530852516738
 20
-147.7133918395227
 30
0.0
 40
1.0
 41
0.0
 71
     5
 72
     1
  1
\A1;3.704
 11
0.0000000000000001
 21
1.0
 31
0.0
 73
     1
 44
1.0
1001
ACAD
1000
MTEXTBEGIN
1070
    73
1070
     1
1070
    44
1040
1.0
1070
    74
1070
     0
1000
MTEXTEND
  0
POINT
  5
9E8
330
4E3
100
AcDbEntity
  8
Defpoints
 62
     0
100
AcDbPoint
 10
-312.7073410605863
 20
-119.5687799076449
 30
0.0
  0
POINT
  5
9E9
330
4E3
100
AcDbEntity
  8
Defpoints
 62
     0
100
AcDbPoint
 10
-311.3530852516738
 20
-145.706725172856
 30
0.0
  0
POINT
  5
9EA
330
4E3
100
AcDbEntity
  8
Defpoints
 62
     0
100
AcDbPoint
 10
-316.4113410605863
 20
-143.108779907645
 30
0.0
  0
ENDBLK
  5
4EC
330
4E3
100
AcDbEntity
  8
0
100
AcDbBlockEnd
  0
BLOCK
  5
4F5
330
4ED
100
AcDbEntity
  8
0
100
AcDbBlockBegin
  2
*D48
 70
     1
 10
0.0
 20
0.0
 30
0.0
  3
*D48
  1

  0
LINE
  5
9DD
330
4ED
100
AcDbEntity
  8
DIMENSION
 62
     0
370
    -2
100
AcDbLine
 10
-312.5073410605863
 20
-119.5687799076449
 30
0.0
 11
-303.7018926422324
 21
-119.5687799076449
 31
0.0
  0
LINE
  5
9DE
330
4ED
100
AcDbEntity
  8
DIMENSION
 62
     0
370
    -2
100
AcDbLine
 10
-303.7018926422324
 20
-119.5687799076449
 30
0.0
 11
-301.7018926422324
 21
-121.5478667186261
 31
0.0
  0
LINE
  5
9DF
330
4ED
100
AcDbEntity
  8
DIMENSION
 62
     0
370
    -2
100
AcDbLine
 10
-301.7018926422324
 20
-121.5478667186261
 30
0.0
 11
-299.7018926422324
 21
-121.5478667186261
 31
0.0
  0
MTEXT
  5
9E0
330
4ED
100
AcDbEntity
  8
DIMENSION
 62
     0
100
AcDbMText
 10
-297.1952259755658
 20
-121.5478667186261
 30
0.0
 40
1.0
 41
0.0
 71
     5
 72
     1
  1
\A1;23.540
 73
     1
 44
1.0
1001
ACAD
1000
MTEXTBEGIN
1070
    73
1070
     1
1070
    44
1040
1.0
1070
    74
1070
     0
1000
MTEXTEND
  0
POINT
  5
9E1
330
4ED
100
AcDbEntity
  8
Defpoints
 62
     0
100
AcDbPoint
 10
-312.7073410605863
 20
-119.5687799076449
 30
0.0
  0
POINT
  5
9E2
330
4ED
100
AcDbEntity
  8
Defpoints
 62
     0
100
AcDbPoint
 10
-299.7018926422324
 20
-121.5478667186261
 30
0.0
  0
POINT
  5
9E3
330
4ED
100
AcDbEntity
  8
Defpoints
 62
     0
100
AcDbPoint
 10
-316.4113410605863
 20
-143.108779907645
 30
0.0
  0
ENDBLK
  5
4F6
330
4ED
100
AcDbEntity
  8
0
100
AcDbBlockEnd
  0
BLOCK
  5
634
330
633
100
AcDbEntity
  8
0
100
AcDbBlockBegin
  2
*D49
 70
     1
 10
0.0
 20
0.0
 30
0.0
  3
*D49
  1

  0
LINE
  5
635
330
633
100
AcDbEntity
  8
DIM
 62
     0
370
    -2
100
AcDbLine
 10
255.9308618905453
 20
194.7877056160428
 30
0.0
 11
264.5613103088991
 21
194.7877056160428
 31
0.0
  0
LINE
  5
636
330
633
100
AcDbEntity
  8
DIM
 62
     0
370
    -2
100
AcDbLine
 10
264.5613103088991
 20
194.7877056160428
 30
0.0
 11
266.5613103088991
 21
191.2597181808737
 31
0.0
  0
LINE
  5
637
330
633
100
AcDbEntity
  8
DIM
 62
     0
370
    -2
100
AcDbLine
 10
266.5613103088991
 20
191.2597181808737
 30
0.0
 11
268.5613103088991
 21
191.2597181808737
 31
0.0
  0
MTEXT
  5
638
330
633
100
AcDbEntity
  8
DIM
 62
     0
100
AcDbMText
 10
271.4779769755658
 20
191.2597181808737
 30
0.0
 40
0.9999999999999998
 41
0.0
 71
     5
 72
     1
  1
\A1;23.540
 73
     1
 44
1.0
1001
ACAD
1000
MTEXTBEGIN
1070
    73
1070
     1
1070
    44
1040
1.0
1070
    74
1070
     0
1000
MTEXTEND
  0
POINT
  5
639
330
633
100
AcDbEntity
  8
Defpoints
 62
     0
100
AcDbPoint
 10
255.5558618905453
 20
194.7877056160428
 30
0.0
  0
POINT
  5
63A
330
633
100
AcDbEntity
  8
Defpoints
 62
     0
100
AcDbPoint
 10
268.5613103088991
 20
191.2597181808737
 30
0.0
  0
POINT
  5
63B
330
633
100
AcDbEntity
  8
Defpoints
 62
     0
100
AcDbPoint
 10
251.8518618905454
 20
171.2477056160428
 30
0.0
  0
ENDBLK
  5
63C
330
633
100
AcDbEntity
  8
0
100
AcDbBlockEnd
  0
BLOCK
  5
63E
330
63D
100
AcDbEntity
  8
0
100
AcDbBlockBegin
  2
*D50
 70
     1
 10
0.0
 20
0.0
 30
0.0
  3
*D50
  1

  0
LINE
  5
63F
330
63D
100
AcDbEntity
  8
DIM
 62
     0
370
    -2
100
AcDbLine
 10
255.5558618905453
 20
194.4127056160428
 30
0.0
 11
255.5558618905453
 21
172.2523984522146
 31
0.0
  0
LINE
  5
640
330
63D
100
AcDbEntity
  8
DIM
 62
     0
370
    -2
100
AcDbLine
 10
255.5558618905453
 20
172.2523984522146
 30
0.0
 11
256.9101176994577
 21
170.2523984522146
 31
0.0
  0
LINE
  5
641
330
63D
100
AcDbEntity
  8
DIM
 62
     0
370
    -2
100
AcDbLine
 10
256.9101176994577
 20
170.2523984522146
 30
0.0
 11
256.9101176994577
 21
168.2523984522146
 31
0.0
  0
MTEXT
  5
642
330
63D
100
AcDbEntity
  8
DIM
 62
     0
100
AcDbMText
 10
256.9101176994577
 20
165.835731785548
 30
0.0
 40
0.9999999999999998
 41
0.0
 71
     5
 72
     1
  1
\A1;3.704
 11
0.0000000000000001
 21
1.0
 31
0.0
 73
     1
 44
1.0
1001
ACAD
1000
MTEXTBEGIN
1070
    73
1070
     1
1070
    44
1040
1.0
1070
    74
1070
     0
1000
MTEXTEND
  0
POINT
  5
643
330
63D
100
AcDbEntity
  8
Defpoints
 62
     0
100
AcDbPoint
 10
255.5558618905453
 20
194.7877056160428
 30
0.0
  0
POINT
  5
644
330
63D
100
AcDbEntity
  8
Defpoints
 62
     0
100
AcDbPoint
 10
256.9101176994577
 20
168.2523984522146
 30
0.0
  0
POINT
  5
645
330
63D
100
AcDbEntity
  8
Defpoints
 62
     0
100
AcDbPoint
 10
251.8518618905454
 20
171.2477056160428
 30
0.0
  0
ENDBLK
  5
646
330
63D
100
AcDbEntity
  8
0
100
AcDbBlockEnd
  0
BLOCK
  5
648
330
647
100
AcDbEntity
  8
0
100
AcDbBlockBegin
  2
*D51
 70
     1
 10
0.0
 20
0.0
 30
0.0
  3
*D51
  1

  0
LINE
  5
649
330
647
100
AcDbEntity
  8
DIM
 62
     0
370
    -2
100
AcDbLine
 10
264.4968618905455
 20
205.3687056160434
 30
0.0
 11
268.1548317679517
 21
205.3687056160434
 31
0.0
  0
MTEXT
  5
64A
330
647
100
AcDbEntity
  8
DIM
 62
     0
100
AcDbMText
 10
270.8214984346184
 20
205.3687056160434
 30
0.0
 40
0.9999999999999998
 41
0.0
 71
     5
 72
     1
  1
\A1;34.121
 73
     1
 44
1.0
1001
ACAD
1000
MTEXTBEGIN
1070
    73
1070
     1
1070
    44
1040
1.0
1070
    74
1070
     0
1000
MTEXTEND
  0
POINT
  5
64B
330
647
100
AcDbEntity
  8
Defpoints
 62
     0
100
AcDbPoint
 10
264.1218618905455
 20
205.3687056160434
 30
0.0
  0
POINT
  5
64C
330
647
100
AcDbEntity
  8
Defpoints
 62
     0
100
AcDbPoint
 10
268.1548317679517
 20
205.3687056160434
 30
0.0
  0
POINT
  5
64D
330
647
100
AcDbEntity
  8
Defpoints
 62
     0
100
AcDbPoint
 10
251.8518618905454
 20
171.2477056160428
 30
0.0
  0
ENDBLK
  5
64E
330
647
100
AcDbEntity
  8
0
100
AcDbBlockEnd
  0
BLOCK
  5
650
330
64F
100
AcDbEntity
  8
0
100
AcDbBlockBegin
  2
*D52
 70
     1
 10
0.0
 20
0.0
 30
0.0
  3
*D52
  1

  0
LINE
  5
651
330
64F
100
AcDbEntity
  8
DIM
 62
     0
370
    -2
100
AcDbLine
 10
262.5046118905453
 20
204.5852056160429
 30
0.0
 11
264.1393421568969
 21
204.5852056160429
 31
0.0
  0
LINE
  5
652
330
64F
100
AcDbEntity
  8
DIM
 62
     0
370
    -2
100
AcDbLine
 10
264.1393421568969
 20
204.5852056160429
 30
0.0
 11
266.1393421568969
 21
203.8333009345286
 31
0.0
  0
LINE
  5
653
330
64F
100
AcDbEntity
  8
DIM
 62
     0
370
    -2
100
AcDbLine
 10
266.1393421568969
 20
203.8333009345286
 30
0.0
 11
268.1393421568969
 21
203.8333009345286
 31
0.0
  0
MTEXT
  5
654
330
64F
100
AcDbEntity
  8
DIM
 62
     0
100
AcDbMText
 10
271.1393421568969
 20
203.8333009345286
 30
0.0
 40
0.9999999999999998
 41
0.0
 71
     5
 72
     1
  1
\A1;33.338
 73
     1
 44
1.0
1001
ACAD
1000
MTEXTBEGIN
1070
    73
1070
     1
1070
    44
1040
1.0
1070
    74
1070
     0
1000
MTEXTEND
  0
POINT
  5
655
330
64F
100
AcDbEntity
  8
Defpoints
 62
     0
100
AcDbPoint
 10
262.1296118905453
 20
204.5852056160429
 30
0.0
  0
POINT
  5
656
330
64F
100
AcDbEntity
  8
Defpoints
 62
     0
100
AcDbPoint
 10
268.1393421568969
 20
203.8333009345286
 30
0.0
  0
POINT
  5
657
330
64F
100
AcDbEntity
  8
Defpoints
 62
     0
100
AcDbPoint
 10
251.8518618905454
 20
171.2477056160428
 30
0.0
  0
ENDBLK
  5
658
330
64F
100
AcDbEntity
  8
0
100
AcDbBlockEnd
  0
BLOCK
  5
65A
330
659
100
AcDbEntity
  8
0
100
AcDbBlockBegin
  2
*D53
 70
     1
 10
0.0
 20
0.0
 30
0.0
  3
*D53
  1

  0
LINE
  5
65B
330
659
100
AcDbEntity
  8
DIM
 62
     0
370
    -2
100
AcDbLine
 10
262.5046118905453
 20
200.1352056160431
 30
0.0
 11
268.1393421568969
 21
200.1352056160431
 31
0.0
  0
MTEXT
  5
65C
330
659
100
AcDbEntity
  8
DIM
 62
     0
100
AcDbMText
 10
271.1393421568969
 20
200.1352056160431
 30
0.0
 40
0.9999999999999998
 41
0.0
 71
     5
 72
     1
  1
\A1;28.888
 73
     1
 44
1.0
1001
ACAD
1000
MTEXTBEGIN
1070
    73
1070
     1
1070
    44
1040
1.0
1070
    74
1070
     0
1000
MTEXTEND
  0
POINT
  5
65D
330
659
100
AcDbEntity
  8
Defpoints
 62
     0
100
AcDbPoint
 10
262.1296118905453
 20
200.1352056160431
 30
0.0
  0
POINT
  5
65E
330
659
100
AcDbEntity
  8
Defpoints
 62
     0
100
AcDbPoint
 10
268.1393421568969
 20
200.1352056160431
 30
0.0
  0
POINT
  5
65F
330
659
100
AcDbEntity
  8
Defpoints
 62
     0
100
AcDbPoint
 10
251.8518618905454
 20
171.2477056160428
 30
0.0
  0
ENDBLK
  5
660
330
659
100
AcDbEntity
  8
0
100
AcDbBlockEnd
  0
BLOCK
  5
662
330
661
100
AcDbEntity
  8
0
100
AcDbBlockBegin
  2
*D54
 70
     1
 10
0.0
 20
0.0
 30
0.0
  3
*D54
  1

  0
LINE
  5
663
330
661
100
AcDbEntity
  8
DIM
 62
     0
370
    -2
100
AcDbLine
 10
252.0736118905453
 20
205.026705616043
 30
0.0
 11
249.8478917129891
 21
205.026705616043
 31
0.0
  0
MTEXT
  5
664
330
661
100
AcDbEntity
  8
DIM
 62
     0
100
AcDbMText
 10
246.9312250463224
 20
205.026705616043
 30
0.0
 40
0.9999999999999998
 41
0.0
 71
     5
 72
     1
  1
\A1;33.780
 73
     1
 44
1.0
1001
ACAD
1000
MTEXTBEGIN
1070
    73
1070
     1
1070
    44
1040
1.0
1070
    74
1070
     0
1000
MTEXTEND
  0
POINT
  5
665
330
661
100
AcDbEntity
  8
Defpoints
 62
     0
100
AcDbPoint
 10
252.4486118905453
 20
205.026705616043
 30
0.0
  0
POINT
  5
666
330
661
100
AcDbEntity
  8
Defpoints
 62
     0
100
AcDbPoint
 10
249.8478917129891
 20
205.026705616043
 30
0.0
  0
POINT
  5
667
330
661
100
AcDbEntity
  8
Defpoints
 62
     0
100
AcDbPoint
 10
251.8518618905454
 20
171.2477056160428
 30
0.0
  0
ENDBLK
  5
668
330
661
100
AcDbEntity
  8
0
100
AcDbBlockEnd
  0
BLOCK
  5
66A
330
669
100
AcDbEntity
  8
0
100
AcDbBlockBegin
  2
*D55
 70
     1
 10
0.0
 20
0.0
 30
0.0
  3
*D55
  1

  0
LINE
  5
66B
330
669
100
AcDbEntity
  8
DIM
 62
     0
370
    -2
100
AcDbLine
 10
251.8608618905454
 20
203.2177056160431
 30
0.0
 11
249.8478917129891
 21
203.2177056160431
 31
0.0
  0
MTEXT
  5
66C
330
669
100
AcDbEntity
  8
DIM
 62
     0
100
AcDbMText
 10
247.097891712989
 20
203.2177056160431
 30
0.0
 40
0.9999999999999998
 41
0.0
 71
     5
 72
     1
  1
\A1;31.970
 73
     1
 44
1.0
1001
ACAD
1000
MTEXTBEGIN
1070
    73
1070
     1
1070
    44
1040
1.0
1070
    74
1070
     0
1000
MTEXTEND
  0
POINT
  5
66D
330
669
100
AcDbEntity
  8
Defpoints
 62
     0
100
AcDbPoint
 10
252.2358618905454
 20
203.2177056160431
 30
0.0
  0
POINT
  5
66E
330
669
100
AcDbEntity
  8
Defpoints
 62
     0
100
AcDbPoint
 10
249.8478917129891
 20
203.2177056160431
 30
0.0
  0
POINT
  5
66F
330
669
100
AcDbEntity
  8
Defpoints
 62
     0
100
AcDbPoint
 10
251.8518618905454
 20
171.2477056160428
 30
0.0
  0
ENDBLK
  5
670
330
669
100
AcDbEntity
  8
0
100
AcDbBlockEnd
  0
BLOCK
  5
672
330
671
100
AcDbEntity
  8
0
100
AcDbBlockBegin
  2
*D56
 70
     1
 10
0.0
 20
0.0
 30
0.0
  3
*D56
  1

  0
LINE
  5
673
330
671
100
AcDbEntity
  8
DIM
 62
     0
370
    -2
100
AcDbLine
 10
252.0736118905453
 20
196.276705616043
 30
0.0
 11
250.4486118905453
 21
196.276705616043
 31
0.0
  0
LINE
  5
674
330
671
100
AcDbEntity
  8
DIM
 62
     0
370
    -2
100
AcDbLine
 10
250.4486118905453
 20
196.276705616043
 30
0.0
 11
249.8518618905452
 21
197.776705616043
 31
0.0
  0
LINE
  5
675
330
671
100
AcDbEntity
  8
DIM
 62
     0
370
    -2
100
AcDbLine
 10
249.8518618905452
 20
197.776705616043
 30
0.0
 11
247.8518618905452
 21
197.776705616043
 31
0.0
  0
MTEXT
  5
676
330
671
100
AcDbEntity
  8
DIM
 62
     0
100
AcDbMText
 10
245.0185285572119
 20
197.776705616043
 30
0.0
 40
0.9999999999999998
 41
0.0
 71
     5
 72
     1
  1
\A1;25.030
 73
     1
 44
1.0
1001
ACAD
1000
MTEXTBEGIN
1070
    73
1070
     1
1070
    44
1040
1.0
1070
    74
1070
     0
1000
MTEXTEND
  0
POINT
  5
677
330
671
100
AcDbEntity
  8
Defpoints
 62
     0
100
AcDbPoint
 10
252.4486118905453
 20
196.276705616043
 30
0.0
  0
POINT
  5
678
330
671
100
AcDbEntity
  8
Defpoints
 62
     0
100
AcDbPoint
 10
247.8518618905452
 20
197.776705616043
 30
0.0
  0
POINT
  5
679
330
671
100
AcDbEntity
  8
Defpoints
 62
     0
100
AcDbPoint
 10
251.8518618905454
 20
171.2477056160428
 30
0.0
  0
ENDBLK
  5
67A
330
671
100
AcDbEntity
  8
0
100
AcDbBlockEnd
  0
BLOCK
  5
67C
330
67B
100
AcDbEntity
  8
0
100
AcDbBlockBegin
  2
*D57
 70
     1
 10
0.0
 20
0.0
 30
0.0
  3
*D57
  1

  0
LINE
  5
67D
330
67B
100
AcDbEntity
  8
DIM
 62
     0
370
    -2
100
AcDbLine
 10
252.6773618905455
 20
195.7877056160428
 30
0.0
 11
247.8518618905452
 21
195.7877056160428
 31
0.0
  0
MTEXT
  5
67E
330
67B
100
AcDbEntity
  8
DIM
 62
     0
100
AcDbMText
 10
244.9351952238786
 20
195.7877056160428
 30
0.0
 40
0.9999999999999998
 41
0.0
 71
     5
 72
     1
  1
\A1;24.540
 73
     1
 44
1.0
1001
ACAD
1000
MTEXTBEGIN
1070
    73
1070
     1
1070
    44
1040
1.0
1070
    74
1070
     0
1000
MTEXTEND
  0
POINT
  5
67F
330
67B
100
AcDbEntity
  8
Defpoints
 62
     0
100
AcDbPoint
 10
253.0523618905455
 20
195.7877056160428
 30
0.0
  0
POINT
  5
680
330
67B
100
AcDbEntity
  8
Defpoints
 62
     0
100
AcDbPoint
 10
247.8518618905452
 20
195.7877056160428
 30
0.0
  0
POINT
  5
681
330
67B
100
AcDbEntity
  8
Defpoints
 62
     0
100
AcDbPoint
 10
251.8518618905454
 20
171.2477056160428
 30
0.0
  0
ENDBLK
  5
682
330
67B
100
AcDbEntity
  8
0
100
AcDbBlockEnd
  0
BLOCK
  5
684
330
683
100
AcDbEntity
  8
0
100
AcDbBlockBegin
  2
*D58
 70
     1
 10
0.0
 20
0.0
 30
0.0
  3
*D58
  1

  0
LINE
  5
685
330
683
100
AcDbEntity
  8
DIM
 62
     0
370
    -2
100
AcDbLine
 10
257.6808618905453
 20
194.037705616043
 30
0.0
 11
251.9328259268743
 21
194.037705616043
 31
0.0
  0
LINE
  5
686
330
683
100
AcDbEntity
  8
DIM
 62
     0
370
    -2
100
AcDbLine
 10
251.9328259268743
 20
194.037705616043
 30
0.0
 11
249.9328259268743
 21
191.6780328361795
 31
0.0
  0
LINE
  5
687
330
683
100
AcDbEntity
  8
DIM
 62
     0
370
    -2
100
AcDbLine
 10
249.9328259268743
 20
191.6780328361795
 30
0.0
 11
247.9328259268743
 21
191.6780328361795
 31
0.0
  0
MTEXT
  5
688
330
683
100
AcDbEntity
  8
DIM
 62
     0
100
AcDbMText
 10
245.0161592602076
 20
191.6780328361795
 30
0.0
 40
0.9999999999999998
 41
0.0
 71
     5
 72
     1
  1
\A1;22.790
 73
     1
 44
1.0
1001
ACAD
1000
MTEXTBEGIN
1070
    73
1070
     1
1070
    44
1040
1.0
1070
    74
1070
     0
1000
MTEXTEND
  0
POINT
  5
689
330
683
100
AcDbEntity
  8
Defpoints
 62
     0
100
AcDbPoint
 10
258.0558618905453
 20
194.037705616043
 30
0.0
  0
POINT
  5
68A
330
683
100
AcDbEntity
  8
Defpoints
 62
     0
100
AcDbPoint
 10
247.9328259268743
 20
191.6780328361795
 30
0.0
  0
POINT
  5
68B
330
683
100
AcDbEntity
  8
Defpoints
 62
     0
100
AcDbPoint
 10
251.8518618905454
 20
171.2477056160428
 30
0.0
  0
ENDBLK
  5
68C
330
683
100
AcDbEntity
  8
0
100
AcDbBlockEnd
  0
BLOCK
  5
68E
330
68D
100
AcDbEntity
  8
0
100
AcDbBlockBegin
  2
*D59
 70
     1
 10
0.0
 20
0.0
 30
0.0
  3
*D59
  1

  0
LINE
  5
68F
330
68D
100
AcDbEntity
  8
DIM
 62
     0
370
    -2
100
AcDbLine
 10
257.6808618905453
 20
192.5377056160428
 30
0.0
 11
251.8518618905452
 21
192.5377056160428
 31
0.0
  0
LINE
  5
690
330
68D
100
AcDbEntity
  8
DIM
 62
     0
370
    -2
100
AcDbLine
 10
251.8518618905452
 20
192.5377056160428
 30
0.0
 11
249.8518618905452
 21
189.8007020092468
 31
0.0
  0
LINE
  5
691
330
68D
100
AcDbEntity
  8
DIM
 62
     0
370
    -2
100
AcDbLine
 10
249.8518618905452
 20
189.8007020092468
 30
0.0
 11
247.8518618905452
 21
189.8007020092468
 31
0.0
  0
MTEXT
  5
692
330
68D
100
AcDbEntity
  8
DIM
 62
     0
100
AcDbMText
 10
245.1018618905453
 20
189.8007020092468
 30
0.0
 40
0.9999999999999998
 41
0.0
 71
     5
 72
     1
  1
\A1;21.290
 73
     1
 44
1.0
1001
ACAD
1000
MTEXTBEGIN
1070
    73
1070
     1
1070
    44
1040
1.0
1070
    74
1070
     0
1000
MTEXTEND
  0
POINT
  5
693
330
68D
100
AcDbEntity
  8
Defpoints
 62
     0
100
AcDbPoint
 10
258.0558618905453
 20
192.5377056160428
 30
0.0
  0
POINT
  5
694
330
68D
100
AcDbEntity
  8
Defpoints
 62
     0
100
AcDbPoint
 10
247.8518618905452
 20
189.8007020092468
 30
0.0
  0
POINT
  5
695
330
68D
100
AcDbEntity
  8
Defpoints
 62
     0
100
AcDbPoint
 10
251.8518618905454
 20
171.2477056160428
 30
0.0
  0
ENDBLK
  5
696
330
68D
100
AcDbEntity
  8
0
100
AcDbBlockEnd
  0
BLOCK
  5
698
330
697
100
AcDbEntity
  8
0
100
AcDbBlockBegin
  2
*D60
 70
     1
 10
0.0
 20
0.0
 30
0.0
  3
*D60
  1

  0
LINE
  5
699
330
697
100
AcDbEntity
  8
DIM
 62
     0
370
    -2
100
AcDbLine
 10
253.8608618905454
 20
190.217705616043
 30
0.0
 11
252.2358618905454
 21
190.217705616043
 31
0.0
  0
LINE
  5
69A
330
697
100
AcDbEntity
  8
DIM
 62
     0
370
    -2
100
AcDbLine
 10
252.2358618905454
 20
190.217705616043
 30
0.0
 11
251.8735085491506
 21
187.6205758494794
 31
0.0
  0
LINE
  5
69B
330
697
100
AcDbEntity
  8
DIM
 62
     0
370
    -2
100
AcDbLine
 10
251.8735085491506
 20
187.6205758494794
 30
0.0
 11
249.8735085491507
 21
187.6205758494794
 31
0.0
  0
MTEXT
  5
69C
330
697
100
AcDbEntity
  8
DIM
 62
     0
100
AcDbMText
 10
247.1235085491506
 20
187.6205758494794
 30
0.0
 40
0.9999999999999998
 41
0.0
 71
     5
 72
     1
  1
\A1;18.970
 73
     1
 44
1.0
1001
ACAD
1000
MTEXTBEGIN
1070
    73
1070
     1
1070
    44
1040
1.0
1070
    74
1070
     0
1000
MTEXTEND
  0
POINT
  5
69D
330
697
100
AcDbEntity
  8
Defpoints
 62
     0
100
AcDbPoint
 10
254.2358618905454
 20
190.217705616043
 30
0.0
  0
POINT
  5
69E
330
697
100
AcDbEntity
  8
Defpoints
 62
     0
100
AcDbPoint
 10
249.8735085491507
 20
187.6205758494794
 30
0.0
  0
POINT
  5
69F
330
697
100
AcDbEntity
  8
Defpoints
 62
     0
100
AcDbPoint
 10
251.8518618905454
 20
171.2477056160428
 30
0.0
  0
ENDBLK
  5
6A0
330
697
100
AcDbEntity
  8
0
100
AcDbBlockEnd
  0
BLOCK
  5
6A2
330
6A1
100
AcDbEntity
  8
0
100
AcDbBlockBegin
  2
*D61
 70
     1
 10
0.0
 20
0.0
 30
0.0
  3
*D61
  1

  0
LINE
  5
6A3
330
6A1
100
AcDbEntity
  8
DIM
 62
     0
370
    -2
100
AcDbLine
 10
253.8608618905454
 20
177.2177056160431
 30
0.0
 11
248.0640779536015
 21
177.2177056160431
 31
0.0
  0
MTEXT
  5
6A4
330
6A1
100
AcDbEntity
  8
DIM
 62
     0
100
AcDbMText
 10
245.6474112869349
 20
177.2177056160431
 30
0.0
 40
0.9999999999999998
 41
0.0
 71
     5
 72
     1
  1
\A1;5.970
 73
     1
 44
1.0
1001
ACAD
1000
MTEXTBEGIN
1070
    73
1070
     1
1070
    44
1040
1.0
1070
    74
1070
     0
1000
MTEXTEND
  0
POINT
  5
6A5
330
6A1
100
AcDbEntity
  8
Defpoints
 62
     0
100
AcDbPoint
 10
254.2358618905454
 20
177.2177056160431
 30
0.0
  0
POINT
  5
6A6
330
6A1
100
AcDbEntity
  8
Defpoints
 62
     0
100
AcDbPoint
 10
248.0640779536015
 20
177.2177056160431
 30
0.0
  0
POINT
  5
6A7
330
6A1
100
AcDbEntity
  8
Defpoints
 62
     0
100
AcDbPoint
 10
251.8518618905454
 20
171.2477056160428
 30
0.0
  0
ENDBLK
  5
6A8
330
6A1
100
AcDbEntity
  8
0
100
AcDbBlockEnd
  0
BLOCK
  5
6AA
330
6A9
100
AcDbEntity
  8
0
100
AcDbBlockBegin
  2
*D62
 70
     1
 10
0.0
 20
0.0
 30
0.0
  3
*D62
  1

  0
LINE
  5
6AB
330
6A9
100
AcDbEntity
  8
DIM
 62
     0
370
    -2
100
AcDbLine
 10
262.9208618905453
 20
195.4127056160428
 30
0.0
 11
262.9208618905453
 21
173.1674630585833
 31
0.0
  0
LINE
  5
6AC
330
6A9
100
AcDbEntity
  8
DIM
 62
     0
370
    -2
100
AcDbLine
 10
262.9208618905453
 20
173.1674630585833
 30
0.0
 11
263.2345357096038
 21
171.1674630585832
 31
0.0
  0
LINE
  5
6AD
330
6A9
100
AcDbEntity
  8
DIM
 62
     0
370
    -2
100
AcDbLine
 10
263.2345357096038
 20
171.1674630585832
 30
0.0
 11
263.2345357096038
 21
169.1674630585833
 31
0.0
  0
MTEXT
  5
6AE
330
6A9
100
AcDbEntity
  8
DIM
 62
     0
100
AcDbMText
 10
263.2345357096038
 20
166.5841297252499
 30
0.0
 40
1.0
 41
0.0
 71
     5
 72
     1
  1
\A1;11.069
 11
0.0000000000000001
 21
1.0
 31
0.0
 73
     1
 44
1.0
1001
ACAD
1000
MTEXTBEGIN
1070
    73
1070
     1
1070
    44
1040
1.0
1070
    74
1070
     0
1000
MTEXTEND
  0
POINT
  5
6AF
330
6A9
100
AcDbEntity
  8
Defpoints
 62
     0
100
AcDbPoint
 10
262.9208618905453
 20
195.7877056160428
 30
0.0
  0
POINT
  5
6B0
330
6A9
100
AcDbEntity
  8
Defpoints
 62
     0
100
AcDbPoint
 10
263.2345357096038
 20
169.1674630585833
 30
0.0
  0
POINT
  5
6B1
330
6A9
100
AcDbEntity
  8
Defpoints
 62
     0
100
AcDbPoint
 10
251.8518618905454
 20
171.2477056160428
 30
0.0
  0
ENDBLK
  5
6B2
330
6A9
100
AcDbEntity
  8
0
100
AcDbBlockEnd
  0
BLOCK
  5
6B4
330
6B3
100
AcDbEntity
  8
0
100
AcDbBlockBegin
  2
*D63
 70
     1
 10
0.0
 20
0.0
 30
0.0
  3
*D63
  1

  0
LINE
  5
6B5
330
6B3
100
AcDbEntity
  8
DIM
 62
     0
370
    -2
100
AcDbLine
 10
251.8518618905454
 20
170.8727056160428
 30
0.0
 11
251.8518618905454
 21
167.5204342875678
 31
0.0
  0
MTEXT
  5
6B6
330
6B3
100
AcDbEntity
  8
DIM
 62
     0
100
AcDbMText
 10
251.8518618905453
 20
165.3537676209012
 30
0.0
 40
1.0
 41
0.0
 71
     5
 72
     1
  1
\A1;0.000
 11
0.0000000000000001
 21
1.0
 31
0.0
 73
     1
 44
1.0
1001
ACAD
1000
MTEXTBEGIN
1070
    73
1070
     1
1070
    44
1040
1.0
1070
    74
1070
     0
1000
MTEXTEND
  0
POINT
  5
6B7
330
6B3
100
AcDbEntity
  8
Defpoints
 62
     0
100
AcDbPoint
 10
251.8518618905454
 20
171.2477056160428
 30
0.0
  0
POINT
  5
6B8
330
6B3
100
AcDbEntity
  8
Defpoints
 62
     0
100
AcDbPoint
 10
251.8518618905454
 20
167.5204342875678
 30
0.0
  0
POINT
  5
6B9
330
6B3
100
AcDbEntity
  8
Defpoints
 62
     0
100
AcDbPoint
 10
251.8518618905454
 20
171.2477056160428
 30
0.0
  0
ENDBLK
  5
6BA
330
6B3
100
AcDbEntity
  8
0
100
AcDbBlockEnd
  0
BLOCK
  5
6BC
330
6BB
100
AcDbEntity
  8
0
100
AcDbBlockBegin
  2
*D64
 70
     1
 10
0.0
 20
0.0
 30
0.0
  3
*D64
  1

  0
LINE
  5
6BD
330
6BB
100
AcDbEntity
  8
DIM
 62
     0
370
    -2
100
AcDbLine
 10
252.4486118905453
 20
205.401705616043
 30
0.0
 11
252.4486118905453
 21
209.3695425043718
 31
0.0
  0
MTEXT
  5
6BE
330
6BB
100
AcDbEntity
  8
DIM
 62
     0
100
AcDbMText
 10
252.4486118905453
 20
211.7862091710385
 30
0.0
 40
0.9999999999999998
 41
0.0
 71
     5
 72
     1
  1
\A1;0.597
 11
0.0000000000000001
 21
1.0
 31
0.0
 73
     1
 44
1.0
1001
ACAD
1000
MTEXTBEGIN
1070
    73
1070
     1
1070
    44
1040
1.0
1070
    74
1070
     0
1000
MTEXTEND
  0
POINT
  5
6BF
330
6BB
100
AcDbEntity
  8
Defpoints
 62
     0
100
AcDbPoint
 10
252.4486118905453
 20
205.026705616043
 30
0.0
  0
POINT
  5
6C0
330
6BB
100
AcDbEntity
  8
Defpoints
 62
     0
100
AcDbPoint
 10
252.4486118905453
 20
209.3695425043718
 30
0.0
  0
POINT
  5
6C1
330
6BB
100
AcDbEntity
  8
Defpoints
 62
     0
100
AcDbPoint
 10
251.8518631810708
 20
175.2777476112603
 30
0.0
  0
ENDBLK
  5
6C2
330
6BB
100
AcDbEntity
  8
0
100
AcDbBlockEnd
  0
BLOCK
  5
6C4
330
6C3
100
AcDbEntity
  8
0
100
AcDbBlockBegin
  2
*D65
 70
     1
 10
0.0
 20
0.0
 30
0.0
  3
*D65
  1

  0
LINE
  5
6C5
330
6C3
100
AcDbEntity
  8
DIM
 62
     0
370
    -2
100
AcDbLine
 10
258.5111118905453
 20
205.4017056160433
 30
0.0
 11
258.5111118905453
 21
209.3695425043718
 31
0.0
  0
MTEXT
  5
6C6
330
6C3
100
AcDbEntity
  8
DIM
 62
     0
100
AcDbMText
 10
258.5111118905452
 20
211.8695425043718
 30
0.0
 40
0.9999999999999998
 41
0.0
 71
     5
 72
     1
  1
\A1;6.659
 11
0.0000000000000001
 21
1.0
 31
0.0
 73
     1
 44
1.0
1001
ACAD
1000
MTEXTBEGIN
1070
    73
1070
     1
1070
    44
1040
1.0
1070
    74
1070
     0
1000
MTEXTEND
  0
POINT
  5
6C7
330
6C3
100
AcDbEntity
  8
Defpoints
 62
     0
100
AcDbPoint
 10
258.5111118905453
 20
205.0267056160433
 30
0.0
  0
POINT
  5
6C8
330
6C3
100
AcDbEntity
  8
Defpoints
 62
     0
100
AcDbPoint
 10
258.5111118905453
 20
209.3695425043718
 30
0.0
  0
POINT
  5
6C9
330
6C3
100
AcDbEntity
  8
Defpoints
 62
     0
100
AcDbPoint
 10
251.8518631810708
 20
175.2777476112603
 30
0.0
  0
ENDBLK
  5
6CA
330
6C3
100
AcDbEntity
  8
0
100
AcDbBlockEnd
  0
BLOCK
  5
6CC
330
6CB
100
AcDbEntity
  8
0
100
AcDbBlockBegin
  2
*D66
 70
     1
 10
0.0
 20
0.0
 30
0.0
  3
*D66
  1

  0
LINE
  5
6CD
330
6CB
100
AcDbEntity
  8
DIM
 62
     0
370
    -2
100
AcDbLine
 10
259.2921118905453
 20
204.9602056160429
 30
0.0
 11
259.2921118905453
 21
206.5852056160429
 31
0.0
  0
LINE
  5
6CE
330
6CB
100
AcDbEntity
  8
DIM
 62
     0
370
    -2
100
AcDbLine
 10
259.2921118905453
 20
206.5852056160429
 30
0.0
 11
260.0617075115905
 21
207.3695425043718
 31
0.0
  0
LINE
  5
6CF
330
6CB
100
AcDbEntity
  8
DIM
 62
     0
370
    -2
100
AcDbLine
 10
260.0617075115905
 20
207.3695425043718
 30
0.0
 11
260.0617075115905
 21
209.3695425043718
 31
0.0
  0
MTEXT
  5
6D0
330
6CB
100
AcDbEntity
  8
DIM
 62
     0
100
AcDbMText
 10
260.0617075115904
 20
211.7862091710385
 30
0.0
 40
0.9999999999999998
 41
0.0
 71
     5
 72
     1
  1
\A1;7.440
 11
0.0000000000000001
 21
1.0
 31
0.0
 73
     1
 44
1.0
1001
ACAD
1000
MTEXTBEGIN
1070
    73
1070
     1
1070
    44
1040
1.0
1070
    74
1070
     0
1000
MTEXTEND
  0
POINT
  5
6D1
330
6CB
100
AcDbEntity
  8
Defpoints
 62
     0
100
AcDbPoint
 10
259.2921118905453
 20
204.5852056160429
 30
0.0
  0
POINT
  5
6D2
330
6CB
100
AcDbEntity
  8
Defpoints
 62
     0
100
AcDbPoint
 10
260.0617075115905
 20
209.3695425043718
 30
0.0
  0
POINT
  5
6D3
330
6CB
100
AcDbEntity
  8
Defpoints
 62
     0
100
AcDbPoint
 10
251.8518631810708
 20
175.2777476112603
 30
0.0
  0
ENDBLK
  5
6D4
330
6CB
100
AcDbEntity
  8
0
100
AcDbBlockEnd
  0
BLOCK
  5
6D6
330
6D5
100
AcDbEntity
  8
0
100
AcDbBlockBegin
  2
*D67
 70
     1
 10
0.0
 20
0.0
 30
0.0
  3
*D67
  1

  0
LINE
  5
6D7
330
6D5
100
AcDbEntity
  8
DIM
 62
     0
370
    -2
100
AcDbLine
 10
252.2358618905454
 20
203.5927056160431
 30
0.0
 11
252.2358618905454
 21
205.3370718290135
 31
0.0
  0
LINE
  5
6D8
330
6D5
100
AcDbEntity
  8
DIM
 62
     0
370
    -2
100
AcDbLine
 10
252.2358618905454
 20
205.3370718290135
 30
0.0
 11
250.9601475239657
 21
207.3370718290135
 31
0.0
  0
LINE
  5
6D9
330
6D5
100
AcDbEntity
  8
DIM
 62
     0
370
    -2
100
AcDbLine
 10
250.9601475239657
 20
207.3370718290135
 30
0.0
 11
250.9601475239657
 21
209.3370718290134
 31
0.0
  0
MTEXT
  5
6DA
330
6D5
100
AcDbEntity
  8
DIM
 62
     0
100
AcDbMText
 10
250.9601475239656
 20
211.7537384956801
 30
0.0
 40
0.9999999999999998
 41
0.0
 71
     5
 72
     1
  1
\A1;0.384
 11
0.0000000000000001
 21
1.0
 31
0.0
 73
     1
 44
1.0
1001
ACAD
1000
MTEXTBEGIN
1070
    73
1070
     1
1070
    44
1040
1.0
1070
    74
1070
     0
1000
MTEXTEND
  0
POINT
  5
6DB
330
6D5
100
AcDbEntity
  8
Defpoints
 62
     0
100
AcDbPoint
 10
252.2358618905454
 20
203.2177056160431
 30
0.0
  0
POINT
  5
6DC
330
6D5
100
AcDbEntity
  8
Defpoints
 62
     0
100
AcDbPoint
 10
250.9601475239657
 20
209.3370718290134
 30
0.0
  0
POINT
  5
6DD
330
6D5
100
AcDbEntity
  8
Defpoints
 62
     0
100
AcDbPoint
 10
251.8518631810708
 20
175.2777476112603
 30
0.0
  0
ENDBLK
  5
6DE
330
6D5
100
AcDbEntity
  8
0
100
AcDbBlockEnd
  0
BLOCK
  5
6E0
330
6DF
100
AcDbEntity
  8
0
100
AcDbBlockBegin
  2
*D68
 70
     1
 10
0.0
 20
0.0
 30
0.0
  3
*D68
  1

  0
LINE
  5
6E1
330
6DF
100
AcDbEntity
  8
DIM
 62
     0
370
    -2
100
AcDbLine
 10
262.1296118905438
 20
204.9602056160429
 30
0.0
 11
262.1296118905438
 21
209.3695425043718
 31
0.0
  0
MTEXT
  5
6E2
330
6DF
100
AcDbEntity
  8
DIM
 62
     0
100
AcDbMText
 10
262.1296118905437
 20
212.1195425043718
 30
0.0
 40
0.9999999999999998
 41
0.0
 71
     5
 72
     1
  1
\A1;10.278
 11
0.0000000000000001
 21
1.0
 31
0.0
 73
     1
 44
1.0
1001
ACAD
1000
MTEXTBEGIN
1070
    73
1070
     1
1070
    44
1040
1.0
1070
    74
1070
     0
1000
MTEXTEND
  0
POINT
  5
6E3
330
6DF
100
AcDbEntity
  8
Defpoints
 62
     0
100
AcDbPoint
 10
262.1296118905438
 20
204.5852056160429
 30
0.0
  0
POINT
  5
6E4
330
6DF
100
AcDbEntity
  8
Defpoints
 62
     0
100
AcDbPoint
 10
262.1296118905438
 20
209.3695425043718
 30
0.0
  0
POINT
  5
6E5
330
6DF
100
AcDbEntity
  8
Defpoints
 62
     0
100
AcDbPoint
 10
251.8518631810708
 20
175.2777476112603
 30
0.0
  0
ENDBLK
  5
6E6
330
6DF
100
AcDbEntity
  8
0
100
AcDbBlockEnd
  0
BLOCK
  5
6E8
330
6E7
100
AcDbEntity
  8
0
100
AcDbBlockBegin
  2
*D69
 70
     1
 10
0.0
 20
0.0
 30
0.0
  3
*D69
  1

  0
LINE
  5
6E9
330
6E7
100
AcDbEntity
  8
DIM
 62
     0
370
    -2
100
AcDbLine
 10
263.7358618905454
 20
203.5927056160431
 30
0.0
 11
263.7358618905454
 21
209.28836620592
 31
0.0
  0
MTEXT
  5
6EA
330
6E7
100
AcDbEntity
  8
DIM
 62
     0
100
AcDbMText
 10
263.7358618905453
 20
211.9550328725867
 30
0.0
 40
0.9999999999999998
 41
0.0
 71
     5
 72
     1
  1
\A1;11.884
 11
0.0000000000000001
 21
1.0
 31
0.0
 73
     1
 44
1.0
1001
ACAD
1000
MTEXTBEGIN
1070
    73
1070
     1
1070
    44
1040
1.0
1070
    74
1070
     0
1000
MTEXTEND
  0
POINT
  5
6EB
330
6E7
100
AcDbEntity
  8
Defpoints
 62
     0
100
AcDbPoint
 10
263.7358618905454
 20
203.2177056160431
 30
0.0
  0
POINT
  5
6EC
330
6E7
100
AcDbEntity
  8
Defpoints
 62
     0
100
AcDbPoint
 10
263.7358618905454
 20
209.28836620592
 30
0.0
  0
POINT
  5
6ED
330
6E7
100
AcDbEntity
  8
Defpoints
 62
     0
100
AcDbPoint
 10
251.8518631810708
 20
175.2777476112603
 30
0.0
  0
ENDBLK
  5
6EE
330
6E7
100
AcDbEntity
  8
0
100
AcDbBlockEnd
  0
BLOCK
  5
6F0
330
6EF
100
AcDbEntity
  8
0
100
AcDbBlockBegin
  2
*D70
 70
     1
 10
0.0
 20
0.0
 30
0.0
  3
*D70
  1

  0
LINE
  5
6F1
330
6EF
100
AcDbEntity
  8
DIM
 62
     0
370
    -2
100
AcDbLine
 10
251.4768618905453
 20
171.2477056160428
 30
0.0
 11
247.8518618905452
 21
171.2477056160428
 31
0.0
  0
MTEXT
  5
6F2
330
6EF
100
AcDbEntity
  8
DIM
 62
     0
100
AcDbMText
 10
245.6851952238786
 20
171.2477056160428
 30
0.0
 40
0.9999999999999998
 41
0.0
 71
     5
 72
     1
  1
\A1;0.000
 73
     1
 44
1.0
1001
ACAD
1000
MTEXTBEGIN
1070
    73
1070
     1
1070
    44
1040
1.0
1070
    74
1070
     0
1000
MTEXTEND
  0
POINT
  5
6F3
330
6EF
100
AcDbEntity
  8
Defpoints
 62
     0
100
AcDbPoint
 10
251.8518618905452
 20
171.2477056160428
 30
0.0
  0
POINT
  5
6F4
330
6EF
100
AcDbEntity
  8
Defpoints
 62
     0
100
AcDbPoint
 10
247.8518618905452
 20
171.2477056160428
 30
0.0
  0
POINT
  5
6F5
330
6EF
100
AcDbEntity
  8
Defpoints
 62
     0
100
AcDbPoint
 10
251.8518690648303
 20
171.2476822503774
 30
0.0
  0
ENDBLK
  5
6F6
330
6EF
100
AcDbEntity
  8
0
100
AcDbBlockEnd
  0
BLOCK
  5
6F8
330
6F7
100
AcDbEntity
  8
0
100
AcDbBlockBegin
  2
*D71
 70
     1
 10
0.0
 20
0.0
 30
0.0
  3
*D71
  1

  0
LINE
  5
6F9
330
6F7
100
AcDbEntity
  8
DIMENSION
 62
     0
370
    -2
100
AcDbLine
 10
252.2273618905455
 20
171.9652056160425
 30
0.0
 11
250.6023618905455
 21
171.9652056160425
 31
0.0
  0
LINE
  5
6FA
330
6F7
100
AcDbEntity
  8
DIMENSION
 62
     0
370
    -2
100
AcDbLine
 10
250.6023618905455
 20
171.9652056160425
 30
0.0
 11
250.0146970644255
 21
172.4716351193656
 31
0.0
  0
LINE
  5
6FB
330
6F7
100
AcDbEntity
  8
DIMENSION
 62
     0
370
    -2
100
AcDbLine
 10
250.0146970644255
 20
172.4716351193656
 30
0.0
 11
248.0146970644255
 21
172.4716351193656
 31
0.0
  0
MTEXT
  5
6FC
330
6F7
100
AcDbEntity
  8
DIMENSION
 62
     0
100
AcDbMText
 10
245.7646970644255
 20
172.4716351193656
 30
0.0
 40
1.0
 41
0.0
 71
     5
 72
     1
  1
\A1;0.718
 73
     1
 44
1.0
1001
ACAD
1000
MTEXTBEGIN
1070
    73
1070
     1
1070
    44
1040
1.0
1070
    74
1070
     0
1000
MTEXTEND
  0
POINT
  5
6FD
330
6F7
100
AcDbEntity
  8
Defpoints
 62
     0
100
AcDbPoint
 10
252.6023618905455
 20
171.9652056160425
 30
0.0
  0
POINT
  5
6FE
330
6F7
100
AcDbEntity
  8
Defpoints
 62
     0
100
AcDbPoint
 10
248.0146970644255
 20
172.4716351193656
 30
0.0
  0
POINT
  5
6FF
330
6F7
100
AcDbEntity
  8
Defpoints
 62
     0
100
AcDbPoint
 10
251.8518690648303
 20
171.2476822503774
 30
0.0
  0
ENDBLK
  5
700
330
6F7
100
AcDbEntity
  8
0
100
AcDbBlockEnd
  0
BLOCK
  5
702
330
701
100
AcDbEntity
  8
0
100
AcDbBlockBegin
  2
*D72
 70
     1
 10
0.0
 20
0.0
 30
0.0
  3
*D72
  1

  0
LINE
  5
703
330
701
100
AcDbEntity
  8
DIMENSION
 62
     0
370
    -2
100
AcDbLine
 10
252.2273618905455
 20
175.0902056160425
 30
0.0
 11
250.6023618905455
 21
175.0902056160425
 31
0.0
  0
LINE
  5
704
330
701
100
AcDbEntity
  8
DIMENSION
 62
     0
370
    -2
100
AcDbLine
 10
250.6023618905455
 20
175.0902056160425
 30
0.0
 11
250.3563322637365
 21
174.578537701298
 31
0.0
  0
LINE
  5
705
330
701
100
AcDbEntity
  8
DIMENSION
 62
     0
370
    -2
100
AcDbLine
 10
250.3563322637365
 20
174.578537701298
 30
0.0
 11
248.3563322637365
 21
174.578537701298
 31
0.0
  0
MTEXT
  5
706
330
701
100
AcDbEntity
  8
DIMENSION
 62
     0
100
AcDbMText
 10
245.8563322637365
 20
174.578537701298
 30
0.0
 40
1.0
 41
0.0
 71
     5
 72
     1
  1
\A1;3.843
 73
     1
 44
1.0
1001
ACAD
1000
MTEXTBEGIN
1070
    73
1070
     1
1070
    44
1040
1.0
1070
    74
1070
     0
1000
MTEXTEND
  0
POINT
  5
707
330
701
100
AcDbEntity
  8
Defpoints
 62
     0
100
AcDbPoint
 10
252.6023618905455
 20
175.0902056160425
 30
0.0
  0
POINT
  5
708
330
701
100
AcDbEntity
  8
Defpoints
 62
     0
100
AcDbPoint
 10
248.3563322637365
 20
174.578537701298
 30
0.0
  0
POINT
  5
709
330
701
100
AcDbEntity
  8
Defpoints
 62
     0
100
AcDbPoint
 10
251.8518690648303
 20
171.2476822503774
 30
0.0
  0
ENDBLK
  5
70A
330
701
100
AcDbEntity
  8
0
100
AcDbBlockEnd
  0
BLOCK
  5
70C
330
70B
100
AcDbEntity
  8
0
100
AcDbBlockBegin
  2
*D73
 70
     1
 10
0.0
 20
0.0
 30
0.0
  3
*D73
  1

  0
LINE
  5
70D
330
70B
100
AcDbEntity
  8
DIMENSION
 62
     0
370
    -2
100
AcDbLine
 10
252.6023618905455
 20
171.5902056160425
 30
0.0
 11
252.6023618905455
 21
169.9652056160426
 31
0.0
  0
LINE
  5
70E
330
70B
100
AcDbEntity
  8
DIMENSION
 62
     0
370
    -2
100
AcDbLine
 10
252.6023618905455
 20
169.9652056160426
 30
0.0
 11
252.9826499258825
 21
169.9563854065905
 31
0.0
  0
LINE
  5
70F
330
70B
100
AcDbEntity
  8
DIMENSION
 62
     0
370
    -2
100
AcDbLine
 10
252.9826499258825
 20
169.9563854065905
 30
0.0
 11
252.9826499258825
 21
167.9563854065905
 31
0.0
  0
MTEXT
  5
710
330
70B
100
AcDbEntity
  8
DIMENSION
 62
     0
100
AcDbMText
 10
252.9826499258824
 20
165.6230520732571
 30
0.0
 40
1.0
 41
0.0
 71
     5
 72
     1
  1
\A1;0.750
 11
0.0000000000000001
 21
1.0
 31
0.0
 73
     1
 44
1.0
1001
ACAD
1000
MTEXTBEGIN
1070
    73
1070
     1
1070
    44
1040
1.0
1070
    74
1070
     0
1000
MTEXTEND
  0
POINT
  5
711
330
70B
100
AcDbEntity
  8
Defpoints
 62
     0
100
AcDbPoint
 10
252.6023618905455
 20
171.9652056160425
 30
0.0
  0
POINT
  5
712
330
70B
100
AcDbEntity
  8
Defpoints
 62
     0
100
AcDbPoint
 10
252.9826499258825
 20
167.9563854065905
 30
0.0
  0
POINT
  5
713
330
70B
100
AcDbEntity
  8
Defpoints
 62
     0
100
AcDbPoint
 10
251.8518690648303
 20
171.2476822503774
 30
0.0
  0
ENDBLK
  5
714
330
70B
100
AcDbEntity
  8
0
100
AcDbBlockEnd
  0
BLOCK
  5
716
330
715
100
AcDbEntity
  8
0
100
AcDbBlockBegin
  2
*D74
 70
     1
 10
0.0
 20
0.0
 30
0.0
  3
*D74
  1

  0
LINE
  5
717
330
715
100
AcDbEntity
  8
DIMENSION
 62
     0
370
    -2
100
AcDbLine
 10
254.8823618905457
 20
171.5902056160426
 30
0.0
 11
254.8823618905457
 21
169.9652056160426
 31
0.0
  0
LINE
  5
718
330
715
100
AcDbEntity
  8
DIMENSION
 62
     0
370
    -2
100
AcDbLine
 10
254.8823618905457
 20
169.9652056160426
 30
0.0
 11
255.6127157357515
 21
169.7306995500154
 31
0.0
  0
LINE
  5
719
330
715
100
AcDbEntity
  8
DIMENSION
 62
     0
370
    -2
100
AcDbLine
 10
255.6127157357515
 20
169.7306995500154
 30
0.0
 11
255.6127157357515
 21
167.7306995500154
 31
0.0
  0
MTEXT
  5
71A
330
715
100
AcDbEntity
  8
DIMENSION
 62
     0
100
AcDbMText
 10
255.6127157357514
 20
165.3973662166821
 30
0.0
 40
1.0
 41
0.0
 71
     5
 72
     1
  1
\A1;3.030
 11
0.0000000000000001
 21
1.0
 31
0.0
 73
     1
 44
1.0
1001
ACAD
1000
MTEXTBEGIN
1070
    73
1070
     1
1070
    44
1040
1.0
1070
    74
1070
     0
1000
MTEXTEND
  0
POINT
  5
71B
330
715
100
AcDbEntity
  8
Defpoints
 62
     0
100
AcDbPoint
 10
254.8823618905457
 20
171.9652056160426
 30
0.0
  0
POINT
  5
71C
330
715
100
AcDbEntity
  8
Defpoints
 62
     0
100
AcDbPoint
 10
255.6127157357515
 20
167.7306995500154
 30
0.0
  0
POINT
  5
71D
330
715
100
AcDbEntity
  8
Defpoints
 62
     0
100
AcDbPoint
 10
251.8518690648303
 20
171.2476822503774
 30
0.0
  0
ENDBLK
  5
71E
330
715
100
AcDbEntity
  8
0
100
AcDbBlockEnd
  0
BLOCK
  5
720
330
71F
100
AcDbEntity
  8
0
100
AcDbBlockBegin
  2
*D75
 70
     1
 10
0.0
 20
0.0
 30
0.0
  3
*D75
  1

  0
LINE
  5
721
330
71F
100
AcDbEntity
  8
DIMENSION
 62
     0
370
    -2
100
AcDbLine
 10
253.0523618905455
 20
195.4127056160428
 30
0.0
 11
253.0523618905455
 21
191.9459438723192
 31
0.0
  0
LINE
  5
722
330
71F
100
AcDbEntity
  8
DIMENSION
 62
     0
370
    -2
100
AcDbLine
 10
253.0523618905455
 20
191.9459438723192
 30
0.0
 11
253.0596268071485
 21
189.9459438723193
 31
0.0
  0
LINE
  5
723
330
71F
100
AcDbEntity
  8
DIMENSION
 62
     0
370
    -2
100
AcDbLine
 10
253.0596268071485
 20
189.9459438723193
 30
0.0
 11
253.0596268071485
 21
187.9459438723193
 31
0.0
  0
MTEXT
  5
724
330
71F
100
AcDbEntity
  8
DIMENSION
 62
     0
100
AcDbMText
 10
253.0596268071485
 20
185.7792772056526
 30
0.0
 40
1.0
 41
0.0
 71
     5
 72
     1
  1
\A1;1.200
 11
0.0000000000000001
 21
1.0
 31
0.0
 73
     1
 44
1.0
1001
ACAD
1000
MTEXTBEGIN
1070
    73
1070
     1
1070
    44
1040
1.0
1070
    74
1070
     0
1000
MTEXTEND
  0
POINT
  5
725
330
71F
100
AcDbEntity
  8
Defpoints
 62
     0
100
AcDbPoint
 10
253.0523618905455
 20
195.7877056160428
 30
0.0
  0
POINT
  5
726
330
71F
100
AcDbEntity
  8
Defpoints
 62
     0
100
AcDbPoint
 10
253.0596268071485
 20
187.9459438723193
 30
0.0
  0
POINT
  5
727
330
71F
100
AcDbEntity
  8
Defpoints
 62
     0
100
AcDbPoint
 10
251.8518690648303
 20
171.2476822503774
 30
0.0
  0
ENDBLK
  5
728
330
71F
100
AcDbEntity
  8
0
100
AcDbBlockEnd
  0
BLOCK
  5
72A
330
729
100
AcDbEntity
  8
0
100
AcDbBlockBegin
  2
*D76
 70
     1
 10
0.0
 20
0.0
 30
0.0
  3
*D76
  1

  0
LINE
  5
72B
330
729
100
AcDbEntity
  8
DIMENSION
 62
     0
370
    -2
100
AcDbLine
 10
254.2358618905454
 20
176.842705616043
 30
0.0
 11
254.2358618905454
 21
168.1154963005622
 31
0.0
  0
MTEXT
  5
72C
330
729
100
AcDbEntity
  8
DIMENSION
 62
     0
100
AcDbMText
 10
254.2358618905454
 20
165.6154963005622
 30
0.0
 40
1.0
 41
0.0
 71
     5
 72
     1
  1
\A1;2.384
 11
0.0000000000000001
 21
1.0
 31
0.0
 73
     1
 44
1.0
1001
ACAD
1000
MTEXTBEGIN
1070
    73
1070
     1
1070
    44
1040
1.0
1070
    74
1070
     0
1000
MTEXTEND
  0
POINT
  5
72D
330
729
100
AcDbEntity
  8
Defpoints
 62
     0
100
AcDbPoint
 10
254.2358618905454
 20
177.2177056160431
 30
0.0
  0
POINT
  5
72E
330
729
100
AcDbEntity
  8
Defpoints
 62
     0
100
AcDbPoint
 10
254.2358618905454
 20
168.1154963005622
 30
0.0
  0
POINT
  5
72F
330
729
100
AcDbEntity
  8
Defpoints
 62
     0
100
AcDbPoint
 10
251.8518690648303
 20
171.2476822503774
 30
0.0
  0
ENDBLK
  5
730
330
729
100
AcDbEntity
  8
0
100
AcDbBlockEnd
  0
BLOCK
  5
732
330
731
100
AcDbEntity
  8
0
100
AcDbBlockBegin
  2
*D77
 70
     1
 10
0.0
 20
0.0
 30
0.0
  3
*D77
  1

  0
LINE
  5
733
330
731
100
AcDbEntity
  8
DIMENSION
 62
     0
370
    -2
100
AcDbLine
 10
264.1218618905455
 20
205.7437056160434
 30
0.0
 11
264.1218618905455
 21
207.3687056160434
 31
0.0
  0
LINE
  5
734
330
731
100
AcDbEntity
  8
DIMENSION
 62
     0
370
    -2
100
AcDbLine
 10
264.1218618905455
 20
207.3687056160434
 30
0.0
 11
265.3288327025139
 21
207.0598283801
 31
0.0
  0
LINE
  5
735
330
731
100
AcDbEntity
  8
DIMENSION
 62
     0
370
    -2
100
AcDbLine
 10
265.3288327025139
 20
207.0598283801
 30
0.0
 11
265.3288327025139
 21
209.0598283801
 31
0.0
  0
MTEXT
  5
736
330
731
100
AcDbEntity
  8
DIMENSION
 62
     0
100
AcDbMText
 10
265.3288327025138
 20
211.8098283801001
 30
0.0
 40
1.0
 41
0.0
 71
     5
 72
     1
  1
\A1;12.270
 11
0.0000000000000001
 21
1.0
 31
0.0
 73
     1
 44
1.0
1001
ACAD
1000
MTEXTBEGIN
1070
    73
1070
     1
1070
    44
1040
1.0
1070
    74
1070
     0
1000
MTEXTEND
  0
POINT
  5
737
330
731
100
AcDbEntity
  8
Defpoints
 62
     0
100
AcDbPoint
 10
264.1218618905455
 20
205.3687056160434
 30
0.0
  0
POINT
  5
738
330
731
100
AcDbEntity
  8
Defpoints
 62
     0
100
AcDbPoint
 10
265.3288327025139
 20
209.0598283801
 30
0.0
  0
POINT
  5
739
330
731
100
AcDbEntity
  8
Defpoints
 62
     0
100
AcDbPoint
 10
251.8518690648303
 20
171.2476822503774
 30
0.0
  0
ENDBLK
  5
73A
330
731
100
AcDbEntity
  8
0
100
AcDbBlockEnd
  0
BLOCK
  5
73C
330
73B
100
AcDbEntity
  8
0
100
AcDbBlockBegin
  2
*D78
 70
     1
 10
0.0
 20
0.0
 30
0.0
  3
*D78
  1

  0
LINE
  5
73D
330
73B
100
AcDbEntity
  8
DIMENSION
 62
     0
370
    -2
100
AcDbLine
 10
266.1196649109066
 20
182.1820292047377
 30
0.0
 11
265.1196649109067
 21
182.1820292047377
 31
0.0
  0
LINE
  5
73E
330
73B
100
AcDbEntity
  8
DIMENSION
 62
     0
370
    -2
100
AcDbLine
 10
265.1196649109067
 20
182.1820292047377
 30
0.0
 11
258.9715598303426
 21
191.1952741343458
 31
0.0
  0
MTEXT
  5
73F
330
73B
100
AcDbEntity
  8
DIMENSION
 62
     0
100
AcDbMText
 10
266.6196649109066
 20
186.015362538071
 30
0.0
 40
1.0
 41
0.0
 71
     1
 72
     1
  1
\A1;\U+22051.250 (1) \POPTIONAL:\PEXTERNAL \PHEAT\POUTPUT
 73
     1
 44
1.0
1001
ACAD
1000
MTEXTBEGIN
1070
    73
1070
     1
1070
    44
1040
1.0
1070
    74
1070
     0
1000
MTEXTEND
  0
SOLID
  5
740
330
73B
100
AcDbEntity
  8
DIMENSION
 62
     0
100
AcDbTrace
 10
259.1092451105166
 20
191.2891918717609
 30
0.0
 11
258.8338745501685
 21
191.1013563969307
 31
0.0
 12
258.4080534058519
 22
192.0213858153901
 32
0.0
 13
258.4080534058519
 23
192.0213858153901
 33
0.0
  0
LINE
  5
741
330
73B
100
AcDbEntity
  8
DIMENSION
 62
     0
370
    -2
100
AcDbLine
 10
257.9658618905453
 20
192.5377056160428
 30
0.0
 11
258.1458618905454
 21
192.5377056160428
 31
0.0
  0
LINE
  5
742
330
73B
100
AcDbEntity
  8
DIMENSION
 62
     0
370
    -2
100
AcDbLine
 10
258.0558618905453
 20
192.4477056160428
 30
0.0
 11
258.0558618905453
 21
192.6277056160428
 31
0.0
  0
POINT
  5
743
330
73B
100
AcDbEntity
  8
Defpoints
 62
     0
100
AcDbPoint
 10
258.4080534058519
 20
192.0213858153901
 30
0.0
  0
POINT
  5
744
330
73B
100
AcDbEntity
  8
Defpoints
 62
     0
100
AcDbPoint
 10
257.7036703752387
 20
193.0540254166954
 30
0.0
  0
ENDBLK
  5
745
330
73B
100
AcDbEntity
  8
0
100
AcDbBlockEnd
  0
BLOCK
  5
747
330
746
100
AcDbEntity
  8
0
100
AcDbBlockBegin
  2
*D79
 70
     1
 10
0.0
 20
0.0
 30
0.0
  3
*D79
  1

  0
LINE
  5
748
330
746
100
AcDbEntity
  8
DIMENSION
 62
     0
370
    -2
100
AcDbLine
 10
241.8076366351934
 20
193.9894954111155
 30
0.0
 11
253.9335938130448
 21
194.6935181183449
 31
0.0
  0
MTEXT
  5
749
330
746
100
AcDbEntity
  8
DIMENSION
 62
     0
100
AcDbMText
 10
231.9743033018601
 20
197.8228287444488
 30
0.0
 40
1.0
 41
0.0
 71
     1
 72
     1
  1
\A1;\U+22051.250 (1)\POPTIONAL:\PETHERNET\PCONNECTION \PPORT
 73
     1
 44
1.0
1001
ACAD
1000
MTEXTBEGIN
1070
    73
1070
     1
1070
    44
1040
1.0
1070
    74
1070
     0
1000
MTEXTEND
  0
SOLID
  5
74A
330
746
100
AcDbEntity
  8
DIMENSION
 62
     0
100
AcDbTrace
 10
253.9239335568707
 20
194.8599045878321
 30
0.0
 11
253.943254069219
 21
194.5271316488577
 31
0.0
 12
254.9319126299682
 22
194.7514796553898
 32
0.0
 13
254.9319126299682
 23
194.7514796553898
 33
0.0
  0
LINE
  5
74B
330
746
100
AcDbEntity
  8
DIMENSION
 62
     0
370
    -2
100
AcDbLine
 10
255.4658618905454
 20
194.7877056160428
 30
0.0
 11
255.6458618905455
 21
194.7877056160428
 31
0.0
  0
LINE
  5
74C
330
746
100
AcDbEntity
  8
DIMENSION
 62
     0
370
    -2
100
AcDbLine
 10
255.5558618905454
 20
194.6977056160428
 30
0.0
 11
255.5558618905455
 21
194.8777056160428
 31
0.0
  0
POINT
  5
74D
330
746
100
AcDbEntity
  8
Defpoints
 62
     0
100
AcDbPoint
 10
254.9319126299682
 20
194.7514796553898
 30
0.0
  0
POINT
  5
74E
330
746
100
AcDbEntity
  8
Defpoints
 62
     0
100
AcDbPoint
 10
256.1798111511226
 20
194.8239315766958
 30
0.0
  0
ENDBLK
  5
74F
330
746
100
AcDbEntity
  8
0
100
AcDbBlockEnd
  0
BLOCK
  5
7FD
330
7F7
100
AcDbEntity
  8
0
100
AcDbBlockBegin
  2
*D81
 70
     1
 10
0.0
 20
0.0
 30
0.0
  3
*D81
  1

  0
LINE
  5
AA5
330
7F7
100
AcDbEntity
  8
DIM
 62
     0
370
    -2
100
AcDbLine
 10
-365.0030572948522
 20
-143.108779907645
 30
0.0
 11
-368.6280572948522
 21
-143.108779907645
 31
0.0
  0
MTEXT
  5
AA6
330
7F7
100
AcDbEntity
  8
DIM
 62
     0
100
AcDbMText
 10
-370.7947239615188
 20
-143.108779907645
 30
0.0
 40
0.9999999999999998
 41
0.0
 71
     5
 72
     1
  1
\A1;0.000
 73
     1
 44
1.0
1001
ACAD
1000
MTEXTBEGIN
1070
    73
1070
     1
1070
    44
1040
1.0
1070
    74
1070
     0
1000
MTEXTEND
  0
POINT
  5
AA7
330
7F7
100
AcDbEntity
  8
Defpoints
 62
     0
100
AcDbPoint
 10
-364.6280572948522
 20
-143.108779907645
 30
0.0
  0
POINT
  5
AA8
330
7F7
100
AcDbEntity
  8
Defpoints
 62
     0
100
AcDbPoint
 10
-368.6280572948522
 20
-143.108779907645
 30
0.0
  0
POINT
  5
AA9
330
7F7
100
AcDbEntity
  8
Defpoints
 62
     0
100
AcDbPoint
 10
-364.6280501205671
 20
-143.1088032733104
 30
0.0
  0
ENDBLK
  5
7FE
330
7F7
100
AcDbEntity
  8
0
100
AcDbBlockEnd
  0
BLOCK
  5
807
330
7FF
100
AcDbEntity
  8
0
100
AcDbBlockBegin
  2
*D82
 70
     1
 10
0.0
 20
0.0
 30
0.0
  3
*D82
  1

  0
LINE
  5
A9E
330
7FF
100
AcDbEntity
  8
DIMENSION
 62
     0
370
    -2
100
AcDbLine
 10
-364.0775572948519
 20
-142.3912799076453
 30
0.0
 11
-365.877557294852
 21
-142.3912799076453
 31
0.0
  0
LINE
  5
A9F
330
7FF
100
AcDbEntity
  8
DIMENSION
 62
     0
370
    -2
100
AcDbLine
 10
-365.877557294852
 20
-142.3912799076453
 30
0.0
 11
-366.4652221209719
 21
-141.8848504043222
 31
0.0
  0
LINE
  5
AA0
330
7FF
100
AcDbEntity
  8
DIMENSION
 62
     0
370
    -2
100
AcDbLine
 10
-366.4652221209719
 20
-141.8848504043222
 30
0.0
 11
-368.4652221209719
 21
-141.8848504043222
 31
0.0
  0
MTEXT
  5
AA1
330
7FF
100
AcDbEntity
  8
DIMENSION
 62
     0
100
AcDbMText
 10
-370.3052221209719
 20
-141.8848504043222
 30
0.0
 40
1.0
 41
0.0
 71
     5
 72
     1
  1
\A1;0.718
 73
     1
 44
1.0
1001
ACAD
1000
MTEXTBEGIN
1070
    73
1070
     1
1070
    44
1040
1.0
1070
    74
1070
     0
1000
MTEXTEND
  0
POINT
  5
AA2
330
7FF
100
AcDbEntity
  8
Defpoints
 62
     0
100
AcDbPoint
 10
-363.877557294852
 20
-142.3912799076453
 30
0.0
  0
POINT
  5
AA3
330
7FF
100
AcDbEntity
  8
Defpoints
 62
     0
100
AcDbPoint
 10
-368.4652221209719
 20
-141.8848504043222
 30
0.0
  0
POINT
  5
AA4
330
7FF
100
AcDbEntity
  8
Defpoints
 62
     0
100
AcDbPoint
 10
-364.6280501205671
 20
-143.1088032733104
 30
0.0
  0
ENDBLK
  5
808
330
7FF
100
AcDbEntity
  8
0
100
AcDbBlockEnd
  0
BLOCK
  5
811
330
809
100
AcDbEntity
  8
0
100
AcDbBlockBegin
  2
*D83
 70
     1
 10
0.0
 20
0.0
 30
0.0
  3
*D83
  1

  0
LINE
  5
A97
330
809
100
AcDbEntity
  8
DIMENSION
 62
     0
370
    -2
100
AcDbLine
 10
-364.0775572948519
 20
-139.2662799076453
 30
0.0
 11
-365.877557294852
 21
-139.2662799076453
 31
0.0
  0
LINE
  5
A98
330
809
100
AcDbEntity
  8
DIMENSION
 62
     0
370
    -2
100
AcDbLine
 10
-365.877557294852
 20
-139.2662799076453
 30
0.0
 11
-366.1235869216609
 21
-139.7779478223898
 31
0.0
  0
LINE
  5
A99
330
809
100
AcDbEntity
  8
DIMENSION
 62
     0
370
    -2
100
AcDbLine
 10
-366.1235869216609
 20
-139.7779478223898
 30
0.0
 11
-368.1235869216609
 21
-139.7779478223898
 31
0.0
  0
MTEXT
  5
A9A
330
809
100
AcDbEntity
  8
DIMENSION
 62
     0
100
AcDbMText
 10
-370.2135869216609
 20
-139.7779478223898
 30
0.0
 40
1.0
 41
0.0
 71
     5
 72
     1
  1
\A1;3.843
 73
     1
 44
1.0
1001
ACAD
1000
MTEXTBEGIN
1070
    73
1070
     1
1070
    44
1040
1.0
1070
    74
1070
     0
1000
MTEXTEND
  0
POINT
  5
A9B
330
809
100
AcDbEntity
  8
Defpoints
 62
     0
100
AcDbPoint
 10
-363.877557294852
 20
-139.2662799076453
 30
0.0
  0
POINT
  5
A9C
330
809
100
AcDbEntity
  8
Defpoints
 62
     0
100
AcDbPoint
 10
-368.1235869216609
 20
-139.7779478223898
 30
0.0
  0
POINT
  5
A9D
330
809
100
AcDbEntity
  8
Defpoints
 62
     0
100
AcDbPoint
 10
-364.6280501205671
 20
-143.1088032733104
 30
0.0
  0
ENDBLK
  5
812
330
809
100
AcDbEntity
  8
0
100
AcDbBlockEnd
  0
BLOCK
  5
81B
330
813
100
AcDbEntity
  8
0
100
AcDbBlockBegin
  2
*D84
 70
     1
 10
0.0
 20
0.0
 30
0.0
  3
*D84
  1

  0
LINE
  5
A90
330
813
100
AcDbEntity
  8
DIMENSION
 62
     0
370
    -2
100
AcDbLine
 10
-363.877557294852
 20
-142.5912799076453
 30
0.0
 11
-363.877557294852
 21
-144.3912799076453
 31
0.0
  0
LINE
  5
A91
330
813
100
AcDbEntity
  8
DIMENSION
 62
     0
370
    -2
100
AcDbLine
 10
-363.877557294852
 20
-144.3912799076453
 30
0.0
 11
-363.4972692595149
 21
-144.4001001170974
 31
0.0
  0
LINE
  5
A92
330
813
100
AcDbEntity
  8
DIMENSION
 62
     0
370
    -2
100
AcDbLine
 10
-363.4972692595149
 20
-144.4001001170974
 30
0.0
 11
-363.4972692595149
 21
-146.4001001170974
 31
0.0
  0
MTEXT
  5
A93
330
813
100
AcDbEntity
  8
DIMENSION
 62
     0
100
AcDbMText
 10
-363.4972692595149
 20
-148.3234334504308
 30
0.0
 40
1.0
 41
0.0
 71
     5
 72
     1
  1
\A1;0.750
 11
0.0000000000000001
 21
1.0
 31
0.0
 73
     1
 44
1.0
1001
ACAD
1000
MTEXTBEGIN
1070
    73
1070
     1
1070
    44
1040
1.0
1070
    74
1070
     0
1000
MTEXTEND
  0
POINT
  5
A94
330
813
100
AcDbEntity
  8
Defpoints
 62
     0
100
AcDbPoint
 10
-363.877557294852
 20
-142.3912799076453
 30
0.0
  0
POINT
  5
A95
330
813
100
AcDbEntity
  8
Defpoints
 62
     0
100
AcDbPoint
 10
-363.4972692595149
 20
-146.4001001170974
 30
0.0
  0
POINT
  5
A96
330
813
100
AcDbEntity
  8
Defpoints
 62
     0
100
AcDbPoint
 10
-364.6280501205671
 20
-143.1088032733104
 30
0.0
  0
ENDBLK
  5
81C
330
813
100
AcDbEntity
  8
0
100
AcDbBlockEnd
  0
BLOCK
  5
825
330
81D
100
AcDbEntity
  8
0
100
AcDbBlockBegin
  2
*D85
 70
     1
 10
0.0
 20
0.0
 30
0.0
  3
*D85
  1

  0
LINE
  5
A89
330
81D
100
AcDbEntity
  8
DIMENSION
 62
     0
370
    -2
100
AcDbLine
 10
-361.5975572948518
 20
-142.5912799076452
 30
0.0
 11
-361.5975572948518
 21
-144.3912799076452
 31
0.0
  0
LINE
  5
A8A
330
81D
100
AcDbEntity
  8
DIMENSION
 62
     0
370
    -2
100
AcDbLine
 10
-361.5975572948518
 20
-144.3912799076452
 30
0.0
 11
-360.8672034496461
 21
-145.0357859736723
 31
0.0
  0
LINE
  5
A8B
330
81D
100
AcDbEntity
  8
DIMENSION
 62
     0
370
    -2
100
AcDbLine
 10
-360.8672034496461
 20
-145.0357859736723
 30
0.0
 11
-360.8672034496461
 21
-147.0357859736723
 31
0.0
  0
MTEXT
  5
A8C
330
81D
100
AcDbEntity
  8
DIMENSION
 62
     0
100
AcDbMText
 10
-360.867203449646
 20
-148.9591193070057
 30
0.0
 40
1.0
 41
0.0
 71
     5
 72
     1
  1
\A1;3.030
 11
0.0000000000000001
 21
1.0
 31
0.0
 73
     1
 44
1.0
1001
ACAD
1000
MTEXTBEGIN
1070
    73
1070
     1
1070
    44
1040
1.0
1070
    74
1070
     0
1000
MTEXTEND
  0
POINT
  5
A8D
330
81D
100
AcDbEntity
  8
Defpoints
 62
     0
100
AcDbPoint
 10
-361.5975572948518
 20
-142.3912799076452
 30
0.0
  0
POINT
  5
A8E
330
81D
100
AcDbEntity
  8
Defpoints
 62
     0
100
AcDbPoint
 10
-360.8672034496461
 20
-147.0357859736723
 30
0.0
  0
POINT
  5
A8F
330
81D
100
AcDbEntity
  8
Defpoints
 62
     0
100
AcDbPoint
 10
-364.6280501205671
 20
-143.1088032733104
 30
0.0
  0
ENDBLK
  5
826
330
81D
100
AcDbEntity
  8
0
100
AcDbBlockEnd
  0
BLOCK
  5
82F
330
827
100
AcDbEntity
  8
0
100
AcDbBlockBegin
  2
*D86
 70
     1
 10
0.0
 20
0.0
 30
0.0
  3
*D86
  1

  0
LINE
  5
A82
330
827
100
AcDbEntity
  8
DIMENSION
 62
     0
370
    -2
100
AcDbLine
 10
-363.4275572948519
 20
-118.7687799076451
 30
0.0
 11
-363.4275572948519
 21
-122.4105416513686
 31
0.0
  0
LINE
  5
A83
330
827
100
AcDbEntity
  8
DIMENSION
 62
     0
370
    -2
100
AcDbLine
 10
-363.4275572948519
 20
-122.4105416513686
 30
0.0
 11
-363.4202923782489
 21
-124.4105416513686
 31
0.0
  0
LINE
  5
A84
330
827
100
AcDbEntity
  8
DIMENSION
 62
     0
370
    -2
100
AcDbLine
 10
-363.4202923782489
 20
-124.4105416513686
 30
0.0
 11
-363.4202923782489
 21
-126.4105416513686
 31
0.0
  0
MTEXT
  5
A85
330
827
100
AcDbEntity
  8
DIMENSION
 62
     0
100
AcDbMText
 10
-363.4202923782489
 20
-128.1672083180353
 30
0.0
 40
1.0
 41
0.0
 71
     5
 72
     1
  1
\A1;1.200
 11
0.0000000000000001
 21
1.0
 31
0.0
 73
     1
 44
1.0
1001
ACAD
1000
MTEXTBEGIN
1070
    73
1070
     1
1070
    44
1040
1.0
1070
    74
1070
     0
1000
MTEXTEND
  0
POINT
  5
A86
330
827
100
AcDbEntity
  8
Defpoints
 62
     0
100
AcDbPoint
 10
-363.4275572948519
 20
-118.568779907645
 30
0.0
  0
POINT
  5
A87
330
827
100
AcDbEntity
  8
Defpoints
 62
     0
100
AcDbPoint
 10
-363.4202923782489
 20
-126.4105416513686
 30
0.0
  0
POINT
  5
A88
330
827
100
AcDbEntity
  8
Defpoints
 62
     0
100
AcDbPoint
 10
-364.6280501205671
 20
-143.1088032733104
 30
0.0
  0
ENDBLK
  5
830
330
827
100
AcDbEntity
  8
0
100
AcDbBlockEnd
  0
BLOCK
  5
837
330
831
100
AcDbEntity
  8
0
100
AcDbBlockBegin
  2
*D87
 70
     1
 10
0.0
 20
0.0
 30
0.0
  3
*D87
  1

  0
LINE
  5
A7D
330
831
100
AcDbEntity
  8
DIMENSION
 62
     0
370
    -2
100
AcDbLine
 10
-362.244057294852
 20
-137.3387799076448
 30
0.0
 11
-362.244057294852
 21
-146.2409892231256
 31
0.0
  0
MTEXT
  5
A7E
330
831
100
AcDbEntity
  8
DIMENSION
 62
     0
100
AcDbMText
 10
-362.244057294852
 20
-148.3309892231257
 30
0.0
 40
1.0
 41
0.0
 71
     5
 72
     1
  1
\A1;2.384
 11
0.0000000000000001
 21
1.0
 31
0.0
 73
     1
 44
1.0
1001
ACAD
1000
MTEXTBEGIN
1070
    73
1070
     1
1070
    44
1040
1.0
1070
    74
1070
     0
1000
MTEXTEND
  0
POINT
  5
A7F
330
831
100
AcDbEntity
  8
Defpoints
 62
     0
100
AcDbPoint
 10
-362.244057294852
 20
-137.1387799076448
 30
0.0
  0
POINT
  5
A80
330
831
100
AcDbEntity
  8
Defpoints
 62
     0
100
AcDbPoint
 10
-362.244057294852
 20
-146.2409892231256
 30
0.0
  0
POINT
  5
A81
330
831
100
AcDbEntity
  8
Defpoints
 62
     0
100
AcDbPoint
 10
-364.6280501205671
 20
-143.1088032733104
 30
0.0
  0
ENDBLK
  5
838
330
831
100
AcDbEntity
  8
0
100
AcDbBlockEnd
  0
BLOCK
  5
841
330
839
100
AcDbEntity
  8
0
100
AcDbBlockBegin
  2
*D88
 70
     1
 10
0.0
 20
0.0
 30
0.0
  3
*D88
  1

  0
LINE
  5
A76
330
839
100
AcDbEntity
  8
DIMENSION
 62
     0
370
    -2
100
AcDbLine
 10
-352.358057294852
 20
-108.7877799076445
 30
0.0
 11
-352.358057294852
 21
-106.9877799076445
 31
0.0
  0
LINE
  5
A77
330
839
100
AcDbEntity
  8
DIMENSION
 62
     0
370
    -2
100
AcDbLine
 10
-352.358057294852
 20
-106.9877799076445
 30
0.0
 11
-351.1510864828836
 21
-107.2966571435878
 31
0.0
  0
LINE
  5
A78
330
839
100
AcDbEntity
  8
DIMENSION
 62
     0
370
    -2
100
AcDbLine
 10
-351.1510864828836
 20
-107.2966571435878
 30
0.0
 11
-351.1510864828836
 21
-105.2966571435878
 31
0.0
  0
MTEXT
  5
A79
330
839
100
AcDbEntity
  8
DIMENSION
 62
     0
100
AcDbMText
 10
-351.1510864828836
 20
-102.9566571435878
 30
0.0
 40
1.0
 41
0.0
 71
     5
 72
     1
  1
\A1;12.270
 11
0.0000000000000001
 21
1.0
 31
0.0
 73
     1
 44
1.0
1001
ACAD
1000
MTEXTBEGIN
1070
    73
1070
     1
1070
    44
1040
1.0
1070
    74
1070
     0
1000
MTEXTEND
  0
POINT
  5
A7A
330
839
100
AcDbEntity
  8
Defpoints
 62
     0
100
AcDbPoint
 10
-352.358057294852
 20
-108.9877799076445
 30
0.0
  0
POINT
  5
A7B
330
839
100
AcDbEntity
  8
Defpoints
 62
     0
100
AcDbPoint
 10
-351.1510864828836
 20
-105.2966571435878
 30
0.0
  0
POINT
  5
A7C
330
839
100
AcDbEntity
  8
Defpoints
 62
     0
100
AcDbPoint
 10
-364.6280501205671
 20
-143.1088032733104
 30
0.0
  0
ENDBLK
  5
842
330
839
100
AcDbEntity
  8
0
100
AcDbBlockEnd
  0
BLOCK
  5
84C
330
843
100
AcDbEntity
  8
0
100
AcDbBlockBegin
  2
*D89
 70
     1
 10
0.0
 20
0.0
 30
0.0
  3
*D89
  1

  0
LINE
  5
A6E
330
843
100
AcDbEntity
  8
DIMENSION
 62
     0
370
    -2
100
AcDbLine
 10
-349.9502542744909
 20
-132.1744563189501
 30
0.0
 11
-351.3602542744907
 21
-132.1744563189501
 31
0.0
  0
LINE
  5
A6F
330
843
100
AcDbEntity
  8
DIMENSION
 62
     0
370
    -2
100
AcDbLine
 10
-351.3602542744907
 20
-132.1744563189501
 30
0.0
 11
-357.5083593550548
 21
-123.161211389342
 31
0.0
  0
MTEXT
  5
A70
330
843
100
AcDbEntity
  8
DIMENSION
 62
     0
100
AcDbMText
 10
-349.8602542744909
 20
-128.3411229856168
 30
0.0
 40
1.0
 41
0.0
 71
     1
 72
     1
  1
\A1;\U+22051.250 (1) \POPTIONAL:\PEXTERNAL \PHEAT\POUTPUT
 73
     1
 44
1.0
1001
ACAD
1000
MTEXTBEGIN
1070
    73
1070
     1
1070
    44
1040
1.0
1070
    74
1070
     0
1000
MTEXTEND
  0
SOLID
  5
A71
330
843
100
AcDbEntity
  8
DIMENSION
 62
     0
100
AcDbTrace
 10
-357.3706740748808
 20
-123.0672936519269
 30
0.0
 11
-357.6460446352289
 21
-123.2551291267571
 31
0.0
 12
-358.0718657795455
 22
-122.3350997082977
 32
0.0
 13
-358.0718657795455
 23
-122.3350997082977
 33
0.0
  0
LINE
  5
A72
330
843
100
AcDbEntity
  8
DIMENSION
 62
     0
370
    -2
100
AcDbLine
 10
-358.5140572948521
 20
-121.8187799076451
 30
0.0
 11
-358.3340572948522
 21
-121.8187799076451
 31
0.0
  0
LINE
  5
A73
330
843
100
AcDbEntity
  8
DIMENSION
 62
     0
370
    -2
100
AcDbLine
 10
-358.4240572948522
 20
-121.9087799076451
 30
0.0
 11
-358.4240572948522
 21
-121.7287799076451
 31
0.0
  0
POINT
  5
A74
330
843
100
AcDbEntity
  8
Defpoints
 62
     0
100
AcDbPoint
 10
-358.0718657795455
 20
-122.3350997082977
 30
0.0
  0
POINT
  5
A75
330
843
100
AcDbEntity
  8
Defpoints
 62
     0
100
AcDbPoint
 10
-358.7762488101587
 20
-121.3024601069924
 30
0.0
  0
ENDBLK
  5
84D
330
843
100
AcDbEntity
  8
0
100
AcDbBlockEnd
  0
BLOCK
  5
856
330
84E
100
AcDbEntity
  8
0
100
AcDbBlockBegin
  2
*D90
 70
     1
 10
0.0
 20
0.0
 30
0.0
  3
*D90
  1

  0
LINE
  5
B2F
330
84E
100
AcDbEntity
  8
DIMENSION
 62
     0
370
    -2
100
AcDbLine
 10
-363.9800258092793
 20
-131.9958228319929
 30
0.0
 11
-362.9800258092793
 21
-131.995822831993
 31
0.0
  0
LINE
  5
B30
330
84E
100
AcDbEntity
  8
DIMENSION
 62
     0
370
    -2
100
AcDbLine
 10
-362.9800258092793
 20
-131.995822831993
 30
0.0
 11
-361.1892968472795
 21
-121.1719869996416
 31
0.0
  0
MTEXT
  5
B31
330
84E
100
AcDbEntity
  8
DIMENSION
 62
     0
100
AcDbMText
 10
-373.4033591426126
 20
-128.1624894986596
 30
0.0
 40
1.0
 41
0.0
 71
     1
 72
     1
  1
\A1;\U+22051.250 (1)\POPTIONAL:\PETHERNET\PCONNECTION \PPORT
 73
     1
 44
1.0
1001
ACAD
1000
MTEXTBEGIN
1070
    73
1070
     1
1070
    44
1040
1.0
1070
    74
1070
     0
1000
MTEXTEND
  0
SOLID
  5
B32
330
84E
100
AcDbEntity
  8
DIMENSION
 62
     0
100
AcDbTrace
 10
-361.3537283438946
 20
-121.1447829429823
 30
0.0
 11
-361.0248653506645
 21
-121.1991910563008
 31
0.0
 12
-361.0260725073241
 22
-120.1853980199514
 32
0.0
 13
-361.0260725073241
 23
-120.1853980199514
 33
0.0
  0
LINE
  5
B33
330
84E
100
AcDbEntity
  8
DIMENSION
 62
     0
370
    -2
100
AcDbLine
 10
-361.014057294852
 20
-119.568779907645
 30
0.0
 11
-360.834057294852
 21
-119.568779907645
 31
0.0
  0
LINE
  5
B34
330
84E
100
AcDbEntity
  8
DIMENSION
 62
     0
370
    -2
100
AcDbLine
 10
-360.924057294852
 20
-119.658779907645
 30
0.0
 11
-360.924057294852
 21
-119.478779907645
 31
0.0
  0
POINT
  5
B35
330
84E
100
AcDbEntity
  8
Defpoints
 62
     0
100
AcDbPoint
 10
-361.0260725073241
 20
-120.1853980199514
 30
0.0
  0
POINT
  5
B36
330
84E
100
AcDbEntity
  8
Defpoints
 62
     0
100
AcDbPoint
 10
-360.8220420823799
 20
-118.9521617953387
 30
0.0
  0
ENDBLK
  5
857
330
84E
100
AcDbEntity
  8
0
100
AcDbBlockEnd
  0
BLOCK
  5
860
330
858
100
AcDbEntity
  8
0
100
AcDbBlockBegin
  2
*D91
 70
     1
 10
0.0
 20
0.0
 30
0.0
  3
*D91
  1

  0
LINE
  5
B20
330
858
100
AcDbEntity
  8
DIM
 62
     0
370
    -2
100
AcDbLine
 10
-360.7240572948521
 20
-119.568779907645
 30
0.0
 11
-351.5086088764983
 21
-119.568779907645
 31
0.0
  0
LINE
  5
B21
330
858
100
AcDbEntity
  8
DIM
 62
     0
370
    -2
100
AcDbLine
 10
-351.5086088764983
 20
-119.568779907645
 30
0.0
 11
-349.5086088764983
 21
-123.0967673428142
 31
0.0
  0
LINE
  5
B22
330
858
100
AcDbEntity
  8
DIM
 62
     0
370
    -2
100
AcDbLine
 10
-349.5086088764983
 20
-123.0967673428142
 30
0.0
 11
-347.5086088764983
 21
-123.0967673428142
 31
0.0
  0
MTEXT
  5
B23
330
858
100
AcDbEntity
  8
DIM
 62
     0
100
AcDbMText
 10
-345.0019422098316
 20
-123.0967673428142
 30
0.0
 40
0.9999999999999998
 41
0.0
 71
     5
 72
     1
  1
\A1;23.540
 73
     1
 44
1.0
1001
ACAD
1000
MTEXTBEGIN
1070
    73
1070
     1
1070
    44
1040
1.0
1070
    74
1070
     0
1000
MTEXTEND
  0
POINT
  5
B24
330
858
100
AcDbEntity
  8
Defpoints
 62
     0
100
AcDbPoint
 10
-360.9240572948521
 20
-119.568779907645
 30
0.0
  0
POINT
  5
B25
330
858
100
AcDbEntity
  8
Defpoints
 62
     0
100
AcDbPoint
 10
-347.5086088764983
 20
-123.0967673428142
 30
0.0
  0
POINT
  5
B26
330
858
100
AcDbEntity
  8
Defpoints
 62
     0
100
AcDbPoint
 10
-364.6280572948521
 20
-143.108779907645
 30
0.0
  0
ENDBLK
  5
861
330
858
100
AcDbEntity
  8
0
100
AcDbBlockEnd
  0
BLOCK
  5
86A
330
862
100
AcDbEntity
  8
0
100
AcDbBlockBegin
  2
*D92
 70
     1
 10
0.0
 20
0.0
 30
0.0
  3
*D92
  1

  0
LINE
  5
B19
330
862
100
AcDbEntity
  8
DIM
 62
     0
370
    -2
100
AcDbLine
 10
-360.9240572948521
 20
-119.7687799076451
 30
0.0
 11
-360.9240572948522
 21
-142.5140870714731
 31
0.0
  0
LINE
  5
B1A
330
862
100
AcDbEntity
  8
DIM
 62
     0
370
    -2
100
AcDbLine
 10
-360.9240572948522
 20
-142.5140870714731
 30
0.0
 11
-359.5698014859398
 21
-144.5140870714731
 31
0.0
  0
LINE
  5
B1B
330
862
100
AcDbEntity
  8
DIM
 62
     0
370
    -2
100
AcDbLine
 10
-359.5698014859398
 20
-144.5140870714731
 30
0.0
 11
-359.5698014859398
 21
-146.5140870714732
 31
0.0
  0
MTEXT
  5
B1C
330
862
100
AcDbEntity
  8
DIM
 62
     0
100
AcDbMText
 10
-359.5698014859398
 20
-148.5207537381399
 30
0.0
 40
0.9999999999999998
 41
0.0
 71
     5
 72
     1
  1
\A1;3.704
 11
0.0000000000000001
 21
1.0
 31
0.0
 73
     1
 44
1.0
1001
ACAD
1000
MTEXTBEGIN
1070
    73
1070
     1
1070
    44
1040
1.0
1070
    74
1070
     0
1000
MTEXTEND
  0
POINT
  5
B1D
330
862
100
AcDbEntity
  8
Defpoints
 62
     0
100
AcDbPoint
 10
-360.9240572948521
 20
-119.568779907645
 30
0.0
  0
POINT
  5
B1E
330
862
100
AcDbEntity
  8
Defpoints
 62
     0
100
AcDbPoint
 10
-359.5698014859398
 20
-146.5140870714732
 30
0.0
  0
POINT
  5
B1F
330
862
100
AcDbEntity
  8
Defpoints
 62
     0
100
AcDbPoint
 10
-364.6280572948521
 20
-143.108779907645
 30
0.0
  0
ENDBLK
  5
86B
330
862
100
AcDbEntity
  8
0
100
AcDbBlockEnd
  0
BLOCK
  5
872
330
86C
100
AcDbEntity
  8
0
100
AcDbBlockBegin
  2
*D93
 70
     1
 10
0.0
 20
0.0
 30
0.0
  3
*D93
  1

  0
LINE
  5
B14
330
86C
100
AcDbEntity
  8
DIM
 62
     0
370
    -2
100
AcDbLine
 10
-352.158057294852
 20
-108.9877799076445
 30
0.0
 11
-348.3250874174457
 21
-108.9877799076445
 31
0.0
  0
MTEXT
  5
B15
330
86C
100
AcDbEntity
  8
DIM
 62
     0
100
AcDbMText
 10
-346.0684207507791
 20
-108.9877799076445
 30
0.0
 40
0.9999999999999998
 41
0.0
 71
     5
 72
     1
  1
\A1;34.121
 73
     1
 44
1.0
1001
ACAD
1000
MTEXTBEGIN
1070
    73
1070
     1
1070
    44
1040
1.0
1070
    74
1070
     0
1000
MTEXTEND
  0
POINT
  5
B16
330
86C
100
AcDbEntity
  8
Defpoints
 62
     0
100
AcDbPoint
 10
-352.358057294852
 20
-108.9877799076445
 30
0.0
  0
POINT
  5
B17
330
86C
100
AcDbEntity
  8
Defpoints
 62
     0
100
AcDbPoint
 10
-348.3250874174457
 20
-108.9877799076445
 30
0.0
  0
POINT
  5
B18
330
86C
100
AcDbEntity
  8
Defpoints
 62
     0
100
AcDbPoint
 10
-364.6280572948521
 20
-143.108779907645
 30
0.0
  0
ENDBLK
  5
873
330
86C
100
AcDbEntity
  8
0
100
AcDbBlockEnd
  0
BLOCK
  5
87C
330
874
100
AcDbEntity
  8
0
100
AcDbBlockBegin
  2
*D94
 70
     1
 10
0.0
 20
0.0
 30
0.0
  3
*D94
  1

  0
LINE
  5
B0D
330
874
100
AcDbEntity
  8
DIM
 62
     0
370
    -2
100
AcDbLine
 10
-354.1503072948521
 20
-109.7712799076449
 30
0.0
 11
-352.3405770285005
 21
-109.7712799076449
 31
0.0
  0
LINE
  5
B0E
330
874
100
AcDbEntity
  8
DIM
 62
     0
370
    -2
100
AcDbLine
 10
-352.3405770285005
 20
-109.7712799076449
 30
0.0
 11
-350.3405770285005
 21
-110.5231845891593
 31
0.0
  0
LINE
  5
B0F
330
874
100
AcDbEntity
  8
DIM
 62
     0
370
    -2
100
AcDbLine
 10
-350.3405770285005
 20
-110.5231845891593
 30
0.0
 11
-348.3405770285005
 21
-110.5231845891593
 31
0.0
  0
MTEXT
  5
B10
330
874
100
AcDbEntity
  8
DIM
 62
     0
100
AcDbMText
 10
-345.7505770285006
 20
-110.5231845891593
 30
0.0
 40
0.9999999999999998
 41
0.0
 71
     5
 72
     1
  1
\A1;33.338
 73
     1
 44
1.0
1001
ACAD
1000
MTEXTBEGIN
1070
    73
1070
     1
1070
    44
1040
1.0
1070
    74
1070
     0
1000
MTEXTEND
  0
POINT
  5
B11
330
874
100
AcDbEntity
  8
Defpoints
 62
     0
100
AcDbPoint
 10
-354.3503072948521
 20
-109.7712799076449
 30
0.0
  0
POINT
  5
B12
330
874
100
AcDbEntity
  8
Defpoints
 62
     0
100
AcDbPoint
 10
-348.3405770285005
 20
-110.5231845891593
 30
0.0
  0
POINT
  5
B13
330
874
100
AcDbEntity
  8
Defpoints
 62
     0
100
AcDbPoint
 10
-364.6280572948521
 20
-143.108779907645
 30
0.0
  0
ENDBLK
  5
87D
330
874
100
AcDbEntity
  8
0
100
AcDbBlockEnd
  0
BLOCK
  5
884
330
87E
100
AcDbEntity
  8
0
100
AcDbBlockBegin
  2
*D95
 70
     1
 10
0.0
 20
0.0
 30
0.0
  3
*D95
  1

  0
LINE
  5
B08
330
87E
100
AcDbEntity
  8
DIM
 62
     0
370
    -2
100
AcDbLine
 10
-354.1503072948521
 20
-114.2212799076447
 30
0.0
 11
-348.3405770285005
 21
-114.2212799076447
 31
0.0
  0
MTEXT
  5
B09
330
87E
100
AcDbEntity
  8
DIM
 62
     0
100
AcDbMText
 10
-345.7505770285006
 20
-114.2212799076447
 30
0.0
 40
0.9999999999999998
 41
0.0
 71
     5
 72
     1
  1
\A1;28.888
 73
     1
 44
1.0
1001
ACAD
1000
MTEXTBEGIN
1070
    73
1070
     1
1070
    44
1040
1.0
1070
    74
1070
     0
1000
MTEXTEND
  0
POINT
  5
B0A
330
87E
100
AcDbEntity
  8
Defpoints
 62
     0
100
AcDbPoint
 10
-354.3503072948521
 20
-114.2212799076447
 30
0.0
  0
POINT
  5
B0B
330
87E
100
AcDbEntity
  8
Defpoints
 62
     0
100
AcDbPoint
 10
-348.3405770285005
 20
-114.2212799076447
 30
0.0
  0
POINT
  5
B0C
330
87E
100
AcDbEntity
  8
Defpoints
 62
     0
100
AcDbPoint
 10
-364.6280572948521
 20
-143.108779907645
 30
0.0
  0
ENDBLK
  5
885
330
87E
100
AcDbEntity
  8
0
100
AcDbBlockEnd
  0
BLOCK
  5
88C
330
886
100
AcDbEntity
  8
0
100
AcDbBlockBegin
  2
*D96
 70
     1
 10
0.0
 20
0.0
 30
0.0
  3
*D96
  1

  0
LINE
  5
B03
330
886
100
AcDbEntity
  8
DIM
 62
     0
370
    -2
100
AcDbLine
 10
-364.2313072948521
 20
-109.3297799076448
 30
0.0
 11
-366.6320274724084
 21
-109.3297799076448
 31
0.0
  0
MTEXT
  5
B04
330
886
100
AcDbEntity
  8
DIM
 62
     0
100
AcDbMText
 10
-369.138694139075
 20
-109.3297799076448
 30
0.0
 40
0.9999999999999998
 41
0.0
 71
     5
 72
     1
  1
\A1;33.780
 73
     1
 44
1.0
1001
ACAD
1000
MTEXTBEGIN
1070
    73
1070
     1
1070
    44
1040
1.0
1070
    74
1070
     0
1000
MTEXTEND
  0
POINT
  5
B05
330
886
100
AcDbEntity
  8
Defpoints
 62
     0
100
AcDbPoint
 10
-364.0313072948521
 20
-109.3297799076448
 30
0.0
  0
POINT
  5
B06
330
886
100
AcDbEntity
  8
Defpoints
 62
     0
100
AcDbPoint
 10
-366.6320274724084
 20
-109.3297799076448
 30
0.0
  0
POINT
  5
B07
330
886
100
AcDbEntity
  8
Defpoints
 62
     0
100
AcDbPoint
 10
-364.6280572948521
 20
-143.108779907645
 30
0.0
  0
ENDBLK
  5
88D
330
886
100
AcDbEntity
  8
0
100
AcDbBlockEnd
  0
BLOCK
  5
894
330
88E
100
AcDbEntity
  8
0
100
AcDbBlockBegin
  2
*D97
 70
     1
 10
0.0
 20
0.0
 30
0.0
  3
*D97
  1

  0
LINE
  5
AFE
330
88E
100
AcDbEntity
  8
DIM
 62
     0
370
    -2
100
AcDbLine
 10
-364.444057294852
 20
-111.1387799076448
 30
0.0
 11
-366.6320274724084
 21
-111.1387799076448
 31
0.0
  0
MTEXT
  5
AFF
330
88E
100
AcDbEntity
  8
DIM
 62
     0
100
AcDbMText
 10
-368.9720274724083
 20
-111.1387799076448
 30
0.0
 40
0.9999999999999998
 41
0.0
 71
     5
 72
     1
  1
\A1;31.970
 73
     1
 44
1.0
1001
ACAD
1000
MTEXTBEGIN
1070
    73
1070
     1
1070
    44
1040
1.0
1070
    74
1070
     0
1000
MTEXTEND
  0
POINT
  5
B00
330
88E
100
AcDbEntity
  8
Defpoints
 62
     0
100
AcDbPoint
 10
-364.244057294852
 20
-111.1387799076448
 30
0.0
  0
POINT
  5
B01
330
88E
100
AcDbEntity
  8
Defpoints
 62
     0
100
AcDbPoint
 10
-366.6320274724084
 20
-111.1387799076448
 30
0.0
  0
POINT
  5
B02
330
88E
100
AcDbEntity
  8
Defpoints
 62
     0
100
AcDbPoint
 10
-364.6280572948521
 20
-143.108779907645
 30
0.0
  0
ENDBLK
  5
895
330
88E
100
AcDbEntity
  8
0
100
AcDbBlockEnd
  0
BLOCK
  5
89E
330
896
100
AcDbEntity
  8
0
100
AcDbBlockBegin
  2
*D98
 70
     1
 10
0.0
 20
0.0
 30
0.0
  3
*D98
  1

  0
LINE
  5
AF7
330
896
100
AcDbEntity
  8
DIM
 62
     0
370
    -2
100
AcDbLine
 10
-364.2313072948521
 20
-118.0797799076448
 30
0.0
 11
-366.0313072948521
 21
-118.0797799076448
 31
0.0
  0
LINE
  5
AF8
330
896
100
AcDbEntity
  8
DIM
 62
     0
370
    -2
100
AcDbLine
 10
-366.0313072948521
 20
-118.0797799076448
 30
0.0
 11
-366.6280572948522
 21
-116.5797799076448
 31
0.0
  0
LINE
  5
AF9
330
896
100
AcDbEntity
  8
DIM
 62
     0
370
    -2
100
AcDbLine
 10
-366.6280572948522
 20
-116.5797799076448
 30
0.0
 11
-368.6280572948522
 21
-116.5797799076448
 31
0.0
  0
MTEXT
  5
AFA
330
896
100
AcDbEntity
  8
DIM
 62
     0
100
AcDbMText
 10
-371.0513906281855
 20
-116.5797799076448
 30
0.0
 40
0.9999999999999998
 41
0.0
 71
     5
 72
     1
  1
\A1;25.030
 73
     1
 44
1.0
1001
ACAD
1000
MTEXTBEGIN
1070
    73
1070
     1
1070
    44
1040
1.0
1070
    74
1070
     0
1000
MTEXTEND
  0
POINT
  5
AFB
330
896
100
AcDbEntity
  8
Defpoints
 62
     0
100
AcDbPoint
 10
-364.0313072948521
 20
-118.0797799076448
 30
0.0
  0
POINT
  5
AFC
330
896
100
AcDbEntity
  8
Defpoints
 62
     0
100
AcDbPoint
 10
-368.6280572948522
 20
-116.5797799076448
 30
0.0
  0
POINT
  5
AFD
330
896
100
AcDbEntity
  8
Defpoints
 62
     0
100
AcDbPoint
 10
-364.6280572948521
 20
-143.108779907645
 30
0.0
  0
ENDBLK
  5
89F
330
896
100
AcDbEntity
  8
0
100
AcDbBlockEnd
  0
BLOCK
  5
8A6
330
8A0
100
AcDbEntity
  8
0
100
AcDbBlockBegin
  2
*D99
 70
     1
 10
0.0
 20
0.0
 30
0.0
  3
*D99
  1

  0
LINE
  5
AF2
330
8A0
100
AcDbEntity
  8
DIM
 62
     0
370
    -2
100
AcDbLine
 10
-363.6275572948519
 20
-118.568779907645
 30
0.0
 11
-368.6280572948522
 21
-118.568779907645
 31
0.0
  0
MTEXT
  5
AF3
330
8A0
100
AcDbEntity
  8
DIM
 62
     0
100
AcDbMText
 10
-371.1347239615188
 20
-118.568779907645
 30
0.0
 40
0.9999999999999998
 41
0.0
 71
     5
 72
     1
  1
\A1;24.540
 73
     1
 44
1.0
1001
ACAD
1000
MTEXTBEGIN
1070
    73
1070
     1
1070
    44
1040
1.0
1070
    74
1070
     0
1000
MTEXTEND
  0
POINT
  5
AF4
330
8A0
100
AcDbEntity
  8
Defpoints
 62
     0
100
AcDbPoint
 10
-363.4275572948519
 20
-118.568779907645
 30
0.0
  0
POINT
  5
AF5
330
8A0
100
AcDbEntity
  8
Defpoints
 62
     0
100
AcDbPoint
 10
-368.6280572948522
 20
-118.568779907645
 30
0.0
  0
POINT
  5
AF6
330
8A0
100
AcDbEntity
  8
Defpoints
 62
     0
100
AcDbPoint
 10
-364.6280572948521
 20
-143.108779907645
 30
0.0
  0
ENDBLK
  5
8A7
330
8A0
100
AcDbEntity
  8
0
100
AcDbBlockEnd
  0
BLOCK
  5
8B0
330
8A8
100
AcDbEntity
  8
0
100
AcDbBlockBegin
  2
*D100
 70
     1
 10
0.0
 20
0.0
 30
0.0
  3
*D100
  1

  0
LINE
  5
AEB
330
8A8
100
AcDbEntity
  8
DIM
 62
     0
370
    -2
100
AcDbLine
 10
-358.6240572948521
 20
-120.3187799076448
 30
0.0
 11
-364.9570932585232
 21
-120.3187799076448
 31
0.0
  0
LINE
  5
AEC
330
8A8
100
AcDbEntity
  8
DIM
 62
     0
370
    -2
100
AcDbLine
 10
-364.9570932585232
 20
-120.3187799076448
 30
0.0
 11
-366.9570932585232
 21
-122.6784526875083
 31
0.0
  0
LINE
  5
AED
330
8A8
100
AcDbEntity
  8
DIM
 62
     0
370
    -2
100
AcDbLine
 10
-366.9570932585232
 20
-122.6784526875083
 30
0.0
 11
-368.9570932585232
 21
-122.6784526875083
 31
0.0
  0
MTEXT
  5
AEE
330
8A8
100
AcDbEntity
  8
DIM
 62
     0
100
AcDbMText
 10
-371.4637599251898
 20
-122.6784526875083
 30
0.0
 40
0.9999999999999998
 41
0.0
 71
     5
 72
     1
  1
\A1;22.790
 73
     1
 44
1.0
1001
ACAD
1000
MTEXTBEGIN
1070
    73
1070
     1
1070
    44
1040
1.0
1070
    74
1070
     0
1000
MTEXTEND
  0
POINT
  5
AEF
330
8A8
100
AcDbEntity
  8
Defpoints
 62
     0
100
AcDbPoint
 10
-358.4240572948521
 20
-120.3187799076448
 30
0.0
  0
POINT
  5
AF0
330
8A8
100
AcDbEntity
  8
Defpoints
 62
     0
100
AcDbPoint
 10
-368.9570932585232
 20
-122.6784526875083
 30
0.0
  0
POINT
  5
AF1
330
8A8
100
AcDbEntity
  8
Defpoints
 62
     0
100
AcDbPoint
 10
-364.6280572948521
 20
-143.108779907645
 30
0.0
  0
ENDBLK
  5
8B1
330
8A8
100
AcDbEntity
  8
0
100
AcDbBlockEnd
  0
BLOCK
  5
8BA
330
8B2
100
AcDbEntity
  8
0
100
AcDbBlockBegin
  2
*D101
 70
     1
 10
0.0
 20
0.0
 30
0.0
  3
*D101
  1

  0
LINE
  5
AE4
330
8B2
100
AcDbEntity
  8
DIM
 62
     0
370
    -2
100
AcDbLine
 10
-358.6240572948521
 20
-121.8187799076451
 30
0.0
 11
-365.0380572948522
 21
-121.8187799076451
 31
0.0
  0
LINE
  5
AE5
330
8B2
100
AcDbEntity
  8
DIM
 62
     0
370
    -2
100
AcDbLine
 10
-365.0380572948522
 20
-121.8187799076451
 30
0.0
 11
-367.0380572948522
 21
-124.5557835144411
 31
0.0
  0
LINE
  5
AE6
330
8B2
100
AcDbEntity
  8
DIM
 62
     0
370
    -2
100
AcDbLine
 10
-367.0380572948522
 20
-124.5557835144411
 30
0.0
 11
-369.0380572948522
 21
-124.5557835144411
 31
0.0
  0
MTEXT
  5
AE7
330
8B2
100
AcDbEntity
  8
DIM
 62
     0
100
AcDbMText
 10
-371.3780572948522
 20
-124.5557835144411
 30
0.0
 40
0.9999999999999998
 41
0.0
 71
     5
 72
     1
  1
\A1;21.290
 73
     1
 44
1.0
1001
ACAD
1000
MTEXTBEGIN
1070
    73
1070
     1
1070
    44
1040
1.0
1070
    74
1070
     0
1000
MTEXTEND
  0
POINT
  5
AE8
330
8B2
100
AcDbEntity
  8
Defpoints
 62
     0
100
AcDbPoint
 10
-358.4240572948521
 20
-121.8187799076451
 30
0.0
  0
POINT
  5
AE9
330
8B2
100
AcDbEntity
  8
Defpoints
 62
     0
100
AcDbPoint
 10
-369.0380572948522
 20
-124.5557835144411
 30
0.0
  0
POINT
  5
AEA
330
8B2
100
AcDbEntity
  8
Defpoints
 62
     0
100
AcDbPoint
 10
-364.6280572948521
 20
-143.108779907645
 30
0.0
  0
ENDBLK
  5
8BB
330
8B2
100
AcDbEntity
  8
0
100
AcDbBlockEnd
  0
BLOCK
  5
8C4
330
8BC
100
AcDbEntity
  8
0
100
AcDbBlockBegin
  2
*D102
 70
     1
 10
0.0
 20
0.0
 30
0.0
  3
*D102
  1

  0
LINE
  5
ADD
330
8BC
100
AcDbEntity
  8
DIM
 62
     0
370
    -2
100
AcDbLine
 10
-362.444057294852
 20
-124.1387799076448
 30
0.0
 11
-364.244057294852
 21
-124.1387799076448
 31
0.0
  0
LINE
  5
ADE
330
8BC
100
AcDbEntity
  8
DIM
 62
     0
370
    -2
100
AcDbLine
 10
-364.244057294852
 20
-124.1387799076448
 30
0.0
 11
-365.0164106362468
 21
-126.7359096742084
 31
0.0
  0
LINE
  5
ADF
330
8BC
100
AcDbEntity
  8
DIM
 62
     0
370
    -2
100
AcDbLine
 10
-365.0164106362468
 20
-126.7359096742084
 30
0.0
 11
-367.0164106362468
 21
-126.7359096742084
 31
0.0
  0
MTEXT
  5
AE0
330
8BC
100
AcDbEntity
  8
DIM
 62
     0
100
AcDbMText
 10
-369.3564106362468
 20
-126.7359096742084
 30
0.0
 40
0.9999999999999998
 41
0.0
 71
     5
 72
     1
  1
\A1;18.970
 73
     1
 44
1.0
1001
ACAD
1000
MTEXTBEGIN
1070
    73
1070
     1
1070
    44
1040
1.0
1070
    74
1070
     0
1000
MTEXTEND
  0
POINT
  5
AE1
330
8BC
100
AcDbEntity
  8
Defpoints
 62
     0
100
AcDbPoint
 10
-362.244057294852
 20
-124.1387799076448
 30
0.0
  0
POINT
  5
AE2
330
8BC
100
AcDbEntity
  8
Defpoints
 62
     0
100
AcDbPoint
 10
-367.0164106362468
 20
-126.7359096742084
 30
0.0
  0
POINT
  5
AE3
330
8BC
100
AcDbEntity
  8
Defpoints
 62
     0
100
AcDbPoint
 10
-364.6280572948521
 20
-143.108779907645
 30
0.0
  0
ENDBLK
  5
8C5
330
8BC
100
AcDbEntity
  8
0
100
AcDbBlockEnd
  0
BLOCK
  5
8CC
330
8C6
100
AcDbEntity
  8
0
100
AcDbBlockBegin
  2
*D103
 70
     1
 10
0.0
 20
0.0
 30
0.0
  3
*D103
  1

  0
LINE
  5
AD8
330
8C6
100
AcDbEntity
  8
DIM
 62
     0
370
    -2
100
AcDbLine
 10
-362.444057294852
 20
-137.1387799076448
 30
0.0
 11
-368.4158412317959
 21
-137.1387799076448
 31
0.0
  0
MTEXT
  5
AD9
330
8C6
100
AcDbEntity
  8
DIM
 62
     0
100
AcDbMText
 10
-370.4225078984625
 20
-137.1387799076448
 30
0.0
 40
0.9999999999999998
 41
0.0
 71
     5
 72
     1
  1
\A1;5.970
 73
     1
 44
1.0
1001
ACAD
1000
MTEXTBEGIN
1070
    73
1070
     1
1070
    44
1040
1.0
1070
    74
1070
     0
1000
MTEXTEND
  0
POINT
  5
ADA
330
8C6
100
AcDbEntity
  8
Defpoints
 62
     0
100
AcDbPoint
 10
-362.244057294852
 20
-137.1387799076448
 30
0.0
  0
POINT
  5
ADB
330
8C6
100
AcDbEntity
  8
Defpoints
 62
     0
100
AcDbPoint
 10
-368.4158412317959
 20
-137.1387799076448
 30
0.0
  0
POINT
  5
ADC
330
8C6
100
AcDbEntity
  8
Defpoints
 62
     0
100
AcDbPoint
 10
-364.6280572948521
 20
-143.108779907645
 30
0.0
  0
ENDBLK
  5
8CD
330
8C6
100
AcDbEntity
  8
0
100
AcDbBlockEnd
  0
BLOCK
  5
8D6
330
8CE
100
AcDbEntity
  8
0
100
AcDbBlockBegin
  2
*D104
 70
     1
 10
0.0
 20
0.0
 30
0.0
  3
*D104
  1

  0
LINE
  5
AD1
330
8CE
100
AcDbEntity
  8
DIM
 62
     0
370
    -2
100
AcDbLine
 10
-353.5590572948521
 20
-118.7687799076451
 30
0.0
 11
-353.5590572948521
 21
-141.1890224651046
 31
0.0
  0
LINE
  5
AD2
330
8CE
100
AcDbEntity
  8
DIM
 62
     0
370
    -2
100
AcDbLine
 10
-353.5590572948521
 20
-141.1890224651046
 30
0.0
 11
-353.2453834757936
 21
-143.1890224651046
 31
0.0
  0
LINE
  5
AD3
330
8CE
100
AcDbEntity
  8
DIM
 62
     0
370
    -2
100
AcDbLine
 10
-353.2453834757936
 20
-143.1890224651046
 30
0.0
 11
-353.2453834757936
 21
-145.1890224651046
 31
0.0
  0
MTEXT
  5
AD4
330
8CE
100
AcDbEntity
  8
DIM
 62
     0
100
AcDbMText
 10
-353.2453834757935
 20
-147.362355798438
 30
0.0
 40
1.0
 41
0.0
 71
     5
 72
     1
  1
\A1;11.069
 11
0.0000000000000001
 21
1.0
 31
0.0
 73
     1
 44
1.0
1001
ACAD
1000
MTEXTBEGIN
1070
    73
1070
     1
1070
    44
1040
1.0
1070
    74
1070
     0
1000
MTEXTEND
  0
POINT
  5
AD5
330
8CE
100
AcDbEntity
  8
Defpoints
 62
     0
100
AcDbPoint
 10
-353.5590572948521
 20
-118.568779907645
 30
0.0
  0
POINT
  5
AD6
330
8CE
100
AcDbEntity
  8
Defpoints
 62
     0
100
AcDbPoint
 10
-353.2453834757936
 20
-145.1890224651046
 30
0.0
  0
POINT
  5
AD7
330
8CE
100
AcDbEntity
  8
Defpoints
 62
     0
100
AcDbPoint
 10
-364.6280572948521
 20
-143.108779907645
 30
0.0
  0
ENDBLK
  5
8D7
330
8CE
100
AcDbEntity
  8
0
100
AcDbBlockEnd
  0
BLOCK
  5
8DE
330
8D8
100
AcDbEntity
  8
0
100
AcDbBlockBegin
  2
*D105
 70
     1
 10
0.0
 20
0.0
 30
0.0
  3
*D105
  1

  0
LINE
  5
ACC
330
8D8
100
AcDbEntity
  8
DIM
 62
     0
370
    -2
100
AcDbLine
 10
-364.6280572948521
 20
-143.308779907645
 30
0.0
 11
-364.6280572948521
 21
-147.24605123612
 31
0.0
  0
MTEXT
  5
ACD
330
8D8
100
AcDbEntity
  8
DIM
 62
     0
100
AcDbMText
 10
-364.6280572948521
 20
-149.0027179027867
 30
0.0
 40
1.0
 41
0.0
 71
     5
 72
     1
  1
\A1;0.000
 11
0.0000000000000001
 21
1.0
 31
0.0
 73
     1
 44
1.0
1001
ACAD
1000
MTEXTBEGIN
1070
    73
1070
     1
1070
    44
1040
1.0
1070
    74
1070
     0
1000
MTEXTEND
  0
POINT
  5
ACE
330
8D8
100
AcDbEntity
  8
Defpoints
 62
     0
100
AcDbPoint
 10
-364.6280572948521
 20
-143.108779907645
 30
0.0
  0
POINT
  5
ACF
330
8D8
100
AcDbEntity
  8
Defpoints
 62
     0
100
AcDbPoint
 10
-364.6280572948521
 20
-147.24605123612
 30
0.0
  0
POINT
  5
AD0
330
8D8
100
AcDbEntity
  8
Defpoints
 62
     0
100
AcDbPoint
 10
-364.6280572948521
 20
-143.108779907645
 30
0.0
  0
ENDBLK
  5
8DF
330
8D8
100
AcDbEntity
  8
0
100
AcDbBlockEnd
  0
BLOCK
  5
8E6
330
8E0
100
AcDbEntity
  8
0
100
AcDbBlockBegin
  2
*D106
 70
     1
 10
0.0
 20
0.0
 30
0.0
  3
*D106
  1

  0
LINE
  5
AC7
330
8E0
100
AcDbEntity
  8
DIM
 62
     0
370
    -2
100
AcDbLine
 10
-364.0313072948521
 20
-108.9547799076448
 30
0.0
 11
-364.0313072948521
 21
-104.9869430193161
 31
0.0
  0
MTEXT
  5
AC8
330
8E0
100
AcDbEntity
  8
DIM
 62
     0
100
AcDbMText
 10
-364.0313072948521
 20
-102.5702763526494
 30
0.0
 40
0.9999999999999998
 41
0.0
 71
     5
 72
     1
  1
\A1;0.597
 11
0.0000000000000001
 21
1.0
 31
0.0
 73
     1
 44
1.0
1001
ACAD
1000
MTEXTBEGIN
1070
    73
1070
     1
1070
    44
1040
1.0
1070
    74
1070
     0
1000
MTEXTEND
  0
POINT
  5
AC9
330
8E0
100
AcDbEntity
  8
Defpoints
 62
     0
100
AcDbPoint
 10
-364.0313072948521
 20
-109.3297799076448
 30
0.0
  0
POINT
  5
ACA
330
8E0
100
AcDbEntity
  8
Defpoints
 62
     0
100
AcDbPoint
 10
-364.0313072948521
 20
-104.9869430193161
 30
0.0
  0
POINT
  5
ACB
330
8E0
100
AcDbEntity
  8
Defpoints
 62
     0
100
AcDbPoint
 10
-364.6280560043266
 20
-139.0787379124275
 30
0.0
  0
ENDBLK
  5
8E7
330
8E0
100
AcDbEntity
  8
0
100
AcDbBlockEnd
  0
BLOCK
  5
8EE
330
8E8
100
AcDbEntity
  8
0
100
AcDbBlockBegin
  2
*D107
 70
     1
 10
0.0
 20
0.0
 30
0.0
  3
*D107
  1

  0
LINE
  5
AC2
330
8E8
100
AcDbEntity
  8
DIM
 62
     0
370
    -2
100
AcDbLine
 10
-357.9688072948521
 20
-108.9547799076446
 30
0.0
 11
-357.9688072948521
 21
-104.9869430193161
 31
0.0
  0
MTEXT
  5
AC3
330
8E8
100
AcDbEntity
  8
DIM
 62
     0
100
AcDbMText
 10
-357.9688072948521
 20
-102.4869430193161
 30
0.0
 40
0.9999999999999998
 41
0.0
 71
     5
 72
     1
  1
\A1;6.659
 11
0.0000000000000001
 21
1.0
 31
0.0
 73
     1
 44
1.0
1001
ACAD
1000
MTEXTBEGIN
1070
    73
1070
     1
1070
    44
1040
1.0
1070
    74
1070
     0
1000
MTEXTEND
  0
POINT
  5
AC4
330
8E8
100
AcDbEntity
  8
Defpoints
 62
     0
100
AcDbPoint
 10
-357.9688072948521
 20
-109.3297799076446
 30
0.0
  0
POINT
  5
AC5
330
8E8
100
AcDbEntity
  8
Defpoints
 62
     0
100
AcDbPoint
 10
-357.9688072948521
 20
-104.9869430193161
 30
0.0
  0
POINT
  5
AC6
330
8E8
100
AcDbEntity
  8
Defpoints
 62
     0
100
AcDbPoint
 10
-364.6280560043266
 20
-139.0787379124275
 30
0.0
  0
ENDBLK
  5
8EF
330
8E8
100
AcDbEntity
  8
0
100
AcDbBlockEnd
  0
BLOCK
  5
8F8
330
8F0
100
AcDbEntity
  8
0
100
AcDbBlockBegin
  2
*D108
 70
     1
 10
0.0
 20
0.0
 30
0.0
  3
*D108
  1

  0
LINE
  5
ABB
330
8F0
100
AcDbEntity
  8
DIM
 62
     0
370
    -2
100
AcDbLine
 10
-357.1878072948521
 20
-109.3962799076449
 30
0.0
 11
-357.1878072948521
 21
-107.7712799076449
 31
0.0
  0
LINE
  5
ABC
330
8F0
100
AcDbEntity
  8
DIM
 62
     0
370
    -2
100
AcDbLine
 10
-357.1878072948521
 20
-107.7712799076449
 30
0.0
 11
-356.4182116738069
 21
-106.9869430193161
 31
0.0
  0
LINE
  5
ABD
330
8F0
100
AcDbEntity
  8
DIM
 62
     0
370
    -2
100
AcDbLine
 10
-356.4182116738069
 20
-106.9869430193161
 30
0.0
 11
-356.4182116738069
 21
-104.9869430193161
 31
0.0
  0
MTEXT
  5
ABE
330
8F0
100
AcDbEntity
  8
DIM
 62
     0
100
AcDbMText
 10
-356.4182116738069
 20
-102.5702763526494
 30
0.0
 40
0.9999999999999998
 41
0.0
 71
     5
 72
     1
  1
\A1;7.440
 11
0.0000000000000001
 21
1.0
 31
0.0
 73
     1
 44
1.0
1001
ACAD
1000
MTEXTBEGIN
1070
    73
1070
     1
1070
    44
1040
1.0
1070
    74
1070
     0
1000
MTEXTEND
  0
POINT
  5
ABF
330
8F0
100
AcDbEntity
  8
Defpoints
 62
     0
100
AcDbPoint
 10
-357.1878072948521
 20
-109.7712799076449
 30
0.0
  0
POINT
  5
AC0
330
8F0
100
AcDbEntity
  8
Defpoints
 62
     0
100
AcDbPoint
 10
-356.4182116738069
 20
-104.9869430193161
 30
0.0
  0
POINT
  5
AC1
330
8F0
100
AcDbEntity
  8
Defpoints
 62
     0
100
AcDbPoint
 10
-364.6280560043266
 20
-139.0787379124275
 30
0.0
  0
ENDBLK
  5
8F9
330
8F0
100
AcDbEntity
  8
0
100
AcDbBlockEnd
  0
BLOCK
  5
902
330
8FA
100
AcDbEntity
  8
0
100
AcDbBlockBegin
  2
*D109
 70
     1
 10
0.0
 20
0.0
 30
0.0
  3
*D109
  1

  0
LINE
  5
AB4
330
8FA
100
AcDbEntity
  8
DIM
 62
     0
370
    -2
100
AcDbLine
 10
-364.244057294852
 20
-110.7637799076448
 30
0.0
 11
-364.244057294852
 21
-109.0194136946744
 31
0.0
  0
LINE
  5
AB5
330
8FA
100
AcDbEntity
  8
DIM
 62
     0
370
    -2
100
AcDbLine
 10
-364.244057294852
 20
-109.0194136946744
 30
0.0
 11
-365.5197716614317
 21
-107.0194136946744
 31
0.0
  0
LINE
  5
AB6
330
8FA
100
AcDbEntity
  8
DIM
 62
     0
370
    -2
100
AcDbLine
 10
-365.5197716614317
 20
-107.0194136946744
 30
0.0
 11
-365.5197716614317
 21
-105.0194136946744
 31
0.0
  0
MTEXT
  5
AB7
330
8FA
100
AcDbEntity
  8
DIM
 62
     0
100
AcDbMText
 10
-365.5197716614317
 20
-102.6027470280078
 30
0.0
 40
0.9999999999999998
 41
0.0
 71
     5
 72
     1
  1
\A1;0.384
 11
0.0000000000000001
 21
1.0
 31
0.0
 73
     1
 44
1.0
1001
ACAD
1000
MTEXTBEGIN
1070
    73
1070
     1
1070
    44
1040
1.0
1070
    74
1070
     0
1000
MTEXTEND
  0
POINT
  5
AB8
330
8FA
100
AcDbEntity
  8
Defpoints
 62
     0
100
AcDbPoint
 10
-364.244057294852
 20
-111.1387799076448
 30
0.0
  0
POINT
  5
AB9
330
8FA
100
AcDbEntity
  8
Defpoints
 62
     0
100
AcDbPoint
 10
-365.5197716614317
 20
-105.0194136946744
 30
0.0
  0
POINT
  5
ABA
330
8FA
100
AcDbEntity
  8
Defpoints
 62
     0
100
AcDbPoint
 10
-364.6280560043266
 20
-139.0787379124275
 30
0.0
  0
ENDBLK
  5
903
330
8FA
100
AcDbEntity
  8
0
100
AcDbBlockEnd
  0
BLOCK
  5
90A
330
904
100
AcDbEntity
  8
0
100
AcDbBlockBegin
  2
*D110
 70
     1
 10
0.0
 20
0.0
 30
0.0
  3
*D110
  1

  0
LINE
  5
AAF
330
904
100
AcDbEntity
  8
DIM
 62
     0
370
    -2
100
AcDbLine
 10
-354.3503072948537
 20
-109.3962799076449
 30
0.0
 11
-354.3503072948537
 21
-104.9869430193161
 31
0.0
  0
MTEXT
  5
AB0
330
904
100
AcDbEntity
  8
DIM
 62
     0
100
AcDbMText
 10
-354.3503072948537
 20
-102.2369430193161
 30
0.0
 40
0.9999999999999998
 41
0.0
 71
     5
 72
     1
  1
\A1;10.278
 11
0.0000000000000001
 21
1.0
 31
0.0
 73
     1
 44
1.0
1001
ACAD
1000
MTEXTBEGIN
1070
    73
1070
     1
1070
    44
1040
1.0
1070
    74
1070
     0
1000
MTEXTEND
  0
POINT
  5
AB1
330
904
100
AcDbEntity
  8
Defpoints
 62
     0
100
AcDbPoint
 10
-354.3503072948537
 20
-109.7712799076449
 30
0.0
  0
POINT
  5
AB2
330
904
100
AcDbEntity
  8
Defpoints
 62
     0
100
AcDbPoint
 10
-354.3503072948537
 20
-104.9869430193161
 30
0.0
  0
POINT
  5
AB3
330
904
100
AcDbEntity
  8
Defpoints
 62
     0
100
AcDbPoint
 10
-364.6280560043266
 20
-139.0787379124275
 30
0.0
  0
ENDBLK
  5
90B
330
904
100
AcDbEntity
  8
0
100
AcDbBlockEnd
  0
BLOCK
  5
912
330
90C
100
AcDbEntity
  8
0
100
AcDbBlockBegin
  2
*D111
 70
     1
 10
0.0
 20
0.0
 30
0.0
  3
*D111
  1

  0
LINE
  5
AAA
330
90C
100
AcDbEntity
  8
DIM
 62
     0
370
    -2
100
AcDbLine
 10
-352.744057294852
 20
-110.7637799076448
 30
0.0
 11
-352.744057294852
 21
-105.0681193177678
 31
0.0
  0
MTEXT
  5
AAB
330
90C
100
AcDbEntity
  8
DIM
 62
     0
100
AcDbMText
 10
-352.744057294852
 20
-102.4014526511012
 30
0.0
 40
0.9999999999999998
 41
0.0
 71
     5
 72
     1
  1
\A1;11.884
 11
0.0000000000000001
 21
1.0
 31
0.0
 73
     1
 44
1.0
1001
ACAD
1000
MTEXTBEGIN
1070
    73
1070
     1
1070
    44
1040
1.0
1070
    74
1070
     0
1000
MTEXTEND
  0
POINT
  5
AAC
330
90C
100
AcDbEntity
  8
Defpoints
 62
     0
100
AcDbPoint
 10
-352.744057294852
 20
-111.1387799076448
 30
0.0
  0
POINT
  5
AAD
330
90C
100
AcDbEntity
  8
Defpoints
 62
     0
100
AcDbPoint
 10
-352.744057294852
 20
-105.0681193177678
 30
0.0
  0
POINT
  5
AAE
330
90C
100
AcDbEntity
  8
Defpoints
 62
     0
100
AcDbPoint
 10
-364.6280560043266
 20
-139.0787379124275
 30
0.0
  0
ENDBLK
  5
913
330
90C
100
AcDbEntity
  8
0
100
AcDbBlockEnd
  0
ENDSEC
  0
SECTION
  2
ENTITIES
  0
LINE
  5
2C8
330
1F
100
AcDbEntity
  8
BORDER
100
AcDbLine
 10
-365.9966931916512
 20
-153.7832799076447
 30
0.0
 11
-382.2421964375759
 21
-153.7832799076447
 31
0.0
  0
TEXT
  5
2C9
330
1F
100
AcDbEntity
  8
TEXT
100
AcDbText
 10
-381.7578214375759
 20
-154.1582799076448
 30
0.0
 40
0.25
  1
0
 72
     1
 11
-381.6953214375758
 21
-154.0332799076448
 31
0.0
100
AcDbText
 73
     2
  0
LINE
  5
2CA
330
1F
100
AcDbEntity
  8
BORDER
100
AcDbLine
 10
-381.1484464375758
 20
-154.2832799076448
 30
0.0
 11
-381.1484464375758
 21
-153.2832799076446
 31
0.0
  0
TEXT
  5
2CB
330
1F
100
AcDbEntity
  8
TEXT
100
AcDbText
 10
-377.6286547709089
 20
-154.1582799076448
 30
0.0
 40
0.25
  1
INITIAL RELEASE
 72
     1
 11
-375.9203214375756
 21
-154.0332799076448
 31
0.0
100
AcDbText
 73
     2
  0
TEXT
  5
2CC
330
1F
100
AcDbEntity
  8
TEXT
100
AcDbText
 10
-367.5777781479467
 20
-154.1582799076448
 30
0.0
 40
0.25
  1
JJH
 72
     1
 11
-367.2444448146134
 21
-154.0332799076448
 31
0.0
100
AcDbText
 73
     2
  0
LINE
  5
2CD
330
1F
100
AcDbEntity
  8
BORDER
100
AcDbLine
 10
-368.4921964375758
 20
-154.2832799076448
 30
0.0
 11
-368.4921964375758
 21
-153.2832799076446
 31
0.0
  0
TEXT
  5
2CE
330
1F
100
AcDbEntity
  8
TEXT
100
AcDbText
 10
-370.3213631042425
 20
-154.1582799076448
 30
0.0
 40
0.25
  1
4-15-10
 72
     1
 11
-369.5921964375758
 21
-154.0332799076448
 31
0.0
100
AcDbText
 73
     2
  0
LINE
  5
2CF
330
1F
100
AcDbEntity
  8
BORDER
100
AcDbLine
 10
-370.6921964375758
 20
-154.2832799076448
 30
0.0
 11
-370.6921964375758
 21
-153.2832799076446
 31
0.0
  0
LINE
  5
2D0
330
1F
100
AcDbEntity
  8
BORDER
100
AcDbLine
 10
-365.9966931916512
 20
-154.7832799076448
 30
0.0
 11
-382.2421964375759
 21
-154.7832799076448
 31
0.0
  0
LINE
  5
2D1
330
1F
100
AcDbEntity
  8
BORDER
100
AcDbLine
 10
-365.9966931916512
 20
-154.2832799076448
 30
0.0
 11
-382.2421964375759
 21
-154.2832799076448
 31
0.0
  0
TEXT
  5
2D2
330
1F
100
AcDbEntity
  8
TEXT
100
AcDbText
 10
-382.0703214375758
 20
-154.6582799076448
 30
0.0
 40
0.25
  1
REV
 72
     1
 11
-381.6953214375758
 21
-154.5332799076448
 31
0.0
100
AcDbText
 73
     2
  0
LINE
  5
2D3
330
1F
100
AcDbEntity
  8
BORDER
100
AcDbLine
 10
-382.2421964375759
 20
-155.2832799076448
 30
0.0
 11
-382.2421964375759
 21
-152.2832799076446
 31
0.0
  0
LINE
  5
2D4
330
1F
100
AcDbEntity
  8
BORDER
100
AcDbLine
 10
-381.1484464375758
 20
-154.7832799076448
 30
0.0
 11
-381.1484464375758
 21
-154.2832799076448
 31
0.0
  0
TEXT
  5
2D5
330
1F
100
AcDbEntity
  8
TEXT
100
AcDbText
 10
-377.1703214375756
 20
-154.6582799076448
 30
0.0
 40
0.25
  1
DESCRIPTION
 72
     1
 11
-375.9203214375756
 21
-154.5332799076448
 31
0.0
100
AcDbText
 73
     2
  0
TEXT
  5
2D6
330
1F
100
AcDbEntity
  8
TEXT
100
AcDbText
 10
-368.0777781479467
 20
-154.6582799076448
 30
0.0
 40
0.25
  1
CHECKED
 72
     1
 11
-367.2444448146134
 21
-154.5332799076448
 31
0.0
100
AcDbText
 73
     2
  0
LINE
  5
2D7
330
1F
100
AcDbEntity
  8
BORDER
100
AcDbLine
 10
-368.4921964375758
 20
-154.7832799076448
 30
0.0
 11
-368.4921964375758
 21
-154.2832799076448
 31
0.0
  0
TEXT
  5
2D8
330
1F
100
AcDbEntity
  8
TEXT
100
AcDbText
 10
-370.0505297709091
 20
-154.6582799076448
 30
0.0
 40
0.25
  1
DATE
 72
     1
 11
-369.5921964375758
 21
-154.5332799076448
 31
0.0
100
AcDbText
 73
     2
  0
LINE
  5
2D9
330
1F
100
AcDbEntity
  8
BORDER
100
AcDbLine
 10
-370.6921964375758
 20
-154.7832799076448
 30
0.0
 11
-370.6921964375758
 21
-154.2832799076448
 31
0.0
  0
LINE
  5
2DA
330
1F
100
AcDbEntity
  8
BORDER
100
AcDbLine
 10
-382.2421964375759
 20
-154.7832799076448
 30
0.0
 11
-365.9966931916512
 21
-154.7832799076448
 31
0.0
  0
LINE
  5
2DB
330
1F
100
AcDbEntity
  8
BORDER
100
AcDbLine
 10
-365.9966931916512
 20
-153.2832799076446
 30
0.0
 11
-365.9966931916512
 21
-155.2832799076448
 31
0.0
  0
LINE
  5
2DC
330
1F
100
AcDbEntity
  8
BORDER
100
AcDbLine
 10
-365.9966931916512
 20
-155.2832799076448
 30
0.0
 11
-382.2421964375759
 21
-155.2832799076448
 31
0.0
  0
TEXT
  5
2DD
330
1F
100
AcDbEntity
  8
TEXT
100
AcDbText
 10
-335.7048358781931
 20
-155.059898808468
 30
0.0
 40
0.625
  1
1
 72
     1
 11
-335.6006692115264
 21
-154.747398808468
 31
0.0
100
AcDbText
 73
     2
  0
TEXT
  5
2DE
330
1F
100
AcDbEntity
  8
TEXT
100
AcDbText
 10
-341.8332966186412
 20
-155.059898808468
 30
0.0
 40
0.625
  1
IQ300446
 72
     1
 11
-339.6457966186412
 21
-154.747398808468
 31
0.0
100
AcDbText
 73
     2
  0
TEXT
  5
2DF
330
1F
100
AcDbEntity
  8
TEXT
100
AcDbText
 10
-339.6614413925763
 20
-152.3599552092911
 30
0.0
 40
0.15625
  1
724-837-2204  *  1-888-867-8234
 72
     1
 11
-337.304670559243
 21
-152.2818302092911
 31
0.0
100
AcDbText
 73
     2
  0
TEXT
  5
2E0
330
1F
100
AcDbEntity
  8
TEXT
100
AcDbText
 10
-338.8150872259097
 20
-152.0474552092911
 30
0.0
 40
0.15625
  1
GREENSBURG, PA  15601
 72
     1
 11
-337.304670559243
 21
-151.9693302092911
 31
0.0
100
AcDbText
 73
     2
  0
TEXT
  5
2E1
330
1F
100
AcDbEntity
  8
TEXT
100
AcDbText
 10
-338.5807122259097
 20
-151.7349552092911
 30
0.0
 40
0.15625
  1
141 WILSON AVENUE
 72
     1
 11
-337.304670559243
 21
-151.6568302092911
 31
0.0
100
AcDbText
 73
     2
  0
TEXT
  5
2E2
330
1F
100
AcDbEntity
  8
TEXT
100
AcDbText
 10
-339.3619622259097
 20
-151.4380802092911
 30
0.0
 40
0.15625
  1
INDUSTRIAL COOLING EQUIPMENT
 72
     1
 11
-337.304670559243
 21
-151.3599552092911
 31
0.0
100
AcDbText
 73
     2
  0
TEXT
  5
2E3
330
1F
100
AcDbEntity
  8
TEXT
100
AcDbText
 10
-338.6067538925763
 20
-152.6724552092911
 30
0.0
 40
0.15625
  1
FAX  724-837-3386
 72
     1
 11
-337.304670559243
 21
-152.5943302092911
 31
0.0
100
AcDbText
 73
     2
  0
LINE
  5
2E4
330
1F
100
AcDbEntity
  8
BORDER
100
AcDbLine
 10
-342.8341729663577
 20
-151.1646427092911
 30
0.0
 11
-334.7439181521281
 21
-151.1646427092911
 31
0.0
  0
LINE
  5
2E5
330
1F
100
AcDbEntity
  8
BORDER
100
AcDbLine
 10
-342.8341729663577
 20
-152.7271427092911
 30
0.0
 11
-334.7439181521281
 21
-152.7271427092911
 31
0.0
  0
LINE
  5
2E6
330
1F
100
AcDbEntity
  8
BORDER
100
AcDbLine
 10
-342.8341729663577
 20
-153.9771427092911
 30
0.0
 11
-334.7439181521281
 21
-153.9771427092911
 31
0.0
  0
LINE
  5
2E7
330
1F
100
AcDbEntity
  8
BORDER
100
AcDbLine
 10
-336.4574202709246
 20
-153.9771427092911
 30
0.0
 11
-336.4574202709246
 21
-155.2832799076448
 31
0.0
  0
TEXT
  5
2E8
330
1F
100
AcDbEntity
  8
TEXT
100
AcDbText
 10
-346.7243713947358
 20
-155.0964622633196
 30
0.0
 40
0.3125
  1
SHEET 1 OF 1
 72
     1
 11
-345.0056213947358
 21
-154.9402122633195
 31
0.0
100
AcDbText
 73
     2
  0
LINE
  5
2E9
330
1F
100
AcDbEntity
  8
BORDER
100
AcDbLine
 10
-347.2091729663578
 20
-154.6021427092911
 30
0.0
 11
-342.8341729663577
 21
-154.6021427092911
 31
0.0
  0
TEXT
  5
2EA
330
1F
100
AcDbEntity
  8
TEXT
100
AcDbText
 10
-345.9331312996911
 20
-154.4408576725935
 30
0.0
 40
0.3125
  1
4-15-10
 72
     1
 11
-345.0216729663578
 21
-154.2846076725935
 31
0.0
100
AcDbText
 73
     2
  0
TEXT
  5
2EB
330
1F
100
AcDbEntity
  8
TEXT
100
AcDbText
 10
-347.0529229663577
 20
-154.2115177092911
 30
0.0
 40
0.15625
  1
DATE
100
AcDbText
  0
TEXT
  5
2EC
330
1F
100
AcDbEntity
  8
TEXT
100
AcDbText
 10
-346.4607354663577
 20
-153.9215177092912
 30
0.0
 40
0.234375
  1
JJH
 72
     1
 11
-346.1482354663577
 21
-153.8043302092912
 31
0.0
100
AcDbText
 73
     2
  0
TEXT
  5
2ED
330
1F
100
AcDbEntity
  8
TEXT
100
AcDbText
 10
-347.1185479663577
 20
-153.5865177092911
 30
0.0
 40
0.15625
  1
DRAWN
100
AcDbText
  0
TEXT
  5
2EE
330
1F
100
AcDbEntity
  8
TEXT
100
AcDbText
 10
-344.8654229663576
 20
-153.5865177092911
 30
0.0
 40
0.15625
  1
SCALE
100
AcDbText
  0
TEXT
  5
2EF
330
1F
100
AcDbEntity
  8
TEXT
100
AcDbText
 10
-344.3247979663579
 20
-153.9215177092912
 30
0.0
 40
0.234375
  1
NONE
 72
     1
 11
-343.8951104663579
 21
-153.8043302092912
 31
0.0
100
AcDbText
 73
     2
  0
LINE
  5
2F0
330
1F
100
AcDbEntity
  8
BORDER
100
AcDbLine
 10
-347.2091729663578
 20
-153.3521427092911
 30
0.0
 11
-342.8341729663577
 21
-153.3521427092911
 31
0.0
  0
LINE
  5
2F1
330
1F
100
AcDbEntity
  8
BORDER
100
AcDbLine
 10
-347.2091729663578
 20
-153.9771427092911
 30
0.0
 11
-342.8341729663577
 21
-153.9771427092911
 31
0.0
  0
LINE
  5
2F2
330
1F
100
AcDbEntity
  8
BORDER
100
AcDbLine
 10
-342.8341729663577
 20
-155.2832799076448
 30
0.0
 11
-342.8341729663577
 21
-151.1646427092911
 31
0.0
  0
LINE
  5
2F3
330
1F
100
AcDbEntity
  8
TEXT
100
AcDbLine
 10
-341.9399534656847
 20
-152.4724926932605
 30
0.0
 11
-341.9132223797803
 21
-152.4894101795097
 31
0.0
  0
ARC
  5
2F4
330
1F
100
AcDbEntity
  8
TEXT
100
AcDbCircle
 10
-341.7654436773355
 20
-152.2928590783064
 30
0.0
 40
0.1029739000996109
100
AcDbArc
 50
287.1920036507392
 51
335.8997504051534
  0
ARC
  5
2F5
330
1F
100
AcDbEntity
  8
TEXT
100
AcDbCircle
 10
-341.5594308224302
 20
-152.4315889419007
 30
0.0
 40
0.047902564587344
100
AcDbArc
 50
67.37252950712522
 51
112.6274704928675
  0
ARC
  5
2F6
330
1F
100
AcDbEntity
  8
TEXT
100
AcDbCircle
 10
-341.5745216762679
 20
-152.3488285931541
 30
0.0
 40
0.0676602827344026
100
AcDbArc
 50
330.1916644163833
 51
19.91318758187979
  0
ARC
  5
2F7
330
1F
100
AcDbEntity
  8
TEXT
100
AcDbCircle
 10
-341.6645408910362
 20
-152.3109387057544
 30
0.0
 40
0.0249429364567843
100
AcDbArc
 50
253.9290889125599
 51
38.65267477511397
  0
ARC
  5
2F8
330
1F
100
AcDbEntity
  8
TEXT
100
AcDbCircle
 10
-341.2406217959494
 20
-152.3367562670948
 30
0.0
 40
0.0518260868541633
100
AcDbArc
 50
188.1927496775748
 51
244.8496170020145
  0
ARC
  5
2F9
330
1F
100
AcDbEntity
  8
TEXT
100
AcDbCircle
 10
-341.2412555773666
 20
-152.2865896635924
 30
0.0
 40
0.0994083459973538
100
AcDbArc
 50
257.5730930866192
 51
314.4273867462272
  0
LINE
  5
2FA
330
1F
100
AcDbEntity
  8
TEXT
100
AcDbLine
 10
-341.0680329781083
 20
-152.3971083016565
 30
0.0
 11
-341.0664507678754
 21
-152.3789257270839
 31
0.0
  0
LINE
  5
2FB
330
1F
100
AcDbEntity
  8
TEXT
100
AcDbLine
 10
-341.0664507678754
 20
-152.3789257270839
 30
0.0
 11
-341.0933487069377
 21
-152.3805068245598
 31
0.0
  0
ARC
  5
2FC
330
1F
100
AcDbEntity
  8
TEXT
100
AcDbCircle
 10
-341.0938926245605
 20
-152.3585927405459
 30
0.0
 40
0.0219208331170951
100
AcDbArc
 50
155.9964711746257
 51
271.4218156194853
  0
ARC
  5
2FD
330
1F
100
AcDbEntity
  8
TEXT
100
AcDbCircle
 10
-340.9034667284446
 20
-152.3478740434384
 30
0.0
 40
0.0513752098052219
100
AcDbArc
 50
203.9135879631547
 51
286.1701931802542
  0
ARC
  5
2FE
330
1F
100
AcDbEntity
  8
TEXT
100
AcDbCircle
 10
-340.8788854284946
 20
-152.3254105779455
 30
0.0
 40
0.0725374442393223
100
AcDbArc
 50
261.8576121462839
 51
331.2394802847383
  0
ARC
  5
2FF
330
1F
100
AcDbEntity
  8
TEXT
100
AcDbCircle
 10
-340.8819615268839
 20
-152.3141402748021
 30
0.0
 40
0.0810929943736197
100
AcDbArc
 50
325.2939034707323
 51
356.4132772462207
  0
ARC
  5
300
330
1F
100
AcDbEntity
  8
TEXT
100
AcDbCircle
 10
-341.5157330504521
 20
-151.6127143060565
 30
0.0
 40
0.1319485192661753
100
AcDbArc
 50
148.4692011102826
 51
195.5802361373378
  0
ARC
  5
301
330
1F
100
AcDbEntity
  8
TEXT
100
AcDbCircle
 10
-341.5181738836151
 20
-151.6166457185799
 30
0.0
 40
0.1285795811377622
100
AcDbArc
 50
194.1847393568157
 51
248.6586767321129
  0
ARC
  5
302
330
1F
100
AcDbEntity
  8
TEXT
100
AcDbCircle
 10
-341.4653590789876
 20
-151.5828491161085
 30
0.0
 40
0.1252243447630968
100
AcDbArc
 50
179.2959701761241
 51
227.5915484940839
  0
ARC
  5
303
330
1F
100
AcDbEntity
  8
TEXT
100
AcDbCircle
 10
-341.492668225648
 20
-151.605140231545
 30
0.0
 40
0.0904935239504756
100
AcDbArc
 50
230.8416488637728
 51
280.5326941523482
  0
ARC
  5
304
330
1F
100
AcDbEntity
  8
TEXT
100
AcDbCircle
 10
-341.4808416385118
 20
-151.580620696698
 30
0.0
 40
0.1135862276716573
100
AcDbArc
 50
272.3792098458871
 51
327.3581874363218
  0
ARC
  5
305
330
1F
100
AcDbEntity
  8
TEXT
100
AcDbCircle
 10
-341.5144211722201
 20
-151.5567692477538
 30
0.0
 40
0.1866149158157418
100
AcDbArc
 50
254.28478308494
 51
294.1819270465997
  0
ARC
  5
306
330
1F
100
AcDbEntity
  8
TEXT
100
AcDbCircle
 10
-341.4992725215857
 20
-151.6031141290577
 30
0.0
 40
0.1382279414268217
100
AcDbArc
 50
296.3233923707221
 51
339.834833147579
  0
ARC
  5
307
330
1F
100
AcDbEntity
  8
TEXT
100
AcDbCircle
 10
-341.3788689578417
 20
-151.6489973380893
 30
0.0
 40
0.0095170105473448
100
AcDbArc
 50
349.2952029716972
 51
131.6626905469363
  0
ARC
  5
308
330
1F
100
AcDbEntity
  8
TEXT
100
AcDbCircle
 10
-341.806235257757
 20
-151.6177303527403
 30
0.0
 40
0.1310983043162969
100
AcDbArc
 50
135.7093780000635
 51
195.2317137751531
  0
ARC
  5
309
330
1F
100
AcDbEntity
  8
TEXT
100
AcDbCircle
 10
-341.8186348142742
 20
-151.6217060179645
 30
0.0
 40
0.1180912454887081
100
AcDbArc
 50
194.9511061487668
 51
259.6103135862126
  0
ARC
  5
30A
330
1F
100
AcDbEntity
  8
TEXT
100
AcDbCircle
 10
-341.7997757127187
 20
-151.6169028398989
 30
0.0
 40
0.1274495304475066
100
AcDbArc
 50
251.6347706403313
 51
316.4182924463649
  0
ARC
  5
30B
330
1F
100
AcDbEntity
  8
TEXT
100
AcDbCircle
 10
-341.8157953584053
 20
-151.5766275857092
 30
0.0
 40
0.1678017612198071
100
AcDbArc
 50
310.2152586008207
 51
331.3072507285895
  0
ARC
  5
30C
330
1F
100
AcDbEntity
  8
TEXT
100
AcDbCircle
 10
-341.7532271436465
 20
-151.5923406534049
 30
0.0
 40
0.1197688266097961
100
AcDbArc
 50
167.0430028911414
 51
212.1309371309446
  0
ARC
  5
30D
330
1F
100
AcDbEntity
  8
TEXT
100
AcDbCircle
 10
-341.7788122106827
 20
-151.6065141540791
 30
0.0
 40
0.0905784598489114
100
AcDbArc
 50
213.1462108998125
 51
285.6537258536393
  0
ARC
  5
30E
330
1F
100
AcDbEntity
  8
TEXT
100
AcDbCircle
 10
-341.7779889865552
 20
-151.584156509596
 30
0.0
 40
0.1120927222252192
100
AcDbArc
 50
282.162842666785
 51
326.5593609179315
  0
ARC
  5
30F
330
1F
100
AcDbEntity
  8
TEXT
100
AcDbCircle
 10
-341.6810341661679
 20
-151.6579057362869
 30
0.0
 40
0.0124561803706211
100
AcDbArc
 50
3.288025410275707
 51
105.9275278804377
  0
LINE
  5
310
330
1F
100
AcDbEntity
  8
TEXT
100
AcDbLine
 10
-342.16553833489
 20
-151.2673821243114
 30
0.0
 11
-342.16553833489
 21
-151.7771981493342
 31
0.0
  0
LINE
  5
311
330
1F
100
AcDbEntity
  8
TEXT
100
AcDbLine
 10
-342.017701065027
 20
-151.2673821243114
 30
0.0
 11
-342.017701065027
 21
-151.7771981493342
 31
0.0
  0
ARC
  5
312
330
1F
100
AcDbEntity
  8
TEXT
100
AcDbCircle
 10
-340.4276732961022
 20
-152.3292762815071
 30
0.0
 40
0.0095170105473448
100
AcDbArc
 50
349.2952029716972
 51
131.6626905469363
  0
ARC
  5
313
330
1F
100
AcDbEntity
  8
TEXT
100
AcDbCircle
 10
-340.5480768598461
 20
-152.2833930724756
 30
0.0
 40
0.1382279414268217
100
AcDbArc
 50
296.3233923707221
 51
339.834833147579
  0
ARC
  5
314
330
1F
100
AcDbEntity
  8
TEXT
100
AcDbCircle
 10
-340.5632255104805
 20
-152.2370481911716
 30
0.0
 40
0.1866149158157418
100
AcDbArc
 50
254.28478308494
 51
294.1819270465997
  0
ARC
  5
315
330
1F
100
AcDbEntity
  8
TEXT
100
AcDbCircle
 10
-340.5296459767723
 20
-152.260899640116
 30
0.0
 40
0.1135862276716573
100
AcDbArc
 50
272.3792098458871
 51
327.3581874363218
  0
ARC
  5
316
330
1F
100
AcDbEntity
  8
TEXT
100
AcDbCircle
 10
-340.5414725639082
 20
-152.2854191749629
 30
0.0
 40
0.0904935239504756
100
AcDbArc
 50
230.8416488637728
 51
280.5326941523482
  0
ARC
  5
317
330
1F
100
AcDbEntity
  8
TEXT
100
AcDbCircle
 10
-340.5141634172478
 20
-152.2631280595265
 30
0.0
 40
0.1252243447630968
100
AcDbArc
 50
179.2959701761241
 51
227.5915484940839
  0
ARC
  5
318
330
1F
100
AcDbEntity
  8
TEXT
100
AcDbCircle
 10
-340.5669782218755
 20
-152.2969246619978
 30
0.0
 40
0.1285795811377622
100
AcDbArc
 50
194.1847393568157
 51
248.6586767321129
  0
ARC
  5
319
330
1F
100
AcDbEntity
  8
TEXT
100
AcDbCircle
 10
-340.5645373887125
 20
-152.2929932494743
 30
0.0
 40
0.1319485192661753
100
AcDbArc
 50
148.4692011102826
 51
195.5802361373378
  0
ARC
  5
31A
330
1F
100
AcDbEntity
  8
TEXT
100
AcDbCircle
 10
-340.5653644073924
 20
-152.289056921687
 30
0.0
 40
0.1292181297135794
100
AcDbArc
 50
108.5416613320802
 51
149.7652339536173
  0
ARC
  5
31B
330
1F
100
AcDbEntity
  8
TEXT
100
AcDbCircle
 10
-340.5638637723904
 20
-152.3928058571528
 30
0.0
 40
0.2079657856617219
100
AcDbArc
 50
82.99970676551488
 51
97.00029323448513
  0
ARC
  5
31C
330
1F
100
AcDbEntity
  8
TEXT
100
AcDbCircle
 10
-340.5573432498141
 20
-152.2374170871218
 30
0.0
 40
0.0543885643533876
100
AcDbArc
 50
358.1908821763629
 51
69.7495758340291
  0
ARC
  5
31D
330
1F
100
AcDbEntity
  8
TEXT
100
AcDbCircle
 10
-340.572922743923
 20
-152.2521136471937
 30
0.0
 40
0.0677112257424498
100
AcDbArc
 50
103.9179608005984
 51
168.9486088950471
  0
LINE
  5
31E
330
1F
100
AcDbEntity
  8
TEXT
100
AcDbLine
 10
-340.6393783085649
 20
-152.2391341241018
 30
0.0
 11
-340.5029817954882
 21
-152.2391341241018
 31
0.0
  0
ARC
  5
31F
330
1F
100
AcDbEntity
  8
TEXT
100
AcDbCircle
 10
-340.555348890854
 20
-152.337844558201
 30
0.0
 40
0.1787595523837168
100
AcDbArc
 50
78.15621523985548
 51
106.6122408520356
  0
ARC
  5
320
330
1F
100
AcDbEntity
  8
TEXT
100
AcDbCircle
 10
-340.5258649042549
 20
-152.2571960837254
 30
0.0
 40
0.0945802945625412
100
AcDbArc
 50
357.337623744369
 51
85.63084243886233
  0
LINE
  5
321
330
1F
100
AcDbEntity
  8
TEXT
100
AcDbLine
 10
-340.6393783085649
 20
-152.2615893867721
 30
0.0
 11
-340.4313867003777
 21
-152.2615893867721
 31
0.0
  0
ARC
  5
322
330
1F
100
AcDbEntity
  8
TEXT
100
AcDbCircle
 10
-342.1544988950738
 20
-151.8084452872675
 30
0.0
 40
0.0331398983173351
100
AcDbArc
 50
109.4580308571273
 51
191.0341765877005
  0
ARC
  5
323
330
1F
100
AcDbEntity
  8
TEXT
100
AcDbCircle
 10
-342.1968568725588
 20
-151.8166393941618
 30
0.0
 40
0.0100035300295991
100
AcDbArc
 50
155.9249042338181
 51
10.66497725508788
  0
ARC
  5
324
330
1F
100
AcDbEntity
  8
TEXT
100
AcDbCircle
 10
-342.2246562644561
 20
-151.8244436542614
 30
0.0
 40
0.0221286157777855
100
AcDbArc
 50
32.48569494743564
 51
175.1979664789355
  0
ARC
  5
325
330
1F
100
AcDbEntity
  8
TEXT
100
AcDbCircle
 10
-342.2541167678086
 20
-151.8261201647365
 30
0.0
 40
0.0082070223616514
100
AcDbArc
 50
158.7719549350953
 51
25.46716058584042
  0
ARC
  5
326
330
1F
100
AcDbEntity
  8
TEXT
100
AcDbCircle
 10
-342.273317797672
 20
-151.8207187542174
 30
0.0
 40
0.0118036776942274
100
AcDbArc
 50
348.1206509806769
 51
136.2651890953771
  0
ARC
  5
327
330
1F
100
AcDbEntity
  8
TEXT
100
AcDbCircle
 10
-342.2747349484137
 20
-151.8269381891339
 30
0.0
 40
0.0160420204804056
100
AcDbArc
 50
116.3151684036786
 51
258.4674100382152
  0
ARC
  5
328
330
1F
100
AcDbEntity
  8
TEXT
100
AcDbCircle
 10
-342.2692563074213
 20
-151.850893924105
 30
0.0
 40
0.0119708699890584
100
AcDbArc
 50
356.7423630506751
 51
136.5172760690074
  0
ARC
  5
329
330
1F
100
AcDbEntity
  8
TEXT
100
AcDbCircle
 10
-342.2530474746486
 20
-151.8578346718818
 30
0.0
 40
0.0075708934653655
100
AcDbArc
 50
124.216774595017
 51
319.7988197133694
  0
ARC
  5
32A
330
1F
100
AcDbEntity
  8
TEXT
100
AcDbCircle
 10
-342.2227280103165
 20
-151.8715249691797
 30
0.0
 40
0.0260684316724221
100
AcDbArc
 50
160.2627782819643
 51
255.1333022011723
  0
ARC
  5
32B
330
1F
100
AcDbEntity
  8
TEXT
100
AcDbCircle
 10
-342.2229063367447
 20
-151.8941543514117
 30
0.0
 40
0.0069976873342193
100
AcDbArc
 50
201.5154657473981
 51
41.96660508022778
  0
ARC
  5
32C
330
1F
100
AcDbEntity
  8
TEXT
100
AcDbCircle
 10
-342.1985316267006
 20
-151.876798426886
 30
0.0
 40
0.0229836788276261
100
AcDbArc
 50
121.2424246402126
 51
213.473239708375
  0
ARC
  5
32D
330
1F
100
AcDbEntity
  8
TEXT
100
AcDbCircle
 10
-342.2040645199479
 20
-151.8684071418188
 30
0.0
 40
0.0129451309621158
100
AcDbArc
 50
332.2921775479048
 51
119.5678571759899
  0
ARC
  5
32E
330
1F
100
AcDbEntity
  8
TEXT
100
AcDbCircle
 10
-342.2016383853963
 20
-151.895701183051
 30
0.0
 40
0.0231138652678936
100
AcDbArc
 50
312.9867785858866
 51
66.99118422926675
  0
ARC
  5
32F
330
1F
100
AcDbEntity
  8
TEXT
100
AcDbCircle
 10
-342.1020985380737
 20
-152.0747759347224
 30
0.0
 40
0.1825298605922834
100
AcDbArc
 50
117.3222180892419
 51
179.3383492613259
  0
ARC
  5
330
330
1F
100
AcDbEntity
  8
TEXT
100
AcDbCircle
 10
-341.5130430147028
 20
-152.1345830111816
 30
0.0
 40
0.7740534065258907
100
AcDbArc
 50
175.4121316267021
 51
191.7939289657056
  0
ARC
  5
331
330
1F
100
AcDbEntity
  8
TEXT
100
AcDbCircle
 10
-342.2722677384832
 20
-152.3281274314698
 30
0.0
 40
0.0353661901713158
100
AcDbArc
 50
15.17145974978884
 51
87.54918714297627
  0
ARC
  5
332
330
1F
100
AcDbEntity
  8
TEXT
100
AcDbCircle
 10
-339.0793430096254
 20
-152.4266163150628
 30
0.0
 40
3.160628174278595
100
AcDbArc
 50
178.0464319449978
 51
181.7502526685598
  0
LINE
  5
333
330
1F
100
AcDbEntity
  8
TEXT
100
AcDbLine
 10
-342.2046397908037
 20
-152.366724157763
 30
0.0
 11
-342.2059074366745
 21
-152.5193650384564
 31
0.0
  0
ARC
  5
334
330
1F
100
AcDbEntity
  8
TEXT
100
AcDbCircle
 10
-342.1993487567324
 20
-152.365592538851
 30
0.0
 40
0.0054106933848193
100
AcDbArc
 50
333.6879001367203
 51
192.0722457553379
  0
LINE
  5
335
330
1F
100
AcDbEntity
  8
TEXT
100
AcDbLine
 10
-342.1944986499146
 20
-152.3679908855231
 30
0.0
 11
-342.1944986499146
 21
-152.3907920161384
 31
0.0
  0
ARC
  5
336
330
1F
100
AcDbEntity
  8
TEXT
100
AcDbCircle
 10
-342.1873308556433
 20
-152.3891389541656
 30
0.0
 40
0.0073559424006224
100
AcDbArc
 50
192.9866902548921
 51
33.3806313974108
  0
ARC
  5
337
330
1F
100
AcDbEntity
  8
TEXT
100
AcDbCircle
 10
-342.168147750299
 20
-152.3936216717047
 30
0.0
 40
0.0155826305602638
100
AcDbArc
 50
17.66955929970819
 51
146.8111142491876
  0
ARC
  5
338
330
1F
100
AcDbEntity
  8
TEXT
100
AcDbCircle
 10
-342.1193287041281
 20
-152.369765379416
 30
0.0
 40
0.0389857867394515
100
AcDbArc
 50
209.3802246625986
 51
263.8421008682745
  0
LINE
  5
339
330
1F
100
AcDbEntity
  8
TEXT
100
AcDbLine
 10
-342.1235106636909
 20
-152.4085262202468
 30
0.0
 11
-342.1197077521568
 21
-152.4617288635045
 31
0.0
  0
ARC
  5
33A
330
1F
100
AcDbEntity
  8
TEXT
100
AcDbCircle
 10
-342.103670906065
 20
-152.4639696512013
 30
0.0
 40
0.0161926391326401
100
AcDbArc
 50
172.0457056516397
 51
14.81661014794183
  0
LINE
  5
33B
330
1F
100
AcDbEntity
  8
TEXT
100
AcDbLine
 10
-342.0880166836186
 20
-152.4598287718644
 30
0.0
 11
-342.0854813918767
 21
-152.4376610051291
 31
0.0
  0
ARC
  5
33C
330
1F
100
AcDbEntity
  8
TEXT
100
AcDbCircle
 10
-342.0797056212577
 20
-152.4369861444893
 30
0.0
 40
0.0058150634670569
100
AcDbArc
 50
318.6510821797588
 51
186.6644145786489
  0
LINE
  5
33D
330
1F
100
AcDbEntity
  8
TEXT
100
AcDbLine
 10
-342.0753402509876
 20
-152.4408278245295
 30
0.0
 11
-342.072171162389
 21
-152.4699625939455
 31
0.0
  0
ARC
  5
33E
330
1F
100
AcDbEntity
  8
TEXT
100
AcDbCircle
 10
-342.0613209500236
 20
-152.4722062105374
 30
0.0
 40
0.0110797528757836
100
AcDbArc
 50
168.3169857564316
 51
15.0499521145162
  0
LINE
  5
33F
330
1F
100
AcDbEntity
  8
TEXT
100
AcDbLine
 10
-342.0506212347399
 20
-152.4693292300654
 30
0.0
 11
-342.0506212347399
 21
-152.44526137169
 31
0.0
  0
ARC
  5
340
330
1F
100
AcDbEntity
  8
TEXT
100
AcDbCircle
 10
-342.0361852940968
 20
-152.4577878848045
 30
0.0
 40
0.0191130822490872
100
AcDbArc
 50
65.19241843010752
 51
139.0508106988795
  0
ARC
  5
341
330
1F
100
AcDbEntity
  8
TEXT
100
AcDbCircle
 10
-342.0238698823276
 20
-152.458985853541
 30
0.0
 40
0.0190383821988919
100
AcDbArc
 50
7.606980527162049
 51
103.0413594591622
  0
LINE
  5
342
330
1F
100
AcDbEntity
  8
TEXT
100
AcDbLine
 10
-342.0049990489404
 20
-152.4564656067225
 30
0.0
 11
-341.9969797440322
 21
-152.5668744439982
 31
0.0
  0
LINE
  5
343
330
1F
100
AcDbEntity
  8
TEXT
100
AcDbLine
 10
-341.9622293532193
 20
-152.563312876086
 30
0.0
 11
-341.9595562341974
 21
-152.4760542766391
 31
0.0
  0
ARC
  5
344
330
1F
100
AcDbEntity
  8
TEXT
100
AcDbCircle
 10
-341.9499089559327
 20
-152.4734252936362
 30
0.0
 40
0.0099990764344
100
AcDbArc
 50
5.351678383090853
 51
195.24354880264
  0
LINE
  5
345
330
1F
100
AcDbEntity
  8
TEXT
100
AcDbLine
 10
-341.9132223797803
 20
-152.4894101795097
 30
0.0
 11
-341.9114403004321
 21
-152.5446146058806
 31
0.0
  0
ARC
  5
346
330
1F
100
AcDbEntity
  8
TEXT
100
AcDbCircle
 10
-341.8628073419795
 20
-152.5018756981353
 30
0.0
 40
0.0093269579312538
100
AcDbArc
 50
354.5219056877808
 51
214.944854376383
  0
ARC
  5
347
330
1F
100
AcDbEntity
  8
TEXT
100
AcDbCircle
 10
-341.8369985249953
 20
-152.5034044344179
 30
0.0
 40
0.0165367822276326
100
AcDbArc
 50
177.787775166229
 51
326.380582641936
  0
ARC
  5
348
330
1F
100
AcDbEntity
  8
TEXT
100
AcDbCircle
 10
-341.6661362640012
 20
-152.4836770193631
 30
0.0
 40
0.0090446670445143
100
AcDbArc
 50
144.5711585108376
 51
21.75301147886977
  0
LINE
  5
349
330
1F
100
AcDbEntity
  8
TEXT
100
AcDbLine
 10
-341.6577356670184
 20
-152.480325009178
 30
0.0
 11
-341.6571048431627
 21
-152.4324170967932
 31
0.0
  0
ARC
  5
34A
330
1F
100
AcDbEntity
  8
TEXT
100
AcDbCircle
 10
-341.6661156631296
 20
-152.4378809087145
 30
0.0
 40
0.0105379370460883
100
AcDbArc
 50
31.23099864076698
 51
160.1819529381847
  0
ARC
  5
34B
330
1F
100
AcDbEntity
  8
TEXT
100
AcDbCircle
 10
-341.6314376005557
 20
-152.4538932389858
 30
0.0
 40
0.0487032855846518
100
AcDbArc
 50
156.288597549796
 51
210.2571046136435
  0
ARC
  5
34C
330
1F
100
AcDbEntity
  8
TEXT
100
AcDbCircle
 10
-341.4936442606689
 20
-152.5308986798167
 30
0.0
 40
0.0300701126135258
100
AcDbArc
 50
341.5477100758352
 51
84.99888070834156
  0
ARC
  5
34D
330
1F
100
AcDbEntity
  8
TEXT
100
AcDbCircle
 10
-341.4805524067221
 20
-152.5657946028566
 30
0.0
 40
0.0656913671942501
100
AcDbArc
 50
99.17143729878524
 51
127.795528329094
  0
ARC
  5
34E
330
1F
100
AcDbEntity
  8
TEXT
100
AcDbCircle
 10
-341.6080009246067
 20
-152.5072468839602
 30
0.0
 40
0.0072833212418134
100
AcDbArc
 50
312.7998628402736
 51
120.058186453337
  0
ARC
  5
34F
330
1F
100
AcDbEntity
  8
TEXT
100
AcDbCircle
 10
-341.607327852177
 20
-152.4849425893481
 30
0.0
 40
0.0165736773362276
100
AcDbArc
 50
129.1527393458019
 51
254.8870408388506
  0
ARC
  5
350
330
1F
100
AcDbEntity
  8
TEXT
100
AcDbCircle
 10
-341.6705893180828
 20
-152.4318562262974
 30
0.0
 40
0.0663799911478199
100
AcDbArc
 50
322.6907301981539
 51
8.220255073940986
  0
ARC
  5
351
330
1F
100
AcDbEntity
  8
TEXT
100
AcDbCircle
 10
-341.5988849697987
 20
-152.4165824565799
 30
0.0
 40
0.0083377203270588
100
AcDbArc
 50
89.05883162362073
 51
223.9137905963003
  0
ARC
  5
352
330
1F
100
AcDbEntity
  8
TEXT
100
AcDbCircle
 10
-341.7654156175852
 20
-152.2205709263963
 30
0.0
 40
0.2509979489351848
100
AcDbArc
 50
311.6071689301099
 51
318.3515702307968
  0
ARC
  5
353
330
1F
100
AcDbEntity
  8
TEXT
100
AcDbCircle
 10
-341.5998501346304
 20
-152.411929188127
 30
0.0
 40
0.0637668312167232
100
AcDbArc
 50
337.3510782224612
 51
22.64892177753878
  0
ARC
  5
354
330
1F
100
AcDbEntity
  8
TEXT
100
AcDbCircle
 10
-341.4957304741339
 20
-152.4449008729436
 30
0.0
 40
0.0460460836471324
100
AcDbArc
 50
169.4684867573188
 51
223.1418439421423
  0
ARC
  5
355
330
1F
100
AcDbEntity
  8
TEXT
100
AcDbCircle
 10
-341.5354192038547
 20
-152.4499457009618
 30
0.0
 40
0.0271341882191743
100
AcDbArc
 50
282.9712622283036
 51
25.35441378639515
  0
ARC
  5
356
330
1F
100
AcDbEntity
  8
TEXT
100
AcDbCircle
 10
-341.2264963553992
 20
-152.3851579502369
 30
0.0
 40
0.2893295131371159
100
AcDbArc
 50
179.4662202071271
 51
190.5890997840382
  0
ARC
  5
357
330
1F
100
AcDbEntity
  8
TEXT
100
AcDbCircle
 10
-341.7279427610148
 20
-152.1301804264959
 30
0.0
 40
0.2921733560609443
100
AcDbArc
 50
317.9732863042378
 51
40.61894937560235
  0
ARC
  5
358
330
1F
100
AcDbEntity
  8
TEXT
100
AcDbCircle
 10
-341.5340716591002
 20
-151.9744412072258
 30
0.0
 40
0.0443516632740007
100
AcDbArc
 50
51.01090143870909
 51
107.577946053111
  0
ARC
  5
359
330
1F
100
AcDbEntity
  8
TEXT
100
AcDbCircle
 10
-341.6101701569171
 20
-151.9286318428271
 30
0.0
 40
0.0628033698317426
100
AcDbArc
 50
356.7791343814141
 51
50.82801334298927
  0
ARC
  5
35A
330
1F
100
AcDbEntity
  8
TEXT
100
AcDbCircle
 10
-341.5943977337717
 20
-151.9989617417072
 30
0.0
 40
0.1213938581589665
100
AcDbArc
 50
78.6467194011529
 51
92.8865786316482
  0
ARC
  5
35B
330
1F
100
AcDbEntity
  8
TEXT
100
AcDbCircle
 10
-341.6080951951518
 20
-151.8626943759526
 30
0.0
 40
0.0168329057250599
100
AcDbArc
 50
296.7794474250815
 51
150.4674482996605
  0
ARC
  5
35C
330
1F
100
AcDbEntity
  8
TEXT
100
AcDbCircle
 10
-341.6350738366213
 20
-151.838647936178
 30
0.0
 40
0.0200033413087927
100
AcDbArc
 50
174.1982733486935
 51
308.0634596483612
  0
ARC
  5
35D
330
1F
100
AcDbEntity
  8
TEXT
100
AcDbCircle
 10
-341.6921196178594
 20
-151.8692275135241
 30
0.0
 40
0.0494227766538583
100
AcDbArc
 50
41.27304036069129
 51
94.61991284103847
  0
ARC
  5
35E
330
1F
100
AcDbEntity
  8
TEXT
100
AcDbCircle
 10
-341.7119082361833
 20
-151.8246141462669
 30
0.0
 40
0.0164772438173263
100
AcDbArc
 50
136.6395135700794
 51
16.38775991618466
  0
ARC
  5
35F
330
1F
100
AcDbEntity
  8
TEXT
100
AcDbCircle
 10
-341.7373184087914
 20
-151.8280180801724
 30
0.0
 40
0.019923999934833
100
AcDbArc
 50
47.61705801860774
 51
152.6179806586006
  0
ARC
  5
360
330
1F
100
AcDbEntity
  8
TEXT
100
AcDbCircle
 10
-341.7782813872098
 20
-151.8295866248283
 30
0.0
 40
0.0256267055491746
100
AcDbArc
 50
24.75773987532673
 51
121.5483884163395
  0
ARC
  5
361
330
1F
100
AcDbEntity
  8
TEXT
100
AcDbCircle
 10
-341.8111410807581
 20
-151.8151725585816
 30
0.0
 40
0.0208202889485251
100
AcDbArc
 50
20.89289471578113
 51
159.1071052842188
  0
ARC
  5
362
330
1F
100
AcDbEntity
  8
TEXT
100
AcDbCircle
 10
-341.8409645281121
 20
-151.8048574670945
 30
0.0
 40
0.0107672478568685
100
AcDbArc
 50
183.5606974541693
 51
344.4298925613469
  0
ARC
  5
363
330
1F
100
AcDbEntity
  8
TEXT
100
AcDbCircle
 10
-341.8740000407002
 20
-151.8289615882339
 30
0.0
 40
0.0323422366599906
100
AcDbArc
 50
46.43616582623978
 51
130.6283095026658
  0
ARC
  5
364
330
1F
100
AcDbEntity
  8
TEXT
100
AcDbCircle
 10
-341.9067304541004
 20
-151.8079000719696
 30
0.0
 40
0.0121798952203543
100
AcDbArc
 50
163.3756550464656
 51
16.62434495353019
  0
ARC
  5
365
330
1F
100
AcDbEntity
  8
TEXT
100
AcDbCircle
 10
-341.9527634800043
 20
-151.8991060483214
 30
0.0
 40
0.1007326717255064
100
AcDbArc
 50
70.05468846035606
 51
100.2232656721042
  0
ARC
  5
366
330
1F
100
AcDbEntity
  8
TEXT
100
AcDbCircle
 10
-341.9789782364297
 20
-151.8537292469755
 30
0.0
 40
0.0543991327960405
100
AcDbArc
 50
81.18509483549694
 51
120.0392913824101
  0
ARC
  5
367
330
1F
100
AcDbEntity
  8
TEXT
100
AcDbCircle
 10
-342.019442519482
 20
-151.7948399259958
 30
0.0
 40
0.0177275194936825
100
AcDbArc
 50
318.2823815987274
 51
84.36248438139953
  0
ARC
  5
368
330
1F
100
AcDbEntity
  8
TEXT
100
AcDbCircle
 10
-342.0992022367315
 20
-151.8736537013893
 30
0.0
 40
0.0254942521042418
100
AcDbArc
 50
35.60679995345886
 51
177.5845513854531
  0
LINE
  5
369
330
1F
100
AcDbEntity
  8
TEXT
100
AcDbLine
 10
-342.0784746024174
 20
-151.8588104515396
 30
0.0
 11
-342.0800956181359
 21
-151.8822983978571
 31
0.0
  0
LINE
  5
36A
330
1F
100
AcDbEntity
  8
TEXT
100
AcDbLine
 10
-342.124673837266
 20
-151.8725792449901
 30
0.0
 11
-342.1254843451255
 21
-151.9333239310757
 31
0.0
  0
ARC
  5
36B
330
1F
100
AcDbEntity
  8
TEXT
100
AcDbCircle
 10
-342.0226121844854
 20
-151.9791316958883
 30
0.0
 40
0.1126100916963402
100
AcDbArc
 50
120.6947626763563
 51
155.9971516553444
  0
ARC
  5
36C
330
1F
100
AcDbEntity
  8
TEXT
100
AcDbCircle
 10
-342.0640440089623
 20
-151.9479062644166
 30
0.0
 40
0.0209517503337112
100
AcDbArc
 50
218.6904014524236
 51
353.6659411500762
  0
ARC
  5
36D
330
1F
100
AcDbEntity
  8
TEXT
100
AcDbCircle
 10
-342.0756193094972
 20
-151.980601314839
 30
0.0
 40
0.020171963693018
100
AcDbArc
 50
103.7022990326948
 51
207.0193065629252
  0
ARC
  5
36E
330
1F
100
AcDbEntity
  8
TEXT
100
AcDbCircle
 10
-341.7762821078522
 20
-152.1477099431048
 30
0.0
 40
0.3544440067106097
100
AcDbArc
 50
153.5374647244112
 51
193.3327646348703
  0
ARC
  5
36F
330
1F
100
AcDbEntity
  8
TEXT
100
AcDbCircle
 10
-342.1895440701793
 20
-152.275585661294
 30
0.0
 40
0.0824827685733273
100
AcDbArc
 50
346.9852122362368
 51
34.01252680042808
  0
ARC
  5
370
330
1F
100
AcDbEntity
  8
TEXT
100
AcDbCircle
 10
-342.1205670680468
 20
-152.3301920141769
 30
0.0
 40
0.0377875286239628
100
AcDbArc
 50
345.4259909574667
 51
72.46181126870036
  0
ARC
  5
371
330
1F
100
AcDbEntity
  8
TEXT
100
AcDbCircle
 10
-342.0812490654605
 20
-152.4112602216554
 30
0.0
 40
0.0716123991500209
100
AcDbArc
 50
18.24878221232194
 51
92.19784172829085
  0
ARC
  5
372
330
1F
100
AcDbEntity
  8
TEXT
100
AcDbCircle
 10
-342.004595409837
 20
-152.3926726283022
 30
0.0
 40
0.0094565292621038
100
AcDbArc
 50
156.0593073728625
 51
8.762281217120062
  0
ARC
  5
373
330
1F
100
AcDbEntity
  8
TEXT
100
AcDbCircle
 10
-341.9841933855793
 20
-152.3951668847885
 30
0.0
 40
0.0117351997935574
100
AcDbArc
 50
1.658272028068491
 51
160.4091839300748
  0
ARC
  5
374
330
1F
100
AcDbEntity
  8
TEXT
100
AcDbCircle
 10
-341.9400527383188
 20
-152.3723069948435
 30
0.0
 40
0.0394663806242486
100
AcDbArc
 50
214.7934494581964
 51
299.0409507876108
  0
ARC
  5
375
330
1F
100
AcDbEntity
  8
TEXT
100
AcDbCircle
 10
-341.8956726847737
 20
-152.3832665978822
 30
0.0
 40
0.0345034994608953
100
AcDbArc
 50
223.0305625061282
 51
311.2487591160725
  0
ARC
  5
376
330
1F
100
AcDbEntity
  8
TEXT
100
AcDbCircle
 10
-341.8533565721131
 20
-152.404018427691
 30
0.0
 40
0.0202434850951048
100
AcDbArc
 50
194.854618224045
 51
330.4510994340791
  0
ARC
  5
377
330
1F
100
AcDbEntity
  8
TEXT
100
AcDbCircle
 10
-341.8213547863412
 20
-152.462345554376
 30
0.0
 40
0.0504403035036899
100
AcDbArc
 50
33.67851647490058
 51
106.5775508010122
  0
ARC
  5
378
330
1F
100
AcDbEntity
  8
TEXT
100
AcDbCircle
 10
-341.7649890097006
 20
-152.4047858322752
 30
0.0
 40
0.0329030971158398
100
AcDbArc
 50
244.0629515517946
 51
24.32612031264369
  0
ARC
  5
379
330
1F
100
AcDbEntity
  8
TEXT
100
AcDbCircle
 10
-341.6887305510375
 20
-152.2216773610205
 30
0.0
 40
0.0856504748170368
100
AcDbArc
 50
300.6537348898137
 51
16.68245916375939
  0
ARC
  5
37A
330
1F
100
AcDbEntity
  8
TEXT
100
AcDbCircle
 10
-341.854646277825
 20
-152.1301451048069
 30
0.0
 40
0.2568391883961405
100
AcDbArc
 50
344.8914411173261
 51
24.57723374822052
  0
ARC
  5
37B
330
1F
100
AcDbEntity
  8
TEXT
100
AcDbCircle
 10
-341.5699548121772
 20
-151.99749091941
 30
0.0
 40
0.0572764194780507
100
AcDbArc
 50
155.990632901348
 51
206.8057304576943
  0
ARC
  5
37C
330
1F
100
AcDbEntity
  8
TEXT
100
AcDbCircle
 10
-341.6307739065254
 20
-151.9746601413995
 30
0.0
 40
0.0085115103283491
100
AcDbArc
 50
3.193725348484569
 51
193.0548754998599
  0
ARC
  5
37D
330
1F
100
AcDbEntity
  8
TEXT
100
AcDbCircle
 10
-341.6504585170271
 20
-151.9894506205135
 30
0.0
 40
0.0171867493656786
100
AcDbArc
 50
131.5213803610228
 51
48.47861963898633
  0
ARC
  5
37E
330
1F
100
AcDbEntity
  8
TEXT
100
AcDbCircle
 10
-341.7074181254349
 20
-151.9522359069995
 30
0.0
 40
0.0516631101119713
100
AcDbArc
 50
331.8837666959812
 51
33.32508059324512
  0
ARC
  5
37F
330
1F
100
AcDbEntity
  8
TEXT
100
AcDbCircle
 10
-341.6757444371374
 20
-151.9270328104465
 30
0.0
 40
0.0119260847182272
100
AcDbArc
 50
15.46471151433622
 51
237.0036058083551
  0
ARC
  5
380
330
1F
100
AcDbEntity
  8
TEXT
100
AcDbCircle
 10
-341.6984647161191
 20
-151.9445709038087
 30
0.0
 40
0.0178900098840057
100
AcDbArc
 50
124.5991194751618
 51
24.91162951380403
  0
ARC
  5
381
330
1F
100
AcDbEntity
  8
TEXT
100
AcDbCircle
 10
-341.7496300319272
 20
-151.9111420137696
 30
0.0
 40
0.0450705442028974
100
AcDbArc
 50
335.4827230531633
 51
36.54383594003244
  0
ARC
  5
382
330
1F
100
AcDbEntity
  8
TEXT
100
AcDbCircle
 10
-341.8067746926931
 20
-152.051504582758
 30
0.0
 40
0.1914957959123389
100
AcDbArc
 50
60.82353397560614
 51
101.6183182656855
  0
LINE
  5
383
330
1F
100
AcDbEntity
  8
TEXT
100
AcDbLine
 10
-341.845340240688
 20
-151.8639323610407
 30
0.0
 11
-341.8465395075374
 21
-151.9094718906188
 31
0.0
  0
ARC
  5
384
330
1F
100
AcDbEntity
  8
TEXT
100
AcDbCircle
 10
-341.8642042162594
 20
-151.9103370378116
 30
0.0
 40
0.0176858817674158
100
AcDbArc
 50
165.392244650368
 51
2.803879044206379
  0
LINE
  5
385
330
1F
100
AcDbEntity
  8
TEXT
100
AcDbLine
 10
-341.8813184026487
 20
-151.9058766523892
 30
0.0
 11
-341.8837169363479
 21
-151.8711228220335
 31
0.0
  0
ARC
  5
386
330
1F
100
AcDbEntity
  8
TEXT
100
AcDbCircle
 10
-341.8992430963195
 20
-151.8789009338687
 30
0.0
 40
0.0173655022151764
100
AcDbArc
 50
26.60941129939663
 51
166.0619000058105
  0
LINE
  5
387
330
1F
100
AcDbEntity
  8
TEXT
100
AcDbLine
 10
-341.91609729776
 20
-151.8747180447968
 30
0.0
 11
-341.91609729776
 21
-151.890297348593
 31
0.0
  0
ARC
  5
388
330
1F
100
AcDbEntity
  8
TEXT
100
AcDbCircle
 10
-341.9298445434324
 20
-151.8989366045029
 30
0.0
 40
0.0162364868814825
100
AcDbArc
 50
179.1163546128549
 51
32.1467084386587
  0
LINE
  5
389
330
1F
100
AcDbEntity
  8
TEXT
100
AcDbLine
 10
-341.9460790993941
 20
-151.8986862068627
 30
0.0
 11
-341.9460790993941
 21
-151.9562098174739
 31
0.0
  0
ARC
  5
38A
330
1F
100
AcDbEntity
  8
TEXT
100
AcDbCircle
 10
-341.9676749366224
 20
-151.9564868454066
 30
0.0
 40
0.0215976139899841
100
AcDbArc
 50
182.4450201076249
 51
0.7349407504797699
  0
LINE
  5
38B
330
1F
100
AcDbEntity
  8
TEXT
100
AcDbLine
 10
-341.9892528885315
 20
-151.9574082147507
 30
0.0
 11
-341.9796587276559
 21
-151.8855037130866
 31
0.0
  0
ARC
  5
38C
330
1F
100
AcDbEntity
  8
TEXT
100
AcDbCircle
 10
-341.9908408097678
 20
-151.8870996678157
 30
0.0
 40
0.0112953987026185
100
AcDbArc
 50
8.122642540875142
 51
202.9043136183461
  0
LINE
  5
38D
330
1F
100
AcDbEntity
  8
TEXT
100
AcDbLine
 10
-342.0012456352639
 20
-151.8914957613362
 30
0.0
 11
-342.0060427026623
 21
-151.9286464171783
 31
0.0
  0
ARC
  5
38E
330
1F
100
AcDbEntity
  8
TEXT
100
AcDbCircle
 10
-342.0198343366297
 20
-151.9279176817532
 30
0.0
 40
0.0138108733544406
100
AcDbArc
 50
183.0246359049376
 51
356.9753640950624
  0
LINE
  5
38F
330
1F
100
AcDbEntity
  8
TEXT
100
AcDbLine
 10
-342.0336259705972
 20
-151.9286464171783
 30
0.0
 11
-342.043220157552
 21
-151.9502177692242
 31
0.0
  0
LINE
  5
390
330
1F
100
AcDbEntity
  8
TEXT
100
AcDbLine
 10
-341.3947641114633
 20
-152.1741741143575
 30
0.0
 11
-341.2935011961453
 21
-152.1702213861343
 31
0.0
  0
LINE
  5
391
330
1F
100
AcDbEntity
  8
TEXT
100
AcDbLine
 10
-341.2167629045405
 20
-152.1741741143575
 30
0.0
 11
-341.1154999892227
 21
-152.1702213861343
 31
0.0
  0
LINE
  5
392
330
1F
100
AcDbEntity
  8
TEXT
100
AcDbLine
 10
-341.3536260716746
 20
-152.2057959865417
 30
0.0
 11
-341.3520438353629
 21
-152.3591620550354
 31
0.0
  0
LINE
  5
393
330
1F
100
AcDbEntity
  8
TEXT
100
AcDbLine
 10
-341.2935011961453
 20
-152.1702213861343
 30
0.0
 11
-341.2919189598337
 21
-152.3441416754144
 31
0.0
  0
LINE
  5
394
330
1F
100
AcDbEntity
  8
TEXT
100
AcDbLine
 10
-341.1154999892227
 20
-152.1702213861343
 30
0.0
 11
-341.113917752911
 21
-152.3496755011134
 31
0.0
  0
ARC
  5
395
330
1F
100
AcDbEntity
  8
TEXT
100
AcDbCircle
 10
-341.37213173657
 20
-152.2053703986675
 30
0.0
 40
0.0185105580212536
100
AcDbArc
 50
358.6825606331185
 51
106.4049357729542
  0
LINE
  5
396
330
1F
100
AcDbEntity
  8
TEXT
100
AcDbLine
 10
-341.3947641114633
 20
-152.1741741143575
 30
0.0
 11
-341.3939730063469
 21
-152.1852417812218
 31
0.0
  0
LINE
  5
397
330
1F
100
AcDbEntity
  8
TEXT
100
AcDbLine
 10
-341.3773595641923
 20
-152.1876134119691
 30
0.0
 11
-341.3939730063469
 21
-152.1852417812218
 31
0.0
  0
LINE
  5
398
330
1F
100
AcDbEntity
  8
TEXT
100
AcDbLine
 10
-341.2167629045405
 20
-152.1741741143575
 30
0.0
 11
-341.217554009657
 21
-152.1891945094449
 31
0.0
  0
LINE
  5
399
330
1F
100
AcDbEntity
  8
TEXT
100
AcDbLine
 10
-341.217554009657
 20
-152.1891945094449
 30
0.0
 11
-341.189073808204
 21
-152.1907756069207
 31
0.0
  0
LINE
  5
39A
330
1F
100
AcDbEntity
  8
TEXT
100
AcDbLine
 10
-341.1716692609331
 20
-152.3575809575597
 30
0.0
 11
-341.1724603660495
 21
-152.2065865352796
 31
0.0
  0
ARC
  5
39B
330
1F
100
AcDbEntity
  8
TEXT
100
AcDbCircle
 10
-341.1837663849878
 20
-152.2018326040391
 30
0.0
 40
0.0122648247632313
100
AcDbArc
 50
337.1943218370273
 51
115.6412778855142
  0
ARC
  5
39C
330
1F
100
AcDbEntity
  8
TEXT
100
AcDbCircle
 10
-341.291161371075
 20
-152.3583558112297
 30
0.0
 40
0.0608878024473341
100
AcDbArc
 50
180.7587023263156
 51
270.031539090741
  0
ARC
  5
39D
330
1F
100
AcDbEntity
  8
TEXT
100
AcDbCircle
 10
-341.2670994337684
 20
-152.281573680461
 30
0.0
 40
0.139751110854478
100
AcDbArc
 50
260.0995263030863
 51
313.0673878832468
  0
LINE
  5
39E
330
1F
100
AcDbEntity
  8
TEXT
100
AcDbLine
 10
-341.1716692609331
 20
-152.383669004045
 30
0.0
 11
-341.1708781297379
 21
-152.4137097787533
 31
0.0
  0
ARC
  5
39F
330
1F
100
AcDbEntity
  8
TEXT
100
AcDbCircle
 10
-341.1615232878392
 20
-152.4099869210192
 30
0.0
 40
0.0100684028850535
100
AcDbArc
 50
201.7006027724343
 51
343.0678677067634
  0
ARC
  5
3A0
330
1F
100
AcDbEntity
  8
TEXT
100
AcDbCircle
 10
-341.0742670138079
 20
-152.5943345202963
 30
0.0
 40
0.1973247184719365
100
AcDbArc
 50
88.18956599987521
 51
113.1652090520224
  0
LINE
  5
3A1
330
1F
100
AcDbEntity
  8
TEXT
100
AcDbLine
 10
-341.0175798222683
 20
-152.0826870210656
 30
0.0
 11
-341.0117043639793
 21
-152.3871518325977
 31
0.0
  0
LINE
  5
3A2
330
1F
100
AcDbEntity
  8
TEXT
100
AcDbLine
 10
-340.9537985872129
 20
-152.0415792344989
 30
0.0
 11
-340.9521104559849
 21
-152.1934014895502
 31
0.0
  0
ARC
  5
3A3
330
1F
100
AcDbEntity
  8
TEXT
100
AcDbCircle
 10
-341.0779738412928
 20
-151.682492092742
 30
0.0
 40
0.3799514036042447
100
AcDbArc
 50
273.5403564160214
 51
289.0758016785421
  0
LINE
  5
3A4
330
1F
100
AcDbEntity
  8
TEXT
100
AcDbLine
 10
-341.0545112482913
 20
-152.0617183785272
 30
0.0
 11
-341.0528325459229
 21
-152.0801707796304
 31
0.0
  0
LINE
  5
3A5
330
1F
100
AcDbEntity
  8
TEXT
100
AcDbLine
 10
-341.0528325459229
 20
-152.0801707796304
 30
0.0
 11
-341.0175798222683
 21
-152.0826870210656
 31
0.0
  0
LINE
  5
3A6
330
1F
100
AcDbEntity
  8
TEXT
100
AcDbLine
 10
-340.9512711308798
 20
-152.2244350978293
 30
0.0
 11
-340.9504317796956
 21
-152.3686994160281
 31
0.0
  0
ARC
  5
3A7
330
1F
100
AcDbEntity
  8
TEXT
100
AcDbCircle
 10
-340.8532918735569
 20
-152.3240040242638
 30
0.0
 40
0.1637746448834882
100
AcDbArc
 50
71.0798858476198
 51
127.1124618564865
  0
ARC
  5
3A8
330
1F
100
AcDbEntity
  8
TEXT
100
AcDbCircle
 10
-340.8531714231281
 20
-152.2703065984125
 30
0.0
 40
0.1142562801072371
100
AcDbArc
 50
359.8698564192901
 51
62.37231490188349
  0
ARC
  5
3A9
330
1F
100
AcDbEntity
  8
TEXT
100
AcDbCircle
 10
-340.8994410196346
 20
-152.2583944148129
 30
0.0
 40
0.0619644708011938
100
AcDbArc
 50
78.87075864991584
 51
146.7670066549806
  0
ARC
  5
3AA
330
1F
100
AcDbEntity
  8
TEXT
100
AcDbCircle
 10
-340.8807104855873
 20
-152.2694287864323
 30
0.0
 40
0.0721518704931053
100
AcDbArc
 50
21.58325850317301
 51
95.38396011116695
  0
ARC
  5
3AB
330
1F
100
AcDbEntity
  8
TEXT
100
AcDbCircle
 10
-340.8863664498493
 20
-152.2940890518688
 30
0.0
 40
0.088960611637759
100
AcDbArc
 50
343.5952529167622
 51
35.13836089167873
  0
ARC
  5
3AC
330
1F
100
AcDbEntity
  8
TEXT
100
AcDbCircle
 10
-340.9151006890983
 20
-152.2648585843615
 30
0.0
 40
0.1558457845586532
100
AcDbArc
 50
231.6935697703411
 51
269.6626044169122
  0
ARC
  5
3AD
330
1F
100
AcDbEntity
  8
TEXT
100
AcDbCircle
 10
-340.8989442033235
 20
-152.2378112795964
 30
0.0
 40
0.1836856613538935
100
AcDbArc
 50
264.6664639047648
 51
308.6423664458128
  0
ARC
  5
3AE
330
1F
100
AcDbEntity
  8
TEXT
100
AcDbCircle
 10
-340.8774918982118
 20
-152.2784698452882
 30
0.0
 40
0.138801672189514
100
AcDbArc
 50
312.2086974257856
 51
3.264333629957668
  0
ARC
  5
3AF
330
1F
100
AcDbEntity
  8
TEXT
100
AcDbCircle
 10
-342.223751742782
 20
-152.5079187307079
 30
0.0
 40
0.0211999344698838
100
AcDbArc
 50
225.9317407160003
 51
327.3216812937225
  0
ARC
  5
3B0
330
1F
100
AcDbEntity
  8
TEXT
100
AcDbCircle
 10
-341.9790213392382
 20
-152.570784062316
 30
0.0
 40
0.0183790483469612
100
AcDbArc
 50
167.7181143692786
 51
23.98551077365519
  0
ARC
  5
3B1
330
1F
100
AcDbEntity
  8
TEXT
100
AcDbCircle
 10
-341.8894500265298
 20
-152.5482049014702
 30
0.0
 40
0.0222814355173959
100
AcDbArc
 50
170.7272794785989
 51
21.15794103948644
  0
LINE
  5
3B2
330
1F
100
AcDbEntity
  8
TEXT
100
AcDbLine
 10
-341.8686706047108
 20
-152.5401626382572
 30
0.0
 11
-341.870452684059
 21
-152.50721806547
 31
0.0
  0
LINE
  5
3B3
330
1F
100
AcDbEntity
  8
TEXT
100
AcDbLine
 10
-341.8232277899677
 20
-152.5125604173385
 30
0.0
 11
-341.8143174193064
 21
-152.5588609084625
 31
0.0
  0
ARC
  5
3B4
330
1F
100
AcDbEntity
  8
TEXT
100
AcDbCircle
 10
-341.8033682831032
 20
-152.5610532896007
 30
0.0
 40
0.0111664729730421
100
AcDbArc
 50
168.6772178130463
 51
20.84321825743645
  0
LINE
  5
3B5
330
1F
100
AcDbEntity
  8
TEXT
100
AcDbLine
 10
-341.7929325714459
 20
-152.5570801245063
 30
0.0
 11
-341.7929325714459
 21
-152.5259163356754
 31
0.0
  0
ARC
  5
3B6
330
1F
100
AcDbEntity
  8
TEXT
100
AcDbCircle
 10
-341.7786824705549
 20
-152.5273209766089
 30
0.0
 40
0.0143191616917265
100
AcDbArc
 50
354.9255052590734
 51
174.3705062402905
  0
LINE
  5
3B7
330
1F
100
AcDbEntity
  8
TEXT
100
AcDbLine
 10
-341.7644194322722
 20
-152.5285875193428
 30
0.0
 11
-341.760855299655
 21
-152.6158461187896
 31
0.0
  0
ARC
  5
3B8
330
1F
100
AcDbEntity
  8
TEXT
100
AcDbCircle
 10
-341.7430713601593
 20
-152.6140198305399
 30
0.0
 40
0.0178774671797511
100
AcDbArc
 50
185.8633287467241
 51
2.70882780951028
  0
LINE
  5
3B9
330
1F
100
AcDbEntity
  8
TEXT
100
AcDbLine
 10
-341.725213869168
 20
-152.6131749351222
 30
0.0
 11
-341.7323421344026
 21
-152.541053022502
 31
0.0
  0
LINE
  5
3BA
330
1F
100
AcDbEntity
  8
TEXT
100
AcDbLine
 10
-341.7323421344026
 20
-152.541053022502
 30
0.0
 11
-341.7243228294943
 21
-152.5597512927073
 31
0.0
  0
ARC
  5
3BB
330
1F
100
AcDbEntity
  8
TEXT
100
AcDbCircle
 10
-341.7125969896432
 20
-152.55332976878
 30
0.0
 40
0.0133690422155094
100
AcDbArc
 50
208.706819647663
 51
351.5282258973498
  0
LINE
  5
3BC
330
1F
100
AcDbEntity
  8
TEXT
100
AcDbLine
 10
-341.6993738229375
 20
-152.5552993250838
 30
0.0
 11
-341.7002648626114
 21
-152.5419434222133
 31
0.0
  0
ARC
  5
3BD
330
1F
100
AcDbEntity
  8
TEXT
100
AcDbCircle
 10
-341.6822740985781
 20
-152.5470464965791
 30
0.0
 40
0.0187005069045984
100
AcDbArc
 50
7.472141028409524
 51
164.1640293291675
  0
LINE
  5
3BE
330
1F
100
AcDbEntity
  8
TEXT
100
AcDbLine
 10
-341.6637323924505
 20
-152.5446146058806
 30
0.0
 11
-341.6548220478683
 21
-152.6185172869906
 31
0.0
  0
ARC
  5
3BF
330
1F
100
AcDbEntity
  8
TEXT
100
AcDbCircle
 10
-341.6374359044573
 20
-152.6229678248294
 30
0.0
 40
0.0179467342367279
100
AcDbArc
 50
165.6416373020919
 51
23.37981978602108
  0
LINE
  5
3C0
330
1F
100
AcDbEntity
  8
TEXT
100
AcDbLine
 10
-341.6209626967295
 20
-152.6158461187896
 30
0.0
 11
-341.6236712831312
 21
-152.5496654164157
 31
0.0
  0
ARC
  5
3C1
330
1F
100
AcDbEntity
  8
TEXT
100
AcDbCircle
 10
-341.6185810157366
 20
-152.544174302081
 30
0.0
 40
0.0074875335580206
100
AcDbArc
 50
60.02231951668123
 51
227.1694577924197
  0
LINE
  5
3C2
330
1F
100
AcDbEntity
  8
TEXT
100
AcDbLine
 10
-341.6148397752313
 20
-152.5376884499193
 30
0.0
 11
-341.5842728400717
 21
-152.542357627436
 31
0.0
  0
ARC
  5
3C3
330
1F
100
AcDbEntity
  8
TEXT
100
AcDbCircle
 10
-341.5865943195937
 20
-152.5557122507249
 30
0.0
 40
0.0135548969144405
100
AcDbArc
 50
327.1504341221703
 51
80.13862259361699
  0
LINE
  5
3C4
330
1F
100
AcDbEntity
  8
TEXT
100
AcDbLine
 10
-341.5752068823617
 20
-152.5630649035556
 30
0.0
 11
-341.5706738904673
 21
-152.6918383702068
 31
0.0
  0
LINE
  5
3C5
330
1F
100
AcDbEntity
  8
TEXT
100
AcDbLine
 10
-341.5324673078343
 20
-152.6892499471588
 30
0.0
 11
-341.5318197412891
 21
-152.5585351864211
 31
0.0
  0
ARC
  5
3C6
330
1F
100
AcDbEntity
  8
TEXT
100
AcDbCircle
 10
-341.5216273921158
 20
-152.5576288772102
 30
0.0
 40
0.0102325645886126
100
AcDbArc
 50
32.94435831946172
 51
185.0814072168598
  0
ARC
  5
3C7
330
1F
100
AcDbEntity
  8
TEXT
100
AcDbCircle
 10
-341.4923518795695
 20
-152.5327802172337
 30
0.0
 40
0.0282821218467122
100
AcDbArc
 50
222.9877626572331
 51
344.3358851615581
  0
ARC
  5
3C8
330
1F
100
AcDbEntity
  8
TEXT
100
AcDbCircle
 10
-341.531661004677
 20
-152.5083657937797
 30
0.0
 40
0.0121730875667031
100
AcDbArc
 50
193.9319034609793
 51
333.0378283509304
  0
ARC
  5
3C9
330
1F
100
AcDbEntity
  8
TEXT
100
AcDbCircle
 10
-341.5539446329571
 20
-152.5232869615666
 30
0.0
 40
0.0159172569840616
100
AcDbArc
 50
48.87596376793556
 51
143.7953529790059
  0
ARC
  5
3CA
330
1F
100
AcDbEntity
  8
TEXT
100
AcDbCircle
 10
-341.5843716282099
 20
-152.49786118865
 30
0.0
 40
0.0237893523154895
100
AcDbArc
 50
218.2556843178653
 51
317.6564247238852
  0
ARC
  5
3CB
330
1F
100
AcDbEntity
  8
TEXT
100
AcDbCircle
 10
-341.5514195521709
 20
-152.6927736972113
 30
0.0
 40
0.0192770428186735
100
AcDbArc
 50
177.2189023070874
 51
10.53261226457849
  0
LINE
  5
3CC
330
1F
100
AcDbEntity
  8
DIMENSION
100
AcDbLine
 10
-347.2091729663578
 20
-153.3521427092911
 30
0.0
 11
-347.2091729663578
 21
-155.2832799076448
 31
0.0
  0
TEXT
  5
3CD
330
1F
100
AcDbEntity
  8
TEXT
100
AcDbText
 10
-376.9619881042423
 20
-155.1582799076448
 30
0.0
 40
0.25
  1
REVISIONS
 72
     1
 11
-375.9203214375756
 21
-155.0332799076448
 31
0.0
100
AcDbText
 73
     2
  0
LWPOLYLINE
  5
3CE
330
1F
100
AcDbEntity
  8
BORDER
100
AcDbPolyline
 90
        4
 70
     1
 43
0.0
 10
-382.2421964375759
 20
-92.78327990764472
 10
-334.7439181521281
 20
-92.78327990764472
 10
-334.7439181521281
 20
-155.2832799076448
 10
-382.2421964375759
 20
-155.2832799076448
  0
TEXT
  5
3CF
330
1F
100
AcDbEntity
  8
TEXT
100
AcDbText
 10
-351.3071486529609
 20
-155.0489049076448
 30
0.0
 40
0.15625
  1
ICE QUBE, INC.
 72
     1
 11
-350.3826694862941
 21
-154.9707799076448
 31
0.0
100
AcDbText
 73
     2
  0
TEXT
  5
3D0
330
1F
100
AcDbEntity
  8
TEXT
100
AcDbText
 10
-353.0389194862942
 20
-154.8145299076447
 30
0.0
 40
0.15625
  1
OR ALTERED WITHOUT AUTHORIZATION OF
 72
     1
 11
-350.3826694862941
 21
-154.7364049076447
 31
0.0
100
AcDbText
 73
     2
  0
TEXT
  5
3D1
330
1F
100
AcDbEntity
  8
TEXT
100
AcDbText
 10
-353.1561069862942
 20
-154.5801549076448
 30
0.0
 40
0.15625
  1
QUBE, INC. AND IS NOT TO BE DUPLICATED
 72
     1
 11
-350.3826694862941
 21
-154.5020299076448
 31
0.0
100
AcDbText
 73
     2
  0
TEXT
  5
3D2
330
1F
100
AcDbEntity
  8
TEXT
100
AcDbText
 10
-353.0128778196275
 20
-154.3457799076448
 30
0.0
 40
0.15625
  1
THIS DRAWING IS THE PROPERTY OF ICE
 72
     1
 11
-350.3826694862941
 21
-154.2676549076448
 31
0.0
100
AcDbText
 73
     2
  0
TEXT
  5
3D3
330
1F
100
AcDbEntity
  8
TEXT
100
AcDbText
 10
-353.2472528196275
 20
-154.0332799076448
 30
0.0
 40
0.3125
  1
PROPRIETARY DRAWING
 72
     1
 11
-350.3826694862941
 21
-153.8770299076448
 31
0.0
100
AcDbText
 73
     2
  0
LINE
  5
3D4
330
1F
100
AcDbEntity
  8
BORDER
100
AcDbLine
 10
-347.2091729663578
 20
-155.2832799076448
 30
0.0
 11
-353.5561660062305
 21
-155.2832799076448
 31
0.0
  0
LINE
  5
3D5
330
1F
100
AcDbEntity
  8
BORDER
100
AcDbLine
 10
-347.2091729663578
 20
-155.2832799076448
 30
0.0
 11
-347.2091729663578
 21
-153.5645299076447
 31
0.0
  0
LINE
  5
3D6
330
1F
100
AcDbEntity
  8
THERMOSTATCVR
100
AcDbLine
 10
-347.2091729663578
 20
-153.3521427092911
 30
0.0
 11
-353.4967982692631
 21
-153.3521427092911
 31
0.0
  0
LINE
  5
3D7
330
1F
100
AcDbEntity
  8
THERMOSTATCVR
100
AcDbLine
 10
-353.4967982692631
 20
-153.3521427092911
 30
0.0
 11
-353.4967982692631
 21
-155.2832799076448
 31
0.0
  0
TEXT
  5
40A
330
1F
100
AcDbEntity
  8
DIMENSION
100
AcDbText
 10
-362.8608676910753
 20
-95.57981789137873
 30
0.0
 40
1.0
  1
IQ4000VS
 72
     1
 11
-359.277534357742
 21
-95.57981789137873
 31
0.0
100
AcDbText
  0
TEXT
  5
40B
330
1F
100
AcDbEntity
  8
DIMENSION
100
AcDbText
 10
-364.027534357742
 20
-97.2464845580454
 30
0.0
 40
1.0
  1
480-400VAC
 72
     1
 11
-359.277534357742
 21
-97.2464845580454
 31
0.0
100
AcDbText
  0
TEXT
  5
423
330
1F
100
AcDbEntity
  8
TEXT
100
AcDbText
 10
-341.0644581249822
 20
-153.4175158088999
 30
0.0
 40
0.625
  1
IQ4000VS
 72
     1
 11
-338.8248747916488
 21
-153.1050158088999
 31
0.0
100
AcDbText
 73
     2
  0
TEXT
  5
424
330
1F
100
AcDbEntity
  8
TEXT
100
AcDbText
 10
-340.273420559243
 20
-153.8792608102948
 30
0.0
 40
0.3125
  1
480-400VAC
 72
     1
 11
-338.789045559243
 21
-153.7230108102948
 31
0.0
100
AcDbText
 73
     2
  0
TEXT
  5
581
330
1F
100
AcDbEntity
  8
DIMENSION
100
AcDbText
 10
-366.1108676910753
 20
-98.95282814048066
 30
0.0
 40
1.0
  1
CUTOUT DRAWING
 72
     1
 11
-359.277534357742
 21
-98.95282814048066
 31
0.0
100
AcDbText
  0
LINE
  5
7A7
330
1F
100
AcDbEntity
  8
Washer
100
AcDbLine
 10
-361.5975572948518
 20
-139.2662799076453
 30
0.0
 11
-363.877557294852
 21
-139.2662799076453
 31
0.0
  0
LINE
  5
7A8
330
1F
100
AcDbEntity
  8
Washer
100
AcDbLine
 10
-361.5975572948518
 20
-142.3912799076453
 30
0.0
 11
-361.5975572948518
 21
-139.2662799076453
 31
0.0
  0
LINE
  5
7A9
330
1F
100
AcDbEntity
  8
Washer
100
AcDbLine
 10
-361.5975572948518
 20
-142.3912799076453
 30
0.0
 11
-363.877557294852
 21
-142.3912799076453
 31
0.0
  0
LINE
  5
7AA
330
1F
100
AcDbEntity
  8
Washer
100
AcDbLine
 10
-363.877557294852
 20
-142.3912799076453
 30
0.0
 11
-363.877557294852
 21
-139.2662799076453
 31
0.0
  0
DIMENSION
  5
7AB
330
1F
100
AcDbEntity
  8
DIM
100
AcDbDimension
  2
*D91
 10
-364.6280572948521
 20
-143.108779907645
 30
0.0
 11
-345.0019422098316
 21
-123.0967673428142
 31
0.0
 70
   166
 71
     5
 42
23.53999999999996
  3
Standard
100
AcDbOrdinateDimension
 13
-360.9240572948521
 23
-119.568779907645
 33
0.0
 14
-347.5086088764983
 24
-123.0967673428142
 34
0.0
1001
ACAD
1000
DSTYLE
1002
{
1070
    43
1040
2.125
1070
    44
1040
1.0
1070
   140
1040
0.9999999999999998
1070
   141
1040
0.5
1002
}
  0
DIMENSION
  5
7AC
330
1F
100
AcDbEntity
  8
DIM
100
AcDbDimension
  2
*D92
 10
-364.6280572948521
 20
-143.108779907645
 30
0.0
 11
-359.5698014859398
 21
-148.5207537381399
 31
0.0
 70
   230
 71
     5
 42
3.703999999999894
  3
Standard
100
AcDbOrdinateDimension
 13
-360.9240572948521
 23
-119.568779907645
 33
0.0
 14
-359.5698014859398
 24
-146.5140870714732
 34
0.0
1001
ACAD
1000
DSTYLE
1002
{
1070
    43
1040
2.125
1070
    44
1040
1.0
1070
   140
1040
0.9999999999999998
1070
   141
1040
0.5
1002
}
  0
DIMENSION
  5
7AD
330
1F
100
AcDbEntity
  8
DIM
100
AcDbDimension
  2
*D93
 10
-364.6280572948521
 20
-143.108779907645
 30
0.0
 11
-346.0684207507791
 21
-108.9877799076445
 31
0.0
 70
    38
 71
     5
 42
34.12100000000055
  3
Standard
100
AcDbOrdinateDimension
 13
-352.358057294852
 23
-108.9877799076445
 33
0.0
 14
-348.3250874174457
 24
-108.9877799076445
 34
0.0
1001
ACAD
1000
DSTYLE
1002
{
1070
    43
1040
2.125
1070
    44
1040
1.0
1070
   140
1040
0.9999999999999998
1070
   141
1040
0.5
1002
}
  0
DIMENSION
  5
7AE
330
1F
100
AcDbEntity
  8
DIM
100
AcDbDimension
  2
*D94
 10
-364.6280572948521
 20
-143.108779907645
 30
0.0
 11
-345.7505770285006
 21
-110.5231845891593
 31
0.0
 70
    38
 71
     5
 42
33.33750000000009
  3
Standard
100
AcDbOrdinateDimension
 13
-354.3503072948521
 23
-109.7712799076449
 33
0.0
 14
-348.3405770285005
 24
-110.5231845891593
 34
0.0
1001
ACAD
1000
DSTYLE
1002
{
1070
    43
1040
2.125
1070
    44
1040
1.0
1070
   140
1040
0.9999999999999998
1070
   141
1040
0.5
1002
}
  0
DIMENSION
  5
7AF
330
1F
100
AcDbEntity
  8
DIM
100
AcDbDimension
  2
*D95
 10
-364.6280572948521
 20
-143.108779907645
 30
0.0
 11
-345.7505770285006
 21
-114.2212799076447
 31
0.0
 70
    38
 71
     5
 42
28.88750000000027
  3
Standard
100
AcDbOrdinateDimension
 13
-354.3503072948521
 23
-114.2212799076447
 33
0.0
 14
-348.3405770285005
 24
-114.2212799076447
 34
0.0
1001
ACAD
1000
DSTYLE
1002
{
1070
    43
1040
2.125
1070
    44
1040
1.0
1070
   140
1040
0.9999999999999998
1070
   141
1040
0.5
1002
}
  0
DIMENSION
  5
7B0
330
1F
100
AcDbEntity
  8
DIM
100
AcDbDimension
  2
*D96
 10
-364.6280572948521
 20
-143.108779907645
 30
0.0
 11
-369.138694139075
 21
-109.3297799076448
 31
0.0
 70
    38
  1
33.780
 71
     5
 42
33.77900000000022
  3
Standard
100
AcDbOrdinateDimension
 13
-364.0313072948521
 23
-109.3297799076448
 33
0.0
 14
-366.6320274724084
 24
-109.3297799076448
 34
0.0
1001
ACAD
1000
DSTYLE
1002
{
1070
    43
1040
2.125
1070
    44
1040
1.0
1070
   140
1040
0.9999999999999998
1070
   141
1040
0.5
1002
}
  0
DIMENSION
  5
7B1
330
1F
100
AcDbEntity
  8
DIM
100
AcDbDimension
  2
*D97
 10
-364.6280572948521
 20
-143.108779907645
 30
0.0
 11
-368.9720274724083
 21
-111.1387799076448
 31
0.0
 70
    38
 71
     5
 42
31.97000000000026
  3
Standard
100
AcDbOrdinateDimension
 13
-364.244057294852
 23
-111.1387799076448
 33
0.0
 14
-366.6320274724084
 24
-111.1387799076448
 34
0.0
1001
ACAD
1000
DSTYLE
1002
{
1070
    43
1040
2.125
1070
    44
1040
1.0
1070
   140
1040
0.9999999999999998
1070
   141
1040
0.5
1002
}
  0
DIMENSION
  5
7B2
330
1F
100
AcDbEntity
  8
DIM
100
AcDbDimension
  2
*D98
 10
-364.6280572948521
 20
-143.108779907645
 30
0.0
 11
-371.0513906281855
 21
-116.5797799076448
 31
0.0
 70
    38
  1
25.030
 71
     5
 42
25.02900000000022
  3
Standard
100
AcDbOrdinateDimension
 13
-364.0313072948521
 23
-118.0797799076448
 33
0.0
 14
-368.6280572948522
 24
-116.5797799076448
 34
0.0
1001
ACAD
1000
DSTYLE
1002
{
1070
    43
1040
2.125
1070
    44
1040
1.0
1070
   140
1040
0.9999999999999998
1070
   141
1040
0.5
1002
}
  0
DIMENSION
  5
7B3
330
1F
100
AcDbEntity
  8
DIM
100
AcDbDimension
  2
*D99
 10
-364.6280572948521
 20
-143.108779907645
 30
0.0
 11
-371.1347239615188
 21
-118.568779907645
 31
0.0
 70
    38
 71
     5
 42
24.53999999999997
  3
Standard
100
AcDbOrdinateDimension
 13
-363.4275572948519
 23
-118.568779907645
 33
0.0
 14
-368.6280572948522
 24
-118.568779907645
 34
0.0
1001
ACAD
1000
DSTYLE
1002
{
1070
    43
1040
2.125
1070
    44
1040
1.0
1070
   140
1040
0.9999999999999998
1070
   141
1040
0.5
1002
}
  0
DIMENSION
  5
7B4
330
1F
100
AcDbEntity
  8
DIM
100
AcDbDimension
  2
*D100
 10
-364.6280572948521
 20
-143.108779907645
 30
0.0
 11
-371.4637599251898
 21
-122.6784526875083
 31
0.0
 70
   166
 71
     5
 42
22.79000000000019
  3
Standard
100
AcDbOrdinateDimension
 13
-358.4240572948521
 23
-120.3187799076448
 33
0.0
 14
-368.9570932585232
 24
-122.6784526875083
 34
0.0
1001
ACAD
1000
DSTYLE
1002
{
1070
    43
1040
2.125
1070
    44
1040
1.0
1070
   140
1040
0.9999999999999998
1070
   141
1040
0.5
1002
}
  0
DIMENSION
  5
7B5
330
1F
100
AcDbEntity
  8
DIM
100
AcDbDimension
  2
*D101
 10
-364.6280572948521
 20
-143.108779907645
 30
0.0
 11
-371.3780572948522
 21
-124.5557835144411
 31
0.0
 70
   166
 71
     5
 42
21.28999999999996
  3
Standard
100
AcDbOrdinateDimension
 13
-358.4240572948521
 23
-121.8187799076451
 33
0.0
 14
-369.0380572948522
 24
-124.5557835144411
 34
0.0
1001
ACAD
1000
DSTYLE
1002
{
1070
    43
1040
2.125
1070
    44
1040
1.0
1070
   140
1040
0.9999999999999998
1070
   141
1040
0.5
1002
}
  0
DIMENSION
  5
7B6
330
1F
100
AcDbEntity
  8
DIM
100
AcDbDimension
  2
*D102
 10
-364.6280572948521
 20
-143.108779907645
 30
0.0
 11
-369.3564106362468
 21
-126.7359096742084
 31
0.0
 70
   166
 71
     5
 42
18.97000000000025
  3
Standard
100
AcDbOrdinateDimension
 13
-362.244057294852
 23
-124.1387799076448
 33
0.0
 14
-367.0164106362468
 24
-126.7359096742084
 34
0.0
1001
ACAD
1000
DSTYLE
1002
{
1070
    43
1040
2.125
1070
    44
1040
1.0
1070
   140
1040
0.9999999999999998
1070
   141
1040
0.5
1002
}
  0
DIMENSION
  5
7B7
330
1F
100
AcDbEntity
  8
DIM
100
AcDbDimension
  2
*D103
 10
-364.6280572948521
 20
-143.108779907645
 30
0.0
 11
-370.4225078984625
 21
-137.1387799076448
 31
0.0
 70
    38
 71
     5
 42
5.970000000000254
  3
Standard
100
AcDbOrdinateDimension
 13
-362.244057294852
 23
-137.1387799076448
 33
0.0
 14
-368.4158412317959
 24
-137.1387799076448
 34
0.0
1001
ACAD
1000
DSTYLE
1002
{
1070
    43
1040
2.125
1070
    44
1040
1.0
1070
   140
1040
0.9999999999999998
1070
   141
1040
0.5
1002
}
  0
DIMENSION
  5
7B8
330
1F
100
AcDbEntity
  8
DIM
100
AcDbDimension
  2
*D104
 10
-364.6280572948521
 20
-143.108779907645
 30
0.0
 11
-353.2453834757935
 21
-147.362355798438
 31
0.0
 70
   102
 71
     5
 42
11.0689999999999
  3
Standard
100
AcDbOrdinateDimension
 13
-353.5590572948521
 23
-118.568779907645
 33
0.0
 14
-353.2453834757936
 24
-145.1890224651046
 34
0.0
  0
DIMENSION
  5
7B9
330
1F
100
AcDbEntity
  8
DIM
100
AcDbDimension
  2
*D105
 10
-364.6280572948521
 20
-143.108779907645
 30
0.0
 11
-364.6280572948521
 21
-149.0027179027867
 31
0.0
 70
   230
 71
     5
 42
0.0
  3
Standard
100
AcDbOrdinateDimension
 13
-364.6280572948521
 23
-143.108779907645
 33
0.0
 14
-364.6280572948521
 24
-147.24605123612
 34
0.0
  0
LINE
  5
7BA
330
1F
100
AcDbEntity
  8
TEMPLATE
  6
HIDDEN
100
AcDbLine
 10
-352.358057294852
 20
-139.078779907645
 30
0.0
 11
-352.358057294852
 21
-143.108779907645
 31
0.0
  0
LINE
  5
7BB
330
1F
100
AcDbEntity
  8
TEMPLATE
  6
HIDDEN
100
AcDbLine
 10
-364.6280572948522
 20
-139.078779907645
 30
0.0
 11
-364.6280572948522
 21
-143.108779907645
 31
0.0
  0
LINE
  5
7BC
330
1F
100
AcDbEntity
  8
TEMPLATE
  6
HIDDEN
100
AcDbLine
 10
-352.358057294852
 20
-143.108779907645
 30
0.0
 11
-364.6280572948521
 21
-143.108779907645
 31
0.0
  0
MTEXT
  5
7BD
330
1F
100
AcDbEntity
  8
0
100
AcDbMText
 10
-358.4240572948521
 20
-148.31106460293
 30
0.0
 40
1.0
 41
0.0
 71
     5
 72
     1
  1
\A1;6.204
 11
0.0000000000000001
 21
1.0
 31
0.0
 73
     1
 44
1.0
1001
ACAD
1000
MTEXTBEGIN
1070
    73
1070
     1
1070
    44
1040
1.0
1070
    74
1070
     0
1000
MTEXTEND
  0
LINE
  5
7BE
330
1F
100
AcDbEntity
  8
0
100
AcDbLine
 10
-358.4240572948521
 20
-122.1937799076448
 30
0.0
 11
-358.4240572948521
 21
-145.5844495252923
 31
0.0
  0
DIMENSION
  5
7C1
330
1F
100
AcDbEntity
  8
DIM
100
AcDbDimension
  2
*D106
 10
-364.6280560043266
 20
-139.0787379124275
 30
0.0
 11
-364.0313072948521
 21
-102.5702763526494
 31
0.0
 70
   102
 71
     5
 42
0.5967487094744115
  3
Standard
100
AcDbOrdinateDimension
 13
-364.0313072948521
 23
-109.3297799076448
 33
0.0
 14
-364.0313072948521
 24
-104.9869430193161
 34
0.0
1001
ACAD
1000
DSTYLE
1002
{
1070
    41
1040
1.0
1070
    42
1040
0.375
1070
    43
1040
2.125
1070
    44
1040
1.0
1070
   140
1040
0.9999999999999998
1070
   141
1040
0.5
1070
   147
1040
0.5
1070
   271
1070
     3
1070
   272
1070
     3
1070
   288
1070
     1
1002
}
  0
DIMENSION
  5
7C2
330
1F
100
AcDbEntity
  8
DIM
100
AcDbDimension
  2
*D107
 10
-364.6280560043266
 20
-139.0787379124275
 30
0.0
 11
-357.9688072948521
 21
-102.4869430193161
 31
0.0
 70
   102
 71
     5
 42
6.659248709474411
  3
Standard
100
AcDbOrdinateDimension
 13
-357.9688072948521
 23
-109.3297799076446
 33
0.0
 14
-357.9688072948521
 24
-104.9869430193161
 34
0.0
1001
ACAD
1000
DSTYLE
1002
{
1070
    41
1040
1.0
1070
    42
1040
0.375
1070
    43
1040
2.125
1070
    44
1040
1.0
1070
   140
1040
0.9999999999999998
1070
   141
1040
0.5
1070
   147
1040
0.5
1070
   271
1070
     3
1070
   272
1070
     3
1070
   288
1070
     1
1002
}
  0
DIMENSION
  5
7C3
330
1F
100
AcDbEntity
  8
DIM
100
AcDbDimension
  2
*D108
 10
-364.6280560043266
 20
-139.0787379124275
 30
0.0
 11
-356.4182116738069
 21
-102.5702763526494
 31
0.0
 70
   102
 71
     5
 42
7.440248709474474
  3
Standard
100
AcDbOrdinateDimension
 13
-357.1878072948521
 23
-109.7712799076449
 33
0.0
 14
-356.4182116738069
 24
-104.9869430193161
 34
0.0
1001
ACAD
1000
DSTYLE
1002
{
1070
    41
1040
1.0
1070
    42
1040
0.375
1070
    43
1040
2.125
1070
    44
1040
1.0
1070
   140
1040
0.9999999999999998
1070
   141
1040
0.5
1070
   147
1040
0.5
1070
   271
1070
     3
1070
   272
1070
     3
1070
   288
1070
     1
1002
}
  0
DIMENSION
  5
7C4
330
1F
100
AcDbEntity
  8
DIM
100
AcDbDimension
  2
*D109
 10
-364.6280560043266
 20
-139.0787379124275
 30
0.0
 11
-365.5197716614317
 21
-102.6027470280078
 31
0.0
 70
   102
 71
     5
 42
0.383998709474497
  3
Standard
100
AcDbOrdinateDimension
 13
-364.244057294852
 23
-111.1387799076448
 33
0.0
 14
-365.5197716614317
 24
-105.0194136946744
 34
0.0
1001
ACAD
1000
DSTYLE
1002
{
1070
    41
1040
1.0
1070
    42
1040
0.375
1070
    43
1040
2.125
1070
    44
1040
1.0
1070
   140
1040
0.9999999999999998
1070
   141
1040
0.5
1070
   147
1040
0.5
1070
   271
1070
     3
1070
   272
1070
     3
1070
   288
1070
     1
1002
}
  0
DIMENSION
  5
7C5
330
1F
100
AcDbEntity
  8
DIM
100
AcDbDimension
  2
*D110
 10
-364.6280560043266
 20
-139.0787379124275
 30
0.0
 11
-354.3503072948537
 21
-102.2369430193161
 31
0.0
 70
   102
 71
     5
 42
10.27774870947286
  3
Standard
100
AcDbOrdinateDimension
 13
-354.3503072948537
 23
-109.7712799076449
 33
0.0
 14
-354.3503072948537
 24
-104.9869430193161
 34
0.0
1001
ACAD
1000
DSTYLE
1002
{
1070
    41
1040
1.0
1070
    42
1040
0.375
1070
    43
1040
2.125
1070
    44
1040
1.0
1070
   140
1040
0.9999999999999998
1070
   141
1040
0.5
1070
   147
1040
0.5
1070
   271
1070
     3
1070
   272
1070
     3
1070
   288
1070
     1
1002
}
  0
DIMENSION
  5
7C6
330
1F
100
AcDbEntity
  8
DIM
100
AcDbDimension
  2
*D111
 10
-364.6280560043266
 20
-139.0787379124275
 30
0.0
 11
-352.744057294852
 21
-102.4014526511012
 31
0.0
 70
   102
 71
     5
 42
11.88399870947449
  3
Standard
100
AcDbOrdinateDimension
 13
-352.744057294852
 23
-111.1387799076448
 33
0.0
 14
-352.744057294852
 24
-105.0681193177678
 34
0.0
1001
ACAD
1000
DSTYLE
1002
{
1070
    41
1040
1.0
1070
    42
1040
0.375
1070
    43
1040
2.125
1070
    44
1040
1.0
1070
   140
1040
0.9999999999999998
1070
   141
1040
0.5
1070
   147
1040
0.5
1070
   271
1070
     3
1070
   272
1070
     3
1070
   288
1070
     1
1002
}
  0
CIRCLE
  5
7C7
330
1F
100
AcDbEntity
  8
TEMPLATE
100
AcDbCircle
 10
-364.244057294852
 20
-111.1387799076448
 30
0.0
 40
0.1875
  0
LINE
  5
7C8
330
1F
100
AcDbEntity
  8
TEMPLATE
100
AcDbLine
 10
-364.0313072948521
 20
-109.3297799076448
 30
0.0
 11
-357.9688072948521
 21
-109.3297799076448
 31
0.0
  0
CIRCLE
  5
7C9
330
1F
100
AcDbEntity
  8
TEMPLATE
100
AcDbCircle
 10
-352.744057294852
 20
-111.1387799076448
 30
0.0
 40
0.1875
  0
LINE
  5
7CA
330
1F
100
AcDbEntity
  8
TEMPLATE
100
AcDbLine
 10
-357.1878072948521
 20
-109.7712799076449
 30
0.0
 11
-354.3503072948522
 21
-109.7712799076449
 31
0.0
  0
LINE
  5
7CB
330
1F
100
AcDbEntity
  8
TEMPLATE
  6
HIDDEN
100
AcDbLine
 10
-364.6280572948522
 20
-108.9877799076445
 30
0.0
 11
-352.358057294852
 21
-108.9877799076445
 31
0.0
  0
CIRCLE
  5
7CC
330
1F
100
AcDbEntity
  8
TEMPLATE
100
AcDbCircle
 10
-363.4275572948519
 20
-118.568779907645
 30
0.0
 40
0.1875
  0
LINE
  5
7CD
330
1F
100
AcDbEntity
  8
TEMPLATE
100
AcDbLine
 10
-357.9688072948519
 20
-118.0797799076448
 30
0.0
 11
-364.0313072948521
 21
-118.0797799076448
 31
0.0
  0
CIRCLE
  5
7CE
330
1F
100
AcDbEntity
  8
TEMPLATE
100
AcDbCircle
 10
-358.4240572948521
 20
-120.3187799076448
 30
0.0
 40
0.625
  0
CIRCLE
  5
7CF
330
1F
100
AcDbEntity
  8
TEMPLATE
100
AcDbCircle
 10
-353.5590572948521
 20
-118.568779907645
 30
0.0
 40
0.1875
  0
LINE
  5
7D0
330
1F
100
AcDbEntity
  8
TEMPLATE
100
AcDbLine
 10
-354.3503072948521
 20
-114.2212799076447
 30
0.0
 11
-357.1878072948521
 21
-114.2212799076447
 31
0.0
  0
LINE
  5
7D1
330
1F
100
AcDbEntity
  8
TEMPLATE
100
AcDbLine
 10
-354.3503072948521
 20
-114.2212799076447
 30
0.0
 11
-354.3503072948522
 21
-109.7712799076449
 31
0.0
  0
LINE
  5
7D2
330
1F
100
AcDbEntity
  8
TEMPLATE
100
AcDbLine
 10
-357.1878072948521
 20
-109.7712799076449
 30
0.0
 11
-357.1878072948521
 21
-114.2212799076447
 31
0.0
  0
LINE
  5
7D3
330
1F
100
AcDbEntity
  8
TEMPLATE
100
AcDbLine
 10
-357.9688072948519
 20
-118.0797799076448
 30
0.0
 11
-357.9688072948521
 21
-109.3297799076448
 31
0.0
  0
LINE
  5
7D4
330
1F
100
AcDbEntity
  8
TEMPLATE
100
AcDbLine
 10
-364.0313072948521
 20
-109.3297799076448
 30
0.0
 11
-364.0313072948521
 21
-118.0797799076448
 31
0.0
  0
CIRCLE
  5
7D5
330
1F
100
AcDbEntity
  8
TEMPLATE
100
AcDbCircle
 10
-362.244057294852
 20
-124.1387799076448
 30
0.0
 40
0.1875
  0
CIRCLE
  5
7D6
330
1F
100
AcDbEntity
  8
TEMPLATE
100
AcDbCircle
 10
-354.744057294852
 20
-124.1387799076448
 30
0.0
 40
0.1875
  0
CIRCLE
  5
7D7
330
1F
100
AcDbEntity
  8
TEMPLATE
100
AcDbCircle
 10
-362.244057294852
 20
-137.1387799076448
 30
0.0
 40
0.1875
  0
CIRCLE
  5
7D8
330
1F
100
AcDbEntity
  8
TEMPLATE
100
AcDbCircle
 10
-354.744057294852
 20
-137.1387799076448
 30
0.0
 40
0.1875
  0
LINE
  5
7D9
330
1F
100
AcDbEntity
  8
TEMPLATE
100
AcDbLine
 10
-351.8690572948523
 20
-138.141279907645
 30
0.0
 11
-352.358057294852
 21
-138.1412799076448
 31
0.0
  0
LINE
  5
7DA
330
1F
100
AcDbEntity
  8
TEMPLATE
  6
HIDDEN
100
AcDbLine
 10
-352.358057294852
 20
-138.190279907645
 30
0.0
 11
-351.8690572948523
 21
-138.190279907645
 31
0.0
  0
LINE
  5
7DB
330
1F
100
AcDbEntity
  8
TEMPLATE
100
AcDbLine
 10
-351.8690572948523
 20
-138.5162799076451
 30
0.0
 11
-352.358057294852
 21
-138.5162799076451
 31
0.0
  0
LINE
  5
7DC
330
1F
100
AcDbEntity
  8
TEMPLATE
  6
HIDDEN
100
AcDbLine
 10
-352.358057294852
 20
-138.4672799076446
 30
0.0
 11
-351.8690572948523
 21
-138.4672799076448
 31
0.0
  0
LINE
  5
7DD
330
1F
100
AcDbEntity
  8
TEMPLATE
100
AcDbLine
 10
-351.8690572948523
 20
-138.5162799076451
 30
0.0
 11
-351.8690572948523
 21
-138.141279907645
 31
0.0
  0
LINE
  5
7DE
330
1F
100
AcDbEntity
  8
TEMPLATE
  6
HIDDEN
100
AcDbLine
 10
-364.6280572948522
 20
-139.078779907645
 30
0.0
 11
-364.6280572948522
 21
-108.9877799076445
 31
0.0
  0
LINE
  5
7DF
330
1F
100
AcDbEntity
  8
TEMPLATE
  6
HIDDEN
100
AcDbLine
 10
-352.358057294852
 20
-139.078779907645
 30
0.0
 11
-352.358057294852
 21
-108.9877799076445
 31
0.0
  0
DIMENSION
  5
7E0
330
1F
100
AcDbEntity
  8
DIM
100
AcDbDimension
  2
*D81
 10
-364.6280501205671
 20
-143.1088032733104
 30
0.0
 11
-370.7947239615188
 21
-143.108779907645
 31
0.0
 70
    38
 71
     5
 42
0.0000233656653563
  3
Standard
100
AcDbOrdinateDimension
 13
-364.6280572948522
 23
-143.108779907645
 33
0.0
 14
-368.6280572948522
 24
-143.108779907645
 34
0.0
1001
ACAD
1000
DSTYLE
1002
{
1070
    41
1040
1.0
1070
    42
1040
0.375
1070
    43
1040
2.125
1070
    44
1040
1.0
1070
   140
1040
0.9999999999999998
1070
   141
1040
0.5
1070
   147
1040
0.5
1070
   271
1070
     3
1070
   272
1070
     3
1070
   288
1070
     1
1002
}
  0
LINE
  5
7E1
330
1F
100
AcDbEntity
  8
TEMPLATE
  6
HIDDEN
100
AcDbLine
 10
-364.6280572948522
 20
-139.453779907645
 30
0.0
 11
-364.6280572948522
 21
-140.0759547656183
 31
0.0
  0
LINE
  5
7E2
330
1F
100
AcDbEntity
  8
DIM
100
AcDbLine
 10
-354.744057294852
 20
-137.5137799076448
 30
0.0
 11
-354.744057294852
 21
-140.0759547656183
 31
0.0
  0
LINE
  5
7E3
330
1F
100
AcDbEntity
  8
TEMPLATE
  6
HIDDEN
100
AcDbLine
 10
-352.358057294852
 20
-139.453779907645
 30
0.0
 11
-352.358057294852
 21
-140.0759547656183
 31
0.0
  0
LINE
  5
7E4
330
1F
100
AcDbEntity
  8
DIM
100
AcDbLine
 10
-354.7430572948521
 20
-142.0759547656183
 30
0.0
 11
-354.7430572948521
 21
-145.7249914794021
 31
0.0
  0
LINE
  5
7E5
330
1F
100
AcDbEntity
  8
DIM
100
AcDbLine
 10
-354.744057294852
 20
-140.0759547656183
 30
0.0
 11
-354.7430572948521
 21
-142.0759547656183
 31
0.0
  0
TEXT
  5
7E6
330
1F
100
AcDbEntity
  8
DIM
100
AcDbText
 10
-354.2430572948521
 20
-150.3401278903576
 30
0.0
 40
1.0
  1
9.884
 50
90.0
 72
     2
 11
-354.7430572948521
 21
-146.3401278903576
 31
0.0
100
AcDbText
 73
     2
  0
LEADER
  5
7E7
330
1F
100
AcDbEntity
  8
DIM
100
AcDbLeader
  3
Standard
 73
     0
 40
1.0
 41
8.33333333333333
 76
     3
 10
-354.2323050889894
 20
-124.2616467733013
 30
0.0
 10
-350.3580572948522
 20
-125.8403413264001
 30
0.0
 10
-348.3580572948522
 20
-125.8403413264001
 30
0.0
340
7E8
213
0.0
223
-0.5
233
0.0
1001
ACAD
1000
DSTYLE
1002
{
1070
    77
1070
     0
1070
    41
1040
1.0
1070
    42
1040
0.375
1070
    43
1040
2.125
1070
    44
1040
1.0
1070
   140
1040
0.9999999999999998
1070
   141
1040
0.5
1070
   147
1040
0.5
1070
   271
1070
     3
1070
   272
1070
     3
1070
   288
1070
     1
1002
}
  0
MTEXT
  5
7E8
102
{ACAD_REACTORS
330
7E7
102
}
330
1F
100
AcDbEntity
  8
DIM
100
AcDbMText
 10
-347.8580572948522
 20
-125.3403413264001
 30
0.0
 40
0.9999999999999998
 41
0.0
 71
     1
 72
     1
  1
\A1;%%C .375 (8)
 73
     1
 44
1.0
1001
ACAD
1000
MTEXTBEGIN
1070
    73
1070
     1
1070
    44
1040
1.0
1070
    74
1070
     0
1000
MTEXTEND
  0
LEADER
  5
7E9
330
1F
100
AcDbEntity
  8
DIM
100
AcDbLeader
  3
Standard
 73
     0
 40
5.999999999999999
 41
8.499999999999998
 76
     3
 10
-357.970608821635
 20
-119.7009804798932
 30
0.0
 10
-356.3580572948522
 20
-116.5022448431615
 30
0.0
 10
-348.1758016527544
 20
-116.1701853624283
 30
0.0
340
7EA
213
0.0
223
-0.5
233
0.0
1001
ACAD
1000
DSTYLE
1002
{
1070
    77
1070
     0
1070
    41
1040
1.0
1070
    42
1040
0.375
1070
    43
1040
2.125
1070
    44
1040
1.0
1070
   140
1040
0.9999999999999998
1070
   141
1040
0.5
1070
   147
1040
0.5
1070
   271
1070
     3
1070
   272
1070
     3
1070
   288
1070
     1
1002
}
  0
MTEXT
  5
7EA
102
{ACAD_REACTORS
330
7E9
102
}
330
1F
100
AcDbEntity
  8
DIM
100
AcDbMText
 10
-347.6758016527544
 20
-115.6701853624283
 30
0.0
 40
0.9999999999999998
 41
0.0
 71
     1
 72
     1
  1
%%C 1.250 (1)\PPOWER \PSUPPLY\PCORD
 73
     1
 44
1.0
1001
ACAD
1000
MTEXTBEGIN
1070
    73
1070
     1
1070
    44
1040
1.0
1070
    74
1070
     0
1000
MTEXTEND
  0
CIRCLE
  5
7EB
330
1F
100
AcDbEntity
  8
TEMPLATE
100
AcDbCircle
 10
-358.4240572948521
 20
-121.8187799076451
 30
0.0
 40
0.625
  0
LINE
  5
7EC
330
1F
100
AcDbEntity
  8
0
100
AcDbLine
 10
-358.4240572948521
 20
-121.446015488499
 30
0.0
 11
-358.4240572948521
 21
-120.6915443267907
 31
0.0
  0
DIMENSION
  5
7ED
330
1F
100
AcDbEntity
  8
DIMENSION
100
AcDbDimension
  2
*D82
 10
-364.6280501205671
 20
-143.1088032733104
 30
0.0
 11
-370.3052221209719
 21
-141.8848504043222
 31
0.0
 70
    38
 71
     5
 42
0.7175233656651017
  3
Standard
100
AcDbOrdinateDimension
 13
-363.877557294852
 23
-142.3912799076453
 33
0.0
 14
-368.4652221209719
 24
-141.8848504043222
 34
0.0
  0
DIMENSION
  5
7EE
330
1F
100
AcDbEntity
  8
DIMENSION
100
AcDbDimension
  2
*D83
 10
-364.6280501205671
 20
-143.1088032733104
 30
0.0
 11
-370.2135869216609
 21
-139.7779478223898
 31
0.0
 70
    38
 71
     5
 42
3.842523365665101
  3
Standard
100
AcDbOrdinateDimension
 13
-363.877557294852
 23
-139.2662799076453
 33
0.0
 14
-368.1235869216609
 24
-139.7779478223898
 34
0.0
  0
DIMENSION
  5
7EF
330
1F
100
AcDbEntity
  8
DIMENSION
100
AcDbDimension
  2
*D84
 10
-364.6280501205671
 20
-143.1088032733104
 30
0.0
 11
-363.4972692595149
 21
-148.3234334504308
 31
0.0
 70
   102
 71
     5
 42
0.7504928257151278
  3
Standard
100
AcDbOrdinateDimension
 13
-363.877557294852
 23
-142.3912799076453
 33
0.0
 14
-363.4972692595149
 24
-146.4001001170974
 34
0.0
  0
DIMENSION
  5
7F0
330
1F
100
AcDbEntity
  8
DIMENSION
100
AcDbDimension
  2
*D85
 10
-364.6280501205671
 20
-143.1088032733104
 30
0.0
 11
-360.867203449646
 21
-148.9591193070057
 31
0.0
 70
   230
 71
     5
 42
3.030492825715327
  3
Standard
100
AcDbOrdinateDimension
 13
-361.5975572948518
 23
-142.3912799076452
 33
0.0
 14
-360.8672034496461
 24
-147.0357859736723
 34
0.0
  0
DIMENSION
  5
7F1
330
1F
100
AcDbEntity
  8
DIMENSION
100
AcDbDimension
  2
*D86
 10
-364.6280501205671
 20
-143.1088032733104
 30
0.0
 11
-363.4202923782489
 21
-128.1672083180353
 31
0.0
 70
   102
 71
     5
 42
1.200492825715116
  3
Standard
100
AcDbOrdinateDimension
 13
-363.4275572948519
 23
-118.568779907645
 33
0.0
 14
-363.4202923782489
 24
-126.4105416513686
 34
0.0
  0
DIMENSION
  5
7F2
330
1F
100
AcDbEntity
  8
DIMENSION
100
AcDbDimension
  2
*D87
 10
-364.6280501205671
 20
-143.1088032733104
 30
0.0
 11
-362.244057294852
 21
-148.3309892231257
 31
0.0
 70
   102
 71
     5
 42
2.38399282571504
  3
Standard
100
AcDbOrdinateDimension
 13
-362.244057294852
 23
-137.1387799076448
 33
0.0
 14
-362.244057294852
 24
-146.2409892231256
 34
0.0
  0
DIMENSION
  5
7F3
330
1F
100
AcDbEntity
  8
DIMENSION
100
AcDbDimension
  2
*D88
 10
-364.6280501205671
 20
-143.1088032733104
 30
0.0
 11
-351.1510864828836
 21
-102.9566571435878
 31
0.0
 70
   102
 71
     5
 42
12.26999282571506
  3
Standard
100
AcDbOrdinateDimension
 13
-352.358057294852
 23
-108.9877799076445
 33
0.0
 14
-351.1510864828836
 24
-105.2966571435878
 34
0.0
  0
DIMENSION
  5
7F4
330
1F
100
AcDbEntity
  8
DIMENSION
100
AcDbDimension
  2
*D89
 10
-358.7762488101587
 20
-121.3024601069924
 30
0.0
 11
-346.0269209411575
 21
-132.1744563189501
 31
0.0
 70
   163
  1
<> (1) \POPTIONAL:\PEXTERNAL \PHEAT\POUTPUT
 42
1.249999999999957
  3
Standard
100
AcDbDiametricDimension
 15
-358.0718657795455
 25
-122.3350997082977
 35
0.0
 40
0.0
  0
CIRCLE
  5
7F5
330
1F
100
AcDbEntity
  8
TEMPLATE
100
AcDbCircle
 10
-360.9240572948521
 20
-119.568779907645
 30
0.0
 40
0.625
  0
LINE
  5
B37
330
1F
100
AcDbEntity
  8
DIMENSION
100
AcDbLine
 10
-366.5934525048472
 20
-131.9958228319929
 30
0.0
 11
-362.9800258092793
 21
-131.995822831993
 31
0.0
  0
LINE
  5
B38
330
1F
100
AcDbEntity
  8
DIMENSION
100
AcDbLine
 10
-362.9800258092793
 20
-131.995822831993
 30
0.0
 11
-361.1892968472795
 21
-121.1719869996416
 31
0.0
  0
MTEXT
  5
B39
330
1F
100
AcDbEntity
  8
DIMENSION
100
AcDbMText
 10
-374.9488321352675
 20
-128.1052984336261
 30
0.0
 40
1.0
 41
0.0
 71
     1
 72
     1
  1
\A1;\U+22051.250 (1)\POPTIONAL:\PETHERNET\PCONNECTION \PPORT
 73
     1
 44
1.0
1001
ACAD
1000
MTEXTBEGIN
1070
    73
1070
     1
1070
    44
1040
1.0
1070
    74
1070
     0
1000
MTEXTEND
  0
SOLID
  5
B3A
330
1F
100
AcDbEntity
  8
DIMENSION
100
AcDbTrace
 10
-361.3537283438946
 20
-121.1447829429823
 30
0.0
 11
-361.0248653506645
 21
-121.1991910563008
 31
0.0
 12
-361.0260725073241
 22
-120.1853980199514
 32
0.0
 13
-361.0260725073241
 23
-120.1853980199514
 33
0.0
  0
LINE
  5
B3B
330
1F
100
AcDbEntity
  8
DIMENSION
100
AcDbLine
 10
-361.014057294852
 20
-119.568779907645
 30
0.0
 11
-360.834057294852
 21
-119.568779907645
 31
0.0
  0
LINE
  5
B3C
330
1F
100
AcDbEntity
  8
DIMENSION
100
AcDbLine
 10
-360.924057294852
 20
-119.658779907645
 30
0.0
 11
-360.924057294852
 21
-119.478779907645
 31
0.0
  0
TEXT
  5
B47
330
1F
100
AcDbEntity
  8
TEXT
100
AcDbText
 10
-367.5777781479467
 20
-153.6582799076447
 30
0.0
 40
0.25
  1
JJH
 72
     1
 11
-367.2444448146134
 21
-153.5332799076447
 31
0.0
100
AcDbText
 73
     2
  0
TEXT
  5
B48
330
1F
100
AcDbEntity
  8
TEXT
100
AcDbText
 10
-370.2171964375758
 20
-153.6582799076447
 30
0.0
 40
0.25
  1
6-7-11
 72
     1
 11
-369.5921964375758
 21
-153.5332799076447
 31
0.0
100
AcDbText
 73
     2
  0
TEXT
  5
B49
330
1F
100
AcDbEntity
  8
TEXT
100
AcDbText
 10
-380.9619881042423
 20
-153.6582799076447
 30
0.0
 40
0.25
  1
ADDED FUSE BLOCK CUTOUT, %%C1.250 WAS %%C 0.750
 72
     1
 11
-375.9203214375756
 21
-153.5332799076447
 31
0.0
100
AcDbText
 73
     2
  0
TEXT
  5
B4A
330
1F
100
AcDbEntity
  8
TEXT
100
AcDbText
 10
-381.7369881042425
 20
-153.6582799076447
 30
0.0
 40
0.25
  1
1
 72
     1
 11
-381.6953214375758
 21
-153.5332799076447
 31
0.0
100
AcDbText
 73
     2
  0
LINE
  5
B4B
330
1F
100
AcDbEntity
  8
BORDER
100
AcDbLine
 10
-365.9966931916512
 20
-153.2832799076446
 30
0.0
 11
-382.2421964375759
 21
-153.2832799076446
 31
0.0
  0
ENDSEC
  0
SECTION
  2
OBJECTS
  0
DICTIONARY
  5
C
330
0
100
AcDbDictionary
281
     1
  3
ACAD_COLOR
350
73
  3
ACAD_GROUP
350
D
  3
ACAD_LAYOUT
350
1A
  3
ACAD_MATERIAL
350
72
  3
ACAD_MLINESTYLE
350
17
  3
ACAD_PLOTSETTINGS
350
19
  3
ACAD_PLOTSTYLENAME
350
E
  3
ACDBHEADERROUNDTRIPXREC
350
B6B
  3
AcDbVariableDictionary
350
66
  0
DICTIONARY
  5
163
330
2
100
AcDbDictionary
280
     1
281
     1
  3
ACAD_LAYERSTATES
360
164
  0
DICTIONARY
  5
73
102
{ACAD_REACTORS
330
C
102
}
330
C
100
AcDbDictionary
281
     1
  0
DICTIONARY
  5
D
102
{ACAD_REACTORS
330
C
102
}
330
C
100
AcDbDictionary
281
     1
  0
DICTIONARY
  5
1A
102
{ACAD_REACTORS
330
C
102
}
330
C
100
AcDbDictionary
281
     1
  3
Layout1
350
59
  3
Layout2
350
5E
  3
Model
350
22
  0
DICTIONARY
  5
72
102
{ACAD_REACTORS
330
C
102
}
330
C
100
AcDbDictionary
281
     1
  0
DICTIONARY
  5
17
102
{ACAD_REACTORS
330
C
102
}
330
C
100
AcDbDictionary
281
     1
  3
Standard
350
18
  0
DICTIONARY
  5
19
102
{ACAD_REACTORS
330
C
102
}
330
C
100
AcDbDictionary
281
     1
  0
ACDBDICTIONARYWDFLT
  5
E
102
{ACAD_REACTORS
330
C
102
}
330
C
100
AcDbDictionary
281
     1
  3
Normal
350
F
100
AcDbDictionaryWithDefault
340
F
  0
DICTIONARY
  5
B6B
102
{ACAD_REACTORS
330
C
102
}
330
C
100
AcDbDictionary
281
     1
  3
COLORDICT
350
B6D
  3
MATERIALDICT
350
B6C
  0
DICTIONARY
  5
66
102
{ACAD_REACTORS
330
C
102
}
330
C
100
AcDbDictionary
281
     1
  3
DIMASSOC
350
67
  3
HIDETEXT
350
6B
  3
PROJECTNAME
350
61A
  0
DICTIONARY
  5
164
102
{ACAD_REACTORS
330
163
102
}
330
163
100
AcDbDictionary
281
     1
  0
LAYOUT
  5
59
102
{ACAD_XDICTIONARY
360
B70
102
}
102
{ACAD_REACTORS
330
1A
102
}
330
1A
100
AcDbPlotSettings
  1

  2
None
  4

  6

 40
0.0
 41
0.0
 42
0.0
 43
0.0
 44
0.0
 45
0.0
 46
0.0
 47
0.0
 48
0.0
 49
0.0
140
0.0
141
0.0
142
1.0
143
1.0
 70
   688
 72
     0
 73
     0
 74
     5
  7

 75
    16
147
1.0
148
0.0
149
0.0
100
AcDbLayout
  1
Layout1
 70
     1
 71
     1
 10
0.0
 20
0.0
 11
12.0
 21
9.0
 12
0.0
 22
0.0
 32
0.0
 14
0.0
 24
0.0
 34
0.0
 15
0.0
 25
0.0
 35
0.0
146
0.0
 13
0.0
 23
0.0
 33
0.0
 16
1.0
 26
0.0
 36
0.0
 17
0.0
 27
1.0
 37
0.0
 76
     0
330
58
  0
LAYOUT
  5
5E
102
{ACAD_XDICTIONARY
360
B72
102
}
102
{ACAD_REACTORS
330
1A
102
}
330
1A
100
AcDbPlotSettings
  1

  2
None
  4

  6

 40
0.0
 41
0.0
 42
0.0
 43
0.0
 44
0.0
 45
0.0
 46
0.0
 47
0.0
 48
0.0
 49
0.0
140
0.0
141
0.0
142
1.0
143
1.0
 70
   688
 72
     0
 73
     0
 74
     5
  7

 75
    16
147
1.0
148
0.0
149
0.0
100
AcDbLayout
  1
Layout2
 70
     1
 71
     2
 10
0.0
 20
0.0
 11
12.0
 21
9.0
 12
0.0
 22
0.0
 32
0.0
 14
0.0
 24
0.0
 34
0.0
 15
0.0
 25
0.0
 35
0.0
146
0.0
 13
0.0
 23
0.0
 33
0.0
 16
1.0
 26
0.0
 36
0.0
 17
0.0
 27
1.0
 37
0.0
 76
     0
330
5D
  0
LAYOUT
  5
22
102
{ACAD_XDICTIONARY
360
B6E
102
}
102
{ACAD_REACTORS
330
1A
102
}
330
1A
100
AcDbPlotSettings
  1

  2
none_device
  4
ANSI_A_(8.50_x_11.00_Inches)
  6

 40
6.349999904632567
 41
19.04999923706055
 42
6.350006103515625
 43
19.04998779296875
 44
215.8999938964844
 45
279.3999938964844
 46
0.0
 47
0.0
 48
0.0
 49
0.0
140
0.0
141
0.0
142
1.0
143
2.584895464708373
 70
 11952
 72
     0
 73
     1
 74
     0
  7

 75
     0
147
0.3868628397755418
148
0.0
149
0.0
100
AcDbLayout
  1
Model
 70
     1
 71
     0
 10
0.0
 20
0.0
 11
12.0
 21
9.0
 12
0.0
 22
0.0
 32
0.0
 14
0.0
 24
0.0
 34
0.0
 15
0.0
 25
0.0
 35
0.0
146
0.0
 13
0.0
 23
0.0
 33
0.0
 16
1.0
 26
0.0
 36
0.0
 17
0.0
 27
1.0
 37
0.0
 76
     0
330
1F
  0
MLINESTYLE
  5
18
102
{ACAD_REACTORS
330
17
102
}
330
17
100
AcDbMlineStyle
  2
STANDARD
 70
     0
  3

 62
   256
 51
90.0
 52
90.0
 71
     2
 49
0.5
 62
   256
  6
BYLAYER
 49
-0.5
 62
   256
  6
BYLAYER
  0
ACDBPLACEHOLDER
  5
F
102
{ACAD_REACTORS
330
E
102
}
330
E
  0
XRECORD
  5
B6D
102
{ACAD_REACTORS
330
B6B
102
}
330
B6B
100
AcDbXrecord
280
     1
340
73
  0
XRECORD
  5
B6C
102
{ACAD_REACTORS
330
B6B
102
}
330
B6B
100
AcDbXrecord
280
     1
340
72
  0
DICTIONARYVAR
  5
67
102
{ACAD_REACTORS
330
66
102
}
330
66
100
DictionaryVariables
280
     0
  1
2
  0
DICTIONARYVAR
  5
6B
102
{ACAD_REACTORS
330
66
102
}
330
66
100
DictionaryVariables
280
     0
  1
1
  0
DICTIONARYVAR
  5
61A
102
{ACAD_REACTORS
330
66
102
}
330
66
100
DictionaryVariables
280
     0
  1

  0
DICTIONARY
  5
B70
330
59
100
AcDbDictionary
280
     1
281
     1
  3
ACAD_XREC_ROUNDTRIP
360
B71
  0
DICTIONARY
  5
B72
330
5E
100
AcDbDictionary
280
     1
281
     1
  3
ACAD_XREC_ROUNDTRIP
360
B73
  0
DICTIONARY
  5
B6E
330
22
100
AcDbDictionary
280
     1
281
     1
  3
ACAD_XREC_ROUNDTRIP
360
B6F
  0
XRECORD
  5
B71
102
{ACAD_REACTORS
330
B70
102
}
330
B70
100
AcDbXrecord
280
     1
102
SHADEPLOT
 70
     0
102
SHADEPLOTRESLEVEL
 70
     2
102
SHADEPLOTCUSTOMDPI
 70
   300
  0
XRECORD
  5
B73
102
{ACAD_REACTORS
330
B72
102
}
330
B72
100
AcDbXrecord
280
     1
102
SHADEPLOT
 70
     0
102
SHADEPLOTRESLEVEL
 70
     2
102
SHADEPLOTCUSTOMDPI
 70
   300
  0
XRECORD
  5
B6F
102
{ACAD_REACTORS
330
B6E
102
}
330
B6E
100
AcDbXrecord
280
     1
102
SHADEPLOT
 70
     0
102
SHADEPLOTRESLEVEL
 70
     2
102
SHADEPLOTCUSTOMDPI
 70
   300
  0
ENDSEC
  0
EOF
