  0
SECTION
  2
HEADER
  9
$ACADVER
  1
AC1018
  9
$ACADMAINTVER
 70
     0
  9
$DWGCODEPAGE
  3
ANSI_1252
  9
$INSBASE
 10
0.0
 20
0.0
 30
0.0
  9
$EXTMIN
 10
13.91746510745288
 20
8.205587836436382
 30
-0.0000370842611946
  9
$EXTMAX
 10
35.80334240153842
 20
37.00383864165399
 30
0.0
  9
$LIMMIN
 10
0.0
 20
0.0
  9
$LIMMAX
 10
12.0
 20
9.0
  9
$ORTHOMODE
 70
     0
  9
$REGENMODE
 70
     1
  9
$FILLMODE
 70
     1
  9
$QTEXTMODE
 70
     0
  9
$MIRRTEXT
 70
     0
  9
$LTSCALE
 40
1.0
  9
$ATTMODE
 70
     1
  9
$TEXTSIZE
 40
0.2
  9
$TRACEWID
 40
0.05
  9
$TEXTSTYLE
  7
Standard
  9
$CLAYER
  8
0
  9
$CELTYPE
  6
ByLayer
  9
$CECOLOR
 62
   256
  9
$CELTSCALE
 40
1.0
  9
$DISPSILH
 70
     0
  9
$DIMSCALE
 40
1.0
  9
$DIMASZ
 40
0.18
  9
$DIMEXO
 40
0.0625
  9
$DIMDLI
 40
0.38
  9
$DIMRND
 40
0.0
  9
$DIMDLE
 40
0.0
  9
$DIMEXE
 40
0.18
  9
$DIMTP
 40
0.0
  9
$DIMTM
 40
0.0
  9
$DIMTXT
 40
0.18
  9
$DIMCEN
 40
0.09
  9
$DIMTSZ
 40
0.0
  9
$DIMTOL
 70
     0
  9
$DIMLIM
 70
     0
  9
$DIMTIH
 70
     1
  9
$DIMTOH
 70
     1
  9
$DIMSE1
 70
     0
  9
$DIMSE2
 70
     0
  9
$DIMTAD
 70
     0
  9
$DIMZIN
 70
     0
  9
$DIMBLK
  1

  9
$DIMASO
 70
     1
  9
$DIMSHO
 70
     1
  9
$DIMPOST
  1

  9
$DIMAPOST
  1

  9
$DIMALT
 70
     0
  9
$DIMALTD
 70
     2
  9
$DIMALTF
 40
25.4
  9
$DIMLFAC
 40
1.0
  9
$DIMTOFL
 70
     0
  9
$DIMTVP
 40
0.0
  9
$DIMTIX
 70
     0
  9
$DIMSOXD
 70
     0
  9
$DIMSAH
 70
     0
  9
$DIMBLK1
  1

  9
$DIMBLK2
  1

  9
$DIMSTYLE
  2
Standard
  9
$DIMCLRD
 70
     0
  9
$DIMCLRE
 70
     0
  9
$DIMCLRT
 70
     0
  9
$DIMTFAC
 40
1.0
  9
$DIMGAP
 40
0.09
  9
$DIMJUST
 70
     0
  9
$DIMSD1
 70
     0
  9
$DIMSD2
 70
     0
  9
$DIMTOLJ
 70
     1
  9
$DIMTZIN
 70
     0
  9
$DIMALTZ
 70
     0
  9
$DIMALTTZ
 70
     0
  9
$DIMUPT
 70
     0
  9
$DIMDEC
 70
     4
  9
$DIMTDEC
 70
     4
  9
$DIMALTU
 70
     2
  9
$DIMALTTD
 70
     2
  9
$DIMTXSTY
  7
Standard
  9
$DIMAUNIT
 70
     0
  9
$DIMADEC
 70
     0
  9
$DIMALTRND
 40
0.0
  9
$DIMAZIN
 70
     0
  9
$DIMDSEP
 70
    46
  9
$DIMATFIT
 70
     3
  9
$DIMFRAC
 70
     0
  9
$DIMLDRBLK
  1

  9
$DIMLUNIT
 70
     2
  9
$DIMLWD
 70
    -2
  9
$DIMLWE
 70
    -2
  9
$DIMTMOVE
 70
     0
  9
$LUNITS
 70
     2
  9
$LUPREC
 70
     4
  9
$SKETCHINC
 40
0.1
  9
$FILLETRAD
 40
0.0
  9
$AUNITS
 70
     0
  9
$AUPREC
 70
     0
  9
$MENU
  1
.
  9
$ELEVATION
 40
0.0
  9
$PELEVATION
 40
0.0
  9
$THICKNESS
 40
0.0
  9
$LIMCHECK
 70
     0
  9
$CHAMFERA
 40
0.0
  9
$CHAMFERB
 40
0.0
  9
$CHAMFERC
 40
0.0
  9
$CHAMFERD
 40
0.0
  9
$SKPOLY
 70
     0
  9
$TDCREATE
 40
2455197.458161459
  9
$TDUCREATE
 40
2455197.666494792
  9
$TDUPDATE
 40
2455904.696855648
  9
$TDUUPDATE
 40
2455904.905188981
  9
$TDINDWG
 40
0.0188225116
  9
$TDUSRTIMER
 40
0.0188223264
  9
$USRTIMER
 70
     1
  9
$ANGBASE
 50
0.0
  9
$ANGDIR
 70
     0
  9
$PDMODE
 70
     0
  9
$PDSIZE
 40
0.0
  9
$PLINEWID
 40
0.0
  9
$SPLFRAME
 70
     0
  9
$SPLINETYPE
 70
     6
  9
$SPLINESEGS
 70
     8
  9
$HANDSEED
  5
969
  9
$SURFTAB1
 70
     6
  9
$SURFTAB2
 70
     6
  9
$SURFTYPE
 70
     6
  9
$SURFU
 70
     6
  9
$SURFV
 70
     6
  9
$UCSBASE
  2

  9
$UCSNAME
  2

  9
$UCSORG
 10
0.0
 20
0.0
 30
0.0
  9
$UCSXDIR
 10
1.0
 20
0.0
 30
0.0
  9
$UCSYDIR
 10
0.0
 20
1.0
 30
0.0
  9
$UCSORTHOREF
  2

  9
$UCSORTHOVIEW
 70
     0
  9
$UCSORGTOP
 10
0.0
 20
0.0
 30
0.0
  9
$UCSORGBOTTOM
 10
0.0
 20
0.0
 30
0.0
  9
$UCSORGLEFT
 10
0.0
 20
0.0
 30
0.0
  9
$UCSORGRIGHT
 10
0.0
 20
0.0
 30
0.0
  9
$UCSORGFRONT
 10
0.0
 20
0.0
 30
0.0
  9
$UCSORGBACK
 10
0.0
 20
0.0
 30
0.0
  9
$PUCSBASE
  2

  9
$PUCSNAME
  2

  9
$PUCSORG
 10
0.0
 20
0.0
 30
0.0
  9
$PUCSXDIR
 10
1.0
 20
0.0
 30
0.0
  9
$PUCSYDIR
 10
0.0
 20
1.0
 30
0.0
  9
$PUCSORTHOREF
  2

  9
$PUCSORTHOVIEW
 70
     0
  9
$PUCSORGTOP
 10
0.0
 20
0.0
 30
0.0
  9
$PUCSORGBOTTOM
 10
0.0
 20
0.0
 30
0.0
  9
$PUCSORGLEFT
 10
0.0
 20
0.0
 30
0.0
  9
$PUCSORGRIGHT
 10
0.0
 20
0.0
 30
0.0
  9
$PUCSORGFRONT
 10
0.0
 20
0.0
 30
0.0
  9
$PUCSORGBACK
 10
0.0
 20
0.0
 30
0.0
  9
$USERI1
 70
     0
  9
$USERI2
 70
     0
  9
$USERI3
 70
     0
  9
$USERI4
 70
     0
  9
$USERI5
 70
     0
  9
$USERR1
 40
0.0
  9
$USERR2
 40
0.0
  9
$USERR3
 40
0.0
  9
$USERR4
 40
0.0
  9
$USERR5
 40
0.0
  9
$WORLDVIEW
 70
     1
  9
$SHADEDGE
 70
     3
  9
$SHADEDIF
 70
    70
  9
$TILEMODE
 70
     1
  9
$MAXACTVP
 70
    64
  9
$PINSBASE
 10
0.0
 20
0.0
 30
0.0
  9
$PLIMCHECK
 70
     0
  9
$PEXTMIN
 10
0.0
 20
0.0
 30
0.0
  9
$PEXTMAX
 10
0.0
 20
0.0
 30
0.0
  9
$PLIMMIN
 10
0.0
 20
0.0
  9
$PLIMMAX
 10
12.0
 20
9.0
  9
$UNITMODE
 70
     0
  9
$VISRETAIN
 70
     1
  9
$PLINEGEN
 70
     0
  9
$PSLTSCALE
 70
     1
  9
$TREEDEPTH
 70
  3020
  9
$CMLSTYLE
  2
Standard
  9
$CMLJUST
 70
     0
  9
$CMLSCALE
 40
1.0
  9
$PROXYGRAPHICS
 70
     1
  9
$MEASUREMENT
 70
     0
  9
$CELWEIGHT
370
    -1
  9
$ENDCAPS
280
     0
  9
$JOINSTYLE
280
     0
  9
$LWDISPLAY
290
     0
  9
$INSUNITS
 70
     1
  9
$HYPERLINKBASE
  1

  9
$STYLESHEET
  1
MONOCHROME.CTB
  9
$XEDIT
290
     1
  9
$CEPSNTYPE
380
     0
  9
$PSTYLEMODE
290
     1
  9
$FINGERPRINTGUID
  2
{FDEAD576-A652-11D2-9A35-0060089B3A3F}
  9
$VERSIONGUID
  2
{52EAA763-61D1-4F47-A32B-CE1C7C4702D1}
  9
$EXTNAMES
290
     1
  9
$PSVPSCALE
 40
0.0
  9
$OLESTARTUP
290
     0
  9
$SORTENTS
280
   127
  9
$INDEXCTL
280
     0
  9
$HIDETEXT
280
     1
  9
$XCLIPFRAME
290
     0
  9
$HALOGAP
280
     0
  9
$OBSCOLOR
 70
   257
  9
$OBSLTYPE
280
     0
  9
$INTERSECTIONDISPLAY
280
     0
  9
$INTERSECTIONCOLOR
 70
   257
  9
$DIMASSOC
280
     2
  9
$PROJECTNAME
  1

  0
ENDSEC
  0
SECTION
  2
CLASSES
  0
CLASS
  1
ACDBDICTIONARYWDFLT
  2
AcDbDictionaryWithDefault
  3
ObjectDBX Classes
 90
        0
 91
        1
280
     0
281
     0
  0
CLASS
  1
DICTIONARYVAR
  2
AcDbDictionaryVar
  3
ObjectDBX Classes
 90
        0
 91
        3
280
     0
281
     0
  0
CLASS
  1
SORTENTSTABLE
  2
AcDbSortentsTable
  3
ObjectDBX Classes
 90
        0
 91
        3
280
     0
281
     0
  0
ENDSEC
  0
SECTION
  2
TABLES
  0
TABLE
  2
VPORT
  5
8
330
0
100
AcDbSymbolTable
 70
     2
  0
VPORT
  5
968
330
8
100
AcDbSymbolTableRecord
100
AcDbViewportTableRecord
  2
*Active
 70
     0
 10
0.0
 20
0.0
 11
1.0
 21
1.0
 12
30.76799198696262
 22
22.60419527144282
 13
0.0
 23
0.0
 14
0.5
 24
0.5
 15
0.5
 25
0.5
 16
0.0
 26
0.0
 36
1.0
 17
0.0
 27
0.0
 37
0.0
 40
29.01432384786324
 41
1.837138508371385
 42
50.0
 43
0.0
 44
0.0
 50
0.0
 51
0.0
 71
     0
 72
  1000
 73
     1
 74
     3
 75
     0
 76
     0
 77
     0
 78
     0
281
     0
 65
     1
110
0.0
120
0.0
130
0.0
111
1.0
121
0.0
131
0.0
112
0.0
122
1.0
132
0.0
 79
     0
146
0.0
  0
ENDTAB
  0
TABLE
  2
LTYPE
  5
5
330
0
100
AcDbSymbolTable
 70
     2
  0
LTYPE
  5
14
330
5
100
AcDbSymbolTableRecord
100
AcDbLinetypeTableRecord
  2
ByBlock
 70
     0
  3

 72
    65
 73
     0
 40
0.0
  0
LTYPE
  5
15
330
5
100
AcDbSymbolTableRecord
100
AcDbLinetypeTableRecord
  2
ByLayer
 70
     0
  3

 72
    65
 73
     0
 40
0.0
  0
LTYPE
  5
16
330
5
100
AcDbSymbolTableRecord
100
AcDbLinetypeTableRecord
  2
Continuous
 70
     0
  3
Solid line
 72
    65
 73
     0
 40
0.0
  0
LTYPE
  5
3AC
330
5
100
AcDbSymbolTableRecord
100
AcDbLinetypeTableRecord
  2
HIDDEN
 70
     0
  3
Hidden __ __ __ __ __ __ __ __ __ __ __ __ __ _
 72
    65
 73
     2
 40
0.375
 49
0.25
 74
     0
 49
-0.125
 74
     0
  0
ENDTAB
  0
TABLE
  2
LAYER
  5
2
102
{ACAD_XDICTIONARY
360
8C
102
}
330
0
100
AcDbSymbolTable
 70
     5
  0
LAYER
  5
10
330
2
100
AcDbSymbolTableRecord
100
AcDbLayerTableRecord
  2
0
 70
     0
 62
     7
  6
Continuous
370
    -3
390
F
  0
LAYER
  5
89
330
2
100
AcDbSymbolTableRecord
100
AcDbLayerTableRecord
  2
TEXT
 70
     0
 62
     7
  6
Continuous
370
    -3
390
F
  0
LAYER
  5
8A
330
2
100
AcDbSymbolTableRecord
100
AcDbLayerTableRecord
  2
BORDER
 70
     0
 62
     1
  6
Continuous
370
    -3
390
F
  0
LAYER
  5
8B
330
2
100
AcDbSymbolTableRecord
100
AcDbLayerTableRecord
  2
DIMENSION
 70
     0
 62
     7
  6
Continuous
370
    -3
390
F
  0
LAYER
  5
3AE
330
2
100
AcDbSymbolTableRecord
100
AcDbLayerTableRecord
  2
Defpoints
 70
     0
 62
     7
  6
Continuous
290
     0
370
    -3
390
F
  0
ENDTAB
  0
TABLE
  2
STYLE
  5
3
330
0
100
AcDbSymbolTable
 70
     1
  0
STYLE
  5
11
330
3
100
AcDbSymbolTableRecord
100
AcDbTextStyleTableRecord
  2
Standard
 70
     0
 40
0.0
 41
1.0
 50
0.0
 71
     0
 42
0.2
  3
txt
  4

  0
ENDTAB
  0
TABLE
  2
VIEW
  5
6
330
0
100
AcDbSymbolTable
 70
     0
  0
ENDTAB
  0
TABLE
  2
UCS
  5
7
330
0
100
AcDbSymbolTable
 70
     0
  0
ENDTAB
  0
TABLE
  2
APPID
  5
9
330
0
100
AcDbSymbolTable
 70
     1
  0
APPID
  5
12
330
9
100
AcDbSymbolTableRecord
100
AcDbRegAppTableRecord
  2
ACAD
 70
     0
  0
ENDTAB
  0
TABLE
  2
DIMSTYLE
  5
A
330
0
100
AcDbSymbolTable
 70
     2
100
AcDbDimStyleTable
 71
     1
340
27
  0
DIMSTYLE
105
27
102
{ACAD_REACTORS
330
821
330
822
330
823
330
824
330
825
330
826
330
827
330
828
330
829
330
82A
330
82B
330
82C
330
82D
330
82E
330
82F
330
831
330
832
330
833
330
834
330
830
102
}
330
A
100
AcDbSymbolTableRecord
100
AcDbDimStyleTableRecord
  2
Standard
 70
     0
340
11
  0
DIMSTYLE
105
594
330
A
100
AcDbSymbolTableRecord
100
AcDbDimStyleTableRecord
  2
half
 70
     0
 42
0.2500000000000002
144
0.5
271
     3
272
     3
340
11
  0
ENDTAB
  0
TABLE
  2
BLOCK_RECORD
  5
1
330
0
100
AcDbSymbolTable
 70
    85
  0
BLOCK_RECORD
  5
1F
330
1
100
AcDbSymbolTableRecord
100
AcDbBlockTableRecord
  2
*Model_Space
340
22
  0
BLOCK_RECORD
  5
58
330
1
100
AcDbSymbolTableRecord
100
AcDbBlockTableRecord
  2
*Paper_Space
340
59
  0
BLOCK_RECORD
  5
5D
330
1
100
AcDbSymbolTableRecord
100
AcDbBlockTableRecord
  2
*Paper_Space0
340
5E
  0
BLOCK_RECORD
  5
304
330
1
100
AcDbSymbolTableRecord
100
AcDbBlockTableRecord
  2
*D1
340
0
  0
BLOCK_RECORD
  5
30C
330
1
100
AcDbSymbolTableRecord
100
AcDbBlockTableRecord
  2
*D2
340
0
  0
BLOCK_RECORD
  5
314
330
1
100
AcDbSymbolTableRecord
100
AcDbBlockTableRecord
  2
*D3
340
0
  0
BLOCK_RECORD
  5
31C
330
1
100
AcDbSymbolTableRecord
100
AcDbBlockTableRecord
  2
*D4
340
0
  0
BLOCK_RECORD
  5
324
330
1
100
AcDbSymbolTableRecord
100
AcDbBlockTableRecord
  2
*D5
340
0
  0
BLOCK_RECORD
  5
32C
330
1
100
AcDbSymbolTableRecord
100
AcDbBlockTableRecord
  2
*D6
340
0
  0
BLOCK_RECORD
  5
334
330
1
100
AcDbSymbolTableRecord
100
AcDbBlockTableRecord
  2
*D7
340
0
  0
BLOCK_RECORD
  5
33C
330
1
100
AcDbSymbolTableRecord
100
AcDbBlockTableRecord
  2
*D8
340
0
  0
BLOCK_RECORD
  5
344
330
1
100
AcDbSymbolTableRecord
100
AcDbBlockTableRecord
  2
*D9
340
0
  0
BLOCK_RECORD
  5
34C
330
1
100
AcDbSymbolTableRecord
100
AcDbBlockTableRecord
  2
*D10
340
0
  0
BLOCK_RECORD
  5
354
330
1
100
AcDbSymbolTableRecord
100
AcDbBlockTableRecord
  2
*D11
340
0
  0
BLOCK_RECORD
  5
35C
330
1
100
AcDbSymbolTableRecord
100
AcDbBlockTableRecord
  2
*D12
340
0
  0
BLOCK_RECORD
  5
364
330
1
100
AcDbSymbolTableRecord
100
AcDbBlockTableRecord
  2
*D13
340
0
  0
BLOCK_RECORD
  5
36C
330
1
100
AcDbSymbolTableRecord
100
AcDbBlockTableRecord
  2
*D14
340
0
  0
BLOCK_RECORD
  5
374
330
1
100
AcDbSymbolTableRecord
100
AcDbBlockTableRecord
  2
*D15
340
0
  0
BLOCK_RECORD
  5
37C
330
1
100
AcDbSymbolTableRecord
100
AcDbBlockTableRecord
  2
*D16
340
0
  0
BLOCK_RECORD
  5
384
330
1
100
AcDbSymbolTableRecord
100
AcDbBlockTableRecord
  2
*D17
340
0
  0
BLOCK_RECORD
  5
38C
330
1
100
AcDbSymbolTableRecord
100
AcDbBlockTableRecord
  2
*D18
340
0
  0
BLOCK_RECORD
  5
397
330
1
100
AcDbSymbolTableRecord
100
AcDbBlockTableRecord
  2
*D19
340
0
  0
BLOCK_RECORD
  5
3A1
330
1
100
AcDbSymbolTableRecord
100
AcDbBlockTableRecord
  2
*D20
340
0
  0
BLOCK_RECORD
  5
401
330
1
100
AcDbSymbolTableRecord
100
AcDbBlockTableRecord
  2
*D21
340
0
  0
BLOCK_RECORD
  5
40C
330
1
100
AcDbSymbolTableRecord
100
AcDbBlockTableRecord
  2
*D22
340
0
  0
BLOCK_RECORD
  5
416
330
1
100
AcDbSymbolTableRecord
100
AcDbBlockTableRecord
  2
*D23
340
0
  0
BLOCK_RECORD
  5
421
330
1
100
AcDbSymbolTableRecord
100
AcDbBlockTableRecord
  2
*D24
340
0
  0
BLOCK_RECORD
  5
429
330
1
100
AcDbSymbolTableRecord
100
AcDbBlockTableRecord
  2
*D25
340
0
  0
BLOCK_RECORD
  5
431
330
1
100
AcDbSymbolTableRecord
100
AcDbBlockTableRecord
  2
*D26
340
0
  0
BLOCK_RECORD
  5
439
330
1
100
AcDbSymbolTableRecord
100
AcDbBlockTableRecord
  2
*D27
340
0
  0
BLOCK_RECORD
  5
441
330
1
100
AcDbSymbolTableRecord
100
AcDbBlockTableRecord
  2
*D28
340
0
  0
BLOCK_RECORD
  5
449
330
1
100
AcDbSymbolTableRecord
100
AcDbBlockTableRecord
  2
*D29
340
0
  0
BLOCK_RECORD
  5
451
330
1
100
AcDbSymbolTableRecord
100
AcDbBlockTableRecord
  2
*D30
340
0
  0
BLOCK_RECORD
  5
459
330
1
100
AcDbSymbolTableRecord
100
AcDbBlockTableRecord
  2
*D31
340
0
  0
BLOCK_RECORD
  5
461
330
1
100
AcDbSymbolTableRecord
100
AcDbBlockTableRecord
  2
*D32
340
0
  0
BLOCK_RECORD
  5
469
330
1
100
AcDbSymbolTableRecord
100
AcDbBlockTableRecord
  2
*D33
340
0
  0
BLOCK_RECORD
  5
471
330
1
100
AcDbSymbolTableRecord
100
AcDbBlockTableRecord
  2
*D34
340
0
  0
BLOCK_RECORD
  5
479
330
1
100
AcDbSymbolTableRecord
100
AcDbBlockTableRecord
  2
*D35
340
0
  0
BLOCK_RECORD
  5
481
330
1
100
AcDbSymbolTableRecord
100
AcDbBlockTableRecord
  2
*D36
340
0
  0
BLOCK_RECORD
  5
489
330
1
100
AcDbSymbolTableRecord
100
AcDbBlockTableRecord
  2
*D37
340
0
  0
BLOCK_RECORD
  5
491
330
1
100
AcDbSymbolTableRecord
100
AcDbBlockTableRecord
  2
*D38
340
0
  0
BLOCK_RECORD
  5
499
330
1
100
AcDbSymbolTableRecord
100
AcDbBlockTableRecord
  2
*D39
340
0
  0
BLOCK_RECORD
  5
4A1
330
1
100
AcDbSymbolTableRecord
100
AcDbBlockTableRecord
  2
*D40
340
0
  0
BLOCK_RECORD
  5
525
330
1
100
AcDbSymbolTableRecord
100
AcDbBlockTableRecord
  2
A$C40424F15
340
0
102
{BLKREFS
331
5C1
102
}
  0
BLOCK_RECORD
  5
52C
102
{ACAD_XDICTIONARY
360
52D
102
}
330
1
100
AcDbSymbolTableRecord
100
AcDbBlockTableRecord
  2
A$C693F27F7
340
0
102
{BLKREFS
331
6A6
102
}
  0
BLOCK_RECORD
  5
53D
102
{ACAD_XDICTIONARY
360
53E
102
}
330
1
100
AcDbSymbolTableRecord
100
AcDbBlockTableRecord
  2
A$C49BF791D
340
0
102
{BLKREFS
331
6A7
102
}
  0
BLOCK_RECORD
  5
595
102
{ACAD_XDICTIONARY
360
6CE
102
}
330
1
100
AcDbSymbolTableRecord
100
AcDbBlockTableRecord
  2
A$C72281AFB
340
0
  0
BLOCK_RECORD
  5
73F
330
1
100
AcDbSymbolTableRecord
100
AcDbBlockTableRecord
  2
*D45
340
0
  0
BLOCK_RECORD
  5
747
330
1
100
AcDbSymbolTableRecord
100
AcDbBlockTableRecord
  2
*D46
340
0
  0
BLOCK_RECORD
  5
74F
330
1
100
AcDbSymbolTableRecord
100
AcDbBlockTableRecord
  2
*D47
340
0
  0
BLOCK_RECORD
  5
757
330
1
100
AcDbSymbolTableRecord
100
AcDbBlockTableRecord
  2
*D48
340
0
  0
BLOCK_RECORD
  5
75F
330
1
100
AcDbSymbolTableRecord
100
AcDbBlockTableRecord
  2
*D49
340
0
  0
BLOCK_RECORD
  5
767
330
1
100
AcDbSymbolTableRecord
100
AcDbBlockTableRecord
  2
*D50
340
0
  0
BLOCK_RECORD
  5
76F
330
1
100
AcDbSymbolTableRecord
100
AcDbBlockTableRecord
  2
*D51
340
0
  0
BLOCK_RECORD
  5
777
330
1
100
AcDbSymbolTableRecord
100
AcDbBlockTableRecord
  2
*D52
340
0
  0
BLOCK_RECORD
  5
77F
330
1
100
AcDbSymbolTableRecord
100
AcDbBlockTableRecord
  2
*D53
340
0
  0
BLOCK_RECORD
  5
787
330
1
100
AcDbSymbolTableRecord
100
AcDbBlockTableRecord
  2
*D54
340
0
  0
BLOCK_RECORD
  5
78F
330
1
100
AcDbSymbolTableRecord
100
AcDbBlockTableRecord
  2
*D55
340
0
  0
BLOCK_RECORD
  5
797
330
1
100
AcDbSymbolTableRecord
100
AcDbBlockTableRecord
  2
*D56
340
0
  0
BLOCK_RECORD
  5
79F
330
1
100
AcDbSymbolTableRecord
100
AcDbBlockTableRecord
  2
*D57
340
0
  0
BLOCK_RECORD
  5
7A7
330
1
100
AcDbSymbolTableRecord
100
AcDbBlockTableRecord
  2
*D58
340
0
  0
BLOCK_RECORD
  5
7AF
330
1
100
AcDbSymbolTableRecord
100
AcDbBlockTableRecord
  2
*D59
340
0
  0
BLOCK_RECORD
  5
7B7
330
1
100
AcDbSymbolTableRecord
100
AcDbBlockTableRecord
  2
*D60
340
0
  0
BLOCK_RECORD
  5
7BF
330
1
100
AcDbSymbolTableRecord
100
AcDbBlockTableRecord
  2
*D61
340
0
  0
BLOCK_RECORD
  5
7C7
330
1
100
AcDbSymbolTableRecord
100
AcDbBlockTableRecord
  2
*D62
340
0
  0
BLOCK_RECORD
  5
7D2
330
1
100
AcDbSymbolTableRecord
100
AcDbBlockTableRecord
  2
*D63
340
0
  0
BLOCK_RECORD
  5
7DA
330
1
100
AcDbSymbolTableRecord
100
AcDbBlockTableRecord
  2
*D64
340
0
  0
BLOCK_RECORD
  5
835
330
1
100
AcDbSymbolTableRecord
100
AcDbBlockTableRecord
  2
*D65
340
0
  0
BLOCK_RECORD
  5
840
330
1
100
AcDbSymbolTableRecord
100
AcDbBlockTableRecord
  2
*D66
340
0
  0
BLOCK_RECORD
  5
848
330
1
100
AcDbSymbolTableRecord
100
AcDbBlockTableRecord
  2
*D67
340
0
  0
BLOCK_RECORD
  5
853
330
1
100
AcDbSymbolTableRecord
100
AcDbBlockTableRecord
  2
*D68
340
0
  0
BLOCK_RECORD
  5
85B
330
1
100
AcDbSymbolTableRecord
100
AcDbBlockTableRecord
  2
*D69
340
0
  0
BLOCK_RECORD
  5
863
330
1
100
AcDbSymbolTableRecord
100
AcDbBlockTableRecord
  2
*D70
340
0
  0
BLOCK_RECORD
  5
86B
330
1
100
AcDbSymbolTableRecord
100
AcDbBlockTableRecord
  2
*D71
340
0
  0
BLOCK_RECORD
  5
873
330
1
100
AcDbSymbolTableRecord
100
AcDbBlockTableRecord
  2
*D72
340
0
  0
BLOCK_RECORD
  5
87B
330
1
100
AcDbSymbolTableRecord
100
AcDbBlockTableRecord
  2
*D73
340
0
  0
BLOCK_RECORD
  5
883
330
1
100
AcDbSymbolTableRecord
100
AcDbBlockTableRecord
  2
*D74
340
0
  0
BLOCK_RECORD
  5
88B
330
1
100
AcDbSymbolTableRecord
100
AcDbBlockTableRecord
  2
*D75
340
0
  0
BLOCK_RECORD
  5
893
330
1
100
AcDbSymbolTableRecord
100
AcDbBlockTableRecord
  2
*D76
340
0
  0
BLOCK_RECORD
  5
89B
330
1
100
AcDbSymbolTableRecord
100
AcDbBlockTableRecord
  2
*D77
340
0
  0
BLOCK_RECORD
  5
8A3
330
1
100
AcDbSymbolTableRecord
100
AcDbBlockTableRecord
  2
*D78
340
0
  0
BLOCK_RECORD
  5
8AB
330
1
100
AcDbSymbolTableRecord
100
AcDbBlockTableRecord
  2
*D79
340
0
  0
BLOCK_RECORD
  5
8B3
330
1
100
AcDbSymbolTableRecord
100
AcDbBlockTableRecord
  2
*D80
340
0
  0
BLOCK_RECORD
  5
8BB
330
1
100
AcDbSymbolTableRecord
100
AcDbBlockTableRecord
  2
*D81
340
0
  0
BLOCK_RECORD
  5
8C3
330
1
100
AcDbSymbolTableRecord
100
AcDbBlockTableRecord
  2
*D82
340
0
  0
BLOCK_RECORD
  5
8CB
330
1
100
AcDbSymbolTableRecord
100
AcDbBlockTableRecord
  2
*D83
340
0
  0
BLOCK_RECORD
  5
8D3
330
1
100
AcDbSymbolTableRecord
100
AcDbBlockTableRecord
  2
*D84
340
0
  0
ENDTAB
  0
ENDSEC
  0
SECTION
  2
BLOCKS
  0
BLOCK
  5
20
330
1F
100
AcDbEntity
  8
0
100
AcDbBlockBegin
  2
*Model_Space
 70
     0
 10
0.0
 20
0.0
 30
0.0
  3
*Model_Space
  1

  0
ENDBLK
  5
21
330
1F
100
AcDbEntity
  8
0
100
AcDbBlockEnd
  0
BLOCK
  5
5A
330
58
100
AcDbEntity
 67
     1
  8
0
100
AcDbBlockBegin
  2
*Paper_Space
 70
     0
 10
0.0
 20
0.0
 30
0.0
  3
*Paper_Space
  1

  0
ENDBLK
  5
5B
330
58
100
AcDbEntity
 67
     1
  8
0
100
AcDbBlockEnd
  0
BLOCK
  5
5F
330
5D
100
AcDbEntity
  8
0
100
AcDbBlockBegin
  2
*Paper_Space0
 70
     0
 10
0.0
 20
0.0
 30
0.0
  3
*Paper_Space0
  1

  0
ENDBLK
  5
60
330
5D
100
AcDbEntity
  8
0
100
AcDbBlockEnd
  0
BLOCK
  5
305
330
304
100
AcDbEntity
  8
0
100
AcDbBlockBegin
  2
*D1
 70
     1
 10
0.0
 20
0.0
 30
0.0
  3
*D1
  1

  0
LINE
  5
306
330
304
100
AcDbEntity
  8
0
 62
     0
370
    -2
100
AcDbLine
 10
30.29892399747958
 20
13.73400268099405
 30
0.0
 11
29.50942108203366
 21
13.73400268099406
 31
0.0
  0
MTEXT
  5
307
330
304
100
AcDbEntity
  8
0
 62
     0
100
AcDbMText
 10
28.84575441536699
 20
13.73400268099406
 30
0.0
 40
0.3442
 41
0.0
 71
     5
 72
     1
  1
\A1;0.000
 73
     1
 44
1.0
1001
ACAD
1000
MTEXTBEGIN
1070
    73
1070
     1
1070
    44
1040
1.0
1070
    74
1070
     0
1000
MTEXTEND
  0
POINT
  5
308
330
304
100
AcDbEntity
  8
Defpoints
 62
     0
100
AcDbPoint
 10
30.54892399747958
 20
13.73400268099405
 30
0.0
  0
POINT
  5
309
330
304
100
AcDbEntity
  8
Defpoints
 62
     0
100
AcDbPoint
 10
29.50942108203366
 20
13.73400268099406
 30
0.0
  0
POINT
  5
30A
330
304
100
AcDbEntity
  8
Defpoints
 62
     0
100
AcDbPoint
 10
30.54892399747956
 20
13.73400268099407
 30
0.0
  0
ENDBLK
  5
30B
330
304
100
AcDbEntity
  8
0
100
AcDbBlockEnd
  0
BLOCK
  5
30D
330
30C
100
AcDbEntity
  8
0
100
AcDbBlockBegin
  2
*D2
 70
     1
 10
0.0
 20
0.0
 30
0.0
  3
*D2
  1

  0
LINE
  5
30E
330
30C
100
AcDbEntity
  8
0
 62
     0
370
    -2
100
AcDbLine
 10
30.54892399747958
 20
13.48400268099405
 30
0.0
 11
30.54892399747958
 21
12.73400268099406
 31
0.0
  0
MTEXT
  5
30F
330
30C
100
AcDbEntity
  8
0
 62
     0
100
AcDbMText
 10
30.54892399747956
 20
12.0703360143274
 30
0.0
 40
0.3442
 41
0.0
 71
     5
 72
     1
  1
\A1;0.000
 11
0.0000000000000001
 21
1.0
 31
0.0
 73
     1
 44
1.0
1001
ACAD
1000
MTEXTBEGIN
1070
    73
1070
     1
1070
    44
1040
1.0
1070
    74
1070
     0
1000
MTEXTEND
  0
POINT
  5
310
330
30C
100
AcDbEntity
  8
Defpoints
 62
     0
100
AcDbPoint
 10
30.54892399747958
 20
13.73400268099405
 30
0.0
  0
POINT
  5
311
330
30C
100
AcDbEntity
  8
Defpoints
 62
     0
100
AcDbPoint
 10
30.54892399747958
 20
12.73400268099406
 30
0.0
  0
POINT
  5
312
330
30C
100
AcDbEntity
  8
Defpoints
 62
     0
100
AcDbPoint
 10
30.54892399747956
 20
13.73400268099407
 30
0.0
  0
ENDBLK
  5
313
330
30C
100
AcDbEntity
  8
0
100
AcDbBlockEnd
  0
BLOCK
  5
315
330
314
100
AcDbEntity
  8
0
100
AcDbBlockBegin
  2
*D3
 70
     1
 10
0.0
 20
0.0
 30
0.0
  3
*D3
  1

  0
LINE
  5
316
330
314
100
AcDbEntity
  8
0
 62
     0
370
    -2
100
AcDbLine
 10
36.97892399747957
 20
14.73400268099406
 30
0.0
 11
38.68942108203366
 21
14.73400268099406
 31
0.0
  0
MTEXT
  5
317
330
314
100
AcDbEntity
  8
0
 62
     0
100
AcDbMText
 10
39.32440441536699
 20
14.73400268099406
 30
0.0
 40
0.3442
 41
0.0
 71
     5
 72
     1
  1
\A1;1.000
 73
     1
 44
1.0
1001
ACAD
1000
MTEXTBEGIN
1070
    73
1070
     1
1070
    44
1040
1.0
1070
    74
1070
     0
1000
MTEXTEND
  0
POINT
  5
318
330
314
100
AcDbEntity
  8
Defpoints
 62
     0
100
AcDbPoint
 10
36.72892399747957
 20
14.73400268099406
 30
0.0
  0
POINT
  5
319
330
314
100
AcDbEntity
  8
Defpoints
 62
     0
100
AcDbPoint
 10
38.68942108203366
 20
14.73400268099406
 30
0.0
  0
POINT
  5
31A
330
314
100
AcDbEntity
  8
Defpoints
 62
     0
100
AcDbPoint
 10
30.54892399747956
 20
13.73400268099407
 30
0.0
  0
ENDBLK
  5
31B
330
314
100
AcDbEntity
  8
0
100
AcDbBlockEnd
  0
BLOCK
  5
31D
330
31C
100
AcDbEntity
  8
0
100
AcDbBlockBegin
  2
*D4
 70
     1
 10
0.0
 20
0.0
 30
0.0
  3
*D4
  1

  0
LINE
  5
31E
330
31C
100
AcDbEntity
  8
0
 62
     0
370
    -2
100
AcDbLine
 10
30.88892399747954
 20
16.39650268099406
 30
0.0
 11
29.50942108203366
 21
16.39650268099406
 31
0.0
  0
MTEXT
  5
31F
330
31C
100
AcDbEntity
  8
0
 62
     0
100
AcDbMText
 10
28.73102108203366
 20
16.39650268099406
 30
0.0
 40
0.3442
 41
0.0
 71
     5
 72
     1
  1
\A1;2.662
 73
     1
 44
1.0
1001
ACAD
1000
MTEXTBEGIN
1070
    73
1070
     1
1070
    44
1040
1.0
1070
    74
1070
     0
1000
MTEXTEND
  0
POINT
  5
320
330
31C
100
AcDbEntity
  8
Defpoints
 62
     0
100
AcDbPoint
 10
31.13892399747954
 20
16.39650268099406
 30
0.0
  0
POINT
  5
321
330
31C
100
AcDbEntity
  8
Defpoints
 62
     0
100
AcDbPoint
 10
29.50942108203366
 20
16.39650268099406
 30
0.0
  0
POINT
  5
322
330
31C
100
AcDbEntity
  8
Defpoints
 62
     0
100
AcDbPoint
 10
30.54892399747956
 20
13.73400268099407
 30
0.0
  0
ENDBLK
  5
323
330
31C
100
AcDbEntity
  8
0
100
AcDbBlockEnd
  0
BLOCK
  5
325
330
324
100
AcDbEntity
  8
0
100
AcDbBlockBegin
  2
*D5
 70
     1
 10
0.0
 20
0.0
 30
0.0
  3
*D5
  1

  0
LINE
  5
326
330
324
100
AcDbEntity
  8
0
 62
     0
370
    -2
100
AcDbLine
 10
30.88892399747953
 20
19.14650268099405
 30
0.0
 11
29.50942108203366
 21
19.14650268099405
 31
0.0
  0
MTEXT
  5
327
330
324
100
AcDbEntity
  8
0
 62
     0
100
AcDbMText
 10
28.78838774870033
 20
19.14650268099405
 30
0.0
 40
0.3442
 41
0.0
 71
     5
 72
     1
  1
\A1;5.412
 73
     1
 44
1.0
1001
ACAD
1000
MTEXTBEGIN
1070
    73
1070
     1
1070
    44
1040
1.0
1070
    74
1070
     0
1000
MTEXTEND
  0
POINT
  5
328
330
324
100
AcDbEntity
  8
Defpoints
 62
     0
100
AcDbPoint
 10
31.13892399747954
 20
19.14650268099405
 30
0.0
  0
POINT
  5
329
330
324
100
AcDbEntity
  8
Defpoints
 62
     0
100
AcDbPoint
 10
29.50942108203366
 20
19.14650268099405
 30
0.0
  0
POINT
  5
32A
330
324
100
AcDbEntity
  8
Defpoints
 62
     0
100
AcDbPoint
 10
30.54892399747956
 20
13.73400268099407
 30
0.0
  0
ENDBLK
  5
32B
330
324
100
AcDbEntity
  8
0
100
AcDbBlockEnd
  0
BLOCK
  5
32D
330
32C
100
AcDbEntity
  8
0
100
AcDbBlockBegin
  2
*D6
 70
     1
 10
0.0
 20
0.0
 30
0.0
  3
*D6
  1

  0
LINE
  5
32E
330
32C
100
AcDbEntity
  8
0
 62
     0
370
    -2
100
AcDbLine
 10
31.5489239974795
 20
14.48400268099407
 30
0.0
 11
31.5489239974795
 21
12.73400268099406
 31
0.0
  0
MTEXT
  5
32F
330
32C
100
AcDbEntity
  8
0
 62
     0
100
AcDbMText
 10
31.5489239974795
 20
11.52535268099406
 30
0.0
 40
0.3442
 41
0.0
 71
     5
 72
     1
  1
\A1;(2) 1.000
 11
0.0000000000000001
 21
1.0
 31
0.0
 73
     1
 44
1.0
1001
ACAD
1000
MTEXTBEGIN
1070
    73
1070
     1
1070
    44
1040
1.0
1070
    74
1070
     0
1000
MTEXTEND
  0
POINT
  5
330
330
32C
100
AcDbEntity
  8
Defpoints
 62
     0
100
AcDbPoint
 10
31.5489239974795
 20
14.73400268099406
 30
0.0
  0
POINT
  5
331
330
32C
100
AcDbEntity
  8
Defpoints
 62
     0
100
AcDbPoint
 10
31.5489239974795
 20
12.73400268099406
 30
0.0
  0
POINT
  5
332
330
32C
100
AcDbEntity
  8
Defpoints
 62
     0
100
AcDbPoint
 10
30.54892399747956
 20
13.73400268099407
 30
0.0
  0
ENDBLK
  5
333
330
32C
100
AcDbEntity
  8
0
100
AcDbBlockEnd
  0
BLOCK
  5
335
330
334
100
AcDbEntity
  8
0
100
AcDbBlockBegin
  2
*D7
 70
     1
 10
0.0
 20
0.0
 30
0.0
  3
*D7
  1

  0
LINE
  5
336
330
334
100
AcDbEntity
  8
0
 62
     0
370
    -2
100
AcDbLine
 10
36.72892399747957
 20
14.48400268099407
 30
0.0
 11
36.72892399747957
 21
12.73400268099406
 31
0.0
  0
MTEXT
  5
337
330
334
100
AcDbEntity
  8
0
 62
     0
100
AcDbMText
 10
36.72892399747957
 20
11.4679860143274
 30
0.0
 40
0.3442
 41
0.0
 71
     5
 72
     1
  1
\A1;(2) 6.180
 11
0.0000000000000001
 21
1.0
 31
0.0
 73
     1
 44
1.0
1001
ACAD
1000
MTEXTBEGIN
1070
    73
1070
     1
1070
    44
1040
1.0
1070
    74
1070
     0
1000
MTEXTEND
  0
POINT
  5
338
330
334
100
AcDbEntity
  8
Defpoints
 62
     0
100
AcDbPoint
 10
36.72892399747957
 20
14.73400268099406
 30
0.0
  0
POINT
  5
339
330
334
100
AcDbEntity
  8
Defpoints
 62
     0
100
AcDbPoint
 10
36.72892399747957
 20
12.73400268099406
 30
0.0
  0
POINT
  5
33A
330
334
100
AcDbEntity
  8
Defpoints
 62
     0
100
AcDbPoint
 10
30.54892399747956
 20
13.73400268099407
 30
0.0
  0
ENDBLK
  5
33B
330
334
100
AcDbEntity
  8
0
100
AcDbBlockEnd
  0
BLOCK
  5
33D
330
33C
100
AcDbEntity
  8
0
100
AcDbBlockBegin
  2
*D8
 70
     1
 10
0.0
 20
0.0
 30
0.0
  3
*D8
  1

  0
LINE
  5
33E
330
33C
100
AcDbEntity
  8
0
 62
     0
370
    -2
100
AcDbLine
 10
31.13892399747954
 20
19.39650268099406
 30
0.0
 11
31.13892399747954
 21
20.39650268099405
 31
0.0
  0
MTEXT
  5
33F
330
33C
100
AcDbEntity
  8
0
 62
     0
100
AcDbMText
 10
31.13892399747954
 20
21.11753601432738
 30
0.0
 40
0.3442
 41
0.0
 71
     5
 72
     1
  1
\A1;0.590
 11
0.0000000000000001
 21
1.0
 31
0.0
 73
     1
 44
1.0
1001
ACAD
1000
MTEXTBEGIN
1070
    73
1070
     1
1070
    44
1040
1.0
1070
    74
1070
     0
1000
MTEXTEND
  0
POINT
  5
340
330
33C
100
AcDbEntity
  8
Defpoints
 62
     0
100
AcDbPoint
 10
31.13892399747954
 20
19.14650268099405
 30
0.0
  0
POINT
  5
341
330
33C
100
AcDbEntity
  8
Defpoints
 62
     0
100
AcDbPoint
 10
31.13892399747954
 20
20.39650268099405
 30
0.0
  0
POINT
  5
342
330
33C
100
AcDbEntity
  8
Defpoints
 62
     0
100
AcDbPoint
 10
30.54892399747956
 20
13.73400268099407
 30
0.0
  0
ENDBLK
  5
343
330
33C
100
AcDbEntity
  8
0
100
AcDbBlockEnd
  0
BLOCK
  5
345
330
344
100
AcDbEntity
  8
0
100
AcDbBlockBegin
  2
*D9
 70
     1
 10
0.0
 20
0.0
 30
0.0
  3
*D9
  1

  0
LINE
  5
346
330
344
100
AcDbEntity
  8
0
 62
     0
370
    -2
100
AcDbLine
 10
37.13892399747954
 20
19.39650268099406
 30
0.0
 11
37.13892399747954
 21
20.39650268099405
 31
0.0
  0
MTEXT
  5
347
330
344
100
AcDbEntity
  8
0
 62
     0
100
AcDbMText
 10
37.13892399747953
 20
21.14621934766072
 30
0.0
 40
0.3442
 41
0.0
 71
     5
 72
     1
  1
\A1;6.590
 11
0.0000000000000001
 21
1.0
 31
0.0
 73
     1
 44
1.0
1001
ACAD
1000
MTEXTBEGIN
1070
    73
1070
     1
1070
    44
1040
1.0
1070
    74
1070
     0
1000
MTEXTEND
  0
POINT
  5
348
330
344
100
AcDbEntity
  8
Defpoints
 62
     0
100
AcDbPoint
 10
37.13892399747954
 20
19.14650268099405
 30
0.0
  0
POINT
  5
349
330
344
100
AcDbEntity
  8
Defpoints
 62
     0
100
AcDbPoint
 10
37.13892399747954
 20
20.39650268099405
 30
0.0
  0
POINT
  5
34A
330
344
100
AcDbEntity
  8
Defpoints
 62
     0
100
AcDbPoint
 10
30.54892399747956
 20
13.73400268099407
 30
0.0
  0
ENDBLK
  5
34B
330
344
100
AcDbEntity
  8
0
100
AcDbBlockEnd
  0
BLOCK
  5
34D
330
34C
100
AcDbEntity
  8
0
100
AcDbBlockBegin
  2
*D10
 70
     1
 10
0.0
 20
0.0
 30
0.0
  3
*D10
  1

  0
LINE
  5
34E
330
34C
100
AcDbEntity
  8
0
 62
     0
370
    -2
100
AcDbLine
 10
31.88892399747954
 20
27.94025268099406
 30
0.0
 11
31.88892399747954
 21
29.23400268099406
 31
0.0
  0
MTEXT
  5
34F
330
34C
100
AcDbEntity
  8
0
 62
     0
100
AcDbMText
 10
31.88892399747953
 20
29.92635268099407
 30
0.0
 40
0.3442
 41
0.0
 71
     5
 72
     1
  1
\A1;1.340
 11
0.0000000000000001
 21
1.0
 31
0.0
 73
     1
 44
1.0
1001
ACAD
1000
MTEXTBEGIN
1070
    73
1070
     1
1070
    44
1040
1.0
1070
    74
1070
     0
1000
MTEXTEND
  0
POINT
  5
350
330
34C
100
AcDbEntity
  8
Defpoints
 62
     0
100
AcDbPoint
 10
31.88892399747954
 20
27.69025268099406
 30
0.0
  0
POINT
  5
351
330
34C
100
AcDbEntity
  8
Defpoints
 62
     0
100
AcDbPoint
 10
31.88892399747954
 20
29.23400268099406
 30
0.0
  0
POINT
  5
352
330
34C
100
AcDbEntity
  8
Defpoints
 62
     0
100
AcDbPoint
 10
30.54892399747956
 20
13.73400268099407
 30
0.0
  0
ENDBLK
  5
353
330
34C
100
AcDbEntity
  8
0
100
AcDbBlockEnd
  0
BLOCK
  5
355
330
354
100
AcDbEntity
  8
0
100
AcDbBlockBegin
  2
*D11
 70
     1
 10
0.0
 20
0.0
 30
0.0
  3
*D11
  1

  0
LINE
  5
356
330
354
100
AcDbEntity
  8
0
 62
     0
370
    -2
100
AcDbLine
 10
36.38892399747954
 20
27.94025268099406
 30
0.0
 11
36.38892399747954
 21
29.23400268099408
 31
0.0
  0
MTEXT
  5
357
330
354
100
AcDbEntity
  8
0
 62
     0
100
AcDbMText
 10
36.38892399747953
 20
29.98371934766075
 30
0.0
 40
0.3442
 41
0.0
 71
     5
 72
     1
  1
\A1;5.840
 11
0.0000000000000001
 21
1.0
 31
0.0
 73
     1
 44
1.0
1001
ACAD
1000
MTEXTBEGIN
1070
    73
1070
     1
1070
    44
1040
1.0
1070
    74
1070
     0
1000
MTEXTEND
  0
POINT
  5
358
330
354
100
AcDbEntity
  8
Defpoints
 62
     0
100
AcDbPoint
 10
36.38892399747954
 20
27.69025268099406
 30
0.0
  0
POINT
  5
359
330
354
100
AcDbEntity
  8
Defpoints
 62
     0
100
AcDbPoint
 10
36.38892399747954
 20
29.23400268099408
 30
0.0
  0
POINT
  5
35A
330
354
100
AcDbEntity
  8
Defpoints
 62
     0
100
AcDbPoint
 10
30.54892399747956
 20
13.73400268099407
 30
0.0
  0
ENDBLK
  5
35B
330
354
100
AcDbEntity
  8
0
100
AcDbBlockEnd
  0
BLOCK
  5
35D
330
35C
100
AcDbEntity
  8
0
100
AcDbBlockBegin
  2
*D12
 70
     1
 10
0.0
 20
0.0
 30
0.0
  3
*D12
  1

  0
LINE
  5
35E
330
35C
100
AcDbEntity
  8
0
 62
     0
370
    -2
100
AcDbLine
 10
36.97892399747957
 20
27.48400268099407
 30
0.0
 11
38.68942108203366
 21
27.48400268099406
 31
0.0
  0
MTEXT
  5
35F
330
35C
100
AcDbEntity
  8
0
 62
     0
100
AcDbMText
 10
39.55387108203366
 20
27.48400268099406
 30
0.0
 40
0.3442
 41
0.0
 71
     5
 72
     1
  1
\A1;13.750
 73
     1
 44
1.0
1001
ACAD
1000
MTEXTBEGIN
1070
    73
1070
     1
1070
    44
1040
1.0
1070
    74
1070
     0
1000
MTEXTEND
  0
POINT
  5
360
330
35C
100
AcDbEntity
  8
Defpoints
 62
     0
100
AcDbPoint
 10
36.72892399747957
 20
27.48400268099407
 30
0.0
  0
POINT
  5
361
330
35C
100
AcDbEntity
  8
Defpoints
 62
     0
100
AcDbPoint
 10
38.68942108203366
 20
27.48400268099406
 30
0.0
  0
POINT
  5
362
330
35C
100
AcDbEntity
  8
Defpoints
 62
     0
100
AcDbPoint
 10
30.54892399747956
 20
13.73400268099407
 30
0.0
  0
ENDBLK
  5
363
330
35C
100
AcDbEntity
  8
0
100
AcDbBlockEnd
  0
BLOCK
  5
365
330
364
100
AcDbEntity
  8
0
100
AcDbBlockBegin
  2
*D13
 70
     1
 10
0.0
 20
0.0
 30
0.0
  3
*D13
  1

  0
LINE
  5
366
330
364
100
AcDbEntity
  8
0
 62
     0
370
    -2
100
AcDbLine
 10
36.93942108203368
 20
24.76314016275745
 30
0.0
 11
38.68942108203366
 21
24.76314016275745
 31
0.0
  0
MTEXT
  5
367
330
364
100
AcDbEntity
  8
0
 62
     0
100
AcDbMText
 10
39.49650441536699
 20
24.76314016275745
 30
0.0
 40
0.3442
 41
0.0
 71
     5
 72
     1
  1
\A1;11.029
 73
     1
 44
1.0
1001
ACAD
1000
MTEXTBEGIN
1070
    73
1070
     1
1070
    44
1040
1.0
1070
    74
1070
     0
1000
MTEXTEND
  0
POINT
  5
368
330
364
100
AcDbEntity
  8
Defpoints
 62
     0
100
AcDbPoint
 10
36.68942108203367
 20
24.76314016275745
 30
0.0
  0
POINT
  5
369
330
364
100
AcDbEntity
  8
Defpoints
 62
     0
100
AcDbPoint
 10
38.68942108203366
 20
24.76314016275745
 30
0.0
  0
POINT
  5
36A
330
364
100
AcDbEntity
  8
Defpoints
 62
     0
100
AcDbPoint
 10
30.54892399747956
 20
13.73400268099407
 30
0.0
  0
ENDBLK
  5
36B
330
364
100
AcDbEntity
  8
0
100
AcDbBlockEnd
  0
BLOCK
  5
36D
330
36C
100
AcDbEntity
  8
0
100
AcDbBlockBegin
  2
*D14
 70
     1
 10
0.0
 20
0.0
 30
0.0
  3
*D14
  1

  0
LINE
  5
36E
330
36C
100
AcDbEntity
  8
0
 62
     0
370
    -2
100
AcDbLine
 10
31.63892399747954
 20
25.56525268099406
 30
0.0
 11
29.50942108203367
 21
25.56525268099406
 31
0.0
  0
MTEXT
  5
36F
330
36C
100
AcDbEntity
  8
0
 62
     0
100
AcDbMText
 10
28.73102108203367
 20
25.56525268099406
 30
0.0
 40
0.3442
 41
0.0
 71
     5
 72
     1
  1
\A1;11.831
 73
     1
 44
1.0
1001
ACAD
1000
MTEXTBEGIN
1070
    73
1070
     1
1070
    44
1040
1.0
1070
    74
1070
     0
1000
MTEXTEND
  0
POINT
  5
370
330
36C
100
AcDbEntity
  8
Defpoints
 62
     0
100
AcDbPoint
 10
31.88892399747954
 20
25.56525268099406
 30
0.0
  0
POINT
  5
371
330
36C
100
AcDbEntity
  8
Defpoints
 62
     0
100
AcDbPoint
 10
29.50942108203367
 20
25.56525268099406
 30
0.0
  0
POINT
  5
372
330
36C
100
AcDbEntity
  8
Defpoints
 62
     0
100
AcDbPoint
 10
30.54892399747956
 20
13.73400268099407
 30
0.0
  0
ENDBLK
  5
373
330
36C
100
AcDbEntity
  8
0
100
AcDbBlockEnd
  0
BLOCK
  5
375
330
374
100
AcDbEntity
  8
0
100
AcDbBlockBegin
  2
*D15
 70
     1
 10
0.0
 20
0.0
 30
0.0
  3
*D15
  1

  0
LINE
  5
376
330
374
100
AcDbEntity
  8
0
 62
     0
370
    -2
100
AcDbLine
 10
31.63892399747954
 20
27.69025268099406
 30
0.0
 11
29.50942108203367
 21
27.69025268099406
 31
0.0
  0
MTEXT
  5
377
330
374
100
AcDbEntity
  8
0
 62
     0
100
AcDbMText
 10
28.61628774870032
 20
27.69025268099406
 30
0.0
 40
0.3442
 41
0.0
 71
     5
 72
     1
  1
\A1;13.956
 73
     1
 44
1.0
1001
ACAD
1000
MTEXTBEGIN
1070
    73
1070
     1
1070
    44
1040
1.0
1070
    74
1070
     0
1000
MTEXTEND
  0
POINT
  5
378
330
374
100
AcDbEntity
  8
Defpoints
 62
     0
100
AcDbPoint
 10
31.88892399747954
 20
27.69025268099406
 30
0.0
  0
POINT
  5
379
330
374
100
AcDbEntity
  8
Defpoints
 62
     0
100
AcDbPoint
 10
29.50942108203367
 20
27.69025268099406
 30
0.0
  0
POINT
  5
37A
330
374
100
AcDbEntity
  8
Defpoints
 62
     0
100
AcDbPoint
 10
30.54892399747956
 20
13.73400268099407
 30
0.0
  0
ENDBLK
  5
37B
330
374
100
AcDbEntity
  8
0
100
AcDbBlockEnd
  0
BLOCK
  5
37D
330
37C
100
AcDbEntity
  8
0
100
AcDbBlockBegin
  2
*D16
 70
     1
 10
0.0
 20
0.0
 30
0.0
  3
*D16
  1

  0
LINE
  5
37E
330
37C
100
AcDbEntity
  8
0
 62
     0
370
    -2
100
AcDbLine
 10
37.68942108203366
 20
28.48400268099408
 30
0.0
 11
37.68942108203366
 21
29.23400268099408
 31
0.0
  0
MTEXT
  5
37F
330
37C
100
AcDbEntity
  8
0
 62
     0
100
AcDbMText
 10
37.68942108203365
 20
29.92635268099407
 30
0.0
 40
0.3442
 41
0.0
 71
     5
 72
     1
  1
\A1;7.140
 11
0.0000000000000001
 21
1.0
 31
0.0
 73
     1
 44
1.0
1001
ACAD
1000
MTEXTBEGIN
1070
    73
1070
     1
1070
    44
1040
1.0
1070
    74
1070
     0
1000
MTEXTEND
  0
POINT
  5
380
330
37C
100
AcDbEntity
  8
Defpoints
 62
     0
100
AcDbPoint
 10
37.68942108203366
 20
28.23400268099408
 30
0.0
  0
POINT
  5
381
330
37C
100
AcDbEntity
  8
Defpoints
 62
     0
100
AcDbPoint
 10
37.68942108203366
 20
29.23400268099408
 30
0.0
  0
POINT
  5
382
330
37C
100
AcDbEntity
  8
Defpoints
 62
     0
100
AcDbPoint
 10
30.54892399747956
 20
13.73400268099407
 30
0.0
  0
ENDBLK
  5
383
330
37C
100
AcDbEntity
  8
0
100
AcDbBlockEnd
  0
BLOCK
  5
385
330
384
100
AcDbEntity
  8
0
100
AcDbBlockBegin
  2
*D17
 70
     1
 10
0.0
 20
0.0
 30
0.0
  3
*D17
  1

  0
LINE
  5
386
330
384
100
AcDbEntity
  8
0
 62
     0
370
    -2
100
AcDbLine
 10
37.93942108203366
 20
28.23400268099407
 30
0.0
 11
38.68942108203366
 21
28.23400268099407
 31
0.0
  0
MTEXT
  5
387
330
384
100
AcDbEntity
  8
0
 62
     0
100
AcDbMText
 10
39.52518774870032
 20
28.23400268099407
 30
0.0
 40
0.3442
 41
0.0
 71
     5
 72
     1
  1
\A1;14.500
 73
     1
 44
1.0
1001
ACAD
1000
MTEXTBEGIN
1070
    73
1070
     1
1070
    44
1040
1.0
1070
    74
1070
     0
1000
MTEXTEND
  0
POINT
  5
388
330
384
100
AcDbEntity
  8
Defpoints
 62
     0
100
AcDbPoint
 10
37.68942108203366
 20
28.23400268099407
 30
0.0
  0
POINT
  5
389
330
384
100
AcDbEntity
  8
Defpoints
 62
     0
100
AcDbPoint
 10
38.68942108203366
 20
28.23400268099407
 30
0.0
  0
POINT
  5
38A
330
384
100
AcDbEntity
  8
Defpoints
 62
     0
100
AcDbPoint
 10
30.54892399747956
 20
13.73400268099407
 30
0.0
  0
ENDBLK
  5
38B
330
384
100
AcDbEntity
  8
0
100
AcDbBlockEnd
  0
BLOCK
  5
38D
330
38C
100
AcDbEntity
  8
0
100
AcDbBlockBegin
  2
*D18
 70
     1
 10
0.0
 20
0.0
 30
0.0
  3
*D18
  1

  0
LINE
  5
38E
330
38C
100
AcDbEntity
  8
0
 62
     0
370
    -2
100
AcDbLine
 10
38.8231239974796
 20
25.91106447353951
 30
0.0
 11
38.4789239974796
 21
25.91106447353951
 31
0.0
  0
LINE
  5
38F
330
38C
100
AcDbEntity
  8
0
 62
     0
370
    -2
100
AcDbLine
 10
38.4789239974796
 20
25.91106447353951
 30
0.0
 11
37.12436507205721
 21
27.12857160956547
 31
0.0
  0
MTEXT
  5
390
330
38C
100
AcDbEntity
  8
0
 62
     0
100
AcDbMText
 10
40.31860733081293
 20
25.91106447353951
 30
0.0
 40
0.3442
 41
0.0
 71
     5
 72
     1
  1
\A1;\U+22050.375 (4)
 73
     1
 44
1.0
1001
ACAD
1000
MTEXTBEGIN
1070
    73
1070
     1
1070
    44
1040
1.0
1070
    74
1070
     0
1000
MTEXTEND
  0
SOLID
  5
391
330
38C
100
AcDbEntity
  8
0
 62
     0
100
AcDbTrace
 10
37.16271356894949
 20
27.17123690260967
 30
0.0
 11
37.08601657516494
 21
27.08590631652127
 31
0.0
 12
36.86837331379198
 22
27.3586625909191
 32
0.0
 13
36.86837331379198
 23
27.3586625909191
 33
0.0
  0
LINE
  5
392
330
38C
100
AcDbEntity
  8
0
 62
     0
370
    -2
100
AcDbLine
 10
36.63892399747957
 20
27.48400268099407
 30
0.0
 11
36.81892399747957
 21
27.48400268099406
 31
0.0
  0
LINE
  5
393
330
38C
100
AcDbEntity
  8
0
 62
     0
370
    -2
100
AcDbLine
 10
36.72892399747957
 20
27.39400268099407
 30
0.0
 11
36.72892399747957
 21
27.57400268099406
 31
0.0
  0
POINT
  5
394
330
38C
100
AcDbEntity
  8
Defpoints
 62
     0
100
AcDbPoint
 10
36.86837331379198
 20
27.3586625909191
 30
0.0
  0
POINT
  5
395
330
38C
100
AcDbEntity
  8
Defpoints
 62
     0
100
AcDbPoint
 10
36.58947468116716
 20
27.60934277106904
 30
0.0
  0
ENDBLK
  5
396
330
38C
100
AcDbEntity
  8
0
100
AcDbBlockEnd
  0
BLOCK
  5
398
330
397
100
AcDbEntity
  8
0
100
AcDbBlockBegin
  2
*D19
 70
     1
 10
0.0
 20
0.0
 30
0.0
  3
*D19
  1

  0
LINE
  5
399
330
397
100
AcDbEntity
  8
0
 62
     0
370
    -2
100
AcDbLine
 10
36.68942108203367
 20
24.51314016275745
 30
0.0
 11
36.68942108203367
 21
24.07474016275745
 31
0.0
  0
LINE
  5
39A
330
397
100
AcDbEntity
  8
0
 62
     0
370
    -2
100
AcDbLine
 10
36.68942108203367
 20
24.07474016275745
 30
0.0
 11
35.75012301384862
 21
23.50576087246972
 31
0.0
  0
LINE
  5
39B
330
397
100
AcDbEntity
  8
0
 62
     0
370
    -2
100
AcDbLine
 10
35.75012301384862
 20
23.50576087246972
 30
0.0
 11
35.75012301384862
 21
22.81736087246972
 31
0.0
  0
MTEXT
  5
39C
330
397
100
AcDbEntity
  8
0
 62
     0
100
AcDbMText
 10
35.75012301384862
 20
22.12501087246972
 30
0.0
 40
0.3442
 41
0.0
 71
     5
 72
     1
  1
\A1;6.140
 11
0.0000000000000001
 21
1.0
 31
0.0
 73
     1
 44
1.0
1001
ACAD
1000
MTEXTBEGIN
1070
    73
1070
     1
1070
    44
1040
1.0
1070
    74
1070
     0
1000
MTEXTEND
  0
POINT
  5
39D
330
397
100
AcDbEntity
  8
Defpoints
 62
     0
100
AcDbPoint
 10
36.68942108203367
 20
24.76314016275745
 30
0.0
  0
POINT
  5
39E
330
397
100
AcDbEntity
  8
Defpoints
 62
     0
100
AcDbPoint
 10
35.75012301384862
 20
22.81736087246972
 30
0.0
  0
POINT
  5
39F
330
397
100
AcDbEntity
  8
Defpoints
 62
     0
100
AcDbPoint
 10
30.54892399747956
 20
13.73400268099407
 30
0.0
  0
ENDBLK
  5
3A0
330
397
100
AcDbEntity
  8
0
100
AcDbBlockEnd
  0
BLOCK
  5
3A2
330
3A1
100
AcDbEntity
  8
0
100
AcDbBlockBegin
  2
*D20
 70
     1
 10
0.0
 20
0.0
 30
0.0
  3
*D20
  1

  0
LINE
  5
3A3
330
3A1
100
AcDbEntity
  8
0
 62
     0
370
    -2
100
AcDbLine
 10
39.03362108203369
 20
22.50098426420322
 30
0.0
 11
38.68942108203369
 21
22.50098426420322
 31
0.0
  0
LINE
  5
3A4
330
3A1
100
AcDbEntity
  8
0
 62
     0
370
    -2
100
AcDbLine
 10
38.68942108203369
 20
22.50098426420322
 30
0.0
 11
37.33138276081304
 21
24.0370314636092
 31
0.0
  0
MTEXT
  5
3A5
330
3A1
100
AcDbEntity
  8
0
 62
     0
100
AcDbMText
 10
39.89807108203369
 20
22.50098426420322
 30
0.0
 40
0.3442
 41
0.0
 71
     5
 72
     1
  1
\A1;\U+22051.250
 73
     1
 44
1.0
1001
ACAD
1000
MTEXTBEGIN
1070
    73
1070
     1
1070
    44
1040
1.0
1070
    74
1070
     0
1000
MTEXTEND
  0
SOLID
  5
3A6
330
3A1
100
AcDbEntity
  8
0
 62
     0
100
AcDbTrace
 10
37.37436092394533
 20
24.07502898903152
 30
0.0
 11
37.28840459768078
 21
23.99903393818688
 31
0.0
 12
37.10339760827915
 22
24.29490044240288
 32
0.0
 13
37.10339760827915
 23
24.29490044240288
 33
0.0
  0
LINE
  5
3A7
330
3A1
100
AcDbEntity
  8
0
 62
     0
370
    -2
100
AcDbLine
 10
36.59942108203368
 20
24.76314016275746
 30
0.0
 11
36.7794210820337
 21
24.76314016275746
 31
0.0
  0
LINE
  5
3A8
330
3A1
100
AcDbEntity
  8
0
 62
     0
370
    -2
100
AcDbLine
 10
36.68942108203368
 20
24.67314016275746
 30
0.0
 11
36.68942108203368
 21
24.85314016275746
 31
0.0
  0
POINT
  5
3A9
330
3A1
100
AcDbEntity
  8
Defpoints
 62
     0
100
AcDbPoint
 10
37.10339760827915
 20
24.29490044240288
 30
0.0
  0
POINT
  5
3AA
330
3A1
100
AcDbEntity
  8
Defpoints
 62
     0
100
AcDbPoint
 10
36.27544455578822
 20
25.23137988311205
 30
0.0
  0
ENDBLK
  5
3AB
330
3A1
100
AcDbEntity
  8
0
100
AcDbBlockEnd
  0
BLOCK
  5
40A
330
401
100
AcDbEntity
  8
0
100
AcDbBlockBegin
  2
*D21
 70
     1
 10
0.0
 20
0.0
 30
0.0
  3
*D21
  1

  0
LINE
  5
737
330
401
100
AcDbEntity
  8
0
 62
     0
370
    -2
100
AcDbLine
 10
10.92170336643994
 20
24.56010855078937
 30
0.0
 11
10.57750336643995
 21
24.56010855078937
 31
0.0
  0
LINE
  5
738
330
401
100
AcDbEntity
  8
0
 62
     0
370
    -2
100
AcDbLine
 10
10.57750336643995
 20
24.56010855078937
 30
0.0
 11
9.219465045219301
 21
26.09615575019537
 31
0.0
  0
MTEXT
  5
739
330
401
100
AcDbEntity
  8
0
 62
     0
100
AcDbMText
 10
11.78615336643995
 20
24.56010855078937
 30
0.0
 40
0.3442
 41
0.0
 71
     5
 72
     1
  1
\A1;\U+22051.250
 73
     1
 44
1.0
1001
ACAD
1000
MTEXTBEGIN
1070
    73
1070
     1
1070
    44
1040
1.0
1070
    74
1070
     0
1000
MTEXTEND
  0
SOLID
  5
73A
330
401
100
AcDbEntity
  8
0
 62
     0
100
AcDbTrace
 10
9.262443208351578
 20
26.13415327561769
 30
0.0
 11
9.176486882087019
 21
26.05815822477305
 31
0.0
 12
8.991479892685397
 22
26.35402472898905
 32
0.0
 13
8.991479892685397
 23
26.35402472898905
 33
0.0
  0
LINE
  5
73B
330
401
100
AcDbEntity
  8
0
 62
     0
370
    -2
100
AcDbLine
 10
8.487503366439932
 20
26.82226444934363
 30
0.0
 11
8.667503366439932
 21
26.82226444934363
 31
0.0
  0
LINE
  5
73C
330
401
100
AcDbEntity
  8
0
 62
     0
370
    -2
100
AcDbLine
 10
8.577503366439932
 20
26.73226444934363
 30
0.0
 11
8.577503366439929
 21
26.91226444934363
 31
0.0
  0
POINT
  5
73D
330
401
100
AcDbEntity
  8
Defpoints
 62
     0
100
AcDbPoint
 10
8.991479892685397
 20
26.35402472898905
 30
0.0
  0
POINT
  5
73E
330
401
100
AcDbEntity
  8
Defpoints
 62
     0
100
AcDbPoint
 10
8.163526840194466
 20
27.29050416969821
 30
0.0
  0
ENDBLK
  5
40B
330
401
100
AcDbEntity
  8
0
100
AcDbBlockEnd
  0
BLOCK
  5
414
330
40C
100
AcDbEntity
  8
0
100
AcDbBlockBegin
  2
*D22
 70
     1
 10
0.0
 20
0.0
 30
0.0
  3
*D22
  1

  0
LINE
  5
730
330
40C
100
AcDbEntity
  8
0
 62
     0
370
    -2
100
AcDbLine
 10
8.577503366439916
 20
26.57226444934361
 30
0.0
 11
8.577503366439916
 21
26.13386444934361
 31
0.0
  0
LINE
  5
731
330
40C
100
AcDbEntity
  8
0
 62
     0
370
    -2
100
AcDbLine
 10
8.577503366439916
 20
26.13386444934361
 30
0.0
 11
7.638205298254866
 21
25.56488515905588
 31
0.0
  0
LINE
  5
732
330
40C
100
AcDbEntity
  8
0
 62
     0
370
    -2
100
AcDbLine
 10
7.638205298254866
 20
25.56488515905588
 30
0.0
 11
7.638205298254866
 21
24.87648515905588
 31
0.0
  0
MTEXT
  5
733
330
40C
100
AcDbEntity
  8
0
 62
     0
100
AcDbMText
 10
7.638205298254861
 20
24.18413515905588
 30
0.0
 40
0.3442
 41
0.0
 71
     5
 72
     1
  1
\A1;6.140
 11
0.0000000000000001
 21
1.0
 31
0.0
 73
     1
 44
1.0
1001
ACAD
1000
MTEXTBEGIN
1070
    73
1070
     1
1070
    44
1040
1.0
1070
    74
1070
     0
1000
MTEXTEND
  0
POINT
  5
734
330
40C
100
AcDbEntity
  8
Defpoints
 62
     0
100
AcDbPoint
 10
8.577503366439916
 20
26.82226444934361
 30
0.0
  0
POINT
  5
735
330
40C
100
AcDbEntity
  8
Defpoints
 62
     0
100
AcDbPoint
 10
7.638205298254866
 20
24.87648515905588
 30
0.0
  0
POINT
  5
736
330
40C
100
AcDbEntity
  8
Defpoints
 62
     0
100
AcDbPoint
 10
2.437006281885806
 20
15.79312696758021
 30
0.0
  0
ENDBLK
  5
415
330
40C
100
AcDbEntity
  8
0
100
AcDbBlockEnd
  0
BLOCK
  5
41F
330
416
100
AcDbEntity
  8
0
100
AcDbBlockBegin
  2
*D23
 70
     1
 10
0.0
 20
0.0
 30
0.0
  3
*D23
  1

  0
LINE
  5
728
330
416
100
AcDbEntity
  8
0
 62
     0
370
    -2
100
AcDbLine
 10
10.71120628188585
 20
27.97018876012568
 30
0.0
 11
10.36700628188581
 21
27.97018876012567
 31
0.0
  0
LINE
  5
729
330
416
100
AcDbEntity
  8
0
 62
     0
370
    -2
100
AcDbLine
 10
10.36700628188581
 20
27.97018876012567
 30
0.0
 11
9.012447356463443
 21
29.18769589615163
 31
0.0
  0
MTEXT
  5
72A
330
416
100
AcDbEntity
  8
0
 62
     0
100
AcDbMText
 10
12.20668961521918
 20
27.97018876012568
 30
0.0
 40
0.3442
 41
0.0
 71
     5
 72
     1
  1
\A1;\U+22050.375 (4)
 73
     1
 44
1.0
1001
ACAD
1000
MTEXTBEGIN
1070
    73
1070
     1
1070
    44
1040
1.0
1070
    74
1070
     0
1000
MTEXTEND
  0
SOLID
  5
72B
330
416
100
AcDbEntity
  8
0
 62
     0
100
AcDbTrace
 10
9.050795853355715
 20
29.23036118919584
 30
0.0
 11
8.974098859571174
 21
29.14503060310743
 31
0.0
 12
8.756455598198215
 22
29.41778687750526
 32
0.0
 13
8.756455598198215
 23
29.41778687750526
 33
0.0
  0
LINE
  5
72C
330
416
100
AcDbEntity
  8
0
 62
     0
370
    -2
100
AcDbLine
 10
8.527006281885812
 20
29.54312696758023
 30
0.0
 11
8.707006281885812
 21
29.54312696758023
 31
0.0
  0
LINE
  5
72D
330
416
100
AcDbEntity
  8
0
 62
     0
370
    -2
100
AcDbLine
 10
8.617006281885814
 20
29.45312696758023
 30
0.0
 11
8.617006281885812
 21
29.63312696758023
 31
0.0
  0
POINT
  5
72E
330
416
100
AcDbEntity
  8
Defpoints
 62
     0
100
AcDbPoint
 10
8.756455598198215
 20
29.41778687750526
 30
0.0
  0
POINT
  5
72F
330
416
100
AcDbEntity
  8
Defpoints
 62
     0
100
AcDbPoint
 10
8.477556965573407
 20
29.6684670576552
 30
0.0
  0
ENDBLK
  5
420
330
416
100
AcDbEntity
  8
0
100
AcDbBlockEnd
  0
BLOCK
  5
427
330
421
100
AcDbEntity
  8
0
100
AcDbBlockBegin
  2
*D24
 70
     1
 10
0.0
 20
0.0
 30
0.0
  3
*D24
  1

  0
LINE
  5
723
330
421
100
AcDbEntity
  8
0
 62
     0
370
    -2
100
AcDbLine
 10
9.827503366439906
 20
30.29312696758023
 30
0.0
 11
10.5775033664399
 21
30.29312696758023
 31
0.0
  0
MTEXT
  5
724
330
421
100
AcDbEntity
  8
0
 62
     0
100
AcDbMText
 10
11.41327003310657
 20
30.29312696758023
 30
0.0
 40
0.3442
 41
0.0
 71
     5
 72
     1
  1
\A1;14.500
 73
     1
 44
1.0
1001
ACAD
1000
MTEXTBEGIN
1070
    73
1070
     1
1070
    44
1040
1.0
1070
    74
1070
     0
1000
MTEXTEND
  0
POINT
  5
725
330
421
100
AcDbEntity
  8
Defpoints
 62
     0
100
AcDbPoint
 10
9.577503366439906
 20
30.29312696758023
 30
0.0
  0
POINT
  5
726
330
421
100
AcDbEntity
  8
Defpoints
 62
     0
100
AcDbPoint
 10
10.5775033664399
 20
30.29312696758023
 30
0.0
  0
POINT
  5
727
330
421
100
AcDbEntity
  8
Defpoints
 62
     0
100
AcDbPoint
 10
2.437006281885806
 20
15.79312696758023
 30
0.0
  0
ENDBLK
  5
428
330
421
100
AcDbEntity
  8
0
100
AcDbBlockEnd
  0
BLOCK
  5
42F
330
429
100
AcDbEntity
  8
0
100
AcDbBlockBegin
  2
*D25
 70
     1
 10
0.0
 20
0.0
 30
0.0
  3
*D25
  1

  0
LINE
  5
71E
330
429
100
AcDbEntity
  8
0
 62
     0
370
    -2
100
AcDbLine
 10
9.577503366439906
 20
30.54312696758024
 30
0.0
 11
9.577503366439906
 21
31.29312696758023
 31
0.0
  0
MTEXT
  5
71F
330
429
100
AcDbEntity
  8
0
 62
     0
100
AcDbMText
 10
9.5775033664399
 20
31.98547696758023
 30
0.0
 40
0.3442
 41
0.0
 71
     5
 72
     1
  1
\A1;7.140
 11
0.0000000000000001
 21
1.0
 31
0.0
 73
     1
 44
1.0
1001
ACAD
1000
MTEXTBEGIN
1070
    73
1070
     1
1070
    44
1040
1.0
1070
    74
1070
     0
1000
MTEXTEND
  0
POINT
  5
720
330
429
100
AcDbEntity
  8
Defpoints
 62
     0
100
AcDbPoint
 10
9.577503366439906
 20
30.29312696758024
 30
0.0
  0
POINT
  5
721
330
429
100
AcDbEntity
  8
Defpoints
 62
     0
100
AcDbPoint
 10
9.577503366439906
 20
31.29312696758023
 30
0.0
  0
POINT
  5
722
330
429
100
AcDbEntity
  8
Defpoints
 62
     0
100
AcDbPoint
 10
2.437006281885806
 20
15.79312696758023
 30
0.0
  0
ENDBLK
  5
430
330
429
100
AcDbEntity
  8
0
100
AcDbBlockEnd
  0
BLOCK
  5
437
330
431
100
AcDbEntity
  8
0
100
AcDbBlockBegin
  2
*D26
 70
     1
 10
0.0
 20
0.0
 30
0.0
  3
*D26
  1

  0
LINE
  5
719
330
431
100
AcDbEntity
  8
0
 62
     0
370
    -2
100
AcDbLine
 10
3.527006281885774
 20
29.74937696758022
 30
0.0
 11
1.397503366439909
 21
29.74937696758022
 31
0.0
  0
MTEXT
  5
71A
330
431
100
AcDbEntity
  8
0
 62
     0
100
AcDbMText
 10
0.5043700331065767
 20
29.74937696758022
 30
0.0
 40
0.3442
 41
0.0
 71
     5
 72
     1
  1
\A1;13.956
 73
     1
 44
1.0
1001
ACAD
1000
MTEXTBEGIN
1070
    73
1070
     1
1070
    44
1040
1.0
1070
    74
1070
     0
1000
MTEXTEND
  0
POINT
  5
71B
330
431
100
AcDbEntity
  8
Defpoints
 62
     0
100
AcDbPoint
 10
3.777006281885774
 20
29.74937696758022
 30
0.0
  0
POINT
  5
71C
330
431
100
AcDbEntity
  8
Defpoints
 62
     0
100
AcDbPoint
 10
1.397503366439909
 20
29.74937696758022
 30
0.0
  0
POINT
  5
71D
330
431
100
AcDbEntity
  8
Defpoints
 62
     0
100
AcDbPoint
 10
2.437006281885806
 20
15.79312696758023
 30
0.0
  0
ENDBLK
  5
438
330
431
100
AcDbEntity
  8
0
100
AcDbBlockEnd
  0
BLOCK
  5
43F
330
439
100
AcDbEntity
  8
0
100
AcDbBlockBegin
  2
*D27
 70
     1
 10
0.0
 20
0.0
 30
0.0
  3
*D27
  1

  0
LINE
  5
714
330
439
100
AcDbEntity
  8
0
 62
     0
370
    -2
100
AcDbLine
 10
3.527006281885774
 20
27.62437696758022
 30
0.0
 11
1.397503366439909
 21
27.62437696758022
 31
0.0
  0
MTEXT
  5
715
330
439
100
AcDbEntity
  8
0
 62
     0
100
AcDbMText
 10
0.6191033664399102
 20
27.62437696758022
 30
0.0
 40
0.3442
 41
0.0
 71
     5
 72
     1
  1
\A1;11.831
 73
     1
 44
1.0
1001
ACAD
1000
MTEXTBEGIN
1070
    73
1070
     1
1070
    44
1040
1.0
1070
    74
1070
     0
1000
MTEXTEND
  0
POINT
  5
716
330
439
100
AcDbEntity
  8
Defpoints
 62
     0
100
AcDbPoint
 10
3.777006281885774
 20
27.62437696758022
 30
0.0
  0
POINT
  5
717
330
439
100
AcDbEntity
  8
Defpoints
 62
     0
100
AcDbPoint
 10
1.397503366439909
 20
27.62437696758022
 30
0.0
  0
POINT
  5
718
330
439
100
AcDbEntity
  8
Defpoints
 62
     0
100
AcDbPoint
 10
2.437006281885806
 20
15.79312696758023
 30
0.0
  0
ENDBLK
  5
440
330
439
100
AcDbEntity
  8
0
100
AcDbBlockEnd
  0
BLOCK
  5
447
330
441
100
AcDbEntity
  8
0
100
AcDbBlockBegin
  2
*D28
 70
     1
 10
0.0
 20
0.0
 30
0.0
  3
*D28
  1

  0
LINE
  5
70F
330
441
100
AcDbEntity
  8
0
 62
     0
370
    -2
100
AcDbLine
 10
8.827503366439916
 20
26.82226444934361
 30
0.0
 11
10.5775033664399
 21
26.82226444934361
 31
0.0
  0
MTEXT
  5
710
330
441
100
AcDbEntity
  8
0
 62
     0
100
AcDbMText
 10
11.38458669977324
 20
26.82226444934361
 30
0.0
 40
0.3442
 41
0.0
 71
     5
 72
     1
  1
\A1;11.029
 73
     1
 44
1.0
1001
ACAD
1000
MTEXTBEGIN
1070
    73
1070
     1
1070
    44
1040
1.0
1070
    74
1070
     0
1000
MTEXTEND
  0
POINT
  5
711
330
441
100
AcDbEntity
  8
Defpoints
 62
     0
100
AcDbPoint
 10
8.577503366439916
 20
26.82226444934361
 30
0.0
  0
POINT
  5
712
330
441
100
AcDbEntity
  8
Defpoints
 62
     0
100
AcDbPoint
 10
10.5775033664399
 20
26.82226444934361
 30
0.0
  0
POINT
  5
713
330
441
100
AcDbEntity
  8
Defpoints
 62
     0
100
AcDbPoint
 10
2.437006281885806
 20
15.79312696758021
 30
0.0
  0
ENDBLK
  5
448
330
441
100
AcDbEntity
  8
0
100
AcDbBlockEnd
  0
BLOCK
  5
44F
330
449
100
AcDbEntity
  8
0
100
AcDbBlockBegin
  2
*D29
 70
     1
 10
0.0
 20
0.0
 30
0.0
  3
*D29
  1

  0
LINE
  5
70A
330
449
100
AcDbEntity
  8
0
 62
     0
370
    -2
100
AcDbLine
 10
8.867006281885817
 20
29.54312696758023
 30
0.0
 11
10.5775033664399
 21
29.54312696758022
 31
0.0
  0
MTEXT
  5
70B
330
449
100
AcDbEntity
  8
0
 62
     0
100
AcDbMText
 10
11.4419533664399
 20
29.54312696758022
 30
0.0
 40
0.3442
 41
0.0
 71
     5
 72
     1
  1
\A1;13.750
 73
     1
 44
1.0
1001
ACAD
1000
MTEXTBEGIN
1070
    73
1070
     1
1070
    44
1040
1.0
1070
    74
1070
     0
1000
MTEXTEND
  0
POINT
  5
70C
330
449
100
AcDbEntity
  8
Defpoints
 62
     0
100
AcDbPoint
 10
8.617006281885817
 20
29.54312696758023
 30
0.0
  0
POINT
  5
70D
330
449
100
AcDbEntity
  8
Defpoints
 62
     0
100
AcDbPoint
 10
10.5775033664399
 20
29.54312696758022
 30
0.0
  0
POINT
  5
70E
330
449
100
AcDbEntity
  8
Defpoints
 62
     0
100
AcDbPoint
 10
2.437006281885806
 20
15.79312696758023
 30
0.0
  0
ENDBLK
  5
450
330
449
100
AcDbEntity
  8
0
100
AcDbBlockEnd
  0
BLOCK
  5
457
330
451
100
AcDbEntity
  8
0
100
AcDbBlockBegin
  2
*D30
 70
     1
 10
0.0
 20
0.0
 30
0.0
  3
*D30
  1

  0
LINE
  5
705
330
451
100
AcDbEntity
  8
0
 62
     0
370
    -2
100
AcDbLine
 10
8.277006281885775
 20
29.99937696758022
 30
0.0
 11
8.277006281885775
 21
31.29312696758023
 31
0.0
  0
MTEXT
  5
706
330
451
100
AcDbEntity
  8
0
 62
     0
100
AcDbMText
 10
8.277006281885768
 20
32.0428436342469
 30
0.0
 40
0.3442
 41
0.0
 71
     5
 72
     1
  1
\A1;5.840
 11
0.0000000000000001
 21
1.0
 31
0.0
 73
     1
 44
1.0
1001
ACAD
1000
MTEXTBEGIN
1070
    73
1070
     1
1070
    44
1040
1.0
1070
    74
1070
     0
1000
MTEXTEND
  0
POINT
  5
707
330
451
100
AcDbEntity
  8
Defpoints
 62
     0
100
AcDbPoint
 10
8.277006281885775
 20
29.74937696758022
 30
0.0
  0
POINT
  5
708
330
451
100
AcDbEntity
  8
Defpoints
 62
     0
100
AcDbPoint
 10
8.277006281885775
 20
31.29312696758023
 30
0.0
  0
POINT
  5
709
330
451
100
AcDbEntity
  8
Defpoints
 62
     0
100
AcDbPoint
 10
2.437006281885806
 20
15.79312696758023
 30
0.0
  0
ENDBLK
  5
458
330
451
100
AcDbEntity
  8
0
100
AcDbBlockEnd
  0
BLOCK
  5
45F
330
459
100
AcDbEntity
  8
0
100
AcDbBlockBegin
  2
*D31
 70
     1
 10
0.0
 20
0.0
 30
0.0
  3
*D31
  1

  0
LINE
  5
700
330
459
100
AcDbEntity
  8
0
 62
     0
370
    -2
100
AcDbLine
 10
3.777006281885774
 20
29.99937696758022
 30
0.0
 11
3.777006281885774
 21
31.29312696758022
 31
0.0
  0
MTEXT
  5
701
330
459
100
AcDbEntity
  8
0
 62
     0
100
AcDbMText
 10
3.777006281885768
 20
31.98547696758022
 30
0.0
 40
0.3442
 41
0.0
 71
     5
 72
     1
  1
\A1;1.340
 11
0.0000000000000001
 21
1.0
 31
0.0
 73
     1
 44
1.0
1001
ACAD
1000
MTEXTBEGIN
1070
    73
1070
     1
1070
    44
1040
1.0
1070
    74
1070
     0
1000
MTEXTEND
  0
POINT
  5
702
330
459
100
AcDbEntity
  8
Defpoints
 62
     0
100
AcDbPoint
 10
3.777006281885774
 20
29.74937696758022
 30
0.0
  0
POINT
  5
703
330
459
100
AcDbEntity
  8
Defpoints
 62
     0
100
AcDbPoint
 10
3.777006281885774
 20
31.29312696758022
 30
0.0
  0
POINT
  5
704
330
459
100
AcDbEntity
  8
Defpoints
 62
     0
100
AcDbPoint
 10
2.437006281885806
 20
15.79312696758023
 30
0.0
  0
ENDBLK
  5
460
330
459
100
AcDbEntity
  8
0
100
AcDbBlockEnd
  0
BLOCK
  5
467
330
461
100
AcDbEntity
  8
0
100
AcDbBlockBegin
  2
*D32
 70
     1
 10
0.0
 20
0.0
 30
0.0
  3
*D32
  1

  0
LINE
  5
6FB
330
461
100
AcDbEntity
  8
0
 62
     0
370
    -2
100
AcDbLine
 10
9.027006281885787
 20
21.45562696758021
 30
0.0
 11
9.027006281885787
 21
22.45562696758019
 31
0.0
  0
MTEXT
  5
6FC
330
461
100
AcDbEntity
  8
0
 62
     0
100
AcDbMText
 10
9.027006281885784
 20
23.20534363424687
 30
0.0
 40
0.3442
 41
0.0
 71
     5
 72
     1
  1
\A1;6.590
 11
0.0000000000000001
 21
1.0
 31
0.0
 73
     1
 44
1.0
1001
ACAD
1000
MTEXTBEGIN
1070
    73
1070
     1
1070
    44
1040
1.0
1070
    74
1070
     0
1000
MTEXTEND
  0
POINT
  5
6FD
330
461
100
AcDbEntity
  8
Defpoints
 62
     0
100
AcDbPoint
 10
9.027006281885787
 20
21.20562696758022
 30
0.0
  0
POINT
  5
6FE
330
461
100
AcDbEntity
  8
Defpoints
 62
     0
100
AcDbPoint
 10
9.027006281885787
 20
22.45562696758019
 30
0.0
  0
POINT
  5
6FF
330
461
100
AcDbEntity
  8
Defpoints
 62
     0
100
AcDbPoint
 10
2.437006281885806
 20
15.79312696758021
 30
0.0
  0
ENDBLK
  5
468
330
461
100
AcDbEntity
  8
0
100
AcDbBlockEnd
  0
BLOCK
  5
46F
330
469
100
AcDbEntity
  8
0
100
AcDbBlockBegin
  2
*D33
 70
     1
 10
0.0
 20
0.0
 30
0.0
  3
*D33
  1

  0
LINE
  5
6F6
330
469
100
AcDbEntity
  8
0
 62
     0
370
    -2
100
AcDbLine
 10
3.027006281885788
 20
21.45562696758021
 30
0.0
 11
3.027006281885788
 21
22.45562696758019
 31
0.0
  0
MTEXT
  5
6F7
330
469
100
AcDbEntity
  8
0
 62
     0
100
AcDbMText
 10
3.027006281885785
 20
23.17666030091353
 30
0.0
 40
0.3442
 41
0.0
 71
     5
 72
     1
  1
\A1;0.590
 11
0.0000000000000001
 21
1.0
 31
0.0
 73
     1
 44
1.0
1001
ACAD
1000
MTEXTBEGIN
1070
    73
1070
     1
1070
    44
1040
1.0
1070
    74
1070
     0
1000
MTEXTEND
  0
POINT
  5
6F8
330
469
100
AcDbEntity
  8
Defpoints
 62
     0
100
AcDbPoint
 10
3.027006281885788
 20
21.20562696758022
 30
0.0
  0
POINT
  5
6F9
330
469
100
AcDbEntity
  8
Defpoints
 62
     0
100
AcDbPoint
 10
3.027006281885788
 20
22.45562696758019
 30
0.0
  0
POINT
  5
6FA
330
469
100
AcDbEntity
  8
Defpoints
 62
     0
100
AcDbPoint
 10
2.437006281885806
 20
15.79312696758021
 30
0.0
  0
ENDBLK
  5
470
330
469
100
AcDbEntity
  8
0
100
AcDbBlockEnd
  0
BLOCK
  5
477
330
471
100
AcDbEntity
  8
0
100
AcDbBlockBegin
  2
*D34
 70
     1
 10
0.0
 20
0.0
 30
0.0
  3
*D34
  1

  0
LINE
  5
6F1
330
471
100
AcDbEntity
  8
0
 62
     0
370
    -2
100
AcDbLine
 10
8.617006281885817
 20
16.54312696758022
 30
0.0
 11
8.617006281885817
 21
14.79312696758022
 31
0.0
  0
MTEXT
  5
6F2
330
471
100
AcDbEntity
  8
0
 62
     0
100
AcDbMText
 10
8.617006281885814
 20
13.52711030091355
 30
0.0
 40
0.3442
 41
0.0
 71
     5
 72
     1
  1
\A1;(2) 6.180
 11
0.0000000000000001
 21
1.0
 31
0.0
 73
     1
 44
1.0
1001
ACAD
1000
MTEXTBEGIN
1070
    73
1070
     1
1070
    44
1040
1.0
1070
    74
1070
     0
1000
MTEXTEND
  0
POINT
  5
6F3
330
471
100
AcDbEntity
  8
Defpoints
 62
     0
100
AcDbPoint
 10
8.617006281885817
 20
16.79312696758022
 30
0.0
  0
POINT
  5
6F4
330
471
100
AcDbEntity
  8
Defpoints
 62
     0
100
AcDbPoint
 10
8.617006281885817
 20
14.79312696758022
 30
0.0
  0
POINT
  5
6F5
330
471
100
AcDbEntity
  8
Defpoints
 62
     0
100
AcDbPoint
 10
2.437006281885806
 20
15.79312696758023
 30
0.0
  0
ENDBLK
  5
478
330
471
100
AcDbEntity
  8
0
100
AcDbBlockEnd
  0
BLOCK
  5
47F
330
479
100
AcDbEntity
  8
0
100
AcDbBlockBegin
  2
*D35
 70
     1
 10
0.0
 20
0.0
 30
0.0
  3
*D35
  1

  0
LINE
  5
6EC
330
479
100
AcDbEntity
  8
0
 62
     0
370
    -2
100
AcDbLine
 10
3.43700628188575
 20
16.54312696758022
 30
0.0
 11
3.43700628188575
 21
14.79312696758022
 31
0.0
  0
MTEXT
  5
6ED
330
479
100
AcDbEntity
  8
0
 62
     0
100
AcDbMText
 10
3.437006281885747
 20
13.58447696758022
 30
0.0
 40
0.3442
 41
0.0
 71
     5
 72
     1
  1
\A1;(2) 1.000
 11
0.0000000000000001
 21
1.0
 31
0.0
 73
     1
 44
1.0
1001
ACAD
1000
MTEXTBEGIN
1070
    73
1070
     1
1070
    44
1040
1.0
1070
    74
1070
     0
1000
MTEXTEND
  0
POINT
  5
6EE
330
479
100
AcDbEntity
  8
Defpoints
 62
     0
100
AcDbPoint
 10
3.43700628188575
 20
16.79312696758022
 30
0.0
  0
POINT
  5
6EF
330
479
100
AcDbEntity
  8
Defpoints
 62
     0
100
AcDbPoint
 10
3.43700628188575
 20
14.79312696758022
 30
0.0
  0
POINT
  5
6F0
330
479
100
AcDbEntity
  8
Defpoints
 62
     0
100
AcDbPoint
 10
2.437006281885806
 20
15.79312696758021
 30
0.0
  0
ENDBLK
  5
480
330
479
100
AcDbEntity
  8
0
100
AcDbBlockEnd
  0
BLOCK
  5
487
330
481
100
AcDbEntity
  8
0
100
AcDbBlockBegin
  2
*D36
 70
     1
 10
0.0
 20
0.0
 30
0.0
  3
*D36
  1

  0
LINE
  5
6E7
330
481
100
AcDbEntity
  8
0
 62
     0
370
    -2
100
AcDbLine
 10
2.777006281885774
 20
21.20562696758022
 30
0.0
 11
1.397503366439909
 21
21.20562696758022
 31
0.0
  0
MTEXT
  5
6E8
330
481
100
AcDbEntity
  8
0
 62
     0
100
AcDbMText
 10
0.6764700331065768
 20
21.20562696758022
 30
0.0
 40
0.3442
 41
0.0
 71
     5
 72
     1
  1
\A1;5.412
 73
     1
 44
1.0
1001
ACAD
1000
MTEXTBEGIN
1070
    73
1070
     1
1070
    44
1040
1.0
1070
    74
1070
     0
1000
MTEXTEND
  0
POINT
  5
6E9
330
481
100
AcDbEntity
  8
Defpoints
 62
     0
100
AcDbPoint
 10
3.027006281885774
 20
21.20562696758022
 30
0.0
  0
POINT
  5
6EA
330
481
100
AcDbEntity
  8
Defpoints
 62
     0
100
AcDbPoint
 10
1.397503366439909
 20
21.20562696758022
 30
0.0
  0
POINT
  5
6EB
330
481
100
AcDbEntity
  8
Defpoints
 62
     0
100
AcDbPoint
 10
2.437006281885806
 20
15.79312696758021
 30
0.0
  0
ENDBLK
  5
488
330
481
100
AcDbEntity
  8
0
100
AcDbBlockEnd
  0
BLOCK
  5
48F
330
489
100
AcDbEntity
  8
0
100
AcDbBlockBegin
  2
*D37
 70
     1
 10
0.0
 20
0.0
 30
0.0
  3
*D37
  1

  0
LINE
  5
6E2
330
489
100
AcDbEntity
  8
0
 62
     0
370
    -2
100
AcDbLine
 10
2.777006281885789
 20
18.45562696758021
 30
0.0
 11
1.397503366439909
 21
18.45562696758021
 31
0.0
  0
MTEXT
  5
6E3
330
489
100
AcDbEntity
  8
0
 62
     0
100
AcDbMText
 10
0.6191033664399102
 20
18.45562696758021
 30
0.0
 40
0.3442
 41
0.0
 71
     5
 72
     1
  1
\A1;2.662
 73
     1
 44
1.0
1001
ACAD
1000
MTEXTBEGIN
1070
    73
1070
     1
1070
    44
1040
1.0
1070
    74
1070
     0
1000
MTEXTEND
  0
POINT
  5
6E4
330
489
100
AcDbEntity
  8
Defpoints
 62
     0
100
AcDbPoint
 10
3.027006281885788
 20
18.45562696758021
 30
0.0
  0
POINT
  5
6E5
330
489
100
AcDbEntity
  8
Defpoints
 62
     0
100
AcDbPoint
 10
1.397503366439909
 20
18.45562696758021
 30
0.0
  0
POINT
  5
6E6
330
489
100
AcDbEntity
  8
Defpoints
 62
     0
100
AcDbPoint
 10
2.437006281885806
 20
15.79312696758021
 30
0.0
  0
ENDBLK
  5
490
330
489
100
AcDbEntity
  8
0
100
AcDbBlockEnd
  0
BLOCK
  5
497
330
491
100
AcDbEntity
  8
0
100
AcDbBlockBegin
  2
*D38
 70
     1
 10
0.0
 20
0.0
 30
0.0
  3
*D38
  1

  0
LINE
  5
6DD
330
491
100
AcDbEntity
  8
0
 62
     0
370
    -2
100
AcDbLine
 10
8.867006281885817
 20
16.79312696758022
 30
0.0
 11
10.5775033664399
 21
16.79312696758022
 31
0.0
  0
MTEXT
  5
6DE
330
491
100
AcDbEntity
  8
0
 62
     0
100
AcDbMText
 10
11.21248669977324
 20
16.79312696758022
 30
0.0
 40
0.3442
 41
0.0
 71
     5
 72
     1
  1
\A1;1.000
 73
     1
 44
1.0
1001
ACAD
1000
MTEXTBEGIN
1070
    73
1070
     1
1070
    44
1040
1.0
1070
    74
1070
     0
1000
MTEXTEND
  0
POINT
  5
6DF
330
491
100
AcDbEntity
  8
Defpoints
 62
     0
100
AcDbPoint
 10
8.617006281885817
 20
16.79312696758022
 30
0.0
  0
POINT
  5
6E0
330
491
100
AcDbEntity
  8
Defpoints
 62
     0
100
AcDbPoint
 10
10.5775033664399
 20
16.79312696758022
 30
0.0
  0
POINT
  5
6E1
330
491
100
AcDbEntity
  8
Defpoints
 62
     0
100
AcDbPoint
 10
2.437006281885806
 20
15.79312696758023
 30
0.0
  0
ENDBLK
  5
498
330
491
100
AcDbEntity
  8
0
100
AcDbBlockEnd
  0
BLOCK
  5
49F
330
499
100
AcDbEntity
  8
0
100
AcDbBlockBegin
  2
*D39
 70
     1
 10
0.0
 20
0.0
 30
0.0
  3
*D39
  1

  0
LINE
  5
6D8
330
499
100
AcDbEntity
  8
0
 62
     0
370
    -2
100
AcDbLine
 10
2.437006281885818
 20
15.54312696758021
 30
0.0
 11
2.437006281885818
 21
14.79312696758022
 31
0.0
  0
MTEXT
  5
6D9
330
499
100
AcDbEntity
  8
0
 62
     0
100
AcDbMText
 10
2.437006281885814
 20
14.12946030091355
 30
0.0
 40
0.3442
 41
0.0
 71
     5
 72
     1
  1
\A1;0.000
 11
0.0000000000000001
 21
1.0
 31
0.0
 73
     1
 44
1.0
1001
ACAD
1000
MTEXTBEGIN
1070
    73
1070
     1
1070
    44
1040
1.0
1070
    74
1070
     0
1000
MTEXTEND
  0
POINT
  5
6DA
330
499
100
AcDbEntity
  8
Defpoints
 62
     0
100
AcDbPoint
 10
2.437006281885818
 20
15.79312696758021
 30
0.0
  0
POINT
  5
6DB
330
499
100
AcDbEntity
  8
Defpoints
 62
     0
100
AcDbPoint
 10
2.437006281885818
 20
14.79312696758022
 30
0.0
  0
POINT
  5
6DC
330
499
100
AcDbEntity
  8
Defpoints
 62
     0
100
AcDbPoint
 10
2.437006281885806
 20
15.79312696758021
 30
0.0
  0
ENDBLK
  5
4A0
330
499
100
AcDbEntity
  8
0
100
AcDbBlockEnd
  0
BLOCK
  5
4A7
330
4A1
100
AcDbEntity
  8
0
100
AcDbBlockBegin
  2
*D40
 70
     1
 10
0.0
 20
0.0
 30
0.0
  3
*D40
  1

  0
LINE
  5
6D3
330
4A1
100
AcDbEntity
  8
0
 62
     0
370
    -2
100
AcDbLine
 10
2.187006281885818
 20
15.79312696758021
 30
0.0
 11
1.397503366439899
 21
15.79312696758021
 31
0.0
  0
MTEXT
  5
6D4
330
4A1
100
AcDbEntity
  8
0
 62
     0
100
AcDbMText
 10
0.7338366997732329
 20
15.79312696758021
 30
0.0
 40
0.3442
 41
0.0
 71
     5
 72
     1
  1
\A1;0.000
 73
     1
 44
1.0
1001
ACAD
1000
MTEXTBEGIN
1070
    73
1070
     1
1070
    44
1040
1.0
1070
    74
1070
     0
1000
MTEXTEND
  0
POINT
  5
6D5
330
4A1
100
AcDbEntity
  8
Defpoints
 62
     0
100
AcDbPoint
 10
2.437006281885818
 20
15.79312696758021
 30
0.0
  0
POINT
  5
6D6
330
4A1
100
AcDbEntity
  8
Defpoints
 62
     0
100
AcDbPoint
 10
1.397503366439899
 20
15.79312696758021
 30
0.0
  0
POINT
  5
6D7
330
4A1
100
AcDbEntity
  8
Defpoints
 62
     0
100
AcDbPoint
 10
2.437006281885806
 20
15.79312696758021
 30
0.0
  0
ENDBLK
  5
4A8
330
4A1
100
AcDbEntity
  8
0
100
AcDbBlockEnd
  0
BLOCK
  5
526
330
525
100
AcDbEntity
  8
0
100
AcDbBlockBegin
  2
A$C40424F15
 70
     0
 10
0.0
 20
0.0
 30
0.0
  3
A$C40424F15
  1

  0
LINE
  5
527
330
525
100
AcDbEntity
  8
0
100
AcDbLine
 10
0.1484292760879384
 20
-0.2750000000000909
 30
0.0
 11
-0.1484292760879384
 21
-0.2750000000000909
 31
0.0
  0
LINE
  5
528
330
525
100
AcDbEntity
  8
0
100
AcDbLine
 10
0.1484292760879384
 20
0.2749999999999773
 30
0.0
 11
-0.1484292760879384
 21
0.2749999999999773
 31
0.0
  0
ARC
  5
529
330
525
100
AcDbEntity
  8
0
100
AcDbCircle
 10
0.0
 20
0.0
 30
0.0
 40
0.3125
100
AcDbArc
 50
118.3576365763211
 51
241.6423634236789
  0
ARC
  5
52A
330
525
100
AcDbEntity
  8
0
100
AcDbCircle
 10
0.0
 20
0.0
 30
0.0
 40
0.3125
100
AcDbArc
 50
298.3576365763211
 51
61.64236342367889
  0
ENDBLK
  5
52B
330
525
100
AcDbEntity
  8
0
100
AcDbBlockEnd
  0
BLOCK
  5
52F
330
52C
100
AcDbEntity
  8
0
100
AcDbBlockBegin
  2
A$C693F27F7
 70
     0
 10
0.0
 20
0.0
 30
0.0
  3
A$C693F27F7
  1

  0
LINE
  5
530
330
52C
100
AcDbEntity
  8
0
100
AcDbLine
 10
0.0
 20
0.0
 30
0.0
 11
0.0
 21
-7.885000000000019
 31
0.0
  0
LINE
  5
531
330
52C
100
AcDbEntity
  8
0
100
AcDbLine
 10
0.0
 20
0.0
 30
0.0
 11
5.975000000000001
 21
0.0
 31
0.0
  0
LINE
  5
532
330
52C
100
AcDbEntity
  8
0
100
AcDbLine
 10
5.975000000000001
 20
0.0
 30
0.0
 11
5.975000000000036
 21
-7.885000000000019
 31
0.0
  0
LINE
  5
533
330
52C
100
AcDbEntity
  8
0
100
AcDbLine
 10
5.975000000000036
 20
-7.885000000000019
 30
0.0
 11
0.0
 21
-7.885000000000019
 31
0.0
  0
LINE
  5
534
330
52C
100
AcDbEntity
  8
0
100
AcDbLine
 10
0.25
 20
-0.5250000000000057
 30
0.0
 11
5.725000000000001
 21
-0.5250000000000057
 31
0.0
  0
LINE
  5
535
330
52C
100
AcDbEntity
  8
0
100
AcDbLine
 10
0.25
 20
-3.265000000000013
 30
0.0
 11
5.725000000000014
 21
-3.265000000000042
 31
0.0
  0
LINE
  5
536
330
52C
100
AcDbEntity
  8
0
100
AcDbLine
 10
0.25
 20
-0.5250000000000341
 30
0.0
 11
0.25
 21
-3.265000000000013
 31
0.0
  0
LINE
  5
537
330
52C
100
AcDbEntity
  8
0
100
AcDbLine
 10
5.725000000000001
 20
-0.5250000000000341
 30
0.0
 11
5.725000000000014
 21
-3.265000000000013
 31
0.0
  0
LINE
  5
538
330
52C
100
AcDbEntity
  8
0
  6
HIDDEN
100
AcDbLine
 10
0.25
 20
-7.359999999999986
 30
0.0
 11
5.725000000000001
 21
-7.360000000000012
 31
0.0
  0
LINE
  5
539
330
52C
100
AcDbEntity
  8
0
  6
HIDDEN
100
AcDbLine
 10
0.25
 20
-4.619999999999977
 30
0.0
 11
5.725000000000014
 21
-4.619999999999977
 31
0.0
  0
LINE
  5
53A
330
52C
100
AcDbEntity
  8
0
  6
HIDDEN
100
AcDbLine
 10
0.25
 20
-7.359999999999986
 30
0.0
 11
0.25
 21
-4.619999999999977
 31
0.0
  0
LINE
  5
53B
330
52C
100
AcDbEntity
  8
0
  6
HIDDEN
100
AcDbLine
 10
5.725000000000001
 20
-7.359999999999986
 30
0.0
 11
5.725000000000014
 21
-4.619999999999977
 31
0.0
  0
ENDBLK
  5
53C
330
52C
100
AcDbEntity
  8
0
100
AcDbBlockEnd
  0
BLOCK
  5
540
330
53D
100
AcDbEntity
  8
0
100
AcDbBlockBegin
  2
A$C49BF791D
 70
     0
 10
0.0
 20
0.0
 30
0.0
  3
A$C49BF791D
  1

  0
LINE
  5
541
330
53D
100
AcDbEntity
  8
0
100
AcDbLine
 10
-0.1861544032709617
 20
0.1861544032709474
 30
0.0
 11
-0.1861544032709617
 21
-3.438845596729051
 31
0.0
  0
LINE
  5
542
330
53D
100
AcDbEntity
  8
0
100
AcDbLine
 10
-0.1861544032709617
 20
-3.438845596729051
 30
0.0
 11
3.438845596729038
 21
-3.438845596729051
 31
0.0
  0
LINE
  5
543
330
53D
100
AcDbEntity
  8
0
100
AcDbLine
 10
3.438845596729038
 20
-3.438845596729051
 30
0.0
 11
3.438845596729066
 21
0.1861544032709474
 31
0.0
  0
LINE
  5
544
330
53D
100
AcDbEntity
  8
0
100
AcDbLine
 10
3.438845596729066
 20
0.1861544032709474
 30
0.0
 11
-0.1861544032709617
 21
0.1861544032709474
 31
0.0
  0
CIRCLE
  5
545
330
53D
100
AcDbEntity
  8
0
100
AcDbCircle
 10
0.0
 20
0.0
 30
0.0
 40
0.085
  0
CIRCLE
  5
546
330
53D
100
AcDbEntity
  8
0
100
AcDbCircle
 10
3.252691193458118
 20
0.0000000000000071
 30
0.0
 40
0.085
  0
CIRCLE
  5
547
330
53D
100
AcDbEntity
  8
0
100
AcDbCircle
 10
3.252691193458118
 20
-3.252691193458104
 30
0.0
 40
0.085
  0
CIRCLE
  5
548
330
53D
100
AcDbEntity
  8
0
100
AcDbCircle
 10
0.0
 20
-3.252691193458111
 30
0.0
 40
0.085
  0
CIRCLE
  5
549
330
53D
100
AcDbEntity
  8
0
100
AcDbCircle
 10
1.626345596729051
 20
-1.626345596729051
 30
0.0
 40
0.875
  0
ARC
  5
54A
330
53D
100
AcDbEntity
  8
0
100
AcDbCircle
 10
1.626345596729051
 20
-1.626345596729051
 30
0.0
 40
1.094999999999998
100
AcDbArc
 50
112.1258556421525
 51
162.0000000000002
  0
LINE
  5
54B
330
53D
100
AcDbEntity
  8
0
100
AcDbLine
 10
1.626345596729051
 20
-0.7513455967290526
 30
0.0
 11
1.626345596729051
 21
0.0861544032709461
 31
0.0
  0
LINE
  5
54C
330
53D
100
AcDbEntity
  8
0
100
AcDbLine
 10
0.4313427972483625
 20
-0.3997142098677386
 30
0.0
 11
0.838426992776732
 21
-0.8659448645188374
 31
0.0
  0
ARC
  5
54D
330
53D
100
AcDbEntity
  8
0
100
AcDbCircle
 10
1.626345596729051
 20
-1.626345596729051
 30
0.0
 40
1.712499999999997
100
AcDbArc
 50
90.0
 51
134.2517112843039
  0
ARC
  5
54E
330
53D
100
AcDbEntity
  8
0
100
AcDbCircle
 10
1.180087782489009
 20
-1.392044591277453
 30
0.0
 40
0.7807952602223148
100
AcDbArc
 50
55.14212838881013
 51
87.51640554589364
  0
LINE
  5
54F
330
53D
100
AcDbEntity
  8
0
100
AcDbLine
 10
0.7941711449707896
 20
-1.355955726650974
 30
0.0
 11
-0.002338687426402
 21
-1.097153993861951
 31
0.0
  0
LINE
  5
550
330
53D
100
AcDbEntity
  8
0
100
AcDbLine
 10
0.0904736497972749
 20
-2.383810851792261
 30
0.0
 11
0.6596812865594757
 21
-2.140723970539973
 31
0.0
  0
ARC
  5
551
330
53D
100
AcDbEntity
  8
0
100
AcDbCircle
 10
1.626345596729051
 20
-1.626345596729051
 30
0.0
 40
1.712499999999997
100
AcDbArc
 50
161.9999999999998
 51
206.2517112843036
  0
ARC
  5
552
330
53D
100
AcDbEntity
  8
0
100
AcDbCircle
 10
1.265610850247014
 20
-1.978359006425989
 30
0.0
 40
0.7807952602223148
100
AcDbArc
 50
127.1421283888103
 51
159.5164055458936
  0
LINE
  5
553
330
53D
100
AcDbEntity
  8
0
100
AcDbLine
 10
1.112033500973139
 20
-2.334235466807135
 30
0.0
 11
0.6197633521781825
 21
-3.011787199596156
 31
0.0
  0
LINE
  5
554
330
53D
100
AcDbEntity
  8
0
100
AcDbLine
 10
1.87212733063842
 20
-3.321116256516539
 30
0.0
 11
1.816832801285101
 21
-2.704649647032318
 31
0.0
  0
ARC
  5
555
330
53D
100
AcDbEntity
  8
0
100
AcDbCircle
 10
1.626345596729065
 20
-1.626345596729044
 30
0.0
 40
1.712499999999997
100
AcDbArc
 50
233.9999999999999
 51
278.2517112843037
  0
ARC
  5
556
330
53D
100
AcDbEntity
  8
0
100
AcDbCircle
 10
1.849657076720134
 20
-2.078202853869092
 30
0.0
 40
0.7807952602223148
100
AcDbArc
 50
199.1421283888102
 51
231.516405545894
  0
LINE
  5
557
330
53D
100
AcDbEntity
  8
0
100
AcDbLine
 10
2.140657692484964
 20
-2.334235466807128
 30
0.0
 11
2.632927841279907
 21
-3.011787199596148
 31
0.0
  0
LINE
  5
558
330
53D
100
AcDbEntity
  8
0
100
AcDbLine
 10
3.314119009030703
 20
-1.9163062125506
 30
0.0
 11
2.71073747373623
 21
-1.778395776212221
 31
0.0
  0
ARC
  5
559
330
53D
100
AcDbEntity
  8
0
100
AcDbCircle
 10
1.626345596729038
 20
-1.626345596729044
 30
0.0
 40
1.712499999999997
100
AcDbArc
 50
306.0000000000001
 51
350.2517112843035
  0
ARC
  5
55A
330
53D
100
AcDbEntity
  8
0
100
AcDbCircle
 10
2.125094427923599
 20
-1.553595330007958
 30
0.0
 40
0.7807952602223148
100
AcDbArc
 50
271.1421283888096
 51
303.5164055458936
  0
LINE
  5
55B
330
53D
100
AcDbEntity
  8
0
100
AcDbLine
 10
2.458520048487315
 20
-1.355955726650974
 30
0.0
 11
3.255029880884506
 21
-1.097153993861957
 31
0.0
  0
LINE
  5
55C
330
53D
100
AcDbEntity
  8
0
100
AcDbLine
 10
2.4236651969305
 20
-0.1107804529181422
 30
0.0
 11
2.106049429287735
 21
-0.6420137253419114
 31
0.0
  0
ARC
  5
55D
330
53D
100
AcDbEntity
  8
0
100
AcDbCircle
 10
1.626345596729051
 20
-1.626345596729059
 30
0.0
 40
1.712499999999997
100
AcDbArc
 50
18.00000000000014
 51
62.25171128430336
  0
ARC
  5
55E
330
53D
100
AcDbEntity
  8
0
100
AcDbCircle
 10
1.711277846265516
 20
-1.129526202064752
 30
0.0
 40
0.7807952602223148
100
AcDbArc
 50
343.1421283888105
 51
15.5164055458939
  0
ARC
  5
55F
330
53D
100
AcDbEntity
  8
0
100
AcDbCircle
 10
1.626345596729051
 20
-1.626345596729051
 30
0.0
 40
1.094999999999998
100
AcDbArc
 50
184.1258556421523
 51
234.0000000000006
  0
ARC
  5
560
330
53D
100
AcDbEntity
  8
0
100
AcDbCircle
 10
1.626345596729051
 20
-1.626345596729051
 30
0.0
 40
1.094999999999998
100
AcDbArc
 50
256.1258556421547
 51
306.0000000000001
  0
ARC
  5
561
330
53D
100
AcDbEntity
  8
0
100
AcDbCircle
 10
1.626345596729051
 20
-1.626345596729051
 30
0.0
 40
1.094999999999998
100
AcDbArc
 50
328.1258556421533
 51
17.99999999999976
  0
ARC
  5
562
330
53D
100
AcDbEntity
  8
0
100
AcDbCircle
 10
1.626345596729051
 20
-1.626345596729051
 30
0.0
 40
1.094999999999998
100
AcDbArc
 50
40.12585564215181
 51
90.0
  0
CIRCLE
  5
563
330
53D
100
AcDbEntity
  8
0
100
AcDbCircle
 10
1.626345596729051
 20
-1.626345596729051
 30
0.0
 40
1.78125
  0
ARC
  5
564
330
53D
100
AcDbEntity
  8
0
100
AcDbCircle
 10
1.626345596729051
 20
-1.626345596729051
 30
0.0
 40
1.84375
100
AcDbArc
 50
100.5639649046867
 51
169.4360350953145
  0
ARC
  5
565
330
53D
100
AcDbEntity
  8
0
100
AcDbCircle
 10
1.626345596729051
 20
-1.626345596729051
 30
0.0
 40
1.84375
100
AcDbArc
 50
190.5639649046855
 51
259.4360350953132
  0
ARC
  5
566
330
53D
100
AcDbEntity
  8
0
100
AcDbCircle
 10
1.626345596729051
 20
-1.626345596729051
 30
0.0
 40
1.84375
100
AcDbArc
 50
280.5639649046868
 51
349.4360350953129
  0
ARC
  5
567
330
53D
100
AcDbEntity
  8
0
100
AcDbCircle
 10
1.626345596729051
 20
-1.626345596729051
 30
0.0
 40
1.84375
100
AcDbArc
 50
10.56396490468669
 51
79.43603509531325
  0
MTEXT
  5
568
330
53D
100
AcDbEntity
  8
0
100
AcDbMText
 10
1.403306137261694
 20
-1.522434548202454
 30
0.0
 40
0.05
 41
1.198251202694109
 71
     5
 72
     5
  1
MODEL:UF92AM12
 73
     1
 44
1.0
1001
ACAD
1000
MTEXTBEGIN
1070
    73
1070
     1
1070
    44
1040
1.0
1070
    74
1070
     0
1000
MTEXTEND
  0
MTEXT
  5
569
330
53D
100
AcDbEntity
  8
0
100
AcDbMText
 10
2.103306137261681
 20
-1.522434548202454
 30
0.0
 40
0.05
 41
1.198251202694109
 71
     5
 72
     5
  1
BTHF
 73
     1
 44
1.0
1001
ACAD
1000
MTEXTBEGIN
1070
    73
1070
     1
1070
    44
1040
1.0
1070
    74
1070
     0
1000
MTEXTEND
  0
MTEXT
  5
56A
330
53D
100
AcDbEntity
  8
0
100
AcDbMText
 10
1.268306137261689
 20
-1.682434548202451
 30
0.0
 40
0.05
 41
1.198251202694109
 71
     5
 72
     5
  1
AC 115V
 73
     1
 44
1.0
1001
ACAD
1000
MTEXTBEGIN
1070
    73
1070
     1
1070
    44
1040
1.0
1070
    74
1070
     0
1000
MTEXTEND
  0
MTEXT
  5
56B
330
53D
100
AcDbEntity
  8
0
100
AcDbMText
 10
1.96830613726169
 20
-1.682434548202451
 30
0.0
 40
0.05
 41
1.198251202694109
 71
     5
 72
     5
  1
50/60Hz
 73
     1
 44
1.0
1001
ACAD
1000
MTEXTBEGIN
1070
    73
1070
     1
1070
    44
1040
1.0
1070
    74
1070
     0
1000
MTEXTEND
  0
MTEXT
  5
56C
330
53D
100
AcDbEntity
  8
0
100
AcDbMText
 10
1.268306137261689
 20
-1.842434548202446
 30
0.0
 40
0.05
 41
1.198251202694109
 71
     5
 72
     5
  1
12/11 WATT
 73
     1
 44
1.0
1001
ACAD
1000
MTEXTBEGIN
1070
    73
1070
     1
1070
    44
1040
1.0
1070
    74
1070
     0
1000
MTEXTEND
  0
MTEXT
  5
56D
330
53D
100
AcDbEntity
  8
0
100
AcDbMText
 10
1.96830613726169
 20
-1.842434548202446
 30
0.0
 40
0.05
 41
1.198251202694109
 71
     5
 72
     5
  1
BALL BEARING
 73
     1
 44
1.0
1001
ACAD
1000
MTEXTBEGIN
1070
    73
1070
     1
1070
    44
1040
1.0
1070
    74
1070
     0
1000
MTEXTEND
  0
TEXT
  5
56E
330
53D
100
AcDbEntity
  8
0
100
AcDbText
 10
1.226345596729004
 20
-1.031718551076757
 30
0.0
 40
0.1
  1
MECHATRONICS
 41
0.7058823529411856
 72
     5
 11
2.026345596729014
 21
-1.031718551076757
 31
0.0
100
AcDbText
  0
LINE
  5
56F
330
53D
100
AcDbEntity
  8
0
100
AcDbLine
 10
0.9283061372616996
 20
-1.442434548202455
 30
0.0
 11
0.9283061372616996
 21
-1.602434548202451
 31
0.0
  0
LINE
  5
570
330
53D
100
AcDbEntity
  8
0
100
AcDbLine
 10
0.9283061372616996
 20
-1.602434548202451
 30
0.0
 11
2.32830613726169
 21
-1.602434548202451
 31
0.0
  0
LINE
  5
571
330
53D
100
AcDbEntity
  8
0
100
AcDbLine
 10
2.32830613726169
 20
-1.602434548202451
 30
0.0
 11
2.32830613726169
 21
-1.442434548202455
 31
0.0
  0
LINE
  5
572
330
53D
100
AcDbEntity
  8
0
100
AcDbLine
 10
2.32830613726169
 20
-1.442434548202455
 30
0.0
 11
0.9283061372616996
 21
-1.442434548202455
 31
0.0
  0
LINE
  5
573
330
53D
100
AcDbEntity
  8
0
100
AcDbLine
 10
0.9283061372616996
 20
-1.602434548202451
 30
0.0
 11
0.9283061372616996
 21
-1.762434548202449
 31
0.0
  0
LINE
  5
574
330
53D
100
AcDbEntity
  8
0
100
AcDbLine
 10
0.9283061372616996
 20
-1.762434548202449
 30
0.0
 11
2.32830613726169
 21
-1.762434548202449
 31
0.0
  0
LINE
  5
575
330
53D
100
AcDbEntity
  8
0
100
AcDbLine
 10
2.32830613726169
 20
-1.762434548202449
 30
0.0
 11
2.32830613726169
 21
-1.602434548202451
 31
0.0
  0
LINE
  5
576
330
53D
100
AcDbEntity
  8
0
100
AcDbLine
 10
2.32830613726169
 20
-1.602434548202451
 30
0.0
 11
0.9283061372616996
 21
-1.602434548202451
 31
0.0
  0
LINE
  5
577
330
53D
100
AcDbEntity
  8
0
100
AcDbLine
 10
0.9283061372616996
 20
-1.762434548202449
 30
0.0
 11
0.9283061372616996
 21
-1.922434548202446
 31
0.0
  0
LINE
  5
578
330
53D
100
AcDbEntity
  8
0
100
AcDbLine
 10
0.9283061372616996
 20
-1.922434548202446
 30
0.0
 11
2.32830613726169
 21
-1.922434548202446
 31
0.0
  0
LINE
  5
579
330
53D
100
AcDbEntity
  8
0
100
AcDbLine
 10
2.32830613726169
 20
-1.922434548202446
 30
0.0
 11
2.32830613726169
 21
-1.762434548202449
 31
0.0
  0
LINE
  5
57A
330
53D
100
AcDbEntity
  8
0
100
AcDbLine
 10
2.32830613726169
 20
-1.762434548202449
 30
0.0
 11
0.9283061372616996
 21
-1.762434548202449
 31
0.0
  0
LINE
  5
57B
330
53D
100
AcDbEntity
  8
0
100
AcDbLine
 10
1.878306137261688
 20
-1.442434548202455
 30
0.0
 11
1.878306137261688
 21
-1.602434548202451
 31
0.0
  0
LINE
  5
57C
330
53D
100
AcDbEntity
  8
0
100
AcDbLine
 10
1.608306137261692
 20
-1.602434548202451
 30
0.0
 11
1.608306137261692
 21
-1.762434548202449
 31
0.0
  0
LINE
  5
57D
330
53D
100
AcDbEntity
  8
0
100
AcDbLine
 10
1.608306137261692
 20
-1.762434548202449
 30
0.0
 11
1.608306137261692
 21
-1.922434548202446
 31
0.0
  0
CIRCLE
  5
57E
330
53D
100
AcDbEntity
  8
0
100
AcDbCircle
 10
1.594224639114741
 20
-1.22470413214674
 30
0.0
 40
0.07
  0
ARC
  5
57F
330
53D
100
AcDbEntity
  8
0
100
AcDbCircle
 10
1.594224639114741
 20
-1.22470413214674
 30
0.0
 40
0.085
100
AcDbArc
 50
320.4789079476887
 51
39.52109205231132
  0
ARC
  5
580
330
53D
100
AcDbEntity
  8
0
100
AcDbCircle
 10
1.704224639114754
 20
-1.22470413214674
 30
0.0
 40
0.07
100
AcDbArc
 50
230.5992773209269
 51
129.400722679073
  0
ARC
  5
581
330
53D
100
AcDbEntity
  8
0
100
AcDbCircle
 10
1.80422463911475
 20
-1.22470413214674
 30
0.0
 40
0.07
100
AcDbArc
 50
236.7554084440992
 51
123.2445915559008
  0
ARC
  5
582
330
53D
100
AcDbEntity
  8
0
100
AcDbCircle
 10
1.864224639114751
 20
-1.22470413214674
 30
0.0
 40
0.07
100
AcDbArc
 50
261.269574484122
 51
98.73042551587792
  0
ARC
  5
583
330
53D
100
AcDbEntity
  8
0
100
AcDbCircle
 10
1.704224639114754
 20
-1.22470413214674
 30
0.0
 40
0.085
100
AcDbArc
 50
316.4688478326293
 51
43.53115216737071
  0
ARC
  5
584
330
53D
100
AcDbEntity
  8
0
100
AcDbCircle
 10
1.80422463911475
 20
-1.22470413214674
 30
0.0
 40
0.085
100
AcDbArc
 50
305.5126266014247
 51
54.48737339857518
  0
ARC
  5
585
330
53D
100
AcDbEntity
  8
0
100
AcDbCircle
 10
1.864224639114751
 20
-1.22470413214674
 30
0.0
 40
0.085
100
AcDbArc
 50
305.2542583001657
 51
54.74574169983357
  0
ARC
  5
586
330
53D
100
AcDbEntity
  8
0
100
AcDbCircle
 10
1.904224639114744
 20
-1.22470413214674
 30
0.0
 40
0.085
100
AcDbArc
 50
309.2239323985999
 51
50.77606760139987
  0
ARC
  5
587
330
53D
100
AcDbEntity
  8
0
100
AcDbCircle
 10
1.904224639114744
 20
-1.22470413214674
 30
0.0
 40
0.07
100
AcDbArc
 50
277.438636543561
 51
82.56136345643897
  0
ARC
  5
588
330
53D
100
AcDbEntity
  8
0
100
AcDbCircle
 10
1.934224639114745
 20
-1.22470413214674
 30
0.0
 40
0.07
100
AcDbArc
 50
289.8333619088584
 51
70.16663809114084
  0
ARC
  5
589
330
53D
100
AcDbEntity
  8
0
100
AcDbCircle
 10
1.594224639114756
 20
-1.22470413214674
 30
0.0
 40
0.085
100
AcDbArc
 50
140.4789079476886
 51
219.5210920523114
  0
ARC
  5
58A
330
53D
100
AcDbEntity
  8
0
100
AcDbCircle
 10
1.484224639114755
 20
-1.22470413214674
 30
0.0
 40
0.07
100
AcDbArc
 50
50.59927732092695
 51
309.4007226790732
  0
ARC
  5
58B
330
53D
100
AcDbEntity
  8
0
100
AcDbCircle
 10
1.384224639114747
 20
-1.22470413214674
 30
0.0
 40
0.07
100
AcDbArc
 50
56.75540844409916
 51
303.2445915559009
  0
ARC
  5
58C
330
53D
100
AcDbEntity
  8
0
100
AcDbCircle
 10
1.32422463911476
 20
-1.22470413214674
 30
0.0
 40
0.07
100
AcDbArc
 50
81.26957448412204
 51
278.730425515878
  0
ARC
  5
58D
330
53D
100
AcDbEntity
  8
0
100
AcDbCircle
 10
1.484224639114755
 20
-1.22470413214674
 30
0.0
 40
0.085
100
AcDbArc
 50
136.4688478326293
 51
223.5311521673707
  0
ARC
  5
58E
330
53D
100
AcDbEntity
  8
0
100
AcDbCircle
 10
1.384224639114747
 20
-1.22470413214674
 30
0.0
 40
0.085
100
AcDbArc
 50
125.5126266014248
 51
234.4873733985751
  0
ARC
  5
58F
330
53D
100
AcDbEntity
  8
0
100
AcDbCircle
 10
1.32422463911476
 20
-1.22470413214674
 30
0.0
 40
0.085
100
AcDbArc
 50
125.2542583001657
 51
234.7457416998342
  0
ARC
  5
590
330
53D
100
AcDbEntity
  8
0
100
AcDbCircle
 10
1.284224639114754
 20
-1.22470413214674
 30
0.0
 40
0.085
100
AcDbArc
 50
129.2239323986001
 51
230.7760676013999
  0
ARC
  5
591
330
53D
100
AcDbEntity
  8
0
100
AcDbCircle
 10
1.284224639114754
 20
-1.22470413214674
 30
0.0
 40
0.07
100
AcDbArc
 50
97.43863654356104
 51
262.561363456439
  0
ARC
  5
592
330
53D
100
AcDbEntity
  8
0
100
AcDbCircle
 10
1.254224639114752
 20
-1.22470413214674
 30
0.0
 40
0.07
100
AcDbArc
 50
109.8333619088584
 51
250.1666380911409
  0
ENDBLK
  5
593
330
53D
100
AcDbEntity
  8
0
100
AcDbBlockEnd
  0
BLOCK
  5
6D0
330
595
100
AcDbEntity
  8
0
100
AcDbBlockBegin
  2
A$C72281AFB
 70
     0
 10
0.0
 20
0.0
 30
0.0
  3
A$C72281AFB
  1

  0
CIRCLE
  5
596
330
595
100
AcDbEntity
  8
0
 62
     1
100
AcDbCircle
 10
-1.318815061627987
 20
-3.341093817795638
 30
0.0
 40
0.125
  0
CIRCLE
  5
597
330
595
100
AcDbEntity
  8
0
 62
     1
100
AcDbCircle
 10
3.861184938372048
 20
-3.341093817795638
 30
0.0
 40
0.125
  0
CIRCLE
  5
598
330
595
100
AcDbEntity
  8
0
 62
     1
100
AcDbCircle
 10
-1.318815061627987
 20
9.40890618220436
 30
0.0
 40
0.125
  0
CIRCLE
  5
599
330
595
100
AcDbEntity
  8
0
 62
     1
100
AcDbCircle
 10
3.861184938372048
 20
9.40890618220436
 30
0.0
 40
0.125
  0
LINE
  5
59A
330
595
100
AcDbEntity
  8
0
 62
     1
100
AcDbLine
 10
4.021184938372029
 20
1.071406182204355
 30
0.0
 11
4.021184938372029
 21
-1.678593817795643
 31
0.0
  0
LINE
  5
59B
330
595
100
AcDbEntity
  8
0
 62
     1
100
AcDbLine
 10
-1.478815061627968
 20
1.071406182204355
 30
0.0
 11
-1.478815061627968
 21
-1.678593817795643
 31
0.0
  0
LINE
  5
59C
330
595
100
AcDbEntity
  8
0
 62
     1
100
AcDbLine
 10
-1.478815061627975
 20
-1.678593817795643
 30
0.0
 11
4.021184938372023
 21
-1.678593817795643
 31
0.0
  0
LINE
  5
59D
330
595
100
AcDbEntity
  8
0
 62
     1
100
AcDbLine
 10
-1.478815061627968
 20
1.071406182204355
 30
0.0
 11
4.021184938372023
 21
1.071406182204355
 31
0.0
  0
LINE
  5
59E
330
595
100
AcDbEntity
  8
0
 62
     1
100
AcDbLine
 10
-2.228815061627968
 20
10.06890618220436
 30
0.0
 11
4.771184938372016
 21
10.06890618220436
 31
0.0
  0
LINE
  5
59F
330
595
100
AcDbEntity
  8
0
 62
     1
100
AcDbLine
 10
4.77118493837203
 20
10.06890618220436
 30
0.0
 11
4.771184938372043
 21
-4.281093817795635
 31
0.0
  0
LINE
  5
5A0
330
595
100
AcDbEntity
  8
0
 62
     1
100
AcDbLine
 10
-2.228815061627976
 20
-4.281093817795606
 30
0.0
 11
-2.228815061627968
 21
10.06890618220436
 31
0.0
  0
LINE
  5
5A1
330
595
100
AcDbEntity
  8
0
 62
     1
100
AcDbLine
 10
-2.168815061627966
 20
-4.221093817795618
 30
0.0
 11
-2.16881506162796
 21
10.00890618220437
 31
0.0
  0
LINE
  5
5A2
330
595
100
AcDbEntity
  8
0
 62
     1
100
AcDbLine
 10
-2.16881506162796
 20
10.00890618220437
 30
0.0
 11
4.711184938372021
 21
10.00890618220435
 31
0.0
  0
LINE
  5
5A3
330
595
100
AcDbEntity
  8
0
 62
     1
100
AcDbLine
 10
4.711184938372028
 20
10.00890618220437
 30
0.0
 11
4.711184938372028
 21
-4.221093817795605
 31
0.0
  0
LINE
  5
5A4
330
595
100
AcDbEntity
  8
0
 62
     1
 48
0.01
100
AcDbLine
 10
4.001184938371884
 20
10.00890618220437
 30
0.0
 11
4.001184938371884
 21
9.938906182204434
 31
0.0
  0
LINE
  5
5A5
330
595
100
AcDbEntity
  8
0
 62
     1
 48
0.01
100
AcDbLine
 10
3.72118493837214
 20
10.00890618220437
 30
0.0
 11
3.72118493837214
 21
9.938906182204434
 31
0.0
  0
LINE
  5
5A6
330
595
100
AcDbEntity
  8
0
 62
     1
 48
0.01
100
AcDbLine
 10
3.72118493837214
 20
9.938906182204434
 30
0.0
 11
4.001184938371884
 21
9.938906182204434
 31
0.0
  0
LINE
  5
5A7
330
595
100
AcDbEntity
  8
0
 62
     1
 48
0.01
100
AcDbLine
 10
4.711184938372007
 20
9.298906182204246
 30
0.0
 11
4.641184938372069
 21
9.298906182204246
 31
0.0
  0
LINE
  5
5A8
330
595
100
AcDbEntity
  8
0
 62
     1
 48
0.01
100
AcDbLine
 10
4.711184938372007
 20
9.018906182204503
 30
0.0
 11
4.641184938372069
 21
9.018906182204503
 31
0.0
  0
LINE
  5
5A9
330
595
100
AcDbEntity
  8
0
 62
     1
 48
0.01
100
AcDbLine
 10
4.641184938372069
 20
9.018906182204503
 30
0.0
 11
4.641184938372069
 21
9.298906182204246
 31
0.0
  0
LINE
  5
5AA
330
595
100
AcDbEntity
  8
0
 62
     1
 48
0.01
100
AcDbLine
 10
-1.178815061628107
 20
10.00890618220437
 30
0.0
 11
-1.178815061628107
 21
9.938906182204434
 31
0.0
  0
LINE
  5
5AB
330
595
100
AcDbEntity
  8
0
 62
     1
 48
0.01
100
AcDbLine
 10
-1.458815061627851
 20
10.00890618220437
 30
0.0
 11
-1.458815061627851
 21
9.938906182204434
 31
0.0
  0
LINE
  5
5AC
330
595
100
AcDbEntity
  8
0
 62
     1
 48
0.01
100
AcDbLine
 10
-1.458815061627851
 20
9.938906182204434
 30
0.0
 11
-1.178815061628107
 21
9.938906182204434
 31
0.0
  0
LINE
  5
5AD
330
595
100
AcDbEntity
  8
0
 62
     1
 48
0.01
100
AcDbLine
 10
-2.16881506162796
 20
9.298906182204246
 30
0.0
 11
-2.098815061628023
 21
9.298906182204246
 31
0.0
  0
LINE
  5
5AE
330
595
100
AcDbEntity
  8
0
 62
     1
 48
0.01
100
AcDbLine
 10
-2.16881506162796
 20
9.018906182204503
 30
0.0
 11
-2.098815061628023
 21
9.018906182204503
 31
0.0
  0
LINE
  5
5AF
330
595
100
AcDbEntity
  8
0
 62
     1
 48
0.01
100
AcDbLine
 10
-2.098815061628023
 20
9.018906182204503
 30
0.0
 11
-2.098815061628023
 21
9.298906182204246
 31
0.0
  0
LINE
  5
5B0
330
595
100
AcDbEntity
  8
0
 62
     1
 48
0.01
100
AcDbLine
 10
-2.16881506162796
 20
3.048906182204261
 30
0.0
 11
-2.098815061628023
 21
3.048906182204261
 31
0.0
  0
LINE
  5
5B1
330
595
100
AcDbEntity
  8
0
 62
     1
 48
0.01
100
AcDbLine
 10
-2.16881506162796
 20
2.768906182204517
 30
0.0
 11
-2.098815061628023
 21
2.768906182204517
 31
0.0
  0
LINE
  5
5B2
330
595
100
AcDbEntity
  8
0
 62
     1
 48
0.01
100
AcDbLine
 10
-2.098815061628023
 20
2.768906182204517
 30
0.0
 11
-2.098815061628023
 21
3.048906182204261
 31
0.0
  0
LINE
  5
5B3
330
595
100
AcDbEntity
  8
0
 62
     1
 48
0.01
100
AcDbLine
 10
-2.16881506162796
 20
-3.201093817795736
 30
0.0
 11
-2.098815061628023
 21
-3.201093817795736
 31
0.0
  0
LINE
  5
5B4
330
595
100
AcDbEntity
  8
0
 62
     1
 48
0.01
100
AcDbLine
 10
-2.16881506162796
 20
-3.481093817795481
 30
0.0
 11
-2.098815061628023
 21
-3.481093817795481
 31
0.0
  0
LINE
  5
5B5
330
595
100
AcDbEntity
  8
0
 62
     1
 48
0.01
100
AcDbLine
 10
-2.098815061628023
 20
-3.481093817795481
 30
0.0
 11
-2.098815061628023
 21
-3.201093817795736
 31
0.0
  0
LINE
  5
5B6
330
595
100
AcDbEntity
  8
0
 62
     1
 48
0.01
100
AcDbLine
 10
4.711184938372007
 20
-3.201093817795736
 30
0.0
 11
4.641184938372069
 21
-3.201093817795736
 31
0.0
  0
LINE
  5
5B7
330
595
100
AcDbEntity
  8
0
 62
     1
 48
0.01
100
AcDbLine
 10
4.711184938372007
 20
-3.481093817795481
 30
0.0
 11
4.641184938372069
 21
-3.481093817795481
 31
0.0
  0
LINE
  5
5B8
330
595
100
AcDbEntity
  8
0
 62
     1
 48
0.01
100
AcDbLine
 10
4.641184938372069
 20
-3.481093817795481
 30
0.0
 11
4.641184938372069
 21
-3.201093817795736
 31
0.0
  0
LINE
  5
5B9
330
595
100
AcDbEntity
  8
0
 62
     1
 48
0.01
100
AcDbLine
 10
4.711184938372007
 20
3.048906182204261
 30
0.0
 11
4.641184938372069
 21
3.048906182204261
 31
0.0
  0
LINE
  5
5BA
330
595
100
AcDbEntity
  8
0
 62
     1
 48
0.01
100
AcDbLine
 10
4.711184938372007
 20
2.768906182204517
 30
0.0
 11
4.641184938372069
 21
2.768906182204517
 31
0.0
  0
LINE
  5
5BB
330
595
100
AcDbEntity
  8
0
 62
     1
 48
0.01
100
AcDbLine
 10
4.641184938372069
 20
2.768906182204517
 30
0.0
 11
4.641184938372069
 21
3.048906182204261
 31
0.0
  0
CIRCLE
  5
5BC
330
595
100
AcDbEntity
  8
0
  6
HIDDEN
 62
     1
100
AcDbCircle
 10
4.116184938372021
 20
7.90890618220436
 30
-0.0000370842611946
 40
0.14
  0
CIRCLE
  5
5BD
330
595
100
AcDbEntity
  8
0
 62
     1
100
AcDbCircle
 10
4.116184938372021
 20
7.90890618220436
 30
-0.0000370842611946
 40
0.069
  0
CIRCLE
  5
5BE
330
595
100
AcDbEntity
  8
0
 62
     1
100
AcDbCircle
 10
-1.318815061627994
 20
-3.341093817795638
 30
0.0
 40
0.22
  0
CIRCLE
  5
5BF
330
595
100
AcDbEntity
  8
0
 62
     1
100
AcDbCircle
 10
3.861184938372041
 20
-3.341093817795638
 30
0.0
 40
0.22
  0
LINE
  5
5C0
330
595
100
AcDbEntity
  8
0
 62
     1
100
AcDbLine
 10
4.711184938372028
 20
-4.221093817795605
 30
0.0
 11
3.771184938372015
 21
-4.221093817795605
 31
0.0
  0
INSERT
  5
5C1
330
595
100
AcDbEntity
  8
0
 62
     1
100
AcDbBlockReference
  2
A$C40424F15
 10
3.989923527166745
 20
6.688043663967746
 30
0.0
 50
90.0
  0
LINE
  5
5C2
330
595
100
AcDbEntity
  8
0
 62
     1
100
AcDbLine
 10
4.77118493837203
 20
7.316406182204346
 30
0.0
 11
4.77118493837203
 21
6.756406182204344
 31
0.0
  0
LINE
  5
5C3
330
595
100
AcDbEntity
  8
0
 62
     1
100
AcDbLine
 10
-1.228815061627939
 20
-4.221093817795605
 30
0.0
 11
-1.228815061627939
 21
-4.281093817795606
 31
0.0
  0
LINE
  5
5C4
330
595
100
AcDbEntity
  8
0
 62
     1
100
AcDbLine
 10
3.771184938372015
 20
-4.221093817795605
 30
0.0
 11
3.771184938372015
 21
-4.281093817795635
 31
0.0
  0
LINE
  5
5C5
330
595
100
AcDbEntity
  8
0
 62
     1
100
AcDbLine
 10
-1.228815061627939
 20
-4.221093817795605
 30
0.0
 11
-2.168815061627974
 21
-4.221093817795605
 31
0.0
  0
CIRCLE
  5
5C6
330
595
100
AcDbEntity
  8
0
 62
     1
100
AcDbCircle
 10
-1.815315061627977
 20
1.738906182204344
 30
0.0
 40
0.053
  0
CIRCLE
  5
5C7
330
595
100
AcDbEntity
  8
0
 62
     1
100
AcDbCircle
 10
1.271761757960774
 20
-2.302582722997924
 30
0.0
 40
0.053
  0
CIRCLE
  5
5C8
330
595
100
AcDbEntity
  8
0
 62
     1
100
AcDbCircle
 10
4.357684938372051
 20
1.738906182204344
 30
0.0
 40
0.053
  0
LINE
  5
5C9
330
595
100
AcDbEntity
  8
0
 62
     1
100
AcDbLine
 10
-1.228815061627939
 20
-4.281093817795606
 30
0.0
 11
-2.228815061627968
 21
-4.281093817795606
 31
0.0
  0
LINE
  5
5CA
330
595
100
AcDbEntity
  8
0
 62
     1
100
AcDbLine
 10
3.771184938372015
 20
-4.281093817795635
 30
0.0
 11
4.771184938372043
 21
-4.281093817795635
 31
0.0
  0
LINE
  5
5CB
330
595
100
AcDbEntity
  8
0
 62
     1
100
AcDbLine
 10
-1.228815061627939
 20
-4.281093817795606
 30
0.0
 11
3.771184938372015
 21
-4.281093817795635
 31
0.0
  0
LINE
  5
5CC
330
595
100
AcDbEntity
  8
0
100
AcDbLine
 10
-2.318815061627943
 20
-4.341093817795638
 30
0.0000372377133099
 11
4.861184938372061
 21
-4.341093817795638
 31
0.0000372377133099
  0
LINE
  5
5CD
330
595
100
AcDbEntity
  8
0
100
AcDbLine
 10
4.861184938372034
 20
10.15890618220436
 30
0.0
 11
4.861184938372061
 21
-4.341093817795638
 31
0.0000370842611946
  0
LINE
  5
5CE
330
595
100
AcDbEntity
  8
0
100
AcDbLine
 10
-2.318815061627971
 20
10.15890618220433
 30
0.0
 11
4.861184938372034
 21
10.15890618220436
 31
0.0
  0
LINE
  5
5CF
330
595
100
AcDbEntity
  8
0
100
AcDbLine
 10
-2.318815061627943
 20
-4.341093817795638
 30
0.0000370842611946
 11
-2.318815061627971
 21
10.15890618220433
 31
0.0
  0
LINE
  5
5D0
330
595
100
AcDbEntity
  8
0
  6
HIDDEN
100
AcDbLine
 10
-2.258815061627942
 20
-4.341093817795638
 30
0.0000370842611946
 11
-2.25881506162797
 21
10.09890618220433
 31
0.0000001534521153
  0
LINE
  5
5D1
330
595
100
AcDbEntity
  8
0
  6
HIDDEN
100
AcDbLine
 10
-2.25881506162797
 20
10.09890618220433
 30
0.0
 11
4.801184938372016
 21
10.09890618220436
 31
0.0
  0
LINE
  5
5D2
330
595
100
AcDbEntity
  8
0
  6
HIDDEN
100
AcDbLine
 10
4.801184938372016
 20
10.09890618220436
 30
0.0000001534521153
 11
4.801184938372059
 21
-4.341093817795638
 31
0.0000370842611946
  0
CIRCLE
  5
5D3
330
595
100
AcDbEntity
  8
0
100
AcDbCircle
 10
-1.318815061628
 20
-4.061093817795637
 30
0.0000372377133099
 40
0.1015
  0
CIRCLE
  5
5D4
330
595
100
AcDbEntity
  8
0
100
AcDbCircle
 10
3.861184938372004
 20
-4.061093817795607
 30
0.0000372377133099
 40
0.1015
  0
LINE
  5
5D5
330
595
100
AcDbEntity
  8
0
100
AcDbLine
 10
-1.36881506162794
 20
5.116406182204329
 30
0.0000370842611946
 11
-0.9308150616279393
 21
5.116406182204329
 31
0.0000370842611946
  0
LINE
  5
5D6
330
595
100
AcDbEntity
  8
0
100
AcDbLine
 10
-0.9308150616279393
 20
5.116406182204329
 30
0.0000370842611946
 11
-0.9308150616279393
 21
4.678406182204311
 31
0.0000370842611946
  0
LINE
  5
5D7
330
595
100
AcDbEntity
  8
0
100
AcDbLine
 10
-0.9308150616279393
 20
4.678406182204311
 30
0.0000370842611946
 11
-1.36881506162794
 21
4.678406182204311
 31
0.0000370842611946
  0
LINE
  5
5D8
330
595
100
AcDbEntity
  8
0
100
AcDbLine
 10
-1.36881506162794
 20
5.116406182204329
 30
0.0000370842611946
 11
-1.36881506162794
 21
4.678406182204311
 31
0.0000370842611946
  0
LINE
  5
5D9
330
595
100
AcDbEntity
  8
0
100
AcDbLine
 10
-1.36881506162794
 20
4.578406182204318
 30
0.0000370842611946
 11
-0.9308150616279393
 21
4.578406182204318
 31
0.0000370842611946
  0
LINE
  5
5DA
330
595
100
AcDbEntity
  8
0
100
AcDbLine
 10
-0.9308150616279393
 20
4.578406182204318
 30
0.0000370842611946
 11
-0.9308150616279393
 21
4.140406182204316
 31
0.0000370842611946
  0
LINE
  5
5DB
330
595
100
AcDbEntity
  8
0
100
AcDbLine
 10
-0.9308150616279393
 20
4.140406182204316
 30
0.0000370842611946
 11
-1.36881506162794
 21
4.140406182204316
 31
0.0000370842611946
  0
LINE
  5
5DC
330
595
100
AcDbEntity
  8
0
100
AcDbLine
 10
-1.36881506162794
 20
4.578406182204318
 30
0.0000370842611946
 11
-1.36881506162794
 21
4.140406182204316
 31
0.0000370842611946
  0
LINE
  5
5DD
330
595
100
AcDbEntity
  8
0
100
AcDbLine
 10
-1.36881506162794
 20
4.040406182204306
 30
0.0000370842611946
 11
-0.9308150616279393
 21
4.040406182204306
 31
0.0000370842611946
  0
LINE
  5
5DE
330
595
100
AcDbEntity
  8
0
100
AcDbLine
 10
-0.9308150616279393
 20
4.040406182204306
 30
0.0000370842611946
 11
-0.9308150616279393
 21
3.602406182204318
 31
0.0000370842611946
  0
LINE
  5
5DF
330
595
100
AcDbEntity
  8
0
100
AcDbLine
 10
-0.9308150616279393
 20
3.602406182204318
 30
0.0000370842611946
 11
-1.36881506162794
 21
3.602406182204318
 31
0.0000370842611946
  0
LINE
  5
5E0
330
595
100
AcDbEntity
  8
0
100
AcDbLine
 10
-1.36881506162794
 20
4.040406182204306
 30
0.0000370842611946
 11
-1.36881506162794
 21
3.602406182204318
 31
0.0000370842611946
  0
LINE
  5
5E1
330
595
100
AcDbEntity
  8
0
100
AcDbLine
 10
-1.36881506162794
 20
3.50240618220431
 30
0.0000370842611946
 11
-0.9308150616279393
 21
3.50240618220431
 31
0.0000370842611946
  0
LINE
  5
5E2
330
595
100
AcDbEntity
  8
0
100
AcDbLine
 10
-0.9308150616279393
 20
3.50240618220431
 30
0.0000370842611946
 11
-0.9308150616279393
 21
3.064406182204308
 31
0.0000370842611946
  0
LINE
  5
5E3
330
595
100
AcDbEntity
  8
0
100
AcDbLine
 10
-0.9308150616279393
 20
3.064406182204308
 30
0.0000370842611946
 11
-1.36881506162794
 21
3.064406182204308
 31
0.0000370842611946
  0
LINE
  5
5E4
330
595
100
AcDbEntity
  8
0
100
AcDbLine
 10
-1.36881506162794
 20
3.50240618220431
 30
0.0000370842611946
 11
-1.36881506162794
 21
3.064406182204308
 31
0.0000370842611946
  0
LINE
  5
5E5
330
595
100
AcDbEntity
  8
0
100
AcDbLine
 10
-1.36881506162794
 20
2.964406182204313
 30
0.0000370842611946
 11
-0.9308150616279393
 21
2.964406182204313
 31
0.0000370842611946
  0
LINE
  5
5E6
330
595
100
AcDbEntity
  8
0
100
AcDbLine
 10
-0.9308150616279393
 20
2.964406182204313
 30
0.0000370842611946
 11
-0.9308150616279393
 21
2.52640618220431
 31
0.0000370842611946
  0
LINE
  5
5E7
330
595
100
AcDbEntity
  8
0
100
AcDbLine
 10
-0.9308150616279393
 20
2.52640618220431
 30
0.0000370842611946
 11
-1.36881506162794
 21
2.52640618220431
 31
0.0000370842611946
  0
LINE
  5
5E8
330
595
100
AcDbEntity
  8
0
100
AcDbLine
 10
-1.36881506162794
 20
2.964406182204313
 30
0.0000370842611946
 11
-1.36881506162794
 21
2.52640618220431
 31
0.0000370842611946
  0
LINE
  5
5E9
330
595
100
AcDbEntity
  8
0
100
AcDbLine
 10
-0.8308150616279448
 20
5.116406182204329
 30
0.0000370842611946
 11
-0.3928150616279424
 21
5.116406182204329
 31
0.0000370842611946
  0
LINE
  5
5EA
330
595
100
AcDbEntity
  8
0
100
AcDbLine
 10
-0.3928150616279424
 20
5.116406182204329
 30
0.0000370842611946
 11
-0.3928150616279424
 21
4.678406182204311
 31
0.0000370842611946
  0
LINE
  5
5EB
330
595
100
AcDbEntity
  8
0
100
AcDbLine
 10
-0.3928150616279424
 20
4.678406182204311
 30
0.0000370842611946
 11
-0.8308150616279448
 21
4.678406182204311
 31
0.0000370842611946
  0
LINE
  5
5EC
330
595
100
AcDbEntity
  8
0
100
AcDbLine
 10
-0.8308150616279448
 20
5.116406182204329
 30
0.0000370842611946
 11
-0.8308150616279448
 21
4.678406182204311
 31
0.0000370842611946
  0
LINE
  5
5ED
330
595
100
AcDbEntity
  8
0
100
AcDbLine
 10
-0.8308150616279448
 20
4.578406182204318
 30
0.0000370842611946
 11
-0.3928150616279424
 21
4.578406182204318
 31
0.0000370842611946
  0
LINE
  5
5EE
330
595
100
AcDbEntity
  8
0
100
AcDbLine
 10
-0.3928150616279424
 20
4.578406182204318
 30
0.0000370842611946
 11
-0.3928150616279424
 21
4.140406182204316
 31
0.0000370842611946
  0
LINE
  5
5EF
330
595
100
AcDbEntity
  8
0
100
AcDbLine
 10
-0.3928150616279424
 20
4.140406182204316
 30
0.0000370842611946
 11
-0.8308150616279448
 21
4.140406182204316
 31
0.0000370842611946
  0
LINE
  5
5F0
330
595
100
AcDbEntity
  8
0
100
AcDbLine
 10
-0.8308150616279448
 20
4.578406182204318
 30
0.0000370842611946
 11
-0.8308150616279448
 21
4.140406182204316
 31
0.0000370842611946
  0
LINE
  5
5F1
330
595
100
AcDbEntity
  8
0
100
AcDbLine
 10
-0.8308150616279448
 20
4.040406182204306
 30
0.0000370842611946
 11
-0.3928150616279424
 21
4.040406182204306
 31
0.0000370842611946
  0
LINE
  5
5F2
330
595
100
AcDbEntity
  8
0
100
AcDbLine
 10
-0.3928150616279424
 20
4.040406182204306
 30
0.0000370842611946
 11
-0.3928150616279424
 21
3.602406182204318
 31
0.0000370842611946
  0
LINE
  5
5F3
330
595
100
AcDbEntity
  8
0
100
AcDbLine
 10
-0.3928150616279424
 20
3.602406182204318
 30
0.0000370842611946
 11
-0.8308150616279448
 21
3.602406182204318
 31
0.0000370842611946
  0
LINE
  5
5F4
330
595
100
AcDbEntity
  8
0
100
AcDbLine
 10
-0.8308150616279448
 20
4.040406182204306
 30
0.0000370842611946
 11
-0.8308150616279448
 21
3.602406182204318
 31
0.0000370842611946
  0
LINE
  5
5F5
330
595
100
AcDbEntity
  8
0
100
AcDbLine
 10
-0.8308150616279448
 20
3.50240618220431
 30
0.0000370842611946
 11
-0.3928150616279424
 21
3.50240618220431
 31
0.0000370842611946
  0
LINE
  5
5F6
330
595
100
AcDbEntity
  8
0
100
AcDbLine
 10
-0.3928150616279424
 20
3.50240618220431
 30
0.0000370842611946
 11
-0.3928150616279424
 21
3.064406182204308
 31
0.0000370842611946
  0
LINE
  5
5F7
330
595
100
AcDbEntity
  8
0
100
AcDbLine
 10
-0.3928150616279424
 20
3.064406182204308
 30
0.0000370842611946
 11
-0.8308150616279448
 21
3.064406182204308
 31
0.0000370842611946
  0
LINE
  5
5F8
330
595
100
AcDbEntity
  8
0
100
AcDbLine
 10
-0.8308150616279448
 20
3.50240618220431
 30
0.0000370842611946
 11
-0.8308150616279448
 21
3.064406182204308
 31
0.0000370842611946
  0
LINE
  5
5F9
330
595
100
AcDbEntity
  8
0
100
AcDbLine
 10
-0.8308150616279448
 20
2.964406182204313
 30
0.0000370842611946
 11
-0.3928150616279424
 21
2.964406182204313
 31
0.0000370842611946
  0
LINE
  5
5FA
330
595
100
AcDbEntity
  8
0
100
AcDbLine
 10
-0.3928150616279424
 20
2.964406182204313
 30
0.0000370842611946
 11
-0.3928150616279424
 21
2.52640618220431
 31
0.0000370842611946
  0
LINE
  5
5FB
330
595
100
AcDbEntity
  8
0
100
AcDbLine
 10
-0.3928150616279424
 20
2.52640618220431
 30
0.0000370842611946
 11
-0.8308150616279448
 21
2.52640618220431
 31
0.0000370842611946
  0
LINE
  5
5FC
330
595
100
AcDbEntity
  8
0
100
AcDbLine
 10
-0.8308150616279448
 20
2.964406182204313
 30
0.0000370842611946
 11
-0.8308150616279448
 21
2.52640618220431
 31
0.0000370842611946
  0
LINE
  5
5FD
330
595
100
AcDbEntity
  8
0
100
AcDbLine
 10
-0.2928150616279481
 20
5.116406182204316
 30
0.0000370842611946
 11
0.1451849383720543
 21
5.116406182204316
 31
0.0000370842611946
  0
LINE
  5
5FE
330
595
100
AcDbEntity
  8
0
100
AcDbLine
 10
0.1451849383720543
 20
5.116406182204316
 30
0.0000370842611946
 11
0.1451849383720543
 21
4.678406182204311
 31
0.0000370842611946
  0
LINE
  5
5FF
330
595
100
AcDbEntity
  8
0
100
AcDbLine
 10
0.1451849383720543
 20
4.678406182204311
 30
0.0000370842611946
 11
-0.2928150616279481
 21
4.678406182204311
 31
0.0000370842611946
  0
LINE
  5
600
330
595
100
AcDbEntity
  8
0
100
AcDbLine
 10
-0.2928150616279481
 20
5.116406182204316
 30
0.0000370842611946
 11
-0.2928150616279481
 21
4.678406182204311
 31
0.0000370842611946
  0
LINE
  5
601
330
595
100
AcDbEntity
  8
0
100
AcDbLine
 10
-0.2928150616279481
 20
4.578406182204318
 30
0.0000370842611946
 11
0.1451849383720543
 21
4.578406182204318
 31
0.0000370842611946
  0
LINE
  5
602
330
595
100
AcDbEntity
  8
0
100
AcDbLine
 10
0.1451849383720543
 20
4.578406182204318
 30
0.0000370842611946
 11
0.1451849383720543
 21
4.140406182204316
 31
0.0000370842611946
  0
LINE
  5
603
330
595
100
AcDbEntity
  8
0
100
AcDbLine
 10
0.1451849383720543
 20
4.140406182204316
 30
0.0000370842611946
 11
-0.2928150616279481
 21
4.140406182204316
 31
0.0000370842611946
  0
LINE
  5
604
330
595
100
AcDbEntity
  8
0
100
AcDbLine
 10
-0.2928150616279481
 20
4.578406182204318
 30
0.0000370842611946
 11
-0.2928150616279481
 21
4.140406182204316
 31
0.0000370842611946
  0
LINE
  5
605
330
595
100
AcDbEntity
  8
0
100
AcDbLine
 10
-0.2928150616279481
 20
4.040406182204306
 30
0.0000370842611946
 11
0.1451849383720543
 21
4.040406182204306
 31
0.0000370842611946
  0
LINE
  5
606
330
595
100
AcDbEntity
  8
0
100
AcDbLine
 10
0.1451849383720543
 20
4.040406182204306
 30
0.0000370842611946
 11
0.1451849383720543
 21
3.602406182204318
 31
0.0000370842611946
  0
LINE
  5
607
330
595
100
AcDbEntity
  8
0
100
AcDbLine
 10
0.1451849383720543
 20
3.602406182204318
 30
0.0000370842611946
 11
-0.2928150616279481
 21
3.602406182204318
 31
0.0000370842611946
  0
LINE
  5
608
330
595
100
AcDbEntity
  8
0
100
AcDbLine
 10
-0.2928150616279481
 20
4.040406182204306
 30
0.0000370842611946
 11
-0.2928150616279481
 21
3.602406182204304
 31
0.0000370842611946
  0
LINE
  5
609
330
595
100
AcDbEntity
  8
0
100
AcDbLine
 10
-0.2928150616279481
 20
3.50240618220431
 30
0.0000370842611946
 11
0.1451849383720543
 21
3.50240618220431
 31
0.0000370842611946
  0
LINE
  5
60A
330
595
100
AcDbEntity
  8
0
100
AcDbLine
 10
0.1451849383720543
 20
3.50240618220431
 30
0.0000370842611946
 11
0.1451849383720543
 21
3.064406182204308
 31
0.0000370842611946
  0
LINE
  5
60B
330
595
100
AcDbEntity
  8
0
100
AcDbLine
 10
0.1451849383720543
 20
3.064406182204308
 30
0.0000370842611946
 11
-0.2928150616279481
 21
3.064406182204308
 31
0.0000370842611946
  0
LINE
  5
60C
330
595
100
AcDbEntity
  8
0
100
AcDbLine
 10
-0.2928150616279481
 20
3.50240618220431
 30
0.0000370842611946
 11
-0.2928150616279481
 21
3.064406182204308
 31
0.0000370842611946
  0
LINE
  5
60D
330
595
100
AcDbEntity
  8
0
100
AcDbLine
 10
-0.2928150616279481
 20
2.964406182204313
 30
0.0000370842611946
 11
0.1451849383720543
 21
2.964406182204313
 31
0.0000370842611946
  0
LINE
  5
60E
330
595
100
AcDbEntity
  8
0
100
AcDbLine
 10
0.1451849383720543
 20
2.964406182204313
 30
0.0000370842611946
 11
0.1451849383720543
 21
2.52640618220431
 31
0.0000370842611946
  0
LINE
  5
60F
330
595
100
AcDbEntity
  8
0
100
AcDbLine
 10
0.1451849383720543
 20
2.52640618220431
 30
0.0000370842611946
 11
-0.2928150616279481
 21
2.52640618220431
 31
0.0000370842611946
  0
LINE
  5
610
330
595
100
AcDbEntity
  8
0
100
AcDbLine
 10
-0.2928150616279481
 20
2.964406182204313
 30
0.0000370842611946
 11
-0.2928150616279481
 21
2.52640618220431
 31
0.0000370842611946
  0
LINE
  5
611
330
595
100
AcDbEntity
  8
0
100
AcDbLine
 10
0.2451849383720486
 20
5.116406182204316
 30
0.0000370842611946
 11
0.683184938372051
 21
5.116406182204316
 31
0.0000370842611946
  0
LINE
  5
612
330
595
100
AcDbEntity
  8
0
100
AcDbLine
 10
0.683184938372051
 20
5.116406182204316
 30
0.0000370842611946
 11
0.683184938372051
 21
4.678406182204311
 31
0.0000370842611946
  0
LINE
  5
613
330
595
100
AcDbEntity
  8
0
100
AcDbLine
 10
0.683184938372051
 20
4.678406182204311
 30
0.0000370842611946
 11
0.2451849383720486
 21
4.678406182204311
 31
0.0000370842611946
  0
LINE
  5
614
330
595
100
AcDbEntity
  8
0
100
AcDbLine
 10
0.2451849383720486
 20
5.116406182204316
 30
0.0000370842611946
 11
0.2451849383720486
 21
4.678406182204311
 31
0.0000370842611946
  0
LINE
  5
615
330
595
100
AcDbEntity
  8
0
100
AcDbLine
 10
0.2451849383720486
 20
4.578406182204318
 30
0.0000370842611946
 11
0.683184938372051
 21
4.578406182204318
 31
0.0000370842611946
  0
LINE
  5
616
330
595
100
AcDbEntity
  8
0
100
AcDbLine
 10
0.683184938372051
 20
4.578406182204318
 30
0.0000370842611946
 11
0.683184938372051
 21
4.140406182204316
 31
0.0000370842611946
  0
LINE
  5
617
330
595
100
AcDbEntity
  8
0
100
AcDbLine
 10
0.683184938372051
 20
4.140406182204316
 30
0.0000370842611946
 11
0.2451849383720486
 21
4.140406182204316
 31
0.0000370842611946
  0
LINE
  5
618
330
595
100
AcDbEntity
  8
0
100
AcDbLine
 10
0.2451849383720486
 20
4.578406182204318
 30
0.0000370842611946
 11
0.2451849383720486
 21
4.140406182204316
 31
0.0000370842611946
  0
LINE
  5
619
330
595
100
AcDbEntity
  8
0
100
AcDbLine
 10
0.2451849383720486
 20
4.040406182204306
 30
0.0000370842611946
 11
0.683184938372051
 21
4.040406182204306
 31
0.0000370842611946
  0
LINE
  5
61A
330
595
100
AcDbEntity
  8
0
100
AcDbLine
 10
0.683184938372051
 20
4.040406182204306
 30
0.0000370842611946
 11
0.683184938372051
 21
3.602406182204318
 31
0.0000370842611946
  0
LINE
  5
61B
330
595
100
AcDbEntity
  8
0
100
AcDbLine
 10
0.683184938372051
 20
3.602406182204318
 30
0.0000370842611946
 11
0.2451849383720486
 21
3.602406182204318
 31
0.0000370842611946
  0
LINE
  5
61C
330
595
100
AcDbEntity
  8
0
100
AcDbLine
 10
0.2451849383720486
 20
4.040406182204306
 30
0.0000370842611946
 11
0.2451849383720486
 21
3.602406182204304
 31
0.0000370842611946
  0
LINE
  5
61D
330
595
100
AcDbEntity
  8
0
100
AcDbLine
 10
0.2451849383720486
 20
3.50240618220431
 30
0.0000370842611946
 11
0.683184938372051
 21
3.50240618220431
 31
0.0000370842611946
  0
LINE
  5
61E
330
595
100
AcDbEntity
  8
0
100
AcDbLine
 10
0.683184938372051
 20
3.50240618220431
 30
0.0000370842611946
 11
0.683184938372051
 21
3.064406182204308
 31
0.0000370842611946
  0
LINE
  5
61F
330
595
100
AcDbEntity
  8
0
100
AcDbLine
 10
0.683184938372051
 20
3.064406182204308
 30
0.0000370842611946
 11
0.2451849383720486
 21
3.064406182204308
 31
0.0000370842611946
  0
LINE
  5
620
330
595
100
AcDbEntity
  8
0
100
AcDbLine
 10
0.2451849383720486
 20
3.50240618220431
 30
0.0000370842611946
 11
0.2451849383720486
 21
3.064406182204308
 31
0.0000370842611946
  0
LINE
  5
621
330
595
100
AcDbEntity
  8
0
100
AcDbLine
 10
0.2451849383720486
 20
2.964406182204313
 30
0.0000370842611946
 11
0.683184938372051
 21
2.964406182204313
 31
0.0000370842611946
  0
LINE
  5
622
330
595
100
AcDbEntity
  8
0
100
AcDbLine
 10
0.683184938372051
 20
2.964406182204313
 30
0.0000370842611946
 11
0.683184938372051
 21
2.52640618220431
 31
0.0000370842611946
  0
LINE
  5
623
330
595
100
AcDbEntity
  8
0
100
AcDbLine
 10
0.683184938372051
 20
2.52640618220431
 30
0.0000370842611946
 11
0.2451849383720486
 21
2.52640618220431
 31
0.0000370842611946
  0
LINE
  5
624
330
595
100
AcDbEntity
  8
0
100
AcDbLine
 10
0.2451849383720486
 20
2.964406182204313
 30
0.0000370842611946
 11
0.2451849383720486
 21
2.52640618220431
 31
0.0000370842611946
  0
LINE
  5
625
330
595
100
AcDbEntity
  8
0
100
AcDbLine
 10
0.7831849383720453
 20
5.116406182204316
 30
0.0000370842611946
 11
1.221184938372047
 21
5.116406182204316
 31
0.0000370842611946
  0
LINE
  5
626
330
595
100
AcDbEntity
  8
0
100
AcDbLine
 10
1.221184938372047
 20
5.116406182204316
 30
0.0000370842611946
 11
1.221184938372047
 21
4.678406182204311
 31
0.0000370842611946
  0
LINE
  5
627
330
595
100
AcDbEntity
  8
0
100
AcDbLine
 10
1.221184938372047
 20
4.678406182204311
 30
0.0000370842611946
 11
0.7831849383720453
 21
4.678406182204311
 31
0.0000370842611946
  0
LINE
  5
628
330
595
100
AcDbEntity
  8
0
100
AcDbLine
 10
0.7831849383720453
 20
5.116406182204316
 30
0.0000370842611946
 11
0.7831849383720453
 21
4.678406182204311
 31
0.0000370842611946
  0
LINE
  5
629
330
595
100
AcDbEntity
  8
0
100
AcDbLine
 10
0.7831849383720453
 20
4.578406182204318
 30
0.0000370842611946
 11
1.221184938372047
 21
4.578406182204318
 31
0.0000370842611946
  0
LINE
  5
62A
330
595
100
AcDbEntity
  8
0
100
AcDbLine
 10
1.221184938372047
 20
4.578406182204318
 30
0.0000370842611946
 11
1.221184938372047
 21
4.140406182204316
 31
0.0000370842611946
  0
LINE
  5
62B
330
595
100
AcDbEntity
  8
0
100
AcDbLine
 10
1.221184938372047
 20
4.140406182204316
 30
0.0000370842611946
 11
0.7831849383720453
 21
4.140406182204316
 31
0.0000370842611946
  0
LINE
  5
62C
330
595
100
AcDbEntity
  8
0
100
AcDbLine
 10
0.7831849383720453
 20
4.578406182204318
 30
0.0000370842611946
 11
0.7831849383720453
 21
4.140406182204316
 31
0.0000370842611946
  0
LINE
  5
62D
330
595
100
AcDbEntity
  8
0
100
AcDbLine
 10
0.7831849383720453
 20
4.040406182204306
 30
0.0000370842611946
 11
1.221184938372047
 21
4.040406182204306
 31
0.0000370842611946
  0
LINE
  5
62E
330
595
100
AcDbEntity
  8
0
100
AcDbLine
 10
1.221184938372047
 20
4.040406182204306
 30
0.0000370842611946
 11
1.221184938372047
 21
3.602406182204318
 31
0.0000370842611946
  0
LINE
  5
62F
330
595
100
AcDbEntity
  8
0
100
AcDbLine
 10
1.221184938372047
 20
3.602406182204318
 30
0.0000370842611946
 11
0.7831849383720453
 21
3.602406182204318
 31
0.0000370842611946
  0
LINE
  5
630
330
595
100
AcDbEntity
  8
0
100
AcDbLine
 10
0.7831849383720453
 20
4.040406182204306
 30
0.0000370842611946
 11
0.7831849383720453
 21
3.602406182204304
 31
0.0000370842611946
  0
LINE
  5
631
330
595
100
AcDbEntity
  8
0
100
AcDbLine
 10
0.7831849383720453
 20
3.50240618220431
 30
0.0000370842611946
 11
1.221184938372047
 21
3.50240618220431
 31
0.0000370842611946
  0
LINE
  5
632
330
595
100
AcDbEntity
  8
0
100
AcDbLine
 10
1.221184938372047
 20
3.50240618220431
 30
0.0000370842611946
 11
1.221184938372047
 21
3.064406182204308
 31
0.0000370842611946
  0
LINE
  5
633
330
595
100
AcDbEntity
  8
0
100
AcDbLine
 10
1.221184938372047
 20
3.064406182204308
 30
0.0000370842611946
 11
0.7831849383720453
 21
3.064406182204308
 31
0.0000370842611946
  0
LINE
  5
634
330
595
100
AcDbEntity
  8
0
100
AcDbLine
 10
0.7831849383720453
 20
3.50240618220431
 30
0.0000370842611946
 11
0.7831849383720453
 21
3.064406182204308
 31
0.0000370842611946
  0
LINE
  5
635
330
595
100
AcDbEntity
  8
0
100
AcDbLine
 10
0.7831849383720453
 20
2.964406182204313
 30
0.0000370842611946
 11
1.221184938372047
 21
2.964406182204313
 31
0.0000370842611946
  0
LINE
  5
636
330
595
100
AcDbEntity
  8
0
100
AcDbLine
 10
1.221184938372047
 20
2.964406182204313
 30
0.0000370842611946
 11
1.221184938372047
 21
2.52640618220431
 31
0.0000370842611946
  0
LINE
  5
637
330
595
100
AcDbEntity
  8
0
100
AcDbLine
 10
1.221184938372047
 20
2.52640618220431
 30
0.0000370842611946
 11
0.7831849383720453
 21
2.52640618220431
 31
0.0000370842611946
  0
LINE
  5
638
330
595
100
AcDbEntity
  8
0
100
AcDbLine
 10
0.7831849383720453
 20
2.964406182204313
 30
0.0000370842611946
 11
0.7831849383720453
 21
2.52640618220431
 31
0.0000370842611946
  0
LINE
  5
639
330
595
100
AcDbEntity
  8
0
100
AcDbLine
 10
1.321184938372041
 20
5.116406182204316
 30
0.0000370842611946
 11
1.759184938372043
 21
5.116406182204316
 31
0.0000370842611946
  0
LINE
  5
63A
330
595
100
AcDbEntity
  8
0
100
AcDbLine
 10
1.759184938372043
 20
5.116406182204316
 30
0.0000370842611946
 11
1.759184938372043
 21
4.678406182204311
 31
0.0000370842611946
  0
LINE
  5
63B
330
595
100
AcDbEntity
  8
0
100
AcDbLine
 10
1.759184938372043
 20
4.678406182204311
 30
0.0000370842611946
 11
1.321184938372041
 21
4.678406182204311
 31
0.0000370842611946
  0
LINE
  5
63C
330
595
100
AcDbEntity
  8
0
100
AcDbLine
 10
1.321184938372041
 20
5.116406182204316
 30
0.0000370842611946
 11
1.321184938372041
 21
4.678406182204311
 31
0.0000370842611946
  0
LINE
  5
63D
330
595
100
AcDbEntity
  8
0
100
AcDbLine
 10
1.321184938372041
 20
4.578406182204318
 30
0.0000370842611946
 11
1.759184938372043
 21
4.578406182204318
 31
0.0000370842611946
  0
LINE
  5
63E
330
595
100
AcDbEntity
  8
0
100
AcDbLine
 10
1.759184938372043
 20
4.578406182204318
 30
0.0000370842611946
 11
1.759184938372043
 21
4.140406182204316
 31
0.0000370842611946
  0
LINE
  5
63F
330
595
100
AcDbEntity
  8
0
100
AcDbLine
 10
1.759184938372043
 20
4.140406182204316
 30
0.0000370842611946
 11
1.321184938372041
 21
4.140406182204316
 31
0.0000370842611946
  0
LINE
  5
640
330
595
100
AcDbEntity
  8
0
100
AcDbLine
 10
1.321184938372041
 20
4.578406182204318
 30
0.0000370842611946
 11
1.321184938372041
 21
4.140406182204316
 31
0.0000370842611946
  0
LINE
  5
641
330
595
100
AcDbEntity
  8
0
100
AcDbLine
 10
1.321184938372041
 20
4.040406182204306
 30
0.0000370842611946
 11
1.759184938372043
 21
4.040406182204306
 31
0.0000370842611946
  0
LINE
  5
642
330
595
100
AcDbEntity
  8
0
100
AcDbLine
 10
1.759184938372043
 20
4.040406182204306
 30
0.0000370842611946
 11
1.759184938372043
 21
3.602406182204318
 31
0.0000370842611946
  0
LINE
  5
643
330
595
100
AcDbEntity
  8
0
100
AcDbLine
 10
1.759184938372043
 20
3.602406182204318
 30
0.0000370842611946
 11
1.321184938372041
 21
3.602406182204318
 31
0.0000370842611946
  0
LINE
  5
644
330
595
100
AcDbEntity
  8
0
100
AcDbLine
 10
1.321184938372041
 20
4.040406182204306
 30
0.0000370842611946
 11
1.321184938372041
 21
3.602406182204304
 31
0.0000370842611946
  0
LINE
  5
645
330
595
100
AcDbEntity
  8
0
100
AcDbLine
 10
1.321184938372041
 20
3.50240618220431
 30
0.0000370842611946
 11
1.759184938372043
 21
3.50240618220431
 31
0.0000370842611946
  0
LINE
  5
646
330
595
100
AcDbEntity
  8
0
100
AcDbLine
 10
1.759184938372043
 20
3.50240618220431
 30
0.0000370842611946
 11
1.759184938372043
 21
3.064406182204308
 31
0.0000370842611946
  0
LINE
  5
647
330
595
100
AcDbEntity
  8
0
100
AcDbLine
 10
1.759184938372043
 20
3.064406182204308
 30
0.0000370842611946
 11
1.321184938372041
 21
3.064406182204308
 31
0.0000370842611946
  0
LINE
  5
648
330
595
100
AcDbEntity
  8
0
100
AcDbLine
 10
1.321184938372041
 20
3.50240618220431
 30
0.0000370842611946
 11
1.321184938372041
 21
3.064406182204308
 31
0.0000370842611946
  0
LINE
  5
649
330
595
100
AcDbEntity
  8
0
100
AcDbLine
 10
1.321184938372041
 20
2.964406182204313
 30
0.0000370842611946
 11
1.759184938372043
 21
2.964406182204313
 31
0.0000370842611946
  0
LINE
  5
64A
330
595
100
AcDbEntity
  8
0
100
AcDbLine
 10
1.759184938372043
 20
2.964406182204313
 30
0.0000370842611946
 11
1.759184938372043
 21
2.52640618220431
 31
0.0000370842611946
  0
LINE
  5
64B
330
595
100
AcDbEntity
  8
0
100
AcDbLine
 10
1.759184938372043
 20
2.52640618220431
 30
0.0000370842611946
 11
1.321184938372041
 21
2.52640618220431
 31
0.0000370842611946
  0
LINE
  5
64C
330
595
100
AcDbEntity
  8
0
100
AcDbLine
 10
1.321184938372041
 20
2.964406182204313
 30
0.0000370842611946
 11
1.321184938372041
 21
2.52640618220431
 31
0.0000370842611946
  0
LINE
  5
64D
330
595
100
AcDbEntity
  8
0
100
AcDbLine
 10
1.859184938372037
 20
5.116406182204316
 30
0.0000370842611946
 11
2.297184938372041
 21
5.116406182204316
 31
0.0000370842611946
  0
LINE
  5
64E
330
595
100
AcDbEntity
  8
0
100
AcDbLine
 10
2.297184938372041
 20
5.116406182204316
 30
0.0000370842611946
 11
2.297184938372041
 21
4.678406182204311
 31
0.0000370842611946
  0
LINE
  5
64F
330
595
100
AcDbEntity
  8
0
100
AcDbLine
 10
2.297184938372041
 20
4.678406182204311
 30
0.0000370842611946
 11
1.859184938372037
 21
4.678406182204311
 31
0.0000370842611946
  0
LINE
  5
650
330
595
100
AcDbEntity
  8
0
100
AcDbLine
 10
1.859184938372037
 20
5.116406182204316
 30
0.0000370842611946
 11
1.859184938372037
 21
4.678406182204311
 31
0.0000370842611946
  0
LINE
  5
651
330
595
100
AcDbEntity
  8
0
100
AcDbLine
 10
1.859184938372037
 20
4.578406182204318
 30
0.0000370842611946
 11
2.297184938372041
 21
4.578406182204318
 31
0.0000370842611946
  0
LINE
  5
652
330
595
100
AcDbEntity
  8
0
100
AcDbLine
 10
2.297184938372041
 20
4.578406182204318
 30
0.0000370842611946
 11
2.297184938372041
 21
4.140406182204316
 31
0.0000370842611946
  0
LINE
  5
653
330
595
100
AcDbEntity
  8
0
100
AcDbLine
 10
2.297184938372041
 20
4.140406182204316
 30
0.0000370842611946
 11
1.859184938372037
 21
4.140406182204316
 31
0.0000370842611946
  0
LINE
  5
654
330
595
100
AcDbEntity
  8
0
100
AcDbLine
 10
1.859184938372037
 20
4.578406182204318
 30
0.0000370842611946
 11
1.859184938372037
 21
4.140406182204316
 31
0.0000370842611946
  0
LINE
  5
655
330
595
100
AcDbEntity
  8
0
100
AcDbLine
 10
1.859184938372037
 20
4.040406182204306
 30
0.0000370842611946
 11
2.297184938372041
 21
4.040406182204306
 31
0.0000370842611946
  0
LINE
  5
656
330
595
100
AcDbEntity
  8
0
100
AcDbLine
 10
2.297184938372041
 20
4.040406182204306
 30
0.0000370842611946
 11
2.297184938372041
 21
3.602406182204318
 31
0.0000370842611946
  0
LINE
  5
657
330
595
100
AcDbEntity
  8
0
100
AcDbLine
 10
2.297184938372041
 20
3.602406182204318
 30
0.0000370842611946
 11
1.859184938372037
 21
3.602406182204318
 31
0.0000370842611946
  0
LINE
  5
658
330
595
100
AcDbEntity
  8
0
100
AcDbLine
 10
1.859184938372037
 20
4.040406182204306
 30
0.0000370842611946
 11
1.859184938372037
 21
3.602406182204304
 31
0.0000370842611946
  0
LINE
  5
659
330
595
100
AcDbEntity
  8
0
100
AcDbLine
 10
1.859184938372037
 20
3.50240618220431
 30
0.0000370842611946
 11
2.297184938372041
 21
3.50240618220431
 31
0.0000370842611946
  0
LINE
  5
65A
330
595
100
AcDbEntity
  8
0
100
AcDbLine
 10
2.297184938372041
 20
3.50240618220431
 30
0.0000370842611946
 11
2.297184938372041
 21
3.064406182204308
 31
0.0000370842611946
  0
LINE
  5
65B
330
595
100
AcDbEntity
  8
0
100
AcDbLine
 10
2.297184938372041
 20
3.064406182204308
 30
0.0000370842611946
 11
1.859184938372037
 21
3.064406182204308
 31
0.0000370842611946
  0
LINE
  5
65C
330
595
100
AcDbEntity
  8
0
100
AcDbLine
 10
1.859184938372037
 20
3.50240618220431
 30
0.0000370842611946
 11
1.859184938372037
 21
3.064406182204308
 31
0.0000370842611946
  0
LINE
  5
65D
330
595
100
AcDbEntity
  8
0
100
AcDbLine
 10
1.859184938372037
 20
2.964406182204313
 30
0.0000370842611946
 11
2.297184938372041
 21
2.964406182204313
 31
0.0000370842611946
  0
LINE
  5
65E
330
595
100
AcDbEntity
  8
0
100
AcDbLine
 10
2.297184938372041
 20
2.964406182204313
 30
0.0000370842611946
 11
2.297184938372041
 21
2.52640618220431
 31
0.0000370842611946
  0
LINE
  5
65F
330
595
100
AcDbEntity
  8
0
100
AcDbLine
 10
2.297184938372041
 20
2.52640618220431
 30
0.0000370842611946
 11
1.859184938372037
 21
2.52640618220431
 31
0.0000370842611946
  0
LINE
  5
660
330
595
100
AcDbEntity
  8
0
100
AcDbLine
 10
1.859184938372037
 20
2.964406182204313
 30
0.0000370842611946
 11
1.859184938372037
 21
2.52640618220431
 31
0.0000370842611946
  0
LINE
  5
661
330
595
100
AcDbEntity
  8
0
100
AcDbLine
 10
2.397184938372034
 20
5.116406182204316
 30
0.0000370842611946
 11
2.835184938372036
 21
5.116406182204316
 31
0.0000370842611946
  0
LINE
  5
662
330
595
100
AcDbEntity
  8
0
100
AcDbLine
 10
2.835184938372036
 20
5.116406182204316
 30
0.0000370842611946
 11
2.835184938372036
 21
4.678406182204311
 31
0.0000370842611946
  0
LINE
  5
663
330
595
100
AcDbEntity
  8
0
100
AcDbLine
 10
2.835184938372036
 20
4.678406182204311
 30
0.0000370842611946
 11
2.397184938372034
 21
4.678406182204311
 31
0.0000370842611946
  0
LINE
  5
664
330
595
100
AcDbEntity
  8
0
100
AcDbLine
 10
2.397184938372034
 20
5.116406182204316
 30
0.0000370842611946
 11
2.397184938372034
 21
4.678406182204311
 31
0.0000370842611946
  0
LINE
  5
665
330
595
100
AcDbEntity
  8
0
100
AcDbLine
 10
2.397184938372034
 20
4.578406182204318
 30
0.0000370842611946
 11
2.835184938372036
 21
4.578406182204318
 31
0.0000370842611946
  0
LINE
  5
666
330
595
100
AcDbEntity
  8
0
100
AcDbLine
 10
2.835184938372036
 20
4.578406182204318
 30
0.0000370842611946
 11
2.835184938372036
 21
4.140406182204316
 31
0.0000370842611946
  0
LINE
  5
667
330
595
100
AcDbEntity
  8
0
100
AcDbLine
 10
2.835184938372036
 20
4.140406182204316
 30
0.0000370842611946
 11
2.397184938372034
 21
4.140406182204316
 31
0.0000370842611946
  0
LINE
  5
668
330
595
100
AcDbEntity
  8
0
100
AcDbLine
 10
2.397184938372034
 20
4.578406182204318
 30
0.0000370842611946
 11
2.397184938372034
 21
4.140406182204316
 31
0.0000370842611946
  0
LINE
  5
669
330
595
100
AcDbEntity
  8
0
100
AcDbLine
 10
2.397184938372034
 20
4.040406182204306
 30
0.0000370842611946
 11
2.835184938372036
 21
4.040406182204306
 31
0.0000370842611946
  0
LINE
  5
66A
330
595
100
AcDbEntity
  8
0
100
AcDbLine
 10
2.835184938372036
 20
4.040406182204306
 30
0.0000370842611946
 11
2.835184938372036
 21
3.602406182204318
 31
0.0000370842611946
  0
LINE
  5
66B
330
595
100
AcDbEntity
  8
0
100
AcDbLine
 10
2.835184938372036
 20
3.602406182204318
 30
0.0000370842611946
 11
2.397184938372034
 21
3.602406182204318
 31
0.0000370842611946
  0
LINE
  5
66C
330
595
100
AcDbEntity
  8
0
100
AcDbLine
 10
2.397184938372034
 20
4.040406182204306
 30
0.0000370842611946
 11
2.397184938372034
 21
3.602406182204304
 31
0.0000370842611946
  0
LINE
  5
66D
330
595
100
AcDbEntity
  8
0
100
AcDbLine
 10
2.397184938372034
 20
3.50240618220431
 30
0.0000370842611946
 11
2.835184938372036
 21
3.50240618220431
 31
0.0000370842611946
  0
LINE
  5
66E
330
595
100
AcDbEntity
  8
0
100
AcDbLine
 10
2.835184938372036
 20
3.50240618220431
 30
0.0000370842611946
 11
2.835184938372036
 21
3.064406182204308
 31
0.0000370842611946
  0
LINE
  5
66F
330
595
100
AcDbEntity
  8
0
100
AcDbLine
 10
2.835184938372036
 20
3.064406182204308
 30
0.0000370842611946
 11
2.397184938372034
 21
3.064406182204308
 31
0.0000370842611946
  0
LINE
  5
670
330
595
100
AcDbEntity
  8
0
100
AcDbLine
 10
2.397184938372034
 20
3.50240618220431
 30
0.0000370842611946
 11
2.397184938372034
 21
3.064406182204308
 31
0.0000370842611946
  0
LINE
  5
671
330
595
100
AcDbEntity
  8
0
100
AcDbLine
 10
2.397184938372034
 20
2.964406182204313
 30
0.0000370842611946
 11
2.835184938372036
 21
2.964406182204313
 31
0.0000370842611946
  0
LINE
  5
672
330
595
100
AcDbEntity
  8
0
100
AcDbLine
 10
2.835184938372036
 20
2.964406182204313
 30
0.0000370842611946
 11
2.835184938372036
 21
2.52640618220431
 31
0.0000370842611946
  0
LINE
  5
673
330
595
100
AcDbEntity
  8
0
100
AcDbLine
 10
2.835184938372036
 20
2.52640618220431
 30
0.0000370842611946
 11
2.397184938372034
 21
2.52640618220431
 31
0.0000370842611946
  0
LINE
  5
674
330
595
100
AcDbEntity
  8
0
100
AcDbLine
 10
2.397184938372034
 20
2.964406182204313
 30
0.0000370842611946
 11
2.397184938372034
 21
2.52640618220431
 31
0.0000370842611946
  0
LINE
  5
675
330
595
100
AcDbEntity
  8
0
100
AcDbLine
 10
2.935184938372031
 20
5.116406182204316
 30
0.0000370842611946
 11
3.373184938372034
 21
5.116406182204316
 31
0.0000370842611946
  0
LINE
  5
676
330
595
100
AcDbEntity
  8
0
100
AcDbLine
 10
3.373184938372034
 20
5.116406182204316
 30
0.0000370842611946
 11
3.373184938372034
 21
4.678406182204311
 31
0.0000370842611946
  0
LINE
  5
677
330
595
100
AcDbEntity
  8
0
100
AcDbLine
 10
3.373184938372034
 20
4.678406182204311
 30
0.0000370842611946
 11
2.935184938372031
 21
4.678406182204311
 31
0.0000370842611946
  0
LINE
  5
678
330
595
100
AcDbEntity
  8
0
100
AcDbLine
 10
2.935184938372031
 20
5.116406182204316
 30
0.0000370842611946
 11
2.935184938372031
 21
4.678406182204311
 31
0.0000370842611946
  0
LINE
  5
679
330
595
100
AcDbEntity
  8
0
100
AcDbLine
 10
2.935184938372031
 20
4.578406182204318
 30
0.0000370842611946
 11
3.373184938372034
 21
4.578406182204318
 31
0.0000370842611946
  0
LINE
  5
67A
330
595
100
AcDbEntity
  8
0
100
AcDbLine
 10
3.373184938372034
 20
4.578406182204318
 30
0.0000370842611946
 11
3.373184938372034
 21
4.140406182204316
 31
0.0000370842611946
  0
LINE
  5
67B
330
595
100
AcDbEntity
  8
0
100
AcDbLine
 10
3.373184938372034
 20
4.140406182204316
 30
0.0000370842611946
 11
2.935184938372031
 21
4.140406182204316
 31
0.0000370842611946
  0
LINE
  5
67C
330
595
100
AcDbEntity
  8
0
100
AcDbLine
 10
2.935184938372031
 20
4.578406182204318
 30
0.0000370842611946
 11
2.935184938372031
 21
4.140406182204316
 31
0.0000370842611946
  0
LINE
  5
67D
330
595
100
AcDbEntity
  8
0
100
AcDbLine
 10
2.935184938372031
 20
4.040406182204306
 30
0.0000370842611946
 11
3.373184938372034
 21
4.040406182204306
 31
0.0000370842611946
  0
LINE
  5
67E
330
595
100
AcDbEntity
  8
0
100
AcDbLine
 10
3.373184938372034
 20
4.040406182204306
 30
0.0000370842611946
 11
3.373184938372034
 21
3.602406182204318
 31
0.0000370842611946
  0
LINE
  5
67F
330
595
100
AcDbEntity
  8
0
100
AcDbLine
 10
3.373184938372034
 20
3.602406182204318
 30
0.0000370842611946
 11
2.935184938372031
 21
3.602406182204318
 31
0.0000370842611946
  0
LINE
  5
680
330
595
100
AcDbEntity
  8
0
100
AcDbLine
 10
2.935184938372031
 20
4.040406182204306
 30
0.0000370842611946
 11
2.935184938372031
 21
3.602406182204304
 31
0.0000370842611946
  0
LINE
  5
681
330
595
100
AcDbEntity
  8
0
100
AcDbLine
 10
2.935184938372031
 20
3.50240618220431
 30
0.0000370842611946
 11
3.373184938372034
 21
3.50240618220431
 31
0.0000370842611946
  0
LINE
  5
682
330
595
100
AcDbEntity
  8
0
100
AcDbLine
 10
3.373184938372034
 20
3.50240618220431
 30
0.0000370842611946
 11
3.373184938372034
 21
3.064406182204308
 31
0.0000370842611946
  0
LINE
  5
683
330
595
100
AcDbEntity
  8
0
100
AcDbLine
 10
3.373184938372034
 20
3.064406182204308
 30
0.0000370842611946
 11
2.935184938372031
 21
3.064406182204308
 31
0.0000370842611946
  0
LINE
  5
684
330
595
100
AcDbEntity
  8
0
100
AcDbLine
 10
2.935184938372031
 20
3.50240618220431
 30
0.0000370842611946
 11
2.935184938372031
 21
3.064406182204308
 31
0.0000370842611946
  0
LINE
  5
685
330
595
100
AcDbEntity
  8
0
100
AcDbLine
 10
2.935184938372031
 20
2.964406182204313
 30
0.0000370842611946
 11
3.373184938372034
 21
2.964406182204313
 31
0.0000370842611946
  0
LINE
  5
686
330
595
100
AcDbEntity
  8
0
100
AcDbLine
 10
3.373184938372034
 20
2.964406182204313
 30
0.0000370842611946
 11
3.373184938372034
 21
2.52640618220431
 31
0.0000370842611946
  0
LINE
  5
687
330
595
100
AcDbEntity
  8
0
100
AcDbLine
 10
3.373184938372034
 20
2.52640618220431
 30
0.0000370842611946
 11
2.935184938372031
 21
2.52640618220431
 31
0.0000370842611946
  0
LINE
  5
688
330
595
100
AcDbEntity
  8
0
100
AcDbLine
 10
2.935184938372031
 20
2.964406182204313
 30
0.0000370842611946
 11
2.935184938372031
 21
2.52640618220431
 31
0.0000370842611946
  0
LINE
  5
689
330
595
100
AcDbEntity
  8
0
100
AcDbLine
 10
3.473184938372028
 20
5.116406182204316
 30
0.0000370842611946
 11
3.911184938372031
 21
5.116406182204316
 31
0.0000370842611946
  0
LINE
  5
68A
330
595
100
AcDbEntity
  8
0
100
AcDbLine
 10
3.911184938372031
 20
5.116406182204316
 30
0.0000370842611946
 11
3.911184938372031
 21
4.678406182204311
 31
0.0000370842611946
  0
LINE
  5
68B
330
595
100
AcDbEntity
  8
0
100
AcDbLine
 10
3.911184938372031
 20
4.678406182204311
 30
0.0000370842611946
 11
3.473184938372028
 21
4.678406182204311
 31
0.0000370842611946
  0
LINE
  5
68C
330
595
100
AcDbEntity
  8
0
100
AcDbLine
 10
3.473184938372028
 20
5.116406182204316
 30
0.0000370842611946
 11
3.473184938372028
 21
4.678406182204311
 31
0.0000370842611946
  0
LINE
  5
68D
330
595
100
AcDbEntity
  8
0
100
AcDbLine
 10
3.473184938372028
 20
4.578406182204318
 30
0.0000370842611946
 11
3.911184938372031
 21
4.578406182204318
 31
0.0000370842611946
  0
LINE
  5
68E
330
595
100
AcDbEntity
  8
0
100
AcDbLine
 10
3.911184938372031
 20
4.578406182204318
 30
0.0000370842611946
 11
3.911184938372031
 21
4.140406182204316
 31
0.0000370842611946
  0
LINE
  5
68F
330
595
100
AcDbEntity
  8
0
100
AcDbLine
 10
3.911184938372031
 20
4.140406182204316
 30
0.0000370842611946
 11
3.473184938372028
 21
4.140406182204316
 31
0.0000370842611946
  0
LINE
  5
690
330
595
100
AcDbEntity
  8
0
100
AcDbLine
 10
3.473184938372028
 20
4.578406182204318
 30
0.0000370842611946
 11
3.473184938372028
 21
4.140406182204316
 31
0.0000370842611946
  0
LINE
  5
691
330
595
100
AcDbEntity
  8
0
100
AcDbLine
 10
3.473184938372028
 20
4.040406182204306
 30
0.0000370842611946
 11
3.911184938372031
 21
4.040406182204306
 31
0.0000370842611946
  0
LINE
  5
692
330
595
100
AcDbEntity
  8
0
100
AcDbLine
 10
3.911184938372031
 20
4.040406182204306
 30
0.0000370842611946
 11
3.911184938372031
 21
3.602406182204318
 31
0.0000370842611946
  0
LINE
  5
693
330
595
100
AcDbEntity
  8
0
100
AcDbLine
 10
3.911184938372031
 20
3.602406182204318
 30
0.0000370842611946
 11
3.473184938372028
 21
3.602406182204318
 31
0.0000370842611946
  0
LINE
  5
694
330
595
100
AcDbEntity
  8
0
100
AcDbLine
 10
3.473184938372028
 20
4.040406182204306
 30
0.0000370842611946
 11
3.473184938372028
 21
3.602406182204304
 31
0.0000370842611946
  0
LINE
  5
695
330
595
100
AcDbEntity
  8
0
100
AcDbLine
 10
3.473184938372028
 20
3.50240618220431
 30
0.0000370842611946
 11
3.911184938372031
 21
3.50240618220431
 31
0.0000370842611946
  0
LINE
  5
696
330
595
100
AcDbEntity
  8
0
100
AcDbLine
 10
3.911184938372031
 20
3.50240618220431
 30
0.0000370842611946
 11
3.911184938372031
 21
3.064406182204308
 31
0.0000370842611946
  0
LINE
  5
697
330
595
100
AcDbEntity
  8
0
100
AcDbLine
 10
3.911184938372031
 20
3.064406182204308
 30
0.0000370842611946
 11
3.473184938372028
 21
3.064406182204308
 31
0.0000370842611946
  0
LINE
  5
698
330
595
100
AcDbEntity
  8
0
100
AcDbLine
 10
3.473184938372028
 20
3.50240618220431
 30
0.0000370842611946
 11
3.473184938372028
 21
3.064406182204308
 31
0.0000370842611946
  0
LINE
  5
699
330
595
100
AcDbEntity
  8
0
100
AcDbLine
 10
3.473184938372028
 20
2.964406182204313
 30
0.0000370842611946
 11
3.911184938372031
 21
2.964406182204313
 31
0.0000370842611946
  0
LINE
  5
69A
330
595
100
AcDbEntity
  8
0
100
AcDbLine
 10
3.911184938372031
 20
2.964406182204313
 30
0.0000370842611946
 11
3.911184938372031
 21
2.52640618220431
 31
0.0000370842611946
  0
LINE
  5
69B
330
595
100
AcDbEntity
  8
0
100
AcDbLine
 10
3.911184938372031
 20
2.52640618220431
 30
0.0000370842611946
 11
3.473184938372028
 21
2.52640618220431
 31
0.0000370842611946
  0
LINE
  5
69C
330
595
100
AcDbEntity
  8
0
100
AcDbLine
 10
3.473184938372028
 20
2.964406182204313
 30
0.0000370842611946
 11
3.473184938372028
 21
2.52640618220431
 31
0.0000370842611946
  0
LINE
  5
69D
330
595
100
AcDbEntity
  8
0
 62
     4
100
AcDbLine
 10
-2.228815061627968
 20
-4.341093817795608
 30
0.0
 11
-2.228815061627968
 21
-3.781093817795578
 31
0.0
  0
LINE
  5
69E
330
595
100
AcDbEntity
  8
0
 62
     4
100
AcDbLine
 10
4.771184938372002
 20
-3.781093817795578
 30
0.0
 11
4.771184938372002
 21
-4.341093817795608
 31
0.0
  0
LINE
  5
69F
330
595
100
AcDbEntity
  8
0
 62
     4
100
AcDbLine
 10
-2.22881506162794
 20
-4.281093817795606
 30
0.0
 11
4.771184938372016
 21
-4.281093817795579
 31
0.0
  0
LINE
  5
6A0
330
595
100
AcDbEntity
  8
0
 62
     4
100
AcDbLine
 10
-2.22881506162794
 20
-4.341093817795608
 30
0.0
 11
4.771184938372002
 21
-4.341093817795608
 31
0.0
  0
LINE
  5
6A1
330
595
100
AcDbEntity
  8
0
 62
     4
100
AcDbLine
 10
-2.22881506162794
 20
-3.781093817795578
 30
0.0
 11
4.771184938372016
 21
-3.781093817795578
 31
0.0
  0
CIRCLE
  5
6A2
330
595
100
AcDbEntity
  8
0
  6
HIDDEN
 62
     4
100
AcDbCircle
 10
-1.318815061628
 20
-4.061093817795621
 30
0.0000372377133099
 40
0.14
  0
CIRCLE
  5
6A3
330
595
100
AcDbEntity
  8
0
 62
     4
100
AcDbCircle
 10
-1.318815061628
 20
-4.061093817795621
 30
0.0000372377133099
 40
0.069
  0
CIRCLE
  5
6A4
330
595
100
AcDbEntity
  8
0
  6
HIDDEN
 62
     4
100
AcDbCircle
 10
3.861184938372004
 20
-4.061093817795607
 30
0.0000372377133099
 40
0.14
  0
CIRCLE
  5
6A5
330
595
100
AcDbEntity
  8
0
 62
     4
100
AcDbCircle
 10
3.861184938372004
 20
-4.061093817795607
 30
0.0000372377133099
 40
0.069
  0
INSERT
  5
6A6
330
595
100
AcDbEntity
  8
0
100
AcDbBlockReference
  2
A$C693F27F7
 10
-1.716315061627972
 20
5.681406182204354
 30
0.0
  0
INSERT
  5
6A7
330
595
100
AcDbEntity
  8
0
 62
     4
100
AcDbBlockReference
  2
A$C49BF791D
 10
-0.3551606583570148
 20
6.13006058547529
 30
0.0
 41
-1.0
 50
180.0
  0
LINE
  5
6A8
330
595
100
AcDbEntity
  8
0
 62
     2
100
AcDbLine
 10
-2.228815061627968
 20
5.681406182204354
 30
0.0
 11
-2.228815061627982
 21
-2.203593817795677
 31
0.0
  0
LINE
  5
6A9
330
595
100
AcDbEntity
  8
0
 62
     2
100
AcDbLine
 10
4.771184938372016
 20
5.681406182204354
 30
0.0
 11
4.771184938372016
 21
-2.203593817795677
 31
0.0
  0
LINE
  5
6AA
330
595
100
AcDbEntity
  8
0
  6
HIDDEN
 62
     2
100
AcDbLine
 10
-2.168815061627966
 20
5.621406182204366
 30
0.0
 11
-2.168815061627995
 21
-2.143593817795675
 31
0.0
  0
LINE
  5
6AB
330
595
100
AcDbEntity
  8
0
  6
HIDDEN
 62
     2
100
AcDbLine
 10
4.711184938372028
 20
5.621406182204354
 30
0.0
 11
4.711184938371999
 21
-2.14359381779566
 31
0.0
  0
LINE
  5
6AC
330
595
100
AcDbEntity
  8
0
  6
HIDDEN
 62
     2
100
AcDbLine
 10
4.711184938372028
 20
5.621406182204354
 30
0.0
 11
4.273684938371957
 21
5.621406182204366
 31
0.0
  0
LINE
  5
6AD
330
595
100
AcDbEntity
  8
0
 62
     2
100
AcDbLine
 10
4.771184938372016
 20
5.681406182204354
 30
0.0
 11
-2.228815061627982
 21
5.681406182204354
 31
0.0
  0
LINE
  5
6AE
330
595
100
AcDbEntity
  8
0
  6
HIDDEN
 62
     2
100
AcDbLine
 10
-2.16881506162798
 20
-2.143593817795675
 30
0.0
 11
-1.731315061628023
 21
-2.143593817795675
 31
0.0
  0
LINE
  5
6AF
330
595
100
AcDbEntity
  8
0
 62
     2
100
AcDbLine
 10
-2.228815061627982
 20
-2.203593817795677
 30
0.0
 11
4.771184938372016
 21
-2.203593817795677
 31
0.0
  0
LINE
  5
6B0
330
595
100
AcDbEntity
  8
0
 62
     2
100
AcDbLine
 10
-1.466315061628023
 20
2.416406182204339
 30
0.0
 11
-1.466315061628023
 21
5.156406182204321
 31
0.0
  0
LINE
  5
6B1
330
595
100
AcDbEntity
  8
0
 62
     2
100
AcDbLine
 10
-1.466315061628023
 20
5.156406182204321
 30
0.0
 11
4.008684938371985
 21
5.156406182204321
 31
0.0
  0
LINE
  5
6B2
330
595
100
AcDbEntity
  8
0
 62
     2
100
AcDbLine
 10
4.008684938371985
 20
5.156406182204321
 30
0.0
 11
4.008684938371985
 21
2.416406182204339
 31
0.0
  0
LINE
  5
6B3
330
595
100
AcDbEntity
  8
0
 62
     2
100
AcDbLine
 10
4.008684938371985
 20
2.416406182204339
 30
0.0
 11
-1.466315061628023
 21
2.416406182204339
 31
0.0
  0
LINE
  5
6B4
330
595
100
AcDbEntity
  8
0
  6
HIDDEN
 62
     2
100
AcDbLine
 10
-1.731315061628023
 20
5.621406182204366
 30
0.0
 11
-2.16881506162798
 21
5.621406182204354
 31
0.0
  0
LINE
  5
6B5
330
595
100
AcDbEntity
  8
0
  6
HIDDEN
 62
     2
100
AcDbLine
 10
4.273684938371957
 20
-2.14359381779566
 30
0.0
 11
4.711184938372028
 21
-2.14359381779566
 31
0.0
  0
LINE
  5
6B6
330
595
100
AcDbEntity
  8
0
100
AcDbLine
 10
-1.466315061628023
 20
5.156406182204348
 30
0.0
 11
-1.466315061628023
 21
2.416406182204339
 31
0.0
  0
LINE
  5
6B7
330
595
100
AcDbEntity
  8
0
100
AcDbLine
 10
-1.466315061628023
 20
2.416406182204339
 30
0.0
 11
4.008684938371985
 21
2.416406182204311
 31
0.0
  0
LINE
  5
6B8
330
595
100
AcDbEntity
  8
0
100
AcDbLine
 10
4.008684938371985
 20
2.416406182204311
 30
0.0
 11
4.008684938371985
 21
5.156406182204321
 31
0.0
  0
LINE
  5
6B9
330
595
100
AcDbEntity
  8
0
100
AcDbLine
 10
4.008684938371985
 20
5.156406182204321
 30
0.0
 11
-1.466315061628023
 21
5.156406182204306
 31
0.0
  0
LINE
  5
6BA
330
595
100
AcDbEntity
  8
0
100
AcDbLine
 10
-1.731315061628023
 20
-2.203593817795677
 30
0.0
 11
-1.731315061628023
 21
-2.14359381779566
 31
0.0
  0
LINE
  5
6BB
330
595
100
AcDbEntity
  8
0
100
AcDbLine
 10
4.273684938371957
 20
-2.14359381779566
 30
0.0
 11
4.273684938371957
 21
-2.203593817795677
 31
0.0
  0
LINE
  5
6BC
330
595
100
AcDbEntity
  8
0
100
AcDbLine
 10
-1.731315061628023
 20
5.621406182204366
 30
0.0
 11
-1.731315061628023
 21
5.681406182204354
 31
0.0
  0
LINE
  5
6BD
330
595
100
AcDbEntity
  8
0
100
AcDbLine
 10
4.273684938371957
 20
5.621406182204366
 30
0.0
 11
4.273684938371957
 21
5.681406182204354
 31
0.0
  0
LINE
  5
6BE
330
595
100
AcDbEntity
  8
0
100
AcDbLine
 10
-1.041315061627976
 20
9.658906182204347
 30
0.0
 11
3.583684938372029
 21
9.658906182204347
 31
0.0
  0
LINE
  5
6BF
330
595
100
AcDbEntity
  8
0
100
AcDbLine
 10
-1.041315061627976
 20
5.853906182204339
 30
0.0
 11
3.583684938372029
 21
5.853906182204339
 31
0.0
  0
LINE
  5
6C0
330
595
100
AcDbEntity
  8
0
100
AcDbLine
 10
-1.041315061627982
 20
9.658906182204347
 30
0.0
 11
-1.041315061627982
 21
5.853906182204354
 31
0.0
  0
LINE
  5
6C1
330
595
100
AcDbEntity
  8
0
100
AcDbLine
 10
3.583684938372029
 20
9.65890618220436
 30
0.0
 11
3.583684938372023
 21
5.853906182204354
 31
0.0
  0
LINE
  5
6C2
330
595
100
AcDbEntity
  8
0
 62
     1
100
AcDbLine
 10
-0.6013150616279788
 20
9.598906182204343
 30
0.0
 11
3.143684938372024
 21
9.598906182204343
 31
0.0
  0
LINE
  5
6C3
330
595
100
AcDbEntity
  8
0
 62
     1
100
AcDbLine
 10
-0.6013150616279788
 20
9.598906182204343
 30
0.0
 11
-0.6013150616279788
 21
5.913906182204343
 31
0.0
  0
LINE
  5
6C4
330
595
100
AcDbEntity
  8
0
 62
     1
100
AcDbLine
 10
3.143684938372024
 20
9.598906182204343
 30
0.0
 11
3.143684938372024
 21
5.913906182204343
 31
0.0
  0
LINE
  5
6C5
330
595
100
AcDbEntity
  8
0
 62
     1
100
AcDbLine
 10
-0.6013150616279788
 20
5.913906182204343
 30
0.0
 11
3.143684938372024
 21
5.913906182204343
 31
0.0
  0
CIRCLE
  5
6C6
330
595
100
AcDbEntity
  8
0
  6
HIDDEN
 62
     1
100
AcDbCircle
 10
3.363684938372031
 20
9.158906182204347
 30
0.0
 40
0.14
  0
CIRCLE
  5
6C7
330
595
100
AcDbEntity
  8
0
 62
     1
100
AcDbCircle
 10
3.363684938372031
 20
9.158906182204347
 30
0.0
 40
0.069
  0
CIRCLE
  5
6C8
330
595
100
AcDbEntity
  8
0
  6
HIDDEN
 62
     1
100
AcDbCircle
 10
3.363684938372031
 20
6.353906182204369
 30
0.0
 40
0.14
  0
CIRCLE
  5
6C9
330
595
100
AcDbEntity
  8
0
 62
     1
100
AcDbCircle
 10
3.363684938372031
 20
6.353906182204369
 30
0.0
 40
0.069
  0
CIRCLE
  5
6CA
330
595
100
AcDbEntity
  8
0
  6
HIDDEN
 62
     1
100
AcDbCircle
 10
-0.8213150616279634
 20
9.158906182204347
 30
0.0
 40
0.14
  0
CIRCLE
  5
6CB
330
595
100
AcDbEntity
  8
0
 62
     1
100
AcDbCircle
 10
-0.8213150616279634
 20
9.158906182204347
 30
0.0
 40
0.069
  0
CIRCLE
  5
6CC
330
595
100
AcDbEntity
  8
0
  6
HIDDEN
 62
     1
100
AcDbCircle
 10
-0.8213150616279634
 20
6.353906182204369
 30
0.0
 40
0.14
  0
CIRCLE
  5
6CD
330
595
100
AcDbEntity
  8
0
 62
     1
100
AcDbCircle
 10
-0.8213150616279634
 20
6.353906182204369
 30
0.0
 40
0.069
  0
ENDBLK
  5
6D1
330
595
100
AcDbEntity
  8
0
100
AcDbBlockEnd
  0
BLOCK
  5
740
330
73F
100
AcDbEntity
  8
0
100
AcDbBlockBegin
  2
*D45
 70
     1
 10
0.0
 20
0.0
 30
0.0
  3
*D45
  1

  0
LINE
  5
741
330
73F
100
AcDbEntity
  8
0
 62
     0
370
    -2
100
AcDbLine
 10
30.29892399747958
 20
13.73400268099405
 30
0.0
 11
29.50942108203366
 21
13.73400268099406
 31
0.0
  0
MTEXT
  5
742
330
73F
100
AcDbEntity
  8
0
 62
     0
100
AcDbMText
 10
28.84575441536699
 20
13.73400268099406
 30
0.0
 40
0.3442
 41
0.0
 71
     5
 72
     1
  1
\A1;0.000
 73
     1
 44
1.0
1001
ACAD
1000
MTEXTBEGIN
1070
    73
1070
     1
1070
    44
1040
1.0
1070
    74
1070
     0
1000
MTEXTEND
  0
POINT
  5
743
330
73F
100
AcDbEntity
  8
Defpoints
 62
     0
100
AcDbPoint
 10
30.54892399747958
 20
13.73400268099405
 30
0.0
  0
POINT
  5
744
330
73F
100
AcDbEntity
  8
Defpoints
 62
     0
100
AcDbPoint
 10
29.50942108203366
 20
13.73400268099406
 30
0.0
  0
POINT
  5
745
330
73F
100
AcDbEntity
  8
Defpoints
 62
     0
100
AcDbPoint
 10
30.54892399747956
 20
13.73400268099407
 30
0.0
  0
ENDBLK
  5
746
330
73F
100
AcDbEntity
  8
0
100
AcDbBlockEnd
  0
BLOCK
  5
748
330
747
100
AcDbEntity
  8
0
100
AcDbBlockBegin
  2
*D46
 70
     1
 10
0.0
 20
0.0
 30
0.0
  3
*D46
  1

  0
LINE
  5
749
330
747
100
AcDbEntity
  8
0
 62
     0
370
    -2
100
AcDbLine
 10
30.54892399747958
 20
13.48400268099405
 30
0.0
 11
30.54892399747958
 21
12.73400268099406
 31
0.0
  0
MTEXT
  5
74A
330
747
100
AcDbEntity
  8
0
 62
     0
100
AcDbMText
 10
30.54892399747956
 20
12.0703360143274
 30
0.0
 40
0.3442
 41
0.0
 71
     5
 72
     1
  1
\A1;0.000
 11
0.0000000000000001
 21
1.0
 31
0.0
 73
     1
 44
1.0
1001
ACAD
1000
MTEXTBEGIN
1070
    73
1070
     1
1070
    44
1040
1.0
1070
    74
1070
     0
1000
MTEXTEND
  0
POINT
  5
74B
330
747
100
AcDbEntity
  8
Defpoints
 62
     0
100
AcDbPoint
 10
30.54892399747958
 20
13.73400268099405
 30
0.0
  0
POINT
  5
74C
330
747
100
AcDbEntity
  8
Defpoints
 62
     0
100
AcDbPoint
 10
30.54892399747958
 20
12.73400268099406
 30
0.0
  0
POINT
  5
74D
330
747
100
AcDbEntity
  8
Defpoints
 62
     0
100
AcDbPoint
 10
30.54892399747956
 20
13.73400268099407
 30
0.0
  0
ENDBLK
  5
74E
330
747
100
AcDbEntity
  8
0
100
AcDbBlockEnd
  0
BLOCK
  5
750
330
74F
100
AcDbEntity
  8
0
100
AcDbBlockBegin
  2
*D47
 70
     1
 10
0.0
 20
0.0
 30
0.0
  3
*D47
  1

  0
LINE
  5
751
330
74F
100
AcDbEntity
  8
0
 62
     0
370
    -2
100
AcDbLine
 10
36.97892399747957
 20
14.73400268099406
 30
0.0
 11
38.68942108203366
 21
14.73400268099406
 31
0.0
  0
MTEXT
  5
752
330
74F
100
AcDbEntity
  8
0
 62
     0
100
AcDbMText
 10
39.32440441536699
 20
14.73400268099406
 30
0.0
 40
0.3442
 41
0.0
 71
     5
 72
     1
  1
\A1;1.000
 73
     1
 44
1.0
1001
ACAD
1000
MTEXTBEGIN
1070
    73
1070
     1
1070
    44
1040
1.0
1070
    74
1070
     0
1000
MTEXTEND
  0
POINT
  5
753
330
74F
100
AcDbEntity
  8
Defpoints
 62
     0
100
AcDbPoint
 10
36.72892399747957
 20
14.73400268099406
 30
0.0
  0
POINT
  5
754
330
74F
100
AcDbEntity
  8
Defpoints
 62
     0
100
AcDbPoint
 10
38.68942108203366
 20
14.73400268099406
 30
0.0
  0
POINT
  5
755
330
74F
100
AcDbEntity
  8
Defpoints
 62
     0
100
AcDbPoint
 10
30.54892399747956
 20
13.73400268099407
 30
0.0
  0
ENDBLK
  5
756
330
74F
100
AcDbEntity
  8
0
100
AcDbBlockEnd
  0
BLOCK
  5
758
330
757
100
AcDbEntity
  8
0
100
AcDbBlockBegin
  2
*D48
 70
     1
 10
0.0
 20
0.0
 30
0.0
  3
*D48
  1

  0
LINE
  5
759
330
757
100
AcDbEntity
  8
0
 62
     0
370
    -2
100
AcDbLine
 10
30.88892399747954
 20
16.39650268099406
 30
0.0
 11
29.50942108203366
 21
16.39650268099406
 31
0.0
  0
MTEXT
  5
75A
330
757
100
AcDbEntity
  8
0
 62
     0
100
AcDbMText
 10
28.73102108203366
 20
16.39650268099406
 30
0.0
 40
0.3442
 41
0.0
 71
     5
 72
     1
  1
\A1;2.662
 73
     1
 44
1.0
1001
ACAD
1000
MTEXTBEGIN
1070
    73
1070
     1
1070
    44
1040
1.0
1070
    74
1070
     0
1000
MTEXTEND
  0
POINT
  5
75B
330
757
100
AcDbEntity
  8
Defpoints
 62
     0
100
AcDbPoint
 10
31.13892399747954
 20
16.39650268099406
 30
0.0
  0
POINT
  5
75C
330
757
100
AcDbEntity
  8
Defpoints
 62
     0
100
AcDbPoint
 10
29.50942108203366
 20
16.39650268099406
 30
0.0
  0
POINT
  5
75D
330
757
100
AcDbEntity
  8
Defpoints
 62
     0
100
AcDbPoint
 10
30.54892399747956
 20
13.73400268099407
 30
0.0
  0
ENDBLK
  5
75E
330
757
100
AcDbEntity
  8
0
100
AcDbBlockEnd
  0
BLOCK
  5
760
330
75F
100
AcDbEntity
  8
0
100
AcDbBlockBegin
  2
*D49
 70
     1
 10
0.0
 20
0.0
 30
0.0
  3
*D49
  1

  0
LINE
  5
761
330
75F
100
AcDbEntity
  8
0
 62
     0
370
    -2
100
AcDbLine
 10
30.88892399747953
 20
19.14650268099405
 30
0.0
 11
29.50942108203366
 21
19.14650268099405
 31
0.0
  0
MTEXT
  5
762
330
75F
100
AcDbEntity
  8
0
 62
     0
100
AcDbMText
 10
28.78838774870033
 20
19.14650268099405
 30
0.0
 40
0.3442
 41
0.0
 71
     5
 72
     1
  1
\A1;5.412
 73
     1
 44
1.0
1001
ACAD
1000
MTEXTBEGIN
1070
    73
1070
     1
1070
    44
1040
1.0
1070
    74
1070
     0
1000
MTEXTEND
  0
POINT
  5
763
330
75F
100
AcDbEntity
  8
Defpoints
 62
     0
100
AcDbPoint
 10
31.13892399747954
 20
19.14650268099405
 30
0.0
  0
POINT
  5
764
330
75F
100
AcDbEntity
  8
Defpoints
 62
     0
100
AcDbPoint
 10
29.50942108203366
 20
19.14650268099405
 30
0.0
  0
POINT
  5
765
330
75F
100
AcDbEntity
  8
Defpoints
 62
     0
100
AcDbPoint
 10
30.54892399747956
 20
13.73400268099407
 30
0.0
  0
ENDBLK
  5
766
330
75F
100
AcDbEntity
  8
0
100
AcDbBlockEnd
  0
BLOCK
  5
768
330
767
100
AcDbEntity
  8
0
100
AcDbBlockBegin
  2
*D50
 70
     1
 10
0.0
 20
0.0
 30
0.0
  3
*D50
  1

  0
LINE
  5
769
330
767
100
AcDbEntity
  8
0
 62
     0
370
    -2
100
AcDbLine
 10
31.5489239974795
 20
14.48400268099407
 30
0.0
 11
31.5489239974795
 21
12.73400268099406
 31
0.0
  0
MTEXT
  5
76A
330
767
100
AcDbEntity
  8
0
 62
     0
100
AcDbMText
 10
31.5489239974795
 20
11.52535268099406
 30
0.0
 40
0.3442
 41
0.0
 71
     5
 72
     1
  1
\A1;(2) 1.000
 11
0.0000000000000001
 21
1.0
 31
0.0
 73
     1
 44
1.0
1001
ACAD
1000
MTEXTBEGIN
1070
    73
1070
     1
1070
    44
1040
1.0
1070
    74
1070
     0
1000
MTEXTEND
  0
POINT
  5
76B
330
767
100
AcDbEntity
  8
Defpoints
 62
     0
100
AcDbPoint
 10
31.5489239974795
 20
14.73400268099406
 30
0.0
  0
POINT
  5
76C
330
767
100
AcDbEntity
  8
Defpoints
 62
     0
100
AcDbPoint
 10
31.5489239974795
 20
12.73400268099406
 30
0.0
  0
POINT
  5
76D
330
767
100
AcDbEntity
  8
Defpoints
 62
     0
100
AcDbPoint
 10
30.54892399747956
 20
13.73400268099407
 30
0.0
  0
ENDBLK
  5
76E
330
767
100
AcDbEntity
  8
0
100
AcDbBlockEnd
  0
BLOCK
  5
770
330
76F
100
AcDbEntity
  8
0
100
AcDbBlockBegin
  2
*D51
 70
     1
 10
0.0
 20
0.0
 30
0.0
  3
*D51
  1

  0
LINE
  5
771
330
76F
100
AcDbEntity
  8
0
 62
     0
370
    -2
100
AcDbLine
 10
36.72892399747957
 20
14.48400268099407
 30
0.0
 11
36.72892399747957
 21
12.73400268099406
 31
0.0
  0
MTEXT
  5
772
330
76F
100
AcDbEntity
  8
0
 62
     0
100
AcDbMText
 10
36.72892399747957
 20
11.4679860143274
 30
0.0
 40
0.3442
 41
0.0
 71
     5
 72
     1
  1
\A1;(2) 6.180
 11
0.0000000000000001
 21
1.0
 31
0.0
 73
     1
 44
1.0
1001
ACAD
1000
MTEXTBEGIN
1070
    73
1070
     1
1070
    44
1040
1.0
1070
    74
1070
     0
1000
MTEXTEND
  0
POINT
  5
773
330
76F
100
AcDbEntity
  8
Defpoints
 62
     0
100
AcDbPoint
 10
36.72892399747957
 20
14.73400268099406
 30
0.0
  0
POINT
  5
774
330
76F
100
AcDbEntity
  8
Defpoints
 62
     0
100
AcDbPoint
 10
36.72892399747957
 20
12.73400268099406
 30
0.0
  0
POINT
  5
775
330
76F
100
AcDbEntity
  8
Defpoints
 62
     0
100
AcDbPoint
 10
30.54892399747956
 20
13.73400268099407
 30
0.0
  0
ENDBLK
  5
776
330
76F
100
AcDbEntity
  8
0
100
AcDbBlockEnd
  0
BLOCK
  5
778
330
777
100
AcDbEntity
  8
0
100
AcDbBlockBegin
  2
*D52
 70
     1
 10
0.0
 20
0.0
 30
0.0
  3
*D52
  1

  0
LINE
  5
779
330
777
100
AcDbEntity
  8
0
 62
     0
370
    -2
100
AcDbLine
 10
31.13892399747954
 20
19.39650268099406
 30
0.0
 11
31.13892399747954
 21
20.39650268099405
 31
0.0
  0
MTEXT
  5
77A
330
777
100
AcDbEntity
  8
0
 62
     0
100
AcDbMText
 10
31.13892399747954
 20
21.11753601432738
 30
0.0
 40
0.3442
 41
0.0
 71
     5
 72
     1
  1
\A1;0.590
 11
0.0000000000000001
 21
1.0
 31
0.0
 73
     1
 44
1.0
1001
ACAD
1000
MTEXTBEGIN
1070
    73
1070
     1
1070
    44
1040
1.0
1070
    74
1070
     0
1000
MTEXTEND
  0
POINT
  5
77B
330
777
100
AcDbEntity
  8
Defpoints
 62
     0
100
AcDbPoint
 10
31.13892399747954
 20
19.14650268099405
 30
0.0
  0
POINT
  5
77C
330
777
100
AcDbEntity
  8
Defpoints
 62
     0
100
AcDbPoint
 10
31.13892399747954
 20
20.39650268099405
 30
0.0
  0
POINT
  5
77D
330
777
100
AcDbEntity
  8
Defpoints
 62
     0
100
AcDbPoint
 10
30.54892399747956
 20
13.73400268099407
 30
0.0
  0
ENDBLK
  5
77E
330
777
100
AcDbEntity
  8
0
100
AcDbBlockEnd
  0
BLOCK
  5
780
330
77F
100
AcDbEntity
  8
0
100
AcDbBlockBegin
  2
*D53
 70
     1
 10
0.0
 20
0.0
 30
0.0
  3
*D53
  1

  0
LINE
  5
781
330
77F
100
AcDbEntity
  8
0
 62
     0
370
    -2
100
AcDbLine
 10
37.13892399747954
 20
19.39650268099406
 30
0.0
 11
37.13892399747954
 21
20.39650268099405
 31
0.0
  0
MTEXT
  5
782
330
77F
100
AcDbEntity
  8
0
 62
     0
100
AcDbMText
 10
37.13892399747953
 20
21.14621934766072
 30
0.0
 40
0.3442
 41
0.0
 71
     5
 72
     1
  1
\A1;6.590
 11
0.0000000000000001
 21
1.0
 31
0.0
 73
     1
 44
1.0
1001
ACAD
1000
MTEXTBEGIN
1070
    73
1070
     1
1070
    44
1040
1.0
1070
    74
1070
     0
1000
MTEXTEND
  0
POINT
  5
783
330
77F
100
AcDbEntity
  8
Defpoints
 62
     0
100
AcDbPoint
 10
37.13892399747954
 20
19.14650268099405
 30
0.0
  0
POINT
  5
784
330
77F
100
AcDbEntity
  8
Defpoints
 62
     0
100
AcDbPoint
 10
37.13892399747954
 20
20.39650268099405
 30
0.0
  0
POINT
  5
785
330
77F
100
AcDbEntity
  8
Defpoints
 62
     0
100
AcDbPoint
 10
30.54892399747956
 20
13.73400268099407
 30
0.0
  0
ENDBLK
  5
786
330
77F
100
AcDbEntity
  8
0
100
AcDbBlockEnd
  0
BLOCK
  5
788
330
787
100
AcDbEntity
  8
0
100
AcDbBlockBegin
  2
*D54
 70
     1
 10
0.0
 20
0.0
 30
0.0
  3
*D54
  1

  0
LINE
  5
789
330
787
100
AcDbEntity
  8
0
 62
     0
370
    -2
100
AcDbLine
 10
31.79642399747948
 20
28.01400268099406
 30
0.0
 11
31.79642399747948
 21
29.23400268099406
 31
0.0
  0
MTEXT
  5
78A
330
787
100
AcDbEntity
  8
0
 62
     0
100
AcDbMText
 10
31.79642399747948
 20
29.95503601432739
 30
0.0
 40
0.3442
 41
0.0
 71
     5
 72
     1
  1
\A1;1.247
 11
0.0000000000000001
 21
1.0
 31
0.0
 73
     1
 44
1.0
1001
ACAD
1000
MTEXTBEGIN
1070
    73
1070
     1
1070
    44
1040
1.0
1070
    74
1070
     0
1000
MTEXTEND
  0
POINT
  5
78B
330
787
100
AcDbEntity
  8
Defpoints
 62
     0
100
AcDbPoint
 10
31.79642399747948
 20
27.76400268099406
 30
0.0
  0
POINT
  5
78C
330
787
100
AcDbEntity
  8
Defpoints
 62
     0
100
AcDbPoint
 10
31.79642399747948
 20
29.23400268099406
 30
0.0
  0
POINT
  5
78D
330
787
100
AcDbEntity
  8
Defpoints
 62
     0
100
AcDbPoint
 10
30.54892399747956
 20
13.73400268099407
 30
0.0
  0
ENDBLK
  5
78E
330
787
100
AcDbEntity
  8
0
100
AcDbBlockEnd
  0
BLOCK
  5
790
330
78F
100
AcDbEntity
  8
0
100
AcDbBlockBegin
  2
*D55
 70
     1
 10
0.0
 20
0.0
 30
0.0
  3
*D55
  1

  0
LINE
  5
791
330
78F
100
AcDbEntity
  8
0
 62
     0
370
    -2
100
AcDbLine
 10
36.4814239974795
 20
28.01400268099406
 30
0.0
 11
36.4814239974795
 21
29.23400268099408
 31
0.0
  0
MTEXT
  5
792
330
78F
100
AcDbEntity
  8
0
 62
     0
100
AcDbMText
 10
36.4814239974795
 20
30.01240268099408
 30
0.0
 40
0.3442
 41
0.0
 71
     5
 72
     1
  1
\A1;5.932
 11
0.0000000000000001
 21
1.0
 31
0.0
 73
     1
 44
1.0
1001
ACAD
1000
MTEXTBEGIN
1070
    73
1070
     1
1070
    44
1040
1.0
1070
    74
1070
     0
1000
MTEXTEND
  0
POINT
  5
793
330
78F
100
AcDbEntity
  8
Defpoints
 62
     0
100
AcDbPoint
 10
36.4814239974795
 20
27.76400268099406
 30
0.0
  0
POINT
  5
794
330
78F
100
AcDbEntity
  8
Defpoints
 62
     0
100
AcDbPoint
 10
36.4814239974795
 20
29.23400268099408
 30
0.0
  0
POINT
  5
795
330
78F
100
AcDbEntity
  8
Defpoints
 62
     0
100
AcDbPoint
 10
30.54892399747956
 20
13.73400268099407
 30
0.0
  0
ENDBLK
  5
796
330
78F
100
AcDbEntity
  8
0
100
AcDbBlockEnd
  0
BLOCK
  5
798
330
797
100
AcDbEntity
  8
0
100
AcDbBlockBegin
  2
*D56
 70
     1
 10
0.0
 20
0.0
 30
0.0
  3
*D56
  1

  0
LINE
  5
799
330
797
100
AcDbEntity
  8
0
 62
     0
370
    -2
100
AcDbLine
 10
36.97892399747957
 20
27.48400268099407
 30
0.0
 11
38.68942108203366
 21
27.48400268099406
 31
0.0
  0
MTEXT
  5
79A
330
797
100
AcDbEntity
  8
0
 62
     0
100
AcDbMText
 10
39.55387108203366
 20
27.48400268099406
 30
0.0
 40
0.3442
 41
0.0
 71
     5
 72
     1
  1
\A1;13.750
 73
     1
 44
1.0
1001
ACAD
1000
MTEXTBEGIN
1070
    73
1070
     1
1070
    44
1040
1.0
1070
    74
1070
     0
1000
MTEXTEND
  0
POINT
  5
79B
330
797
100
AcDbEntity
  8
Defpoints
 62
     0
100
AcDbPoint
 10
36.72892399747957
 20
27.48400268099407
 30
0.0
  0
POINT
  5
79C
330
797
100
AcDbEntity
  8
Defpoints
 62
     0
100
AcDbPoint
 10
38.68942108203366
 20
27.48400268099406
 30
0.0
  0
POINT
  5
79D
330
797
100
AcDbEntity
  8
Defpoints
 62
     0
100
AcDbPoint
 10
30.54892399747956
 20
13.73400268099407
 30
0.0
  0
ENDBLK
  5
79E
330
797
100
AcDbEntity
  8
0
100
AcDbBlockEnd
  0
BLOCK
  5
7A0
330
79F
100
AcDbEntity
  8
0
100
AcDbBlockBegin
  2
*D57
 70
     1
 10
0.0
 20
0.0
 30
0.0
  3
*D57
  1

  0
LINE
  5
7A1
330
79F
100
AcDbEntity
  8
0
 62
     0
370
    -2
100
AcDbLine
 10
36.93942108203368
 20
24.76314016275745
 30
0.0
 11
38.68942108203366
 21
24.76314016275745
 31
0.0
  0
MTEXT
  5
7A2
330
79F
100
AcDbEntity
  8
0
 62
     0
100
AcDbMText
 10
39.49650441536699
 20
24.76314016275745
 30
0.0
 40
0.3442
 41
0.0
 71
     5
 72
     1
  1
\A1;11.029
 73
     1
 44
1.0
1001
ACAD
1000
MTEXTBEGIN
1070
    73
1070
     1
1070
    44
1040
1.0
1070
    74
1070
     0
1000
MTEXTEND
  0
POINT
  5
7A3
330
79F
100
AcDbEntity
  8
Defpoints
 62
     0
100
AcDbPoint
 10
36.68942108203367
 20
24.76314016275745
 30
0.0
  0
POINT
  5
7A4
330
79F
100
AcDbEntity
  8
Defpoints
 62
     0
100
AcDbPoint
 10
38.68942108203366
 20
24.76314016275745
 30
0.0
  0
POINT
  5
7A5
330
79F
100
AcDbEntity
  8
Defpoints
 62
     0
100
AcDbPoint
 10
30.54892399747956
 20
13.73400268099407
 30
0.0
  0
ENDBLK
  5
7A6
330
79F
100
AcDbEntity
  8
0
100
AcDbBlockEnd
  0
BLOCK
  5
7A8
330
7A7
100
AcDbEntity
  8
0
100
AcDbBlockBegin
  2
*D58
 70
     1
 10
0.0
 20
0.0
 30
0.0
  3
*D58
  1

  0
LINE
  5
7A9
330
7A7
100
AcDbEntity
  8
0
 62
     0
370
    -2
100
AcDbLine
 10
31.54642399747949
 20
23.89900268099405
 30
0.0
 11
29.50942108203367
 21
23.89900268099405
 31
0.0
  0
MTEXT
  5
7AA
330
7A7
100
AcDbEntity
  8
0
 62
     0
100
AcDbMText
 10
28.70233774870034
 20
23.89900268099405
 30
0.0
 40
0.3442
 41
0.0
 71
     5
 72
     1
  1
\A1;10.165
 73
     1
 44
1.0
1001
ACAD
1000
MTEXTBEGIN
1070
    73
1070
     1
1070
    44
1040
1.0
1070
    74
1070
     0
1000
MTEXTEND
  0
POINT
  5
7AB
330
7A7
100
AcDbEntity
  8
Defpoints
 62
     0
100
AcDbPoint
 10
31.79642399747949
 20
23.89900268099405
 30
0.0
  0
POINT
  5
7AC
330
7A7
100
AcDbEntity
  8
Defpoints
 62
     0
100
AcDbPoint
 10
29.50942108203367
 20
23.89900268099405
 30
0.0
  0
POINT
  5
7AD
330
7A7
100
AcDbEntity
  8
Defpoints
 62
     0
100
AcDbPoint
 10
30.54892399747956
 20
13.73400268099407
 30
0.0
  0
ENDBLK
  5
7AE
330
7A7
100
AcDbEntity
  8
0
100
AcDbBlockEnd
  0
BLOCK
  5
7B0
330
7AF
100
AcDbEntity
  8
0
100
AcDbBlockBegin
  2
*D59
 70
     1
 10
0.0
 20
0.0
 30
0.0
  3
*D59
  1

  0
LINE
  5
7B1
330
7AF
100
AcDbEntity
  8
0
 62
     0
370
    -2
100
AcDbLine
 10
31.54642399747948
 20
27.76400268099406
 30
0.0
 11
29.50942108203367
 21
27.76400268099406
 31
0.0
  0
MTEXT
  5
7B2
330
7AF
100
AcDbEntity
  8
0
 62
     0
100
AcDbMText
 10
28.673654415367
 20
27.76400268099406
 30
0.0
 40
0.3442
 41
0.0
 71
     5
 72
     1
  1
\A1;14.030
 73
     1
 44
1.0
1001
ACAD
1000
MTEXTBEGIN
1070
    73
1070
     1
1070
    44
1040
1.0
1070
    74
1070
     0
1000
MTEXTEND
  0
POINT
  5
7B3
330
7AF
100
AcDbEntity
  8
Defpoints
 62
     0
100
AcDbPoint
 10
31.79642399747948
 20
27.76400268099406
 30
0.0
  0
POINT
  5
7B4
330
7AF
100
AcDbEntity
  8
Defpoints
 62
     0
100
AcDbPoint
 10
29.50942108203367
 20
27.76400268099406
 30
0.0
  0
POINT
  5
7B5
330
7AF
100
AcDbEntity
  8
Defpoints
 62
     0
100
AcDbPoint
 10
30.54892399747956
 20
13.73400268099407
 30
0.0
  0
ENDBLK
  5
7B6
330
7AF
100
AcDbEntity
  8
0
100
AcDbBlockEnd
  0
BLOCK
  5
7B8
330
7B7
100
AcDbEntity
  8
0
100
AcDbBlockBegin
  2
*D60
 70
     1
 10
0.0
 20
0.0
 30
0.0
  3
*D60
  1

  0
LINE
  5
7B9
330
7B7
100
AcDbEntity
  8
0
 62
     0
370
    -2
100
AcDbLine
 10
37.68942108203366
 20
28.48400268099408
 30
0.0
 11
37.68942108203366
 21
29.23400268099408
 31
0.0
  0
MTEXT
  5
7BA
330
7B7
100
AcDbEntity
  8
0
 62
     0
100
AcDbMText
 10
37.68942108203365
 20
29.92635268099407
 30
0.0
 40
0.3442
 41
0.0
 71
     5
 72
     1
  1
\A1;7.140
 11
0.0000000000000001
 21
1.0
 31
0.0
 73
     1
 44
1.0
1001
ACAD
1000
MTEXTBEGIN
1070
    73
1070
     1
1070
    44
1040
1.0
1070
    74
1070
     0
1000
MTEXTEND
  0
POINT
  5
7BB
330
7B7
100
AcDbEntity
  8
Defpoints
 62
     0
100
AcDbPoint
 10
37.68942108203366
 20
28.23400268099408
 30
0.0
  0
POINT
  5
7BC
330
7B7
100
AcDbEntity
  8
Defpoints
 62
     0
100
AcDbPoint
 10
37.68942108203366
 20
29.23400268099408
 30
0.0
  0
POINT
  5
7BD
330
7B7
100
AcDbEntity
  8
Defpoints
 62
     0
100
AcDbPoint
 10
30.54892399747956
 20
13.73400268099407
 30
0.0
  0
ENDBLK
  5
7BE
330
7B7
100
AcDbEntity
  8
0
100
AcDbBlockEnd
  0
BLOCK
  5
7C0
330
7BF
100
AcDbEntity
  8
0
100
AcDbBlockBegin
  2
*D61
 70
     1
 10
0.0
 20
0.0
 30
0.0
  3
*D61
  1

  0
LINE
  5
7C1
330
7BF
100
AcDbEntity
  8
0
 62
     0
370
    -2
100
AcDbLine
 10
37.93942108203366
 20
28.23400268099407
 30
0.0
 11
38.68942108203366
 21
28.23400268099407
 31
0.0
  0
MTEXT
  5
7C2
330
7BF
100
AcDbEntity
  8
0
 62
     0
100
AcDbMText
 10
39.52518774870032
 20
28.23400268099407
 30
0.0
 40
0.3442
 41
0.0
 71
     5
 72
     1
  1
\A1;14.500
 73
     1
 44
1.0
1001
ACAD
1000
MTEXTBEGIN
1070
    73
1070
     1
1070
    44
1040
1.0
1070
    74
1070
     0
1000
MTEXTEND
  0
POINT
  5
7C3
330
7BF
100
AcDbEntity
  8
Defpoints
 62
     0
100
AcDbPoint
 10
37.68942108203366
 20
28.23400268099407
 30
0.0
  0
POINT
  5
7C4
330
7BF
100
AcDbEntity
  8
Defpoints
 62
     0
100
AcDbPoint
 10
38.68942108203366
 20
28.23400268099407
 30
0.0
  0
POINT
  5
7C5
330
7BF
100
AcDbEntity
  8
Defpoints
 62
     0
100
AcDbPoint
 10
30.54892399747956
 20
13.73400268099407
 30
0.0
  0
ENDBLK
  5
7C6
330
7BF
100
AcDbEntity
  8
0
100
AcDbBlockEnd
  0
BLOCK
  5
7C8
330
7C7
100
AcDbEntity
  8
0
100
AcDbBlockBegin
  2
*D62
 70
     1
 10
0.0
 20
0.0
 30
0.0
  3
*D62
  1

  0
LINE
  5
7C9
330
7C7
100
AcDbEntity
  8
0
 62
     0
370
    -2
100
AcDbLine
 10
38.8231239974796
 20
25.91106447353951
 30
0.0
 11
38.4789239974796
 21
25.91106447353951
 31
0.0
  0
LINE
  5
7CA
330
7C7
100
AcDbEntity
  8
0
 62
     0
370
    -2
100
AcDbLine
 10
38.4789239974796
 20
25.91106447353951
 30
0.0
 11
37.12436507205721
 21
27.12857160956547
 31
0.0
  0
MTEXT
  5
7CB
330
7C7
100
AcDbEntity
  8
0
 62
     0
100
AcDbMText
 10
40.31860733081293
 20
25.91106447353951
 30
0.0
 40
0.3442
 41
0.0
 71
     5
 72
     1
  1
\A1;\U+22050.375 (4)
 73
     1
 44
1.0
1001
ACAD
1000
MTEXTBEGIN
1070
    73
1070
     1
1070
    44
1040
1.0
1070
    74
1070
     0
1000
MTEXTEND
  0
SOLID
  5
7CC
330
7C7
100
AcDbEntity
  8
0
 62
     0
100
AcDbTrace
 10
37.16271356894949
 20
27.17123690260967
 30
0.0
 11
37.08601657516494
 21
27.08590631652127
 31
0.0
 12
36.86837331379198
 22
27.3586625909191
 32
0.0
 13
36.86837331379198
 23
27.3586625909191
 33
0.0
  0
LINE
  5
7CD
330
7C7
100
AcDbEntity
  8
0
 62
     0
370
    -2
100
AcDbLine
 10
36.63892399747957
 20
27.48400268099407
 30
0.0
 11
36.81892399747957
 21
27.48400268099406
 31
0.0
  0
LINE
  5
7CE
330
7C7
100
AcDbEntity
  8
0
 62
     0
370
    -2
100
AcDbLine
 10
36.72892399747957
 20
27.39400268099407
 30
0.0
 11
36.72892399747957
 21
27.57400268099406
 31
0.0
  0
POINT
  5
7CF
330
7C7
100
AcDbEntity
  8
Defpoints
 62
     0
100
AcDbPoint
 10
36.86837331379198
 20
27.3586625909191
 30
0.0
  0
POINT
  5
7D0
330
7C7
100
AcDbEntity
  8
Defpoints
 62
     0
100
AcDbPoint
 10
36.58947468116716
 20
27.60934277106904
 30
0.0
  0
ENDBLK
  5
7D1
330
7C7
100
AcDbEntity
  8
0
100
AcDbBlockEnd
  0
BLOCK
  5
7D3
330
7D2
100
AcDbEntity
  8
0
100
AcDbBlockBegin
  2
*D63
 70
     1
 10
0.0
 20
0.0
 30
0.0
  3
*D63
  1

  0
LINE
  5
7D4
330
7D2
100
AcDbEntity
  8
0
 62
     0
370
    -2
100
AcDbLine
 10
36.68942108203367
 20
24.51314016275745
 30
0.0
 11
36.68942108203367
 21
22.81736087246972
 31
0.0
  0
MTEXT
  5
7D5
330
7D2
100
AcDbEntity
  8
0
 62
     0
100
AcDbMText
 10
36.68942108203367
 20
22.12501087246972
 30
0.0
 40
0.3442
 41
0.0
 71
     5
 72
     1
  1
\A1;6.140
 11
0.0000000000000001
 21
1.0
 31
0.0
 73
     1
 44
1.0
1001
ACAD
1000
MTEXTBEGIN
1070
    73
1070
     1
1070
    44
1040
1.0
1070
    74
1070
     0
1000
MTEXTEND
  0
POINT
  5
7D6
330
7D2
100
AcDbEntity
  8
Defpoints
 62
     0
100
AcDbPoint
 10
36.68942108203367
 20
24.76314016275745
 30
0.0
  0
POINT
  5
7D7
330
7D2
100
AcDbEntity
  8
Defpoints
 62
     0
100
AcDbPoint
 10
36.68942108203367
 20
22.81736087246972
 30
0.0
  0
POINT
  5
7D8
330
7D2
100
AcDbEntity
  8
Defpoints
 62
     0
100
AcDbPoint
 10
30.54892399747956
 20
13.73400268099407
 30
0.0
  0
ENDBLK
  5
7D9
330
7D2
100
AcDbEntity
  8
0
100
AcDbBlockEnd
  0
BLOCK
  5
7DB
330
7DA
100
AcDbEntity
  8
0
100
AcDbBlockBegin
  2
*D64
 70
     1
 10
0.0
 20
0.0
 30
0.0
  3
*D64
  1

  0
LINE
  5
7DC
330
7DA
100
AcDbEntity
  8
0
 62
     0
370
    -2
100
AcDbLine
 10
39.03362108203369
 20
22.50098426420322
 30
0.0
 11
38.68942108203369
 21
22.50098426420322
 31
0.0
  0
LINE
  5
7DD
330
7DA
100
AcDbEntity
  8
0
 62
     0
370
    -2
100
AcDbLine
 10
38.68942108203369
 20
22.50098426420322
 30
0.0
 11
37.33138276081304
 21
24.0370314636092
 31
0.0
  0
MTEXT
  5
7DE
330
7DA
100
AcDbEntity
  8
0
 62
     0
100
AcDbMText
 10
39.89807108203369
 20
22.50098426420322
 30
0.0
 40
0.3442
 41
0.0
 71
     5
 72
     1
  1
\A1;\U+22051.250
 73
     1
 44
1.0
1001
ACAD
1000
MTEXTBEGIN
1070
    73
1070
     1
1070
    44
1040
1.0
1070
    74
1070
     0
1000
MTEXTEND
  0
SOLID
  5
7DF
330
7DA
100
AcDbEntity
  8
0
 62
     0
100
AcDbTrace
 10
37.37436092394533
 20
24.07502898903152
 30
0.0
 11
37.28840459768078
 21
23.99903393818688
 31
0.0
 12
37.10339760827915
 22
24.29490044240288
 32
0.0
 13
37.10339760827915
 23
24.29490044240288
 33
0.0
  0
LINE
  5
7E0
330
7DA
100
AcDbEntity
  8
0
 62
     0
370
    -2
100
AcDbLine
 10
36.59942108203368
 20
24.76314016275746
 30
0.0
 11
36.7794210820337
 21
24.76314016275746
 31
0.0
  0
LINE
  5
7E1
330
7DA
100
AcDbEntity
  8
0
 62
     0
370
    -2
100
AcDbLine
 10
36.68942108203368
 20
24.67314016275746
 30
0.0
 11
36.68942108203368
 21
24.85314016275746
 31
0.0
  0
POINT
  5
7E2
330
7DA
100
AcDbEntity
  8
Defpoints
 62
     0
100
AcDbPoint
 10
37.10339760827915
 20
24.29490044240288
 30
0.0
  0
POINT
  5
7E3
330
7DA
100
AcDbEntity
  8
Defpoints
 62
     0
100
AcDbPoint
 10
36.27544455578822
 20
25.23137988311205
 30
0.0
  0
ENDBLK
  5
7E4
330
7DA
100
AcDbEntity
  8
0
100
AcDbBlockEnd
  0
BLOCK
  5
83E
330
835
100
AcDbEntity
  8
0
100
AcDbBlockBegin
  2
*D65
 70
     1
 10
0.0
 20
0.0
 30
0.0
  3
*D65
  1

  0
LINE
  5
8DB
330
835
100
AcDbEntity
  8
0
 62
     0
370
    -2
100
AcDbLine
 10
29.59943239138981
 20
23.50393941353527
 30
0.0
 11
29.25523239138981
 21
23.50393941353527
 31
0.0
  0
LINE
  5
8DC
330
835
100
AcDbEntity
  8
0
 62
     0
370
    -2
100
AcDbLine
 10
29.25523239138981
 20
23.50393941353527
 30
0.0
 11
27.89719407016917
 21
25.03998661294125
 31
0.0
  0
MTEXT
  5
8DD
330
835
100
AcDbEntity
  8
0
 62
     0
100
AcDbMText
 10
30.4638823913898
 20
23.50393941353527
 30
0.0
 40
0.3442
 41
0.0
 71
     5
 72
     1
  1
\A1;\U+22051.250
 73
     1
 44
1.0
1001
ACAD
1000
MTEXTBEGIN
1070
    73
1070
     1
1070
    44
1040
1.0
1070
    74
1070
     0
1000
MTEXTEND
  0
SOLID
  5
8DE
330
835
100
AcDbEntity
  8
0
 62
     0
100
AcDbTrace
 10
27.94017223330145
 20
25.07798413836357
 30
0.0
 11
27.85421590703689
 21
25.00198908751894
 31
0.0
 12
27.66920891763527
 22
25.29785559173493
 32
0.0
 13
27.66920891763527
 23
25.29785559173493
 33
0.0
  0
LINE
  5
8DF
330
835
100
AcDbEntity
  8
0
 62
     0
370
    -2
100
AcDbLine
 10
27.16523239138981
 20
25.76609531208952
 30
0.0
 11
27.34523239138981
 21
25.76609531208951
 31
0.0
  0
LINE
  5
8E0
330
835
100
AcDbEntity
  8
0
 62
     0
370
    -2
100
AcDbLine
 10
27.2552323913898
 20
25.67609531208951
 30
0.0
 11
27.2552323913898
 21
25.85609531208952
 31
0.0
  0
POINT
  5
8E1
330
835
100
AcDbEntity
  8
Defpoints
 62
     0
100
AcDbPoint
 10
27.66920891763527
 20
25.29785559173493
 30
0.0
  0
POINT
  5
8E2
330
835
100
AcDbEntity
  8
Defpoints
 62
     0
100
AcDbPoint
 10
26.84125586514434
 20
26.2343350324441
 30
0.0
  0
ENDBLK
  5
83F
330
835
100
AcDbEntity
  8
0
100
AcDbBlockEnd
  0
BLOCK
  5
846
330
840
100
AcDbEntity
  8
0
100
AcDbBlockBegin
  2
*D66
 70
     1
 10
0.0
 20
0.0
 30
0.0
  3
*D66
  1

  0
LINE
  5
8E3
330
840
100
AcDbEntity
  8
0
 62
     0
370
    -2
100
AcDbLine
 10
27.2552323913898
 20
25.5160953120895
 30
0.0
 11
27.2552323913898
 21
23.82031602180177
 31
0.0
  0
MTEXT
  5
8E4
330
840
100
AcDbEntity
  8
0
 62
     0
100
AcDbMText
 10
27.2552323913898
 20
23.12796602180178
 30
0.0
 40
0.3442
 41
0.0
 71
     5
 72
     1
  1
\A1;6.140
 11
0.0000000000000001
 21
1.0
 31
0.0
 73
     1
 44
1.0
1001
ACAD
1000
MTEXTBEGIN
1070
    73
1070
     1
1070
    44
1040
1.0
1070
    74
1070
     0
1000
MTEXTEND
  0
POINT
  5
8E5
330
840
100
AcDbEntity
  8
Defpoints
 62
     0
100
AcDbPoint
 10
27.2552323913898
 20
25.7660953120895
 30
0.0
  0
POINT
  5
8E6
330
840
100
AcDbEntity
  8
Defpoints
 62
     0
100
AcDbPoint
 10
27.2552323913898
 20
23.82031602180177
 30
0.0
  0
POINT
  5
8E7
330
840
100
AcDbEntity
  8
Defpoints
 62
     0
100
AcDbPoint
 10
21.11473530683568
 20
14.73695783032612
 30
0.0
  0
ENDBLK
  5
847
330
840
100
AcDbEntity
  8
0
100
AcDbBlockEnd
  0
BLOCK
  5
851
330
848
100
AcDbEntity
  8
0
100
AcDbBlockBegin
  2
*D67
 70
     1
 10
0.0
 20
0.0
 30
0.0
  3
*D67
  1

  0
LINE
  5
8E8
330
848
100
AcDbEntity
  8
0
 62
     0
370
    -2
100
AcDbLine
 10
29.38893530683579
 20
26.91401962287157
 30
0.0
 11
29.0447353068358
 21
26.91401962287157
 31
0.0
  0
LINE
  5
8E9
330
848
100
AcDbEntity
  8
0
 62
     0
370
    -2
100
AcDbLine
 10
29.0447353068358
 20
26.91401962287157
 30
0.0
 11
27.69017638141334
 21
28.13152675889754
 31
0.0
  0
MTEXT
  5
8EA
330
848
100
AcDbEntity
  8
0
 62
     0
100
AcDbMText
 10
30.88441864016913
 20
26.91401962287157
 30
0.0
 40
0.3442
 41
0.0
 71
     5
 72
     1
  1
\A1;\U+22050.375 (4)
 73
     1
 44
1.0
1001
ACAD
1000
MTEXTBEGIN
1070
    73
1070
     1
1070
    44
1040
1.0
1070
    74
1070
     0
1000
MTEXTEND
  0
SOLID
  5
8EB
330
848
100
AcDbEntity
  8
0
 62
     0
100
AcDbTrace
 10
27.72852487830562
 20
28.17419205194175
 30
0.0
 11
27.65182788452106
 21
28.08886146585333
 31
0.0
 12
27.43418462314811
 22
28.36161774025116
 32
0.0
 13
27.43418462314811
 23
28.36161774025116
 33
0.0
  0
LINE
  5
8EC
330
848
100
AcDbEntity
  8
0
 62
     0
370
    -2
100
AcDbLine
 10
27.20473530683569
 20
28.48695783032613
 30
0.0
 11
27.38473530683569
 21
28.48695783032614
 31
0.0
  0
LINE
  5
8ED
330
848
100
AcDbEntity
  8
0
 62
     0
370
    -2
100
AcDbLine
 10
27.2947353068357
 20
28.39695783032614
 30
0.0
 11
27.2947353068357
 21
28.57695783032612
 31
0.0
  0
POINT
  5
8EE
330
848
100
AcDbEntity
  8
Defpoints
 62
     0
100
AcDbPoint
 10
27.43418462314811
 20
28.36161774025116
 30
0.0
  0
POINT
  5
8EF
330
848
100
AcDbEntity
  8
Defpoints
 62
     0
100
AcDbPoint
 10
27.15528599052329
 20
28.61229792040109
 30
0.0
  0
ENDBLK
  5
852
330
848
100
AcDbEntity
  8
0
100
AcDbBlockEnd
  0
BLOCK
  5
859
330
853
100
AcDbEntity
  8
0
100
AcDbBlockBegin
  2
*D68
 70
     1
 10
0.0
 20
0.0
 30
0.0
  3
*D68
  1

  0
LINE
  5
8F0
330
853
100
AcDbEntity
  8
0
 62
     0
370
    -2
100
AcDbLine
 10
28.50523239138978
 20
29.23695783032612
 30
0.0
 11
29.25523239138978
 21
29.23695783032612
 31
0.0
  0
MTEXT
  5
8F1
330
853
100
AcDbEntity
  8
0
 62
     0
100
AcDbMText
 10
30.09099905805645
 20
29.23695783032612
 30
0.0
 40
0.3442
 41
0.0
 71
     5
 72
     1
  1
\A1;14.500
 73
     1
 44
1.0
1001
ACAD
1000
MTEXTBEGIN
1070
    73
1070
     1
1070
    44
1040
1.0
1070
    74
1070
     0
1000
MTEXTEND
  0
POINT
  5
8F2
330
853
100
AcDbEntity
  8
Defpoints
 62
     0
100
AcDbPoint
 10
28.25523239138978
 20
29.23695783032612
 30
0.0
  0
POINT
  5
8F3
330
853
100
AcDbEntity
  8
Defpoints
 62
     0
100
AcDbPoint
 10
29.25523239138978
 20
29.23695783032612
 30
0.0
  0
POINT
  5
8F4
330
853
100
AcDbEntity
  8
Defpoints
 62
     0
100
AcDbPoint
 10
21.11473530683568
 20
14.73695783032612
 30
0.0
  0
ENDBLK
  5
85A
330
853
100
AcDbEntity
  8
0
100
AcDbBlockEnd
  0
BLOCK
  5
861
330
85B
100
AcDbEntity
  8
0
100
AcDbBlockBegin
  2
*D69
 70
     1
 10
0.0
 20
0.0
 30
0.0
  3
*D69
  1

  0
LINE
  5
8F5
330
85B
100
AcDbEntity
  8
0
 62
     0
370
    -2
100
AcDbLine
 10
28.25523239138978
 20
29.48695783032613
 30
0.0
 11
28.25523239138978
 21
30.23695783032613
 31
0.0
  0
MTEXT
  5
8F6
330
85B
100
AcDbEntity
  8
0
 62
     0
100
AcDbMText
 10
28.25523239138978
 20
30.92930783032614
 30
0.0
 40
0.3442
 41
0.0
 71
     5
 72
     1
  1
\A1;7.140
 11
0.0000000000000001
 21
1.0
 31
0.0
 73
     1
 44
1.0
1001
ACAD
1000
MTEXTBEGIN
1070
    73
1070
     1
1070
    44
1040
1.0
1070
    74
1070
     0
1000
MTEXTEND
  0
POINT
  5
8F7
330
85B
100
AcDbEntity
  8
Defpoints
 62
     0
100
AcDbPoint
 10
28.25523239138978
 20
29.23695783032613
 30
0.0
  0
POINT
  5
8F8
330
85B
100
AcDbEntity
  8
Defpoints
 62
     0
100
AcDbPoint
 10
28.25523239138978
 20
30.23695783032613
 30
0.0
  0
POINT
  5
8F9
330
85B
100
AcDbEntity
  8
Defpoints
 62
     0
100
AcDbPoint
 10
21.11473530683568
 20
14.73695783032612
 30
0.0
  0
ENDBLK
  5
862
330
85B
100
AcDbEntity
  8
0
100
AcDbBlockEnd
  0
BLOCK
  5
869
330
863
100
AcDbEntity
  8
0
100
AcDbBlockBegin
  2
*D70
 70
     1
 10
0.0
 20
0.0
 30
0.0
  3
*D70
  1

  0
LINE
  5
8FA
330
863
100
AcDbEntity
  8
0
 62
     0
370
    -2
100
AcDbLine
 10
22.11223530683561
 20
28.76695783032611
 30
0.0
 11
20.07523239138979
 21
28.76695783032611
 31
0.0
  0
MTEXT
  5
8FB
330
863
100
AcDbEntity
  8
0
 62
     0
100
AcDbMText
 10
19.23946572472312
 20
28.76695783032611
 30
0.0
 40
0.3442
 41
0.0
 71
     5
 72
     1
  1
\A1;14.030
 73
     1
 44
1.0
1001
ACAD
1000
MTEXTBEGIN
1070
    73
1070
     1
1070
    44
1040
1.0
1070
    74
1070
     0
1000
MTEXTEND
  0
POINT
  5
8FC
330
863
100
AcDbEntity
  8
Defpoints
 62
     0
100
AcDbPoint
 10
22.3622353068356
 20
28.76695783032611
 30
0.0
  0
POINT
  5
8FD
330
863
100
AcDbEntity
  8
Defpoints
 62
     0
100
AcDbPoint
 10
20.07523239138979
 20
28.76695783032611
 30
0.0
  0
POINT
  5
8FE
330
863
100
AcDbEntity
  8
Defpoints
 62
     0
100
AcDbPoint
 10
21.11473530683568
 20
14.73695783032612
 30
0.0
  0
ENDBLK
  5
86A
330
863
100
AcDbEntity
  8
0
100
AcDbBlockEnd
  0
BLOCK
  5
871
330
86B
100
AcDbEntity
  8
0
100
AcDbBlockBegin
  2
*D71
 70
     1
 10
0.0
 20
0.0
 30
0.0
  3
*D71
  1

  0
LINE
  5
8FF
330
86B
100
AcDbEntity
  8
0
 62
     0
370
    -2
100
AcDbLine
 10
22.11223530683561
 20
24.90195783032611
 30
0.0
 11
20.07523239138979
 21
24.90195783032611
 31
0.0
  0
MTEXT
  5
900
330
86B
100
AcDbEntity
  8
0
 62
     0
100
AcDbMText
 10
19.26814905805646
 20
24.90195783032611
 30
0.0
 40
0.3442
 41
0.0
 71
     5
 72
     1
  1
\A1;10.165
 73
     1
 44
1.0
1001
ACAD
1000
MTEXTBEGIN
1070
    73
1070
     1
1070
    44
1040
1.0
1070
    74
1070
     0
1000
MTEXTEND
  0
POINT
  5
901
330
86B
100
AcDbEntity
  8
Defpoints
 62
     0
100
AcDbPoint
 10
22.36223530683561
 20
24.90195783032611
 30
0.0
  0
POINT
  5
902
330
86B
100
AcDbEntity
  8
Defpoints
 62
     0
100
AcDbPoint
 10
20.07523239138979
 20
24.90195783032611
 30
0.0
  0
POINT
  5
903
330
86B
100
AcDbEntity
  8
Defpoints
 62
     0
100
AcDbPoint
 10
21.11473530683568
 20
14.73695783032612
 30
0.0
  0
ENDBLK
  5
872
330
86B
100
AcDbEntity
  8
0
100
AcDbBlockEnd
  0
BLOCK
  5
879
330
873
100
AcDbEntity
  8
0
100
AcDbBlockBegin
  2
*D72
 70
     1
 10
0.0
 20
0.0
 30
0.0
  3
*D72
  1

  0
LINE
  5
904
330
873
100
AcDbEntity
  8
0
 62
     0
370
    -2
100
AcDbLine
 10
27.5052323913898
 20
25.7660953120895
 30
0.0
 11
29.25523239138978
 21
25.7660953120895
 31
0.0
  0
MTEXT
  5
905
330
873
100
AcDbEntity
  8
0
 62
     0
100
AcDbMText
 10
30.06231572472312
 20
25.7660953120895
 30
0.0
 40
0.3442
 41
0.0
 71
     5
 72
     1
  1
\A1;11.029
 73
     1
 44
1.0
1001
ACAD
1000
MTEXTBEGIN
1070
    73
1070
     1
1070
    44
1040
1.0
1070
    74
1070
     0
1000
MTEXTEND
  0
POINT
  5
906
330
873
100
AcDbEntity
  8
Defpoints
 62
     0
100
AcDbPoint
 10
27.2552323913898
 20
25.7660953120895
 30
0.0
  0
POINT
  5
907
330
873
100
AcDbEntity
  8
Defpoints
 62
     0
100
AcDbPoint
 10
29.25523239138978
 20
25.7660953120895
 30
0.0
  0
POINT
  5
908
330
873
100
AcDbEntity
  8
Defpoints
 62
     0
100
AcDbPoint
 10
21.11473530683568
 20
14.73695783032612
 30
0.0
  0
ENDBLK
  5
87A
330
873
100
AcDbEntity
  8
0
100
AcDbBlockEnd
  0
BLOCK
  5
881
330
87B
100
AcDbEntity
  8
0
100
AcDbBlockBegin
  2
*D73
 70
     1
 10
0.0
 20
0.0
 30
0.0
  3
*D73
  1

  0
LINE
  5
909
330
87B
100
AcDbEntity
  8
0
 62
     0
370
    -2
100
AcDbLine
 10
27.54473530683569
 20
28.48695783032612
 30
0.0
 11
29.25523239138978
 21
28.48695783032611
 31
0.0
  0
MTEXT
  5
90A
330
87B
100
AcDbEntity
  8
0
 62
     0
100
AcDbMText
 10
30.11968239138978
 20
28.48695783032611
 30
0.0
 40
0.3442
 41
0.0
 71
     5
 72
     1
  1
\A1;13.750
 73
     1
 44
1.0
1001
ACAD
1000
MTEXTBEGIN
1070
    73
1070
     1
1070
    44
1040
1.0
1070
    74
1070
     0
1000
MTEXTEND
  0
POINT
  5
90B
330
87B
100
AcDbEntity
  8
Defpoints
 62
     0
100
AcDbPoint
 10
27.29473530683569
 20
28.48695783032612
 30
0.0
  0
POINT
  5
90C
330
87B
100
AcDbEntity
  8
Defpoints
 62
     0
100
AcDbPoint
 10
29.25523239138978
 20
28.48695783032611
 30
0.0
  0
POINT
  5
90D
330
87B
100
AcDbEntity
  8
Defpoints
 62
     0
100
AcDbPoint
 10
21.11473530683568
 20
14.73695783032612
 30
0.0
  0
ENDBLK
  5
882
330
87B
100
AcDbEntity
  8
0
100
AcDbBlockEnd
  0
BLOCK
  5
889
330
883
100
AcDbEntity
  8
0
100
AcDbBlockBegin
  2
*D74
 70
     1
 10
0.0
 20
0.0
 30
0.0
  3
*D74
  1

  0
LINE
  5
90E
330
883
100
AcDbEntity
  8
0
 62
     0
370
    -2
100
AcDbLine
 10
27.04723530683562
 20
29.01695783032611
 30
0.0
 11
27.04723530683562
 21
30.23695783032613
 31
0.0
  0
MTEXT
  5
90F
330
883
100
AcDbEntity
  8
0
 62
     0
100
AcDbMText
 10
27.04723530683562
 20
31.01535783032614
 30
0.0
 40
0.3442
 41
0.0
 71
     5
 72
     1
  1
\A1;5.932
 11
0.0000000000000001
 21
1.0
 31
0.0
 73
     1
 44
1.0
1001
ACAD
1000
MTEXTBEGIN
1070
    73
1070
     1
1070
    44
1040
1.0
1070
    74
1070
     0
1000
MTEXTEND
  0
POINT
  5
910
330
883
100
AcDbEntity
  8
Defpoints
 62
     0
100
AcDbPoint
 10
27.04723530683562
 20
28.76695783032611
 30
0.0
  0
POINT
  5
911
330
883
100
AcDbEntity
  8
Defpoints
 62
     0
100
AcDbPoint
 10
27.04723530683562
 20
30.23695783032613
 30
0.0
  0
POINT
  5
912
330
883
100
AcDbEntity
  8
Defpoints
 62
     0
100
AcDbPoint
 10
21.11473530683568
 20
14.73695783032612
 30
0.0
  0
ENDBLK
  5
88A
330
883
100
AcDbEntity
  8
0
100
AcDbBlockEnd
  0
BLOCK
  5
891
330
88B
100
AcDbEntity
  8
0
100
AcDbBlockBegin
  2
*D75
 70
     1
 10
0.0
 20
0.0
 30
0.0
  3
*D75
  1

  0
LINE
  5
913
330
88B
100
AcDbEntity
  8
0
 62
     0
370
    -2
100
AcDbLine
 10
22.3622353068356
 20
29.01695783032611
 30
0.0
 11
22.3622353068356
 21
30.23695783032611
 31
0.0
  0
MTEXT
  5
914
330
88B
100
AcDbEntity
  8
0
 62
     0
100
AcDbMText
 10
22.3622353068356
 20
30.95799116365945
 30
0.0
 40
0.3442
 41
0.0
 71
     5
 72
     1
  1
\A1;1.247
 11
0.0000000000000001
 21
1.0
 31
0.0
 73
     1
 44
1.0
1001
ACAD
1000
MTEXTBEGIN
1070
    73
1070
     1
1070
    44
1040
1.0
1070
    74
1070
     0
1000
MTEXTEND
  0
POINT
  5
915
330
88B
100
AcDbEntity
  8
Defpoints
 62
     0
100
AcDbPoint
 10
22.3622353068356
 20
28.76695783032611
 30
0.0
  0
POINT
  5
916
330
88B
100
AcDbEntity
  8
Defpoints
 62
     0
100
AcDbPoint
 10
22.3622353068356
 20
30.23695783032611
 30
0.0
  0
POINT
  5
917
330
88B
100
AcDbEntity
  8
Defpoints
 62
     0
100
AcDbPoint
 10
21.11473530683568
 20
14.73695783032612
 30
0.0
  0
ENDBLK
  5
892
330
88B
100
AcDbEntity
  8
0
100
AcDbBlockEnd
  0
BLOCK
  5
899
330
893
100
AcDbEntity
  8
0
100
AcDbBlockBegin
  2
*D76
 70
     1
 10
0.0
 20
0.0
 30
0.0
  3
*D76
  1

  0
LINE
  5
918
330
893
100
AcDbEntity
  8
0
 62
     0
370
    -2
100
AcDbLine
 10
27.70473530683566
 20
20.3994578303261
 30
0.0
 11
27.70473530683566
 21
21.3994578303261
 31
0.0
  0
MTEXT
  5
919
330
893
100
AcDbEntity
  8
0
 62
     0
100
AcDbMText
 10
27.70473530683565
 20
22.14917449699278
 30
0.0
 40
0.3442
 41
0.0
 71
     5
 72
     1
  1
\A1;6.590
 11
0.0000000000000001
 21
1.0
 31
0.0
 73
     1
 44
1.0
1001
ACAD
1000
MTEXTBEGIN
1070
    73
1070
     1
1070
    44
1040
1.0
1070
    74
1070
     0
1000
MTEXTEND
  0
POINT
  5
91A
330
893
100
AcDbEntity
  8
Defpoints
 62
     0
100
AcDbPoint
 10
27.70473530683566
 20
20.1494578303261
 30
0.0
  0
POINT
  5
91B
330
893
100
AcDbEntity
  8
Defpoints
 62
     0
100
AcDbPoint
 10
27.70473530683566
 20
21.3994578303261
 30
0.0
  0
POINT
  5
91C
330
893
100
AcDbEntity
  8
Defpoints
 62
     0
100
AcDbPoint
 10
21.11473530683568
 20
14.73695783032612
 30
0.0
  0
ENDBLK
  5
89A
330
893
100
AcDbEntity
  8
0
100
AcDbBlockEnd
  0
BLOCK
  5
8A1
330
89B
100
AcDbEntity
  8
0
100
AcDbBlockBegin
  2
*D77
 70
     1
 10
0.0
 20
0.0
 30
0.0
  3
*D77
  1

  0
LINE
  5
91D
330
89B
100
AcDbEntity
  8
0
 62
     0
370
    -2
100
AcDbLine
 10
21.70473530683566
 20
20.3994578303261
 30
0.0
 11
21.70473530683566
 21
21.3994578303261
 31
0.0
  0
MTEXT
  5
91E
330
89B
100
AcDbEntity
  8
0
 62
     0
100
AcDbMText
 10
21.70473530683565
 20
22.12049116365944
 30
0.0
 40
0.3442
 41
0.0
 71
     5
 72
     1
  1
\A1;0.590
 11
0.0000000000000001
 21
1.0
 31
0.0
 73
     1
 44
1.0
1001
ACAD
1000
MTEXTBEGIN
1070
    73
1070
     1
1070
    44
1040
1.0
1070
    74
1070
     0
1000
MTEXTEND
  0
POINT
  5
91F
330
89B
100
AcDbEntity
  8
Defpoints
 62
     0
100
AcDbPoint
 10
21.70473530683566
 20
20.1494578303261
 30
0.0
  0
POINT
  5
920
330
89B
100
AcDbEntity
  8
Defpoints
 62
     0
100
AcDbPoint
 10
21.70473530683566
 20
21.3994578303261
 30
0.0
  0
POINT
  5
921
330
89B
100
AcDbEntity
  8
Defpoints
 62
     0
100
AcDbPoint
 10
21.11473530683568
 20
14.73695783032612
 30
0.0
  0
ENDBLK
  5
8A2
330
89B
100
AcDbEntity
  8
0
100
AcDbBlockEnd
  0
BLOCK
  5
8A9
330
8A3
100
AcDbEntity
  8
0
100
AcDbBlockBegin
  2
*D78
 70
     1
 10
0.0
 20
0.0
 30
0.0
  3
*D78
  1

  0
LINE
  5
922
330
8A3
100
AcDbEntity
  8
0
 62
     0
370
    -2
100
AcDbLine
 10
27.29473530683569
 20
15.48695783032611
 30
0.0
 11
27.29473530683569
 21
13.73695783032611
 31
0.0
  0
MTEXT
  5
923
330
8A3
100
AcDbEntity
  8
0
 62
     0
100
AcDbMText
 10
27.29473530683569
 20
12.47094116365945
 30
0.0
 40
0.3442
 41
0.0
 71
     5
 72
     1
  1
\A1;(2) 6.180
 11
0.0000000000000001
 21
1.0
 31
0.0
 73
     1
 44
1.0
1001
ACAD
1000
MTEXTBEGIN
1070
    73
1070
     1
1070
    44
1040
1.0
1070
    74
1070
     0
1000
MTEXTEND
  0
POINT
  5
924
330
8A3
100
AcDbEntity
  8
Defpoints
 62
     0
100
AcDbPoint
 10
27.29473530683569
 20
15.73695783032611
 30
0.0
  0
POINT
  5
925
330
8A3
100
AcDbEntity
  8
Defpoints
 62
     0
100
AcDbPoint
 10
27.29473530683569
 20
13.73695783032611
 30
0.0
  0
POINT
  5
926
330
8A3
100
AcDbEntity
  8
Defpoints
 62
     0
100
AcDbPoint
 10
21.11473530683568
 20
14.73695783032612
 30
0.0
  0
ENDBLK
  5
8AA
330
8A3
100
AcDbEntity
  8
0
100
AcDbBlockEnd
  0
BLOCK
  5
8B1
330
8AB
100
AcDbEntity
  8
0
100
AcDbBlockBegin
  2
*D79
 70
     1
 10
0.0
 20
0.0
 30
0.0
  3
*D79
  1

  0
LINE
  5
927
330
8AB
100
AcDbEntity
  8
0
 62
     0
370
    -2
100
AcDbLine
 10
22.11473530683562
 20
15.48695783032611
 30
0.0
 11
22.11473530683562
 21
13.73695783032611
 31
0.0
  0
MTEXT
  5
928
330
8AB
100
AcDbEntity
  8
0
 62
     0
100
AcDbMText
 10
22.11473530683562
 20
12.52830783032611
 30
0.0
 40
0.3442
 41
0.0
 71
     5
 72
     1
  1
\A1;(2) 1.000
 11
0.0000000000000001
 21
1.0
 31
0.0
 73
     1
 44
1.0
1001
ACAD
1000
MTEXTBEGIN
1070
    73
1070
     1
1070
    44
1040
1.0
1070
    74
1070
     0
1000
MTEXTEND
  0
POINT
  5
929
330
8AB
100
AcDbEntity
  8
Defpoints
 62
     0
100
AcDbPoint
 10
22.11473530683562
 20
15.73695783032611
 30
0.0
  0
POINT
  5
92A
330
8AB
100
AcDbEntity
  8
Defpoints
 62
     0
100
AcDbPoint
 10
22.11473530683562
 20
13.73695783032611
 30
0.0
  0
POINT
  5
92B
330
8AB
100
AcDbEntity
  8
Defpoints
 62
     0
100
AcDbPoint
 10
21.11473530683568
 20
14.73695783032612
 30
0.0
  0
ENDBLK
  5
8B2
330
8AB
100
AcDbEntity
  8
0
100
AcDbBlockEnd
  0
BLOCK
  5
8B9
330
8B3
100
AcDbEntity
  8
0
100
AcDbBlockBegin
  2
*D80
 70
     1
 10
0.0
 20
0.0
 30
0.0
  3
*D80
  1

  0
LINE
  5
945
330
8B3
100
AcDbEntity
  8
0
 62
     0
370
    -2
100
AcDbLine
 10
21.45473530683566
 20
20.1494578303261
 30
0.0
 11
20.07523239138978
 21
20.1494578303261
 31
0.0
  0
MTEXT
  5
946
330
8B3
100
AcDbEntity
  8
0
 62
     0
100
AcDbMText
 10
19.35419905805644
 20
20.1494578303261
 30
0.0
 40
0.3442
 41
0.0
 71
     5
 72
     1
  1
\A1;5.412
 73
     1
 44
1.0
1001
ACAD
1000
MTEXTBEGIN
1070
    73
1070
     1
1070
    44
1040
1.0
1070
    74
1070
     0
1000
MTEXTEND
  0
POINT
  5
947
330
8B3
100
AcDbEntity
  8
Defpoints
 62
     0
100
AcDbPoint
 10
21.70473530683566
 20
20.1494578303261
 30
0.0
  0
POINT
  5
948
330
8B3
100
AcDbEntity
  8
Defpoints
 62
     0
100
AcDbPoint
 10
20.07523239138978
 20
20.1494578303261
 30
0.0
  0
POINT
  5
949
330
8B3
100
AcDbEntity
  8
Defpoints
 62
     0
100
AcDbPoint
 10
21.11473530683568
 20
14.73695783032612
 30
0.0
  0
ENDBLK
  5
8BA
330
8B3
100
AcDbEntity
  8
0
100
AcDbBlockEnd
  0
BLOCK
  5
8C1
330
8BB
100
AcDbEntity
  8
0
100
AcDbBlockBegin
  2
*D81
 70
     1
 10
0.0
 20
0.0
 30
0.0
  3
*D81
  1

  0
LINE
  5
931
330
8BB
100
AcDbEntity
  8
0
 62
     0
370
    -2
100
AcDbLine
 10
21.45473530683566
 20
17.39945783032611
 30
0.0
 11
20.07523239138978
 21
17.39945783032611
 31
0.0
  0
MTEXT
  5
932
330
8BB
100
AcDbEntity
  8
0
 62
     0
100
AcDbMText
 10
19.29683239138977
 20
17.39945783032611
 30
0.0
 40
0.3442
 41
0.0
 71
     5
 72
     1
  1
\A1;2.662
 73
     1
 44
1.0
1001
ACAD
1000
MTEXTBEGIN
1070
    73
1070
     1
1070
    44
1040
1.0
1070
    74
1070
     0
1000
MTEXTEND
  0
POINT
  5
933
330
8BB
100
AcDbEntity
  8
Defpoints
 62
     0
100
AcDbPoint
 10
21.70473530683566
 20
17.39945783032611
 30
0.0
  0
POINT
  5
934
330
8BB
100
AcDbEntity
  8
Defpoints
 62
     0
100
AcDbPoint
 10
20.07523239138978
 20
17.39945783032611
 30
0.0
  0
POINT
  5
935
330
8BB
100
AcDbEntity
  8
Defpoints
 62
     0
100
AcDbPoint
 10
21.11473530683568
 20
14.73695783032612
 30
0.0
  0
ENDBLK
  5
8C2
330
8BB
100
AcDbEntity
  8
0
100
AcDbBlockEnd
  0
BLOCK
  5
8C9
330
8C3
100
AcDbEntity
  8
0
100
AcDbBlockBegin
  2
*D82
 70
     1
 10
0.0
 20
0.0
 30
0.0
  3
*D82
  1

  0
LINE
  5
936
330
8C3
100
AcDbEntity
  8
0
 62
     0
370
    -2
100
AcDbLine
 10
27.54473530683569
 20
15.73695783032611
 30
0.0
 11
29.25523239138978
 21
15.73695783032611
 31
0.0
  0
MTEXT
  5
937
330
8C3
100
AcDbEntity
  8
0
 62
     0
100
AcDbMText
 10
29.89021572472312
 20
15.73695783032611
 30
0.0
 40
0.3442
 41
0.0
 71
     5
 72
     1
  1
\A1;1.000
 73
     1
 44
1.0
1001
ACAD
1000
MTEXTBEGIN
1070
    73
1070
     1
1070
    44
1040
1.0
1070
    74
1070
     0
1000
MTEXTEND
  0
POINT
  5
938
330
8C3
100
AcDbEntity
  8
Defpoints
 62
     0
100
AcDbPoint
 10
27.29473530683569
 20
15.73695783032611
 30
0.0
  0
POINT
  5
939
330
8C3
100
AcDbEntity
  8
Defpoints
 62
     0
100
AcDbPoint
 10
29.25523239138978
 20
15.73695783032611
 30
0.0
  0
POINT
  5
93A
330
8C3
100
AcDbEntity
  8
Defpoints
 62
     0
100
AcDbPoint
 10
21.11473530683568
 20
14.73695783032612
 30
0.0
  0
ENDBLK
  5
8CA
330
8C3
100
AcDbEntity
  8
0
100
AcDbBlockEnd
  0
BLOCK
  5
8D1
330
8CB
100
AcDbEntity
  8
0
100
AcDbBlockBegin
  2
*D83
 70
     1
 10
0.0
 20
0.0
 30
0.0
  3
*D83
  1

  0
LINE
  5
93B
330
8CB
100
AcDbEntity
  8
0
 62
     0
370
    -2
100
AcDbLine
 10
21.1147353068357
 20
14.4869578303261
 30
0.0
 11
21.1147353068357
 21
13.73695783032611
 31
0.0
  0
MTEXT
  5
93C
330
8CB
100
AcDbEntity
  8
0
 62
     0
100
AcDbMText
 10
21.1147353068357
 20
13.07329116365945
 30
0.0
 40
0.3442
 41
0.0
 71
     5
 72
     1
  1
\A1;0.000
 11
0.0000000000000001
 21
1.0
 31
0.0
 73
     1
 44
1.0
1001
ACAD
1000
MTEXTBEGIN
1070
    73
1070
     1
1070
    44
1040
1.0
1070
    74
1070
     0
1000
MTEXTEND
  0
POINT
  5
93D
330
8CB
100
AcDbEntity
  8
Defpoints
 62
     0
100
AcDbPoint
 10
21.1147353068357
 20
14.7369578303261
 30
0.0
  0
POINT
  5
93E
330
8CB
100
AcDbEntity
  8
Defpoints
 62
     0
100
AcDbPoint
 10
21.1147353068357
 20
13.73695783032611
 30
0.0
  0
POINT
  5
93F
330
8CB
100
AcDbEntity
  8
Defpoints
 62
     0
100
AcDbPoint
 10
21.11473530683568
 20
14.73695783032612
 30
0.0
  0
ENDBLK
  5
8D2
330
8CB
100
AcDbEntity
  8
0
100
AcDbBlockEnd
  0
BLOCK
  5
8D9
330
8D3
100
AcDbEntity
  8
0
100
AcDbBlockBegin
  2
*D84
 70
     1
 10
0.0
 20
0.0
 30
0.0
  3
*D84
  1

  0
LINE
  5
940
330
8D3
100
AcDbEntity
  8
0
 62
     0
370
    -2
100
AcDbLine
 10
20.8647353068357
 20
14.7369578303261
 30
0.0
 11
20.07523239138978
 21
14.73695783032611
 31
0.0
  0
MTEXT
  5
941
330
8D3
100
AcDbEntity
  8
0
 62
     0
100
AcDbMText
 10
19.41156572472311
 20
14.73695783032611
 30
0.0
 40
0.3442
 41
0.0
 71
     5
 72
     1
  1
\A1;0.000
 73
     1
 44
1.0
1001
ACAD
1000
MTEXTBEGIN
1070
    73
1070
     1
1070
    44
1040
1.0
1070
    74
1070
     0
1000
MTEXTEND
  0
POINT
  5
942
330
8D3
100
AcDbEntity
  8
Defpoints
 62
     0
100
AcDbPoint
 10
21.1147353068357
 20
14.7369578303261
 30
0.0
  0
POINT
  5
943
330
8D3
100
AcDbEntity
  8
Defpoints
 62
     0
100
AcDbPoint
 10
20.07523239138978
 20
14.73695783032611
 30
0.0
  0
POINT
  5
944
330
8D3
100
AcDbEntity
  8
Defpoints
 62
     0
100
AcDbPoint
 10
21.11473530683568
 20
14.73695783032612
 30
0.0
  0
ENDBLK
  5
8DA
330
8D3
100
AcDbEntity
  8
0
100
AcDbBlockEnd
  0
ENDSEC
  0
SECTION
  2
ENTITIES
  0
LWPOLYLINE
  5
1CB
330
1F
100
AcDbEntity
  8
BORDER
100
AcDbPolyline
 90
        4
 70
     1
 43
0.0
 10
13.91746510745289
 20
37.00383864165399
 10
35.80334240153842
 20
37.00383864165399
 10
35.80334240153842
 20
8.205587836436384
 10
13.91746510745289
 20
8.205587836436384
  0
LINE
  5
1CC
330
1F
100
AcDbEntity
  8
BORDER
100
AcDbLine
 10
30.0597018496803
 20
9.095401810475966
 30
0.0
 11
27.16254008260344
 21
9.095401810475966
 31
0.0
  0
LINE
  5
1CD
330
1F
100
AcDbEntity
  8
BORDER
100
AcDbLine
 10
30.0597018496803
 20
8.205587836436382
 30
0.0
 11
30.0597018496803
 21
8.997539733579866
 31
0.0
  0
LINE
  5
1CE
330
1F
100
AcDbEntity
  8
BORDER
100
AcDbLine
 10
30.0597018496803
 20
8.205587836436382
 30
0.0
 11
27.13518509094063
 21
8.205587836436382
 31
0.0
  0
TEXT
  5
1CF
330
1F
100
AcDbEntity
  8
TEXT
100
AcDbText
 10
27.27752364173801
 20
8.781552852540732
 30
0.0
 40
0.1439912540260879
  1
PROPRIETARY DRAWING
 72
     1
 11
28.59744347031048
 21
8.853548479553776
 31
0.0
100
AcDbText
 73
     2
  0
TEXT
  5
1D0
330
1F
100
AcDbEntity
  8
TEXT
100
AcDbText
 10
27.38551708225757
 20
8.637561598514645
 30
0.0
 40
0.071995627013044
  1
THIS DRAWING IS THE PROPERTY OF ICE
 72
     1
 11
28.59744347031048
 21
8.673559412021168
 31
0.0
100
AcDbText
 73
     2
  0
TEXT
  5
1D1
330
1F
100
AcDbEntity
  8
TEXT
100
AcDbText
 10
27.31952109082895
 20
8.529568157995081
 30
0.0
 40
0.071995627013044
  1
QUBE, INC. AND IS NOT TO BE DUPLICATED
 72
     1
 11
28.59744347031048
 21
8.565565971501603
 31
0.0
100
AcDbText
 73
     2
  0
TEXT
  5
1D2
330
1F
100
AcDbEntity
  8
TEXT
100
AcDbText
 10
27.37351781108873
 20
8.421574717475513
 30
0.0
 40
0.071995627013044
  1
OR ALTERED WITHOUT AUTHORIZATION OF
 72
     1
 11
28.59744347031048
 21
8.457572530982035
 31
0.0
100
AcDbText
 73
     2
  0
TEXT
  5
1D3
330
1F
100
AcDbEntity
  8
TEXT
100
AcDbText
 10
28.17146934381663
 20
8.313581276955945
 30
0.0
 40
0.071995627013044
  1
ICE QUBE, INC.
 72
     1
 11
28.59744347031048
 21
8.349579090462468
 31
0.0
100
AcDbText
 73
     2
  0
LINE
  5
1D4
330
1F
100
AcDbEntity
  8
DIMENSION
100
AcDbLine
 10
30.0597018496803
 20
9.095401810475966
 30
0.0
 11
30.0597018496803
 21
8.205587836436382
 31
0.0
  0
ARC
  5
1D5
330
1F
100
AcDbEntity
  8
TEXT
100
AcDbCircle
 10
32.66663627873349
 20
9.399220597404982
 30
0.0
 40
0.0088823218220013
100
AcDbArc
 50
177.2189023070876
 51
10.53261226457853
  0
ARC
  5
1D6
330
1F
100
AcDbEntity
  8
TEXT
100
AcDbCircle
 10
32.65145288432831
 20
9.489030826310932
 30
0.0
 40
0.0109614677516024
100
AcDbArc
 50
218.2556843178653
 51
317.6564247238853
  0
ARC
  5
1D7
330
1F
100
AcDbEntity
  8
TEXT
100
AcDbCircle
 10
32.66547279217697
 20
9.477315341745033
 30
0.0
 40
0.0073342265401297
100
AcDbArc
 50
48.87596376793599
 51
143.7953529790059
  0
ARC
  5
1D8
330
1F
100
AcDbEntity
  8
TEXT
100
AcDbCircle
 10
32.67574046443396
 20
9.484190598260774
 30
0.0
 40
0.0056090180611167
100
AcDbArc
 50
193.9319034609791
 51
333.0378283509304
  0
ARC
  5
1D9
330
1F
100
AcDbEntity
  8
TEXT
100
AcDbCircle
 10
32.69385300913442
 20
9.472941115222486
 30
0.0
 40
0.0130316102119255
100
AcDbArc
 50
222.9877626572325
 51
344.3358851615585
  0
ARC
  5
1DA
330
1F
100
AcDbEntity
  8
TEXT
100
AcDbCircle
 10
32.68036367229033
 20
9.461491548147623
 30
0.0
 40
0.0047148793824553
100
AcDbArc
 50
32.94435831946194
 51
185.0814072168599
  0
LINE
  5
1DB
330
1F
100
AcDbEntity
  8
TEXT
100
AcDbLine
 10
32.67536894250514
 20
9.400844242809617
 30
0.0
 11
32.67566732304564
 21
9.461073946228262
 31
0.0
  0
LINE
  5
1DC
330
1F
100
AcDbEntity
  8
TEXT
100
AcDbLine
 10
32.65567574272041
 20
9.458986779346394
 30
0.0
 11
32.65776441852001
 21
9.399651569911542
 31
0.0
  0
ARC
  5
1DD
330
1F
100
AcDbEntity
  8
TEXT
100
AcDbCircle
 10
32.65042873034543
 20
9.462374675991279
 30
0.0
 40
0.0062457171356948
100
AcDbArc
 50
327.1504341221702
 51
80.13862259361689
  0
LINE
  5
1DE
330
1F
100
AcDbEntity
  8
TEXT
100
AcDbLine
 10
32.63741401489648
 20
9.470679538968248
 30
0.0
 11
32.6514984031376
 21
9.468528112645355
 31
0.0
  0
ARC
  5
1DF
330
1F
100
AcDbEntity
  8
TEXT
100
AcDbCircle
 10
32.63569015597813
 20
9.467691039812439
 30
0.0
 40
0.0034500459090618
100
AcDbArc
 50
60.02231951668147
 51
227.1694577924201
  0
LINE
  5
1E0
330
1F
100
AcDbEntity
  8
TEXT
100
AcDbLine
 10
32.63459274403307
 20
9.434666672560584
 30
0.0
 11
32.63334470322475
 21
9.465160888007416
 31
0.0
  0
ARC
  5
1E1
330
1F
100
AcDbEntity
  8
TEXT
100
AcDbCircle
 10
32.62700235094965
 20
9.431385189733484
 30
0.0
 40
0.008269352858942
100
AcDbArc
 50
165.6416373020916
 51
23.37981978602059
  0
LINE
  5
1E2
330
1F
100
AcDbEntity
  8
TEXT
100
AcDbLine
 10
32.61488566524521
 20
9.467488160144407
 30
0.0
 11
32.61899130265393
 21
9.433435873011859
 31
0.0
  0
ARC
  5
1E3
330
1F
100
AcDbEntity
  8
TEXT
100
AcDbCircle
 10
32.60634216599058
 20
9.466367612972149
 30
0.0
 40
0.0086166702083732
100
AcDbArc
 50
7.472141028409409
 51
164.1640293291679
  0
LINE
  5
1E4
330
1F
100
AcDbEntity
  8
TEXT
100
AcDbLine
 10
32.59846309157771
 20
9.46256494057005
 30
0.0
 11
32.59805252543356
 21
9.468718966819569
 31
0.0
  0
ARC
  5
1E5
330
1F
100
AcDbEntity
  8
TEXT
100
AcDbCircle
 10
32.59237022643804
 20
9.463472456992695
 30
0.0
 40
0.0061600804919645
100
AcDbArc
 50
208.7068196476631
 51
351.5282258973499
  0
LINE
  5
1E6
330
1F
100
AcDbEntity
  8
TEXT
100
AcDbLine
 10
32.58327221634266
 20
9.469129238086818
 30
0.0
 11
32.5869672876072
 21
9.460513598486896
 31
0.0
  0
LINE
  5
1E7
330
1F
100
AcDbEntity
  8
TEXT
100
AcDbLine
 10
32.58655672146304
 20
9.435897479235805
 30
0.0
 11
32.58327221634266
 21
9.469129238086818
 31
0.0
  0
ARC
  5
1E8
330
1F
100
AcDbEntity
  8
TEXT
100
AcDbCircle
 10
32.57832848939402
 20
9.435508175073524
 30
0.0
 40
0.0082374365376723
100
AcDbArc
 50
185.8633287467241
 51
2.70882780951028
  0
LINE
  5
1E9
330
1F
100
AcDbEntity
  8
TEXT
100
AcDbLine
 10
32.56849189523537
 20
9.474872993069087
 30
0.0
 11
32.57013414779554
 21
9.434666672560584
 31
0.0
  0
ARC
  5
1EA
330
1F
100
AcDbEntity
  8
TEXT
100
AcDbCircle
 10
32.56191988637592
 20
9.475456580514006
 30
0.0
 40
0.0065978689555009
100
AcDbArc
 50
354.9255052590734
 51
174.3705062402905
  0
LINE
  5
1EB
330
1F
100
AcDbEntity
  8
TEXT
100
AcDbLine
 10
32.55535383870463
 20
9.461744398035619
 30
0.0
 11
32.55535383870463
 21
9.476103799744363
 31
0.0
  0
ARC
  5
1EC
330
1F
100
AcDbEntity
  8
TEXT
100
AcDbCircle
 10
32.55054535483851
 20
9.459913674757498
 30
0.0
 40
0.0051451982285976
100
AcDbArc
 50
168.6772178130462
 51
20.8432182574363
  0
LINE
  5
1ED
330
1F
100
AcDbEntity
  8
TEXT
100
AcDbLine
 10
32.54139464988565
 20
9.4822578331203
 30
0.0
 11
32.5455002993107
 21
9.460923862627659
 31
0.0
  0
LINE
  5
1EE
330
1F
100
AcDbEntity
  8
TEXT
100
AcDbLine
 10
32.52045587266528
 20
9.469539502227588
 30
0.0
 11
32.519634740377
 21
9.484719439344273
 31
0.0
  0
ARC
  5
1EF
330
1F
100
AcDbEntity
  8
TEXT
100
AcDbCircle
 10
32.51088129664724
 20
9.465833852418745
 30
0.0
 40
0.010266661893284
100
AcDbArc
 50
170.7272794785986
 51
21.15794103948683
  0
ARC
  5
1F0
330
1F
100
AcDbEntity
  8
TEXT
100
AcDbCircle
 10
32.46960934259397
 20
9.455430007026608
 30
0.0
 40
0.0084685511017121
100
AcDbArc
 50
167.7181143692787
 51
23.98551077365514
  0
ARC
  5
1F1
330
1F
100
AcDbEntity
  8
TEXT
100
AcDbCircle
 10
32.3568444219394
 20
9.484396592412311
 30
0.0
 40
0.0097683364786862
100
AcDbArc
 50
225.9317407159997
 51
327.321681293723
  0
ARC
  5
1F2
330
1F
100
AcDbEntity
  8
TEXT
100
AcDbCircle
 10
32.4954598171165
 20
10.08661525766509
 30
0.0
 40
0.0062230007908292
100
AcDbArc
 50
305.0065695458966
 51
188.3798152009863
  0
ARC
  5
1F3
330
1F
100
AcDbEntity
  8
TEXT
100
AcDbCircle
 10
32.4824535946235
 20
10.08508031542537
 30
0.0
 40
0.0068783917551291
100
AcDbArc
 50
183.0745908828774
 51
5.238726745824518
  0
ARC
  5
1F4
330
1F
100
AcDbEntity
  8
TEXT
100
AcDbCircle
 10
32.46927971044599
 20
10.08321639006234
 30
0.0
 40
0.0064802006361648
100
AcDbArc
 50
13.33841226381423
 51
197.9246330182951
  0
ARC
  5
1F5
330
1F
100
AcDbEntity
  8
TEXT
100
AcDbCircle
 10
32.459808442393
 20
10.08860399604319
 30
0.0
 40
0.008088311031239
100
AcDbArc
 50
191.7667831442131
 51
294.1224948725133
  0
ARC
  5
1F6
330
1F
100
AcDbEntity
  8
TEXT
100
AcDbCircle
 10
32.44436731794202
 20
10.07740541089201
 30
0.0
 40
0.0121564175439883
100
AcDbArc
 50
51.76909225769996
 51
154.0890012254433
  0
ARC
  5
1F7
330
1F
100
AcDbEntity
  8
TEXT
100
AcDbCircle
 10
32.42598440137446
 20
10.08567879466426
 30
0.0
 40
0.0080156237088035
100
AcDbArc
 50
179.7887253899368
 51
338.318548208448
  0
ARC
  5
1F8
330
1F
100
AcDbEntity
  8
TEXT
100
AcDbCircle
 10
32.41272987909442
 20
10.08759267625913
 30
0.0
 40
0.0055675226302596
100
AcDbArc
 50
340.2175703033614
 51
119.511112702139
  0
ARC
  5
1F9
330
1F
100
AcDbEntity
  8
TEXT
100
AcDbCircle
 10
32.40530624879474
 20
10.09102856274919
 30
0.0
 40
0.004888654969623
100
AcDbArc
 50
208.4553291170971
 51
16.75507449313882
  0
ARC
  5
1FA
330
1F
100
AcDbEntity
  8
TEXT
100
AcDbCircle
 10
32.39566529072595
 20
10.08798942640583
 30
0.0
 40
0.0053898518740112
100
AcDbArc
 50
7.567610287757044
 51
183.0538693842452
  0
ARC
  5
1FB
330
1F
100
AcDbEntity
  8
TEXT
100
AcDbCircle
 10
32.38353463023396
 20
10.08696710809289
 30
0.0
 40
0.0067883895264755
100
AcDbArc
 50
151.6108765070449
 51
6.217261201770576
  0
ARC
  5
1FC
330
1F
100
AcDbEntity
  8
TEXT
100
AcDbCircle
 10
32.37227620031153
 20
10.08988802758306
 30
0.0
 40
0.0052953075499502
100
AcDbArc
 50
3.320051391017444
 51
168.5145862198274
  0
ARC
  5
1FD
330
1F
100
AcDbEntity
  8
TEXT
100
AcDbCircle
 10
32.36058378701718
 20
10.08843566258474
 30
0.0
 40
0.0069695548051274
100
AcDbArc
 50
181.931421762249
 51
21.08009584438978
  0
ARC
  5
1FE
330
1F
100
AcDbEntity
  8
TEXT
100
AcDbCircle
 10
32.34571313488396
 20
10.08307963710853
 30
0.0
 40
0.0094189108603316
100
AcDbArc
 50
32.93635467158797
 51
189.5430854165199
  0
ARC
  5
1FF
330
1F
100
AcDbEntity
  8
TEXT
100
AcDbCircle
 10
32.97716328038614
 20
9.590120217200972
 30
0.0
 40
0.0639559258863555
100
AcDbArc
 50
312.2086974257854
 51
3.264333629957774
  0
ARC
  5
200
330
1F
100
AcDbEntity
  8
TEXT
100
AcDbCircle
 10
32.96727865857882
 20
9.608854546355674
 30
0.0
 40
0.0846372119198671
100
AcDbArc
 50
264.6664639047648
 51
308.6423664458132
  0
ARC
  5
201
330
1F
100
AcDbEntity
  8
TEXT
100
AcDbCircle
 10
32.95983420210728
 20
9.596391905296039
 30
0.0
 40
0.071809375850496
100
AcDbArc
 50
231.6935697703408
 51
269.6626044169122
  0
ARC
  5
202
330
1F
100
AcDbEntity
  8
TEXT
100
AcDbCircle
 10
32.97307413536476
 20
9.582923323945188
 30
0.0
 40
0.0409905600916759
100
AcDbArc
 50
343.5952529167626
 51
35.13836089167873
  0
ARC
  5
203
330
1F
100
AcDbEntity
  8
TEXT
100
AcDbCircle
 10
32.97568024540247
 20
9.594286084088642
 30
0.0
 40
0.0332455626004164
100
AcDbArc
 50
21.58325850317256
 51
95.38396011116695
  0
ARC
  5
204
330
1F
100
AcDbEntity
  8
TEXT
100
AcDbCircle
 10
32.96704973952711
 20
9.599370413710666
 30
0.0
 40
0.0285514939383258
100
AcDbArc
 50
78.87075864991584
 51
146.7670066549814
  0
ARC
  5
205
330
1F
100
AcDbEntity
  8
TEXT
100
AcDbCircle
 10
32.98836947464474
 20
9.593881612895595
 30
0.0
 40
0.0526460961695905
100
AcDbArc
 50
359.8698564192901
 51
62.37231490188333
  0
ARC
  5
206
330
1F
100
AcDbEntity
  8
TEXT
100
AcDbCircle
 10
32.9883139744582
 20
9.569139341899427
 30
0.0
 40
0.0754627727822422
100
AcDbArc
 50
71.07988584761956
 51
127.1124618564865
  0
LINE
  5
207
330
1F
100
AcDbEntity
  8
TEXT
100
AcDbLine
 10
32.9431678748407
 20
9.615017916553254
 30
0.0
 11
32.94355462437535
 21
9.548544956269523
 31
0.0
  0
LINE
  5
208
330
1F
100
AcDbEntity
  8
TEXT
100
AcDbLine
 10
32.89637121719998
 20
9.681490876837033
 30
0.0
 11
32.91261468563793
 21
9.680331463206066
 31
0.0
  0
LINE
  5
209
330
1F
100
AcDbEntity
  8
TEXT
100
AcDbLine
 10
32.89559771813076
 20
9.689993226835833
 30
0.0
 11
32.89637121719998
 21
9.681490876837033
 31
0.0
  0
ARC
  5
20A
330
1F
100
AcDbEntity
  8
TEXT
100
AcDbCircle
 10
32.88478681192592
 20
9.864730085875439
 30
0.0
 40
0.1750709730366319
100
AcDbArc
 50
273.5403564160214
 51
289.075801678542
  0
LINE
  5
20B
330
1F
100
AcDbEntity
  8
TEXT
100
AcDbLine
 10
32.94200329369856
 20
9.699272780767595
 30
0.0
 11
32.94278113732249
 21
9.629317334707046
 31
0.0
  0
LINE
  5
20C
330
1F
100
AcDbEntity
  8
TEXT
100
AcDbLine
 10
32.91261468563793
 20
9.680331463206066
 30
0.0
 11
32.91532193238038
 21
9.540042599144236
 31
0.0
  0
ARC
  5
20D
330
1F
100
AcDbEntity
  8
TEXT
100
AcDbCircle
 10
32.88649481428758
 20
9.444578615098702
 30
0.0
 40
0.0909217077219805
100
AcDbArc
 50
88.18956599987521
 51
113.1652090520224
  0
ARC
  5
20E
330
1F
100
AcDbEntity
  8
TEXT
100
AcDbCircle
 10
32.84628956526542
 20
9.529520829487882
 30
0.0
 40
0.004639238263868
100
AcDbArc
 50
201.700602772435
 51
343.0678677067636
  0
LINE
  5
20F
330
1F
100
AcDbEntity
  8
TEXT
100
AcDbLine
 10
32.84161458482024
 20
9.541647389066932
 30
0.0
 11
32.84197911593363
 21
9.527805440836027
 31
0.0
  0
ARC
  5
210
330
1F
100
AcDbEntity
  8
TEXT
100
AcDbCircle
 10
32.79764303199314
 20
9.588690056820725
 30
0.0
 40
0.0643934006511204
100
AcDbArc
 50
260.0995263030863
 51
313.0673878832467
  0
ARC
  5
211
330
1F
100
AcDbEntity
  8
TEXT
100
AcDbCircle
 10
32.78655596470658
 20
9.553310999872962
 30
0.0
 40
0.0280553952937099
100
AcDbArc
 50
180.7587023263156
 51
270.031539090741
  0
ARC
  5
212
330
1F
100
AcDbEntity
  8
TEXT
100
AcDbCircle
 10
32.83604056861948
 20
9.625432513113144
 30
0.0
 40
0.0056512879938172
100
AcDbArc
 50
337.1943218370273
 51
115.6412778855146
  0
LINE
  5
213
330
1F
100
AcDbEntity
  8
TEXT
100
AcDbLine
 10
32.84161458482024
 20
9.55366803075822
 30
0.0
 11
32.84125006572337
 21
9.623242034646354
 31
0.0
  0
LINE
  5
214
330
1F
100
AcDbEntity
  8
TEXT
100
AcDbLine
 10
32.82047217679016
 20
9.631255793398336
 30
0.0
 11
32.83359505654094
 21
9.630527267931851
 31
0.0
  0
LINE
  5
215
330
1F
100
AcDbEntity
  8
TEXT
100
AcDbLine
 10
32.82083669588705
 20
9.638176771077043
 30
0.0
 11
32.82047217679016
 21
9.631255793398336
 31
0.0
  0
LINE
  5
216
330
1F
100
AcDbEntity
  8
TEXT
100
AcDbLine
 10
32.74683824975691
 20
9.631984318864825
 30
0.0
 11
32.73918324057442
 21
9.633077099938068
 31
0.0
  0
LINE
  5
217
330
1F
100
AcDbEntity
  8
TEXT
100
AcDbLine
 10
32.73881872147754
 20
9.638176771077043
 30
0.0
 11
32.73918324057442
 21
9.633077099938068
 31
0.0
  0
ARC
  5
218
330
1F
100
AcDbEntity
  8
TEXT
100
AcDbCircle
 10
32.74924708641345
 20
9.623802396361039
 30
0.0
 40
0.0085291470790495
100
AcDbArc
 50
358.6825606331185
 51
106.404935772954
  0
LINE
  5
219
330
1F
100
AcDbEntity
  8
TEXT
100
AcDbLine
 10
32.8674958132085
 20
9.639998077616844
 30
0.0
 11
32.86822486341872
 21
9.557310643837746
 31
0.0
  0
LINE
  5
21A
330
1F
100
AcDbEntity
  8
TEXT
100
AcDbLine
 10
32.78547783879905
 20
9.639998077616844
 30
0.0
 11
32.78620688900927
 21
9.559860475843924
 31
0.0
  0
LINE
  5
21B
330
1F
100
AcDbEntity
  8
TEXT
100
AcDbLine
 10
32.75777397887706
 20
9.623606297379604
 30
0.0
 11
32.75850302908729
 21
9.552939505291735
 31
0.0
  0
LINE
  5
21C
330
1F
100
AcDbEntity
  8
TEXT
100
AcDbLine
 10
32.82083669588705
 20
9.638176771077043
 30
0.0
 11
32.8674958132085
 21
9.639998077616844
 31
0.0
  0
LINE
  5
21D
330
1F
100
AcDbEntity
  8
TEXT
100
AcDbLine
 10
32.73881872147754
 20
9.638176771077043
 30
0.0
 11
32.78547783879905
 21
9.639998077616844
 31
0.0
  0
LINE
  5
21E
330
1F
100
AcDbEntity
  8
TEXT
100
AcDbLine
 10
32.44444905668992
 20
9.751309062324923
 30
0.0
 11
32.44002832385487
 21
9.741369587022159
 31
0.0
  0
ARC
  5
21F
330
1F
100
AcDbEntity
  8
TEXT
100
AcDbCircle
 10
32.45080385563408
 20
9.751644843213686
 30
0.0
 40
0.0063636639152044
100
AcDbArc
 50
183.0246359049376
 51
356.9753640950624
  0
LINE
  5
220
330
1F
100
AcDbEntity
  8
TEXT
100
AcDbLine
 10
32.45936900897924
 20
9.768427044797258
 30
0.0
 11
32.45715865457814
 21
9.751309062324923
 31
0.0
  0
ARC
  5
221
330
1F
100
AcDbEntity
  8
TEXT
100
AcDbCircle
 10
32.46416326136697
 20
9.770452641657533
 30
0.0
 40
0.005204603596527
100
AcDbArc
 50
8.122642540875256
 51
202.9043136183461
  0
LINE
  5
222
330
1F
100
AcDbEntity
  8
TEXT
100
AcDbLine
 10
32.46489493103123
 20
9.738056430963382
 30
0.0
 11
32.46931565184976
 21
9.771188012930519
 31
0.0
  0
ARC
  5
223
330
1F
100
AcDbEntity
  8
TEXT
100
AcDbCircle
 10
32.47483744736627
 20
9.738480972170627
 30
0.0
 40
0.0099515760716454
100
AcDbArc
 50
182.4450201076249
 51
0.7349407504797699
  0
LINE
  5
224
330
1F
100
AcDbEntity
  8
TEXT
100
AcDbLine
 10
32.48478820475579
 20
9.765113888738481
 30
0.0
 11
32.48478820475579
 21
9.738608618888902
 31
0.0
  0
ARC
  5
225
330
1F
100
AcDbEntity
  8
TEXT
100
AcDbCircle
 10
32.49226863378457
 20
9.764998512513839
 30
0.0
 40
0.0074813187425369
100
AcDbArc
 50
179.1163546128549
 51
32.14670843865929
  0
LINE
  5
226
330
1F
100
AcDbEntity
  8
TEXT
100
AcDbLine
 10
32.49860297984464
 20
9.776157747018675
 30
0.0
 11
32.49860297984464
 21
9.768979239849166
 31
0.0
  0
ARC
  5
227
330
1F
100
AcDbEntity
  8
TEXT
100
AcDbCircle
 10
32.50636892416789
 20
9.774230388801392
 30
0.0
 40
0.0080015374104194
100
AcDbArc
 50
26.60941129939754
 51
166.0619000058106
  0
LINE
  5
228
330
1F
100
AcDbEntity
  8
TEXT
100
AcDbLine
 10
32.51462812135098
 20
9.761800732679724
 30
0.0
 11
32.51352294415035
 21
9.777814325048126
 31
0.0
  0
ARC
  5
229
330
1F
100
AcDbEntity
  8
TEXT
100
AcDbCircle
 10
32.5225138594625
 20
9.759745511910438
 30
0.0
 40
0.0081491593415915
100
AcDbArc
 50
165.3922446503685
 51
2.803879044206374
  0
LINE
  5
22A
330
1F
100
AcDbEntity
  8
TEXT
100
AcDbLine
 10
32.53120585145746
 20
9.781127488233343
 30
0.0
 11
32.53065326285724
 21
9.760144147523881
 31
0.0
  0
ARC
  5
22B
330
1F
100
AcDbEntity
  8
TEXT
100
AcDbCircle
 10
32.54897577663498
 20
9.694699458071733
 30
0.0
 40
0.0882359033412528
100
AcDbArc
 50
60.82353397560639
 51
101.6183182656855
  0
ARC
  5
22C
330
1F
100
AcDbEntity
  8
TEXT
100
AcDbCircle
 10
32.57530643700159
 20
9.759374601517867
 30
0.0
 40
0.020767245374123
100
AcDbArc
 50
335.4827230531638
 51
36.54383594003182
  0
ARC
  5
22D
330
1F
100
AcDbEntity
  8
TEXT
100
AcDbCircle
 10
32.59888198255631
 20
9.743971504566127
 30
0.0
 40
0.0082432158647587
100
AcDbArc
 50
124.5991194751616
 51
24.91162951380403
  0
ARC
  5
22E
330
1F
100
AcDbEntity
  8
TEXT
100
AcDbCircle
 10
32.60935085123602
 20
9.752052567146726
 30
0.0
 40
0.0054952060614365
100
AcDbArc
 50
15.46471151433632
 51
237.0036058083549
  0
ARC
  5
22F
330
1F
100
AcDbEntity
  8
TEXT
100
AcDbCircle
 10
32.59475650212373
 20
9.740439685617154
 30
0.0
 40
0.023804915238114
100
AcDbArc
 50
331.8837666959812
 51
33.32508059324594
  0
ARC
  5
230
330
1F
100
AcDbEntity
  8
TEXT
100
AcDbCircle
 10
32.6210018955429
 20
9.723292187162424
 30
0.0
 40
0.0079191731001476
100
AcDbArc
 50
131.5213803610224
 51
48.47861963898633
  0
ARC
  5
231
330
1F
100
AcDbEntity
  8
TEXT
100
AcDbCircle
 10
32.63007201314656
 20
9.730107225995292
 30
0.0
 40
0.003921865746672
100
AcDbArc
 50
3.193725348484568
 51
193.0548754998599
  0
ARC
  5
232
330
1F
100
AcDbEntity
  8
TEXT
100
AcDbCircle
 10
32.65809574967118
 20
9.719587442455695
 30
0.0
 40
0.0263913710936601
100
AcDbArc
 50
155.9906329013486
 51
206.805730457695
  0
ARC
  5
233
330
1F
100
AcDbEntity
  8
TEXT
100
AcDbCircle
 10
32.52691788999384
 20
9.658464106433005
 30
0.0
 40
0.1183443098246494
100
AcDbArc
 50
344.8914411173256
 51
24.57723374822083
  0
ARC
  5
234
330
1F
100
AcDbEntity
  8
TEXT
100
AcDbCircle
 10
32.60336721339478
 20
9.616288604493693
 30
0.0
 40
0.039465341685872
100
AcDbArc
 50
300.6537348898141
 51
16.6824591637588
  0
ARC
  5
235
330
1F
100
AcDbEntity
  8
TEXT
100
AcDbCircle
 10
32.56822944989711
 20
9.531917345617603
 30
0.0
 40
0.0151608262881662
100
AcDbArc
 50
244.0629515517945
 51
24.326120312643
  0
ARC
  5
236
330
1F
100
AcDbEntity
  8
TEXT
100
AcDbCircle
 10
32.54225767753672
 20
9.505395436604199
 30
0.0
 40
0.0232414801758489
100
AcDbArc
 50
33.67851647490054
 51
106.5775508010124
  0
ARC
  5
237
330
1F
100
AcDbEntity
  8
TEXT
100
AcDbCircle
 10
32.52751215029074
 20
9.532270944172559
 30
0.0
 40
0.0093276313750482
100
AcDbArc
 50
194.8546182240452
 51
330.451099434079
  0
ARC
  5
238
330
1F
100
AcDbEntity
  8
TEXT
100
AcDbCircle
 10
32.50801406988276
 20
9.541832806564576
 30
0.0
 40
0.0158982468981209
100
AcDbArc
 50
223.0305625061276
 51
311.2487591160724
  0
ARC
  5
239
330
1F
100
AcDbEntity
  8
TEXT
100
AcDbCircle
 10
32.4875649832788
 20
9.546882684917123
 30
0.0
 40
0.0181850036414607
100
AcDbArc
 50
214.7934494581965
 51
299.040950787611
  0
ARC
  5
23A
330
1F
100
AcDbEntity
  8
TEXT
100
AcDbCircle
 10
32.46722620839065
 20
9.536349487412818
 30
0.0
 40
0.0054072516304673
100
AcDbArc
 50
1.65827202806849
 51
160.4091839300748
  0
ARC
  5
23B
330
1F
100
AcDbEntity
  8
TEXT
100
AcDbCircle
 10
32.45782552660654
 20
9.537498770994744
 30
0.0
 40
0.0043573040229911
100
AcDbArc
 50
156.0593073728624
 51
8.762281217119962
  0
ARC
  5
23C
330
1F
100
AcDbEntity
  8
TEXT
100
AcDbCircle
 10
32.42250566741012
 20
9.528934128190737
 30
0.0
 40
0.0329969893037705
100
AcDbArc
 50
18.24878221232236
 51
92.19784172829085
  0
ARC
  5
23D
330
1F
100
AcDbEntity
  8
TEXT
100
AcDbCircle
 10
32.40438903221582
 20
9.566288089331477
 30
0.0
 40
0.0174114356259555
100
AcDbArc
 50
345.4259909574664
 51
72.46181126870012
  0
ARC
  5
23E
330
1F
100
AcDbEntity
  8
TEXT
100
AcDbCircle
 10
32.37260636010047
 20
9.591449168465546
 30
0.0
 40
0.0380057513037344
100
AcDbArc
 50
346.9852122362369
 51
34.01252680042893
  0
ARC
  5
23F
330
1F
100
AcDbEntity
  8
TEXT
100
AcDbCircle
 10
32.5630259063302
 20
9.650370720534503
 30
0.0
 40
0.1633178784265339
100
AcDbArc
 50
153.5374647244112
 51
193.3327646348701
  0
ARC
  5
240
330
1F
100
AcDbEntity
  8
TEXT
100
AcDbCircle
 10
32.42509970139732
 20
9.727369699550679
 30
0.0
 40
0.0092946763146444
100
AcDbArc
 50
103.7022990326946
 51
207.0193065629252
  0
ARC
  5
241
330
1F
100
AcDbEntity
  8
TEXT
100
AcDbCircle
 10
32.43043327592447
 20
9.742434663745136
 30
0.0
 40
0.0096539801746963
100
AcDbArc
 50
218.6904014524231
 51
353.6659411500759
  0
ARC
  5
242
330
1F
100
AcDbEntity
  8
TEXT
100
AcDbCircle
 10
32.44952390108618
 20
9.728046858832735
 30
0.0
 40
0.0518875786219161
100
AcDbArc
 50
120.6947626763568
 51
155.9971516553446
  0
LINE
  5
243
330
1F
100
AcDbEntity
  8
TEXT
100
AcDbLine
 10
32.40249674789619
 20
9.777143246110805
 30
0.0
 11
32.40212328855839
 21
9.749153794831126
 31
0.0
  0
LINE
  5
244
330
1F
100
AcDbEntity
  8
TEXT
100
AcDbLine
 10
32.42378406233105
 20
9.783487520783973
 30
0.0
 11
32.42303714365556
 21
9.772664932480706
 31
0.0
  0
ARC
  5
245
330
1F
100
AcDbEntity
  8
TEXT
100
AcDbCircle
 10
32.41423334854593
 20
9.776648166673
 30
0.0
 40
0.0117470378590304
100
AcDbArc
 50
35.60679995345934
 51
177.5845513854531
  0
ARC
  5
246
330
1F
100
AcDbEntity
  8
TEXT
100
AcDbCircle
 10
32.45098439400992
 20
9.812963348603998
 30
0.0
 40
0.0081683448405352
100
AcDbArc
 50
318.2823815987277
 51
84.36248438139953
  0
ARC
  5
247
330
1F
100
AcDbEntity
  8
TEXT
100
AcDbCircle
 10
32.46962920316195
 20
9.785828797638831
 30
0.0
 40
0.0250655979175474
100
AcDbArc
 50
81.18509483549694
 51
120.0392913824104
  0
ARC
  5
248
330
1F
100
AcDbEntity
  8
TEXT
100
AcDbCircle
 10
32.48170822924723
 20
9.764920437544523
 30
0.0
 40
0.0464147959140925
100
AcDbArc
 50
70.05468846035579
 51
100.2232656721042
  0
ARC
  5
249
330
1F
100
AcDbEntity
  8
TEXT
100
AcDbCircle
 10
32.502918959252
 20
9.806945598855095
 30
0.0
 40
0.0056121548373925
100
AcDbArc
 50
163.375655046466
 51
16.62434495353045
  0
ARC
  5
24A
330
1F
100
AcDbEntity
  8
TEXT
100
AcDbCircle
 10
32.51800021771702
 20
9.797241041611632
 30
0.0
 40
0.0149023974869778
100
AcDbArc
 50
46.43616582623992
 51
130.6283095026662
  0
ARC
  5
24B
330
1F
100
AcDbEntity
  8
TEXT
100
AcDbCircle
 10
32.53322205734881
 20
9.808347546027807
 30
0.0
 40
0.0049612464682247
100
AcDbArc
 50
183.5606974541693
 51
344.4298925613464
  0
ARC
  5
24C
330
1F
100
AcDbEntity
  8
TEXT
100
AcDbCircle
 10
32.54696386721715
 20
9.803594640560207
 30
0.0
 40
0.0095934064476276
100
AcDbArc
 50
20.89289471578032
 51
159.1071052842194
  0
ARC
  5
24D
330
1F
100
AcDbEntity
  8
TEXT
100
AcDbCircle
 10
32.56210469435622
 20
9.796953042241932
 30
0.0
 40
0.0118080686994655
100
AcDbArc
 50
24.75773987532587
 51
121.5483884163393
  0
ARC
  5
24E
330
1F
100
AcDbEntity
  8
TEXT
100
AcDbCircle
 10
32.58097928837577
 20
9.79767578372029
 30
0.0
 40
0.0091804215546634
100
AcDbArc
 50
47.61705801860736
 51
152.6179806586004
  0
ARC
  5
24F
330
1F
100
AcDbEntity
  8
TEXT
100
AcDbCircle
 10
32.59268758475613
 20
9.799244221197646
 30
0.0
 40
0.0075922528004813
100
AcDbArc
 50
136.6395135700791
 51
16.38775991618527
  0
ARC
  5
250
330
1F
100
AcDbEntity
  8
TEXT
100
AcDbCircle
 10
32.60180562625341
 20
9.778687630165043
 30
0.0
 40
0.0227726322810891
100
AcDbArc
 50
41.27304036069129
 51
94.61991284103847
  0
ARC
  5
251
330
1F
100
AcDbEntity
  8
TEXT
100
AcDbCircle
 10
32.62809072570111
 20
9.792777843571926
 30
0.0
 40
0.0092169798392477
100
AcDbArc
 50
174.1982733486934
 51
308.0634596483615
  0
ARC
  5
252
330
1F
100
AcDbEntity
  8
TEXT
100
AcDbCircle
 10
32.64052172863582
 20
9.781697917114303
 30
0.0
 40
0.0077561318536137
100
AcDbArc
 50
296.7794474250819
 51
150.4674482996606
  0
ARC
  5
253
330
1F
100
AcDbEntity
  8
TEXT
100
AcDbCircle
 10
32.64683313548735
 20
9.718909728705224
 30
0.0
 40
0.0559348923755989
100
AcDbArc
 50
78.6467194011529
 51
92.8865786316482
  0
ARC
  5
254
330
1F
100
AcDbEntity
  8
TEXT
100
AcDbCircle
 10
32.63956564432661
 20
9.751315777778057
 30
0.0
 40
0.0289380351332378
100
AcDbArc
 50
356.7791343814141
 51
50.82801334298971
  0
ARC
  5
255
330
1F
100
AcDbEntity
  8
TEXT
100
AcDbCircle
 10
32.67462970234304
 20
9.730208104735243
 30
0.0
 40
0.0204360051614917
100
AcDbArc
 50
51.01090143870948
 51
107.577946053111
  0
ARC
  5
256
330
1F
100
AcDbEntity
  8
TEXT
100
AcDbCircle
 10
32.5852993244739
 20
9.658447831187224
 30
0.0
 40
0.1346253053831234
100
AcDbArc
 50
317.9732863042375
 51
40.61894937560249
  0
ARC
  5
257
330
1F
100
AcDbEntity
  8
TEXT
100
AcDbCircle
 10
32.81635179414261
 20
9.540961324333038
 30
0.0
 40
0.1333149421547866
100
AcDbArc
 50
179.4662202071271
 51
190.5890997840383
  0
ARC
  5
258
330
1F
100
AcDbEntity
  8
TEXT
100
AcDbCircle
 10
32.67400879143408
 20
9.511108942021325
 30
0.0
 40
0.0125026745237082
100
AcDbArc
 50
282.9712622283036
 51
25.35441378639511
  0
ARC
  5
259
330
1F
100
AcDbEntity
  8
TEXT
100
AcDbCircle
 10
32.69229624731632
 20
9.513433457581919
 30
0.0
 40
0.0212167466474904
100
AcDbArc
 50
169.468486757319
 51
223.1418439421427
  0
ARC
  5
25A
330
1F
100
AcDbEntity
  8
TEXT
100
AcDbCircle
 10
32.6443208217686
 20
9.528625887163018
 30
0.0
 40
0.0293819711749308
100
AcDbArc
 50
337.3510782224613
 51
22.64892177753829
  0
ARC
  5
25B
330
1F
100
AcDbEntity
  8
TEXT
100
AcDbCircle
 10
32.56803288092349
 20
9.616798418602575
 30
0.0
 40
0.1156528301604903
100
AcDbArc
 50
311.6071689301104
 51
318.3515702307968
  0
ARC
  5
25C
330
1F
100
AcDbEntity
  8
TEXT
100
AcDbCircle
 10
32.64476554271084
 20
9.526481791291546
 30
0.0
 40
0.0038417881779584
100
AcDbArc
 50
89.05883162362073
 51
223.9137905963005
  0
ARC
  5
25D
330
1F
100
AcDbEntity
  8
TEXT
100
AcDbCircle
 10
32.61172618581947
 20
9.519444065674491
 30
0.0
 40
0.0305860421363687
100
AcDbArc
 50
322.6907301981532
 51
8.220255073940956
  0
ARC
  5
25E
330
1F
100
AcDbEntity
  8
TEXT
100
AcDbCircle
 10
32.64087529880285
 20
9.494983355314911
 30
0.0
 40
0.0076366866670949
100
AcDbArc
 50
129.1527393458021
 51
254.8870408388504
  0
ARC
  5
25F
330
1F
100
AcDbEntity
  8
TEXT
100
AcDbCircle
 10
32.64056516586459
 20
9.484706160590587
 30
0.0
 40
0.0033559505890674
100
AcDbArc
 50
312.7998628402736
 51
120.0581864533373
  0
ARC
  5
260
330
1F
100
AcDbEntity
  8
TEXT
100
AcDbCircle
 10
32.69928987598934
 20
9.457729010304909
 30
0.0
 40
0.0302687434911625
100
AcDbArc
 50
99.17143729878524
 51
127.7955283290937
  0
ARC
  5
261
330
1F
100
AcDbEntity
  8
TEXT
100
AcDbCircle
 10
32.6932575160939
 20
9.47380807500539
 30
0.0
 40
0.0138554663165673
100
AcDbArc
 50
341.5477100758356
 51
84.99888070834156
  0
ARC
  5
262
330
1F
100
AcDbEntity
  8
TEXT
100
AcDbCircle
 10
32.62976620151223
 20
9.509290026980126
 30
0.0
 40
0.0224411109328791
100
AcDbArc
 50
156.2885975497952
 51
210.2571046136444
  0
ARC
  5
263
330
1F
100
AcDbEntity
  8
TEXT
100
AcDbCircle
 10
32.61378752081719
 20
9.516668060630133
 30
0.0
 40
0.0048555864643655
100
AcDbArc
 50
31.23099864076716
 51
160.1819529381846
  0
LINE
  5
264
330
1F
100
AcDbEntity
  8
TEXT
100
AcDbLine
 10
32.61764878849336
 20
9.497111007024491
 30
0.0
 11
32.61793945447108
 21
9.519185632247168
 31
0.0
  0
ARC
  5
265
330
1F
100
AcDbEntity
  8
TEXT
100
AcDbCircle
 10
32.61377802851221
 20
9.495566494544334
 30
0.0
 40
0.0041675294399618
100
AcDbArc
 50
144.5711585108374
 51
21.75301147887026
  0
ARC
  5
266
330
1F
100
AcDbEntity
  8
TEXT
100
AcDbCircle
 10
32.53504948058809
 20
9.486476653800595
 30
0.0
 40
0.0076196864336421
100
AcDbArc
 50
177.787775166229
 51
326.3805826419355
  0
ARC
  5
267
330
1F
100
AcDbEntity
  8
TEXT
100
AcDbCircle
 10
32.5231575000361
 20
9.487181052694664
 30
0.0
 40
0.0042976011800634
100
AcDbArc
 50
354.5219056877808
 51
214.9448543763828
  0
LINE
  5
268
330
1F
100
AcDbEntity
  8
TEXT
100
AcDbLine
 10
32.49992766158912
 20
9.492924814803402
 30
0.0
 11
32.50074879387745
 21
9.467488160144407
 31
0.0
  0
ARC
  5
269
330
1F
100
AcDbEntity
  8
TEXT
100
AcDbCircle
 10
32.48302351404948
 20
9.500290202843007
 30
0.0
 40
0.0046072945756543
100
AcDbArc
 50
5.351678383090947
 51
195.2435488026394
  0
LINE
  5
26A
330
1F
100
AcDbEntity
  8
TEXT
100
AcDbLine
 10
32.47734661979225
 20
9.458872520544485
 30
0.0
 11
32.47857831822465
 21
9.49907884105297
 31
0.0
  0
LINE
  5
26B
330
1F
100
AcDbEntity
  8
TEXT
100
AcDbLine
 10
32.45763954100439
 20
9.508104751920141
 30
0.0
 11
32.46133461226886
 21
9.457231449728514
 31
0.0
  0
ARC
  5
26C
330
1F
100
AcDbEntity
  8
TEXT
100
AcDbCircle
 10
32.44894438911983
 20
9.506943492720679
 30
0.0
 40
0.0087723536878285
100
AcDbArc
 50
7.606980527162162
 51
103.0413594591621
  0
ARC
  5
26D
330
1F
100
AcDbEntity
  8
TEXT
100
AcDbCircle
 10
32.44326979204938
 20
9.507495483186721
 30
0.0
 40
0.0088067733803194
100
AcDbArc
 50
65.19241843010743
 51
139.050810698879
  0
LINE
  5
26E
330
1F
100
AcDbEntity
  8
TEXT
100
AcDbLine
 10
32.43661811462141
 20
9.502177554299475
 30
0.0
 11
32.43661811462141
 21
9.513267349848895
 31
0.0
  0
ARC
  5
26F
330
1F
100
AcDbEntity
  8
TEXT
100
AcDbCircle
 10
32.43168798527289
 20
9.500851922216314
 30
0.0
 40
0.0051052400348263
100
AcDbArc
 50
168.3169857564316
 51
15.04995211451593
  0
LINE
  5
270
330
1F
100
AcDbEntity
  8
TEXT
100
AcDbLine
 10
32.42522828374845
 20
9.515310204298259
 30
0.0
 11
32.42668851108099
 21
9.501885717949603
 31
0.0
  0
ARC
  5
271
330
1F
100
AcDbEntity
  8
TEXT
100
AcDbCircle
 10
32.42321684330212
 20
9.517080342943224
 30
0.0
 40
0.002679418498761
100
AcDbArc
 50
318.6510821797593
 51
186.6644145786489
  0
LINE
  5
272
330
1F
100
AcDbEntity
  8
TEXT
100
AcDbLine
 10
32.41938733836885
 20
9.506555099548103
 30
0.0
 11
32.42055552984805
 21
9.516769386047824
 31
0.0
  0
ARC
  5
273
330
1F
100
AcDbEntity
  8
TEXT
100
AcDbCircle
 10
32.41217431078219
 20
9.504647098240894
 30
0.0
 40
0.0074611149270424
100
AcDbArc
 50
172.0457056516397
 51
14.81661014794206
  0
LINE
  5
274
330
1F
100
AcDbEntity
  8
TEXT
100
AcDbLine
 10
32.40303270572574
 20
9.530193879522956
 30
0.0
 11
32.40478498092811
 21
9.505679590498383
 31
0.0
  0
ARC
  5
275
330
1F
100
AcDbEntity
  8
TEXT
100
AcDbCircle
 10
32.40495963565128
 20
9.548053790173623
 30
0.0
 40
0.0179635594297832
100
AcDbArc
 50
209.3802246625984
 51
263.8421008682747
  0
ARC
  5
276
330
1F
100
AcDbEntity
  8
TEXT
100
AcDbCircle
 10
32.38246518548005
 20
9.537061478355832
 30
0.0
 40
0.0071800400492724
100
AcDbArc
 50
17.66955929970854
 51
146.8111142491862
  0
ARC
  5
277
330
1F
100
AcDbEntity
  8
TEXT
100
AcDbCircle
 10
32.37362614741725
 20
9.539126989139452
 30
0.0
 40
0.0033894123865897
100
AcDbArc
 50
192.9866902548923
 51
33.38063139741035
  0
LINE
  5
278
330
1F
100
AcDbEntity
  8
TEXT
100
AcDbLine
 10
32.37032342842298
 20
9.548871427296504
 30
0.0
 11
32.37032342842298
 21
9.538365304446877
 31
0.0
  0
ARC
  5
279
330
1F
100
AcDbEntity
  8
TEXT
100
AcDbCircle
 10
32.36808863494175
 20
9.549976518320207
 30
0.0
 40
0.0024930960820185
100
AcDbArc
 50
333.6879001367226
 51
192.072245755338
  0
LINE
  5
27A
330
1F
100
AcDbEntity
  8
TEXT
100
AcDbLine
 10
32.36565067452252
 20
9.549455099996304
 30
0.0
 11
32.36506657878293
 21
9.479122454150852
 31
0.0
  0
ARC
  5
27B
330
1F
100
AcDbEntity
  8
TEXT
100
AcDbCircle
 10
33.80569996324432
 20
9.521858470121342
 30
0.0
 40
1.45632900583859
100
AcDbArc
 50
178.0464319449979
 51
181.7502526685598
  0
ARC
  5
27C
330
1F
100
AcDbEntity
  8
TEXT
100
AcDbCircle
 10
32.33448960894302
 20
9.567239391261132
 30
0.0
 40
0.0162957506332572
100
AcDbArc
 50
15.17145974978874
 51
87.54918714297627
  0
ARC
  5
27D
330
1F
100
AcDbEntity
  8
TEXT
100
AcDbCircle
 10
32.68431911315027
 20
9.656419243379732
 30
0.0
 40
0.3566621462042507
100
AcDbArc
 50
175.4121316267021
 51
191.7939289657055
  0
ARC
  5
27E
330
1F
100
AcDbEntity
  8
TEXT
100
AcDbCircle
 10
32.41289881394653
 20
9.683976670384423
 30
0.0
 40
0.0841046512764477
100
AcDbArc
 50
117.322218089242
 51
179.3383492613259
  0
ARC
  5
27F
330
1F
100
AcDbEntity
  8
TEXT
100
AcDbCircle
 10
32.36703363813353
 20
9.766489304168707
 30
0.0
 40
0.0106502222250049
100
AcDbArc
 50
312.9867785858861
 51
66.99118422926638
  0
ARC
  5
280
330
1F
100
AcDbEntity
  8
TEXT
100
AcDbCircle
 10
32.36591574323266
 20
9.779065634486999
 30
0.0
 40
0.0059647540504544
100
AcDbArc
 50
332.2921775479047
 51
119.5678571759903
  0
ARC
  5
281
330
1F
100
AcDbEntity
  8
TEXT
100
AcDbCircle
 10
32.36846514559128
 20
9.775199165175902
 30
0.0
 40
0.0105902359568728
100
AcDbArc
 50
121.2424246402128
 51
213.473239708375
  0
ARC
  5
282
330
1F
100
AcDbEntity
  8
TEXT
100
AcDbCircle
 10
32.3572339613809
 20
9.767202040896792
 30
0.0
 40
0.0032243384785175
100
AcDbArc
 50
201.5154657473976
 51
41.96660508022721
  0
ARC
  5
283
330
1F
100
AcDbEntity
  8
TEXT
100
AcDbCircle
 10
32.35731612920803
 20
9.777629026898098
 30
0.0
 40
0.0120116037344174
100
AcDbArc
 50
160.2627782819637
 51
255.1333022011724
  0
ARC
  5
284
330
1F
100
AcDbEntity
  8
TEXT
100
AcDbCircle
 10
32.34334576859823
 20
9.783937132741025
 30
0.0
 40
0.0034884558213629
100
AcDbArc
 50
124.2167745950174
 51
319.7988197133694
  0
ARC
  5
285
330
1F
100
AcDbEntity
  8
TEXT
100
AcDbCircle
 10
32.33587719209513
 20
9.787135235065104
 30
0.0
 40
0.0055158418608249
100
AcDbArc
 50
356.7423630506751
 51
136.5172760690068
  0
ARC
  5
286
330
1F
100
AcDbEntity
  8
TEXT
100
AcDbCircle
 10
32.33335278765713
 20
9.798173367287812
 30
0.0
 40
0.0073917140674745
100
AcDbArc
 50
116.3151684036785
 51
258.4674100382152
  0
ARC
  5
287
330
1F
100
AcDbEntity
  8
TEXT
100
AcDbCircle
 10
32.33400577105691
 20
9.801039108833306
 30
0.0
 40
0.005438804330597
100
AcDbArc
 50
348.1206509806774
 51
136.2651890953773
  0
ARC
  5
288
330
1F
100
AcDbEntity
  8
TEXT
100
AcDbCircle
 10
32.34285306823653
 20
9.798550290035963
 30
0.0
 40
0.0037815662133579
100
AcDbArc
 50
158.7719549350954
 51
25.46716058584097
  0
ARC
  5
289
330
1F
100
AcDbEntity
  8
TEXT
100
AcDbCircle
 10
32.35642764366684
 20
9.799322779142158
 30
0.0
 40
0.0101962468342554
100
AcDbArc
 50
32.48569494743576
 51
175.1979664789355
  0
ARC
  5
28A
330
1F
100
AcDbEntity
  8
TEXT
100
AcDbCircle
 10
32.36923682542825
 20
9.802918763777457
 30
0.0
 40
0.0046093466676787
100
AcDbArc
 50
155.9249042338181
 51
10.66497725508796
  0
ARC
  5
28B
330
1F
100
AcDbEntity
  8
TEXT
100
AcDbCircle
 10
32.38875419597571
 20
9.806694378904822
 30
0.0
 40
0.0152699376544324
100
AcDbArc
 50
109.4580308571273
 51
191.0341765877007
  0
LINE
  5
28C
330
1F
100
AcDbEntity
  8
TEXT
100
AcDbLine
 10
33.08687935838273
 20
9.597898260049767
 30
0.0
 11
33.18271607034994
 21
9.597898260049767
 31
0.0
  0
ARC
  5
28D
330
1F
100
AcDbEntity
  8
TEXT
100
AcDbCircle
 10
33.13918315817581
 20
9.599922571137872
 30
0.0
 40
0.0435799527046947
100
AcDbArc
 50
357.337623744369
 51
85.63084243886233
  0
ARC
  5
28E
330
1F
100
AcDbEntity
  8
TEXT
100
AcDbCircle
 10
33.12559776232276
 20
9.562762011217747
 30
0.0
 40
0.0823673987739953
100
AcDbArc
 50
78.15621523985548
 51
106.6122408520358
  0
LINE
  5
28F
330
1F
100
AcDbEntity
  8
TEXT
100
AcDbLine
 10
33.08687935838273
 20
9.608245016630242
 30
0.0
 11
33.14972705426331
 21
9.608245016630242
 31
0.0
  0
ARC
  5
290
330
1F
100
AcDbEntity
  8
TEXT
100
AcDbCircle
 10
33.11750022267001
 20
9.602264415648956
 30
0.0
 40
0.0311994377801564
100
AcDbArc
 50
103.9179608005984
 51
168.9486088950471
  0
ARC
  5
291
330
1F
100
AcDbEntity
  8
TEXT
100
AcDbCircle
 10
33.12467881753025
 20
9.609036179215717
 30
0.0
 40
0.0250607282749532
100
AcDbArc
 50
358.1908821763629
 51
69.74957583402936
  0
ARC
  5
292
330
1F
100
AcDbEntity
  8
TEXT
100
AcDbCircle
 10
33.12167434321776
 20
9.537437382869036
 30
0.0
 40
0.0958248136702463
100
AcDbArc
 50
82.99970676551479
 51
97.00029323448521
  0
ARC
  5
293
330
1F
100
AcDbEntity
  8
TEXT
100
AcDbCircle
 10
33.12098289260724
 20
9.585241988698099
 30
0.0
 40
0.0595400977291648
100
AcDbArc
 50
108.54166133208
 51
149.7652339536173
  0
ARC
  5
294
330
1F
100
AcDbEntity
  8
TEXT
100
AcDbCircle
 10
33.12136395966907
 20
9.583428239020225
 30
0.0
 40
0.0607981848192704
100
AcDbArc
 50
148.4692011102835
 51
195.5802361373379
  0
ARC
  5
295
330
1F
100
AcDbEntity
  8
TEXT
100
AcDbCircle
 10
33.12023929205948
 20
9.581616754158286
 30
0.0
 40
0.0592458724165616
100
AcDbArc
 50
194.1847393568155
 51
248.6586767321129
  0
ARC
  5
296
330
1F
100
AcDbEntity
  8
TEXT
100
AcDbCircle
 10
33.1445748758978
 20
9.597189282707608
 30
0.0
 40
0.0576998733985072
100
AcDbArc
 50
179.2959701761241
 51
227.5915484940841
  0
ARC
  5
297
330
1F
100
AcDbEntity
  8
TEXT
100
AcDbCircle
 10
33.13199158542091
 20
9.586918160578603
 30
0.0
 40
0.0416968831835802
100
AcDbArc
 50
230.841648863773
 51
280.5326941523482
  0
ARC
  5
298
330
1F
100
AcDbEntity
  8
TEXT
100
AcDbCircle
 10
33.13744094578122
 20
9.598216076004982
 30
0.0
 40
0.0523373547601109
100
AcDbArc
 50
272.3792098458871
 51
327.3581874363218
  0
ARC
  5
299
330
1F
100
AcDbEntity
  8
TEXT
100
AcDbCircle
 10
33.12196843644268
 20
9.609206156145232
 30
0.0
 40
0.0859869303945008
100
AcDbArc
 50
254.2847830849396
 51
294.1819270465994
  0
ARC
  5
29A
330
1F
100
AcDbEntity
  8
TEXT
100
AcDbCircle
 10
33.12894851068798
 20
9.58785173189994
 30
0.0
 40
0.0636915668079766
100
AcDbArc
 50
296.3233923707218
 51
339.8348331475782
  0
ARC
  5
29B
330
1F
100
AcDbEntity
  8
TEXT
100
AcDbCircle
 10
33.18442710311265
 20
9.566710033316995
 30
0.0
 40
0.0043851721065334
100
AcDbArc
 50
349.2952029716974
 51
131.662690546936
  0
ARC
  5
29C
330
1F
100
AcDbEntity
  8
TEXT
100
AcDbCircle
 10
32.49130733057125
 20
10.04680048182146
 30
0.0
 40
0.0088188971074227
100
AcDbArc
 50
146.5485285753441
 51
33.45147142465568
  0
ARC
  5
29D
330
1F
100
AcDbEntity
  8
TEXT
100
AcDbCircle
 10
32.47719577289343
 20
10.0624494092499
 30
0.0
 40
0.0068386081883164
100
AcDbArc
 50
2.749965920202109
 51
141.7961814814361
  0
LINE
  5
29E
330
1F
100
AcDbEntity
  8
TEXT
100
AcDbLine
 10
32.49902976820004
 20
10.08151808314352
 30
0.0
 11
32.49866540386809
 21
10.05166172688303
 31
0.0
  0
LINE
  5
29F
330
1F
100
AcDbEntity
  8
TEXT
100
AcDbLine
 10
32.48402650584322
 20
10.06277750880952
 30
0.0
 11
32.48394925727431
 21
10.05166172688303
 31
0.0
  0
LINE
  5
2A0
330
1F
100
AcDbEntity
  8
TEXT
100
AcDbLine
 10
32.47182188736901
 20
10.066678820122
 30
0.0
 11
32.45178680748458
 21
10.05600114159726
 31
0.0
  0
LINE
  5
2A1
330
1F
100
AcDbEntity
  8
TEXT
100
AcDbLine
 10
32.36363245118595
 20
10.066678820122
 30
0.0
 11
32.38366753107051
 21
10.05600114159726
 31
0.0
  0
ARC
  5
2A2
330
1F
100
AcDbEntity
  8
TEXT
100
AcDbCircle
 10
32.35825856566167
 20
10.0624494092499
 30
0.0
 40
0.0068386081883164
100
AcDbArc
 50
38.20381851856382
 51
177.2500340797979
  0
LINE
  5
2A3
330
1F
100
AcDbEntity
  8
TEXT
100
AcDbLine
 10
32.45178680748458
 20
10.05600114159726
 30
0.0
 11
32.45178680748458
 21
9.821092185547259
 31
0.0
  0
LINE
  5
2A4
330
1F
100
AcDbEntity
  8
TEXT
100
AcDbLine
 10
32.38366753107051
 20
10.05600114159726
 30
0.0
 11
32.38366753107051
 21
9.821092185547259
 31
0.0
  0
ARC
  5
2A5
330
1F
100
AcDbEntity
  8
TEXT
100
AcDbCircle
 10
32.34533275737931
 20
9.927587459620587
 30
0.0
 40
0.0070375079934786
100
AcDbArc
 50
177.899482485688
 51
2.100517514311817
  0
LINE
  5
2A6
330
1F
100
AcDbEntity
  8
TEXT
100
AcDbLine
 10
32.35142783271172
 20
10.06277750880952
 30
0.0
 11
32.3523655366091
 21
9.927845403535902
 31
0.0
  0
LINE
  5
2A7
330
1F
100
AcDbEntity
  8
TEXT
100
AcDbLine
 10
32.33642457035491
 20
10.08151808314352
 30
0.0
 11
32.33829997814952
 21
9.927845403535902
 31
0.0
  0
ARC
  5
2A8
330
1F
100
AcDbEntity
  8
TEXT
100
AcDbCircle
 10
32.60691349214307
 20
9.876058790828686
 30
0.0
 40
0.0057394593022108
100
AcDbArc
 50
3.288025410275718
 51
105.9275278804377
  0
ARC
  5
2A9
330
1F
100
AcDbEntity
  8
TEXT
100
AcDbCircle
 10
32.56223942439444
 20
9.910040370459688
 30
0.0
 40
0.0516491892493032
100
AcDbArc
 50
282.1628426667851
 51
326.5593609179302
  0
ARC
  5
2AA
330
1F
100
AcDbEntity
  8
TEXT
100
AcDbCircle
 10
32.56186010575614
 20
9.899738593607898
 30
0.0
 40
0.0417360192684685
100
AcDbArc
 50
213.1462108998122
 51
285.6537258536394
  0
ARC
  5
2AB
330
1F
100
AcDbEntity
  8
TEXT
100
AcDbCircle
 10
32.57364898859421
 20
9.906269346043146
 30
0.0
 40
0.0551861233176884
100
AcDbArc
 50
167.0430028911411
 51
212.1309371309446
  0
ARC
  5
2AC
330
1F
100
AcDbEntity
  8
TEXT
100
AcDbCircle
 10
32.56715300229837
 20
9.901517119821104
 30
0.0
 40
0.0502909002223341
100
AcDbArc
 50
117.3722826858102
 51
160.0902491401813
  0
ARC
  5
2AD
330
1F
100
AcDbEntity
  8
TEXT
100
AcDbCircle
 10
32.54481930633728
 20
9.913509487873877
 30
0.0
 40
0.0773183552826438
100
AcDbArc
 50
310.2152586008202
 51
331.3072507285896
  0
ARC
  5
2AE
330
1F
100
AcDbEntity
  8
TEXT
100
AcDbCircle
 10
32.55220071072591
 20
9.894951777931504
 30
0.0
 40
0.0587251766853522
100
AcDbArc
 50
251.6347706403311
 51
316.4182924463649
  0
ARC
  5
2AF
330
1F
100
AcDbEntity
  8
TEXT
100
AcDbCircle
 10
32.54351096454097
 20
9.892738607905966
 30
0.0
 40
0.0544131408877494
100
AcDbArc
 50
194.9511061487671
 51
259.6103135862126
  0
ARC
  5
2B0
330
1F
100
AcDbEntity
  8
TEXT
100
AcDbCircle
 10
32.54922433315631
 20
9.894570483173877
 30
0.0
 40
0.0604064295654313
100
AcDbArc
 50
135.7093780000637
 51
195.2317137751528
  0
ARC
  5
2B1
330
1F
100
AcDbEntity
  8
TEXT
100
AcDbCircle
 10
32.54972327043799
 20
9.903188956440819
 30
0.0
 40
0.0551319103724884
100
AcDbArc
 50
97.06566064011505
 51
142.4986334312248
  0
ARC
  5
2B2
330
1F
100
AcDbEntity
  8
TEXT
100
AcDbCircle
 10
32.5561273723136
 20
9.768911725309139
 30
0.0
 40
0.1776778786864348
100
AcDbArc
 50
86.31431733544657
 51
93.90381943516564
  0
ARC
  5
2B3
330
1F
100
AcDbEntity
  8
TEXT
100
AcDbCircle
 10
32.55236533397023
 20
9.930511457823168
 30
0.0
 40
0.0218487837635582
100
AcDbArc
 50
16.716844407307
 51
45.97719400399777
  0
ARC
  5
2B4
330
1F
100
AcDbEntity
  8
TEXT
100
AcDbCircle
 10
32.59457165820761
 20
9.936800052531578
 30
0.0
 40
0.0212809147493023
100
AcDbArc
 50
180.010674400693
 51
201.825185271803
  0
ARC
  5
2B5
330
1F
100
AcDbEntity
  8
TEXT
100
AcDbCircle
 10
32.59086768960083
 20
9.936419721701852
 30
0.0
 40
0.0177306324841077
100
AcDbArc
 50
205.1359642898991
 51
307.6679722285764
  0
ARC
  5
2B6
330
1F
100
AcDbEntity
  8
TEXT
100
AcDbCircle
 10
32.58737376409132
 20
9.933923655888293
 30
0.0
 40
0.0183973271812597
100
AcDbArc
 50
321.1558234807585
 51
36.94217904229974
  0
ARC
  5
2B7
330
1F
100
AcDbEntity
  8
TEXT
100
AcDbCircle
 10
32.57118496690394
 20
9.916003252259935
 30
0.0
 40
0.0423561985978261
100
AcDbArc
 50
43.16761867319049
 51
81.57335966331341
  0
ARC
  5
2B8
330
1F
100
AcDbEntity
  8
TEXT
100
AcDbCircle
 10
32.56016682298336
 20
9.774955947969159
 30
0.0
 40
0.1837553585290462
100
AcDbArc
 50
84.62122141578795
 51
95.37877858421206
  0
ARC
  5
2B9
330
1F
100
AcDbEntity
  8
TEXT
100
AcDbCircle
 10
32.74614276340685
 20
9.880163531397776
 30
0.0
 40
0.0043851721065334
100
AcDbArc
 50
349.2952029716974
 51
131.662690546936
  0
ARC
  5
2BA
330
1F
100
AcDbEntity
  8
TEXT
100
AcDbCircle
 10
32.69066417098218
 20
9.901305229980863
 30
0.0
 40
0.0636915668079766
100
AcDbArc
 50
296.3233923707218
 51
339.8348331475782
  0
ARC
  5
2BB
330
1F
100
AcDbEntity
  8
TEXT
100
AcDbCircle
 10
32.68368409673685
 20
9.922659654226102
 30
0.0
 40
0.0859869303945008
100
AcDbArc
 50
254.2847830849396
 51
294.1819270465994
  0
ARC
  5
2BC
330
1F
100
AcDbEntity
  8
TEXT
100
AcDbCircle
 10
32.69915660607536
 20
9.911669574085847
 30
0.0
 40
0.0523373547601109
100
AcDbArc
 50
272.3792098458871
 51
327.3581874363218
  0
ARC
  5
2BD
330
1F
100
AcDbEntity
  8
TEXT
100
AcDbCircle
 10
32.69370724571508
 20
9.900371658659462
 30
0.0
 40
0.0416968831835802
100
AcDbArc
 50
230.841648863773
 51
280.5326941523482
  0
ARC
  5
2BE
330
1F
100
AcDbEntity
  8
TEXT
100
AcDbCircle
 10
32.70629053619196
 20
9.910642780788519
 30
0.0
 40
0.0576998733985072
100
AcDbArc
 50
179.2959701761241
 51
227.5915484940841
  0
ARC
  5
2BF
330
1F
100
AcDbEntity
  8
TEXT
100
AcDbCircle
 10
32.6819549523537
 20
9.895070252239207
 30
0.0
 40
0.0592458724165616
100
AcDbArc
 50
194.1847393568155
 51
248.6586767321129
  0
ARC
  5
2C0
330
1F
100
AcDbEntity
  8
TEXT
100
AcDbCircle
 10
32.68307961996329
 20
9.89688173710107
 30
0.0
 40
0.0607981848192704
100
AcDbArc
 50
148.4692011102835
 51
195.5802361373379
  0
ARC
  5
2C1
330
1F
100
AcDbEntity
  8
TEXT
100
AcDbCircle
 10
32.68269855290146
 20
9.898695486778999
 30
0.0
 40
0.0595400977291648
100
AcDbArc
 50
108.54166133208
 51
149.7652339536173
  0
ARC
  5
2C2
330
1F
100
AcDbEntity
  8
TEXT
100
AcDbCircle
 10
32.68339000351193
 20
9.850890880949966
 30
0.0
 40
0.0958248136702463
100
AcDbArc
 50
82.99970676551479
 51
97.00029323448521
  0
ARC
  5
2C3
330
1F
100
AcDbEntity
  8
TEXT
100
AcDbCircle
 10
32.68639447782446
 20
9.922489677296582
 30
0.0
 40
0.0250607282749532
100
AcDbArc
 50
358.1908821763629
 51
69.74957583402936
  0
ARC
  5
2C4
330
1F
100
AcDbEntity
  8
TEXT
100
AcDbCircle
 10
32.67921588296416
 20
9.915717913729835
 30
0.0
 40
0.0311994377801564
100
AcDbArc
 50
103.9179608005984
 51
168.9486088950471
  0
LINE
  5
2C5
330
1F
100
AcDbEntity
  8
TEXT
100
AcDbLine
 10
32.64859501867695
 20
9.921698514711122
 30
0.0
 11
32.71144271455748
 21
9.921698514711122
 31
0.0
  0
ARC
  5
2C6
330
1F
100
AcDbEntity
  8
TEXT
100
AcDbCircle
 10
32.68731342261691
 20
9.876215509298667
 30
0.0
 40
0.0823673987739953
100
AcDbArc
 50
78.15621523985548
 51
106.6122408520358
  0
ARC
  5
2C7
330
1F
100
AcDbEntity
  8
TEXT
100
AcDbCircle
 10
32.70089881847002
 20
9.913376069218774
 30
0.0
 40
0.0435799527046947
100
AcDbArc
 50
357.337623744369
 51
85.63084243886233
  0
LINE
  5
2C8
330
1F
100
AcDbEntity
  8
TEXT
100
AcDbLine
 10
32.64859501867695
 20
9.91135175813074
 30
0.0
 11
32.74443173064408
 21
9.91135175813074
 31
0.0
  0
ARC
  5
2C9
330
1F
100
AcDbEntity
  8
TEXT
100
AcDbCircle
 10
32.97510380058604
 20
9.573684281593427
 30
0.0
 40
0.0373653822482816
100
AcDbArc
 50
325.2939034707313
 51
356.4132772462207
  0
ARC
  5
2CA
330
1F
100
AcDbEntity
  8
TEXT
100
AcDbCircle
 10
32.97652118063265
 20
9.568491241328226
 30
0.0
 40
0.0334232241915759
100
AcDbArc
 50
261.8576121462839
 51
331.2394802847383
  0
ARC
  5
2CB
330
1F
100
AcDbEntity
  8
TEXT
100
AcDbCircle
 10
32.96519480557554
 20
9.558140705116679
 30
0.0
 40
0.0236722588342633
100
AcDbArc
 50
203.9135879631542
 51
286.1701931802543
  0
ARC
  5
2CC
330
1F
100
AcDbEntity
  8
TEXT
100
AcDbCircle
 10
32.87745188211704
 20
9.553201829475019
 30
0.0
 40
0.0101005063994468
100
AcDbArc
 50
155.9964711746264
 51
271.4218156194853
  0
LINE
  5
2CD
330
1F
100
AcDbEntity
  8
TEXT
100
AcDbLine
 10
32.89009632165904
 20
9.543832958339974
 30
0.0
 11
32.8777025041349
 21
9.543104432873489
 31
0.0
  0
LINE
  5
2CE
330
1F
100
AcDbEntity
  8
TEXT
100
AcDbLine
 10
32.8893672834652
 20
9.53545493685471
 30
0.0
 11
32.89009632165904
 21
9.543832958339974
 31
0.0
  0
ARC
  5
2CF
330
1F
100
AcDbEntity
  8
TEXT
100
AcDbCircle
 10
32.80955115772812
 20
9.586378832176748
 30
0.0
 40
0.0458045836826183
100
AcDbArc
 50
257.573093086619
 51
314.4273867462269
  0
ARC
  5
2D0
330
1F
100
AcDbEntity
  8
TEXT
100
AcDbCircle
 10
32.80984318646739
 20
9.563263465301409
 30
0.0
 40
0.023880010359667
100
AcDbArc
 50
188.1927496775747
 51
244.8496170020148
  0
ARC
  5
2D1
330
1F
100
AcDbEntity
  8
TEXT
100
AcDbCircle
 10
32.61451313172451
 20
9.575159475007973
 30
0.0
 40
0.0114930070384173
100
AcDbArc
 50
253.9290889125597
 51
38.65267477511383
  0
ARC
  5
2D2
330
1F
100
AcDbEntity
  8
TEXT
100
AcDbCircle
 10
32.65599146651144
 20
9.557700875322831
 30
0.0
 40
0.0311759646677962
100
AcDbArc
 50
330.1916644163827
 51
19.91318758188005
  0
ARC
  5
2D3
330
1F
100
AcDbEntity
  8
TEXT
100
AcDbCircle
 10
32.66294490961037
 20
9.519567222843972
 30
0.0
 40
0.0220721611071915
100
AcDbArc
 50
67.37252950712535
 51
112.6274704928676
  0
ARC
  5
2D4
330
1F
100
AcDbEntity
  8
TEXT
100
AcDbCircle
 10
32.56801995177593
 20
9.583490061339327
 30
0.0
 40
0.0474474912233602
100
AcDbArc
 50
287.1920036507392
 51
335.8997504051536
  0
LINE
  5
2D5
330
1F
100
AcDbEntity
  8
TEXT
100
AcDbLine
 10
32.4876107253303
 20
9.500719918995431
 30
0.0
 11
32.49992766158912
 21
9.492924814803402
 31
0.0
  0
LINE
  5
2D6
330
1F
100
AcDbEntity
  8
BORDER
100
AcDbLine
 10
32.07557940604554
 20
8.205587836436382
 30
0.0
 11
32.07557940604554
 21
10.10334058865859
 31
0.0
  0
LINE
  5
2D7
330
1F
100
AcDbEntity
  8
BORDER
100
AcDbLine
 10
30.0597018496803
 20
8.807419302423795
 30
0.0
 11
32.07557940604554
 21
8.807419302423795
 31
0.0
  0
LINE
  5
2D8
330
1F
100
AcDbEntity
  8
BORDER
100
AcDbLine
 10
30.0597018496803
 20
9.095401810475966
 30
0.0
 11
32.07557940604554
 21
9.095401810475966
 31
0.0
  0
TEXT
  5
2D9
330
1F
100
AcDbEntity
  8
TEXT
100
AcDbText
 10
31.38874112434111
 20
8.833049745640444
 30
0.0
 40
0.107993440519566
  1
NONE
 72
     1
 11
31.58672909862698
 21
8.887046465900226
 31
0.0
100
AcDbText
 73
     2
  0
TEXT
  5
2DA
330
1F
100
AcDbEntity
  8
TEXT
100
AcDbText
 10
31.13963625487596
 20
8.987408369956403
 30
0.0
 40
0.071995627013044
  1
SCALE
100
AcDbText
  0
TEXT
  5
2DB
330
1F
100
AcDbEntity
  8
TEXT
100
AcDbText
 10
30.10145931334788
 20
8.987408369956403
 30
0.0
 40
0.071995627013044
  1
DRAWN
100
AcDbText
  0
TEXT
  5
2DC
330
1F
100
AcDbEntity
  8
TEXT
100
AcDbText
 10
30.40456090307279
 20
8.833049745640444
 30
0.0
 40
0.107993440519566
  1
JMH
 72
     1
 11
30.54855215709888
 21
8.887046465900226
 31
0.0
100
AcDbText
 73
     2
  0
TEXT
  5
2DD
330
1F
100
AcDbEntity
  8
TEXT
100
AcDbText
 10
30.13169747669336
 20
8.699425861904224
 30
0.0
 40
0.071995627013044
  1
DATE
100
AcDbText
  0
TEXT
  5
2DE
330
1F
100
AcDbEntity
  8
TEXT
100
AcDbText
 10
30.57567050994046
 20
8.593752425378768
 30
0.0
 40
0.1439912540260879
  1
12-31-09
 72
     1
 11
31.06764062786292
 21
8.665748052391812
 31
0.0
100
AcDbText
 73
     2
  0
LINE
  5
2DF
330
1F
100
AcDbEntity
  8
BORDER
100
AcDbLine
 10
30.0597018496803
 20
8.519436794371616
 30
0.0
 11
32.07557940604554
 21
8.519436794371616
 31
0.0
  0
TEXT
  5
2E0
330
1F
100
AcDbEntity
  8
TEXT
100
AcDbText
 10
30.28308484568564
 20
8.291668178454242
 30
0.0
 40
0.1439912540260879
  1
SHEET 1 OF 1
 72
     1
 11
31.07503674282913
 21
8.363663805467286
 31
0.0
100
AcDbText
 73
     2
  0
LINE
  5
2E1
330
1F
100
AcDbEntity
  8
BORDER
100
AcDbLine
 10
35.01380858118042
 20
8.807419302423795
 30
0.0
 11
35.01380858118042
 21
8.205587836436382
 31
0.0
  0
LINE
  5
2E2
330
1F
100
AcDbEntity
  8
BORDER
100
AcDbLine
 10
32.07557940604554
 20
8.807419302423795
 30
0.0
 11
35.80334240153842
 21
8.807419302423795
 31
0.0
  0
LINE
  5
2E3
330
1F
100
AcDbEntity
  8
BORDER
100
AcDbLine
 10
32.07557940604554
 20
9.383384318528143
 30
0.0
 11
35.80334240153842
 21
9.383384318528143
 31
0.0
  0
LINE
  5
2E4
330
1F
100
AcDbEntity
  8
BORDER
100
AcDbLine
 10
32.07557940604554
 20
10.10334058865859
 30
0.0
 11
35.80334240153842
 21
10.10334058865859
 31
0.0
  0
TEXT
  5
2E5
330
1F
100
AcDbEntity
  8
TEXT
100
AcDbText
 10
34.02345580197385
 20
9.408582787982712
 30
0.0
 40
0.071995627013044
  1
FAX  724-837-3386
 72
     1
 11
34.62341936041588
 21
9.444580601489235
 31
0.0
100
AcDbText
 73
     2
  0
TEXT
  5
2E6
330
1F
100
AcDbEntity
  8
TEXT
100
AcDbText
 10
33.67547693807747
 20
9.977348241385756
 30
0.0
 40
0.071995627013044
  1
INDUSTRIAL COOLING EQUIPMENT
 72
     1
 11
34.62341936041588
 21
10.01334605489228
 31
0.0
100
AcDbText
 73
     2
  0
TEXT
  5
2E7
330
1F
100
AcDbEntity
  8
TEXT
100
AcDbText
 10
34.03545507314269
 20
9.840556550060934
 30
0.0
 40
0.071995627013044
  1
141 WILSON AVENUE
 72
     1
 11
34.62341936041588
 21
9.876554363567457
 31
0.0
100
AcDbText
 73
     2
  0
TEXT
  5
2E8
330
1F
100
AcDbEntity
  8
TEXT
100
AcDbText
 10
33.92746163262312
 20
9.69656529603489
 30
0.0
 40
0.071995627013044
  1
GREENSBURG, PA  15601
 72
     1
 11
34.62341936041588
 21
9.732563109541413
 31
0.0
100
AcDbText
 73
     2
  0
TEXT
  5
2E9
330
1F
100
AcDbEntity
  8
TEXT
100
AcDbText
 10
33.5374853196358
 20
9.552574042008757
 30
0.0
 40
0.071995627013044
  1
724-837-2204  *  1-888-867-8234
 72
     1
 11
34.62341936041588
 21
9.588571855515279
 31
0.0
100
AcDbText
 73
     2
  0
TEXT
  5
2EA
330
1F
100
AcDbEntity
  8
TEXT
100
AcDbText
 10
32.64337813707399
 20
8.893814054839406
 30
0.0
 40
0.2879825080521759
  1
IQ700HE-CF
 72
     1
 11
33.93929942330878
 21
9.037805308865495
 31
0.0
100
AcDbText
 73
     2
  0
TEXT
  5
2EB
330
1F
100
AcDbEntity
  8
TEXT
100
AcDbText
 10
32.53675521543033
 20
8.308515595144241
 30
0.0
 40
0.2879825080521759
  1
IQ291226
 72
     1
 11
33.54469399361295
 21
8.45250684917033
 31
0.0
100
AcDbText
 73
     2
  0
TEXT
  5
2EC
330
1F
100
AcDbEntity
  8
TEXT
100
AcDbText
 10
35.36057840668402
 20
8.308515595144241
 30
0.0
 40
0.2879825080521759
  1
1
 72
     1
 11
35.40857549135938
 21
8.45250684917033
 31
0.0
100
AcDbText
 73
     2
  0
LINE
  5
2ED
330
1F
100
AcDbEntity
  8
BORDER
100
AcDbLine
 10
27.16254008260344
 20
9.095401810475966
 30
0.0
 11
27.16254008260344
 21
8.205587836436382
 31
0.0
  0
TEXT
  5
2EE
330
1F
100
AcDbEntity
  8
TEXT
100
AcDbText
 10
16.35043732964711
 20
8.263184338046814
 30
0.0
 40
0.1151930032208704
  1
REVISIONS
 72
     1
 11
16.83040817640074
 21
8.320780839657249
 31
0.0
100
AcDbText
 73
     2
  0
LINE
  5
2EF
330
1F
100
AcDbEntity
  8
BORDER
100
AcDbLine
 10
21.40293833838271
 20
8.205587836436382
 30
0.0
 11
13.91746510745288
 21
8.205587836436382
 31
0.0
  0
LINE
  5
2F0
330
1F
100
AcDbEntity
  8
BORDER
100
AcDbLine
 10
21.40293833838271
 20
9.127131862203423
 30
0.0
 11
21.40293833838271
 21
8.205587836436382
 31
0.0
  0
LINE
  5
2F1
330
1F
100
AcDbEntity
  8
BORDER
100
AcDbLine
 10
13.91746510745288
 20
8.435973842878128
 30
0.0
 11
21.40293833838271
 21
8.435973842878128
 31
0.0
  0
LINE
  5
2F2
330
1F
100
AcDbEntity
  8
BORDER
100
AcDbLine
 10
19.23938185625714
 20
8.435973842878128
 30
0.0
 11
19.23938185625714
 21
8.666359849319865
 31
0.0
  0
TEXT
  5
2F3
330
1F
100
AcDbEntity
  8
TEXT
100
AcDbText
 10
19.53504389785738
 20
8.493570344488556
 30
0.0
 40
0.1151930032208704
  1
DATE
 72
     1
 11
19.74623107042898
 21
8.551166846098992
 31
0.0
100
AcDbText
 73
     2
  0
LINE
  5
2F4
330
1F
100
AcDbEntity
  8
BORDER
100
AcDbLine
 10
20.25308028460075
 20
8.435973842878128
 30
0.0
 11
20.25308028460075
 21
8.666359849319865
 31
0.0
  0
TEXT
  5
2F5
330
1F
100
AcDbEntity
  8
TEXT
100
AcDbText
 10
20.44403263408882
 20
8.493570344488556
 30
0.0
 40
0.1151930032208704
  1
CHECKED
 72
     1
 11
20.82800931149172
 21
8.551166846098992
 31
0.0
100
AcDbText
 73
     2
  0
TEXT
  5
2F6
330
1F
100
AcDbEntity
  8
TEXT
100
AcDbText
 10
16.25444316029639
 20
8.493570344488556
 30
0.0
 40
0.1151930032208704
  1
DESCRIPTION
 72
     1
 11
16.83040817640074
 21
8.551166846098992
 31
0.0
100
AcDbText
 73
     2
  0
LINE
  5
2F7
330
1F
100
AcDbEntity
  8
BORDER
100
AcDbLine
 10
14.42143449654424
 20
8.435973842878128
 30
0.0
 11
14.42143449654424
 21
8.666359849319865
 31
0.0
  0
TEXT
  5
2F8
330
1F
100
AcDbEntity
  8
TEXT
100
AcDbText
 10
13.99666029716723
 20
8.493570344488556
 30
0.0
 40
0.1151930032208704
  1
REV
 72
     1
 11
14.16944980199854
 21
8.551166846098992
 31
0.0
100
AcDbText
 73
     2
  0
LINE
  5
2F9
330
1F
100
AcDbEntity
  8
BORDER
100
AcDbLine
 10
21.40293833838271
 20
8.666359849319865
 30
0.0
 11
13.91746510745288
 21
8.666359849319865
 31
0.0
  0
LINE
  5
2FA
330
1F
100
AcDbEntity
  8
BORDER
100
AcDbLine
 10
21.40293833838271
 20
8.435973842878128
 30
0.0
 11
13.91746510745288
 21
8.435973842878128
 31
0.0
  0
LINE
  5
2FB
330
1F
100
AcDbEntity
  8
BORDER
100
AcDbLine
 10
19.23938185625714
 20
8.666359849319865
 30
0.0
 11
19.23938185625714
 21
9.127131862203423
 31
0.0
  0
TEXT
  5
2FC
330
1F
100
AcDbEntity
  8
TEXT
100
AcDbText
 10
19.35265497609101
 20
8.723956350930299
 30
0.0
 40
0.1151930032208704
  1
12-31-09
 72
     1
 11
19.74623107042898
 21
8.781552852540734
 31
0.0
100
AcDbText
 73
     2
  0
LINE
  5
2FD
330
1F
100
AcDbEntity
  8
BORDER
100
AcDbLine
 10
20.25308028460075
 20
8.666359849319865
 30
0.0
 11
20.25308028460075
 21
9.127131862203423
 31
0.0
  0
TEXT
  5
2FE
330
1F
100
AcDbEntity
  8
TEXT
100
AcDbText
 10
20.67441864053056
 20
8.723956350930299
 30
0.0
 40
0.1151930032208704
  1
JMH
 72
     1
 11
20.82800931149172
 21
8.781552852540734
 31
0.0
100
AcDbText
 73
     2
  0
TEXT
  5
2FF
330
1F
100
AcDbEntity
  8
TEXT
100
AcDbText
 10
16.04325598772479
 20
8.723956350930299
 30
0.0
 40
0.1151930032208704
  1
INITIAL RELEASE
 72
     1
 11
16.83040817640074
 21
8.781552852540734
 31
0.0
100
AcDbText
 73
     2
  0
LINE
  5
300
330
1F
100
AcDbEntity
  8
BORDER
100
AcDbLine
 10
14.42143449654424
 20
8.666359849319865
 30
0.0
 11
14.42143449654424
 21
9.127131862203423
 31
0.0
  0
TEXT
  5
301
330
1F
100
AcDbEntity
  8
TEXT
100
AcDbText
 10
14.14065155119332
 20
8.723956350930299
 30
0.0
 40
0.1151930032208704
  1
0
 72
     1
 11
14.16944980199854
 21
8.781552852540734
 31
0.0
100
AcDbText
 73
     2
  0
LINE
  5
302
330
1F
100
AcDbEntity
  8
BORDER
100
AcDbLine
 10
21.40293833838271
 20
8.896745855761645
 30
0.0
 11
13.91746510745288
 21
8.896745855761645
 31
0.0
  0
LINE
  5
303
330
1F
100
AcDbEntity
  8
BORDER
100
AcDbLine
 10
13.91746510745288
 20
8.205587836436382
 30
0.0
 11
13.91746510745288
 21
9.587903875086908
 31
0.0
  0
TEXT
  5
3FF
330
1F
100
AcDbEntity
  8
DIMENSION
100
AcDbText
 10
23.15070198805292
 20
33.22425525589159
 30
0.0
 40
0.3436352896613415
  1
IQ700HE-CF
 72
     1
 11
24.69706079152896
 21
33.22425525589159
 31
0.0
100
AcDbText
  0
TEXT
  5
400
330
1F
100
AcDbEntity
  8
DIMENSION
100
AcDbText
 10
22.17706866734578
 20
32.55569347556793
 30
0.0
 40
0.3436352896613415
  1
CUT OUT DRAWING
 72
     1
 11
24.69706079152896
 21
32.55569347556793
 31
0.0
100
AcDbText
  0
LINE
  5
80F
330
1F
100
AcDbEntity
  8
0
100
AcDbLine
 10
27.04723530683561
 20
25.17672088711251
 30
0.0
 11
27.04723530683561
 21
24.90195783032608
 31
0.0
  0
LINE
  5
810
330
1F
100
AcDbEntity
  8
0
100
AcDbLine
 10
22.3622353068356
 20
24.90195783032608
 30
0.0
 11
27.04723530683562
 21
24.90195783032611
 31
0.0
  0
LINE
  5
811
330
1F
100
AcDbEntity
  8
0
100
AcDbLine
 10
27.04723530683562
 20
28.76695783032611
 30
0.0
 11
27.04723530683562
 21
26.35546973706651
 31
0.0
  0
LINE
  5
812
330
1F
100
AcDbEntity
  8
0
100
AcDbLine
 10
22.3622353068356
 20
28.76695783032611
 30
0.0
 11
27.04723530683562
 21
28.76695783032611
 31
0.0
  0
LINE
  5
813
330
1F
100
AcDbEntity
  8
0
100
AcDbLine
 10
22.3622353068356
 20
28.76695783032611
 30
0.0
 11
22.36223530683561
 21
24.90195783032611
 31
0.0
  0
CIRCLE
  5
814
330
1F
100
AcDbEntity
  8
0
100
AcDbCircle
 10
27.29473530683569
 20
15.73695783032611
 30
0.0
 40
0.1875
  0
CIRCLE
  5
815
330
1F
100
AcDbEntity
  8
0
100
AcDbCircle
 10
22.11473530683562
 20
15.73695783032611
 30
0.0
 40
0.1875
  0
CIRCLE
  5
816
330
1F
100
AcDbEntity
  8
0
100
AcDbCircle
 10
27.29473530683569
 20
28.48695783032612
 30
0.0
 40
0.1875
  0
CIRCLE
  5
817
330
1F
100
AcDbEntity
  8
0
100
AcDbCircle
 10
22.11473530683562
 20
28.48695783032612
 30
0.0
 40
0.1875
  0
LINE
  5
818
330
1F
100
AcDbEntity
  8
0
100
AcDbLine
 10
21.70473530683566
 20
20.1494578303261
 30
0.0
 11
27.70473530683566
 21
20.1494578303261
 31
0.0
  0
LINE
  5
819
330
1F
100
AcDbEntity
  8
0
100
AcDbLine
 10
21.70473530683566
 20
17.39945783032611
 30
0.0
 11
27.70473530683566
 21
17.39945783032611
 31
0.0
  0
LINE
  5
81A
330
1F
100
AcDbEntity
  8
0
100
AcDbLine
 10
21.70473530683566
 20
20.1494578303261
 30
0.0
 11
21.70473530683566
 21
17.39945783032611
 31
0.0
  0
LINE
  5
81B
330
1F
100
AcDbEntity
  8
0
100
AcDbLine
 10
27.70473530683566
 20
20.1494578303261
 30
0.0
 11
27.70473530683566
 21
17.39945783032611
 31
0.0
  0
LINE
  5
81C
330
1F
100
AcDbEntity
  8
0
  6
HIDDEN
100
AcDbLine
 10
21.11473530683568
 20
14.73695783032612
 30
0.0
 11
21.11473530683563
 21
29.23695783032609
 31
-0.0000370842611946
  0
LINE
  5
81D
330
1F
100
AcDbEntity
  8
0
  6
HIDDEN
100
AcDbLine
 10
21.11473530683563
 20
29.23695783032609
 30
-0.0000370842611946
 11
28.29473530683563
 21
29.23695783032612
 31
-0.0000370842611946
  0
LINE
  5
81E
330
1F
100
AcDbEntity
  8
0
  6
HIDDEN
100
AcDbLine
 10
28.29473530683563
 20
29.23695783032612
 30
-0.0000370842611946
 11
28.29473530683569
 21
14.73695783032612
 31
0.0
  0
LINE
  5
81F
330
1F
100
AcDbEntity
  8
0
  6
HIDDEN
100
AcDbLine
 10
21.11473530683568
 20
14.73695783032612
 30
0.0
 11
28.29473530683569
 21
14.73695783032612
 31
0.0
  0
ARC
  5
820
330
1F
100
AcDbEntity
  8
0
100
AcDbCircle
 10
27.25523239138981
 20
25.76609531208951
 30
0.0
 40
0.6250000000000081
100
AcDbArc
 50
250.5614709381768
 51
109.4385290618225
  0
DIMENSION
  5
821
330
1F
100
AcDbEntity
  8
0
100
AcDbDimension
  2
*D65
 10
26.84125586514434
 20
26.2343350324441
 30
0.0
 11
30.4638823913898
 21
23.50393941353527
 31
0.0
 70
   163
 71
     5
 42
1.250000000000002
  3
Standard
100
AcDbDiametricDimension
 15
27.66920891763527
 25
25.29785559173493
 35
0.0
 40
0.0
1001
ACAD
1000
DSTYLE
1002
{
1070
    41
1040
0.3442
1070
    42
1040
0.25
1070
   140
1040
0.3442
1070
   271
1070
     3
1002
}
  0
DIMENSION
  5
822
330
1F
100
AcDbEntity
  8
0
100
AcDbDimension
  2
*D66
 10
21.11473530683568
 20
14.73695783032612
 30
0.0
 11
27.2552323913898
 21
23.12796602180178
 31
0.0
 70
   102
 71
     5
 42
6.140497084554112
  3
Standard
100
AcDbOrdinateDimension
 13
27.2552323913898
 23
25.7660953120895
 33
0.0
 14
27.2552323913898
 24
23.82031602180177
 34
0.0
1001
ACAD
1000
DSTYLE
1002
{
1070
    41
1040
0.3442
1070
    42
1040
0.25
1070
   140
1040
0.3442
1070
   271
1070
     3
1002
}
  0
DIMENSION
  5
823
330
1F
100
AcDbEntity
  8
0
100
AcDbDimension
  2
*D67
 10
27.15528599052329
 20
28.61229792040109
 30
0.0
 11
30.88441864016913
 21
26.91401962287157
 31
0.0
 70
   163
  1
<> (4)
 71
     5
 42
0.375
  3
Standard
100
AcDbDiametricDimension
 15
27.43418462314811
 25
28.36161774025116
 35
0.0
 40
0.0
1001
ACAD
1000
DSTYLE
1002
{
1070
    41
1040
0.3442
1070
    42
1040
0.25
1070
   140
1040
0.3442
1070
   271
1070
     3
1002
}
  0
DIMENSION
  5
824
330
1F
100
AcDbEntity
  8
0
100
AcDbDimension
  2
*D68
 10
21.11473530683568
 20
14.73695783032612
 30
0.0
 11
30.09099905805645
 21
29.23695783032612
 31
0.0
 70
    38
 71
     5
 42
14.5
  3
Standard
100
AcDbOrdinateDimension
 13
28.25523239138978
 23
29.23695783032612
 33
0.0
 14
29.25523239138978
 24
29.23695783032612
 34
0.0
1001
ACAD
1000
DSTYLE
1002
{
1070
    41
1040
0.3442
1070
    42
1040
0.25
1070
   140
1040
0.3442
1070
   271
1070
     3
1002
}
  0
DIMENSION
  5
825
330
1F
100
AcDbEntity
  8
0
100
AcDbDimension
  2
*D69
 10
21.11473530683568
 20
14.73695783032612
 30
0.0
 11
28.25523239138978
 21
30.92930783032614
 31
0.0
 70
   102
 71
     5
 42
7.140497084554097
  3
Standard
100
AcDbOrdinateDimension
 13
28.25523239138978
 23
29.23695783032613
 33
0.0
 14
28.25523239138978
 24
30.23695783032613
 34
0.0
1001
ACAD
1000
DSTYLE
1002
{
1070
    41
1040
0.3442
1070
    42
1040
0.25
1070
   140
1040
0.3442
1070
   271
1070
     3
1002
}
  0
DIMENSION
  5
826
330
1F
100
AcDbEntity
  8
0
100
AcDbDimension
  2
*D70
 10
21.11473530683568
 20
14.73695783032612
 30
0.0
 11
19.23946572472312
 21
28.76695783032611
 31
0.0
 70
    38
 71
     5
 42
14.02999999999998
  3
Standard
100
AcDbOrdinateDimension
 13
22.3622353068356
 23
28.76695783032611
 33
0.0
 14
20.07523239138979
 24
28.76695783032611
 34
0.0
1001
ACAD
1000
DSTYLE
1002
{
1070
    41
1040
0.3442
1070
    42
1040
0.25
1070
   140
1040
0.3442
1070
   271
1070
     3
1002
}
  0
DIMENSION
  5
827
330
1F
100
AcDbEntity
  8
0
100
AcDbDimension
  2
*D71
 10
21.11473530683568
 20
14.73695783032612
 30
0.0
 11
19.26814905805646
 21
24.90195783032611
 31
0.0
 70
    38
 71
     5
 42
10.16499999999998
  3
Standard
100
AcDbOrdinateDimension
 13
22.36223530683561
 23
24.90195783032611
 33
0.0
 14
20.07523239138979
 24
24.90195783032611
 34
0.0
1001
ACAD
1000
DSTYLE
1002
{
1070
    41
1040
0.3442
1070
    42
1040
0.25
1070
   140
1040
0.3442
1070
   271
1070
     3
1002
}
  0
DIMENSION
  5
828
330
1F
100
AcDbEntity
  8
0
100
AcDbDimension
  2
*D72
 10
21.11473530683568
 20
14.73695783032612
 30
0.0
 11
30.06231572472312
 21
25.7660953120895
 31
0.0
 70
    38
 71
     5
 42
11.02913748176338
  3
Standard
100
AcDbOrdinateDimension
 13
27.2552323913898
 23
25.7660953120895
 33
0.0
 14
29.25523239138978
 24
25.7660953120895
 34
0.0
1001
ACAD
1000
DSTYLE
1002
{
1070
    41
1040
0.3442
1070
    42
1040
0.25
1070
   140
1040
0.3442
1070
   271
1070
     3
1002
}
  0
DIMENSION
  5
829
330
1F
100
AcDbEntity
  8
0
100
AcDbDimension
  2
*D73
 10
21.11473530683568
 20
14.73695783032612
 30
0.0
 11
30.11968239138978
 21
28.48695783032611
 31
0.0
 70
    38
 71
     5
 42
13.75
  3
Standard
100
AcDbOrdinateDimension
 13
27.29473530683569
 23
28.48695783032612
 33
0.0
 14
29.25523239138978
 24
28.48695783032611
 34
0.0
1001
ACAD
1000
DSTYLE
1002
{
1070
    41
1040
0.3442
1070
    42
1040
0.25
1070
   140
1040
0.3442
1070
   271
1070
     3
1002
}
  0
DIMENSION
  5
82A
330
1F
100
AcDbEntity
  8
0
100
AcDbDimension
  2
*D74
 10
21.11473530683568
 20
14.73695783032612
 30
0.0
 11
27.04723530683562
 21
31.01535783032614
 31
0.0
 70
   102
 71
     5
 42
5.93249999999994
  3
Standard
100
AcDbOrdinateDimension
 13
27.04723530683562
 23
28.76695783032611
 33
0.0
 14
27.04723530683562
 24
30.23695783032613
 34
0.0
1001
ACAD
1000
DSTYLE
1002
{
1070
    41
1040
0.3442
1070
    42
1040
0.25
1070
   140
1040
0.3442
1070
   271
1070
     3
1002
}
  0
DIMENSION
  5
82B
330
1F
100
AcDbEntity
  8
0
100
AcDbDimension
  2
*D75
 10
21.11473530683568
 20
14.73695783032612
 30
0.0
 11
22.3622353068356
 21
30.95799116365945
 31
0.0
 70
   102
 71
     5
 42
1.247499999999919
  3
Standard
100
AcDbOrdinateDimension
 13
22.3622353068356
 23
28.76695783032611
 33
0.0
 14
22.3622353068356
 24
30.23695783032611
 34
0.0
1001
ACAD
1000
DSTYLE
1002
{
1070
    41
1040
0.3442
1070
    42
1040
0.25
1070
   140
1040
0.3442
1070
   271
1070
     3
1002
}
  0
DIMENSION
  5
82C
330
1F
100
AcDbEntity
  8
0
100
AcDbDimension
  2
*D76
 10
21.11473530683568
 20
14.73695783032612
 30
0.0
 11
27.70473530683565
 21
22.14917449699278
 31
0.0
 70
   102
 71
     5
 42
6.589999999999977
  3
Standard
100
AcDbOrdinateDimension
 13
27.70473530683566
 23
20.1494578303261
 33
0.0
 14
27.70473530683566
 24
21.3994578303261
 34
0.0
1001
ACAD
1000
DSTYLE
1002
{
1070
    41
1040
0.3442
1070
    42
1040
0.25
1070
   140
1040
0.3442
1070
   271
1070
     3
1002
}
  0
DIMENSION
  5
82D
330
1F
100
AcDbEntity
  8
0
100
AcDbDimension
  2
*D77
 10
21.11473530683568
 20
14.73695783032612
 30
0.0
 11
21.70473530683565
 21
22.12049116365944
 31
0.0
 70
   102
 71
     5
 42
0.5899999999999787
  3
Standard
100
AcDbOrdinateDimension
 13
21.70473530683566
 23
20.1494578303261
 33
0.0
 14
21.70473530683566
 24
21.3994578303261
 34
0.0
1001
ACAD
1000
DSTYLE
1002
{
1070
    41
1040
0.3442
1070
    42
1040
0.25
1070
   140
1040
0.3442
1070
   271
1070
     3
1002
}
  0
DIMENSION
  5
82E
330
1F
100
AcDbEntity
  8
0
100
AcDbDimension
  2
*D78
 10
21.11473530683568
 20
14.73695783032612
 30
0.0
 11
27.29473530683569
 21
12.47094116365945
 31
0.0
 70
   102
  1
(2) <>
 71
     5
 42
6.180000000000009
  3
Standard
100
AcDbOrdinateDimension
 13
27.29473530683569
 23
15.73695783032611
 33
0.0
 14
27.29473530683569
 24
13.73695783032611
 34
0.0
1001
ACAD
1000
DSTYLE
1002
{
1070
    41
1040
0.3442
1070
    42
1040
0.25
1070
   140
1040
0.3442
1070
   271
1070
     3
1002
}
  0
DIMENSION
  5
82F
330
1F
100
AcDbEntity
  8
0
100
AcDbDimension
  2
*D79
 10
21.11473530683568
 20
14.73695783032612
 30
0.0
 11
22.11473530683562
 21
12.52830783032611
 31
0.0
 70
   102
  1
(2) <>
 71
     5
 42
0.9999999999999431
  3
Standard
100
AcDbOrdinateDimension
 13
22.11473530683562
 23
15.73695783032611
 33
0.0
 14
22.11473530683562
 24
13.73695783032611
 34
0.0
1001
ACAD
1000
DSTYLE
1002
{
1070
    41
1040
0.3442
1070
    42
1040
0.25
1070
   140
1040
0.3442
1070
   271
1070
     3
1002
}
  0
DIMENSION
  5
830
330
1F
100
AcDbEntity
  8
0
100
AcDbDimension
  2
*D80
 10
21.11473530683568
 20
14.73695783032612
 30
0.0
 11
19.35419905805644
 21
20.1494578303261
 31
0.0
 70
    38
 71
     5
 42
5.41249999999998
  3
Standard
100
AcDbOrdinateDimension
 13
21.70473530683566
 23
20.1494578303261
 33
0.0
 14
20.07523239138978
 24
20.1494578303261
 34
0.0
1001
ACAD
1000
DSTYLE
1002
{
1070
    41
1040
0.3442
1070
    42
1040
0.25
1070
   140
1040
0.3442
1070
   271
1070
     3
1002
}
  0
DIMENSION
  5
831
330
1F
100
AcDbEntity
  8
0
100
AcDbDimension
  2
*D81
 10
21.11473530683568
 20
14.73695783032612
 30
0.0
 11
19.29683239138977
 21
17.39945783032611
 31
0.0
 70
    38
 71
     5
 42
2.66249999999999
  3
Standard
100
AcDbOrdinateDimension
 13
21.70473530683566
 23
17.39945783032611
 33
0.0
 14
20.07523239138978
 24
17.39945783032611
 34
0.0
1001
ACAD
1000
DSTYLE
1002
{
1070
    42
1040
0.25
1070
    41
1040
0.3442
1070
   140
1040
0.3442
1070
   271
1070
     3
1002
}
  0
DIMENSION
  5
832
330
1F
100
AcDbEntity
  8
0
100
AcDbDimension
  2
*D82
 10
21.11473530683568
 20
14.73695783032612
 30
0.0
 11
29.89021572472312
 21
15.73695783032611
 31
0.0
 70
    38
 71
     5
 42
0.9999999999999891
  3
Standard
100
AcDbOrdinateDimension
 13
27.29473530683569
 23
15.73695783032611
 33
0.0
 14
29.25523239138978
 24
15.73695783032611
 34
0.0
1001
ACAD
1000
DSTYLE
1002
{
1070
    41
1040
0.3442
1070
    42
1040
0.25
1070
   140
1040
0.3442
1070
   271
1070
     3
1002
}
  0
DIMENSION
  5
833
330
1F
100
AcDbEntity
  8
0
100
AcDbDimension
  2
*D83
 10
21.11473530683568
 20
14.73695783032612
 30
0.0
 11
21.1147353068357
 21
13.07329116365945
 31
0.0
 70
   102
 71
     5
 42
0.0000000000000178
  3
Standard
100
AcDbOrdinateDimension
 13
21.1147353068357
 23
14.7369578303261
 33
0.0
 14
21.1147353068357
 24
13.73695783032611
 34
0.0
1001
ACAD
1000
DSTYLE
1002
{
1070
    41
1040
0.3442
1070
    42
1040
0.25
1070
   140
1040
0.3442
1070
   271
1070
     3
1002
}
  0
DIMENSION
  5
834
330
1F
100
AcDbEntity
  8
0
100
AcDbDimension
  2
*D84
 10
21.11473530683568
 20
14.73695783032612
 30
0.0
 11
19.41156572472311
 21
14.73695783032611
 31
0.0
 70
    38
 71
     5
 42
0.0000000000000195
  3
Standard
100
AcDbOrdinateDimension
 13
21.1147353068357
 23
14.7369578303261
 33
0.0
 14
20.07523239138978
 24
14.73695783032611
 34
0.0
1001
ACAD
1000
DSTYLE
1002
{
1070
    41
1040
0.3442
1070
    42
1040
0.25
1070
   140
1040
0.3442
1070
   271
1070
     3
1002
}
  0
LINE
  5
954
330
1F
100
AcDbEntity
  8
BORDER
100
AcDbLine
 10
21.40293833838271
 20
9.127131862203423
 30
0.0
 11
13.91746510745288
 21
9.127131862203423
 31
0.0
  0
TEXT
  5
955
330
1F
100
AcDbEntity
  8
TEXT
100
AcDbText
 10
14.15025096812839
 20
8.954342357372079
 30
0.0
 40
0.1151930032208704
  1
1
 72
     1
 11
14.16944980199854
 21
9.011938858982514
 31
0.0
100
AcDbText
 73
     2
  0
TEXT
  5
956
330
1F
100
AcDbEntity
  8
TEXT
100
AcDbText
 10
16.06245482159494
 20
8.954342357372079
 30
0.0
 40
0.1151930032208704
  1
UPDATED DESIGN
 72
     1
 11
16.83040817640074
 21
9.011938858982514
 31
0.0
100
AcDbText
 73
     2
  0
TEXT
  5
957
330
1F
100
AcDbEntity
  8
TEXT
100
AcDbText
 10
20.67441864053056
 20
8.954342357372079
 30
0.0
 40
0.1151930032208704
  1
JMH
 72
     1
 11
20.82800931149172
 21
9.011938858982514
 31
0.0
100
AcDbText
 73
     2
  0
TEXT
  5
958
330
1F
100
AcDbEntity
  8
TEXT
100
AcDbText
 10
19.38145322689622
 20
8.954342357372079
 30
0.0
 40
0.1151930032208704
  1
10-21-10
 72
     1
 11
19.74623107042898
 21
9.011938858982514
 31
0.0
100
AcDbText
 73
     2
  0
ENDSEC
  0
SECTION
  2
OBJECTS
  0
DICTIONARY
  5
C
330
0
100
AcDbDictionary
281
     1
  3
ACAD_COLOR
350
73
  3
ACAD_GROUP
350
D
  3
ACAD_LAYOUT
350
1A
  3
ACAD_MATERIAL
350
72
  3
ACAD_MLINESTYLE
350
17
  3
ACAD_PLOTSETTINGS
350
19
  3
ACAD_PLOTSTYLENAME
350
E
  3
AcDbVariableDictionary
350
66
  0
DICTIONARY
  5
8C
330
2
100
AcDbDictionary
280
     1
281
     1
  3
ACAD_LAYERFILTERS
360
515
  3
ACAD_LAYERSTATES
360
8D
  0
DICTIONARY
  5
52D
330
52C
100
AcDbDictionary
280
     1
281
     1
  3
ACAD_SORTENTS
360
52E
  0
DICTIONARY
  5
53E
330
53D
100
AcDbDictionary
280
     1
281
     1
  3
ACAD_SORTENTS
360
53F
  0
DICTIONARY
  5
6CE
330
595
100
AcDbDictionary
280
     1
281
     1
  3
ACAD_SORTENTS
360
6CF
  0
DICTIONARY
  5
73
102
{ACAD_REACTORS
330
C
102
}
330
C
100
AcDbDictionary
281
     1
  0
DICTIONARY
  5
D
102
{ACAD_REACTORS
330
C
102
}
330
C
100
AcDbDictionary
281
     1
  0
DICTIONARY
  5
1A
102
{ACAD_REACTORS
330
C
102
}
330
C
100
AcDbDictionary
281
     1
  3
Layout1
350
59
  3
Layout2
350
5E
  3
Model
350
22
  0
DICTIONARY
  5
72
102
{ACAD_REACTORS
330
C
102
}
330
C
100
AcDbDictionary
281
     1
  0
DICTIONARY
  5
17
102
{ACAD_REACTORS
330
C
102
}
330
C
100
AcDbDictionary
281
     1
  3
Standard
350
18
  0
DICTIONARY
  5
19
102
{ACAD_REACTORS
330
C
102
}
330
C
100
AcDbDictionary
281
     1
  0
ACDBDICTIONARYWDFLT
  5
E
102
{ACAD_REACTORS
330
C
102
}
330
C
100
AcDbDictionary
281
     1
  3
Normal
350
F
100
AcDbDictionaryWithDefault
340
F
  0
DICTIONARY
  5
66
102
{ACAD_REACTORS
330
C
102
}
330
C
100
AcDbDictionary
281
     1
  3
DIMASSOC
350
67
  3
HIDETEXT
350
6B
  3
PROJECTNAME
350
516
  0
DICTIONARY
  5
515
102
{ACAD_REACTORS
330
8C
102
}
330
8C
100
AcDbDictionary
281
     1
  0
DICTIONARY
  5
8D
102
{ACAD_REACTORS
330
8C
102
}
330
8C
100
AcDbDictionary
281
     1
  0
SORTENTSTABLE
  5
52E
102
{ACAD_REACTORS
330
52D
102
}
330
52D
100
AcDbSortentsTable
330
52C
  0
SORTENTSTABLE
  5
53F
102
{ACAD_REACTORS
330
53E
102
}
330
53E
100
AcDbSortentsTable
330
53D
  0
SORTENTSTABLE
  5
6CF
102
{ACAD_REACTORS
330
6CE
102
}
330
6CE
100
AcDbSortentsTable
330
595
  0
LAYOUT
  5
59
102
{ACAD_REACTORS
330
1A
102
}
330
1A
100
AcDbPlotSettings
  1

  2
None
  4

  6

 40
0.0
 41
0.0
 42
0.0
 43
0.0
 44
0.0
 45
0.0
 46
0.0
 47
0.0
 48
0.0
 49
0.0
140
0.0
141
0.0
142
1.0
143
1.0
 70
   688
 72
     0
 73
     0
 74
     5
  7
monochrome.ctb
 75
    16
147
1.0
 76
     0
 77
     2
 78
   300
148
0.0
149
0.0
100
AcDbLayout
  1
Layout1
 70
     1
 71
     1
 10
0.0
 20
0.0
 11
12.0
 21
9.0
 12
0.0
 22
0.0
 32
0.0
 14
0.0
 24
0.0
 34
0.0
 15
0.0
 25
0.0
 35
0.0
146
0.0
 13
0.0
 23
0.0
 33
0.0
 16
1.0
 26
0.0
 36
0.0
 17
0.0
 27
1.0
 37
0.0
 76
     0
330
58
  0
LAYOUT
  5
5E
102
{ACAD_REACTORS
330
1A
102
}
330
1A
100
AcDbPlotSettings
  1

  2
None
  4

  6

 40
0.0
 41
0.0
 42
0.0
 43
0.0
 44
0.0
 45
0.0
 46
0.0
 47
0.0
 48
0.0
 49
0.0
140
0.0
141
0.0
142
1.0
143
1.0
 70
   688
 72
     0
 73
     0
 74
     5
  7
monochrome.ctb
 75
    16
147
1.0
 76
     0
 77
     2
 78
   300
148
0.0
149
0.0
100
AcDbLayout
  1
Layout2
 70
     1
 71
     2
 10
0.0
 20
0.0
 11
12.0
 21
9.0
 12
0.0
 22
0.0
 32
0.0
 14
0.0
 24
0.0
 34
0.0
 15
0.0
 25
0.0
 35
0.0
146
0.0
 13
0.0
 23
0.0
 33
0.0
 16
1.0
 26
0.0
 36
0.0
 17
0.0
 27
1.0
 37
0.0
 76
     0
330
5D
  0
LAYOUT
  5
22
102
{ACAD_REACTORS
330
1A
102
}
330
1A
100
AcDbPlotSettings
  1

  2
PDFCreator
  4
Letter
  6

 40
3.174999952316283
 41
3.174999952316283
 42
3.175003051757812
 43
3.17498779296875
 44
215.8999938964844
 45
279.3999938964844
 46
1.016
 47
0.0
 48
13.91746510745289
 49
8.205587836436384
140
35.80334240153842
141
37.00383864165399
142
1.0
143
2.67890699129843
 70
 11956
 72
     0
 73
     0
 74
     4
  7
monochrome.ctb
 75
     0
147
0.373286569204597
 76
     0
 77
     2
 78
   300
148
-353.5036137293034
149
-208.4219310454841
100
AcDbLayout
  1
Model
 70
     1
 71
     0
 10
0.0
 20
0.0
 11
12.0
 21
9.0
 12
0.0
 22
0.0
 32
0.0
 14
0.0
 24
0.0
 34
0.0
 15
0.0
 25
0.0
 35
0.0
146
0.0
 13
0.0
 23
0.0
 33
0.0
 16
1.0
 26
0.0
 36
0.0
 17
0.0
 27
1.0
 37
0.0
 76
     0
330
1F
  0
MLINESTYLE
  5
18
102
{ACAD_REACTORS
330
17
102
}
330
17
100
AcDbMlineStyle
  2
STANDARD
 70
     0
  3

 62
   256
 51
90.0
 52
90.0
 71
     2
 49
0.5
 62
   256
  6
BYLAYER
 49
-0.5
 62
   256
  6
BYLAYER
  0
ACDBPLACEHOLDER
  5
F
102
{ACAD_REACTORS
330
E
102
}
330
E
  0
DICTIONARYVAR
  5
67
102
{ACAD_REACTORS
330
66
102
}
330
66
100
DictionaryVariables
280
     0
  1
2
  0
DICTIONARYVAR
  5
6B
102
{ACAD_REACTORS
330
66
102
}
330
66
100
DictionaryVariables
280
     0
  1
1
  0
DICTIONARYVAR
  5
516
102
{ACAD_REACTORS
330
66
102
}
330
66
100
DictionaryVariables
280
     0
  1

  0
ENDSEC
  0
EOF
