  0
SECTION
  2
HEADER
  9
$ACADVER
  1
AC1015
  9
$ACADMAINTVER
 70
    20
  9
$DWGCODEPAGE
  3
ANSI_1252
  9
$INSBASE
 10
0.0
 20
0.0
 30
0.0
  9
$EXTMIN
 10
-3.041324575300548
 20
-13.43579255514734
 30
0.0
  9
$EXTMAX
 10
46.92370916426031
 20
49.06420744485274
 30
0.0
  9
$LIMMIN
 10
0.0
 20
0.0
  9
$LIMMAX
 10
12.0
 20
9.0
  9
$ORTHOMODE
 70
     1
  9
$REGENMODE
 70
     1
  9
$FILLMODE
 70
     1
  9
$QTEXTMODE
 70
     0
  9
$MIRRTEXT
 70
     1
  9
$LTSCALE
 40
1.0
  9
$ATTMODE
 70
     1
  9
$TEXTSIZE
 40
0.75
  9
$TRACEWID
 40
0.05
  9
$TEXTSTYLE
  7
STANDARD
  9
$CLAYER
  8
DIMENSION
  9
$CELTYPE
  6
ByLayer
  9
$CECOLOR
 62
   256
  9
$CELTSCALE
 40
1.0
  9
$DISPSILH
 70
     0
  9
$DIMSCALE
 40
1.0
  9
$DIMASZ
 40
0.5
  9
$DIMEXO
 40
0.25
  9
$DIMDLI
 40
0.38
  9
$DIMRND
 40
0.0
  9
$DIMDLE
 40
0.0
  9
$DIMEXE
 40
0.18
  9
$DIMTP
 40
0.0
  9
$DIMTM
 40
0.0
  9
$DIMTXT
 40
0.5
  9
$DIMCEN
 40
0.09
  9
$DIMTSZ
 40
0.0
  9
$DIMTOL
 70
     0
  9
$DIMLIM
 70
     0
  9
$DIMTIH
 70
     1
  9
$DIMTOH
 70
     1
  9
$DIMSE1
 70
     0
  9
$DIMSE2
 70
     0
  9
$DIMTAD
 70
     0
  9
$DIMZIN
 70
     0
  9
$DIMBLK
  1

  9
$DIMASO
 70
     1
  9
$DIMSHO
 70
     1
  9
$DIMPOST
  1

  9
$DIMAPOST
  1

  9
$DIMALT
 70
     0
  9
$DIMALTD
 70
     2
  9
$DIMALTF
 40
25.4
  9
$DIMLFAC
 40
1.0
  9
$DIMTOFL
 70
     0
  9
$DIMTVP
 40
0.0
  9
$DIMTIX
 70
     0
  9
$DIMSOXD
 70
     0
  9
$DIMSAH
 70
     0
  9
$DIMBLK1
  1

  9
$DIMBLK2
  1

  9
$DIMSTYLE
  2
STANDARD
  9
$DIMCLRD
 70
     0
  9
$DIMCLRE
 70
     0
  9
$DIMCLRT
 70
     0
  9
$DIMTFAC
 40
1.0
  9
$DIMGAP
 40
0.25
  9
$DIMJUST
 70
     0
  9
$DIMSD1
 70
     0
  9
$DIMSD2
 70
     0
  9
$DIMTOLJ
 70
     1
  9
$DIMTZIN
 70
     0
  9
$DIMALTZ
 70
     0
  9
$DIMALTTZ
 70
     0
  9
$DIMUPT
 70
     0
  9
$DIMDEC
 70
     3
  9
$DIMTDEC
 70
     3
  9
$DIMALTU
 70
     2
  9
$DIMALTTD
 70
     2
  9
$DIMTXSTY
  7
STANDARD
  9
$DIMAUNIT
 70
     0
  9
$DIMADEC
 70
     0
  9
$DIMALTRND
 40
0.0
  9
$DIMAZIN
 70
     0
  9
$DIMDSEP
 70
    46
  9
$DIMATFIT
 70
     3
  9
$DIMFRAC
 70
     0
  9
$DIMLDRBLK
  1

  9
$DIMLUNIT
 70
     2
  9
$DIMLWD
 70
    -2
  9
$DIMLWE
 70
    -2
  9
$DIMTMOVE
 70
     0
  9
$LUNITS
 70
     2
  9
$LUPREC
 70
     4
  9
$SKETCHINC
 40
0.1
  9
$FILLETRAD
 40
0.0
  9
$AUNITS
 70
     0
  9
$AUPREC
 70
     0
  9
$MENU
  1
.
  9
$ELEVATION
 40
0.0
  9
$PELEVATION
 40
0.0
  9
$THICKNESS
 40
0.0
  9
$LIMCHECK
 70
     0
  9
$CHAMFERA
 40
0.5
  9
$CHAMFERB
 40
0.5
  9
$CHAMFERC
 40
0.0
  9
$CHAMFERD
 40
0.0
  9
$SKPOLY
 70
     0
  9
$TDCREATE
 40
2452348.698902431
  9
$TDUCREATE
 40
2452348.865569097
  9
$TDUPDATE
 40
2455097.572648183
  9
$TDUUPDATE
 40
2455097.739314850
  9
$TDINDWG
 40
3.0093304861
  9
$TDUSRTIMER
 40
3.0093268634
  9
$USRTIMER
 70
     1
  9
$ANGBASE
 50
0.0
  9
$ANGDIR
 70
     0
  9
$PDMODE
 70
     0
  9
$PDSIZE
 40
0.0
  9
$PLINEWID
 40
0.0
  9
$SPLFRAME
 70
     0
  9
$SPLINETYPE
 70
     6
  9
$SPLINESEGS
 70
     8
  9
$HANDSEED
  5
4650
  9
$SURFTAB1
 70
     6
  9
$SURFTAB2
 70
     6
  9
$SURFTYPE
 70
     6
  9
$SURFU
 70
     6
  9
$SURFV
 70
     6
  9
$UCSBASE
  2

  9
$UCSNAME
  2

  9
$UCSORG
 10
0.0
 20
0.0
 30
0.0
  9
$UCSXDIR
 10
1.0
 20
0.0
 30
0.0
  9
$UCSYDIR
 10
0.0
 20
1.0
 30
0.0
  9
$UCSORTHOREF
  2

  9
$UCSORTHOVIEW
 70
     0
  9
$UCSORGTOP
 10
0.0
 20
0.0
 30
0.0
  9
$UCSORGBOTTOM
 10
0.0
 20
0.0
 30
0.0
  9
$UCSORGLEFT
 10
0.0
 20
0.0
 30
0.0
  9
$UCSORGRIGHT
 10
0.0
 20
0.0
 30
0.0
  9
$UCSORGFRONT
 10
0.0
 20
0.0
 30
0.0
  9
$UCSORGBACK
 10
0.0
 20
0.0
 30
0.0
  9
$PUCSBASE
  2

  9
$PUCSNAME
  2

  9
$PUCSORG
 10
0.0
 20
0.0
 30
0.0
  9
$PUCSXDIR
 10
1.0
 20
0.0
 30
0.0
  9
$PUCSYDIR
 10
0.0
 20
1.0
 30
0.0
  9
$PUCSORTHOREF
  2

  9
$PUCSORTHOVIEW
 70
     0
  9
$PUCSORGTOP
 10
0.0
 20
0.0
 30
0.0
  9
$PUCSORGBOTTOM
 10
0.0
 20
0.0
 30
0.0
  9
$PUCSORGLEFT
 10
0.0
 20
0.0
 30
0.0
  9
$PUCSORGRIGHT
 10
0.0
 20
0.0
 30
0.0
  9
$PUCSORGFRONT
 10
0.0
 20
0.0
 30
0.0
  9
$PUCSORGBACK
 10
0.0
 20
0.0
 30
0.0
  9
$USERI1
 70
     0
  9
$USERI2
 70
     0
  9
$USERI3
 70
     0
  9
$USERI4
 70
     0
  9
$USERI5
 70
     0
  9
$USERR1
 40
0.0
  9
$USERR2
 40
0.0
  9
$USERR3
 40
0.0
  9
$USERR4
 40
0.0
  9
$USERR5
 40
0.0
  9
$WORLDVIEW
 70
     1
  9
$SHADEDGE
 70
     3
  9
$SHADEDIF
 70
    70
  9
$TILEMODE
 70
     1
  9
$MAXACTVP
 70
    64
  9
$PINSBASE
 10
0.0
 20
0.0
 30
0.0
  9
$PLIMCHECK
 70
     0
  9
$PEXTMIN
 10
1.000000000000000E+20
 20
1.000000000000000E+20
 30
1.000000000000000E+20
  9
$PEXTMAX
 10
-1.000000000000000E+20
 20
-1.000000000000000E+20
 30
-1.000000000000000E+20
  9
$PLIMMIN
 10
0.0
 20
0.0
  9
$PLIMMAX
 10
12.0
 20
9.0
  9
$UNITMODE
 70
     0
  9
$VISRETAIN
 70
     1
  9
$PLINEGEN
 70
     0
  9
$PSLTSCALE
 70
     1
  9
$TREEDEPTH
 70
  3020
  9
$CMLSTYLE
  2
Standard
  9
$CMLJUST
 70
     0
  9
$CMLSCALE
 40
1.0
  9
$PROXYGRAPHICS
 70
     1
  9
$MEASUREMENT
 70
     0
  9
$CELWEIGHT
370
    -1
  9
$ENDCAPS
280
     0
  9
$JOINSTYLE
280
     0
  9
$LWDISPLAY
290
     0
  9
$INSUNITS
 70
     0
  9
$HYPERLINKBASE
  1

  9
$STYLESHEET
  1
MONOCHROME.CTB
  9
$XEDIT
290
     1
  9
$CEPSNTYPE
380
     0
  9
$PSTYLEMODE
290
     1
  9
$FINGERPRINTGUID
  2
{89A9B7CC-2AC3-402D-92F5-7B51DD5F7C85}
  9
$VERSIONGUID
  2
{65344978-CCE8-4436-8293-F97542F1444D}
  9
$EXTNAMES
290
     1
  9
$PSVPSCALE
 40
0.0
  9
$OLESTARTUP
290
     0
  0
ENDSEC
  0
SECTION
  2
CLASSES
  0
CLASS
  1
ACDBDICTIONARYWDFLT
  2
AcDbDictionaryWithDefault
  3
ObjectDBX Classes
 90
        0
280
     0
281
     0
  0
CLASS
  1
DICTIONARYVAR
  2
AcDbDictionaryVar
  3
ObjectDBX Classes
 90
        0
280
     0
281
     0
  0
CLASS
  1
ACDBPLACEHOLDER
  2
AcDbPlaceHolder
  3
ObjectDBX Classes
 90
        0
280
     0
281
     0
  0
CLASS
  1
LAYOUT
  2
AcDbLayout
  3
ObjectDBX Classes
 90
        0
280
     0
281
     0
  0
ENDSEC
  0
SECTION
  2
TABLES
  0
TABLE
  2
VPORT
  5
40C3
330
0
100
AcDbSymbolTable
 70
     7
  0
VPORT
  5
4647
330
40C3
100
AcDbSymbolTableRecord
100
AcDbViewportTableRecord
  2
*Active
 70
     0
 10
0.0
 20
0.0
 11
1.0
 21
1.0
 12
11.02792305096384
 22
4.206621006101684
 13
0.0
 23
0.0
 14
0.5
 24
0.5
 15
0.5
 25
0.5
 16
0.0
 26
0.0
 36
1.0
 17
0.0
 27
0.0
 37
0.0
 40
38.64042532894783
 41
1.484472049689441
 42
50.0
 43
0.0
 44
0.0
 50
0.0
 51
0.0
 71
     0
 72
   100
 73
     1
 74
     2
 75
     0
 76
     0
 77
     0
 78
     0
281
     0
 65
     1
110
0.0
120
0.0
130
0.0
111
1.0
121
0.0
131
0.0
112
0.0
122
1.0
132
0.0
 79
     0
146
0.0
  0
ENDTAB
  0
TABLE
  2
LTYPE
  5
40C0
330
0
100
AcDbSymbolTable
 70
     3
  0
LTYPE
  5
40CE
330
40C0
100
AcDbSymbolTableRecord
100
AcDbLinetypeTableRecord
  2
ByBlock
 70
     0
  3

 72
    65
 73
     0
 40
0.0
  0
LTYPE
  5
40CF
330
40C0
100
AcDbSymbolTableRecord
100
AcDbLinetypeTableRecord
  2
ByLayer
 70
     0
  3

 72
    65
 73
     0
 40
0.0
  0
LTYPE
  5
40D0
330
40C0
100
AcDbSymbolTableRecord
100
AcDbLinetypeTableRecord
  2
CONTINUOUS
 70
     0
  3
Solid line
 72
    65
 73
     0
 40
0.0
  0
LTYPE
  5
40E0
330
40C0
100
AcDbSymbolTableRecord
100
AcDbLinetypeTableRecord
  2
DASHED
 70
     0
  3
Dashed __ __ __ __ __ __ __ __ __ __ __ __ __ _
 72
    65
 73
     2
 40
0.75
 49
0.5
 74
     0
 49
-0.25
 74
     0
  0
LTYPE
  5
40E1
330
40C0
100
AcDbSymbolTableRecord
100
AcDbLinetypeTableRecord
  2
HIDDEN
 70
     0
  3
Hidden __ __ __ __ __ __ __ __ __ __ __ __ __ _
 72
    65
 73
     2
 40
0.375
 49
0.25
 74
     0
 49
-0.125
 74
     0
  0
ENDTAB
  0
TABLE
  2
LAYER
  5
40BD
102
{ACAD_XDICTIONARY
360
4143
102
}
330
0
100
AcDbSymbolTable
 70
     7
  0
LAYER
  5
40CB
330
40BD
100
AcDbSymbolTableRecord
100
AcDbLayerTableRecord
  2
0
 70
     0
 62
     7
  6
CONTINUOUS
370
    -3
390
40CA
  0
LAYER
  5
40E2
330
40BD
100
AcDbSymbolTableRecord
100
AcDbLayerTableRecord
  2
DEFPOINTS
 70
     0
 62
     7
  6
CONTINUOUS
290
     0
370
    -3
390
40CA
  0
LAYER
  5
40E3
330
40BD
100
AcDbSymbolTableRecord
100
AcDbLayerTableRecord
  2
OBJ
 70
     0
 62
     7
  6
CONTINUOUS
370
    -3
390
40CA
  0
LAYER
  5
40E4
330
40BD
100
AcDbSymbolTableRecord
100
AcDbLayerTableRecord
  2
TEMPLATE
 70
     0
 62
     7
  6
CONTINUOUS
370
    -3
390
40CA
  0
LAYER
  5
40E5
330
40BD
100
AcDbSymbolTableRecord
100
AcDbLayerTableRecord
  2
DIMENSION
 70
     0
 62
     7
  6
CONTINUOUS
370
    -3
390
40CA
  0
LAYER
  5
4141
330
40BD
100
AcDbSymbolTableRecord
100
AcDbLayerTableRecord
  2
TEXT
 70
     0
 62
    -7
  6
CONTINUOUS
370
    -3
390
40CA
  0
LAYER
  5
4142
330
40BD
100
AcDbSymbolTableRecord
100
AcDbLayerTableRecord
  2
BORDER
 70
     0
 62
     7
  6
CONTINUOUS
370
    -3
390
40CA
  0
ENDTAB
  0
TABLE
  2
STYLE
  5
40BE
330
0
100
AcDbSymbolTable
 70
     1
  0
STYLE
  5
40CC
330
40BE
100
AcDbSymbolTableRecord
100
AcDbTextStyleTableRecord
  2
STANDARD
 70
     0
 40
0.0
 41
1.0
 50
0.0
 71
     0
 42
0.75
  3
txt
  4

  0
ENDTAB
  0
TABLE
  2
VIEW
  5
40C1
330
0
100
AcDbSymbolTable
 70
     0
  0
ENDTAB
  0
TABLE
  2
UCS
  5
40C2
330
0
100
AcDbSymbolTable
 70
     0
  0
ENDTAB
  0
TABLE
  2
APPID
  5
40C4
330
0
100
AcDbSymbolTable
 70
     2
  0
APPID
  5
40CD
330
40C4
100
AcDbSymbolTableRecord
100
AcDbRegAppTableRecord
  2
ACAD
 70
     0
  0
APPID
  5
4552
330
40C4
100
AcDbSymbolTableRecord
100
AcDbRegAppTableRecord
  2
DCO15
 70
     0
  0
ENDTAB
  0
TABLE
  2
DIMSTYLE
  5
40C5
330
0
100
AcDbSymbolTable
 70
     1
100
AcDbDimStyleTable
 71
     1
340
40E6
  0
DIMSTYLE
105
40E6
102
{ACAD_REACTORS
330
3DC1
330
3DCA
330
3DB8
330
3DAF
330
3DDC
330
3E02
330
3DF9
330
3DE5
330
3DEE
330
3D9D
330
3DA6
330
4537
330
461C
102
}
330
40C5
100
AcDbSymbolTableRecord
100
AcDbDimStyleTableRecord
  2
STANDARD
 70
     0
 41
0.5
 42
0.25
140
0.5
147
0.25
279
     2
340
40CC
  0
ENDTAB
  0
TABLE
  2
BLOCK_RECORD
  5
40BC
330
0
100
AcDbSymbolTable
 70
    20
  0
BLOCK_RECORD
  5
40DB
330
40BC
100
AcDbSymbolTableRecord
100
AcDbBlockTableRecord
  2
*Model_Space
340
40DE
  0
BLOCK_RECORD
  5
40D7
330
40BC
100
AcDbSymbolTableRecord
100
AcDbBlockTableRecord
  2
*Paper_Space
340
40DA
  0
BLOCK_RECORD
  5
40E8
330
40BC
100
AcDbSymbolTableRecord
100
AcDbBlockTableRecord
  2
$MODEL_SPACE
340
0
  0
BLOCK_RECORD
  5
40EA
330
40BC
100
AcDbSymbolTableRecord
100
AcDbBlockTableRecord
  2
$PAPER_SPACE
340
0
  0
BLOCK_RECORD
  5
40EC
330
40BC
100
AcDbSymbolTableRecord
100
AcDbBlockTableRecord
  2
A$CE1F0
340
0
  0
BLOCK_RECORD
  5
43B9
330
40BC
100
AcDbSymbolTableRecord
100
AcDbBlockTableRecord
  2
*D3
340
0
  0
BLOCK_RECORD
  5
43C1
330
40BC
100
AcDbSymbolTableRecord
100
AcDbBlockTableRecord
  2
*D4
340
0
  0
BLOCK_RECORD
  5
43C9
330
40BC
100
AcDbSymbolTableRecord
100
AcDbBlockTableRecord
  2
*D5
340
0
  0
BLOCK_RECORD
  5
43D1
330
40BC
100
AcDbSymbolTableRecord
100
AcDbBlockTableRecord
  2
*D6
340
0
  0
BLOCK_RECORD
  5
43D9
330
40BC
100
AcDbSymbolTableRecord
100
AcDbBlockTableRecord
  2
*D7
340
0
  0
BLOCK_RECORD
  5
43E9
330
40BC
100
AcDbSymbolTableRecord
100
AcDbBlockTableRecord
  2
*D8
340
0
  0
BLOCK_RECORD
  5
43F1
330
40BC
100
AcDbSymbolTableRecord
100
AcDbBlockTableRecord
  2
*D9
340
0
  0
BLOCK_RECORD
  5
43F9
330
40BC
100
AcDbSymbolTableRecord
100
AcDbBlockTableRecord
  2
*D10
340
0
  0
BLOCK_RECORD
  5
4401
330
40BC
100
AcDbSymbolTableRecord
100
AcDbBlockTableRecord
  2
*D11
340
0
  0
BLOCK_RECORD
  5
4409
330
40BC
100
AcDbSymbolTableRecord
100
AcDbBlockTableRecord
  2
*D12
340
0
  0
BLOCK_RECORD
  5
4411
330
40BC
100
AcDbSymbolTableRecord
100
AcDbBlockTableRecord
  2
*D13
340
0
  0
BLOCK_RECORD
  5
4419
330
40BC
100
AcDbSymbolTableRecord
100
AcDbBlockTableRecord
  2
*D14
340
0
  0
BLOCK_RECORD
  5
4425
330
40BC
100
AcDbSymbolTableRecord
100
AcDbBlockTableRecord
  2
*D15
340
0
  0
BLOCK_RECORD
  5
4432
330
40BC
100
AcDbSymbolTableRecord
100
AcDbBlockTableRecord
  2
*D16
340
0
  0
BLOCK_RECORD
  5
443F
330
40BC
100
AcDbSymbolTableRecord
100
AcDbBlockTableRecord
  2
*D17
340
0
  0
BLOCK_RECORD
  5
4538
330
40BC
100
AcDbSymbolTableRecord
100
AcDbBlockTableRecord
  2
*D18
340
0
  0
BLOCK_RECORD
  5
461D
330
40BC
100
AcDbSymbolTableRecord
100
AcDbBlockTableRecord
  2
*D19
340
0
  0
ENDTAB
  0
ENDSEC
  0
SECTION
  2
BLOCKS
  0
BLOCK
  5
40DC
330
40DB
100
AcDbEntity
  8
0
100
AcDbBlockBegin
  2
*Model_Space
 70
     0
 10
0.0
 20
0.0
 30
0.0
  3
*Model_Space
  1

  0
ENDBLK
  5
40DD
330
40DB
100
AcDbEntity
  8
0
100
AcDbBlockEnd
  0
BLOCK
  5
40D8
330
40D7
100
AcDbEntity
 67
     1
  8
0
100
AcDbBlockBegin
  2
*Paper_Space
 70
     0
 10
0.0
 20
0.0
 30
0.0
  3
*Paper_Space
  1

  0
ENDBLK
  5
40D9
330
40D7
100
AcDbEntity
 67
     1
  8
0
100
AcDbBlockEnd
  0
BLOCK
  5
40E9
330
40E8
100
AcDbEntity
  8
0
100
AcDbBlockBegin
  2
$MODEL_SPACE
 70
     0
 10
0.0
 20
0.0
 30
0.0
  3
$MODEL_SPACE
  1

  0
ENDBLK
  5
21
330
40E8
100
AcDbEntity
  8
0
100
AcDbBlockEnd
  0
BLOCK
  5
40EB
330
40EA
100
AcDbEntity
  8
0
100
AcDbBlockBegin
  2
$PAPER_SPACE
 70
     0
 10
0.0
 20
0.0
 30
0.0
  3
$PAPER_SPACE
  1

  0
ENDBLK
  5
1D
330
40EA
100
AcDbEntity
  8
0
100
AcDbBlockEnd
  0
BLOCK
  5
40ED
330
40EC
100
AcDbEntity
  8
0
100
AcDbBlockBegin
  2
A$CE1F0
 70
     0
 10
0.0
 20
0.0
 30
0.0
  3
A$CE1F0
  1

  0
TEXT
  5
2E4
330
40EC
100
AcDbEntity
  8
0
100
AcDbText
 10
0.0228718607682481
 20
1.690877156304511
 30
0.0
 40
0.5
  1
PROPRIETARY DRAWING
100
AcDbText
  0
TEXT
  5
2E5
330
40EC
100
AcDbEntity
  8
0
100
AcDbText
 10
0.0292002150773101
 20
1.311193744568822
 30
0.0
 40
0.25
  1
THIS DRAWING IS THE PROPERTY OF ICE
100
AcDbText
  0
TEXT
  5
2E6
330
40EC
100
AcDbEntity
  8
0
100
AcDbText
 10
0.0292002150773101
 20
0.8945270779021575
 30
0.0
 40
0.25
  1
QUBE, INC. AND IS NOT TO BE DUPLICATED
100
AcDbText
  0
TEXT
  5
2E7
330
40EC
100
AcDbEntity
  8
0
100
AcDbText
 10
0.0292002150773101
 20
0.4778604112354916
 30
0.0
 40
0.25
  1
OR ALTERED WITHOUT AUTHORIZATION OF
100
AcDbText
  0
TEXT
  5
2E8
330
40EC
100
AcDbEntity
  8
0
100
AcDbText
 10
0.0292002150773101
 20
0.0611937445688255
 30
0.0
 40
0.25
  1
ICE QUBE, INC.
100
AcDbText
  0
ENDBLK
  5
2EA
330
40EC
100
AcDbEntity
  8
0
100
AcDbBlockEnd
  0
BLOCK
  5
43BF
330
43B9
100
AcDbEntity
  8
0
100
AcDbBlockBegin
  2
*D3
 70
     1
 10
0.0
 20
0.0
 30
0.0
  3
*D3
  1

  0
LINE
  5
450B
330
43B9
100
AcDbEntity
  8
DIMENSION
 62
     0
370
    -2
100
AcDbLine
 10
18.2472310431422
 20
-1.820090667267209
 30
0.0
 11
18.2472310431422
 21
-2.570090667267209
 31
0.0
  0
MTEXT
  5
450C
330
43B9
100
AcDbEntity
  8
DIMENSION
 62
     0
100
AcDbMText
 10
18.2472310431422
 20
-3.986757333933871
 30
0.0
 40
0.5
 41
0.0
 71
     5
 72
     1
  1
\A1;13.375
 11
0.0000000000000001
 21
1.0
 31
0.0
 73
     1
 44
1.0
1001
ACAD
1000
MTEXTBEGIN
1070
    73
1070
     1
1070
    44
1040
1.0
1070
    74
1070
     0
1000
MTEXTEND
  0
POINT
  5
450D
330
43B9
100
AcDbEntity
  8
DEFPOINTS
 62
     0
100
AcDbPoint
 10
18.2472310431422
 20
-1.570090667267209
 30
0.0
  0
POINT
  5
450E
330
43B9
100
AcDbEntity
  8
DEFPOINTS
 62
     0
100
AcDbPoint
 10
18.2472310431422
 20
-2.570090667267209
 30
0.0
  0
POINT
  5
450F
330
43B9
100
AcDbEntity
  8
DEFPOINTS
 62
     0
100
AcDbPoint
 10
4.872233149735222
 20
-1.570118925780035
 30
0.0
  0
ENDBLK
  5
43C0
330
43B9
100
AcDbEntity
  8
0
100
AcDbBlockEnd
  0
BLOCK
  5
43C7
330
43C1
100
AcDbEntity
  8
0
100
AcDbBlockBegin
  2
*D4
 70
     1
 10
0.0
 20
0.0
 30
0.0
  3
*D4
  1

  0
LINE
  5
4510
330
43C1
100
AcDbEntity
  8
DIMENSION
 62
     0
370
    -2
100
AcDbLine
 10
17.18473104314209
 20
-0.7575906672672092
 30
0.0
 11
17.18473104314209
 21
-2.570090667267209
 31
0.0
  0
MTEXT
  5
4511
330
43C1
100
AcDbEntity
  8
DIMENSION
 62
     0
100
AcDbMText
 10
17.18473104314209
 20
-3.903424000600539
 30
0.0
 40
0.5
 41
0.0
 71
     5
 72
     1
  1
\A1;12.312
 11
0.0000000000000001
 21
1.0
 31
0.0
 73
     1
 44
1.0
1001
ACAD
1000
MTEXTBEGIN
1070
    73
1070
     1
1070
    44
1040
1.0
1070
    74
1070
     0
1000
MTEXTEND
  0
POINT
  5
4512
330
43C1
100
AcDbEntity
  8
DEFPOINTS
 62
     0
100
AcDbPoint
 10
17.18473104314209
 20
-0.5075906672672092
 30
0.0
  0
POINT
  5
4513
330
43C1
100
AcDbEntity
  8
DEFPOINTS
 62
     0
100
AcDbPoint
 10
17.18473104314209
 20
-2.570090667267209
 30
0.0
  0
POINT
  5
4514
330
43C1
100
AcDbEntity
  8
DEFPOINTS
 62
     0
100
AcDbPoint
 10
4.872233149735222
 20
-1.570118925780035
 30
0.0
  0
ENDBLK
  5
43C8
330
43C1
100
AcDbEntity
  8
0
100
AcDbBlockEnd
  0
BLOCK
  5
43CF
330
43C9
100
AcDbEntity
  8
0
100
AcDbBlockBegin
  2
*D5
 70
     1
 10
0.0
 20
0.0
 30
0.0
  3
*D5
  1

  0
LINE
  5
451A
330
43C9
100
AcDbEntity
  8
DIMENSION
 62
     0
370
    -2
100
AcDbLine
 10
4.872231043142193
 20
-1.820090667267209
 30
0.0
 11
4.872231043142193
 21
-2.570090667267209
 31
0.0
  0
MTEXT
  5
451B
330
43C9
100
AcDbEntity
  8
DIMENSION
 62
     0
100
AcDbMText
 10
4.872231043142193
 20
-3.653424000600541
 30
0.0
 40
0.5
 41
0.0
 71
     5
 72
     1
  1
\A1;0.000
 11
0.0000000000000001
 21
1.0
 31
0.0
 73
     1
 44
1.0
1001
ACAD
1000
MTEXTBEGIN
1070
    73
1070
     1
1070
    44
1040
1.0
1070
    74
1070
     0
1000
MTEXTEND
  0
POINT
  5
451C
330
43C9
100
AcDbEntity
  8
DEFPOINTS
 62
     0
100
AcDbPoint
 10
4.872231043142193
 20
-1.570090667267209
 30
0.0
  0
POINT
  5
451D
330
43C9
100
AcDbEntity
  8
DEFPOINTS
 62
     0
100
AcDbPoint
 10
4.872231043142193
 20
-2.570090667267209
 30
0.0
  0
POINT
  5
451E
330
43C9
100
AcDbEntity
  8
DEFPOINTS
 62
     0
100
AcDbPoint
 10
4.872233149735222
 20
-1.570118925780035
 30
0.0
  0
ENDBLK
  5
43D0
330
43C9
100
AcDbEntity
  8
0
100
AcDbBlockEnd
  0
BLOCK
  5
43D7
330
43D1
100
AcDbEntity
  8
0
100
AcDbBlockBegin
  2
*D6
 70
     1
 10
0.0
 20
0.0
 30
0.0
  3
*D6
  1

  0
LINE
  5
4515
330
43D1
100
AcDbEntity
  8
DIMENSION
 62
     0
370
    -2
100
AcDbLine
 10
5.934731043142178
 20
-0.7575906672672092
 30
0.0
 11
5.934731043142178
 21
-2.570090667267209
 31
0.0
  0
MTEXT
  5
4516
330
43D1
100
AcDbEntity
  8
DIMENSION
 62
     0
100
AcDbMText
 10
5.934731043142178
 20
-3.695090667267208
 30
0.0
 40
0.5
 41
0.0
 71
     5
 72
     1
  1
\A1;1.062
 11
0.0000000000000001
 21
1.0
 31
0.0
 73
     1
 44
1.0
1001
ACAD
1000
MTEXTBEGIN
1070
    73
1070
     1
1070
    44
1040
1.0
1070
    74
1070
     0
1000
MTEXTEND
  0
POINT
  5
4517
330
43D1
100
AcDbEntity
  8
DEFPOINTS
 62
     0
100
AcDbPoint
 10
5.934731043142178
 20
-0.5075906672672092
 30
0.0
  0
POINT
  5
4518
330
43D1
100
AcDbEntity
  8
DEFPOINTS
 62
     0
100
AcDbPoint
 10
5.934731043142178
 20
-2.570090667267209
 30
0.0
  0
POINT
  5
4519
330
43D1
100
AcDbEntity
  8
DEFPOINTS
 62
     0
100
AcDbPoint
 10
4.872233149735222
 20
-1.570118925780035
 30
0.0
  0
ENDBLK
  5
43D8
330
43D1
100
AcDbEntity
  8
0
100
AcDbBlockEnd
  0
BLOCK
  5
43DF
330
43D9
100
AcDbEntity
  8
0
100
AcDbBlockBegin
  2
*D7
 70
     1
 10
0.0
 20
0.0
 30
0.0
  3
*D7
  1

  0
LINE
  5
4506
330
43D9
100
AcDbEntity
  8
DIMENSION
 62
     0
370
    -2
100
AcDbLine
 10
17.7547310431421
 20
-0.827590667267202
 30
0.0
 11
19.2472310431422
 21
-0.827590667267202
 31
0.0
  0
MTEXT
  5
4507
330
43D9
100
AcDbEntity
  8
DIMENSION
 62
     0
100
AcDbMText
 10
20.45556437647554
 20
-0.827590667267202
 30
0.0
 40
0.5
 41
0.0
 71
     5
 72
     1
  1
\A1;0.743
 73
     1
 44
1.0
1001
ACAD
1000
MTEXTBEGIN
1070
    73
1070
     1
1070
    44
1040
1.0
1070
    74
1070
     0
1000
MTEXTEND
  0
POINT
  5
4508
330
43D9
100
AcDbEntity
  8
DEFPOINTS
 62
     0
100
AcDbPoint
 10
17.5047310431421
 20
-0.827590667267202
 30
0.0
  0
POINT
  5
4509
330
43D9
100
AcDbEntity
  8
DEFPOINTS
 62
     0
100
AcDbPoint
 10
19.2472310431422
 20
-0.827590667267202
 30
0.0
  0
POINT
  5
450A
330
43D9
100
AcDbEntity
  8
DEFPOINTS
 62
     0
100
AcDbPoint
 10
4.872233149735222
 20
-1.570118925780035
 30
0.0
  0
ENDBLK
  5
43E0
330
43D9
100
AcDbEntity
  8
0
100
AcDbBlockEnd
  0
BLOCK
  5
43EF
330
43E9
100
AcDbEntity
  8
0
100
AcDbBlockBegin
  2
*D8
 70
     1
 10
0.0
 20
0.0
 30
0.0
  3
*D8
  1

  0
LINE
  5
44F2
330
43E9
100
AcDbEntity
  8
DIMENSION
 62
     0
370
    -2
100
AcDbLine
 10
17.50473104314215
 20
11.31240933273278
 30
0.0
 11
17.50473104314215
 21
12.80490933273278
 31
0.0
  0
MTEXT
  5
44F3
330
43E9
100
AcDbEntity
  8
DIMENSION
 62
     0
100
AcDbMText
 10
17.50473104314214
 20
14.22157599939945
 30
0.0
 40
0.5
 41
0.0
 71
     5
 72
     1
  1
\A1;12.632
 11
0.0000000000000001
 21
1.0
 31
0.0
 73
     1
 44
1.0
1001
ACAD
1000
MTEXTBEGIN
1070
    73
1070
     1
1070
    44
1040
1.0
1070
    74
1070
     0
1000
MTEXTEND
  0
POINT
  5
44F4
330
43E9
100
AcDbEntity
  8
DEFPOINTS
 62
     0
100
AcDbPoint
 10
17.50473104314215
 20
11.06240933273278
 30
0.0
  0
POINT
  5
44F5
330
43E9
100
AcDbEntity
  8
DEFPOINTS
 62
     0
100
AcDbPoint
 10
17.50473104314215
 20
12.80490933273278
 30
0.0
  0
POINT
  5
44F6
330
43E9
100
AcDbEntity
  8
DEFPOINTS
 62
     0
100
AcDbPoint
 10
4.872233149735222
 20
-1.570118925780035
 30
0.0
  0
ENDBLK
  5
43F0
330
43E9
100
AcDbEntity
  8
0
100
AcDbBlockEnd
  0
BLOCK
  5
43F7
330
43F1
100
AcDbEntity
  8
0
100
AcDbBlockBegin
  2
*D9
 70
     1
 10
0.0
 20
0.0
 30
0.0
  3
*D9
  1

  0
LINE
  5
44ED
330
43F1
100
AcDbEntity
  8
DIMENSION
 62
     0
370
    -2
100
AcDbLine
 10
5.61473104314217
 20
11.31240933273278
 30
0.0
 11
5.61473104314217
 21
12.80490933273278
 31
0.0
  0
MTEXT
  5
44EE
330
43F1
100
AcDbEntity
  8
DIMENSION
 62
     0
100
AcDbMText
 10
5.614731043142168
 20
14.01324266606612
 30
0.0
 40
0.5
 41
0.0
 71
     5
 72
     1
  1
\A1;0.742
 11
0.0000000000000001
 21
1.0
 31
0.0
 73
     1
 44
1.0
1001
ACAD
1000
MTEXTBEGIN
1070
    73
1070
     1
1070
    44
1040
1.0
1070
    74
1070
     0
1000
MTEXTEND
  0
POINT
  5
44EF
330
43F1
100
AcDbEntity
  8
DEFPOINTS
 62
     0
100
AcDbPoint
 10
5.61473104314217
 20
11.06240933273278
 30
0.0
  0
POINT
  5
44F0
330
43F1
100
AcDbEntity
  8
DEFPOINTS
 62
     0
100
AcDbPoint
 10
5.61473104314217
 20
12.80490933273278
 30
0.0
  0
POINT
  5
44F1
330
43F1
100
AcDbEntity
  8
DEFPOINTS
 62
     0
100
AcDbPoint
 10
4.872233149735222
 20
-1.570118925780035
 30
0.0
  0
ENDBLK
  5
43F8
330
43F1
100
AcDbEntity
  8
0
100
AcDbBlockEnd
  0
BLOCK
  5
43FF
330
43F9
100
AcDbEntity
  8
0
100
AcDbBlockBegin
  2
*D10
 70
     1
 10
0.0
 20
0.0
 30
0.0
  3
*D10
  1

  0
LINE
  5
44F7
330
43F9
100
AcDbEntity
  8
DIMENSION
 62
     0
370
    -2
100
AcDbLine
 10
4.622231043142177
 20
11.80490933273279
 30
0.0
 11
3.872231043142178
 21
11.80490933273279
 31
0.0
  0
MTEXT
  5
44F8
330
43F9
100
AcDbEntity
  8
DIMENSION
 62
     0
100
AcDbMText
 10
2.45556437647551
 20
11.80490933273279
 30
0.0
 40
0.5
 41
0.0
 71
     5
 72
     1
  1
\A1;13.375
 73
     1
 44
1.0
1001
ACAD
1000
MTEXTBEGIN
1070
    73
1070
     1
1070
    44
1040
1.0
1070
    74
1070
     0
1000
MTEXTEND
  0
POINT
  5
44F9
330
43F9
100
AcDbEntity
  8
DEFPOINTS
 62
     0
100
AcDbPoint
 10
4.872231043142177
 20
11.80490933273279
 30
0.0
  0
POINT
  5
44FA
330
43F9
100
AcDbEntity
  8
DEFPOINTS
 62
     0
100
AcDbPoint
 10
3.872231043142178
 20
11.80490933273279
 30
0.0
  0
POINT
  5
44FB
330
43F9
100
AcDbEntity
  8
DEFPOINTS
 62
     0
100
AcDbPoint
 10
4.872233149735222
 20
-1.570118925780035
 30
0.0
  0
ENDBLK
  5
4400
330
43F9
100
AcDbEntity
  8
0
100
AcDbBlockEnd
  0
BLOCK
  5
4407
330
4401
100
AcDbEntity
  8
0
100
AcDbBlockBegin
  2
*D11
 70
     1
 10
0.0
 20
0.0
 30
0.0
  3
*D11
  1

  0
LINE
  5
44FC
330
4401
100
AcDbEntity
  8
DIMENSION
 62
     0
370
    -2
100
AcDbLine
 10
5.684731043142162
 20
10.74240933273279
 30
0.0
 11
3.872231043142178
 21
10.74240933273279
 31
0.0
  0
MTEXT
  5
44FD
330
4401
100
AcDbEntity
  8
DIMENSION
 62
     0
100
AcDbMText
 10
2.538897709808845
 20
10.74240933273279
 30
0.0
 40
0.5
 41
0.0
 71
     5
 72
     1
  1
\A1;12.313
 73
     1
 44
1.0
1001
ACAD
1000
MTEXTBEGIN
1070
    73
1070
     1
1070
    44
1040
1.0
1070
    74
1070
     0
1000
MTEXTEND
  0
POINT
  5
44FE
330
4401
100
AcDbEntity
  8
DEFPOINTS
 62
     0
100
AcDbPoint
 10
5.934731043142162
 20
10.74240933273279
 30
0.0
  0
POINT
  5
44FF
330
4401
100
AcDbEntity
  8
DEFPOINTS
 62
     0
100
AcDbPoint
 10
3.872231043142178
 20
10.74240933273279
 30
0.0
  0
POINT
  5
4500
330
4401
100
AcDbEntity
  8
DEFPOINTS
 62
     0
100
AcDbPoint
 10
4.872233149735222
 20
-1.570118925780035
 30
0.0
  0
ENDBLK
  5
4408
330
4401
100
AcDbEntity
  8
0
100
AcDbBlockEnd
  0
BLOCK
  5
440F
330
4409
100
AcDbEntity
  8
0
100
AcDbBlockBegin
  2
*D12
 70
     1
 10
0.0
 20
0.0
 30
0.0
  3
*D12
  1

  0
LINE
  5
4524
330
4409
100
AcDbEntity
  8
DIMENSION
 62
     0
370
    -2
100
AcDbLine
 10
5.684731043142178
 20
-0.5075906672672092
 30
0.0
 11
3.872231043142178
 21
-0.5075906672672092
 31
0.0
  0
MTEXT
  5
4525
330
4409
100
AcDbEntity
  8
DIMENSION
 62
     0
100
AcDbMText
 10
2.747231043142178
 20
-0.5075906672672092
 30
0.0
 40
0.5
 41
0.0
 71
     5
 72
     1
  1
\A1;1.063
 73
     1
 44
1.0
1001
ACAD
1000
MTEXTBEGIN
1070
    73
1070
     1
1070
    44
1040
1.0
1070
    74
1070
     0
1000
MTEXTEND
  0
POINT
  5
4526
330
4409
100
AcDbEntity
  8
DEFPOINTS
 62
     0
100
AcDbPoint
 10
5.934731043142178
 20
-0.5075906672672092
 30
0.0
  0
POINT
  5
4527
330
4409
100
AcDbEntity
  8
DEFPOINTS
 62
     0
100
AcDbPoint
 10
3.872231043142178
 20
-0.5075906672672092
 30
0.0
  0
POINT
  5
4528
330
4409
100
AcDbEntity
  8
DEFPOINTS
 62
     0
100
AcDbPoint
 10
4.872233149735222
 20
-1.570118925780035
 30
0.0
  0
ENDBLK
  5
4410
330
4409
100
AcDbEntity
  8
0
100
AcDbBlockEnd
  0
BLOCK
  5
4417
330
4411
100
AcDbEntity
  8
0
100
AcDbBlockBegin
  2
*D13
 70
     1
 10
0.0
 20
0.0
 30
0.0
  3
*D13
  1

  0
LINE
  5
451F
330
4411
100
AcDbEntity
  8
DIMENSION
 62
     0
370
    -2
100
AcDbLine
 10
4.622231043142193
 20
-1.570090667267209
 30
0.0
 11
3.872231043142178
 21
-1.570090667267209
 31
0.0
  0
MTEXT
  5
4520
330
4411
100
AcDbEntity
  8
DIMENSION
 62
     0
100
AcDbMText
 10
2.788897709808844
 20
-1.570090667267209
 30
0.0
 40
0.5
 41
0.0
 71
     5
 72
     1
  1
\A1;0.000
 73
     1
 44
1.0
1001
ACAD
1000
MTEXTBEGIN
1070
    73
1070
     1
1070
    44
1040
1.0
1070
    74
1070
     0
1000
MTEXTEND
  0
POINT
  5
4521
330
4411
100
AcDbEntity
  8
DEFPOINTS
 62
     0
100
AcDbPoint
 10
4.872231043142193
 20
-1.570090667267209
 30
0.0
  0
POINT
  5
4522
330
4411
100
AcDbEntity
  8
DEFPOINTS
 62
     0
100
AcDbPoint
 10
3.872231043142178
 20
-1.570090667267209
 30
0.0
  0
POINT
  5
4523
330
4411
100
AcDbEntity
  8
DEFPOINTS
 62
     0
100
AcDbPoint
 10
4.872233149735222
 20
-1.570118925780035
 30
0.0
  0
ENDBLK
  5
4418
330
4411
100
AcDbEntity
  8
0
100
AcDbBlockEnd
  0
BLOCK
  5
4423
330
4419
100
AcDbEntity
  8
0
100
AcDbBlockBegin
  2
*D14
 70
     1
 10
0.0
 20
0.0
 30
0.0
  3
*D14
  1

  0
LINE
  5
4529
330
4419
100
AcDbEntity
  8
DIMENSION
 62
     0
370
    -2
100
AcDbLine
 10
20.87223104314217
 20
33.24591626473943
 30
0.0
 11
20.87223104314217
 21
35.16586174886441
 31
0.0
  0
LINE
  5
452A
330
4419
100
AcDbEntity
  8
DIMENSION
 62
     0
370
    -2
100
AcDbLine
 10
24.62223104314221
 20
31.59141626473945
 30
0.0
 11
24.62223104314221
 21
35.16586174886441
 31
0.0
  0
LINE
  5
452B
330
4419
100
AcDbEntity
  8
DIMENSION
 62
     0
370
    -2
100
AcDbLine
 10
21.37223104314217
 20
34.98586174886443
 30
0.0
 11
24.12223104314222
 21
34.98586174886443
 31
0.0
  0
MTEXT
  5
452C
330
4419
100
AcDbEntity
  8
DIMENSION
 62
     0
100
AcDbMText
 10
18.66389770980884
 20
34.98586174886443
 30
0.0
 40
0.5
 41
0.0
 71
     5
 72
     1
  1
\A1;4.000 MAX
 73
     1
 44
1.0
1001
ACAD
1000
MTEXTBEGIN
1070
    73
1070
     1
1070
    44
1040
1.0
1070
    74
1070
     0
1000
MTEXTEND
  0
SOLID
  5
452D
330
4419
100
AcDbEntity
  8
DIMENSION
 62
     0
100
AcDbTrace
 10
21.37223104314217
 20
35.06919508219775
 30
0.0
 11
21.37223104314217
 21
34.90252841553108
 31
0.0
 12
20.87223104314217
 22
34.98586174886443
 32
0.0
 13
20.87223104314217
 23
34.98586174886443
 33
0.0
  0
SOLID
  5
452E
330
4419
100
AcDbEntity
  8
DIMENSION
 62
     0
100
AcDbTrace
 10
24.12223104314222
 20
35.06919508219775
 30
0.0
 11
24.12223104314222
 21
34.90252841553108
 31
0.0
 12
24.62223104314221
 22
34.98586174886443
 32
0.0
 13
24.62223104314221
 23
34.98586174886443
 33
0.0
  0
POINT
  5
452F
330
4419
100
AcDbEntity
  8
DEFPOINTS
 62
     0
100
AcDbPoint
 10
20.87223104314217
 20
32.99591626473943
 30
0.0
  0
POINT
  5
4530
330
4419
100
AcDbEntity
  8
DEFPOINTS
 62
     0
100
AcDbPoint
 10
24.62223104314221
 20
31.34141626473945
 30
0.0
  0
POINT
  5
4531
330
4419
100
AcDbEntity
  8
DEFPOINTS
 62
     0
100
AcDbPoint
 10
24.62223104314221
 20
34.98586174886443
 30
0.0
  0
ENDBLK
  5
4424
330
4419
100
AcDbEntity
  8
0
100
AcDbBlockEnd
  0
BLOCK
  5
4430
330
4425
100
AcDbEntity
  8
0
100
AcDbBlockBegin
  2
*D15
 70
     1
 10
0.0
 20
0.0
 30
0.0
  3
*D15
  1

  0
LINE
  5
44C5
330
4425
100
AcDbEntity
  8
DIMENSION
 62
     0
370
    -2
100
AcDbLine
 10
20.24723104314217
 20
33.24591626473943
 30
0.0
 11
20.24723104314217
 21
34.17722442576865
 31
0.0
  0
LINE
  5
44C6
330
4425
100
AcDbEntity
  8
DIMENSION
 62
     0
370
    -2
100
AcDbLine
 10
20.87223104314217
 20
33.24591626473943
 30
0.0
 11
20.87223104314217
 21
34.17722442576865
 31
0.0
  0
LINE
  5
44C7
330
4425
100
AcDbEntity
  8
DIMENSION
 62
     0
370
    -2
100
AcDbLine
 10
19.74723104314217
 20
33.99722442576865
 30
0.0
 11
19.24723104314217
 21
33.99722442576865
 31
0.0
  0
LINE
  5
44C8
330
4425
100
AcDbEntity
  8
DIMENSION
 62
     0
370
    -2
100
AcDbLine
 10
21.37223104314217
 20
33.99722442576865
 30
0.0
 11
21.87223104314217
 21
33.99722442576865
 31
0.0
  0
MTEXT
  5
44C9
330
4425
100
AcDbEntity
  8
DIMENSION
 62
     0
100
AcDbMText
 10
18.03889770980884
 20
33.99722442576865
 30
0.0
 40
0.5
 41
0.0
 71
     5
 72
     1
  1
\A1;0.625
 73
     1
 44
1.0
1001
ACAD
1000
MTEXTBEGIN
1070
    73
1070
     1
1070
    44
1040
1.0
1070
    74
1070
     0
1000
MTEXTEND
  0
SOLID
  5
44CA
330
4425
100
AcDbEntity
  8
DIMENSION
 62
     0
100
AcDbTrace
 10
19.74723104314217
 20
34.08055775910199
 30
0.0
 11
19.74723104314217
 21
33.91389109243532
 31
0.0
 12
20.24723104314217
 22
33.99722442576865
 32
0.0
 13
20.24723104314217
 23
33.99722442576865
 33
0.0
  0
SOLID
  5
44CB
330
4425
100
AcDbEntity
  8
DIMENSION
 62
     0
100
AcDbTrace
 10
21.37223104314217
 20
34.08055775910199
 30
0.0
 11
21.37223104314217
 21
33.91389109243532
 31
0.0
 12
20.87223104314217
 22
33.99722442576865
 32
0.0
 13
20.87223104314217
 23
33.99722442576865
 33
0.0
  0
POINT
  5
44CC
330
4425
100
AcDbEntity
  8
DEFPOINTS
 62
     0
100
AcDbPoint
 10
20.24723104314217
 20
32.99591626473943
 30
0.0
  0
POINT
  5
44CD
330
4425
100
AcDbEntity
  8
DEFPOINTS
 62
     0
100
AcDbPoint
 10
20.87223104314217
 20
32.99591626473943
 30
0.0
  0
POINT
  5
44CE
330
4425
100
AcDbEntity
  8
DEFPOINTS
 62
     0
100
AcDbPoint
 10
20.87223104314217
 20
33.99722442576865
 30
0.0
  0
ENDBLK
  5
4431
330
4425
100
AcDbEntity
  8
0
100
AcDbBlockEnd
  0
BLOCK
  5
443D
330
4432
100
AcDbEntity
  8
0
100
AcDbBlockBegin
  2
*D16
 70
     1
 10
0.0
 20
0.0
 30
0.0
  3
*D16
  1

  0
LINE
  5
44E3
330
4432
100
AcDbEntity
  8
DIMENSION
 62
     0
370
    -2
100
AcDbLine
 10
2.622231043142178
 20
19.62091626473944
 30
0.0
 11
1.192231043142182
 21
19.62091626473944
 31
0.0
  0
LINE
  5
44E4
330
4432
100
AcDbEntity
  8
DIMENSION
 62
     0
370
    -2
100
AcDbLine
 10
2.622231043142164
 20
32.99591626473943
 30
0.0
 11
1.192231043142186
 21
32.99591626473943
 31
0.0
  0
LINE
  5
44E5
330
4432
100
AcDbEntity
  8
DIMENSION
 62
     0
370
    -2
100
AcDbLine
 10
1.372231043142182
 20
20.12091626473944
 30
0.0
 11
1.372231043142184
 21
25.80841626473943
 31
0.0
  0
LINE
  5
44E6
330
4432
100
AcDbEntity
  8
DIMENSION
 62
     0
370
    -2
100
AcDbLine
 10
1.372231043142184
 20
32.49591626473943
 30
0.0
 11
1.372231043142184
 21
26.80841626473943
 31
0.0
  0
MTEXT
  5
44E7
330
4432
100
AcDbEntity
  8
DIMENSION
 62
     0
100
AcDbMText
 10
1.372231043142178
 20
26.30841626473943
 30
0.0
 40
0.5
 41
0.0
 71
     5
 72
     1
  1
\A1;13.375
 73
     1
 44
1.0
1001
ACAD
1000
MTEXTBEGIN
1070
    73
1070
     1
1070
    44
1040
1.0
1070
    74
1070
     0
1000
MTEXTEND
  0
SOLID
  5
44E8
330
4432
100
AcDbEntity
  8
DIMENSION
 62
     0
100
AcDbTrace
 10
1.288897709808848
 20
20.12091626473944
 30
0.0
 11
1.455564376475515
 21
20.12091626473944
 31
0.0
 12
1.372231043142182
 22
19.62091626473944
 32
0.0
 13
1.372231043142182
 23
19.62091626473944
 33
0.0
  0
SOLID
  5
44E9
330
4432
100
AcDbEntity
  8
DIMENSION
 62
     0
100
AcDbTrace
 10
1.288897709808852
 20
32.49591626473943
 30
0.0
 11
1.455564376475518
 21
32.49591626473943
 31
0.0
 12
1.372231043142186
 22
32.99591626473943
 32
0.0
 13
1.372231043142186
 23
32.99591626473943
 33
0.0
  0
POINT
  5
44EA
330
4432
100
AcDbEntity
  8
DEFPOINTS
 62
     0
100
AcDbPoint
 10
2.872231043142178
 20
19.62091626473944
 30
0.0
  0
POINT
  5
44EB
330
4432
100
AcDbEntity
  8
DEFPOINTS
 62
     0
100
AcDbPoint
 10
2.872231043142163
 20
32.99591626473943
 30
0.0
  0
POINT
  5
44EC
330
4432
100
AcDbEntity
  8
DEFPOINTS
 62
     0
100
AcDbPoint
 10
1.372231043142186
 20
32.99591626473943
 30
0.0
  0
ENDBLK
  5
443E
330
4432
100
AcDbEntity
  8
0
100
AcDbBlockEnd
  0
BLOCK
  5
444A
330
443F
100
AcDbEntity
  8
0
100
AcDbBlockBegin
  2
*D17
 70
     1
 10
0.0
 20
0.0
 30
0.0
  3
*D17
  1

  0
LINE
  5
44D9
330
443F
100
AcDbEntity
  8
DIMENSION
 62
     0
370
    -2
100
AcDbLine
 10
2.872231043142163
 20
33.24591626473943
 30
0.0
 11
2.872231043142163
 21
34.17591626473943
 31
0.0
  0
LINE
  5
44DA
330
443F
100
AcDbEntity
  8
DIMENSION
 62
     0
370
    -2
100
AcDbLine
 10
16.24723104314218
 20
33.24591626473943
 30
0.0
 11
16.24723104314218
 21
34.17591626473943
 31
0.0
  0
LINE
  5
44DB
330
443F
100
AcDbEntity
  8
DIMENSION
 62
     0
370
    -2
100
AcDbLine
 10
3.372231043142163
 20
33.99591626473943
 30
0.0
 11
8.143064376475512
 21
33.99591626473943
 31
0.0
  0
LINE
  5
44DC
330
443F
100
AcDbEntity
  8
DIMENSION
 62
     0
370
    -2
100
AcDbLine
 10
15.74723104314218
 20
33.99591626473943
 30
0.0
 11
10.97639770980884
 21
33.99591626473943
 31
0.0
  0
MTEXT
  5
44DD
330
443F
100
AcDbEntity
  8
DIMENSION
 62
     0
100
AcDbMText
 10
9.559731043142178
 20
33.99591626473943
 30
0.0
 40
0.5
 41
0.0
 71
     5
 72
     1
  1
\A1;13.375
 73
     1
 44
1.0
1001
ACAD
1000
MTEXTBEGIN
1070
    73
1070
     1
1070
    44
1040
1.0
1070
    74
1070
     0
1000
MTEXTEND
  0
SOLID
  5
44DE
330
443F
100
AcDbEntity
  8
DIMENSION
 62
     0
100
AcDbTrace
 10
3.372231043142163
 20
34.07924959807277
 30
0.0
 11
3.372231043142163
 21
33.91258293140609
 31
0.0
 12
2.872231043142163
 22
33.99591626473943
 32
0.0
 13
2.872231043142163
 23
33.99591626473943
 33
0.0
  0
SOLID
  5
44DF
330
443F
100
AcDbEntity
  8
DIMENSION
 62
     0
100
AcDbTrace
 10
15.74723104314218
 20
34.07924959807277
 30
0.0
 11
15.74723104314218
 21
33.91258293140609
 31
0.0
 12
16.24723104314218
 22
33.99591626473943
 32
0.0
 13
16.24723104314218
 23
33.99591626473943
 33
0.0
  0
POINT
  5
44E0
330
443F
100
AcDbEntity
  8
DEFPOINTS
 62
     0
100
AcDbPoint
 10
2.872231043142163
 20
32.99591626473943
 30
0.0
  0
POINT
  5
44E1
330
443F
100
AcDbEntity
  8
DEFPOINTS
 62
     0
100
AcDbPoint
 10
16.24723104314218
 20
32.99591626473943
 30
0.0
  0
POINT
  5
44E2
330
443F
100
AcDbEntity
  8
DEFPOINTS
 62
     0
100
AcDbPoint
 10
16.24723104314218
 20
33.99591626473943
 30
0.0
  0
ENDBLK
  5
444B
330
443F
100
AcDbEntity
  8
0
100
AcDbBlockEnd
  0
BLOCK
  5
4541
330
4538
100
AcDbEntity
  8
0
100
AcDbBlockBegin
  2
*D18
 70
     1
 10
0.0
 20
0.0
 30
0.0
  3
*D18
  1

  0
LINE
  5
4539
330
4538
100
AcDbEntity
  8
DIMENSION
 62
     0
370
    -2
100
AcDbLine
 10
8.532888808134391
 20
12.97812916911419
 30
0.0
 11
8.032888808134391
 21
12.97812916911419
 31
0.0
  0
LINE
  5
453A
330
4538
100
AcDbEntity
  8
DIMENSION
 62
     0
370
    -2
100
AcDbLine
 10
8.032888808134391
 20
12.97812916911419
 30
0.0
 11
6.104627053700538
 21
11.45051614643102
 31
0.0
  0
MTEXT
  5
453B
330
4538
100
AcDbEntity
  8
DIMENSION
 62
     0
100
AcDbMText
 10
10.78288880813439
 20
12.97812916911419
 30
0.0
 40
0.5
 41
0.0
 71
     5
 72
     1
  1
\A1;\U+22050.250 (4)
 73
     1
 44
1.0
1001
ACAD
1000
MTEXTBEGIN
1070
    73
1070
     1
1070
    44
1040
1.0
1070
    74
1070
     0
1000
MTEXTEND
  0
SOLID
  5
453C
330
4538
100
AcDbEntity
  8
DIMENSION
 62
     0
100
AcDbTrace
 10
6.052879478540772
 20
11.51583561450547
 30
0.0
 11
6.156374628860302
 21
11.38519667835657
 31
0.0
 12
5.712710245253844
 22
11.14003069547243
 32
0.0
 13
5.712710245253844
 23
11.14003069547243
 33
0.0
  0
LINE
  5
453D
330
4538
100
AcDbEntity
  8
DIMENSION
 62
     0
370
    -2
100
AcDbLine
 10
5.524731043142173
 20
11.06240933273278
 30
0.0
 11
5.704731043142173
 21
11.06240933273278
 31
0.0
  0
LINE
  5
453E
330
4538
100
AcDbEntity
  8
DIMENSION
 62
     0
370
    -2
100
AcDbLine
 10
5.61473104314217
 20
10.97240933273278
 30
0.0
 11
5.61473104314217
 21
11.15240933273278
 31
0.0
  0
POINT
  5
453F
330
4538
100
AcDbEntity
  8
DEFPOINTS
 62
     0
100
AcDbPoint
 10
5.712710245253844
 20
11.14003069547243
 30
0.0
  0
POINT
  5
4540
330
4538
100
AcDbEntity
  8
DEFPOINTS
 62
     0
100
AcDbPoint
 10
5.516751841030497
 20
10.98478796999313
 30
0.0
  0
ENDBLK
  5
4542
330
4538
100
AcDbEntity
  8
0
100
AcDbBlockEnd
  0
BLOCK
  5
4623
330
461D
100
AcDbEntity
  8
0
100
AcDbBlockBegin
  2
*D19
 70
     1
 10
0.0
 20
0.0
 30
0.0
  3
*D19
  1

  0
LINE
  5
461E
330
461D
100
AcDbEntity
  8
DIMENSION
 62
     0
370
    -2
100
AcDbLine
 10
17.75473104314215
 20
11.06240933273278
 30
0.0
 11
19.28498137914366
 21
11.06240933273278
 31
0.0
  0
MTEXT
  5
461F
330
461D
100
AcDbEntity
  8
DIMENSION
 62
     0
100
AcDbMText
 10
20.70164804581033
 20
11.06240933273278
 30
0.0
 40
0.5
 41
0.0
 71
     5
 72
     1
  1
\A1;12.633
 73
     1
 44
1.0
1001
ACAD
1000
MTEXTBEGIN
1070
    73
1070
     1
1070
    44
1040
1.0
1070
    74
1070
     0
1000
MTEXTEND
  0
POINT
  5
4620
330
461D
100
AcDbEntity
  8
DEFPOINTS
 62
     0
100
AcDbPoint
 10
17.50473104314215
 20
11.06240933273278
 30
0.0
  0
POINT
  5
4621
330
461D
100
AcDbEntity
  8
DEFPOINTS
 62
     0
100
AcDbPoint
 10
19.28498137914366
 20
11.06240933273278
 30
0.0
  0
POINT
  5
4622
330
461D
100
AcDbEntity
  8
DEFPOINTS
 62
     0
100
AcDbPoint
 10
0.0
 20
0.0
 30
0.0
  0
ENDBLK
  5
4624
330
461D
100
AcDbEntity
  8
0
100
AcDbBlockEnd
  0
ENDSEC
  0
SECTION
  2
ENTITIES
  0
LINE
  5
39EB
330
40DB
100
AcDbEntity
  8
TEMPLATE
  6
DASHED
100
AcDbLine
 10
4.872231043142177
 20
11.80490933273279
 30
0.0
 11
4.872231043142193
 21
-1.570090667267209
 31
0.0
  0
LINE
  5
39EC
330
40DB
100
AcDbEntity
  8
TEMPLATE
  6
DASHED
100
AcDbLine
 10
4.872231043142193
 20
-1.570090667267209
 30
0.0
 11
18.2472310431422
 21
-1.570090667267209
 31
0.0
  0
LINE
  5
39ED
330
40DB
100
AcDbEntity
  8
TEMPLATE
  6
DASHED
100
AcDbLine
 10
18.2472310431422
 20
-1.570090667267209
 30
0.0
 11
18.24723104314219
 21
11.80490933273279
 31
0.0
  0
LINE
  5
39EE
330
40DB
100
AcDbEntity
  8
TEMPLATE
  6
DASHED
100
AcDbLine
 10
18.24723104314219
 20
11.80490933273279
 30
0.0
 11
4.872231043142177
 21
11.80490933273279
 31
0.0
  0
CIRCLE
  5
39EF
330
40DB
100
AcDbEntity
  8
TEMPLATE
100
AcDbCircle
 10
5.61473104314217
 20
11.06240933273278
 30
0.0
 40
0.125
  0
CIRCLE
  5
39F0
330
40DB
100
AcDbEntity
  8
TEMPLATE
100
AcDbCircle
 10
17.50473104314215
 20
11.06240933273278
 30
0.0
 40
0.125
  0
CIRCLE
  5
39F1
330
40DB
100
AcDbEntity
  8
TEMPLATE
100
AcDbCircle
 10
5.61473104314217
 20
-0.8275906672672022
 30
0.0
 40
0.125
  0
CIRCLE
  5
39F2
330
40DB
100
AcDbEntity
  8
TEMPLATE
100
AcDbCircle
 10
17.5047310431421
 20
-0.8275906672672022
 30
0.0
 40
0.125
  0
LINE
  5
39F3
330
40DB
100
AcDbEntity
  8
TEMPLATE
100
AcDbLine
 10
17.18473104314216
 20
10.74240933273279
 30
0.0
 11
5.934731043142163
 21
10.74240933273279
 31
0.0
  0
LINE
  5
39F4
330
40DB
100
AcDbEntity
  8
TEMPLATE
100
AcDbLine
 10
5.934731043142163
 20
10.74240933273279
 30
0.0
 11
5.934731043142178
 21
-0.5075906672672092
 31
0.0
  0
LINE
  5
39F5
330
40DB
100
AcDbEntity
  8
TEMPLATE
100
AcDbLine
 10
17.18473104314209
 20
-0.5075906672672092
 30
0.0
 11
17.18473104314216
 21
10.74240933273279
 31
0.0
  0
LINE
  5
39F6
330
40DB
100
AcDbEntity
  8
TEMPLATE
100
AcDbLine
 10
5.934731043142178
 20
-0.5075906672672092
 30
0.0
 11
17.18473104314209
 21
-0.5075906672672092
 31
0.0
  0
DIMENSION
  5
3D9D
330
40DB
100
AcDbEntity
  8
DIMENSION
100
AcDbDimension
  2
*D13
 10
4.872233149735222
 20
-1.570118925780035
 30
0.0
 11
2.788897709808844
 21
-1.570090667267209
 31
0.0
 70
    38
 71
     5
 42
0.0000282585128275
  3
STANDARD
100
AcDbOrdinateDimension
 13
4.872231043142193
 23
-1.570090667267209
 33
0.0
 14
3.872231043142178
 24
-1.570090667267209
 34
0.0
1001
ACAD
1000
DSTYLE
1002
{
1070
   271
1070
     3
1002
}
  0
DIMENSION
  5
3DA6
330
40DB
100
AcDbEntity
  8
DIMENSION
100
AcDbDimension
  2
*D12
 10
4.872233149735222
 20
-1.570118925780035
 30
0.0
 11
2.747231043142178
 21
-0.5075906672672092
 31
0.0
 70
    38
 71
     5
 42
1.062528258512827
  3
STANDARD
100
AcDbOrdinateDimension
 13
5.934731043142178
 23
-0.5075906672672092
 33
0.0
 14
3.872231043142178
 24
-0.5075906672672092
 34
0.0
1001
ACAD
1000
DSTYLE
1002
{
1070
   271
1070
     3
1002
}
  0
DIMENSION
  5
3DAF
330
40DB
100
AcDbEntity
  8
DIMENSION
100
AcDbDimension
  2
*D11
 10
4.872233149735222
 20
-1.570118925780035
 30
0.0
 11
2.538897709808845
 21
10.74240933273279
 31
0.0
 70
    38
 71
     5
 42
12.31252825851283
  3
STANDARD
100
AcDbOrdinateDimension
 13
5.934731043142162
 23
10.74240933273279
 33
0.0
 14
3.872231043142178
 24
10.74240933273279
 34
0.0
1001
ACAD
1000
DSTYLE
1002
{
1070
   271
1070
     3
1002
}
  0
DIMENSION
  5
3DB8
330
40DB
100
AcDbEntity
  8
DIMENSION
100
AcDbDimension
  2
*D10
 10
4.872233149735222
 20
-1.570118925780035
 30
0.0
 11
2.45556437647551
 21
11.80490933273279
 31
0.0
 70
    38
 71
     5
 42
13.37502825851283
  3
STANDARD
100
AcDbOrdinateDimension
 13
4.872231043142177
 23
11.80490933273279
 33
0.0
 14
3.872231043142178
 24
11.80490933273279
 34
0.0
1001
ACAD
1000
DSTYLE
1002
{
1070
   271
1070
     3
1002
}
  0
DIMENSION
  5
3DC1
330
40DB
100
AcDbEntity
  8
DIMENSION
100
AcDbDimension
  2
*D9
 10
4.872233149735222
 20
-1.570118925780035
 30
0.0
 11
5.614731043142168
 21
14.01324266606612
 31
0.0
 70
   102
 71
     5
 42
0.742497893406946
  3
STANDARD
100
AcDbOrdinateDimension
 13
5.61473104314217
 23
11.06240933273278
 33
0.0
 14
5.61473104314217
 24
12.80490933273278
 34
0.0
1001
ACAD
1000
DSTYLE
1002
{
1070
   271
1070
     3
1002
}
  0
DIMENSION
  5
3DCA
330
40DB
100
AcDbEntity
  8
DIMENSION
100
AcDbDimension
  2
*D8
 10
4.872233149735222
 20
-1.570118925780035
 30
0.0
 11
17.50473104314214
 21
14.22157599939945
 31
0.0
 70
   102
 71
     5
 42
12.63249789340692
  3
STANDARD
100
AcDbOrdinateDimension
 13
17.50473104314215
 23
11.06240933273278
 33
0.0
 14
17.50473104314215
 24
12.80490933273278
 34
0.0
1001
ACAD
1000
DSTYLE
1002
{
1070
   271
1070
     3
1002
}
  0
DIMENSION
  5
3DDC
330
40DB
100
AcDbEntity
  8
DIMENSION
100
AcDbDimension
  2
*D7
 10
4.872233149735222
 20
-1.570118925780035
 30
0.0
 11
20.45556437647554
 21
-0.827590667267202
 31
0.0
 70
    38
 71
     5
 42
0.7425282585128345
  3
STANDARD
100
AcDbOrdinateDimension
 13
17.5047310431421
 23
-0.827590667267202
 33
0.0
 14
19.2472310431422
 24
-0.827590667267202
 34
0.0
1001
ACAD
1000
DSTYLE
1002
{
1070
   271
1070
     3
1002
}
  0
DIMENSION
  5
3DE5
330
40DB
100
AcDbEntity
  8
DIMENSION
100
AcDbDimension
  2
*D6
 10
4.872233149735222
 20
-1.570118925780035
 30
0.0
 11
5.934731043142178
 21
-3.695090667267208
 31
0.0
 70
   102
 71
     5
 42
1.062497893406955
  3
STANDARD
100
AcDbOrdinateDimension
 13
5.934731043142178
 23
-0.5075906672672092
 33
0.0
 14
5.934731043142178
 24
-2.570090667267209
 34
0.0
1001
ACAD
1000
DSTYLE
1002
{
1070
   271
1070
     3
1002
}
  0
DIMENSION
  5
3DEE
330
40DB
100
AcDbEntity
  8
DIMENSION
100
AcDbDimension
  2
*D5
 10
4.872233149735222
 20
-1.570118925780035
 30
0.0
 11
4.872231043142193
 21
-3.653424000600541
 31
0.0
 70
   102
 71
     5
 42
0.0000021065930298
  3
STANDARD
100
AcDbOrdinateDimension
 13
4.872231043142193
 23
-1.570090667267209
 33
0.0
 14
4.872231043142193
 24
-2.570090667267209
 34
0.0
1001
ACAD
1000
DSTYLE
1002
{
1070
   271
1070
     3
1002
}
  0
DIMENSION
  5
3DF9
330
40DB
100
AcDbEntity
  8
DIMENSION
100
AcDbDimension
  2
*D4
 10
4.872233149735222
 20
-1.570118925780035
 30
0.0
 11
17.18473104314209
 21
-3.903424000600539
 31
0.0
 70
   102
 71
     5
 42
12.31249789340687
  3
STANDARD
100
AcDbOrdinateDimension
 13
17.18473104314209
 23
-0.5075906672672092
 33
0.0
 14
17.18473104314209
 24
-2.570090667267209
 34
0.0
1001
ACAD
1000
DSTYLE
1002
{
1070
   271
1070
     3
1002
}
  0
DIMENSION
  5
3E02
330
40DB
100
AcDbEntity
  8
DIMENSION
100
AcDbDimension
  2
*D3
 10
4.872233149735222
 20
-1.570118925780035
 30
0.0
 11
18.2472310431422
 21
-3.986757333933871
 31
0.0
 70
   102
 71
     5
 42
13.37499789340698
  3
STANDARD
100
AcDbOrdinateDimension
 13
18.2472310431422
 23
-1.570090667267209
 33
0.0
 14
18.2472310431422
 24
-2.570090667267209
 34
0.0
1001
ACAD
1000
DSTYLE
1002
{
1070
   271
1070
     3
1002
}
  0
TEXT
  5
3E0F
330
40DB
100
AcDbEntity
  8
DIMENSION
100
AcDbText
 10
8.143064376475512
 20
15.5549093327328
 30
0.0
 40
0.5
  1
CUTOUT DRAWING
 72
     1
 11
11.55973104314218
 21
15.8049093327328
 31
0.0
100
AcDbText
 73
     2
  0
TEXT
  5
3E10
330
40DB
100
AcDbEntity
  8
DIMENSION
100
AcDbText
 10
7.601397709808847
 20
16.55490933273279
 30
0.0
 40
0.5
  1
IQ800FP, IQ800FP-H
 72
     1
 11
11.55973104314218
 21
16.80490933273279
 31
0.0
100
AcDbText
 73
     2
  0
LINE
  5
4281
330
40DB
100
AcDbEntity
  8
BORDER
100
AcDbLine
 10
7.807913094742591
 20
-9.75759066726718
 30
0.0
 11
-0.3148385282197204
 21
-9.75759066726718
 31
0.0
  0
TEXT
  5
4282
330
40DB
100
AcDbEntity
  8
TEXT
100
AcDbText
 10
-0.0726510282197204
 20
-9.945090667267209
 30
0.0
 40
0.125
  1
0
 72
     1
 11
-0.0414010282197204
 21
-9.882590667267209
 31
0.0
100
AcDbText
 73
     2
  0
LINE
  5
4283
330
40DB
100
AcDbEntity
  8
BORDER
100
AcDbLine
 10
0.2320364717802796
 20
-10.0075906672672
 30
0.0
 11
0.2320364717802796
 21
-9.75759066726718
 31
0.0
  0
TEXT
  5
4284
330
40DB
100
AcDbEntity
  8
TEXT
100
AcDbText
 10
1.991932305113651
 20
-9.945090667267209
 30
0.0
 40
0.125
  1
INITIAL RELEASE
 72
     1
 11
2.846098971780318
 21
-9.882590667267209
 31
0.0
100
AcDbText
 73
     2
  0
TEXT
  5
4285
330
40DB
100
AcDbEntity
  8
TEXT
100
AcDbText
 10
7.017370616594768
 20
-9.945090667267209
 30
0.0
 40
0.125
  1
JJH
 72
     1
 11
7.184037283261435
 21
-9.882590667267209
 31
0.0
100
AcDbText
 73
     2
  0
LINE
  5
4286
330
40DB
100
AcDbEntity
  8
BORDER
100
AcDbLine
 10
6.560161471780279
 20
-10.0075906672672
 30
0.0
 11
6.560161471780279
 21
-9.75759066726718
 31
0.0
  0
TEXT
  5
4287
330
40DB
100
AcDbEntity
  8
TEXT
100
AcDbText
 10
5.624744805113615
 20
-9.945090667267209
 30
0.0
 40
0.125
  1
5-15-08
 72
     1
 11
6.010161471780282
 21
-9.882590667267209
 31
0.0
100
AcDbText
 73
     2
  0
LINE
  5
4288
330
40DB
100
AcDbEntity
  8
BORDER
100
AcDbLine
 10
5.460161471780285
 20
-10.0075906672672
 30
0.0
 11
5.460161471780285
 21
-9.75759066726718
 31
0.0
  0
LINE
  5
4289
330
40DB
100
AcDbEntity
  8
BORDER
100
AcDbLine
 10
7.807913094742591
 20
-10.25759066726722
 30
0.0
 11
-0.3148385282197204
 21
-10.25759066726722
 31
0.0
  0
LINE
  5
428A
330
40DB
100
AcDbEntity
  8
BORDER
100
AcDbLine
 10
7.807913094742591
 20
-10.0075906672672
 30
0.0
 11
-0.3148385282197204
 21
-10.0075906672672
 31
0.0
  0
TEXT
  5
428B
330
40DB
100
AcDbEntity
  8
TEXT
100
AcDbText
 10
-0.2289010282197204
 20
-10.19509066726723
 30
0.0
 40
0.125
  1
REV
 72
     1
 11
-0.0414010282197204
 21
-10.13259066726723
 31
0.0
100
AcDbText
 73
     2
  0
LINE
  5
428C
330
40DB
100
AcDbEntity
  8
BORDER
100
AcDbLine
 10
-0.3148385282197204
 20
-10.50759066726721
 30
0.0
 11
-0.3148385282197204
 21
-9.007590667267098
 31
0.0
  0
LINE
  5
428D
330
40DB
100
AcDbEntity
  8
BORDER
100
AcDbLine
 10
0.2320364717802796
 20
-10.25759066726722
 30
0.0
 11
0.2320364717802796
 21
-10.0075906672672
 31
0.0
  0
TEXT
  5
428E
330
40DB
100
AcDbEntity
  8
TEXT
100
AcDbText
 10
2.221098971780318
 20
-10.19509066726723
 30
0.0
 40
0.125
  1
DESCRIPTION
 72
     1
 11
2.846098971780318
 21
-10.13259066726723
 31
0.0
100
AcDbText
 73
     2
  0
TEXT
  5
428F
330
40DB
100
AcDbEntity
  8
TEXT
100
AcDbText
 10
6.767370616594768
 20
-10.19509066726723
 30
0.0
 40
0.125
  1
CHECKED
 72
     1
 11
7.184037283261435
 21
-10.13259066726723
 31
0.0
100
AcDbText
 73
     2
  0
LINE
  5
4290
330
40DB
100
AcDbEntity
  8
BORDER
100
AcDbLine
 10
6.560161471780279
 20
-10.25759066726722
 30
0.0
 11
6.560161471780279
 21
-10.0075906672672
 31
0.0
  0
TEXT
  5
4291
330
40DB
100
AcDbEntity
  8
TEXT
100
AcDbText
 10
5.780994805113615
 20
-10.19509066726723
 30
0.0
 40
0.125
  1
DATE
 72
     1
 11
6.010161471780282
 21
-10.13259066726723
 31
0.0
100
AcDbText
 73
     2
  0
LINE
  5
4292
330
40DB
100
AcDbEntity
  8
BORDER
100
AcDbLine
 10
5.460161471780285
 20
-10.25759066726722
 30
0.0
 11
5.460161471780285
 21
-10.0075906672672
 31
0.0
  0
LINE
  5
4293
330
40DB
100
AcDbEntity
  8
BORDER
100
AcDbLine
 10
-0.3148385282197204
 20
-10.25759066726722
 30
0.0
 11
7.807913094742591
 21
-10.25759066726722
 31
0.0
  0
LINE
  5
4294
330
40DB
100
AcDbEntity
  8
BORDER
100
AcDbLine
 10
7.807913094742591
 20
-9.75759066726718
 30
0.0
 11
7.807913094742591
 21
-10.50759066726721
 31
0.0
  0
LINE
  5
4295
330
40DB
100
AcDbEntity
  8
BORDER
100
AcDbLine
 10
7.807913094742591
 20
-10.50759066726721
 30
0.0
 11
-0.3148385282197204
 21
-10.50759066726721
 31
0.0
  0
TEXT
  5
4296
330
40DB
100
AcDbEntity
  8
TEXT
100
AcDbText
 10
2.325265638446984
 20
-10.44509066726725
 30
0.0
 40
0.125
  1
REVISIONS
 72
     1
 11
2.846098971780318
 21
-10.38259066726725
 31
0.0
100
AcDbText
 73
     2
  0
TEXT
  5
4297
330
40DB
100
AcDbEntity
  8
TEXT
100
AcDbText
 10
22.92780008480498
 20
-10.39590011767879
 30
0.0
 40
0.3125
  1
0
 72
     1
 11
23.00592508480498
 21
-10.23965011767879
 31
0.0
100
AcDbText
 73
     2
  0
TEXT
  5
4298
330
40DB
100
AcDbEntity
  8
TEXT
100
AcDbText
 10
19.86356971458089
 20
-10.39590011767879
 30
0.0
 40
0.3125
  1
IQ290939
 72
     1
 11
20.98336138124757
 21
-10.23965011767879
 31
0.0
100
AcDbText
 73
     2
  0
TEXT
  5
4299
330
40DB
100
AcDbEntity
  8
TEXT
100
AcDbText
 10
19.69281168276583
 20
-9.760772068090389
 30
0.0
 40
0.3125
  1
IQ800FP/FP-H
 72
     1
 11
21.41156168276583
 21
-9.604522068090389
 31
0.0
100
AcDbText
 73
     2
  0
LINE
  5
429D
330
40DB
100
AcDbEntity
  8
BORDER
100
AcDbLine
 10
19.38917320738926
 20
-9.229522068090378
 30
0.0
 11
23.43430061450408
 21
-9.229522068090378
 31
0.0
  0
LINE
  5
429E
330
40DB
100
AcDbEntity
  8
BORDER
100
AcDbLine
 10
19.38917320738926
 20
-9.854522068090378
 30
0.0
 11
23.43430061450408
 21
-9.854522068090378
 31
0.0
  0
LINE
  5
429F
330
40DB
100
AcDbEntity
  8
BORDER
100
AcDbLine
 10
22.57754955510584
 20
-9.854522068090378
 30
0.0
 11
22.57754955510584
 21
-10.50759066726721
 31
0.0
  0
TEXT
  5
42A0
330
40DB
100
AcDbEntity
  8
TEXT
100
AcDbText
 10
17.44407399320031
 20
-10.41418184510464
 30
0.0
 40
0.15625
  1
SHEET 1 OF 1
 72
     1
 11
18.30344899320031
 21
-10.33605684510464
 31
0.0
100
AcDbText
 73
     2
  0
LINE
  5
42A1
330
40DB
100
AcDbEntity
  8
BORDER
100
AcDbLine
 10
17.20167320738926
 20
-10.16702206809038
 30
0.0
 11
19.38917320738926
 21
-10.16702206809038
 31
0.0
  0
TEXT
  5
42A2
330
40DB
100
AcDbEntity
  8
TEXT
100
AcDbText
 10
17.78761070738926
 20
-10.08637954974157
 30
0.0
 40
0.15625
  1
9-22-09
 72
     1
 11
18.29542320738926
 21
-10.00825454974157
 31
0.0
100
AcDbText
 73
     2
  0
TEXT
  5
42A3
330
40DB
100
AcDbEntity
  8
TEXT
100
AcDbText
 10
17.27979820738926
 20
-9.971709568090378
 30
0.0
 40
0.078125
  1
DATE
100
AcDbText
  0
TEXT
  5
42A4
330
40DB
100
AcDbEntity
  8
TEXT
100
AcDbText
 10
17.57589195738925
 20
-9.826709568090393
 30
0.0
 40
0.1171875
  1
JJH
 72
     1
 11
17.73214195738925
 21
-9.768115818090393
 31
0.0
100
AcDbText
 73
     2
  0
TEXT
  5
42A5
330
40DB
100
AcDbEntity
  8
TEXT
100
AcDbText
 10
17.24698570738925
 20
-9.659209568090378
 30
0.0
 40
0.078125
  1
DRAWN
100
AcDbText
  0
TEXT
  5
42A6
330
40DB
100
AcDbEntity
  8
TEXT
100
AcDbText
 10
18.37354820738926
 20
-9.659209568090378
 30
0.0
 40
0.078125
  1
SCALE
100
AcDbText
  0
TEXT
  5
42A7
330
40DB
100
AcDbEntity
  8
TEXT
100
AcDbText
 10
18.64386070738927
 20
-9.826709568090393
 30
0.0
 40
0.1171875
  1
NONE
 72
     1
 11
18.85870445738927
 21
-9.768115818090393
 31
0.0
100
AcDbText
 73
     2
  0
LINE
  5
42A8
330
40DB
100
AcDbEntity
  8
BORDER
100
AcDbLine
 10
17.20167320738926
 20
-9.542022068090378
 30
0.0
 11
19.38917320738926
 21
-9.542022068090378
 31
0.0
  0
LINE
  5
42A9
330
40DB
100
AcDbEntity
  8
BORDER
100
AcDbLine
 10
17.20167320738926
 20
-9.854522068090378
 30
0.0
 11
19.38917320738926
 21
-9.854522068090378
 31
0.0
  0
LINE
  5
42AA
330
40DB
100
AcDbEntity
  8
BORDER
100
AcDbLine
 10
19.38917320738926
 20
-10.50759066726725
 30
0.0
 11
19.38917320738926
 21
-8.448272068090378
 31
0.0
  0
LWPOLYLINE
  5
4344
330
40DB
100
AcDbEntity
  8
BORDER
100
AcDbPolyline
 90
        4
 70
     1
 43
0.0
 10
-0.3148385282197186
 20
20.74240933273279
 10
23.43430061450409
 20
20.74240933273279
 10
23.43430061450409
 20
-10.50759066726721
 10
-0.3148385282197186
 20
-10.50759066726721
  0
TEXT
  5
4345
330
40DB
100
AcDbEntity
  8
TEXT
100
AcDbText
 10
15.15268536408773
 20
-10.39040316726721
 30
0.0
 40
0.078125
  1
ICE QUBE, INC.
 72
     1
 11
15.61492494742107
 21
-10.35134066726721
 31
0.0
100
AcDbText
 73
     2
  0
TEXT
  5
4346
330
40DB
100
AcDbEntity
  8
TEXT
100
AcDbText
 10
14.28679994742107
 20
-10.27321566726721
 30
0.0
 40
0.078125
  1
OR ALTERED WITHOUT AUTHORIZATION OF
 72
     1
 11
15.61492494742107
 21
-10.23415316726721
 31
0.0
100
AcDbText
 73
     2
  0
TEXT
  5
4347
330
40DB
100
AcDbEntity
  8
TEXT
100
AcDbText
 10
14.22820619742107
 20
-10.15602816726721
 30
0.0
 40
0.078125
  1
QUBE, INC. AND IS NOT TO BE DUPLICATED
 72
     1
 11
15.61492494742107
 21
-10.11696566726721
 31
0.0
100
AcDbText
 73
     2
  0
TEXT
  5
4348
330
40DB
100
AcDbEntity
  8
TEXT
100
AcDbText
 10
14.2998207807544
 20
-10.03884066726721
 30
0.0
 40
0.078125
  1
THIS DRAWING IS THE PROPERTY OF ICE
 72
     1
 11
15.61492494742107
 21
-9.999778167267212
 31
0.0
100
AcDbText
 73
     2
  0
TEXT
  5
4349
330
40DB
100
AcDbEntity
  8
TEXT
100
AcDbText
 10
14.18263328075436
 20
-9.882590667267212
 30
0.0
 40
0.15625
  1
PROPRIETARY DRAWING
 72
     1
 11
15.61492494742103
 21
-9.804465667267212
 31
0.0
100
AcDbText
 73
     2
  0
LINE
  5
434A
330
40DB
100
AcDbEntity
  8
BORDER
100
AcDbLine
 10
17.20167320738926
 20
-10.50759066726721
 30
0.0
 11
14.02817668745284
 21
-10.50759066726721
 31
0.0
  0
LINE
  5
434B
330
40DB
100
AcDbEntity
  8
BORDER
100
AcDbLine
 10
17.20167320738926
 20
-9.542022068090378
 30
0.0
 11
14.05786055593657
 21
-9.542022068090378
 31
0.0
  0
LINE
  5
434C
330
40DB
100
AcDbEntity
  8
BORDER
100
AcDbLine
 10
14.05786055593657
 20
-9.542022068090378
 30
0.0
 11
14.05786055593657
 21
-10.50759066726721
 31
0.0
  0
LINE
  5
434D
330
40DB
100
AcDbEntity
  8
BORDER
100
AcDbLine
 10
17.20167320738926
 20
-10.50759066726721
 30
0.0
 11
17.20167320738926
 21
-9.542022068090375
 31
0.0
  0
LINE
  5
4350
330
40DB
100
AcDbEntity
  8
BORDER
100
AcDbLine
 10
19.38917320738926
 20
-8.448272068090361
 30
0.0
 11
23.43430061450408
 21
-8.448272068090378
 31
0.0
  0
DIMENSION
  5
4537
330
40DB
100
AcDbEntity
  8
DIMENSION
100
AcDbDimension
  2
*D18
 10
5.516751841030497
 20
10.98478796999313
 30
0.0
 11
10.78288880813439
 21
12.97812916911419
 31
0.0
 70
   163
  1
<> (4)
 71
     5
 42
0.25
  3
STANDARD
100
AcDbDiametricDimension
 15
5.712710245253844
 25
11.14003069547243
 35
0.0
 40
0.0
1001
ACAD
1000
DSTYLE
1002
{
1070
   271
1070
     3
1070
   272
1070
     3
1070
   279
1070
     0
1070
   288
1070
     1
1002
}
  0
LINE
  5
45BD
330
40DB
100
AcDbEntity
  8
TEXT
100
AcDbLine
 10
21.18701287163628
 20
-9.0144030158479
 30
0.0
 11
21.18701287163628
 21
-8.81377087845566
 31
0.0
  0
ARC
  5
45BE
330
40DB
100
AcDbEntity
  8
TEXT
100
AcDbCircle
 10
21.35975531707993
 20
-8.98095975108529
 30
0.0
 40
0.0842139256173437
100
AcDbArc
 50
180.0
 51
0.0000000000004071
  0
ARC
  5
45BF
330
40DB
100
AcDbEntity
  8
TEXT
100
AcDbCircle
 10
21.35975531707993
 20
-8.846632720921714
 30
0.0
 40
0.0842139256173437
100
AcDbArc
 50
357.1912576066922
 51
182.8087423933078
  0
LINE
  5
45C0
330
40DB
100
AcDbEntity
  8
TEXT
100
AcDbLine
 10
21.44390963975295
 20
-8.961064369118783
 30
0.0
 11
21.44390963975295
 21
-8.984127596303885
 31
0.0
  0
LINE
  5
45C1
330
40DB
100
AcDbEntity
  8
TEXT
100
AcDbLine
 10
21.33557508101158
 20
-8.934240799505076
 30
0.0
 11
21.33557508101161
 21
-9.003030152068895
 31
0.0
  0
LINE
  5
45C2
330
40DB
100
AcDbEntity
  8
TEXT
100
AcDbLine
 10
21.38387595020395
 20
-8.961064369118783
 30
0.0
 11
21.38387595020395
 21
-9.004726876565449
 31
0.0
  0
LINE
  5
45C3
330
40DB
100
AcDbEntity
  8
TEXT
100
AcDbLine
 10
21.33557508101158
 20
-8.895037234438614
 30
0.0
 11
21.38387595020395
 21
-8.895037234438614
 31
0.0
  0
LINE
  5
45C4
330
40DB
100
AcDbEntity
  8
TEXT
100
AcDbLine
 10
21.38387595020395
 20
-8.961064369118783
 30
0.0
 11
21.44390963975295
 21
-8.961064369118783
 31
0.0
  0
LINE
  5
45C5
330
40DB
100
AcDbEntity
  8
TEXT
100
AcDbLine
 10
21.33557508101158
 20
-8.934240799505069
 30
0.0
 11
21.44390963975295
 21
-8.934240799505069
 31
0.0
  0
ARC
  5
45C6
330
40DB
100
AcDbEntity
  8
TEXT
100
AcDbCircle
 10
21.35975531707993
 20
-9.003030152068895
 30
0.0
 40
0.0241802360683462
100
AcDbArc
 50
179.9999999999984
 51
4.023745172363636
  0
ARC
  5
45C7
330
40DB
100
AcDbEntity
  8
TEXT
100
AcDbCircle
 10
21.35975531707993
 20
-8.825552807967738
 30
0.0
 40
0.0241802360683462
100
AcDbArc
 50
355.9762548274009
 51
180.0
  0
LINE
  5
45C8
330
40DB
100
AcDbEntity
  8
TEXT
100
AcDbLine
 10
20.87496257066958
 20
-9.045989023822521
 30
0.0
 11
20.87496257066958
 21
-9.065173676702638
 31
0.0
  0
LINE
  5
45C9
330
40DB
100
AcDbEntity
  8
TEXT
100
AcDbLine
 10
20.8341330813252
 20
-8.766545460455255
 30
0.0
 11
20.8341330813252
 21
-9.006865637790081
 31
0.0
  0
LINE
  5
45CA
330
40DB
100
AcDbEntity
  8
TEXT
100
AcDbLine
 10
20.774963432196
 20
-8.766545460455237
 30
0.0
 11
20.8341330813252
 21
-8.766545460455237
 31
0.0
  0
LINE
  5
45CB
330
40DB
100
AcDbEntity
  8
TEXT
100
AcDbLine
 10
20.87496257066958
 20
-9.065173676702638
 30
0.0
 11
20.93499626021856
 21
-9.065173676702638
 31
0.0
  0
LINE
  5
45CC
330
40DB
100
AcDbEntity
  8
TEXT
100
AcDbLine
 10
20.774963432196
 20
-8.766545460455255
 30
0.0
 11
20.77496343219598
 21
-9.024100910448744
 31
0.0
  0
LINE
  5
45CD
330
40DB
100
AcDbEntity
  8
TEXT
100
AcDbLine
 10
20.8341330813252
 20
-8.821717322246566
 30
0.0
 11
20.8341330813252
 21
-9.006865637790081
 31
0.0
  0
LINE
  5
45CE
330
40DB
100
AcDbEntity
  8
TEXT
100
AcDbLine
 10
20.87496257066954
 20
-8.766545460455255
 30
0.0
 11
20.87496257066954
 21
-9.006865637790081
 31
0.0
  0
LINE
  5
45CF
330
40DB
100
AcDbEntity
  8
TEXT
100
AcDbLine
 10
20.93499626021856
 20
-8.766545460455255
 30
0.0
 11
20.93499626021856
 21
-9.065173676702638
 31
0.0
  0
LINE
  5
45D0
330
40DB
100
AcDbEntity
  8
TEXT
100
AcDbLine
 10
20.82446098689784
 20
-9.065173676702645
 30
0.0
 11
20.83541148300227
 21
-9.065173676702645
 31
0.0
  0
LINE
  5
45D1
330
40DB
100
AcDbEntity
  8
TEXT
100
AcDbLine
 10
20.87496257066954
 20
-8.766545460455237
 30
0.0
 11
20.93499626021856
 21
-8.766545460455237
 31
0.0
  0
ARC
  5
45D2
330
40DB
100
AcDbEntity
  8
TEXT
100
AcDbCircle
 10
20.85447783167234
 20
-9.006865637790081
 30
0.0
 40
0.0203447503471603
100
AcDbArc
 50
180.0000000000016
 51
359.9999999999984
  0
ARC
  5
45D3
330
40DB
100
AcDbEntity
  8
TEXT
100
AcDbCircle
 10
20.82446098689784
 20
-9.014812081580984
 30
0.0
 40
0.050361595121659
100
AcDbArc
 50
180.0
 51
270.0
  0
ARC
  5
45D4
330
40DB
100
AcDbEntity
  8
TEXT
100
AcDbCircle
 10
20.83541148300227
 20
-9.014812081580984
 30
0.0
 40
0.050361595121659
100
AcDbArc
 50
270.0
 51
321.7523418942988
  0
LINE
  5
45D5
330
40DB
100
AcDbEntity
  8
TEXT
100
AcDbLine
 10
21.12697918208729
 20
-9.006865637790081
 30
0.0
 11
21.12697918208729
 21
-8.821717322246566
 31
0.0
  0
LINE
  5
45D6
330
40DB
100
AcDbEntity
  8
TEXT
100
AcDbLine
 10
21.08614969274291
 20
-9.006865637790081
 30
0.0
 11
21.08614969274291
 21
-8.821717322246566
 31
0.0
  0
LINE
  5
45D7
330
40DB
100
AcDbEntity
  8
TEXT
100
AcDbLine
 10
21.02611600319391
 20
-9.0620374995814
 30
0.0
 11
21.02611600319391
 21
-8.63714692393243
 31
0.0
  0
LINE
  5
45D8
330
40DB
100
AcDbEntity
  8
TEXT
100
AcDbLine
 10
21.07867831289492
 20
-9.0620374995814
 30
0.0
 11
21.07867831289492
 21
-9.035251304886379
 31
0.0
  0
LINE
  5
45D9
330
40DB
100
AcDbEntity
  8
TEXT
100
AcDbLine
 10
21.13665127651461
 20
-8.763409283333988
 30
0.0
 11
21.12570078041018
 21
-8.763409283333988
 31
0.0
  0
LINE
  5
45DA
330
40DB
100
AcDbEntity
  8
TEXT
100
AcDbLine
 10
21.07867831289492
 20
-9.0620374995814
 30
0.0
 11
21.02611600319391
 21
-9.0620374995814
 31
0.0
  0
ARC
  5
45DB
330
40DB
100
AcDbEntity
  8
TEXT
100
AcDbCircle
 10
21.10663443174011
 20
-9.006865637790081
 30
0.0
 40
0.0203447503471603
100
AcDbArc
 50
180.0
 51
0.0
  0
ARC
  5
45DC
330
40DB
100
AcDbEntity
  8
TEXT
100
AcDbCircle
 10
21.10663443174011
 20
-8.821717322246556
 30
0.0
 40
0.0203447503471603
100
AcDbArc
 50
0.0000000000016284
 51
179.9999999999984
  0
ARC
  5
45DD
330
40DB
100
AcDbEntity
  8
TEXT
100
AcDbCircle
 10
21.13281579079344
 20
-9.0144030158479
 30
0.0
 40
0.054197080842845
100
AcDbArc
 50
202.6235962336631
 51
0.0
  0
LINE
  5
45DE
330
40DB
100
AcDbEntity
  8
TEXT
100
AcDbLine
 10
21.08614969274291
 20
-8.782593936214105
 30
0.0
 11
21.08614969274291
 21
-8.637146923932409
 31
0.0
  0
LINE
  5
45DF
330
40DB
100
AcDbEntity
  8
TEXT
100
AcDbLine
 10
21.08278907377088
 20
-9.035251304886379
 30
0.0
 11
21.07867831289492
 21
-9.035251304886379
 31
0.0
  0
ARC
  5
45E0
330
40DB
100
AcDbEntity
  8
TEXT
100
AcDbCircle
 10
21.13665127651461
 20
-8.813770878455645
 30
0.0
 40
0.050361595121659
100
AcDbArc
 50
0.0
 51
90.0
  0
ARC
  5
45E1
330
40DB
100
AcDbEntity
  8
TEXT
100
AcDbCircle
 10
21.12570078041018
 20
-8.813770878455645
 30
0.0
 40
0.050361595121659
100
AcDbArc
 50
90.0
 51
141.7523418942986
  0
LINE
  5
45E2
330
40DB
100
AcDbEntity
  8
TEXT
100
AcDbLine
 10
20.20180239470325
 20
-8.93737378441218
 30
0.0
 11
20.20180239470325
 21
-8.979792429344069
 31
0.0
  0
LINE
  5
45E3
330
40DB
100
AcDbEntity
  8
TEXT
100
AcDbLine
 10
20.14176870515425
 20
-8.93737378441218
 30
0.0
 11
20.14176870515425
 21
-8.979792429344069
 31
0.0
  0
LINE
  5
45E4
330
40DB
100
AcDbEntity
  8
TEXT
100
AcDbLine
 10
20.20180239470325
 20
-8.93737378441218
 30
0.0
 11
20.14176870515425
 21
-8.93737378441218
 31
0.0
  0
LINE
  5
45E5
330
40DB
100
AcDbEntity
  8
TEXT
100
AcDbLine
 10
20.20180239470325
 20
-8.757483399598946
 30
0.0
 11
20.14176870515425
 21
-8.757483399598946
 31
0.0
  0
ARC
  5
45E6
330
40DB
100
AcDbEntity
  8
TEXT
100
AcDbCircle
 10
20.5822504048095
 20
-9.014812081580984
 30
0.0
 40
0.050361595121659
100
AcDbArc
 50
270.0
 51
321.7523418942988
  0
ARC
  5
45E7
330
40DB
100
AcDbEntity
  8
TEXT
100
AcDbCircle
 10
20.57129990870509
 20
-9.014812081580984
 30
0.0
 40
0.050361595121659
100
AcDbArc
 50
180.0
 51
270.0
  0
LINE
  5
45E8
330
40DB
100
AcDbEntity
  8
TEXT
100
AcDbLine
 10
20.62516211144882
 20
-8.79333165515025
 30
0.0
 11
20.6292728723248
 21
-8.79333165515025
 31
0.0
  0
LINE
  5
45E9
330
40DB
100
AcDbEntity
  8
TEXT
100
AcDbLine
 10
20.62180149247681
 20
-9.045989023822521
 30
0.0
 11
20.62180149247681
 21
-9.164158861870458
 31
0.0
  0
ARC
  5
45EA
330
40DB
100
AcDbEntity
  8
TEXT
100
AcDbCircle
 10
20.57513539442627
 20
-8.814179944188733
 30
0.0
 40
0.054197080842845
100
AcDbArc
 50
22.62359623366325
 51
180.0
  0
LINE
  5
45EB
330
40DB
100
AcDbEntity
  8
TEXT
100
AcDbLine
 10
21.02611600319391
 20
-8.637146923932409
 30
0.0
 11
21.08614969274291
 21
-8.637146923932409
 31
0.0
  0
ARC
  5
45EC
330
40DB
100
AcDbEntity
  8
TEXT
100
AcDbCircle
 10
20.60131675347959
 20
-9.006865637790081
 30
0.0
 40
0.0203447503471603
100
AcDbArc
 50
180.0000000000016
 51
359.9999999999984
  0
ARC
  5
45ED
330
40DB
100
AcDbEntity
  8
TEXT
100
AcDbCircle
 10
20.60131675347959
 20
-8.821717322246556
 30
0.0
 40
0.0203447503471603
100
AcDbArc
 50
0.0
 51
180.0
  0
LINE
  5
45EE
330
40DB
100
AcDbEntity
  8
TEXT
100
AcDbLine
 10
20.62180149247681
 20
-9.164158861870458
 30
0.0
 11
20.6818351820258
 21
-9.164158861870458
 31
0.0
  0
LINE
  5
45EF
330
40DB
100
AcDbEntity
  8
TEXT
100
AcDbLine
 10
20.6292728723248
 20
-8.766545460455237
 30
0.0
 11
20.6818351820258
 21
-8.766545460455237
 31
0.0
  0
LINE
  5
45F0
330
40DB
100
AcDbEntity
  8
TEXT
100
AcDbLine
 10
20.44435734372384
 20
-8.688155344451779
 30
0.0
 11
20.44435734372384
 21
-8.637146923932409
 31
0.0
  0
LINE
  5
45F1
330
40DB
100
AcDbEntity
  8
TEXT
100
AcDbLine
 10
20.34375771370565
 20
-8.869198879019908
 30
0.0
 11
20.34375771370565
 21
-9.014145040585994
 31
0.0
  0
LINE
  5
45F2
330
40DB
100
AcDbEntity
  8
TEXT
100
AcDbLine
 10
20.43701989277895
 20
-8.869198879019894
 30
0.0
 11
20.43701989277895
 21
-8.818190458500531
 31
0.0
  0
LINE
  5
45F3
330
40DB
100
AcDbEntity
  8
TEXT
100
AcDbLine
 10
20.44435734372384
 20
-9.065173676702638
 30
0.0
 11
20.44435734372384
 21
-9.014145040585994
 31
0.0
  0
LINE
  5
45F4
330
40DB
100
AcDbEntity
  8
TEXT
100
AcDbLine
 10
20.34375771370565
 20
-8.869198879019894
 30
0.0
 11
20.43701989277895
 21
-8.869198879019894
 31
0.0
  0
LINE
  5
45F5
330
40DB
100
AcDbEntity
  8
TEXT
100
AcDbLine
 10
20.34375771370567
 20
-8.818190458500531
 30
0.0
 11
20.43701989277895
 21
-8.818190458500531
 31
0.0
  0
ARC
  5
45F6
330
40DB
100
AcDbEntity
  8
TEXT
100
AcDbCircle
 10
20.10727527525977
 20
-8.979792429344069
 30
0.0
 40
0.0943863007909238
100
AcDbArc
 50
180.0
 51
0.0
  0
ARC
  5
45F7
330
40DB
100
AcDbEntity
  8
TEXT
100
AcDbCircle
 10
20.10727527525977
 20
-8.722507955693696
 30
0.0
 40
0.0943863007909238
100
AcDbArc
 50
0.0
 51
180.0
  0
LINE
  5
45F8
330
40DB
100
AcDbEntity
  8
TEXT
100
AcDbLine
 10
20.57129990870509
 20
-9.065173676702645
 30
0.0
 11
20.5822504048095
 21
-9.065173676702645
 31
0.0
  0
LINE
  5
45F9
330
40DB
100
AcDbEntity
  8
TEXT
100
AcDbLine
 10
20.28372402415664
 20
-8.637146923932409
 30
0.0
 11
20.44435734372384
 21
-8.637146923932409
 31
0.0
  0
LINE
  5
45FA
330
40DB
100
AcDbEntity
  8
TEXT
100
AcDbLine
 10
20.34375771370565
 20
-8.688155344451779
 30
0.0
 11
20.44435734372384
 21
-8.688155344451779
 31
0.0
  0
LINE
  5
45FB
330
40DB
100
AcDbEntity
  8
TEXT
100
AcDbLine
 10
20.34375771370565
 20
-9.014145040585994
 30
0.0
 11
20.44435734372384
 21
-9.014145040585994
 31
0.0
  0
LINE
  5
45FC
330
40DB
100
AcDbEntity
  8
TEXT
100
AcDbLine
 10
20.28372402415664
 20
-9.065173676702638
 30
0.0
 11
20.44435734372384
 21
-9.065173676702638
 31
0.0
  0
ARC
  5
45FD
330
40DB
100
AcDbEntity
  8
TEXT
100
AcDbCircle
 10
20.10727527525977
 20
-8.979792429344069
 30
0.0
 40
0.0343526112419264
100
AcDbArc
 50
180.0
 51
0.0
  0
ARC
  5
45FE
330
40DB
100
AcDbEntity
  8
TEXT
100
AcDbCircle
 10
20.10727527525977
 20
-8.722507955693696
 30
0.0
 40
0.0343526112419264
100
AcDbArc
 50
0.0
 51
180.0
  0
LINE
  5
45FF
330
40DB
100
AcDbEntity
  8
TEXT
100
AcDbLine
 10
21.44390963975295
 20
-8.84346487570307
 30
0.0
 11
21.44390963975295
 21
-8.934240799505069
 31
0.0
  0
LINE
  5
4600
330
40DB
100
AcDbEntity
  8
TEXT
100
AcDbLine
 10
21.38387595020395
 20
-8.823856083471085
 30
0.0
 11
21.38387595020395
 21
-8.895037234438614
 31
0.0
  0
LINE
  5
4601
330
40DB
100
AcDbEntity
  8
TEXT
100
AcDbLine
 10
21.33557508101158
 20
-8.825552807967738
 30
0.0
 11
21.33557508101158
 21
-8.895037234438614
 31
0.0
  0
LINE
  5
4602
330
40DB
100
AcDbEntity
  8
TEXT
100
AcDbLine
 10
21.27554139146262
 20
-8.846632720921736
 30
0.0
 11
21.27554139146262
 21
-8.98095975108529
 31
0.0
  0
LINE
  5
4603
330
40DB
100
AcDbEntity
  8
TEXT
100
AcDbLine
 10
20.6292728723248
 20
-8.766545460455237
 30
0.0
 11
20.6292728723248
 21
-8.79333165515025
 31
0.0
  0
LINE
  5
4604
330
40DB
100
AcDbEntity
  8
TEXT
100
AcDbLine
 10
20.6818351820258
 20
-8.766545460455255
 30
0.0
 11
20.6818351820258
 21
-9.164158861870458
 31
0.0
  0
LINE
  5
4605
330
40DB
100
AcDbEntity
  8
TEXT
100
AcDbLine
 10
20.62180149247681
 20
-8.821717322246566
 30
0.0
 11
20.62180149247681
 21
-9.006865637790081
 31
0.0
  0
LINE
  5
4606
330
40DB
100
AcDbEntity
  8
TEXT
100
AcDbLine
 10
20.58097200313243
 20
-8.821717322246566
 30
0.0
 11
20.58097200313243
 21
-9.006865637790081
 31
0.0
  0
LINE
  5
4607
330
40DB
100
AcDbEntity
  8
TEXT
100
AcDbLine
 10
20.52093831358343
 20
-8.814179944188751
 30
0.0
 11
20.52093831358343
 21
-9.014812081580984
 31
0.0
  0
LINE
  5
4608
330
40DB
100
AcDbEntity
  8
TEXT
100
AcDbLine
 10
20.34375771370565
 20
-8.688155344451779
 30
0.0
 11
20.34375771370567
 21
-8.818190458500531
 31
0.0
  0
LINE
  5
4609
330
40DB
100
AcDbEntity
  8
TEXT
100
AcDbLine
 10
20.28372402415664
 20
-8.63714692393243
 30
0.0
 11
20.28372402415664
 21
-9.065173676702638
 31
0.0
  0
LINE
  5
460A
330
40DB
100
AcDbEntity
  8
TEXT
100
AcDbLine
 10
20.14176870515425
 20
-8.722507955693696
 30
0.0
 11
20.14176870515425
 21
-8.757483399598946
 31
0.0
  0
LINE
  5
460B
330
40DB
100
AcDbEntity
  8
TEXT
100
AcDbLine
 10
20.20180239470325
 20
-8.722507955693696
 30
0.0
 11
20.20180239470325
 21
-8.757483399598946
 31
0.0
  0
LINE
  5
460C
330
40DB
100
AcDbEntity
  8
TEXT
100
AcDbLine
 10
20.07292266401786
 20
-8.722507955693718
 30
0.0
 11
20.07292266401786
 21
-8.979792429344069
 31
0.0
  0
LINE
  5
460D
330
40DB
100
AcDbEntity
  8
TEXT
100
AcDbLine
 10
20.01288897446885
 20
-8.722507955693718
 30
0.0
 11
20.01288897446885
 21
-8.979792429344069
 31
0.0
  0
LINE
  5
460E
330
40DB
100
AcDbEntity
  8
TEXT
100
AcDbLine
 10
19.92162789567777
 20
-8.63714692393243
 30
0.0
 11
19.92162789567777
 21
-9.065173676702638
 31
0.0
  0
LINE
  5
460F
330
40DB
100
AcDbEntity
  8
TEXT
100
AcDbLine
 10
19.86159420612877
 20
-8.63714692393243
 30
0.0
 11
19.86159420612877
 21
-9.065173676702638
 31
0.0
  0
LINE
  5
4610
330
40DB
100
AcDbEntity
  8
TEXT
100
AcDbLine
 10
19.86159420612877
 20
-9.065173676702638
 30
0.0
 11
19.92162789567777
 21
-9.065173676702638
 31
0.0
  0
LINE
  5
4611
330
40DB
100
AcDbEntity
  8
TEXT
100
AcDbLine
 10
19.86159420612877
 20
-8.637146923932409
 30
0.0
 11
19.92162789567777
 21
-8.637146923932409
 31
0.0
  0
TEXT
  5
4612
330
40DB
100
AcDbEntity
  8
TEXT
100
AcDbText
 10
22.01680003790255
 20
-9.154542148921668
 30
0.0
 40
0.0535210851462622
  1
FAX  724-837-3386
 72
     1
 11
22.46280908078807
 21
-9.127781606348538
 31
0.0
100
AcDbText
 73
     2
  0
TEXT
  5
4613
330
40DB
100
AcDbEntity
  8
TEXT
100
AcDbText
 10
22.02572021876026
 20
-8.726373467751558
 30
0.0
 40
0.0535210851462622
  1
141 WILSON AVENUE
 72
     1
 11
22.46280908078807
 21
-8.699612925178428
 31
0.0
100
AcDbText
 73
     2
  0
TEXT
  5
4614
330
40DB
100
AcDbEntity
  8
TEXT
100
AcDbText
 10
21.94543859104086
 20
-8.869096361474925
 30
0.0
 40
0.0535210851462622
  1
GREENSBURG, PA  15601
 72
     1
 11
22.46280908078807
 21
-8.842335818901794
 31
0.0
100
AcDbText
 73
     2
  0
TEXT
  5
4615
330
40DB
100
AcDbEntity
  8
TEXT
100
AcDbText
 10
21.75811479302895
 20
-8.590786718714371
 30
0.0
 40
0.0535210851462622
  1
INDUSTRIAL COOLING EQUIPMENT
 72
     1
 11
22.46280908078807
 21
-8.56402617614124
 31
0.0
100
AcDbText
 73
     2
  0
TEXT
  5
4616
330
40DB
100
AcDbEntity
  8
TEXT
100
AcDbText
 10
21.65553271316528
 20
-9.011819255198302
 30
0.0
 40
0.0535210851462622
  1
724-837-2204  *  1-888-867-8234
 72
     1
 11
22.46280908078807
 21
-8.985058712625171
 31
0.0
100
AcDbText
 73
     2
  0
DIMENSION
  5
461C
330
40DB
100
AcDbEntity
  8
DIMENSION
100
AcDbDimension
  2
*D19
 10
0.0
 20
0.0
 30
0.0
 11
20.70164804581033
 21
11.06240933273278
 31
0.0
 70
    38
  1
12.633
 71
     5
 42
11.06240933273278
  3
STANDARD
100
AcDbOrdinateDimension
 13
17.50473104314215
 23
11.06240933273278
 33
0.0
 14
19.28498137914366
 24
11.06240933273278
 34
0.0
1001
ACAD
1000
DSTYLE
1002
{
1070
   271
1070
     3
1070
   272
1070
     3
1070
   279
1070
     0
1002
}
  0
ENDSEC
  0
SECTION
  2
OBJECTS
  0
DICTIONARY
  5
40C7
330
0
100
AcDbDictionary
281
     1
  3
ACAD_COLOR
350
40D6
  3
ACAD_GROUP
350
40C8
  3
ACAD_LAYOUT
350
40D4
  3
ACAD_MATERIAL
350
40D5
  3
ACAD_MLINESTYLE
350
40D1
  3
ACAD_PLOTSETTINGS
350
40D3
  3
ACAD_PLOTSTYLENAME
350
40C9
  3
ACDBHEADERROUNDTRIPXREC
350
4649
  3
AcDbVariableDictionary
350
4625
  3
ASE_INDEX_DICTIONARY
350
4551
  3
DWGPROPS
350
4648
  0
DICTIONARY
  5
4143
330
40BD
100
AcDbDictionary
280
     1
281
     1
  3
ACAD_LAYERFILTERS
360
44CF
  3
ACAD_LAYERSTATES
360
4144
  0
DICTIONARY
  5
40D6
102
{ACAD_REACTORS
330
40C7
102
}
330
40C7
100
AcDbDictionary
281
     1
  0
DICTIONARY
  5
40C8
102
{ACAD_REACTORS
330
40C7
102
}
330
40C7
100
AcDbDictionary
281
     1
  0
DICTIONARY
  5
40D4
102
{ACAD_REACTORS
330
40C7
102
}
330
40C7
100
AcDbDictionary
281
     1
  3
Layout1
350
40DA
  3
Model
350
40DE
  0
DICTIONARY
  5
40D5
102
{ACAD_REACTORS
330
40C7
102
}
330
40C7
100
AcDbDictionary
281
     1
  0
DICTIONARY
  5
40D1
102
{ACAD_REACTORS
330
40C7
102
}
330
40C7
100
AcDbDictionary
281
     1
  3
Standard
350
40D2
  0
DICTIONARY
  5
40D3
102
{ACAD_REACTORS
330
40C7
102
}
330
40C7
100
AcDbDictionary
281
     1
  0
ACDBDICTIONARYWDFLT
  5
40C9
102
{ACAD_REACTORS
330
40C7
102
}
330
40C7
100
AcDbDictionary
281
     1
  3
Normal
350
40CA
100
AcDbDictionaryWithDefault
340
40CA
  0
DICTIONARY
  5
4649
102
{ACAD_REACTORS
330
40C7
102
}
330
40C7
100
AcDbDictionary
281
     1
  3
COLORDICT
350
464B
  3
MATERIALDICT
350
464A
  0
DICTIONARY
  5
4625
102
{ACAD_REACTORS
330
40C7
102
}
330
40C7
100
AcDbDictionary
281
     1
  3
DIMASSOC
350
4626
  3
PROJECTNAME
350
4627
  0
DICTIONARY
  5
4551
102
{ACAD_REACTORS
330
40C7
102
}
330
40C7
100
AcDbDictionary
281
     1
  3
ASEBlockHierarchyIndexRecord
350
4553
1001
DCO15
1040
1629696988.246
  0
XRECORD
  5
4648
102
{ACAD_REACTORS
330
40C7
102
}
330
40C7
100
AcDbXrecord
280
     1
  1
DWGPROPS COOKIE
  2

  3

  4

  6

  7

  8

  9

300
=
301
=
302
=
303
=
304
=
305
=
306
=
307
=
308
=
309
=
 40
3.009330300925925
 41
2452348.698902431
 42
2455097.572648183
  1

 90
        0
  0
DICTIONARY
  5
44CF
102
{ACAD_REACTORS
330
4143
102
}
330
4143
100
AcDbDictionary
281
     1
  0
DICTIONARY
  5
4144
102
{ACAD_REACTORS
330
4143
102
}
330
4143
100
AcDbDictionary
281
     1
  0
LAYOUT
  5
40DA
102
{ACAD_XDICTIONARY
360
464C
102
}
102
{ACAD_REACTORS
330
40D4
102
}
330
40D4
100
AcDbPlotSettings
  1

  2
Lexmark Z22-Z32 Color Jetprinter
  4

  6

 40
0.0
 41
0.0
 42
0.0
 43
0.0
 44
0.0
 45
0.0
 46
0.0
 47
0.0
 48
0.0
 49
0.0
140
0.0
141
0.0
142
1.0
143
1.0
 70
   688
 72
     0
 73
     0
 74
     5
  7
monochrome.ctb
 75
    16
147
1.0
148
0.0
149
0.0
100
AcDbLayout
  1
Layout1
 70
     1
 71
     1
 10
0.0
 20
0.0
 11
12.0
 21
9.0
 12
0.0
 22
0.0
 32
0.0
 14
1.000000000000000E+20
 24
1.000000000000000E+20
 34
1.000000000000000E+20
 15
-1.000000000000000E+20
 25
-1.000000000000000E+20
 35
-1.000000000000000E+20
146
0.0
 13
0.0
 23
0.0
 33
0.0
 16
1.0
 26
0.0
 36
0.0
 17
0.0
 27
1.0
 37
0.0
 76
     0
330
40D7
  0
LAYOUT
  5
40DE
102
{ACAD_XDICTIONARY
360
464E
102
}
102
{ACAD_REACTORS
330
40D4
102
}
330
40D4
100
AcDbPlotSettings
  1

  2
HP Deskjet 6500 Series
  4
Letter
  6

 40
3.96875
 41
3.799404859542846
 42
3.96875
 43
3.17498779296875
 44
215.8999938964844
 45
279.3999938964844
 46
14.732
 47
0.0
 48
25.28795117651913
 49
-5.935792555148394
140
39.45867542469946
141
15.70717619669508
142
1.0
143
2.017913895708018
 70
 11956
 72
     0
 73
     0
 74
     4
  7
monochrome.ctb
 75
     0
147
0.4955612834258882
148
-642.3139598835859
149
150.7691309007692
100
AcDbLayout
  1
Model
 70
     1
 71
     0
 10
0.0
 20
0.0
 11
12.0
 21
9.0
 12
0.0
 22
0.0
 32
0.0
 14
0.0
 24
0.0
 34
0.0
 15
0.0
 25
0.0
 35
0.0
146
0.0
 13
0.0
 23
0.0
 33
0.0
 16
1.0
 26
0.0
 36
0.0
 17
0.0
 27
1.0
 37
0.0
 76
     0
330
40DB
  0
MLINESTYLE
  5
40D2
102
{ACAD_REACTORS
330
40D1
102
}
330
40D1
100
AcDbMlineStyle
  2
STANDARD
 70
     0
  3

 62
   256
 51
90.0
 52
90.0
 71
     2
 49
0.5
 62
   256
  6
BYLAYER
 49
-0.5
 62
   256
  6
BYLAYER
  0
ACDBPLACEHOLDER
  5
40CA
102
{ACAD_REACTORS
330
40C9
102
}
330
40C9
  0
XRECORD
  5
464B
102
{ACAD_REACTORS
330
4649
102
}
330
4649
100
AcDbXrecord
280
     1
340
40D6
  0
XRECORD
  5
464A
102
{ACAD_REACTORS
330
4649
102
}
330
4649
100
AcDbXrecord
280
     1
340
40D5
  0
DICTIONARYVAR
  5
4626
102
{ACAD_REACTORS
330
4625
102
}
330
4625
100
DictionaryVariables
280
     0
  1
1
  0
DICTIONARYVAR
  5
4627
102
{ACAD_REACTORS
330
4625
102
}
330
4625
100
DictionaryVariables
280
     0
  1

  0
XRECORD
  5
4553
102
{ACAD_REACTORS
330
4551
102
}
330
4551
100
AcDbXrecord
280
     1
  0
DICTIONARY
  5
464C
330
40DA
100
AcDbDictionary
280
     1
281
     1
  3
ACAD_XREC_ROUNDTRIP
360
464D
  0
DICTIONARY
  5
464E
330
40DE
100
AcDbDictionary
280
     1
281
     1
  3
ACAD_XREC_ROUNDTRIP
360
464F
  0
XRECORD
  5
464D
102
{ACAD_REACTORS
330
464C
102
}
330
464C
100
AcDbXrecord
280
     1
102
SHADEPLOT
 70
     0
102
SHADEPLOTRESLEVEL
 70
     2
102
SHADEPLOTCUSTOMDPI
 70
   300
  0
XRECORD
  5
464F
102
{ACAD_REACTORS
330
464E
102
}
330
464E
100
AcDbXrecord
280
     1
102
SHADEPLOT
 70
     0
102
SHADEPLOTRESLEVEL
 70
     2
102
SHADEPLOTCUSTOMDPI
 70
   300
  0
ENDSEC
  0
EOF
