  0
SECTION
  2
HEADER
  9
$ACADVER
  1
AC1015
  9
$ACADMAINTVER
 70
    20
  9
$DWGCODEPAGE
  3
ANSI_1252
  9
$INSBASE
 10
0.0
 20
0.0
 30
0.0
  9
$EXTMIN
 10
-48.27352018830277
 20
-110.0818356057623
 30
0.0
  9
$EXTMAX
 10
85.19388655431891
 20
-29.22706107981282
 30
0.0
  9
$LIMMIN
 10
0.0
 20
0.0
  9
$LIMMAX
 10
12.0
 20
9.0
  9
$ORTHOMODE
 70
     0
  9
$REGENMODE
 70
     1
  9
$FILLMODE
 70
     1
  9
$QTEXTMODE
 70
     0
  9
$MIRRTEXT
 70
     0
  9
$LTSCALE
 40
1.0
  9
$ATTMODE
 70
     1
  9
$TEXTSIZE
 40
0.2
  9
$TRACEWID
 40
0.05
  9
$TEXTSTYLE
  7
Standard
  9
$CLAYER
  8
0
  9
$CELTYPE
  6
ByLayer
  9
$CECOLOR
 62
   256
  9
$CELTSCALE
 40
1.0
  9
$DISPSILH
 70
     0
  9
$DIMSCALE
 40
1.0
  9
$DIMASZ
 40
1.0
  9
$DIMEXO
 40
0.2
  9
$DIMDLI
 40
0.38
  9
$DIMRND
 40
0.0
  9
$DIMDLE
 40
0.0
  9
$DIMEXE
 40
0.18
  9
$DIMTP
 40
0.0
  9
$DIMTM
 40
0.0
  9
$DIMTXT
 40
1.0
  9
$DIMCEN
 40
0.09
  9
$DIMTSZ
 40
0.0
  9
$DIMTOL
 70
     0
  9
$DIMLIM
 70
     0
  9
$DIMTIH
 70
     1
  9
$DIMTOH
 70
     1
  9
$DIMSE1
 70
     0
  9
$DIMSE2
 70
     0
  9
$DIMTAD
 70
     0
  9
$DIMZIN
 70
     0
  9
$DIMBLK
  1

  9
$DIMASO
 70
     1
  9
$DIMSHO
 70
     1
  9
$DIMPOST
  1

  9
$DIMAPOST
  1

  9
$DIMALT
 70
     0
  9
$DIMALTD
 70
     2
  9
$DIMALTF
 40
25.4
  9
$DIMLFAC
 40
1.0
  9
$DIMTOFL
 70
     0
  9
$DIMTVP
 40
0.0
  9
$DIMTIX
 70
     0
  9
$DIMSOXD
 70
     0
  9
$DIMSAH
 70
     0
  9
$DIMBLK1
  1

  9
$DIMBLK2
  1

  9
$DIMSTYLE
  2
Standard
  9
$DIMCLRD
 70
     0
  9
$DIMCLRE
 70
     0
  9
$DIMCLRT
 70
     0
  9
$DIMTFAC
 40
1.0
  9
$DIMGAP
 40
0.09
  9
$DIMJUST
 70
     0
  9
$DIMSD1
 70
     0
  9
$DIMSD2
 70
     0
  9
$DIMTOLJ
 70
     1
  9
$DIMTZIN
 70
     0
  9
$DIMALTZ
 70
     0
  9
$DIMALTTZ
 70
     0
  9
$DIMUPT
 70
     0
  9
$DIMDEC
 70
     3
  9
$DIMTDEC
 70
     3
  9
$DIMALTU
 70
     2
  9
$DIMALTTD
 70
     2
  9
$DIMTXSTY
  7
Standard
  9
$DIMAUNIT
 70
     0
  9
$DIMADEC
 70
     0
  9
$DIMALTRND
 40
0.0
  9
$DIMAZIN
 70
     0
  9
$DIMDSEP
 70
    46
  9
$DIMATFIT
 70
     3
  9
$DIMFRAC
 70
     0
  9
$DIMLDRBLK
  1

  9
$DIMLUNIT
 70
     2
  9
$DIMLWD
 70
    -2
  9
$DIMLWE
 70
    -2
  9
$DIMTMOVE
 70
     0
  9
$LUNITS
 70
     2
  9
$LUPREC
 70
     4
  9
$SKETCHINC
 40
0.1
  9
$FILLETRAD
 40
0.0
  9
$AUNITS
 70
     0
  9
$AUPREC
 70
     0
  9
$MENU
  1
.
  9
$ELEVATION
 40
0.0
  9
$PELEVATION
 40
0.0
  9
$THICKNESS
 40
0.0
  9
$LIMCHECK
 70
     0
  9
$CHAMFERA
 40
0.0
  9
$CHAMFERB
 40
0.0
  9
$CHAMFERC
 40
0.0
  9
$CHAMFERD
 40
0.0
  9
$SKPOLY
 70
     0
  9
$TDCREATE
 40
2455309.386685521
  9
$TDUCREATE
 40
2455309.553352187
  9
$TDUPDATE
 40
2455737.447437060
  9
$TDUUPDATE
 40
2455737.614103727
  9
$TDINDWG
 40
0.0852704282
  9
$TDUSRTIMER
 40
0.0852704282
  9
$USRTIMER
 70
     1
  9
$ANGBASE
 50
0.0
  9
$ANGDIR
 70
     0
  9
$PDMODE
 70
     0
  9
$PDSIZE
 40
0.0
  9
$PLINEWID
 40
0.0
  9
$SPLFRAME
 70
     0
  9
$SPLINETYPE
 70
     6
  9
$SPLINESEGS
 70
     8
  9
$HANDSEED
  5
D1C
  9
$SURFTAB1
 70
     6
  9
$SURFTAB2
 70
     6
  9
$SURFTYPE
 70
     6
  9
$SURFU
 70
     6
  9
$SURFV
 70
     6
  9
$UCSBASE
  2

  9
$UCSNAME
  2

  9
$UCSORG
 10
0.0
 20
0.0
 30
0.0
  9
$UCSXDIR
 10
1.0
 20
0.0
 30
0.0
  9
$UCSYDIR
 10
0.0
 20
1.0
 30
0.0
  9
$UCSORTHOREF
  2

  9
$UCSORTHOVIEW
 70
     0
  9
$UCSORGTOP
 10
0.0
 20
0.0
 30
0.0
  9
$UCSORGBOTTOM
 10
0.0
 20
0.0
 30
0.0
  9
$UCSORGLEFT
 10
0.0
 20
0.0
 30
0.0
  9
$UCSORGRIGHT
 10
0.0
 20
0.0
 30
0.0
  9
$UCSORGFRONT
 10
0.0
 20
0.0
 30
0.0
  9
$UCSORGBACK
 10
0.0
 20
0.0
 30
0.0
  9
$PUCSBASE
  2

  9
$PUCSNAME
  2

  9
$PUCSORG
 10
0.0
 20
0.0
 30
0.0
  9
$PUCSXDIR
 10
1.0
 20
0.0
 30
0.0
  9
$PUCSYDIR
 10
0.0
 20
1.0
 30
0.0
  9
$PUCSORTHOREF
  2

  9
$PUCSORTHOVIEW
 70
     0
  9
$PUCSORGTOP
 10
0.0
 20
0.0
 30
0.0
  9
$PUCSORGBOTTOM
 10
0.0
 20
0.0
 30
0.0
  9
$PUCSORGLEFT
 10
0.0
 20
0.0
 30
0.0
  9
$PUCSORGRIGHT
 10
0.0
 20
0.0
 30
0.0
  9
$PUCSORGFRONT
 10
0.0
 20
0.0
 30
0.0
  9
$PUCSORGBACK
 10
0.0
 20
0.0
 30
0.0
  9
$USERI1
 70
     0
  9
$USERI2
 70
     0
  9
$USERI3
 70
     0
  9
$USERI4
 70
     0
  9
$USERI5
 70
     0
  9
$USERR1
 40
0.0
  9
$USERR2
 40
0.0
  9
$USERR3
 40
0.0
  9
$USERR4
 40
0.0
  9
$USERR5
 40
0.0
  9
$WORLDVIEW
 70
     1
  9
$SHADEDGE
 70
     3
  9
$SHADEDIF
 70
    70
  9
$TILEMODE
 70
     1
  9
$MAXACTVP
 70
    64
  9
$PINSBASE
 10
0.0
 20
0.0
 30
0.0
  9
$PLIMCHECK
 70
     0
  9
$PEXTMIN
 10
0.0
 20
0.0
 30
0.0
  9
$PEXTMAX
 10
0.0
 20
0.0
 30
0.0
  9
$PLIMMIN
 10
0.0
 20
0.0
  9
$PLIMMAX
 10
12.0
 20
9.0
  9
$UNITMODE
 70
     0
  9
$VISRETAIN
 70
     1
  9
$PLINEGEN
 70
     0
  9
$PSLTSCALE
 70
     1
  9
$TREEDEPTH
 70
  3020
  9
$CMLSTYLE
  2
Standard
  9
$CMLJUST
 70
     0
  9
$CMLSCALE
 40
1.0
  9
$PROXYGRAPHICS
 70
     1
  9
$MEASUREMENT
 70
     0
  9
$CELWEIGHT
370
    -1
  9
$ENDCAPS
280
     0
  9
$JOINSTYLE
280
     0
  9
$LWDISPLAY
290
     0
  9
$INSUNITS
 70
     1
  9
$HYPERLINKBASE
  1

  9
$STYLESHEET
  1

  9
$XEDIT
290
     1
  9
$CEPSNTYPE
380
     0
  9
$PSTYLEMODE
290
     1
  9
$FINGERPRINTGUID
  2
{FDEAD576-A652-11D2-9A35-0060089B3A3F}
  9
$VERSIONGUID
  2
{684EF784-B2A5-46C1-AF71-CD6ED9562787}
  9
$EXTNAMES
290
     1
  9
$PSVPSCALE
 40
0.0
  9
$OLESTARTUP
290
     0
  0
ENDSEC
  0
SECTION
  2
CLASSES
  0
CLASS
  1
ACDBDICTIONARYWDFLT
  2
AcDbDictionaryWithDefault
  3
ObjectDBX Classes
 90
        0
280
     0
281
     0
  0
CLASS
  1
DICTIONARYVAR
  2
AcDbDictionaryVar
  3
ObjectDBX Classes
 90
        0
280
     0
281
     0
  0
CLASS
  1
SORTENTSTABLE
  2
AcDbSortentsTable
  3
ObjectDBX Classes
 90
    32768
280
     0
281
     0
  0
CLASS
  1
ACDBPLACEHOLDER
  2
AcDbPlaceHolder
  3
ObjectDBX Classes
 90
        0
280
     0
281
     0
  0
CLASS
  1
LAYOUT
  2
AcDbLayout
  3
ObjectDBX Classes
 90
        0
280
     0
281
     0
  0
ENDSEC
  0
SECTION
  2
TABLES
  0
TABLE
  2
VPORT
  5
8
330
0
100
AcDbSymbolTable
 70
     4
  0
VPORT
  5
D11
330
8
100
AcDbSymbolTableRecord
100
AcDbViewportTableRecord
  2
*Active
 70
     0
 10
0.0
 20
0.0
 11
1.0
 21
1.0
 12
16.15742787971123
 22
-74.5392508872269
 13
0.0
 23
0.0
 14
0.5
 24
0.5
 15
0.5
 25
0.5
 16
0.0
 26
0.0
 36
1.0
 17
0.0
 27
0.0
 37
0.0
 40
106.3419177056935
 41
2.028571428571428
 42
50.0
 43
0.0
 44
0.0
 50
0.0
 51
0.0
 71
     0
 72
  1000
 73
     1
 74
     3
 75
     0
 76
     0
 77
     0
 78
     0
281
     0
 65
     1
110
0.0
120
0.0
130
0.0
111
1.0
121
0.0
131
0.0
112
0.0
122
1.0
132
0.0
 79
     0
146
0.0
  0
ENDTAB
  0
TABLE
  2
LTYPE
  5
5
330
0
100
AcDbSymbolTable
 70
     4
  0
LTYPE
  5
14
330
5
100
AcDbSymbolTableRecord
100
AcDbLinetypeTableRecord
  2
ByBlock
 70
     0
  3

 72
    65
 73
     0
 40
0.0
  0
LTYPE
  5
15
330
5
100
AcDbSymbolTableRecord
100
AcDbLinetypeTableRecord
  2
ByLayer
 70
     0
  3

 72
    65
 73
     0
 40
0.0
  0
LTYPE
  5
16
330
5
100
AcDbSymbolTableRecord
100
AcDbLinetypeTableRecord
  2
Continuous
 70
     0
  3
Solid line
 72
    65
 73
     0
 40
0.0
  0
LTYPE
  5
171
330
5
100
AcDbSymbolTableRecord
100
AcDbLinetypeTableRecord
  2
DOT2
 70
     0
  3
...............................................
 72
    65
 73
     2
 40
0.125
 49
0.0
 74
     0
 49
-0.125
 74
     0
  0
LTYPE
  5
6B1
330
5
100
AcDbSymbolTableRecord
100
AcDbLinetypeTableRecord
  2
DASHDOT
 70
     0
  3
__ . __ . __ . __ . __ . __ . __ . __ . __ . __
 72
    65
 73
     4
 40
1.0
 49
0.5
 74
     0
 49
-0.25
 74
     0
 49
0.0
 74
     0
 49
-0.25
 74
     0
  0
LTYPE
  5
6B2
330
5
100
AcDbSymbolTableRecord
100
AcDbLinetypeTableRecord
  2
HIDDEN
 70
     0
  3
__ __ __ __ __ __ __ __ __ __ __ __ __ __ __ __
 72
    65
 73
     2
 40
0.375
 49
0.25
 74
     0
 49
-0.125
 74
     0
  0
ENDTAB
  0
TABLE
  2
LAYER
  5
2
102
{ACAD_XDICTIONARY
360
176
102
}
330
0
100
AcDbSymbolTable
 70
    10
  0
LAYER
  5
10
330
2
100
AcDbSymbolTableRecord
100
AcDbLayerTableRecord
  2
0
 70
     0
 62
     7
  6
Continuous
370
    -3
390
F
  0
LAYER
  5
172
330
2
100
AcDbSymbolTableRecord
100
AcDbLayerTableRecord
  2
Defpoints
 70
     0
 62
     7
  6
Continuous
290
     0
370
    -3
390
F
  0
LAYER
  5
173
330
2
100
AcDbSymbolTableRecord
100
AcDbLayerTableRecord
  2
DIM
 70
     0
 62
     7
  6
Continuous
370
    -3
390
F
  0
LAYER
  5
174
330
2
100
AcDbSymbolTableRecord
100
AcDbLayerTableRecord
  2
TEMPLATE
 70
     0
 62
     7
  6
Continuous
370
    -3
390
F
  0
LAYER
  5
175
330
2
100
AcDbSymbolTableRecord
100
AcDbLayerTableRecord
  2
GASKET
 70
     0
 62
     7
  6
Continuous
370
    -3
390
F
  0
LAYER
  5
38B
330
2
100
AcDbSymbolTableRecord
100
AcDbLayerTableRecord
  2
TEXT
 70
     0
 62
    -7
  6
Continuous
370
    -3
390
F
  0
LAYER
  5
38C
330
2
100
AcDbSymbolTableRecord
100
AcDbLayerTableRecord
  2
DIMENSION
 70
     0
 62
     7
  6
Continuous
370
    -3
390
F
  0
LAYER
  5
38D
330
2
100
AcDbSymbolTableRecord
100
AcDbLayerTableRecord
  2
THERMOSTATCVR
 70
     0
 62
     7
  6
Continuous
370
    -3
390
F
  0
LAYER
  5
38E
330
2
100
AcDbSymbolTableRecord
100
AcDbLayerTableRecord
  2
BORDER
 70
     0
 62
     7
  6
Continuous
370
    -3
390
F
  0
LAYER
  5
968
330
2
100
AcDbSymbolTableRecord
100
AcDbLayerTableRecord
  2
8BS
 70
     0
 62
     7
  6
Continuous
370
    -3
390
F
  0
ENDTAB
  0
TABLE
  2
STYLE
  5
3
330
0
100
AcDbSymbolTable
 70
     1
  0
STYLE
  5
11
330
3
100
AcDbSymbolTableRecord
100
AcDbTextStyleTableRecord
  2
Standard
 70
     0
 40
0.0
 41
1.0
 50
0.0
 71
     0
 42
0.2
  3
txt
  4

  0
ENDTAB
  0
TABLE
  2
VIEW
  5
6
330
0
100
AcDbSymbolTable
 70
     0
  0
ENDTAB
  0
TABLE
  2
UCS
  5
7
330
0
100
AcDbSymbolTable
 70
     0
  0
ENDTAB
  0
TABLE
  2
APPID
  5
9
330
0
100
AcDbSymbolTable
 70
     1
  0
APPID
  5
12
330
9
100
AcDbSymbolTableRecord
100
AcDbRegAppTableRecord
  2
ACAD
 70
     0
  0
ENDTAB
  0
TABLE
  2
DIMSTYLE
  5
A
330
0
100
AcDbSymbolTable
 70
     1
100
AcDbDimStyleTable
 71
     1
340
27
  0
DIMSTYLE
105
27
102
{ACAD_REACTORS
330
ADD
330
B00
330
B01
330
B02
330
B03
330
B04
330
B05
330
B06
330
B07
330
B08
330
B09
330
B0A
330
B0B
330
B0C
330
B15
330
B20
330
B3D
330
B3E
330
B5D
102
}
330
A
100
AcDbSymbolTableRecord
100
AcDbDimStyleTableRecord
  2
Standard
 70
     0
 41
1.0
 42
0.2
140
1.0
271
     3
272
     3
340
11
  0
ENDTAB
  0
TABLE
  2
BLOCK_RECORD
  5
1
330
0
100
AcDbSymbolTable
 70
   130
  0
BLOCK_RECORD
  5
1F
330
1
100
AcDbSymbolTableRecord
100
AcDbBlockTableRecord
  2
*Model_Space
340
22
  0
BLOCK_RECORD
  5
58
330
1
100
AcDbSymbolTableRecord
100
AcDbBlockTableRecord
  2
*Paper_Space
340
59
  0
BLOCK_RECORD
  5
5D
330
1
100
AcDbSymbolTableRecord
100
AcDbBlockTableRecord
  2
*Paper_Space0
340
5E
  0
BLOCK_RECORD
  5
89
330
1
100
AcDbSymbolTableRecord
100
AcDbBlockTableRecord
  2
*D1
340
0
  0
BLOCK_RECORD
  5
91
330
1
100
AcDbSymbolTableRecord
100
AcDbBlockTableRecord
  2
*D2
340
0
  0
BLOCK_RECORD
  5
99
330
1
100
AcDbSymbolTableRecord
100
AcDbBlockTableRecord
  2
*D3
340
0
  0
BLOCK_RECORD
  5
A1
330
1
100
AcDbSymbolTableRecord
100
AcDbBlockTableRecord
  2
*D4
340
0
  0
BLOCK_RECORD
  5
A9
330
1
100
AcDbSymbolTableRecord
100
AcDbBlockTableRecord
  2
*D5
340
0
  0
BLOCK_RECORD
  5
B1
330
1
100
AcDbSymbolTableRecord
100
AcDbBlockTableRecord
  2
*D6
340
0
  0
BLOCK_RECORD
  5
B9
330
1
100
AcDbSymbolTableRecord
100
AcDbBlockTableRecord
  2
*D7
340
0
  0
BLOCK_RECORD
  5
C1
330
1
100
AcDbSymbolTableRecord
100
AcDbBlockTableRecord
  2
*D8
340
0
  0
BLOCK_RECORD
  5
CB
330
1
100
AcDbSymbolTableRecord
100
AcDbBlockTableRecord
  2
*D9
340
0
  0
BLOCK_RECORD
  5
D3
330
1
100
AcDbSymbolTableRecord
100
AcDbBlockTableRecord
  2
*D10
340
0
  0
BLOCK_RECORD
  5
DD
330
1
100
AcDbSymbolTableRecord
100
AcDbBlockTableRecord
  2
*D11
340
0
  0
BLOCK_RECORD
  5
E5
330
1
100
AcDbSymbolTableRecord
100
AcDbBlockTableRecord
  2
*D12
340
0
  0
BLOCK_RECORD
  5
ED
330
1
100
AcDbSymbolTableRecord
100
AcDbBlockTableRecord
  2
*D13
340
0
  0
BLOCK_RECORD
  5
F5
330
1
100
AcDbSymbolTableRecord
100
AcDbBlockTableRecord
  2
*D14
340
0
  0
BLOCK_RECORD
  5
FF
330
1
100
AcDbSymbolTableRecord
100
AcDbBlockTableRecord
  2
*D15
340
0
  0
BLOCK_RECORD
  5
107
330
1
100
AcDbSymbolTableRecord
100
AcDbBlockTableRecord
  2
*D16
340
0
  0
BLOCK_RECORD
  5
111
330
1
100
AcDbSymbolTableRecord
100
AcDbBlockTableRecord
  2
*D17
340
0
  0
BLOCK_RECORD
  5
119
330
1
100
AcDbSymbolTableRecord
100
AcDbBlockTableRecord
  2
*D18
340
0
  0
BLOCK_RECORD
  5
121
330
1
100
AcDbSymbolTableRecord
100
AcDbBlockTableRecord
  2
*D19
340
0
  0
BLOCK_RECORD
  5
12B
330
1
100
AcDbSymbolTableRecord
100
AcDbBlockTableRecord
  2
*D20
340
0
  0
BLOCK_RECORD
  5
133
330
1
100
AcDbSymbolTableRecord
100
AcDbBlockTableRecord
  2
*D21
340
0
  0
BLOCK_RECORD
  5
13B
330
1
100
AcDbSymbolTableRecord
100
AcDbBlockTableRecord
  2
*D22
340
0
  0
BLOCK_RECORD
  5
145
330
1
100
AcDbSymbolTableRecord
100
AcDbBlockTableRecord
  2
*D23
340
0
  0
BLOCK_RECORD
  5
14D
330
1
100
AcDbSymbolTableRecord
100
AcDbBlockTableRecord
  2
*D24
340
0
  0
BLOCK_RECORD
  5
157
330
1
100
AcDbSymbolTableRecord
100
AcDbBlockTableRecord
  2
*D25
340
0
  0
BLOCK_RECORD
  5
15F
330
1
100
AcDbSymbolTableRecord
100
AcDbBlockTableRecord
  2
*D26
340
0
  0
BLOCK_RECORD
  5
167
330
1
100
AcDbSymbolTableRecord
100
AcDbBlockTableRecord
  2
*D27
340
0
  0
BLOCK_RECORD
  5
20C
330
1
100
AcDbSymbolTableRecord
100
AcDbBlockTableRecord
  2
*D28
340
0
  0
BLOCK_RECORD
  5
216
330
1
100
AcDbSymbolTableRecord
100
AcDbBlockTableRecord
  2
*D29
340
0
  0
BLOCK_RECORD
  5
220
330
1
100
AcDbSymbolTableRecord
100
AcDbBlockTableRecord
  2
*D30
340
0
  0
BLOCK_RECORD
  5
228
330
1
100
AcDbSymbolTableRecord
100
AcDbBlockTableRecord
  2
*D31
340
0
  0
BLOCK_RECORD
  5
232
330
1
100
AcDbSymbolTableRecord
100
AcDbBlockTableRecord
  2
*D32
340
0
  0
BLOCK_RECORD
  5
23A
330
1
100
AcDbSymbolTableRecord
100
AcDbBlockTableRecord
  2
*D33
340
0
  0
BLOCK_RECORD
  5
242
330
1
100
AcDbSymbolTableRecord
100
AcDbBlockTableRecord
  2
*D34
340
0
  0
BLOCK_RECORD
  5
24C
330
1
100
AcDbSymbolTableRecord
100
AcDbBlockTableRecord
  2
*D35
340
0
  0
BLOCK_RECORD
  5
254
330
1
100
AcDbSymbolTableRecord
100
AcDbBlockTableRecord
  2
*D36
340
0
  0
BLOCK_RECORD
  5
25C
330
1
100
AcDbSymbolTableRecord
100
AcDbBlockTableRecord
  2
*D37
340
0
  0
BLOCK_RECORD
  5
266
330
1
100
AcDbSymbolTableRecord
100
AcDbBlockTableRecord
  2
*D38
340
0
  0
BLOCK_RECORD
  5
26E
330
1
100
AcDbSymbolTableRecord
100
AcDbBlockTableRecord
  2
*D39
340
0
  0
BLOCK_RECORD
  5
278
330
1
100
AcDbSymbolTableRecord
100
AcDbBlockTableRecord
  2
*D40
340
0
  0
BLOCK_RECORD
  5
280
330
1
100
AcDbSymbolTableRecord
100
AcDbBlockTableRecord
  2
*D41
340
0
  0
BLOCK_RECORD
  5
288
330
1
100
AcDbSymbolTableRecord
100
AcDbBlockTableRecord
  2
*D42
340
0
  0
BLOCK_RECORD
  5
290
330
1
100
AcDbSymbolTableRecord
100
AcDbBlockTableRecord
  2
*D43
340
0
  0
BLOCK_RECORD
  5
298
330
1
100
AcDbSymbolTableRecord
100
AcDbBlockTableRecord
  2
*D44
340
0
  0
BLOCK_RECORD
  5
2A0
330
1
100
AcDbSymbolTableRecord
100
AcDbBlockTableRecord
  2
*D45
340
0
  0
BLOCK_RECORD
  5
2A8
330
1
100
AcDbSymbolTableRecord
100
AcDbBlockTableRecord
  2
*D46
340
0
  0
BLOCK_RECORD
  5
2B0
330
1
100
AcDbSymbolTableRecord
100
AcDbBlockTableRecord
  2
*D47
340
0
  0
BLOCK_RECORD
  5
2B8
330
1
100
AcDbSymbolTableRecord
100
AcDbBlockTableRecord
  2
*D48
340
0
  0
BLOCK_RECORD
  5
2C0
330
1
100
AcDbSymbolTableRecord
100
AcDbBlockTableRecord
  2
*D49
340
0
  0
BLOCK_RECORD
  5
2CA
330
1
100
AcDbSymbolTableRecord
100
AcDbBlockTableRecord
  2
*D50
340
0
  0
BLOCK_RECORD
  5
2D2
330
1
100
AcDbSymbolTableRecord
100
AcDbBlockTableRecord
  2
*D51
340
0
  0
BLOCK_RECORD
  5
2DC
330
1
100
AcDbSymbolTableRecord
100
AcDbBlockTableRecord
  2
*D52
340
0
  0
BLOCK_RECORD
  5
2E4
330
1
100
AcDbSymbolTableRecord
100
AcDbBlockTableRecord
  2
*D53
340
0
  0
BLOCK_RECORD
  5
2EC
330
1
100
AcDbSymbolTableRecord
100
AcDbBlockTableRecord
  2
*D54
340
0
  0
BLOCK_RECORD
  5
611
330
1
100
AcDbSymbolTableRecord
100
AcDbBlockTableRecord
  2
*D55
340
0
  0
BLOCK_RECORD
  5
619
330
1
100
AcDbSymbolTableRecord
100
AcDbBlockTableRecord
  2
*D56
340
0
  0
BLOCK_RECORD
  5
621
330
1
100
AcDbSymbolTableRecord
100
AcDbBlockTableRecord
  2
*D57
340
0
  0
BLOCK_RECORD
  5
629
330
1
100
AcDbSymbolTableRecord
100
AcDbBlockTableRecord
  2
*D58
340
0
  0
BLOCK_RECORD
  5
631
330
1
100
AcDbSymbolTableRecord
100
AcDbBlockTableRecord
  2
*D59
340
0
  0
BLOCK_RECORD
  5
639
330
1
100
AcDbSymbolTableRecord
100
AcDbBlockTableRecord
  2
*D60
340
0
  0
BLOCK_RECORD
  5
641
330
1
100
AcDbSymbolTableRecord
100
AcDbBlockTableRecord
  2
*D61
340
0
  0
BLOCK_RECORD
  5
649
330
1
100
AcDbSymbolTableRecord
100
AcDbBlockTableRecord
  2
*D62
340
0
  0
BLOCK_RECORD
  5
651
330
1
100
AcDbSymbolTableRecord
100
AcDbBlockTableRecord
  2
*D63
340
0
  0
BLOCK_RECORD
  5
65B
330
1
100
AcDbSymbolTableRecord
100
AcDbBlockTableRecord
  2
*D64
340
0
  0
BLOCK_RECORD
  5
665
330
1
100
AcDbSymbolTableRecord
100
AcDbBlockTableRecord
  2
*D65
340
0
  0
BLOCK_RECORD
  5
66D
330
1
100
AcDbSymbolTableRecord
100
AcDbBlockTableRecord
  2
*D66
340
0
  0
BLOCK_RECORD
  5
677
330
1
100
AcDbSymbolTableRecord
100
AcDbBlockTableRecord
  2
*D67
340
0
  0
BLOCK_RECORD
  5
681
330
1
100
AcDbSymbolTableRecord
100
AcDbBlockTableRecord
  2
*D68
340
0
  0
BLOCK_RECORD
  5
689
330
1
100
AcDbSymbolTableRecord
100
AcDbBlockTableRecord
  2
*D69
340
0
  0
BLOCK_RECORD
  5
693
330
1
100
AcDbSymbolTableRecord
100
AcDbBlockTableRecord
  2
*D70
340
0
  0
BLOCK_RECORD
  5
69D
330
1
100
AcDbSymbolTableRecord
100
AcDbBlockTableRecord
  2
*D71
340
0
  0
BLOCK_RECORD
  5
6A7
330
1
100
AcDbSymbolTableRecord
100
AcDbBlockTableRecord
  2
*D72
340
0
  0
BLOCK_RECORD
  5
7CB
330
1
100
AcDbSymbolTableRecord
100
AcDbBlockTableRecord
  2
*D73
340
0
  0
BLOCK_RECORD
  5
7D3
330
1
100
AcDbSymbolTableRecord
100
AcDbBlockTableRecord
  2
*D74
340
0
  0
BLOCK_RECORD
  5
7DD
330
1
100
AcDbSymbolTableRecord
100
AcDbBlockTableRecord
  2
*D75
340
0
  0
BLOCK_RECORD
  5
7E7
330
1
100
AcDbSymbolTableRecord
100
AcDbBlockTableRecord
  2
*D76
340
0
  0
BLOCK_RECORD
  5
7F1
330
1
100
AcDbSymbolTableRecord
100
AcDbBlockTableRecord
  2
*D77
340
0
  0
BLOCK_RECORD
  5
7FB
330
1
100
AcDbSymbolTableRecord
100
AcDbBlockTableRecord
  2
*D78
340
0
  0
BLOCK_RECORD
  5
803
330
1
100
AcDbSymbolTableRecord
100
AcDbBlockTableRecord
  2
*D79
340
0
  0
BLOCK_RECORD
  5
80B
330
1
100
AcDbSymbolTableRecord
100
AcDbBlockTableRecord
  2
*D80
340
0
  0
BLOCK_RECORD
  5
813
330
1
100
AcDbSymbolTableRecord
100
AcDbBlockTableRecord
  2
*D81
340
0
  0
BLOCK_RECORD
  5
81B
330
1
100
AcDbSymbolTableRecord
100
AcDbBlockTableRecord
  2
*D82
340
0
  0
BLOCK_RECORD
  5
823
330
1
100
AcDbSymbolTableRecord
100
AcDbBlockTableRecord
  2
*D83
340
0
  0
BLOCK_RECORD
  5
82B
330
1
100
AcDbSymbolTableRecord
100
AcDbBlockTableRecord
  2
*D84
340
0
  0
BLOCK_RECORD
  5
833
330
1
100
AcDbSymbolTableRecord
100
AcDbBlockTableRecord
  2
*D85
340
0
  0
BLOCK_RECORD
  5
83B
330
1
100
AcDbSymbolTableRecord
100
AcDbBlockTableRecord
  2
*D86
340
0
  0
BLOCK_RECORD
  5
845
330
1
100
AcDbSymbolTableRecord
100
AcDbBlockTableRecord
  2
*D87
340
0
  0
BLOCK_RECORD
  5
84F
330
1
100
AcDbSymbolTableRecord
100
AcDbBlockTableRecord
  2
*D88
340
0
  0
BLOCK_RECORD
  5
857
330
1
100
AcDbSymbolTableRecord
100
AcDbBlockTableRecord
  2
*D89
340
0
  0
BLOCK_RECORD
  5
861
330
1
100
AcDbSymbolTableRecord
100
AcDbBlockTableRecord
  2
*D90
340
0
  0
BLOCK_RECORD
  5
99F
330
1
100
AcDbSymbolTableRecord
100
AcDbBlockTableRecord
  2
*D91
340
0
  0
BLOCK_RECORD
  5
9A7
330
1
100
AcDbSymbolTableRecord
100
AcDbBlockTableRecord
  2
*D92
340
0
  0
BLOCK_RECORD
  5
9B1
330
1
100
AcDbSymbolTableRecord
100
AcDbBlockTableRecord
  2
*D93
340
0
  0
BLOCK_RECORD
  5
9BB
330
1
100
AcDbSymbolTableRecord
100
AcDbBlockTableRecord
  2
*D94
340
0
  0
BLOCK_RECORD
  5
9C5
330
1
100
AcDbSymbolTableRecord
100
AcDbBlockTableRecord
  2
*D95
340
0
  0
BLOCK_RECORD
  5
9CF
330
1
100
AcDbSymbolTableRecord
100
AcDbBlockTableRecord
  2
*D96
340
0
  0
BLOCK_RECORD
  5
9D7
330
1
100
AcDbSymbolTableRecord
100
AcDbBlockTableRecord
  2
*D97
340
0
  0
BLOCK_RECORD
  5
9DF
330
1
100
AcDbSymbolTableRecord
100
AcDbBlockTableRecord
  2
*D98
340
0
  0
BLOCK_RECORD
  5
9E7
330
1
100
AcDbSymbolTableRecord
100
AcDbBlockTableRecord
  2
*D99
340
0
  0
BLOCK_RECORD
  5
9EF
330
1
100
AcDbSymbolTableRecord
100
AcDbBlockTableRecord
  2
*D100
340
0
  0
BLOCK_RECORD
  5
9F7
330
1
100
AcDbSymbolTableRecord
100
AcDbBlockTableRecord
  2
*D101
340
0
  0
BLOCK_RECORD
  5
9FF
330
1
100
AcDbSymbolTableRecord
100
AcDbBlockTableRecord
  2
*D102
340
0
  0
BLOCK_RECORD
  5
A07
330
1
100
AcDbSymbolTableRecord
100
AcDbBlockTableRecord
  2
*D103
340
0
  0
BLOCK_RECORD
  5
A0F
330
1
100
AcDbSymbolTableRecord
100
AcDbBlockTableRecord
  2
*D104
340
0
  0
BLOCK_RECORD
  5
A19
330
1
100
AcDbSymbolTableRecord
100
AcDbBlockTableRecord
  2
*D105
340
0
  0
BLOCK_RECORD
  5
A23
330
1
100
AcDbSymbolTableRecord
100
AcDbBlockTableRecord
  2
*D106
340
0
  0
BLOCK_RECORD
  5
A2B
330
1
100
AcDbSymbolTableRecord
100
AcDbBlockTableRecord
  2
*D107
340
0
  0
BLOCK_RECORD
  5
A35
330
1
100
AcDbSymbolTableRecord
100
AcDbBlockTableRecord
  2
*D108
340
0
  0
BLOCK_RECORD
  5
A3F
330
1
100
AcDbSymbolTableRecord
100
AcDbBlockTableRecord
  2
*D109
340
0
  0
BLOCK_RECORD
  5
B6C
330
1
100
AcDbSymbolTableRecord
100
AcDbBlockTableRecord
  2
*D111
340
0
  0
BLOCK_RECORD
  5
B77
330
1
100
AcDbSymbolTableRecord
100
AcDbBlockTableRecord
  2
*D112
340
0
  0
BLOCK_RECORD
  5
B81
330
1
100
AcDbSymbolTableRecord
100
AcDbBlockTableRecord
  2
*D113
340
0
  0
BLOCK_RECORD
  5
B8B
330
1
100
AcDbSymbolTableRecord
100
AcDbBlockTableRecord
  2
*D114
340
0
  0
BLOCK_RECORD
  5
B93
330
1
100
AcDbSymbolTableRecord
100
AcDbBlockTableRecord
  2
*D115
340
0
  0
BLOCK_RECORD
  5
B9D
330
1
100
AcDbSymbolTableRecord
100
AcDbBlockTableRecord
  2
*D116
340
0
  0
BLOCK_RECORD
  5
BA7
330
1
100
AcDbSymbolTableRecord
100
AcDbBlockTableRecord
  2
*D117
340
0
  0
BLOCK_RECORD
  5
BAF
330
1
100
AcDbSymbolTableRecord
100
AcDbBlockTableRecord
  2
*D118
340
0
  0
BLOCK_RECORD
  5
BB7
330
1
100
AcDbSymbolTableRecord
100
AcDbBlockTableRecord
  2
*D119
340
0
  0
BLOCK_RECORD
  5
BBF
330
1
100
AcDbSymbolTableRecord
100
AcDbBlockTableRecord
  2
*D120
340
0
  0
BLOCK_RECORD
  5
BC7
330
1
100
AcDbSymbolTableRecord
100
AcDbBlockTableRecord
  2
*D121
340
0
  0
BLOCK_RECORD
  5
BCF
330
1
100
AcDbSymbolTableRecord
100
AcDbBlockTableRecord
  2
*D122
340
0
  0
BLOCK_RECORD
  5
BD7
330
1
100
AcDbSymbolTableRecord
100
AcDbBlockTableRecord
  2
*D123
340
0
  0
BLOCK_RECORD
  5
BDF
330
1
100
AcDbSymbolTableRecord
100
AcDbBlockTableRecord
  2
*D124
340
0
  0
BLOCK_RECORD
  5
BE7
330
1
100
AcDbSymbolTableRecord
100
AcDbBlockTableRecord
  2
*D125
340
0
  0
BLOCK_RECORD
  5
BF1
330
1
100
AcDbSymbolTableRecord
100
AcDbBlockTableRecord
  2
*D126
340
0
  0
BLOCK_RECORD
  5
BFB
330
1
100
AcDbSymbolTableRecord
100
AcDbBlockTableRecord
  2
*D127
340
0
  0
BLOCK_RECORD
  5
C05
330
1
100
AcDbSymbolTableRecord
100
AcDbBlockTableRecord
  2
*D128
340
0
  0
BLOCK_RECORD
  5
C0F
330
1
100
AcDbSymbolTableRecord
100
AcDbBlockTableRecord
  2
*D129
340
0
  0
ENDTAB
  0
ENDSEC
  0
SECTION
  2
BLOCKS
  0
BLOCK
  5
20
330
1F
100
AcDbEntity
  8
0
100
AcDbBlockBegin
  2
*Model_Space
 70
     0
 10
0.0
 20
0.0
 30
0.0
  3
*Model_Space
  1

  0
ENDBLK
  5
21
330
1F
100
AcDbEntity
  8
0
100
AcDbBlockEnd
  0
BLOCK
  5
5A
330
58
100
AcDbEntity
 67
     1
  8
0
100
AcDbBlockBegin
  2
*Paper_Space
 70
     0
 10
0.0
 20
0.0
 30
0.0
  3
*Paper_Space
  1

  0
ENDBLK
  5
5B
330
58
100
AcDbEntity
 67
     1
  8
0
100
AcDbBlockEnd
  0
BLOCK
  5
5F
330
5D
100
AcDbEntity
  8
0
100
AcDbBlockBegin
  2
*Paper_Space0
 70
     0
 10
0.0
 20
0.0
 30
0.0
  3
*Paper_Space0
  1

  0
ENDBLK
  5
60
330
5D
100
AcDbEntity
  8
0
100
AcDbBlockEnd
  0
BLOCK
  5
8A
330
89
100
AcDbEntity
  8
0
100
AcDbBlockBegin
  2
*D1
 70
     1
 10
0.0
 20
0.0
 30
0.0
  3
*D1
  1

  0
LINE
  5
8B
330
89
100
AcDbEntity
  8
DIM
 62
     0
370
    -2
100
AcDbLine
 10
74.07335825385295
 20
121.4449140994497
 30
0.0
 11
70.5547701156507
 21
121.4449140994497
 31
0.0
  0
MTEXT
  5
8C
330
89
100
AcDbEntity
  8
DIM
 62
     0
100
AcDbMText
 10
68.388103448984
 20
121.4449140994497
 30
0.0
 40
0.9999999999999998
 41
0.0
 71
     5
 72
     1
  1
\A1;0.000
 73
     1
 44
1.0
1001
ACAD
1000
MTEXTBEGIN
1070
    73
1070
     1
1070
    44
1040
1.0
1070
    74
1070
     0
1000
MTEXTEND
  0
POINT
  5
8D
330
89
100
AcDbEntity
  8
Defpoints
 62
     0
100
AcDbPoint
 10
74.44835825385294
 20
121.4449140994497
 30
0.0
  0
POINT
  5
8E
330
89
100
AcDbEntity
  8
Defpoints
 62
     0
100
AcDbPoint
 10
70.5547701156507
 20
121.4449140994497
 30
0.0
  0
POINT
  5
8F
330
89
100
AcDbEntity
  8
Defpoints
 62
     0
100
AcDbPoint
 10
74.44835825385294
 20
121.4449140994497
 30
0.0
  0
ENDBLK
  5
90
330
89
100
AcDbEntity
  8
0
100
AcDbBlockEnd
  0
BLOCK
  5
92
330
91
100
AcDbEntity
  8
0
100
AcDbBlockBegin
  2
*D2
 70
     1
 10
0.0
 20
0.0
 30
0.0
  3
*D2
  1

  0
LINE
  5
93
330
91
100
AcDbEntity
  8
DIM
 62
     0
370
    -2
100
AcDbLine
 10
74.60135825385265
 20
128.3799140994499
 30
0.0
 11
70.52192931688665
 21
128.3799140994499
 31
0.0
  0
MTEXT
  5
94
330
91
100
AcDbEntity
  8
DIM
 62
     0
100
AcDbMText
 10
68.02192931688664
 20
128.3799140994499
 30
0.0
 40
0.9999999999999998
 41
0.0
 71
     5
 72
     1
  1
\A1;6.935
 73
     1
 44
1.0
1001
ACAD
1000
MTEXTBEGIN
1070
    73
1070
     1
1070
    44
1040
1.0
1070
    74
1070
     0
1000
MTEXTEND
  0
POINT
  5
95
330
91
100
AcDbEntity
  8
Defpoints
 62
     0
100
AcDbPoint
 10
74.97635825385265
 20
128.3799140994499
 30
0.0
  0
POINT
  5
96
330
91
100
AcDbEntity
  8
Defpoints
 62
     0
100
AcDbPoint
 10
70.52192931688665
 20
128.3799140994499
 30
0.0
  0
POINT
  5
97
330
91
100
AcDbEntity
  8
Defpoints
 62
     0
100
AcDbPoint
 10
74.44835825385294
 20
121.4449140994497
 30
0.0
  0
ENDBLK
  5
98
330
91
100
AcDbEntity
  8
0
100
AcDbBlockEnd
  0
BLOCK
  5
9A
330
99
100
AcDbEntity
  8
0
100
AcDbBlockBegin
  2
*D3
 70
     1
 10
0.0
 20
0.0
 30
0.0
  3
*D3
  1

  0
LINE
  5
9B
330
99
100
AcDbEntity
  8
DIM
 62
     0
370
    -2
100
AcDbLine
 10
78.16435825385275
 20
135.3799140994499
 30
0.0
 11
70.44835825385269
 21
135.3799140994499
 31
0.0
  0
MTEXT
  5
9C
330
99
100
AcDbEntity
  8
DIM
 62
     0
100
AcDbMText
 10
67.61502492051936
 20
135.3799140994499
 30
0.0
 40
0.9999999999999998
 41
0.0
 71
     5
 72
     1
  1
\A1;13.935
 73
     1
 44
1.0
1001
ACAD
1000
MTEXTBEGIN
1070
    73
1070
     1
1070
    44
1040
1.0
1070
    74
1070
     0
1000
MTEXTEND
  0
POINT
  5
9D
330
99
100
AcDbEntity
  8
Defpoints
 62
     0
100
AcDbPoint
 10
78.53935825385275
 20
135.3799140994499
 30
0.0
  0
POINT
  5
9E
330
99
100
AcDbEntity
  8
Defpoints
 62
     0
100
AcDbPoint
 10
70.44835825385269
 20
135.3799140994499
 30
0.0
  0
POINT
  5
9F
330
99
100
AcDbEntity
  8
Defpoints
 62
     0
100
AcDbPoint
 10
74.44835825385294
 20
121.4449140994497
 30
0.0
  0
ENDBLK
  5
A0
330
99
100
AcDbEntity
  8
0
100
AcDbBlockEnd
  0
BLOCK
  5
A2
330
A1
100
AcDbEntity
  8
0
100
AcDbBlockBegin
  2
*D4
 70
     1
 10
0.0
 20
0.0
 30
0.0
  3
*D4
  1

  0
LINE
  5
A3
330
A1
100
AcDbEntity
  8
DIM
 62
     0
370
    -2
100
AcDbLine
 10
78.16435825385275
 20
142.3799140994499
 30
0.0
 11
70.44835825385262
 21
142.3799140994499
 31
0.0
  0
MTEXT
  5
A4
330
A1
100
AcDbEntity
  8
DIM
 62
     0
100
AcDbMText
 10
67.53169158718596
 20
142.3799140994499
 30
0.0
 40
0.9999999999999998
 41
0.0
 71
     5
 72
     1
  1
\A1;20.935
 73
     1
 44
1.0
1001
ACAD
1000
MTEXTBEGIN
1070
    73
1070
     1
1070
    44
1040
1.0
1070
    74
1070
     0
1000
MTEXTEND
  0
POINT
  5
A5
330
A1
100
AcDbEntity
  8
Defpoints
 62
     0
100
AcDbPoint
 10
78.53935825385275
 20
142.3799140994499
 30
0.0
  0
POINT
  5
A6
330
A1
100
AcDbEntity
  8
Defpoints
 62
     0
100
AcDbPoint
 10
70.44835825385262
 20
142.3799140994499
 30
0.0
  0
POINT
  5
A7
330
A1
100
AcDbEntity
  8
Defpoints
 62
     0
100
AcDbPoint
 10
74.44835825385294
 20
121.4449140994497
 30
0.0
  0
ENDBLK
  5
A8
330
A1
100
AcDbEntity
  8
0
100
AcDbBlockEnd
  0
BLOCK
  5
AA
330
A9
100
AcDbEntity
  8
0
100
AcDbBlockBegin
  2
*D5
 70
     1
 10
0.0
 20
0.0
 30
0.0
  3
*D5
  1

  0
LINE
  5
AB
330
A9
100
AcDbEntity
  8
DIM
 62
     0
370
    -2
100
AcDbLine
 10
75.70135825385233
 20
158.0299140994502
 30
0.0
 11
70.44835825385262
 21
158.0299140994502
 31
0.0
  0
MTEXT
  5
AC
330
A9
100
AcDbEntity
  8
DIM
 62
     0
100
AcDbMText
 10
67.44835825385263
 20
158.0299140994502
 30
0.0
 40
0.9999999999999998
 41
0.0
 71
     5
 72
     1
  1
\A1;36.585
 73
     1
 44
1.0
1001
ACAD
1000
MTEXTBEGIN
1070
    73
1070
     1
1070
    44
1040
1.0
1070
    74
1070
     0
1000
MTEXTEND
  0
POINT
  5
AD
330
A9
100
AcDbEntity
  8
Defpoints
 62
     0
100
AcDbPoint
 10
76.07635825385234
 20
158.0299140994502
 30
0.0
  0
POINT
  5
AE
330
A9
100
AcDbEntity
  8
Defpoints
 62
     0
100
AcDbPoint
 10
70.44835825385262
 20
158.0299140994502
 30
0.0
  0
POINT
  5
AF
330
A9
100
AcDbEntity
  8
Defpoints
 62
     0
100
AcDbPoint
 10
74.44835825385294
 20
121.4449140994497
 30
0.0
  0
ENDBLK
  5
B0
330
A9
100
AcDbEntity
  8
0
100
AcDbBlockEnd
  0
BLOCK
  5
B2
330
B1
100
AcDbEntity
  8
0
100
AcDbBlockBegin
  2
*D6
 70
     1
 10
0.0
 20
0.0
 30
0.0
  3
*D6
  1

  0
LINE
  5
B3
330
B1
100
AcDbEntity
  8
DIM
 62
     0
370
    -2
100
AcDbLine
 10
75.70135825385233
 20
160.8649140994502
 30
0.0
 11
70.44835825385262
 21
160.8649140994502
 31
0.0
  0
MTEXT
  5
B4
330
B1
100
AcDbEntity
  8
DIM
 62
     0
100
AcDbMText
 10
67.53169158718596
 20
160.8649140994502
 30
0.0
 40
0.9999999999999998
 41
0.0
 71
     5
 72
     1
  1
\A1;39.420
 73
     1
 44
1.0
1001
ACAD
1000
MTEXTBEGIN
1070
    73
1070
     1
1070
    44
1040
1.0
1070
    74
1070
     0
1000
MTEXTEND
  0
POINT
  5
B5
330
B1
100
AcDbEntity
  8
Defpoints
 62
     0
100
AcDbPoint
 10
76.07635825385234
 20
160.8649140994502
 30
0.0
  0
POINT
  5
B6
330
B1
100
AcDbEntity
  8
Defpoints
 62
     0
100
AcDbPoint
 10
70.44835825385262
 20
160.8649140994502
 30
0.0
  0
POINT
  5
B7
330
B1
100
AcDbEntity
  8
Defpoints
 62
     0
100
AcDbPoint
 10
74.44835825385294
 20
121.4449140994497
 30
0.0
  0
ENDBLK
  5
B8
330
B1
100
AcDbEntity
  8
0
100
AcDbBlockEnd
  0
BLOCK
  5
BA
330
B9
100
AcDbEntity
  8
0
100
AcDbBlockBegin
  2
*D7
 70
     1
 10
0.0
 20
0.0
 30
0.0
  3
*D7
  1

  0
LINE
  5
BB
330
B9
100
AcDbEntity
  8
DIM
 62
     0
370
    -2
100
AcDbLine
 10
90.22735825385263
 20
141.5049140994499
 30
0.0
 11
94.39352260213267
 21
141.5049140994499
 31
0.0
  0
MTEXT
  5
BC
330
B9
100
AcDbEntity
  8
DIM
 62
     0
100
AcDbMText
 10
97.14352260213267
 20
141.5049140994499
 30
0.0
 40
0.9999999999999998
 41
0.0
 71
     5
 72
     1
  1
\A1;20.060
 73
     1
 44
1.0
1001
ACAD
1000
MTEXTBEGIN
1070
    73
1070
     1
1070
    44
1040
1.0
1070
    74
1070
     0
1000
MTEXTEND
  0
POINT
  5
BD
330
B9
100
AcDbEntity
  8
Defpoints
 62
     0
100
AcDbPoint
 10
89.85235825385263
 20
141.5049140994499
 30
0.0
  0
POINT
  5
BE
330
B9
100
AcDbEntity
  8
Defpoints
 62
     0
100
AcDbPoint
 10
94.39352260213267
 20
141.5049140994499
 30
0.0
  0
POINT
  5
BF
330
B9
100
AcDbEntity
  8
Defpoints
 62
     0
100
AcDbPoint
 10
74.44835825385294
 20
121.4449140994497
 30
0.0
  0
ENDBLK
  5
C0
330
B9
100
AcDbEntity
  8
0
100
AcDbBlockEnd
  0
BLOCK
  5
C2
330
C1
100
AcDbEntity
  8
0
100
AcDbBlockBegin
  2
*D8
 70
     1
 10
0.0
 20
0.0
 30
0.0
  3
*D8
  1

  0
LINE
  5
C3
330
C1
100
AcDbEntity
  8
DIM
 62
     0
370
    -2
100
AcDbLine
 10
89.41435825385275
 20
148.5049140994499
 30
0.0
 11
91.03935825385276
 21
148.5049140994499
 31
0.0
  0
LINE
  5
C4
330
C1
100
AcDbEntity
  8
DIM
 62
     0
370
    -2
100
AcDbLine
 10
91.03935825385276
 20
148.5049140994499
 30
0.0
 11
92.56742904048939
 21
146.7141926657523
 31
0.0
  0
LINE
  5
C5
330
C1
100
AcDbEntity
  8
DIM
 62
     0
370
    -2
100
AcDbLine
 10
92.56742904048939
 20
146.7141926657523
 30
0.0
 11
94.5674290404894
 21
146.7141926657523
 31
0.0
  0
MTEXT
  5
C6
330
C1
100
AcDbEntity
  8
DIM
 62
     0
100
AcDbMText
 10
97.40076237382274
 20
146.7141926657523
 30
0.0
 40
0.9999999999999998
 41
0.0
 71
     5
 72
     1
  1
\A1;27.060
 73
     1
 44
1.0
1001
ACAD
1000
MTEXTBEGIN
1070
    73
1070
     1
1070
    44
1040
1.0
1070
    74
1070
     0
1000
MTEXTEND
  0
POINT
  5
C7
330
C1
100
AcDbEntity
  8
Defpoints
 62
     0
100
AcDbPoint
 10
89.03935825385275
 20
148.5049140994499
 30
0.0
  0
POINT
  5
C8
330
C1
100
AcDbEntity
  8
Defpoints
 62
     0
100
AcDbPoint
 10
94.5674290404894
 20
146.7141926657523
 30
0.0
  0
POINT
  5
C9
330
C1
100
AcDbEntity
  8
Defpoints
 62
     0
100
AcDbPoint
 10
74.44835825385294
 20
121.4449140994497
 30
0.0
  0
ENDBLK
  5
CA
330
C1
100
AcDbEntity
  8
0
100
AcDbBlockEnd
  0
BLOCK
  5
CC
330
CB
100
AcDbEntity
  8
0
100
AcDbBlockBegin
  2
*D9
 70
     1
 10
0.0
 20
0.0
 30
0.0
  3
*D9
  1

  0
LINE
  5
CD
330
CB
100
AcDbEntity
  8
DIM
 62
     0
370
    -2
100
AcDbLine
 10
89.41435825385275
 20
150.0049140994499
 30
0.0
 11
94.3803582538527
 21
150.0049140994499
 31
0.0
  0
MTEXT
  5
CE
330
CB
100
AcDbEntity
  8
DIM
 62
     0
100
AcDbMText
 10
97.29702492051938
 20
150.0049140994499
 30
0.0
 40
0.9999999999999998
 41
0.0
 71
     5
 72
     1
  1
\A1;28.560
 73
     1
 44
1.0
1001
ACAD
1000
MTEXTBEGIN
1070
    73
1070
     1
1070
    44
1040
1.0
1070
    74
1070
     0
1000
MTEXTEND
  0
POINT
  5
CF
330
CB
100
AcDbEntity
  8
Defpoints
 62
     0
100
AcDbPoint
 10
89.03935825385275
 20
150.0049140994499
 30
0.0
  0
POINT
  5
D0
330
CB
100
AcDbEntity
  8
Defpoints
 62
     0
100
AcDbPoint
 10
94.3803582538527
 20
150.0049140994499
 30
0.0
  0
POINT
  5
D1
330
CB
100
AcDbEntity
  8
Defpoints
 62
     0
100
AcDbPoint
 10
74.44835825385294
 20
121.4449140994497
 30
0.0
  0
ENDBLK
  5
D2
330
CB
100
AcDbEntity
  8
0
100
AcDbBlockEnd
  0
BLOCK
  5
D4
330
D3
100
AcDbEntity
  8
0
100
AcDbBlockBegin
  2
*D10
 70
     1
 10
0.0
 20
0.0
 30
0.0
  3
*D10
  1

  0
LINE
  5
D5
330
D3
100
AcDbEntity
  8
DIM
 62
     0
370
    -2
100
AcDbLine
 10
90.22735825385263
 20
152.1299140994499
 30
0.0
 11
91.85235825385262
 21
152.1299140994499
 31
0.0
  0
LINE
  5
D6
330
D3
100
AcDbEntity
  8
DIM
 62
     0
370
    -2
100
AcDbLine
 10
91.85235825385262
 20
152.1299140994499
 30
0.0
 11
92.38035825385271
 21
151.4424140994498
 31
0.0
  0
LINE
  5
D7
330
D3
100
AcDbEntity
  8
DIM
 62
     0
370
    -2
100
AcDbLine
 10
92.38035825385271
 20
151.4424140994498
 30
0.0
 11
94.3803582538527
 21
151.4424140994498
 31
0.0
  0
MTEXT
  5
D8
330
D3
100
AcDbEntity
  8
DIM
 62
     0
100
AcDbMText
 10
97.29702492051938
 20
151.4424140994498
 30
0.0
 40
0.9999999999999998
 41
0.0
 71
     5
 72
     1
  1
\A1;30.685
 73
     1
 44
1.0
1001
ACAD
1000
MTEXTBEGIN
1070
    73
1070
     1
1070
    44
1040
1.0
1070
    74
1070
     0
1000
MTEXTEND
  0
POINT
  5
D9
330
D3
100
AcDbEntity
  8
Defpoints
 62
     0
100
AcDbPoint
 10
89.85235825385263
 20
152.1299140994499
 30
0.0
  0
POINT
  5
DA
330
D3
100
AcDbEntity
  8
Defpoints
 62
     0
100
AcDbPoint
 10
94.3803582538527
 20
151.4424140994498
 30
0.0
  0
POINT
  5
DB
330
D3
100
AcDbEntity
  8
Defpoints
 62
     0
100
AcDbPoint
 10
74.44835825385294
 20
121.4449140994497
 30
0.0
  0
ENDBLK
  5
DC
330
D3
100
AcDbEntity
  8
0
100
AcDbBlockEnd
  0
BLOCK
  5
DE
330
DD
100
AcDbEntity
  8
0
100
AcDbBlockBegin
  2
*D11
 70
     1
 10
0.0
 20
0.0
 30
0.0
  3
*D11
  1

  0
LINE
  5
DF
330
DD
100
AcDbEntity
  8
DIM
 62
     0
370
    -2
100
AcDbLine
 10
89.65935825385264
 20
152.8799140994498
 30
0.0
 11
94.3803582538527
 21
152.8799140994498
 31
0.0
  0
MTEXT
  5
E0
330
DD
100
AcDbEntity
  8
DIM
 62
     0
100
AcDbMText
 10
97.21369158718605
 20
152.8799140994498
 30
0.0
 40
0.9999999999999998
 41
0.0
 71
     5
 72
     1
  1
\A1;31.435
 73
     1
 44
1.0
1001
ACAD
1000
MTEXTBEGIN
1070
    73
1070
     1
1070
    44
1040
1.0
1070
    74
1070
     0
1000
MTEXTEND
  0
POINT
  5
E1
330
DD
100
AcDbEntity
  8
Defpoints
 62
     0
100
AcDbPoint
 10
89.28435825385262
 20
152.8799140994498
 30
0.0
  0
POINT
  5
E2
330
DD
100
AcDbEntity
  8
Defpoints
 62
     0
100
AcDbPoint
 10
94.3803582538527
 20
152.8799140994498
 30
0.0
  0
POINT
  5
E3
330
DD
100
AcDbEntity
  8
Defpoints
 62
     0
100
AcDbPoint
 10
74.44835825385294
 20
121.4449140994497
 30
0.0
  0
ENDBLK
  5
E4
330
DD
100
AcDbEntity
  8
0
100
AcDbBlockEnd
  0
BLOCK
  5
E6
330
E5
100
AcDbEntity
  8
0
100
AcDbBlockBegin
  2
*D12
 70
     1
 10
0.0
 20
0.0
 30
0.0
  3
*D12
  1

  0
LINE
  5
E7
330
E5
100
AcDbEntity
  8
DIM
 62
     0
370
    -2
100
AcDbLine
 10
89.65935825385264
 20
154.6299140994499
 30
0.0
 11
94.3803582538527
 21
154.6299140994499
 31
0.0
  0
MTEXT
  5
E8
330
E5
100
AcDbEntity
  8
DIM
 62
     0
100
AcDbMText
 10
97.21369158718605
 20
154.6299140994499
 30
0.0
 40
0.9999999999999998
 41
0.0
 71
     5
 72
     1
  1
\A1;33.185
 73
     1
 44
1.0
1001
ACAD
1000
MTEXTBEGIN
1070
    73
1070
     1
1070
    44
1040
1.0
1070
    74
1070
     0
1000
MTEXTEND
  0
POINT
  5
E9
330
E5
100
AcDbEntity
  8
Defpoints
 62
     0
100
AcDbPoint
 10
89.28435825385262
 20
154.6299140994499
 30
0.0
  0
POINT
  5
EA
330
E5
100
AcDbEntity
  8
Defpoints
 62
     0
100
AcDbPoint
 10
94.3803582538527
 20
154.6299140994499
 30
0.0
  0
POINT
  5
EB
330
E5
100
AcDbEntity
  8
Defpoints
 62
     0
100
AcDbPoint
 10
74.44835825385294
 20
121.4449140994497
 30
0.0
  0
ENDBLK
  5
EC
330
E5
100
AcDbEntity
  8
0
100
AcDbBlockEnd
  0
BLOCK
  5
EE
330
ED
100
AcDbEntity
  8
0
100
AcDbBlockBegin
  2
*D13
 70
     1
 10
0.0
 20
0.0
 30
0.0
  3
*D13
  1

  0
LINE
  5
EF
330
ED
100
AcDbEntity
  8
DIM
 62
     0
370
    -2
100
AcDbLine
 10
90.22735825385263
 20
157.3799140994499
 30
0.0
 11
94.3803582538527
 21
157.3799140994499
 31
0.0
  0
MTEXT
  5
F0
330
ED
100
AcDbEntity
  8
DIM
 62
     0
100
AcDbMText
 10
97.38035825385271
 20
157.3799140994499
 30
0.0
 40
0.9999999999999998
 41
0.0
 71
     5
 72
     1
  1
\A1;35.935
 73
     1
 44
1.0
1001
ACAD
1000
MTEXTBEGIN
1070
    73
1070
     1
1070
    44
1040
1.0
1070
    74
1070
     0
1000
MTEXTEND
  0
POINT
  5
F1
330
ED
100
AcDbEntity
  8
Defpoints
 62
     0
100
AcDbPoint
 10
89.85235825385263
 20
157.3799140994499
 30
0.0
  0
POINT
  5
F2
330
ED
100
AcDbEntity
  8
Defpoints
 62
     0
100
AcDbPoint
 10
94.3803582538527
 20
157.3799140994499
 30
0.0
  0
POINT
  5
F3
330
ED
100
AcDbEntity
  8
Defpoints
 62
     0
100
AcDbPoint
 10
74.44835825385294
 20
121.4449140994497
 30
0.0
  0
ENDBLK
  5
F4
330
ED
100
AcDbEntity
  8
0
100
AcDbBlockEnd
  0
BLOCK
  5
F6
330
F5
100
AcDbEntity
  8
0
100
AcDbBlockBegin
  2
*D14
 70
     1
 10
0.0
 20
0.0
 30
0.0
  3
*D14
  1

  0
LINE
  5
F7
330
F5
100
AcDbEntity
  8
DIM
 62
     0
370
    -2
100
AcDbLine
 10
86.16435825385275
 20
150.7549140994499
 30
0.0
 11
74.3117432549269
 21
150.7549140994499
 31
0.0
  0
LINE
  5
F8
330
F5
100
AcDbEntity
  8
DIM
 62
     0
370
    -2
100
AcDbLine
 10
74.3117432549269
 20
150.7549140994499
 30
0.0
 11
72.31174325492691
 21
153.0088864271479
 31
0.0
  0
LINE
  5
F9
330
F5
100
AcDbEntity
  8
DIM
 62
     0
370
    -2
100
AcDbLine
 10
72.31174325492691
 20
153.0088864271479
 30
0.0
 11
70.31174325492691
 21
153.0088864271479
 31
0.0
  0
MTEXT
  5
FA
330
F5
100
AcDbEntity
  8
DIM
 62
     0
100
AcDbMText
 10
67.39507658826024
 20
153.0088864271479
 30
0.0
 40
0.9999999999999998
 41
0.0
 71
     5
 72
     1
  1
\A1;25.250
 73
     1
 44
1.0
1001
ACAD
1000
MTEXTBEGIN
1070
    73
1070
     1
1070
    44
1040
1.0
1070
    74
1070
     0
1000
MTEXTEND
  0
POINT
  5
FB
330
F5
100
AcDbEntity
  8
Defpoints
 62
     0
100
AcDbPoint
 10
86.53935825385275
 20
150.7549140994499
 30
0.0
  0
POINT
  5
FC
330
F5
100
AcDbEntity
  8
Defpoints
 62
     0
100
AcDbPoint
 10
70.31174325492691
 20
153.0088864271479
 30
0.0
  0
POINT
  5
FD
330
F5
100
AcDbEntity
  8
Defpoints
 62
     0
100
AcDbPoint
 10
74.44837146015402
 20
125.5049421682588
 30
0.0
  0
ENDBLK
  5
FE
330
F5
100
AcDbEntity
  8
0
100
AcDbBlockEnd
  0
BLOCK
  5
100
330
FF
100
AcDbEntity
  8
0
100
AcDbBlockBegin
  2
*D15
 70
     1
 10
0.0
 20
0.0
 30
0.0
  3
*D15
  1

  0
LINE
  5
101
330
FF
100
AcDbEntity
  8
DIM
 62
     0
370
    -2
100
AcDbLine
 10
74.44835825385268
 20
121.1299140994493
 30
0.0
 11
74.44835825385268
 21
117.681297429455
 31
0.0
  0
MTEXT
  5
102
330
FF
100
AcDbEntity
  8
DIM
 62
     0
100
AcDbMText
 10
74.44835825385266
 20
115.5146307627883
 30
0.0
 40
0.9999999999999998
 41
0.0
 71
     5
 72
     1
  1
\A1;0.000
 11
0.0000000000000001
 21
1.0
 31
0.0
 73
     1
 44
1.0
1001
ACAD
1000
MTEXTBEGIN
1070
    73
1070
     1
1070
    44
1040
1.0
1070
    74
1070
     0
1000
MTEXTEND
  0
POINT
  5
103
330
FF
100
AcDbEntity
  8
Defpoints
 62
     0
100
AcDbPoint
 10
74.44835825385268
 20
121.5049140994493
 30
0.0
  0
POINT
  5
104
330
FF
100
AcDbEntity
  8
Defpoints
 62
     0
100
AcDbPoint
 10
74.44835825385268
 20
117.681297429455
 30
0.0
  0
POINT
  5
105
330
FF
100
AcDbEntity
  8
Defpoints
 62
     0
100
AcDbPoint
 10
74.44835825385268
 20
121.5049140994493
 30
0.0
  0
ENDBLK
  5
106
330
FF
100
AcDbEntity
  8
0
100
AcDbBlockEnd
  0
BLOCK
  5
108
330
107
100
AcDbEntity
  8
0
100
AcDbBlockBegin
  2
*D16
 70
     1
 10
0.0
 20
0.0
 30
0.0
  3
*D16
  1

  0
LINE
  5
109
330
107
100
AcDbEntity
  8
DIM
 62
     0
370
    -2
100
AcDbLine
 10
75.5343582538526
 20
155.00491409945
 30
0.0
 11
75.5343582538526
 21
161.4709140994498
 31
0.0
  0
LINE
  5
10A
330
107
100
AcDbEntity
  8
DIM
 62
     0
370
    -2
100
AcDbLine
 10
75.5343582538526
 20
161.4709140994498
 30
0.0
 11
74.5343582538526
 21
163.4709140994498
 31
0.0
  0
LINE
  5
10B
330
107
100
AcDbEntity
  8
DIM
 62
     0
370
    -2
100
AcDbLine
 10
74.5343582538526
 20
163.4709140994498
 30
0.0
 11
74.5343582538526
 21
165.4709140994498
 31
0.0
  0
MTEXT
  5
10C
330
107
100
AcDbEntity
  8
DIM
 62
     0
100
AcDbMText
 10
74.53435825385255
 20
167.7209140994498
 30
0.0
 40
0.9999999999999998
 41
0.0
 71
     5
 72
     1
  1
\A1;1.086
 11
0.0000000000000001
 21
1.0
 31
0.0
 73
     1
 44
1.0
1001
ACAD
1000
MTEXTBEGIN
1070
    73
1070
     1
1070
    44
1040
1.0
1070
    74
1070
     0
1000
MTEXTEND
  0
POINT
  5
10D
330
107
100
AcDbEntity
  8
Defpoints
 62
     0
100
AcDbPoint
 10
75.5343582538526
 20
154.62991409945
 30
0.0
  0
POINT
  5
10E
330
107
100
AcDbEntity
  8
Defpoints
 62
     0
100
AcDbPoint
 10
74.5343582538526
 20
165.4709140994498
 30
0.0
  0
POINT
  5
10F
330
107
100
AcDbEntity
  8
Defpoints
 62
     0
100
AcDbPoint
 10
74.44837146015402
 20
125.5049421682588
 30
0.0
  0
ENDBLK
  5
110
330
107
100
AcDbEntity
  8
0
100
AcDbBlockEnd
  0
BLOCK
  5
112
330
111
100
AcDbEntity
  8
0
100
AcDbBlockBegin
  2
*D17
 70
     1
 10
0.0
 20
0.0
 30
0.0
  3
*D17
  1

  0
LINE
  5
113
330
111
100
AcDbEntity
  8
DIM
 62
     0
370
    -2
100
AcDbLine
 10
76.07635825385234
 20
161.2399140994502
 30
0.0
 11
76.07635825385234
 21
165.4709140994498
 31
0.0
  0
MTEXT
  5
114
330
111
100
AcDbEntity
  8
DIM
 62
     0
100
AcDbMText
 10
76.0763582538523
 20
167.8042474327831
 30
0.0
 40
0.9999999999999998
 41
0.0
 71
     5
 72
     1
  1
\A1;1.628
 11
0.0000000000000001
 21
1.0
 31
0.0
 73
     1
 44
1.0
1001
ACAD
1000
MTEXTBEGIN
1070
    73
1070
     1
1070
    44
1040
1.0
1070
    74
1070
     0
1000
MTEXTEND
  0
POINT
  5
115
330
111
100
AcDbEntity
  8
Defpoints
 62
     0
100
AcDbPoint
 10
76.07635825385234
 20
160.8649140994502
 30
0.0
  0
POINT
  5
116
330
111
100
AcDbEntity
  8
Defpoints
 62
     0
100
AcDbPoint
 10
76.07635825385234
 20
165.4709140994498
 30
0.0
  0
POINT
  5
117
330
111
100
AcDbEntity
  8
Defpoints
 62
     0
100
AcDbPoint
 10
74.44837146015402
 20
125.5049421682588
 30
0.0
  0
ENDBLK
  5
118
330
111
100
AcDbEntity
  8
0
100
AcDbBlockEnd
  0
BLOCK
  5
11A
330
119
100
AcDbEntity
  8
0
100
AcDbBlockBegin
  2
*D18
 70
     1
 10
0.0
 20
0.0
 30
0.0
  3
*D18
  1

  0
LINE
  5
11B
330
119
100
AcDbEntity
  8
DIM
 62
     0
370
    -2
100
AcDbLine
 10
80.52235825385247
 20
161.2399140994502
 30
0.0
 11
80.52235825385247
 21
165.4709140994498
 31
0.0
  0
MTEXT
  5
11C
330
119
100
AcDbEntity
  8
DIM
 62
     0
100
AcDbMText
 10
80.52235825385244
 20
167.8875807661165
 30
0.0
 40
0.9999999999999998
 41
0.0
 71
     5
 72
     1
  1
\A1;6.074
 11
0.0000000000000001
 21
1.0
 31
0.0
 73
     1
 44
1.0
1001
ACAD
1000
MTEXTBEGIN
1070
    73
1070
     1
1070
    44
1040
1.0
1070
    74
1070
     0
1000
MTEXTEND
  0
POINT
  5
11D
330
119
100
AcDbEntity
  8
Defpoints
 62
     0
100
AcDbPoint
 10
80.52235825385247
 20
160.8649140994502
 30
0.0
  0
POINT
  5
11E
330
119
100
AcDbEntity
  8
Defpoints
 62
     0
100
AcDbPoint
 10
80.52235825385247
 20
165.4709140994498
 30
0.0
  0
POINT
  5
11F
330
119
100
AcDbEntity
  8
Defpoints
 62
     0
100
AcDbPoint
 10
74.44837146015402
 20
125.5049421682588
 30
0.0
  0
ENDBLK
  5
120
330
119
100
AcDbEntity
  8
0
100
AcDbBlockEnd
  0
BLOCK
  5
122
330
121
100
AcDbEntity
  8
0
100
AcDbBlockBegin
  2
*D19
 70
     1
 10
0.0
 20
0.0
 30
0.0
  3
*D19
  1

  0
LINE
  5
123
330
121
100
AcDbEntity
  8
DIM
 62
     0
370
    -2
100
AcDbLine
 10
89.28435825385262
 20
155.0049140994499
 30
0.0
 11
89.28435825385266
 21
161.4709140994498
 31
0.0
  0
LINE
  5
124
330
121
100
AcDbEntity
  8
DIM
 62
     0
370
    -2
100
AcDbLine
 10
89.28435825385266
 20
161.4709140994498
 30
0.0
 11
90.28435825385264
 21
163.4709140994498
 31
0.0
  0
LINE
  5
125
330
121
100
AcDbEntity
  8
DIM
 62
     0
370
    -2
100
AcDbLine
 10
90.28435825385264
 20
163.4709140994498
 30
0.0
 11
90.28435825385264
 21
165.4709140994498
 31
0.0
  0
MTEXT
  5
126
330
121
100
AcDbEntity
  8
DIM
 62
     0
100
AcDbMText
 10
90.28435825385264
 20
168.3042474327832
 30
0.0
 40
0.9999999999999998
 41
0.0
 71
     5
 72
     1
  1
\A1;14.836
 11
0.0000000000000001
 21
1.0
 31
0.0
 73
     1
 44
1.0
1001
ACAD
1000
MTEXTBEGIN
1070
    73
1070
     1
1070
    44
1040
1.0
1070
    74
1070
     0
1000
MTEXTEND
  0
POINT
  5
127
330
121
100
AcDbEntity
  8
Defpoints
 62
     0
100
AcDbPoint
 10
89.28435825385262
 20
154.6299140994499
 30
0.0
  0
POINT
  5
128
330
121
100
AcDbEntity
  8
Defpoints
 62
     0
100
AcDbPoint
 10
90.28435825385264
 20
165.4709140994498
 30
0.0
  0
POINT
  5
129
330
121
100
AcDbEntity
  8
Defpoints
 62
     0
100
AcDbPoint
 10
74.44837146015402
 20
125.5049421682588
 30
0.0
  0
ENDBLK
  5
12A
330
121
100
AcDbEntity
  8
0
100
AcDbBlockEnd
  0
BLOCK
  5
12C
330
12B
100
AcDbEntity
  8
0
100
AcDbBlockBegin
  2
*D20
 70
     1
 10
0.0
 20
0.0
 30
0.0
  3
*D20
  1

  0
LINE
  5
12D
330
12B
100
AcDbEntity
  8
DIM
 62
     0
370
    -2
100
AcDbLine
 10
88.89635825385273
 20
161.23991409945
 30
0.0
 11
88.89635825385273
 21
165.4709140994498
 31
0.0
  0
MTEXT
  5
12E
330
12B
100
AcDbEntity
  8
DIM
 62
     0
100
AcDbMText
 10
88.89635825385269
 20
168.3042474327832
 30
0.0
 40
0.9999999999999998
 41
0.0
 71
     5
 72
     1
  1
\A1;14.448
 11
0.0000000000000001
 21
1.0
 31
0.0
 73
     1
 44
1.0
1001
ACAD
1000
MTEXTBEGIN
1070
    73
1070
     1
1070
    44
1040
1.0
1070
    74
1070
     0
1000
MTEXTEND
  0
POINT
  5
12F
330
12B
100
AcDbEntity
  8
Defpoints
 62
     0
100
AcDbPoint
 10
88.89635825385273
 20
160.8649140994501
 30
0.0
  0
POINT
  5
130
330
12B
100
AcDbEntity
  8
Defpoints
 62
     0
100
AcDbPoint
 10
88.89635825385273
 20
165.4709140994498
 30
0.0
  0
POINT
  5
131
330
12B
100
AcDbEntity
  8
Defpoints
 62
     0
100
AcDbPoint
 10
74.44837146015402
 20
125.5049421682588
 30
0.0
  0
ENDBLK
  5
132
330
12B
100
AcDbEntity
  8
0
100
AcDbBlockEnd
  0
BLOCK
  5
134
330
133
100
AcDbEntity
  8
0
100
AcDbBlockBegin
  2
*D21
 70
     1
 10
0.0
 20
0.0
 30
0.0
  3
*D21
  1

  0
LINE
  5
135
330
133
100
AcDbEntity
  8
DIM
 62
     0
370
    -2
100
AcDbLine
 10
84.45035825385259
 20
161.2399140994501
 30
0.0
 11
84.45035825385259
 21
165.4709140994498
 31
0.0
  0
MTEXT
  5
136
330
133
100
AcDbEntity
  8
DIM
 62
     0
100
AcDbMText
 10
84.45035825385254
 20
168.0542474327831
 30
0.0
 40
0.9999999999999998
 41
0.0
 71
     5
 72
     1
  1
\A1;10.002
 11
0.0000000000000001
 21
1.0
 31
0.0
 73
     1
 44
1.0
1001
ACAD
1000
MTEXTBEGIN
1070
    73
1070
     1
1070
    44
1040
1.0
1070
    74
1070
     0
1000
MTEXTEND
  0
POINT
  5
137
330
133
100
AcDbEntity
  8
Defpoints
 62
     0
100
AcDbPoint
 10
84.45035825385259
 20
160.8649140994501
 30
0.0
  0
POINT
  5
138
330
133
100
AcDbEntity
  8
Defpoints
 62
     0
100
AcDbPoint
 10
84.45035825385259
 20
165.4709140994498
 30
0.0
  0
POINT
  5
139
330
133
100
AcDbEntity
  8
Defpoints
 62
     0
100
AcDbPoint
 10
74.44837146015402
 20
125.5049421682588
 30
0.0
  0
ENDBLK
  5
13A
330
133
100
AcDbEntity
  8
0
100
AcDbBlockEnd
  0
BLOCK
  5
13C
330
13B
100
AcDbEntity
  8
0
100
AcDbBlockBegin
  2
*D22
 70
     1
 10
0.0
 20
0.0
 30
0.0
  3
*D22
  1

  0
LINE
  5
13D
330
13B
100
AcDbEntity
  8
DIM
 62
     0
370
    -2
100
AcDbLine
 10
89.03935825385275
 20
148.1299140994499
 30
0.0
 11
89.03935825385275
 21
146.5049140994499
 31
0.0
  0
LINE
  5
13E
330
13B
100
AcDbEntity
  8
DIM
 62
     0
370
    -2
100
AcDbLine
 10
89.03935825385275
 20
146.5049140994499
 30
0.0
 11
88.0708582538527
 21
145.5049140994499
 31
0.0
  0
LINE
  5
13F
330
13B
100
AcDbEntity
  8
DIM
 62
     0
370
    -2
100
AcDbLine
 10
88.0708582538527
 20
145.5049140994499
 30
0.0
 11
88.0708582538527
 21
143.5049140994499
 31
0.0
  0
MTEXT
  5
140
330
13B
100
AcDbEntity
  8
DIM
 62
     0
100
AcDbMText
 10
88.0708582538527
 20
140.8382474327833
 30
0.0
 40
0.9999999999999998
 41
0.0
 71
     5
 72
     1
  1
\A1;14.591
 11
0.0000000000000001
 21
1.0
 31
0.0
 73
     1
 44
1.0
1001
ACAD
1000
MTEXTBEGIN
1070
    73
1070
     1
1070
    44
1040
1.0
1070
    74
1070
     0
1000
MTEXTEND
  0
POINT
  5
141
330
13B
100
AcDbEntity
  8
Defpoints
 62
     0
100
AcDbPoint
 10
89.03935825385275
 20
148.5049140994499
 30
0.0
  0
POINT
  5
142
330
13B
100
AcDbEntity
  8
Defpoints
 62
     0
100
AcDbPoint
 10
88.0708582538527
 20
143.5049140994499
 30
0.0
  0
POINT
  5
143
330
13B
100
AcDbEntity
  8
Defpoints
 62
     0
100
AcDbPoint
 10
74.44837146015402
 20
124.0049421682588
 30
0.0
  0
ENDBLK
  5
144
330
13B
100
AcDbEntity
  8
0
100
AcDbBlockEnd
  0
BLOCK
  5
146
330
145
100
AcDbEntity
  8
0
100
AcDbBlockBegin
  2
*D23
 70
     1
 10
0.0
 20
0.0
 30
0.0
  3
*D23
  1

  0
LINE
  5
147
330
145
100
AcDbEntity
  8
DIM
 62
     0
370
    -2
100
AcDbLine
 10
89.85235825385263
 20
128.0049140994499
 30
0.0
 11
89.85235825385261
 21
119.3137885851913
 31
0.0
  0
MTEXT
  5
148
330
145
100
AcDbEntity
  8
DIM
 62
     0
100
AcDbMText
 10
89.8523582538526
 20
116.5637885851913
 30
0.0
 40
0.9999999999999998
 41
0.0
 71
     5
 72
     1
  1
\A1;15.404
 11
0.0000000000000001
 21
1.0
 31
0.0
 73
     1
 44
1.0
1001
ACAD
1000
MTEXTBEGIN
1070
    73
1070
     1
1070
    44
1040
1.0
1070
    74
1070
     0
1000
MTEXTEND
  0
POINT
  5
149
330
145
100
AcDbEntity
  8
Defpoints
 62
     0
100
AcDbPoint
 10
89.85235825385263
 20
128.3799140994499
 30
0.0
  0
POINT
  5
14A
330
145
100
AcDbEntity
  8
Defpoints
 62
     0
100
AcDbPoint
 10
89.85235825385261
 20
119.3137885851913
 30
0.0
  0
POINT
  5
14B
330
145
100
AcDbEntity
  8
Defpoints
 62
     0
100
AcDbPoint
 10
74.44837146015402
 20
125.5049421682588
 30
0.0
  0
ENDBLK
  5
14C
330
145
100
AcDbEntity
  8
0
100
AcDbBlockEnd
  0
BLOCK
  5
14E
330
14D
100
AcDbEntity
  8
0
100
AcDbBlockBegin
  2
*D24
 70
     1
 10
0.0
 20
0.0
 30
0.0
  3
*D24
  1

  0
LINE
  5
14F
330
14D
100
AcDbEntity
  8
DIM
 62
     0
370
    -2
100
AcDbLine
 10
74.97635825385265
 20
128.0049140994499
 30
0.0
 11
74.97635825385265
 21
122.1764943550885
 31
0.0
  0
LINE
  5
150
330
14D
100
AcDbEntity
  8
DIM
 62
     0
370
    -2
100
AcDbLine
 10
74.97635825385265
 20
122.1764943550885
 30
0.0
 11
75.97635825385265
 21
120.1764943550885
 31
0.0
  0
LINE
  5
151
330
14D
100
AcDbEntity
  8
DIM
 62
     0
370
    -2
100
AcDbLine
 10
75.97635825385265
 20
120.1764943550885
 30
0.0
 11
75.97635825385265
 21
118.1764943550885
 31
0.0
  0
MTEXT
  5
152
330
14D
100
AcDbEntity
  8
DIM
 62
     0
100
AcDbMText
 10
75.97635825385262
 20
115.7598276884218
 30
0.0
 40
0.9999999999999998
 41
0.0
 71
     5
 72
     1
  1
\A1;0.528
 11
0.0000000000000001
 21
1.0
 31
0.0
 73
     1
 44
1.0
1001
ACAD
1000
MTEXTBEGIN
1070
    73
1070
     1
1070
    44
1040
1.0
1070
    74
1070
     0
1000
MTEXTEND
  0
POINT
  5
153
330
14D
100
AcDbEntity
  8
Defpoints
 62
     0
100
AcDbPoint
 10
74.97635825385265
 20
128.3799140994499
 30
0.0
  0
POINT
  5
154
330
14D
100
AcDbEntity
  8
Defpoints
 62
     0
100
AcDbPoint
 10
75.97635825385265
 20
118.1764943550885
 30
0.0
  0
POINT
  5
155
330
14D
100
AcDbEntity
  8
Defpoints
 62
     0
100
AcDbPoint
 10
74.44837146015402
 20
125.5049421682588
 30
0.0
  0
ENDBLK
  5
156
330
14D
100
AcDbEntity
  8
0
100
AcDbBlockEnd
  0
BLOCK
  5
158
330
157
100
AcDbEntity
  8
0
100
AcDbBlockBegin
  2
*D25
 70
     1
 10
0.0
 20
0.0
 30
0.0
  3
*D25
  1

  0
LINE
  5
159
330
157
100
AcDbEntity
  8
DIM
 62
     0
370
    -2
100
AcDbLine
 10
78.53935825385275
 20
135.0049140994499
 30
0.0
 11
78.53935825385275
 21
117.56847279618
 31
0.0
  0
MTEXT
  5
15A
330
157
100
AcDbEntity
  8
DIM
 62
     0
100
AcDbMText
 10
78.53935825385272
 20
115.31847279618
 30
0.0
 40
0.9999999999999998
 41
0.0
 71
     5
 72
     1
  1
\A1;4.091
 11
0.0000000000000001
 21
1.0
 31
0.0
 73
     1
 44
1.0
1001
ACAD
1000
MTEXTBEGIN
1070
    73
1070
     1
1070
    44
1040
1.0
1070
    74
1070
     0
1000
MTEXTEND
  0
POINT
  5
15B
330
157
100
AcDbEntity
  8
Defpoints
 62
     0
100
AcDbPoint
 10
78.53935825385275
 20
135.3799140994499
 30
0.0
  0
POINT
  5
15C
330
157
100
AcDbEntity
  8
Defpoints
 62
     0
100
AcDbPoint
 10
78.53935825385275
 20
117.56847279618
 30
0.0
  0
POINT
  5
15D
330
157
100
AcDbEntity
  8
Defpoints
 62
     0
100
AcDbPoint
 10
74.44837146015402
 20
125.5049421682588
 30
0.0
  0
ENDBLK
  5
15E
330
157
100
AcDbEntity
  8
0
100
AcDbBlockEnd
  0
BLOCK
  5
160
330
15F
100
AcDbEntity
  8
0
100
AcDbBlockBegin
  2
*D26
 70
     1
 10
0.0
 20
0.0
 30
0.0
  3
*D26
  1

  0
LINE
  5
161
330
15F
100
AcDbEntity
  8
DIM
 62
     0
370
    -2
100
AcDbLine
 10
86.28935825385275
 20
135.0049140994499
 30
0.0
 11
86.28935825385275
 21
118.5231413855585
 31
0.0
  0
MTEXT
  5
162
330
15F
100
AcDbEntity
  8
DIM
 62
     0
100
AcDbMText
 10
86.28935825385273
 20
116.0231413855586
 30
0.0
 40
0.9999999999999998
 41
0.0
 71
     5
 72
     1
  1
\A1;11.841
 11
0.0000000000000001
 21
1.0
 31
0.0
 73
     1
 44
1.0
1001
ACAD
1000
MTEXTBEGIN
1070
    73
1070
     1
1070
    44
1040
1.0
1070
    74
1070
     0
1000
MTEXTEND
  0
POINT
  5
163
330
15F
100
AcDbEntity
  8
Defpoints
 62
     0
100
AcDbPoint
 10
86.28935825385275
 20
135.3799140994499
 30
0.0
  0
POINT
  5
164
330
15F
100
AcDbEntity
  8
Defpoints
 62
     0
100
AcDbPoint
 10
86.28935825385275
 20
118.5231413855585
 30
0.0
  0
POINT
  5
165
330
15F
100
AcDbEntity
  8
Defpoints
 62
     0
100
AcDbPoint
 10
74.44837146015402
 20
125.5049421682588
 30
0.0
  0
ENDBLK
  5
166
330
15F
100
AcDbEntity
  8
0
100
AcDbBlockEnd
  0
BLOCK
  5
168
330
167
100
AcDbEntity
  8
0
100
AcDbBlockBegin
  2
*D27
 70
     1
 10
0.0
 20
0.0
 30
0.0
  3
*D27
  1

  0
LINE
  5
169
330
167
100
AcDbEntity
  8
DIM
 62
     0
370
    -2
100
AcDbLine
 10
86.53935825385275
 20
150.3799140994499
 30
0.0
 11
86.53935825385275
 21
147.7923758572402
 31
0.0
  0
LINE
  5
16A
330
167
100
AcDbEntity
  8
DIM
 62
     0
370
    -2
100
AcDbLine
 10
86.53935825385275
 20
147.7923758572402
 30
0.0
 11
82.17506790513596
 21
145.7923758572402
 31
0.0
  0
LINE
  5
16B
330
167
100
AcDbEntity
  8
DIM
 62
     0
370
    -2
100
AcDbLine
 10
82.17506790513596
 20
145.7923758572402
 30
0.0
 11
82.17506790513596
 21
143.7923758572402
 31
0.0
  0
MTEXT
  5
16C
330
167
100
AcDbEntity
  8
DIM
 62
     0
100
AcDbMText
 10
82.17506790513594
 20
141.2090425239068
 30
0.0
 40
0.9999999999999998
 41
0.0
 71
     5
 72
     1
  1
\A1;12.091
 11
0.0000000000000001
 21
1.0
 31
0.0
 73
     1
 44
1.0
1001
ACAD
1000
MTEXTBEGIN
1070
    73
1070
     1
1070
    44
1040
1.0
1070
    74
1070
     0
1000
MTEXTEND
  0
POINT
  5
16D
330
167
100
AcDbEntity
  8
Defpoints
 62
     0
100
AcDbPoint
 10
86.53935825385275
 20
150.7549140994499
 30
0.0
  0
POINT
  5
16E
330
167
100
AcDbEntity
  8
Defpoints
 62
     0
100
AcDbPoint
 10
82.17506790513596
 20
143.7923758572402
 30
0.0
  0
POINT
  5
16F
330
167
100
AcDbEntity
  8
Defpoints
 62
     0
100
AcDbPoint
 10
74.44837146015402
 20
125.5049421682588
 30
0.0
  0
ENDBLK
  5
170
330
167
100
AcDbEntity
  8
0
100
AcDbBlockEnd
  0
BLOCK
  5
214
330
20C
100
AcDbEntity
  8
0
100
AcDbBlockBegin
  2
*D28
 70
     1
 10
0.0
 20
0.0
 30
0.0
  3
*D28
  1

  0
LINE
  5
2F4
330
20C
100
AcDbEntity
  8
DIM
 62
     0
370
    -2
100
AcDbLine
 10
55.09018712968916
 20
-65.19304530072922
 30
0.0
 11
55.09018712968916
 21
-67.95558354293897
 31
0.0
  0
LINE
  5
2F5
330
20C
100
AcDbEntity
  8
DIM
 62
     0
370
    -2
100
AcDbLine
 10
55.09018712968916
 20
-67.95558354293897
 30
0.0
 11
50.7258967809724
 21
-69.95558354293897
 31
0.0
  0
LINE
  5
2F6
330
20C
100
AcDbEntity
  8
DIM
 62
     0
370
    -2
100
AcDbLine
 10
50.7258967809724
 20
-69.95558354293897
 30
0.0
 11
50.7258967809724
 21
-71.95558354293897
 31
0.0
  0
MTEXT
  5
2F7
330
20C
100
AcDbEntity
  8
DIM
 62
     0
100
AcDbMText
 10
50.7258967809724
 20
-74.12891687627229
 30
0.0
 40
0.9999999999999998
 41
0.0
 71
     5
 72
     1
  1
\A1;12.091
 11
0.0000000000000001
 21
1.0
 31
0.0
 73
     1
 44
1.0
1001
ACAD
1000
MTEXTBEGIN
1070
    73
1070
     1
1070
    44
1040
1.0
1070
    74
1070
     0
1000
MTEXTEND
  0
POINT
  5
2F8
330
20C
100
AcDbEntity
  8
Defpoints
 62
     0
100
AcDbPoint
 10
55.09018712968916
 20
-64.99304530072922
 30
0.0
  0
POINT
  5
2F9
330
20C
100
AcDbEntity
  8
Defpoints
 62
     0
100
AcDbPoint
 10
50.7258967809724
 20
-71.95558354293897
 30
0.0
  0
POINT
  5
2FA
330
20C
100
AcDbEntity
  8
Defpoints
 62
     0
100
AcDbPoint
 10
42.99920033599046
 20
-90.24301723192031
 30
0.0
  0
ENDBLK
  5
215
330
20C
100
AcDbEntity
  8
0
100
AcDbBlockEnd
  0
BLOCK
  5
21E
330
216
100
AcDbEntity
  8
0
100
AcDbBlockBegin
  2
*D29
 70
     1
 10
0.0
 20
0.0
 30
0.0
  3
*D29
  1

  0
LINE
  5
5B7
330
216
100
AcDbEntity
  8
DIM
 62
     0
370
    -2
100
AcDbLine
 10
54.89018712968918
 20
-64.99304530072922
 30
0.0
 11
43.60043134630084
 21
-64.99304530072922
 31
0.0
  0
LINE
  5
5B8
330
216
100
AcDbEntity
  8
DIM
 62
     0
370
    -2
100
AcDbLine
 10
43.60043134630084
 20
-64.99304530072922
 30
0.0
 11
41.60043134630085
 21
-61.0629253537724
 31
0.0
  0
LINE
  5
5B9
330
216
100
AcDbEntity
  8
DIM
 62
     0
370
    -2
100
AcDbLine
 10
41.60043134630085
 20
-61.0629253537724
 30
0.0
 11
39.60043134630087
 21
-61.0629253537724
 31
0.0
  0
MTEXT
  5
5BA
330
216
100
AcDbEntity
  8
DIM
 62
     0
100
AcDbMText
 10
37.09376467963422
 20
-61.0629253537724
 30
0.0
 40
0.9999999999999998
 41
0.0
 71
     5
 72
     1
  1
\A1;25.250
 73
     1
 44
1.0
1001
ACAD
1000
MTEXTBEGIN
1070
    73
1070
     1
1070
    44
1040
1.0
1070
    74
1070
     0
1000
MTEXTEND
  0
POINT
  5
5BB
330
216
100
AcDbEntity
  8
Defpoints
 62
     0
100
AcDbPoint
 10
55.09018712968916
 20
-64.99304530072922
 30
0.0
  0
POINT
  5
5BC
330
216
100
AcDbEntity
  8
Defpoints
 62
     0
100
AcDbPoint
 10
39.60043134630087
 20
-61.0629253537724
 30
0.0
  0
POINT
  5
5BD
330
216
100
AcDbEntity
  8
Defpoints
 62
     0
100
AcDbPoint
 10
42.99920033599046
 20
-90.24301723192031
 30
0.0
  0
ENDBLK
  5
21F
330
216
100
AcDbEntity
  8
0
100
AcDbBlockEnd
  0
BLOCK
  5
226
330
220
100
AcDbEntity
  8
0
100
AcDbBlockBegin
  2
*D30
 70
     1
 10
0.0
 20
0.0
 30
0.0
  3
*D30
  1

  0
LINE
  5
302
330
220
100
AcDbEntity
  8
DIM
 62
     0
370
    -2
100
AcDbLine
 10
42.99918712968912
 20
-94.6180453007298
 30
0.0
 11
42.99918712968907
 21
-98.06666197072416
 31
0.0
  0
MTEXT
  5
303
330
220
100
AcDbEntity
  8
DIM
 62
     0
100
AcDbMText
 10
42.99918712968909
 20
-100.2333286373908
 30
0.0
 40
0.9999999999999998
 41
0.0
 71
     5
 72
     1
  1
\A1;0.000
 11
0.0000000000000001
 21
1.0
 31
0.0
 73
     1
 44
1.0
1001
ACAD
1000
MTEXTBEGIN
1070
    73
1070
     1
1070
    44
1040
1.0
1070
    74
1070
     0
1000
MTEXTEND
  0
POINT
  5
304
330
220
100
AcDbEntity
  8
Defpoints
 62
     0
100
AcDbPoint
 10
42.99918712968912
 20
-94.24304530072978
 30
0.0
  0
POINT
  5
305
330
220
100
AcDbEntity
  8
Defpoints
 62
     0
100
AcDbPoint
 10
42.99918712968907
 20
-98.06666197072416
 30
0.0
  0
POINT
  5
306
330
220
100
AcDbEntity
  8
Defpoints
 62
     0
100
AcDbPoint
 10
42.99918712968912
 20
-94.24304530072978
 30
0.0
  0
ENDBLK
  5
227
330
220
100
AcDbEntity
  8
0
100
AcDbBlockEnd
  0
BLOCK
  5
230
330
228
100
AcDbEntity
  8
0
100
AcDbBlockBegin
  2
*D31
 70
     1
 10
0.0
 20
0.0
 30
0.0
  3
*D31
  1

  0
LINE
  5
307
330
228
100
AcDbEntity
  8
DIM
 62
     0
370
    -2
100
AcDbLine
 10
44.08518712968898
 20
-60.74304530072915
 30
0.0
 11
44.08518712968898
 21
-54.27704530072932
 31
0.0
  0
LINE
  5
308
330
228
100
AcDbEntity
  8
DIM
 62
     0
370
    -2
100
AcDbLine
 10
44.08518712968898
 20
-54.27704530072932
 30
0.0
 11
43.085187129689
 21
-52.27704530072932
 31
0.0
  0
LINE
  5
309
330
228
100
AcDbEntity
  8
DIM
 62
     0
370
    -2
100
AcDbLine
 10
43.085187129689
 20
-52.27704530072932
 30
0.0
 11
43.085187129689
 21
-50.27704530072932
 31
0.0
  0
MTEXT
  5
30A
330
228
100
AcDbEntity
  8
DIM
 62
     0
100
AcDbMText
 10
43.08518712968903
 20
-48.02704530072931
 30
0.0
 40
0.9999999999999998
 41
0.0
 71
     5
 72
     1
  1
\A1;1.086
 11
0.0000000000000001
 21
1.0
 31
0.0
 73
     1
 44
1.0
1001
ACAD
1000
MTEXTBEGIN
1070
    73
1070
     1
1070
    44
1040
1.0
1070
    74
1070
     0
1000
MTEXTEND
  0
POINT
  5
30B
330
228
100
AcDbEntity
  8
Defpoints
 62
     0
100
AcDbPoint
 10
44.08518712968898
 20
-61.11804530072916
 30
0.0
  0
POINT
  5
30C
330
228
100
AcDbEntity
  8
Defpoints
 62
     0
100
AcDbPoint
 10
43.085187129689
 20
-50.27704530072932
 30
0.0
  0
POINT
  5
30D
330
228
100
AcDbEntity
  8
Defpoints
 62
     0
100
AcDbPoint
 10
42.99920033599046
 20
-90.24301723192031
 30
0.0
  0
ENDBLK
  5
231
330
228
100
AcDbEntity
  8
0
100
AcDbBlockEnd
  0
BLOCK
  5
238
330
232
100
AcDbEntity
  8
0
100
AcDbBlockBegin
  2
*D32
 70
     1
 10
0.0
 20
0.0
 30
0.0
  3
*D32
  1

  0
LINE
  5
30E
330
232
100
AcDbEntity
  8
DIM
 62
     0
370
    -2
100
AcDbLine
 10
44.62718712968874
 20
-54.50804530072892
 30
0.0
 11
44.62718712968874
 21
-50.27704530072932
 31
0.0
  0
MTEXT
  5
30F
330
232
100
AcDbEntity
  8
DIM
 62
     0
100
AcDbMText
 10
44.62718712968878
 20
-47.94371196739596
 30
0.0
 40
0.9999999999999998
 41
0.0
 71
     5
 72
     1
  1
\A1;1.628
 11
0.0000000000000001
 21
1.0
 31
0.0
 73
     1
 44
1.0
1001
ACAD
1000
MTEXTBEGIN
1070
    73
1070
     1
1070
    44
1040
1.0
1070
    74
1070
     0
1000
MTEXTEND
  0
POINT
  5
310
330
232
100
AcDbEntity
  8
Defpoints
 62
     0
100
AcDbPoint
 10
44.62718712968874
 20
-54.8830453007289
 30
0.0
  0
POINT
  5
311
330
232
100
AcDbEntity
  8
Defpoints
 62
     0
100
AcDbPoint
 10
44.62718712968874
 20
-50.27704530072932
 30
0.0
  0
POINT
  5
312
330
232
100
AcDbEntity
  8
Defpoints
 62
     0
100
AcDbPoint
 10
42.99920033599046
 20
-90.24301723192031
 30
0.0
  0
ENDBLK
  5
239
330
232
100
AcDbEntity
  8
0
100
AcDbBlockEnd
  0
BLOCK
  5
240
330
23A
100
AcDbEntity
  8
0
100
AcDbBlockBegin
  2
*D33
 70
     1
 10
0.0
 20
0.0
 30
0.0
  3
*D33
  1

  0
LINE
  5
313
330
23A
100
AcDbEntity
  8
DIM
 62
     0
370
    -2
100
AcDbLine
 10
49.07318712968891
 20
-54.50804530072897
 30
0.0
 11
49.07318712968891
 21
-50.27704530072932
 31
0.0
  0
MTEXT
  5
314
330
23A
100
AcDbEntity
  8
DIM
 62
     0
100
AcDbMText
 10
49.07318712968891
 20
-47.86037863406264
 30
0.0
 40
0.9999999999999998
 41
0.0
 71
     5
 72
     1
  1
\A1;6.074
 11
0.0000000000000001
 21
1.0
 31
0.0
 73
     1
 44
1.0
1001
ACAD
1000
MTEXTBEGIN
1070
    73
1070
     1
1070
    44
1040
1.0
1070
    74
1070
     0
1000
MTEXTEND
  0
POINT
  5
315
330
23A
100
AcDbEntity
  8
Defpoints
 62
     0
100
AcDbPoint
 10
49.07318712968891
 20
-54.88304530072896
 30
0.0
  0
POINT
  5
316
330
23A
100
AcDbEntity
  8
Defpoints
 62
     0
100
AcDbPoint
 10
49.07318712968891
 20
-50.27704530072932
 30
0.0
  0
POINT
  5
317
330
23A
100
AcDbEntity
  8
Defpoints
 62
     0
100
AcDbPoint
 10
42.99920033599046
 20
-90.24301723192031
 30
0.0
  0
ENDBLK
  5
241
330
23A
100
AcDbEntity
  8
0
100
AcDbBlockEnd
  0
BLOCK
  5
24A
330
242
100
AcDbEntity
  8
0
100
AcDbBlockBegin
  2
*D34
 70
     1
 10
0.0
 20
0.0
 30
0.0
  3
*D34
  1

  0
LINE
  5
318
330
242
100
AcDbEntity
  8
DIM
 62
     0
370
    -2
100
AcDbLine
 10
57.83518712968907
 20
-60.74304530072922
 30
0.0
 11
57.83518712968907
 21
-54.27704530072932
 31
0.0
  0
LINE
  5
319
330
242
100
AcDbEntity
  8
DIM
 62
     0
370
    -2
100
AcDbLine
 10
57.83518712968907
 20
-54.27704530072932
 30
0.0
 11
58.83518712968907
 21
-52.27704530072932
 31
0.0
  0
LINE
  5
31A
330
242
100
AcDbEntity
  8
DIM
 62
     0
370
    -2
100
AcDbLine
 10
58.83518712968907
 20
-52.27704530072932
 30
0.0
 11
58.83518712968907
 21
-50.27704530072932
 31
0.0
  0
MTEXT
  5
31B
330
242
100
AcDbEntity
  8
DIM
 62
     0
100
AcDbMText
 10
58.83518712968909
 20
-47.44371196739597
 30
0.0
 40
0.9999999999999998
 41
0.0
 71
     5
 72
     1
  1
\A1;14.836
 11
0.0000000000000001
 21
1.0
 31
0.0
 73
     1
 44
1.0
1001
ACAD
1000
MTEXTBEGIN
1070
    73
1070
     1
1070
    44
1040
1.0
1070
    74
1070
     0
1000
MTEXTEND
  0
POINT
  5
31C
330
242
100
AcDbEntity
  8
Defpoints
 62
     0
100
AcDbPoint
 10
57.83518712968907
 20
-61.1180453007292
 30
0.0
  0
POINT
  5
31D
330
242
100
AcDbEntity
  8
Defpoints
 62
     0
100
AcDbPoint
 10
58.83518712968907
 20
-50.27704530072932
 30
0.0
  0
POINT
  5
31E
330
242
100
AcDbEntity
  8
Defpoints
 62
     0
100
AcDbPoint
 10
42.99920033599046
 20
-90.24301723192031
 30
0.0
  0
ENDBLK
  5
24B
330
242
100
AcDbEntity
  8
0
100
AcDbBlockEnd
  0
BLOCK
  5
252
330
24C
100
AcDbEntity
  8
0
100
AcDbBlockBegin
  2
*D35
 70
     1
 10
0.0
 20
0.0
 30
0.0
  3
*D35
  1

  0
LINE
  5
31F
330
24C
100
AcDbEntity
  8
DIM
 62
     0
370
    -2
100
AcDbLine
 10
57.44718712968914
 20
-54.50804530072907
 30
0.0
 11
57.44718712968914
 21
-50.27704530072932
 31
0.0
  0
MTEXT
  5
320
330
24C
100
AcDbEntity
  8
DIM
 62
     0
100
AcDbMText
 10
57.44718712968917
 20
-47.44371196739597
 30
0.0
 40
0.9999999999999998
 41
0.0
 71
     5
 72
     1
  1
\A1;14.448
 11
0.0000000000000001
 21
1.0
 31
0.0
 73
     1
 44
1.0
1001
ACAD
1000
MTEXTBEGIN
1070
    73
1070
     1
1070
    44
1040
1.0
1070
    74
1070
     0
1000
MTEXTEND
  0
POINT
  5
321
330
24C
100
AcDbEntity
  8
Defpoints
 62
     0
100
AcDbPoint
 10
57.44718712968914
 20
-54.88304530072909
 30
0.0
  0
POINT
  5
322
330
24C
100
AcDbEntity
  8
Defpoints
 62
     0
100
AcDbPoint
 10
57.44718712968914
 20
-50.27704530072932
 30
0.0
  0
POINT
  5
323
330
24C
100
AcDbEntity
  8
Defpoints
 62
     0
100
AcDbPoint
 10
42.99920033599046
 20
-90.24301723192031
 30
0.0
  0
ENDBLK
  5
253
330
24C
100
AcDbEntity
  8
0
100
AcDbBlockEnd
  0
BLOCK
  5
25A
330
254
100
AcDbEntity
  8
0
100
AcDbBlockBegin
  2
*D36
 70
     1
 10
0.0
 20
0.0
 30
0.0
  3
*D36
  1

  0
LINE
  5
324
330
254
100
AcDbEntity
  8
DIM
 62
     0
370
    -2
100
AcDbLine
 10
53.00118712968902
 20
-54.50804530072903
 30
0.0
 11
53.00118712968902
 21
-50.27704530072932
 31
0.0
  0
MTEXT
  5
325
330
254
100
AcDbEntity
  8
DIM
 62
     0
100
AcDbMText
 10
53.00118712968902
 20
-47.69371196739597
 30
0.0
 40
0.9999999999999998
 41
0.0
 71
     5
 72
     1
  1
\A1;10.002
 11
0.0000000000000001
 21
1.0
 31
0.0
 73
     1
 44
1.0
1001
ACAD
1000
MTEXTBEGIN
1070
    73
1070
     1
1070
    44
1040
1.0
1070
    74
1070
     0
1000
MTEXTEND
  0
POINT
  5
326
330
254
100
AcDbEntity
  8
Defpoints
 62
     0
100
AcDbPoint
 10
53.00118712968902
 20
-54.88304530072903
 30
0.0
  0
POINT
  5
327
330
254
100
AcDbEntity
  8
Defpoints
 62
     0
100
AcDbPoint
 10
53.00118712968902
 20
-50.27704530072932
 30
0.0
  0
POINT
  5
328
330
254
100
AcDbEntity
  8
Defpoints
 62
     0
100
AcDbPoint
 10
42.99920033599046
 20
-90.24301723192031
 30
0.0
  0
ENDBLK
  5
25B
330
254
100
AcDbEntity
  8
0
100
AcDbBlockEnd
  0
BLOCK
  5
264
330
25C
100
AcDbEntity
  8
0
100
AcDbBlockBegin
  2
*D37
 70
     1
 10
0.0
 20
0.0
 30
0.0
  3
*D37
  1

  0
LINE
  5
329
330
25C
100
AcDbEntity
  8
DIM
 62
     0
370
    -2
100
AcDbLine
 10
57.59018712968916
 20
-67.61804530072922
 30
0.0
 11
57.59018712968916
 21
-69.24304530072922
 31
0.0
  0
LINE
  5
32A
330
25C
100
AcDbEntity
  8
DIM
 62
     0
370
    -2
100
AcDbLine
 10
57.59018712968916
 20
-69.24304530072922
 30
0.0
 11
56.62168712968912
 21
-70.24304530072922
 31
0.0
  0
LINE
  5
32B
330
25C
100
AcDbEntity
  8
DIM
 62
     0
370
    -2
100
AcDbLine
 10
56.62168712968912
 20
-70.24304530072922
 30
0.0
 11
56.62168712968912
 21
-72.24304530072922
 31
0.0
  0
MTEXT
  5
32C
330
25C
100
AcDbEntity
  8
DIM
 62
     0
100
AcDbMText
 10
56.62168712968913
 20
-74.90971196739588
 30
0.0
 40
0.9999999999999998
 41
0.0
 71
     5
 72
     1
  1
\A1;14.591
 11
0.0000000000000001
 21
1.0
 31
0.0
 73
     1
 44
1.0
1001
ACAD
1000
MTEXTBEGIN
1070
    73
1070
     1
1070
    44
1040
1.0
1070
    74
1070
     0
1000
MTEXTEND
  0
POINT
  5
32D
330
25C
100
AcDbEntity
  8
Defpoints
 62
     0
100
AcDbPoint
 10
57.59018712968916
 20
-67.24304530072922
 30
0.0
  0
POINT
  5
32E
330
25C
100
AcDbEntity
  8
Defpoints
 62
     0
100
AcDbPoint
 10
56.62168712968912
 20
-72.24304530072922
 30
0.0
  0
POINT
  5
32F
330
25C
100
AcDbEntity
  8
Defpoints
 62
     0
100
AcDbPoint
 10
42.99920033599046
 20
-91.74301723192034
 30
0.0
  0
ENDBLK
  5
265
330
25C
100
AcDbEntity
  8
0
100
AcDbBlockEnd
  0
BLOCK
  5
26C
330
266
100
AcDbEntity
  8
0
100
AcDbBlockBegin
  2
*D38
 70
     1
 10
0.0
 20
0.0
 30
0.0
  3
*D38
  1

  0
LINE
  5
330
330
266
100
AcDbEntity
  8
DIM
 62
     0
370
    -2
100
AcDbLine
 10
58.40318712968906
 20
-87.74304530072923
 30
0.0
 11
58.40318712968901
 21
-96.43417081498785
 31
0.0
  0
MTEXT
  5
331
330
266
100
AcDbEntity
  8
DIM
 62
     0
100
AcDbMText
 10
58.40318712968904
 20
-99.1841708149878
 30
0.0
 40
0.9999999999999998
 41
0.0
 71
     5
 72
     1
  1
\A1;15.404
 11
0.0000000000000001
 21
1.0
 31
0.0
 73
     1
 44
1.0
1001
ACAD
1000
MTEXTBEGIN
1070
    73
1070
     1
1070
    44
1040
1.0
1070
    74
1070
     0
1000
MTEXTEND
  0
POINT
  5
332
330
266
100
AcDbEntity
  8
Defpoints
 62
     0
100
AcDbPoint
 10
58.40318712968906
 20
-87.3680453007292
 30
0.0
  0
POINT
  5
333
330
266
100
AcDbEntity
  8
Defpoints
 62
     0
100
AcDbPoint
 10
58.40318712968901
 20
-96.43417081498785
 30
0.0
  0
POINT
  5
334
330
266
100
AcDbEntity
  8
Defpoints
 62
     0
100
AcDbPoint
 10
42.99920033599046
 20
-90.24301723192031
 30
0.0
  0
ENDBLK
  5
26D
330
266
100
AcDbEntity
  8
0
100
AcDbBlockEnd
  0
BLOCK
  5
276
330
26E
100
AcDbEntity
  8
0
100
AcDbBlockBegin
  2
*D39
 70
     1
 10
0.0
 20
0.0
 30
0.0
  3
*D39
  1

  0
LINE
  5
335
330
26E
100
AcDbEntity
  8
DIM
 62
     0
370
    -2
100
AcDbLine
 10
43.52718712968907
 20
-87.74304530072923
 30
0.0
 11
43.52718712968907
 21
-93.57146504509064
 31
0.0
  0
LINE
  5
336
330
26E
100
AcDbEntity
  8
DIM
 62
     0
370
    -2
100
AcDbLine
 10
43.52718712968907
 20
-93.57146504509064
 30
0.0
 11
44.52718712968903
 21
-95.57146504509063
 31
0.0
  0
LINE
  5
337
330
26E
100
AcDbEntity
  8
DIM
 62
     0
370
    -2
100
AcDbLine
 10
44.52718712968903
 20
-95.57146504509063
 30
0.0
 11
44.52718712968903
 21
-97.57146504509064
 31
0.0
  0
MTEXT
  5
338
330
26E
100
AcDbEntity
  8
DIM
 62
     0
100
AcDbMText
 10
44.52718712968905
 20
-99.98813171175727
 30
0.0
 40
0.9999999999999998
 41
0.0
 71
     5
 72
     1
  1
\A1;0.528
 11
0.0000000000000001
 21
1.0
 31
0.0
 73
     1
 44
1.0
1001
ACAD
1000
MTEXTBEGIN
1070
    73
1070
     1
1070
    44
1040
1.0
1070
    74
1070
     0
1000
MTEXTEND
  0
POINT
  5
339
330
26E
100
AcDbEntity
  8
Defpoints
 62
     0
100
AcDbPoint
 10
43.52718712968907
 20
-87.3680453007292
 30
0.0
  0
POINT
  5
33A
330
26E
100
AcDbEntity
  8
Defpoints
 62
     0
100
AcDbPoint
 10
44.52718712968903
 20
-97.57146504509064
 30
0.0
  0
POINT
  5
33B
330
26E
100
AcDbEntity
  8
Defpoints
 62
     0
100
AcDbPoint
 10
42.99920033599046
 20
-90.24301723192031
 30
0.0
  0
ENDBLK
  5
277
330
26E
100
AcDbEntity
  8
0
100
AcDbBlockEnd
  0
BLOCK
  5
27E
330
278
100
AcDbEntity
  8
0
100
AcDbBlockBegin
  2
*D40
 70
     1
 10
0.0
 20
0.0
 30
0.0
  3
*D40
  1

  0
LINE
  5
33C
330
278
100
AcDbEntity
  8
DIM
 62
     0
370
    -2
100
AcDbLine
 10
47.09018712968918
 20
-80.74304530072922
 30
0.0
 11
47.09018712968914
 21
-98.17948660399915
 31
0.0
  0
MTEXT
  5
33D
330
278
100
AcDbEntity
  8
DIM
 62
     0
100
AcDbMText
 10
47.09018712968915
 20
-100.4294866039991
 30
0.0
 40
0.9999999999999998
 41
0.0
 71
     5
 72
     1
  1
\A1;4.091
 11
0.0000000000000001
 21
1.0
 31
0.0
 73
     1
 44
1.0
1001
ACAD
1000
MTEXTBEGIN
1070
    73
1070
     1
1070
    44
1040
1.0
1070
    74
1070
     0
1000
MTEXTEND
  0
POINT
  5
33E
330
278
100
AcDbEntity
  8
Defpoints
 62
     0
100
AcDbPoint
 10
47.09018712968918
 20
-80.36804530072922
 30
0.0
  0
POINT
  5
33F
330
278
100
AcDbEntity
  8
Defpoints
 62
     0
100
AcDbPoint
 10
47.09018712968914
 20
-98.17948660399915
 30
0.0
  0
POINT
  5
340
330
278
100
AcDbEntity
  8
Defpoints
 62
     0
100
AcDbPoint
 10
42.99920033599046
 20
-90.24301723192031
 30
0.0
  0
ENDBLK
  5
27F
330
278
100
AcDbEntity
  8
0
100
AcDbBlockEnd
  0
BLOCK
  5
286
330
280
100
AcDbEntity
  8
0
100
AcDbBlockBegin
  2
*D41
 70
     1
 10
0.0
 20
0.0
 30
0.0
  3
*D41
  1

  0
LINE
  5
341
330
280
100
AcDbEntity
  8
DIM
 62
     0
370
    -2
100
AcDbLine
 10
54.84018712968918
 20
-80.74304530072922
 30
0.0
 11
54.84018712968914
 21
-97.22481801462059
 31
0.0
  0
MTEXT
  5
342
330
280
100
AcDbEntity
  8
DIM
 62
     0
100
AcDbMText
 10
54.84018712968914
 20
-99.72481801462059
 30
0.0
 40
0.9999999999999998
 41
0.0
 71
     5
 72
     1
  1
\A1;11.841
 11
0.0000000000000001
 21
1.0
 31
0.0
 73
     1
 44
1.0
1001
ACAD
1000
MTEXTBEGIN
1070
    73
1070
     1
1070
    44
1040
1.0
1070
    74
1070
     0
1000
MTEXTEND
  0
POINT
  5
343
330
280
100
AcDbEntity
  8
Defpoints
 62
     0
100
AcDbPoint
 10
54.84018712968918
 20
-80.36804530072922
 30
0.0
  0
POINT
  5
344
330
280
100
AcDbEntity
  8
Defpoints
 62
     0
100
AcDbPoint
 10
54.84018712968914
 20
-97.22481801462059
 30
0.0
  0
POINT
  5
345
330
280
100
AcDbEntity
  8
Defpoints
 62
     0
100
AcDbPoint
 10
42.99920033599046
 20
-90.24301723192031
 30
0.0
  0
ENDBLK
  5
287
330
280
100
AcDbEntity
  8
0
100
AcDbBlockEnd
  0
BLOCK
  5
28E
330
288
100
AcDbEntity
  8
0
100
AcDbBlockBegin
  2
*D42
 70
     1
 10
0.0
 20
0.0
 30
0.0
  3
*D42
  1

  0
LINE
  5
346
330
288
100
AcDbEntity
  8
DIM
 62
     0
370
    -2
100
AcDbLine
 10
42.79918712968937
 20
-94.30304530072945
 30
0.0
 11
39.10559899148712
 21
-94.30304530072945
 31
0.0
  0
MTEXT
  5
347
330
288
100
AcDbEntity
  8
DIM
 62
     0
100
AcDbMText
 10
37.34893232482046
 20
-94.30304530072945
 30
0.0
 40
0.9999999999999998
 41
0.0
 71
     5
 72
     1
  1
\A1;0.000
 73
     1
 44
1.0
1001
ACAD
1000
MTEXTBEGIN
1070
    73
1070
     1
1070
    44
1040
1.0
1070
    74
1070
     0
1000
MTEXTEND
  0
POINT
  5
348
330
288
100
AcDbEntity
  8
Defpoints
 62
     0
100
AcDbPoint
 10
42.99918712968938
 20
-94.30304530072945
 30
0.0
  0
POINT
  5
349
330
288
100
AcDbEntity
  8
Defpoints
 62
     0
100
AcDbPoint
 10
39.10559899148712
 20
-94.30304530072945
 30
0.0
  0
POINT
  5
34A
330
288
100
AcDbEntity
  8
Defpoints
 62
     0
100
AcDbPoint
 10
42.99918712968938
 20
-94.30304530072945
 30
0.0
  0
ENDBLK
  5
28F
330
288
100
AcDbEntity
  8
0
100
AcDbBlockEnd
  0
BLOCK
  5
296
330
290
100
AcDbEntity
  8
0
100
AcDbBlockBegin
  2
*D43
 70
     1
 10
0.0
 20
0.0
 30
0.0
  3
*D43
  1

  0
LINE
  5
34B
330
290
100
AcDbEntity
  8
DIM
 62
     0
370
    -2
100
AcDbLine
 10
43.32718712968907
 20
-87.3680453007292
 30
0.0
 11
38.66275819272308
 21
-87.3680453007292
 31
0.0
  0
MTEXT
  5
34C
330
290
100
AcDbEntity
  8
DIM
 62
     0
100
AcDbMText
 10
36.57275819272309
 20
-87.3680453007292
 30
0.0
 40
0.9999999999999998
 41
0.0
 71
     5
 72
     1
  1
\A1;6.935
 73
     1
 44
1.0
1001
ACAD
1000
MTEXTBEGIN
1070
    73
1070
     1
1070
    44
1040
1.0
1070
    74
1070
     0
1000
MTEXTEND
  0
POINT
  5
34D
330
290
100
AcDbEntity
  8
Defpoints
 62
     0
100
AcDbPoint
 10
43.52718712968907
 20
-87.3680453007292
 30
0.0
  0
POINT
  5
34E
330
290
100
AcDbEntity
  8
Defpoints
 62
     0
100
AcDbPoint
 10
38.66275819272308
 20
-87.3680453007292
 30
0.0
  0
POINT
  5
34F
330
290
100
AcDbEntity
  8
Defpoints
 62
     0
100
AcDbPoint
 10
42.99918712968938
 20
-94.30304530072945
 30
0.0
  0
ENDBLK
  5
297
330
290
100
AcDbEntity
  8
0
100
AcDbBlockEnd
  0
BLOCK
  5
29E
330
298
100
AcDbEntity
  8
0
100
AcDbBlockBegin
  2
*D44
 70
     1
 10
0.0
 20
0.0
 30
0.0
  3
*D44
  1

  0
LINE
  5
350
330
298
100
AcDbEntity
  8
DIM
 62
     0
370
    -2
100
AcDbLine
 10
46.89018712968918
 20
-80.36804530072922
 30
0.0
 11
38.99918712968912
 21
-80.36804530072922
 31
0.0
  0
MTEXT
  5
351
330
298
100
AcDbEntity
  8
DIM
 62
     0
100
AcDbMText
 10
36.57585379635579
 20
-80.36804530072922
 30
0.0
 40
0.9999999999999998
 41
0.0
 71
     5
 72
     1
  1
\A1;13.935
 73
     1
 44
1.0
1001
ACAD
1000
MTEXTBEGIN
1070
    73
1070
     1
1070
    44
1040
1.0
1070
    74
1070
     0
1000
MTEXTEND
  0
POINT
  5
352
330
298
100
AcDbEntity
  8
Defpoints
 62
     0
100
AcDbPoint
 10
47.09018712968918
 20
-80.36804530072922
 30
0.0
  0
POINT
  5
353
330
298
100
AcDbEntity
  8
Defpoints
 62
     0
100
AcDbPoint
 10
38.99918712968912
 20
-80.36804530072922
 30
0.0
  0
POINT
  5
354
330
298
100
AcDbEntity
  8
Defpoints
 62
     0
100
AcDbPoint
 10
42.99918712968938
 20
-94.30304530072945
 30
0.0
  0
ENDBLK
  5
29F
330
298
100
AcDbEntity
  8
0
100
AcDbBlockEnd
  0
BLOCK
  5
2A6
330
2A0
100
AcDbEntity
  8
0
100
AcDbBlockBegin
  2
*D45
 70
     1
 10
0.0
 20
0.0
 30
0.0
  3
*D45
  1

  0
LINE
  5
355
330
2A0
100
AcDbEntity
  8
DIM
 62
     0
370
    -2
100
AcDbLine
 10
46.89018712968918
 20
-73.36804530072922
 30
0.0
 11
38.99918712968906
 21
-73.36804530072922
 31
0.0
  0
MTEXT
  5
356
330
2A0
100
AcDbEntity
  8
DIM
 62
     0
100
AcDbMText
 10
36.49252046302239
 20
-73.36804530072922
 30
0.0
 40
0.9999999999999998
 41
0.0
 71
     5
 72
     1
  1
\A1;20.935
 73
     1
 44
1.0
1001
ACAD
1000
MTEXTBEGIN
1070
    73
1070
     1
1070
    44
1040
1.0
1070
    74
1070
     0
1000
MTEXTEND
  0
POINT
  5
357
330
2A0
100
AcDbEntity
  8
Defpoints
 62
     0
100
AcDbPoint
 10
47.09018712968918
 20
-73.36804530072922
 30
0.0
  0
POINT
  5
358
330
2A0
100
AcDbEntity
  8
Defpoints
 62
     0
100
AcDbPoint
 10
38.99918712968906
 20
-73.36804530072922
 30
0.0
  0
POINT
  5
359
330
2A0
100
AcDbEntity
  8
Defpoints
 62
     0
100
AcDbPoint
 10
42.99918712968938
 20
-94.30304530072945
 30
0.0
  0
ENDBLK
  5
2A7
330
2A0
100
AcDbEntity
  8
0
100
AcDbBlockEnd
  0
BLOCK
  5
2AE
330
2A8
100
AcDbEntity
  8
0
100
AcDbBlockBegin
  2
*D46
 70
     1
 10
0.0
 20
0.0
 30
0.0
  3
*D46
  1

  0
LINE
  5
35A
330
2A8
100
AcDbEntity
  8
DIM
 62
     0
370
    -2
100
AcDbLine
 10
44.42718712968876
 20
-57.71804530072895
 30
0.0
 11
38.99918712968906
 21
-57.71804530072895
 31
0.0
  0
MTEXT
  5
35B
330
2A8
100
AcDbEntity
  8
DIM
 62
     0
100
AcDbMText
 10
36.40918712968907
 20
-57.71804530072895
 30
0.0
 40
0.9999999999999998
 41
0.0
 71
     5
 72
     1
  1
\A1;36.585
 73
     1
 44
1.0
1001
ACAD
1000
MTEXTBEGIN
1070
    73
1070
     1
1070
    44
1040
1.0
1070
    74
1070
     0
1000
MTEXTEND
  0
POINT
  5
35C
330
2A8
100
AcDbEntity
  8
Defpoints
 62
     0
100
AcDbPoint
 10
44.62718712968874
 20
-57.71804530072895
 30
0.0
  0
POINT
  5
35D
330
2A8
100
AcDbEntity
  8
Defpoints
 62
     0
100
AcDbPoint
 10
38.99918712968906
 20
-57.71804530072895
 30
0.0
  0
POINT
  5
35E
330
2A8
100
AcDbEntity
  8
Defpoints
 62
     0
100
AcDbPoint
 10
42.99918712968938
 20
-94.30304530072945
 30
0.0
  0
ENDBLK
  5
2AF
330
2A8
100
AcDbEntity
  8
0
100
AcDbBlockEnd
  0
BLOCK
  5
2B6
330
2B0
100
AcDbEntity
  8
0
100
AcDbBlockBegin
  2
*D47
 70
     1
 10
0.0
 20
0.0
 30
0.0
  3
*D47
  1

  0
LINE
  5
35F
330
2B0
100
AcDbEntity
  8
DIM
 62
     0
370
    -2
100
AcDbLine
 10
44.42718712968876
 20
-54.8830453007289
 30
0.0
 11
38.99918712968906
 21
-54.8830453007289
 31
0.0
  0
MTEXT
  5
360
330
2B0
100
AcDbEntity
  8
DIM
 62
     0
100
AcDbMText
 10
36.49252046302239
 20
-54.8830453007289
 30
0.0
 40
0.9999999999999998
 41
0.0
 71
     5
 72
     1
  1
\A1;39.420
 73
     1
 44
1.0
1001
ACAD
1000
MTEXTBEGIN
1070
    73
1070
     1
1070
    44
1040
1.0
1070
    74
1070
     0
1000
MTEXTEND
  0
POINT
  5
361
330
2B0
100
AcDbEntity
  8
Defpoints
 62
     0
100
AcDbPoint
 10
44.62718712968874
 20
-54.8830453007289
 30
0.0
  0
POINT
  5
362
330
2B0
100
AcDbEntity
  8
Defpoints
 62
     0
100
AcDbPoint
 10
38.99918712968906
 20
-54.8830453007289
 30
0.0
  0
POINT
  5
363
330
2B0
100
AcDbEntity
  8
Defpoints
 62
     0
100
AcDbPoint
 10
42.99918712968938
 20
-94.30304530072945
 30
0.0
  0
ENDBLK
  5
2B7
330
2B0
100
AcDbEntity
  8
0
100
AcDbBlockEnd
  0
BLOCK
  5
2BE
330
2B8
100
AcDbEntity
  8
0
100
AcDbBlockBegin
  2
*D48
 70
     1
 10
0.0
 20
0.0
 30
0.0
  3
*D48
  1

  0
LINE
  5
364
330
2B8
100
AcDbEntity
  8
DIM
 62
     0
370
    -2
100
AcDbLine
 10
58.60318712968906
 20
-74.24304530072922
 30
0.0
 11
62.94435147796912
 21
-74.24304530072922
 31
0.0
  0
MTEXT
  5
365
330
2B8
100
AcDbEntity
  8
DIM
 62
     0
100
AcDbMText
 10
65.28435147796912
 20
-74.24304530072922
 30
0.0
 40
0.9999999999999998
 41
0.0
 71
     5
 72
     1
  1
\A1;20.060
 73
     1
 44
1.0
1001
ACAD
1000
MTEXTBEGIN
1070
    73
1070
     1
1070
    44
1040
1.0
1070
    74
1070
     0
1000
MTEXTEND
  0
POINT
  5
366
330
2B8
100
AcDbEntity
  8
Defpoints
 62
     0
100
AcDbPoint
 10
58.40318712968906
 20
-74.24304530072922
 30
0.0
  0
POINT
  5
367
330
2B8
100
AcDbEntity
  8
Defpoints
 62
     0
100
AcDbPoint
 10
62.94435147796912
 20
-74.24304530072922
 30
0.0
  0
POINT
  5
368
330
2B8
100
AcDbEntity
  8
Defpoints
 62
     0
100
AcDbPoint
 10
42.99918712968938
 20
-94.30304530072945
 30
0.0
  0
ENDBLK
  5
2BF
330
2B8
100
AcDbEntity
  8
0
100
AcDbBlockEnd
  0
BLOCK
  5
2C8
330
2C0
100
AcDbEntity
  8
0
100
AcDbBlockBegin
  2
*D49
 70
     1
 10
0.0
 20
0.0
 30
0.0
  3
*D49
  1

  0
LINE
  5
369
330
2C0
100
AcDbEntity
  8
DIM
 62
     0
370
    -2
100
AcDbLine
 10
57.79018712968919
 20
-67.24304530072922
 30
0.0
 11
59.59018712968918
 21
-67.24304530072922
 31
0.0
  0
LINE
  5
36A
330
2C0
100
AcDbEntity
  8
DIM
 62
     0
370
    -2
100
AcDbLine
 10
59.59018712968918
 20
-67.24304530072922
 30
0.0
 11
61.11825791632583
 21
-69.03376673442685
 31
0.0
  0
LINE
  5
36B
330
2C0
100
AcDbEntity
  8
DIM
 62
     0
370
    -2
100
AcDbLine
 10
61.11825791632583
 20
-69.03376673442685
 30
0.0
 11
63.11825791632582
 21
-69.03376673442685
 31
0.0
  0
MTEXT
  5
36C
330
2C0
100
AcDbEntity
  8
DIM
 62
     0
100
AcDbMText
 10
65.54159124965917
 20
-69.03376673442685
 30
0.0
 40
0.9999999999999998
 41
0.0
 71
     5
 72
     1
  1
\A1;27.060
 73
     1
 44
1.0
1001
ACAD
1000
MTEXTBEGIN
1070
    73
1070
     1
1070
    44
1040
1.0
1070
    74
1070
     0
1000
MTEXTEND
  0
POINT
  5
36D
330
2C0
100
AcDbEntity
  8
Defpoints
 62
     0
100
AcDbPoint
 10
57.59018712968916
 20
-67.24304530072922
 30
0.0
  0
POINT
  5
36E
330
2C0
100
AcDbEntity
  8
Defpoints
 62
     0
100
AcDbPoint
 10
63.11825791632582
 20
-69.03376673442685
 30
0.0
  0
POINT
  5
36F
330
2C0
100
AcDbEntity
  8
Defpoints
 62
     0
100
AcDbPoint
 10
42.99918712968938
 20
-94.30304530072945
 30
0.0
  0
ENDBLK
  5
2C9
330
2C0
100
AcDbEntity
  8
0
100
AcDbBlockEnd
  0
BLOCK
  5
2D0
330
2CA
100
AcDbEntity
  8
0
100
AcDbBlockBegin
  2
*D50
 70
     1
 10
0.0
 20
0.0
 30
0.0
  3
*D50
  1

  0
LINE
  5
370
330
2CA
100
AcDbEntity
  8
DIM
 62
     0
370
    -2
100
AcDbLine
 10
57.79018712968919
 20
-65.74304530072922
 30
0.0
 11
62.93118712968913
 21
-65.74304530072922
 31
0.0
  0
MTEXT
  5
371
330
2CA
100
AcDbEntity
  8
DIM
 62
     0
100
AcDbMText
 10
65.43785379635579
 20
-65.74304530072922
 30
0.0
 40
0.9999999999999998
 41
0.0
 71
     5
 72
     1
  1
\A1;28.560
 73
     1
 44
1.0
1001
ACAD
1000
MTEXTBEGIN
1070
    73
1070
     1
1070
    44
1040
1.0
1070
    74
1070
     0
1000
MTEXTEND
  0
POINT
  5
372
330
2CA
100
AcDbEntity
  8
Defpoints
 62
     0
100
AcDbPoint
 10
57.59018712968916
 20
-65.74304530072922
 30
0.0
  0
POINT
  5
373
330
2CA
100
AcDbEntity
  8
Defpoints
 62
     0
100
AcDbPoint
 10
62.93118712968913
 20
-65.74304530072922
 30
0.0
  0
POINT
  5
374
330
2CA
100
AcDbEntity
  8
Defpoints
 62
     0
100
AcDbPoint
 10
42.99918712968938
 20
-94.30304530072945
 30
0.0
  0
ENDBLK
  5
2D1
330
2CA
100
AcDbEntity
  8
0
100
AcDbBlockEnd
  0
BLOCK
  5
2DA
330
2D2
100
AcDbEntity
  8
0
100
AcDbBlockBegin
  2
*D51
 70
     1
 10
0.0
 20
0.0
 30
0.0
  3
*D51
  1

  0
LINE
  5
375
330
2D2
100
AcDbEntity
  8
DIM
 62
     0
370
    -2
100
AcDbLine
 10
58.60318712968906
 20
-63.6180453007292
 30
0.0
 11
60.40318712968907
 21
-63.6180453007292
 31
0.0
  0
LINE
  5
376
330
2D2
100
AcDbEntity
  8
DIM
 62
     0
370
    -2
100
AcDbLine
 10
60.40318712968907
 20
-63.6180453007292
 30
0.0
 11
60.93118712968912
 21
-64.30554530072928
 31
0.0
  0
LINE
  5
377
330
2D2
100
AcDbEntity
  8
DIM
 62
     0
370
    -2
100
AcDbLine
 10
60.93118712968912
 20
-64.30554530072928
 30
0.0
 11
62.93118712968913
 21
-64.30554530072928
 31
0.0
  0
MTEXT
  5
378
330
2D2
100
AcDbEntity
  8
DIM
 62
     0
100
AcDbMText
 10
65.43785379635579
 20
-64.30554530072928
 30
0.0
 40
0.9999999999999998
 41
0.0
 71
     5
 72
     1
  1
\A1;30.685
 73
     1
 44
1.0
1001
ACAD
1000
MTEXTBEGIN
1070
    73
1070
     1
1070
    44
1040
1.0
1070
    74
1070
     0
1000
MTEXTEND
  0
POINT
  5
379
330
2D2
100
AcDbEntity
  8
Defpoints
 62
     0
100
AcDbPoint
 10
58.40318712968906
 20
-63.6180453007292
 30
0.0
  0
POINT
  5
37A
330
2D2
100
AcDbEntity
  8
Defpoints
 62
     0
100
AcDbPoint
 10
62.93118712968913
 20
-64.30554530072928
 30
0.0
  0
POINT
  5
37B
330
2D2
100
AcDbEntity
  8
Defpoints
 62
     0
100
AcDbPoint
 10
42.99918712968938
 20
-94.30304530072945
 30
0.0
  0
ENDBLK
  5
2DB
330
2D2
100
AcDbEntity
  8
0
100
AcDbBlockEnd
  0
BLOCK
  5
2E2
330
2DC
100
AcDbEntity
  8
0
100
AcDbBlockBegin
  2
*D52
 70
     1
 10
0.0
 20
0.0
 30
0.0
  3
*D52
  1

  0
LINE
  5
37C
330
2DC
100
AcDbEntity
  8
DIM
 62
     0
370
    -2
100
AcDbLine
 10
58.03518712968907
 20
-62.86804530072927
 30
0.0
 11
62.93118712968913
 21
-62.86804530072927
 31
0.0
  0
MTEXT
  5
37D
330
2DC
100
AcDbEntity
  8
DIM
 62
     0
100
AcDbMText
 10
65.35452046302246
 20
-62.86804530072927
 30
0.0
 40
0.9999999999999998
 41
0.0
 71
     5
 72
     1
  1
\A1;31.435
 73
     1
 44
1.0
1001
ACAD
1000
MTEXTBEGIN
1070
    73
1070
     1
1070
    44
1040
1.0
1070
    74
1070
     0
1000
MTEXTEND
  0
POINT
  5
37E
330
2DC
100
AcDbEntity
  8
Defpoints
 62
     0
100
AcDbPoint
 10
57.83518712968907
 20
-62.86804530072927
 30
0.0
  0
POINT
  5
37F
330
2DC
100
AcDbEntity
  8
Defpoints
 62
     0
100
AcDbPoint
 10
62.93118712968913
 20
-62.86804530072927
 30
0.0
  0
POINT
  5
380
330
2DC
100
AcDbEntity
  8
Defpoints
 62
     0
100
AcDbPoint
 10
42.99918712968938
 20
-94.30304530072945
 30
0.0
  0
ENDBLK
  5
2E3
330
2DC
100
AcDbEntity
  8
0
100
AcDbBlockEnd
  0
BLOCK
  5
2EA
330
2E4
100
AcDbEntity
  8
0
100
AcDbBlockBegin
  2
*D53
 70
     1
 10
0.0
 20
0.0
 30
0.0
  3
*D53
  1

  0
LINE
  5
381
330
2E4
100
AcDbEntity
  8
DIM
 62
     0
370
    -2
100
AcDbLine
 10
58.03518712968907
 20
-61.1180453007292
 30
0.0
 11
62.93118712968913
 21
-61.1180453007292
 31
0.0
  0
MTEXT
  5
382
330
2E4
100
AcDbEntity
  8
DIM
 62
     0
100
AcDbMText
 10
65.35452046302246
 20
-61.1180453007292
 30
0.0
 40
0.9999999999999998
 41
0.0
 71
     5
 72
     1
  1
\A1;33.185
 73
     1
 44
1.0
1001
ACAD
1000
MTEXTBEGIN
1070
    73
1070
     1
1070
    44
1040
1.0
1070
    74
1070
     0
1000
MTEXTEND
  0
POINT
  5
383
330
2E4
100
AcDbEntity
  8
Defpoints
 62
     0
100
AcDbPoint
 10
57.83518712968907
 20
-61.1180453007292
 30
0.0
  0
POINT
  5
384
330
2E4
100
AcDbEntity
  8
Defpoints
 62
     0
100
AcDbPoint
 10
62.93118712968913
 20
-61.1180453007292
 30
0.0
  0
POINT
  5
385
330
2E4
100
AcDbEntity
  8
Defpoints
 62
     0
100
AcDbPoint
 10
42.99918712968938
 20
-94.30304530072945
 30
0.0
  0
ENDBLK
  5
2EB
330
2E4
100
AcDbEntity
  8
0
100
AcDbBlockEnd
  0
BLOCK
  5
2F2
330
2EC
100
AcDbEntity
  8
0
100
AcDbBlockBegin
  2
*D54
 70
     1
 10
0.0
 20
0.0
 30
0.0
  3
*D54
  1

  0
LINE
  5
386
330
2EC
100
AcDbEntity
  8
DIM
 62
     0
370
    -2
100
AcDbLine
 10
58.60318712968906
 20
-58.36804530072921
 30
0.0
 11
62.93118712968913
 21
-58.36804530072921
 31
0.0
  0
MTEXT
  5
387
330
2EC
100
AcDbEntity
  8
DIM
 62
     0
100
AcDbMText
 10
65.52118712968914
 20
-58.36804530072921
 30
0.0
 40
0.9999999999999998
 41
0.0
 71
     5
 72
     1
  1
\A1;35.935
 73
     1
 44
1.0
1001
ACAD
1000
MTEXTBEGIN
1070
    73
1070
     1
1070
    44
1040
1.0
1070
    74
1070
     0
1000
MTEXTEND
  0
POINT
  5
388
330
2EC
100
AcDbEntity
  8
Defpoints
 62
     0
100
AcDbPoint
 10
58.40318712968906
 20
-58.36804530072921
 30
0.0
  0
POINT
  5
389
330
2EC
100
AcDbEntity
  8
Defpoints
 62
     0
100
AcDbPoint
 10
62.93118712968913
 20
-58.36804530072921
 30
0.0
  0
POINT
  5
38A
330
2EC
100
AcDbEntity
  8
Defpoints
 62
     0
100
AcDbPoint
 10
42.99918712968938
 20
-94.30304530072945
 30
0.0
  0
ENDBLK
  5
2F3
330
2EC
100
AcDbEntity
  8
0
100
AcDbBlockEnd
  0
BLOCK
  5
612
330
611
100
AcDbEntity
  8
0
100
AcDbBlockBegin
  2
*D55
 70
     1
 10
0.0
 20
0.0
 30
0.0
  3
*D55
  1

  0
LINE
  5
613
330
611
100
AcDbEntity
  8
DIM
 62
     0
370
    -2
100
AcDbLine
 10
132.5541351706091
 20
183.9679051849126
 30
0.0
 11
132.5541351706091
 21
181.6381440890238
 31
0.0
  0
MTEXT
  5
614
330
611
100
AcDbEntity
  8
DIM
 62
     0
100
AcDbMText
 10
132.5541351706091
 20
179.5964774223572
 30
0.0
 40
1.0
 41
0.0
 71
     5
 72
     1
  1
\A1;0.000
 11
0.0000000000000001
 21
1.0
 31
0.0
 73
     1
 44
1.0
1001
ACAD
1000
MTEXTBEGIN
1070
    73
1070
     1
1070
    44
1040
1.0
1070
    74
1070
     0
1000
MTEXTEND
  0
POINT
  5
615
330
611
100
AcDbEntity
  8
Defpoints
 62
     0
100
AcDbPoint
 10
132.5541351706091
 20
184.3429051849127
 30
0.0
  0
POINT
  5
616
330
611
100
AcDbEntity
  8
Defpoints
 62
     0
100
AcDbPoint
 10
132.5541351706091
 20
181.6381440890238
 30
0.0
  0
POINT
  5
617
330
611
100
AcDbEntity
  8
Defpoints
 62
     0
100
AcDbPoint
 10
132.5541351706091
 20
184.3429051849127
 30
0.0
  0
ENDBLK
  5
618
330
611
100
AcDbEntity
  8
0
100
AcDbBlockEnd
  0
BLOCK
  5
61A
330
619
100
AcDbEntity
  8
0
100
AcDbBlockBegin
  2
*D56
 70
     1
 10
0.0
 20
0.0
 30
0.0
  3
*D56
  1

  0
LINE
  5
61B
330
619
100
AcDbEntity
  8
DIM
 62
     0
370
    -2
100
AcDbLine
 10
132.1791351706091
 20
184.3429051849127
 30
0.0
 11
129.9653737217054
 21
184.3429051849127
 31
0.0
  0
MTEXT
  5
61C
330
619
100
AcDbEntity
  8
DIM
 62
     0
100
AcDbMText
 10
127.9237070550387
 20
184.3429051849127
 30
0.0
 40
1.0
 41
0.0
 71
     5
 72
     1
  1
\A1;0.000
 73
     1
 44
1.0
1001
ACAD
1000
MTEXTBEGIN
1070
    73
1070
     1
1070
    44
1040
1.0
1070
    74
1070
     0
1000
MTEXTEND
  0
POINT
  5
61D
330
619
100
AcDbEntity
  8
Defpoints
 62
     0
100
AcDbPoint
 10
132.5541351706091
 20
184.3429051849127
 30
0.0
  0
POINT
  5
61E
330
619
100
AcDbEntity
  8
Defpoints
 62
     0
100
AcDbPoint
 10
129.9653737217054
 20
184.3429051849127
 30
0.0
  0
POINT
  5
61F
330
619
100
AcDbEntity
  8
Defpoints
 62
     0
100
AcDbPoint
 10
132.5541351706091
 20
184.3429051849127
 30
0.0
  0
ENDBLK
  5
620
330
619
100
AcDbEntity
  8
0
100
AcDbBlockEnd
  0
BLOCK
  5
622
330
621
100
AcDbEntity
  8
0
100
AcDbBlockBegin
  2
*D57
 70
     1
 10
0.0
 20
0.0
 30
0.0
  3
*D57
  1

  0
LINE
  5
623
330
621
100
AcDbEntity
  8
DIM
 62
     0
370
    -2
100
AcDbLine
 10
133.2101351706091
 20
189.6529051849126
 30
0.0
 11
128.96147043777
 21
189.6529051849126
 31
0.0
  0
MTEXT
  5
624
330
621
100
AcDbEntity
  8
DIM
 62
     0
100
AcDbMText
 10
126.83647043777
 20
189.6529051849126
 30
0.0
 40
1.0
 41
0.0
 71
     5
 72
     1
  1
\A1;5.310
 73
     1
 44
1.0
1001
ACAD
1000
MTEXTBEGIN
1070
    73
1070
     1
1070
    44
1040
1.0
1070
    74
1070
     0
1000
MTEXTEND
  0
POINT
  5
625
330
621
100
AcDbEntity
  8
Defpoints
 62
     0
100
AcDbPoint
 10
133.5851351706091
 20
189.6529051849126
 30
0.0
  0
POINT
  5
626
330
621
100
AcDbEntity
  8
Defpoints
 62
     0
100
AcDbPoint
 10
128.96147043777
 20
189.6529051849126
 30
0.0
  0
POINT
  5
627
330
621
100
AcDbEntity
  8
Defpoints
 62
     0
100
AcDbPoint
 10
132.5541351706091
 20
184.3429051849127
 30
0.0
  0
ENDBLK
  5
628
330
621
100
AcDbEntity
  8
0
100
AcDbBlockEnd
  0
BLOCK
  5
62A
330
629
100
AcDbEntity
  8
0
100
AcDbBlockBegin
  2
*D58
 70
     1
 10
0.0
 20
0.0
 30
0.0
  3
*D58
  1

  0
LINE
  5
62B
330
629
100
AcDbEntity
  8
DIM
 62
     0
370
    -2
100
AcDbLine
 10
133.2101351706091
 20
199.9028893149093
 30
0.0
 11
129.5541351706091
 21
199.9028893149093
 31
0.0
  0
MTEXT
  5
62C
330
629
100
AcDbEntity
  8
DIM
 62
     0
100
AcDbMText
 10
126.9291351706091
 20
199.9028893149093
 30
0.0
 40
1.0
 41
0.0
 71
     5
 72
     1
  1
\A1;15.560
 73
     1
 44
1.0
1001
ACAD
1000
MTEXTBEGIN
1070
    73
1070
     1
1070
    44
1040
1.0
1070
    74
1070
     0
1000
MTEXTEND
  0
POINT
  5
62D
330
629
100
AcDbEntity
  8
Defpoints
 62
     0
100
AcDbPoint
 10
133.5851351706091
 20
199.9028893149093
 30
0.0
  0
POINT
  5
62E
330
629
100
AcDbEntity
  8
Defpoints
 62
     0
100
AcDbPoint
 10
129.5541351706091
 20
199.9028893149093
 30
0.0
  0
POINT
  5
62F
330
629
100
AcDbEntity
  8
Defpoints
 62
     0
100
AcDbPoint
 10
132.5541351706091
 20
184.3429051849127
 30
0.0
  0
ENDBLK
  5
630
330
629
100
AcDbEntity
  8
0
100
AcDbBlockEnd
  0
BLOCK
  5
632
330
631
100
AcDbEntity
  8
0
100
AcDbBlockBegin
  2
*D59
 70
     1
 10
0.0
 20
0.0
 30
0.0
  3
*D59
  1

  0
LINE
  5
633
330
631
100
AcDbEntity
  8
DIM
 62
     0
370
    -2
100
AcDbLine
 10
133.770135170609
 20
217.4029051849131
 30
0.0
 11
129.7425715252593
 21
217.4029051849131
 31
0.0
  0
MTEXT
  5
634
330
631
100
AcDbEntity
  8
DIM
 62
     0
100
AcDbMText
 10
127.034238191926
 20
217.4029051849131
 30
0.0
 40
1.0
 41
0.0
 71
     5
 72
     1
  1
\A1;33.060
 73
     1
 44
1.0
1001
ACAD
1000
MTEXTBEGIN
1070
    73
1070
     1
1070
    44
1040
1.0
1070
    74
1070
     0
1000
MTEXTEND
  0
POINT
  5
635
330
631
100
AcDbEntity
  8
Defpoints
 62
     0
100
AcDbPoint
 10
134.145135170609
 20
217.4029051849131
 30
0.0
  0
POINT
  5
636
330
631
100
AcDbEntity
  8
Defpoints
 62
     0
100
AcDbPoint
 10
129.7425715252593
 20
217.4029051849131
 30
0.0
  0
POINT
  5
637
330
631
100
AcDbEntity
  8
Defpoints
 62
     0
100
AcDbPoint
 10
132.5541351706091
 20
184.3429051849127
 30
0.0
  0
ENDBLK
  5
638
330
631
100
AcDbEntity
  8
0
100
AcDbBlockEnd
  0
BLOCK
  5
63A
330
639
100
AcDbEntity
  8
0
100
AcDbBlockBegin
  2
*D60
 70
     1
 10
0.0
 20
0.0
 30
0.0
  3
*D60
  1

  0
LINE
  5
63B
330
639
100
AcDbEntity
  8
DIM
 62
     0
370
    -2
100
AcDbLine
 10
132.707635170609
 20
226.4029051849129
 30
0.0
 11
129.5541351706091
 21
226.4029051849129
 31
0.0
  0
MTEXT
  5
63C
330
639
100
AcDbEntity
  8
DIM
 62
     0
100
AcDbMText
 10
126.8458018372758
 20
226.4029051849129
 30
0.0
 40
1.0
 41
0.0
 71
     5
 72
     1
  1
\A1;42.060
 73
     1
 44
1.0
1001
ACAD
1000
MTEXTBEGIN
1070
    73
1070
     1
1070
    44
1040
1.0
1070
    74
1070
     0
1000
MTEXTEND
  0
POINT
  5
63D
330
639
100
AcDbEntity
  8
Defpoints
 62
     0
100
AcDbPoint
 10
133.082635170609
 20
226.4029051849129
 30
0.0
  0
POINT
  5
63E
330
639
100
AcDbEntity
  8
Defpoints
 62
     0
100
AcDbPoint
 10
129.5541351706091
 20
226.4029051849129
 30
0.0
  0
POINT
  5
63F
330
639
100
AcDbEntity
  8
Defpoints
 62
     0
100
AcDbPoint
 10
132.5541351706091
 20
184.3429051849127
 30
0.0
  0
ENDBLK
  5
640
330
639
100
AcDbEntity
  8
0
100
AcDbBlockEnd
  0
BLOCK
  5
642
330
641
100
AcDbEntity
  8
0
100
AcDbBlockBegin
  2
*D61
 70
     1
 10
0.0
 20
0.0
 30
0.0
  3
*D61
  1

  0
LINE
  5
643
330
641
100
AcDbEntity
  8
DIM
 62
     0
370
    -2
100
AcDbLine
 10
132.1791351706091
 20
230.4929051849128
 30
0.0
 11
129.5541351706091
 21
230.4929051849128
 31
0.0
  0
MTEXT
  5
644
330
641
100
AcDbEntity
  8
DIM
 62
     0
100
AcDbMText
 10
126.9291351706091
 20
230.4929051849128
 30
0.0
 40
1.0
 41
0.0
 71
     5
 72
     1
  1
\A1;46.150
 73
     1
 44
1.0
1001
ACAD
1000
MTEXTBEGIN
1070
    73
1070
     1
1070
    44
1040
1.0
1070
    74
1070
     0
1000
MTEXTEND
  0
POINT
  5
645
330
641
100
AcDbEntity
  8
Defpoints
 62
     0
100
AcDbPoint
 10
132.5541351706091
 20
230.4929051849128
 30
0.0
  0
POINT
  5
646
330
641
100
AcDbEntity
  8
Defpoints
 62
     0
100
AcDbPoint
 10
129.5541351706091
 20
230.4929051849128
 30
0.0
  0
POINT
  5
647
330
641
100
AcDbEntity
  8
Defpoints
 62
     0
100
AcDbPoint
 10
132.5541351706091
 20
184.3429051849127
 30
0.0
  0
ENDBLK
  5
648
330
641
100
AcDbEntity
  8
0
100
AcDbBlockEnd
  0
BLOCK
  5
64A
330
649
100
AcDbEntity
  8
0
100
AcDbBlockBegin
  2
*D62
 70
     1
 10
0.0
 20
0.0
 30
0.0
  3
*D62
  1

  0
LINE
  5
64B
330
649
100
AcDbEntity
  8
DIM
 62
     0
370
    -2
100
AcDbLine
 10
147.3721351706092
 20
229.2814051849131
 30
0.0
 11
151.486135170609
 21
229.2814051849131
 31
0.0
  0
MTEXT
  5
64C
330
649
100
AcDbEntity
  8
DIM
 62
     0
100
AcDbMText
 10
154.361135170609
 20
229.2814051849131
 30
0.0
 40
1.0
 41
0.0
 71
     5
 72
     1
  1
\A1;44.939
 73
     1
 44
1.0
1001
ACAD
1000
MTEXTBEGIN
1070
    73
1070
     1
1070
    44
1040
1.0
1070
    74
1070
     0
1000
MTEXTEND
  0
POINT
  5
64D
330
649
100
AcDbEntity
  8
Defpoints
 62
     0
100
AcDbPoint
 10
146.9971351706092
 20
229.2814051849131
 30
0.0
  0
POINT
  5
64E
330
649
100
AcDbEntity
  8
Defpoints
 62
     0
100
AcDbPoint
 10
151.486135170609
 20
229.2814051849131
 30
0.0
  0
POINT
  5
64F
330
649
100
AcDbEntity
  8
Defpoints
 62
     0
100
AcDbPoint
 10
132.5541351706091
 20
184.3429051849127
 30
0.0
  0
ENDBLK
  5
650
330
649
100
AcDbEntity
  8
0
100
AcDbBlockEnd
  0
BLOCK
  5
652
330
651
100
AcDbEntity
  8
0
100
AcDbBlockBegin
  2
*D63
 70
     1
 10
0.0
 20
0.0
 30
0.0
  3
*D63
  1

  0
LINE
  5
653
330
651
100
AcDbEntity
  8
DIM
 62
     0
370
    -2
100
AcDbLine
 10
148.270135170609
 20
221.5279051849126
 30
0.0
 11
149.8951351706091
 21
221.5279051849126
 31
0.0
  0
LINE
  5
654
330
651
100
AcDbEntity
  8
DIM
 62
     0
370
    -2
100
AcDbLine
 10
149.8951351706091
 20
221.5279051849126
 30
0.0
 11
149.486135170609
 21
220.5279051849127
 31
0.0
  0
LINE
  5
655
330
651
100
AcDbEntity
  8
DIM
 62
     0
370
    -2
100
AcDbLine
 10
149.486135170609
 20
220.5279051849127
 30
0.0
 11
151.486135170609
 21
220.5279051849127
 31
0.0
  0
MTEXT
  5
656
330
651
100
AcDbEntity
  8
DIM
 62
     0
100
AcDbMText
 10
154.1944685039424
 20
220.5279051849127
 30
0.0
 40
1.0
 41
0.0
 71
     5
 72
     1
  1
\A1;37.185
 73
     1
 44
1.0
1001
ACAD
1000
MTEXTBEGIN
1070
    73
1070
     1
1070
    44
1040
1.0
1070
    74
1070
     0
1000
MTEXTEND
  0
POINT
  5
657
330
651
100
AcDbEntity
  8
Defpoints
 62
     0
100
AcDbPoint
 10
147.8951351706091
 20
221.5279051849126
 30
0.0
  0
POINT
  5
658
330
651
100
AcDbEntity
  8
Defpoints
 62
     0
100
AcDbPoint
 10
151.486135170609
 20
220.5279051849127
 30
0.0
  0
POINT
  5
659
330
651
100
AcDbEntity
  8
Defpoints
 62
     0
100
AcDbPoint
 10
132.5541351706091
 20
184.3429051849127
 30
0.0
  0
ENDBLK
  5
65A
330
651
100
AcDbEntity
  8
0
100
AcDbBlockEnd
  0
BLOCK
  5
65C
330
65B
100
AcDbEntity
  8
0
100
AcDbBlockBegin
  2
*D64
 70
     1
 10
0.0
 20
0.0
 30
0.0
  3
*D64
  1

  0
LINE
  5
65D
330
65B
100
AcDbEntity
  8
DIM
 62
     0
370
    -2
100
AcDbLine
 10
148.270135170609
 20
218.2779051849131
 30
0.0
 11
149.8951351706091
 21
218.2779051849131
 31
0.0
  0
LINE
  5
65E
330
65B
100
AcDbEntity
  8
DIM
 62
     0
370
    -2
100
AcDbLine
 10
149.8951351706091
 20
218.2779051849131
 30
0.0
 11
149.486135170609
 21
219.2779051849131
 31
0.0
  0
LINE
  5
65F
330
65B
100
AcDbEntity
  8
DIM
 62
     0
370
    -2
100
AcDbLine
 10
149.486135170609
 20
219.2779051849131
 30
0.0
 11
151.486135170609
 21
219.2779051849131
 31
0.0
  0
MTEXT
  5
660
330
65B
100
AcDbEntity
  8
DIM
 62
     0
100
AcDbMText
 10
154.361135170609
 20
219.2779051849131
 30
0.0
 40
1.0
 41
0.0
 71
     5
 72
     1
  1
\A1;33.935
 73
     1
 44
1.0
1001
ACAD
1000
MTEXTBEGIN
1070
    73
1070
     1
1070
    44
1040
1.0
1070
    74
1070
     0
1000
MTEXTEND
  0
POINT
  5
661
330
65B
100
AcDbEntity
  8
Defpoints
 62
     0
100
AcDbPoint
 10
147.8951351706091
 20
218.2779051849131
 30
0.0
  0
POINT
  5
662
330
65B
100
AcDbEntity
  8
Defpoints
 62
     0
100
AcDbPoint
 10
151.486135170609
 20
219.2779051849131
 30
0.0
  0
POINT
  5
663
330
65B
100
AcDbEntity
  8
Defpoints
 62
     0
100
AcDbPoint
 10
132.5541351706091
 20
184.3429051849127
 30
0.0
  0
ENDBLK
  5
664
330
65B
100
AcDbEntity
  8
0
100
AcDbBlockEnd
  0
BLOCK
  5
666
330
665
100
AcDbEntity
  8
0
100
AcDbBlockBegin
  2
*D65
 70
     1
 10
0.0
 20
0.0
 30
0.0
  3
*D65
  1

  0
LINE
  5
667
330
665
100
AcDbEntity
  8
DIM
 62
     0
370
    -2
100
AcDbLine
 10
144.2701351706091
 20
215.6529051849129
 30
0.0
 11
141.9478809811716
 21
215.6529051849129
 31
0.0
  0
MTEXT
  5
668
330
665
100
AcDbEntity
  8
DIM
 62
     0
100
AcDbMText
 10
139.4895476478382
 20
215.6529051849129
 30
0.0
 40
1.0
 41
0.0
 71
     5
 72
     1
  1
\A1;31.310
 73
     1
 44
1.0
1001
ACAD
1000
MTEXTBEGIN
1070
    73
1070
     1
1070
    44
1040
1.0
1070
    74
1070
     0
1000
MTEXTEND
  0
POINT
  5
669
330
665
100
AcDbEntity
  8
Defpoints
 62
     0
100
AcDbPoint
 10
144.6451351706091
 20
215.6529051849129
 30
0.0
  0
POINT
  5
66A
330
665
100
AcDbEntity
  8
Defpoints
 62
     0
100
AcDbPoint
 10
141.9478809811716
 20
215.6529051849129
 30
0.0
  0
POINT
  5
66B
330
665
100
AcDbEntity
  8
Defpoints
 62
     0
100
AcDbPoint
 10
132.5541351706091
 20
184.3429051849127
 30
0.0
  0
ENDBLK
  5
66C
330
665
100
AcDbEntity
  8
0
100
AcDbBlockEnd
  0
BLOCK
  5
66E
330
66D
100
AcDbEntity
  8
0
100
AcDbBlockBegin
  2
*D66
 70
     1
 10
0.0
 20
0.0
 30
0.0
  3
*D66
  1

  0
LINE
  5
66F
330
66D
100
AcDbEntity
  8
DIM
 62
     0
370
    -2
100
AcDbLine
 10
147.5201351706091
 20
214.9029051849129
 30
0.0
 11
149.145135170609
 21
214.9029051849129
 31
0.0
  0
LINE
  5
670
330
66D
100
AcDbEntity
  8
DIM
 62
     0
370
    -2
100
AcDbLine
 10
149.145135170609
 20
214.9029051849129
 30
0.0
 11
149.486135170609
 21
214.4029051849129
 31
0.0
  0
LINE
  5
671
330
66D
100
AcDbEntity
  8
DIM
 62
     0
370
    -2
100
AcDbLine
 10
149.486135170609
 20
214.4029051849129
 30
0.0
 11
151.486135170609
 21
214.4029051849129
 31
0.0
  0
MTEXT
  5
672
330
66D
100
AcDbEntity
  8
DIM
 62
     0
100
AcDbMText
 10
154.1944685039424
 20
214.4029051849129
 30
0.0
 40
1.0
 41
0.0
 71
     5
 72
     1
  1
\A1;30.560
 73
     1
 44
1.0
1001
ACAD
1000
MTEXTBEGIN
1070
    73
1070
     1
1070
    44
1040
1.0
1070
    74
1070
     0
1000
MTEXTEND
  0
POINT
  5
673
330
66D
100
AcDbEntity
  8
Defpoints
 62
     0
100
AcDbPoint
 10
147.145135170609
 20
214.9029051849129
 30
0.0
  0
POINT
  5
674
330
66D
100
AcDbEntity
  8
Defpoints
 62
     0
100
AcDbPoint
 10
151.486135170609
 20
214.4029051849129
 30
0.0
  0
POINT
  5
675
330
66D
100
AcDbEntity
  8
Defpoints
 62
     0
100
AcDbPoint
 10
132.5541351706091
 20
184.3429051849127
 30
0.0
  0
ENDBLK
  5
676
330
66D
100
AcDbEntity
  8
0
100
AcDbBlockEnd
  0
BLOCK
  5
678
330
677
100
AcDbEntity
  8
0
100
AcDbBlockBegin
  2
*D67
 70
     1
 10
0.0
 20
0.0
 30
0.0
  3
*D67
  1

  0
LINE
  5
679
330
677
100
AcDbEntity
  8
DIM
 62
     0
370
    -2
100
AcDbLine
 10
147.5201351706091
 20
213.4029051849129
 30
0.0
 11
149.145135170609
 21
213.4029051849129
 31
0.0
  0
LINE
  5
67A
330
677
100
AcDbEntity
  8
DIM
 62
     0
370
    -2
100
AcDbLine
 10
149.145135170609
 20
213.4029051849129
 30
0.0
 11
149.5693969780428
 21
212.9770244370394
 31
0.0
  0
LINE
  5
67B
330
677
100
AcDbEntity
  8
DIM
 62
     0
370
    -2
100
AcDbLine
 10
149.5693969780428
 20
212.9770244370394
 30
0.0
 11
151.5693969780428
 21
212.9770244370394
 31
0.0
  0
MTEXT
  5
67C
330
677
100
AcDbEntity
  8
DIM
 62
     0
100
AcDbMText
 10
154.2777303113762
 20
212.9770244370394
 30
0.0
 40
1.0
 41
0.0
 71
     5
 72
     1
  1
\A1;29.060
 73
     1
 44
1.0
1001
ACAD
1000
MTEXTBEGIN
1070
    73
1070
     1
1070
    44
1040
1.0
1070
    74
1070
     0
1000
MTEXTEND
  0
POINT
  5
67D
330
677
100
AcDbEntity
  8
Defpoints
 62
     0
100
AcDbPoint
 10
147.145135170609
 20
213.4029051849129
 30
0.0
  0
POINT
  5
67E
330
677
100
AcDbEntity
  8
Defpoints
 62
     0
100
AcDbPoint
 10
151.5693969780428
 20
212.9770244370394
 30
0.0
  0
POINT
  5
67F
330
677
100
AcDbEntity
  8
Defpoints
 62
     0
100
AcDbPoint
 10
132.5541351706091
 20
184.3429051849127
 30
0.0
  0
ENDBLK
  5
680
330
677
100
AcDbEntity
  8
0
100
AcDbBlockEnd
  0
BLOCK
  5
682
330
681
100
AcDbEntity
  8
0
100
AcDbBlockBegin
  2
*D68
 70
     1
 10
0.0
 20
0.0
 30
0.0
  3
*D68
  1

  0
LINE
  5
683
330
681
100
AcDbEntity
  8
DIM
 62
     0
370
    -2
100
AcDbLine
 10
148.4861351706088
 20
183.9679051849125
 30
0.0
 11
148.486135170609
 21
181.6381440890238
 31
0.0
  0
MTEXT
  5
684
330
681
100
AcDbEntity
  8
DIM
 62
     0
100
AcDbMText
 10
148.486135170609
 20
178.9298107556905
 30
0.0
 40
1.0
 41
0.0
 71
     5
 72
     1
  1
\A1;15.932
 11
0.0000000000000001
 21
1.0
 31
0.0
 73
     1
 44
1.0
1001
ACAD
1000
MTEXTBEGIN
1070
    73
1070
     1
1070
    44
1040
1.0
1070
    74
1070
     0
1000
MTEXTEND
  0
POINT
  5
685
330
681
100
AcDbEntity
  8
Defpoints
 62
     0
100
AcDbPoint
 10
148.4861351706088
 20
184.3429051849125
 30
0.0
  0
POINT
  5
686
330
681
100
AcDbEntity
  8
Defpoints
 62
     0
100
AcDbPoint
 10
148.486135170609
 20
181.6381440890238
 30
0.0
  0
POINT
  5
687
330
681
100
AcDbEntity
  8
Defpoints
 62
     0
100
AcDbPoint
 10
132.554110529409
 20
188.4028594351555
 30
0.0
  0
ENDBLK
  5
688
330
681
100
AcDbEntity
  8
0
100
AcDbBlockEnd
  0
BLOCK
  5
68A
330
689
100
AcDbEntity
  8
0
100
AcDbBlockBegin
  2
*D69
 70
     1
 10
0.0
 20
0.0
 30
0.0
  3
*D69
  1

  0
LINE
  5
68B
330
689
100
AcDbEntity
  8
DIM
 62
     0
370
    -2
100
AcDbLine
 10
147.4551351706093
 20
189.2779051849128
 30
0.0
 11
147.4551351706093
 21
185.6381440890238
 31
0.0
  0
LINE
  5
68C
330
689
100
AcDbEntity
  8
DIM
 62
     0
370
    -2
100
AcDbLine
 10
147.4551351706093
 20
185.6381440890238
 30
0.0
 11
146.4551351706093
 21
183.6381440890238
 31
0.0
  0
LINE
  5
68D
330
689
100
AcDbEntity
  8
DIM
 62
     0
370
    -2
100
AcDbLine
 10
146.4551351706093
 20
183.6381440890238
 30
0.0
 11
146.4551351706093
 21
181.6381440890238
 31
0.0
  0
MTEXT
  5
68E
330
689
100
AcDbEntity
  8
DIM
 62
     0
100
AcDbMText
 10
146.4551351706093
 20
179.1798107556905
 30
0.0
 40
1.0
 41
0.0
 71
     5
 72
     1
  1
\A1;14.901
 11
0.0000000000000001
 21
1.0
 31
0.0
 73
     1
 44
1.0
1001
ACAD
1000
MTEXTBEGIN
1070
    73
1070
     1
1070
    44
1040
1.0
1070
    74
1070
     0
1000
MTEXTEND
  0
POINT
  5
68F
330
689
100
AcDbEntity
  8
Defpoints
 62
     0
100
AcDbPoint
 10
147.4551351706093
 20
189.6529051849126
 30
0.0
  0
POINT
  5
690
330
689
100
AcDbEntity
  8
Defpoints
 62
     0
100
AcDbPoint
 10
146.4551351706093
 20
181.6381440890238
 30
0.0
  0
POINT
  5
691
330
689
100
AcDbEntity
  8
Defpoints
 62
     0
100
AcDbPoint
 10
132.554110529409
 20
188.4028594351555
 30
0.0
  0
ENDBLK
  5
692
330
689
100
AcDbEntity
  8
0
100
AcDbBlockEnd
  0
BLOCK
  5
694
330
693
100
AcDbEntity
  8
0
100
AcDbBlockBegin
  2
*D70
 70
     1
 10
0.0
 20
0.0
 30
0.0
  3
*D70
  1

  0
LINE
  5
695
330
693
100
AcDbEntity
  8
DIM
 62
     0
370
    -2
100
AcDbLine
 10
133.5851351706091
 20
189.2779051849128
 30
0.0
 11
133.5851351706091
 21
185.6381440890238
 31
0.0
  0
LINE
  5
696
330
693
100
AcDbEntity
  8
DIM
 62
     0
370
    -2
100
AcDbLine
 10
133.5851351706091
 20
185.6381440890238
 30
0.0
 11
134.5851351706091
 21
183.6381440890238
 31
0.0
  0
LINE
  5
697
330
693
100
AcDbEntity
  8
DIM
 62
     0
370
    -2
100
AcDbLine
 10
134.5851351706091
 20
183.6381440890238
 30
0.0
 11
134.5851351706091
 21
181.6381440890238
 31
0.0
  0
MTEXT
  5
698
330
693
100
AcDbEntity
  8
DIM
 62
     0
100
AcDbMText
 10
134.585135170609
 20
179.6798107556905
 30
0.0
 40
1.0
 41
0.0
 71
     5
 72
     1
  1
\A1;1.031
 11
0.0000000000000001
 21
1.0
 31
0.0
 73
     1
 44
1.0
1001
ACAD
1000
MTEXTBEGIN
1070
    73
1070
     1
1070
    44
1040
1.0
1070
    74
1070
     0
1000
MTEXTEND
  0
POINT
  5
699
330
693
100
AcDbEntity
  8
Defpoints
 62
     0
100
AcDbPoint
 10
133.5851351706091
 20
189.6529051849126
 30
0.0
  0
POINT
  5
69A
330
693
100
AcDbEntity
  8
Defpoints
 62
     0
100
AcDbPoint
 10
134.5851351706091
 20
181.6381440890238
 30
0.0
  0
POINT
  5
69B
330
693
100
AcDbEntity
  8
Defpoints
 62
     0
100
AcDbPoint
 10
132.554110529409
 20
188.4028594351555
 30
0.0
  0
ENDBLK
  5
69C
330
693
100
AcDbEntity
  8
0
100
AcDbBlockEnd
  0
BLOCK
  5
69E
330
69D
100
AcDbEntity
  8
0
100
AcDbBlockBegin
  2
*D71
 70
     1
 10
0.0
 20
0.0
 30
0.0
  3
*D71
  1

  0
LINE
  5
69F
330
69D
100
AcDbEntity
  8
0
 62
     0
370
    -2
100
AcDbLine
 10
147.145135170609
 20
213.0279051849129
 30
0.0
 11
147.145135170609
 21
209.760825641363
 31
0.0
  0
LINE
  5
6A0
330
69D
100
AcDbEntity
  8
0
 62
     0
370
    -2
100
AcDbLine
 10
147.145135170609
 20
209.760825641363
 30
0.0
 11
144.820329547657
 21
207.760825641363
 31
0.0
  0
LINE
  5
6A1
330
69D
100
AcDbEntity
  8
0
 62
     0
370
    -2
100
AcDbLine
 10
144.820329547657
 20
207.760825641363
 30
0.0
 11
144.820329547657
 21
205.760825641363
 31
0.0
  0
MTEXT
  5
6A2
330
69D
100
AcDbEntity
  8
0
 62
     0
100
AcDbMText
 10
144.8203295476569
 20
203.2191589746964
 30
0.0
 40
1.0
 41
0.0
 71
     5
 72
     1
  1
\A1;14.591
 11
0.0000000000000001
 21
1.0
 31
0.0
 73
     1
 44
1.0
1001
ACAD
1000
MTEXTBEGIN
1070
    73
1070
     1
1070
    44
1040
1.0
1070
    74
1070
     0
1000
MTEXTEND
  0
POINT
  5
6A3
330
69D
100
AcDbEntity
  8
Defpoints
 62
     0
100
AcDbPoint
 10
147.145135170609
 20
213.4029051849129
 30
0.0
  0
POINT
  5
6A4
330
69D
100
AcDbEntity
  8
Defpoints
 62
     0
100
AcDbPoint
 10
144.820329547657
 20
205.760825641363
 30
0.0
  0
POINT
  5
6A5
330
69D
100
AcDbEntity
  8
Defpoints
 62
     0
100
AcDbPoint
 10
132.5541351706091
 20
188.4029051849129
 30
0.0
  0
ENDBLK
  5
6A6
330
69D
100
AcDbEntity
  8
0
100
AcDbBlockEnd
  0
BLOCK
  5
6A8
330
6A7
100
AcDbEntity
  8
0
100
AcDbBlockBegin
  2
*D72
 70
     1
 10
0.0
 20
0.0
 30
0.0
  3
*D72
  1

  0
LINE
  5
6A9
330
6A7
100
AcDbEntity
  8
0
 62
     0
370
    -2
100
AcDbLine
 10
144.6451351706091
 20
215.2779051849129
 30
0.0
 11
144.6451351706091
 21
209.7177535037239
 31
0.0
  0
LINE
  5
6AA
330
6A7
100
AcDbEntity
  8
0
 62
     0
370
    -2
100
AcDbLine
 10
144.6451351706091
 20
209.7177535037239
 30
0.0
 11
141.5217034152955
 21
207.7177535037239
 31
0.0
  0
LINE
  5
6AB
330
6A7
100
AcDbEntity
  8
0
 62
     0
370
    -2
100
AcDbLine
 10
141.5217034152955
 20
207.7177535037239
 30
0.0
 11
141.5217034152955
 21
205.7177535037239
 31
0.0
  0
MTEXT
  5
6AC
330
6A7
100
AcDbEntity
  8
0
 62
     0
100
AcDbMText
 10
141.5217034152954
 20
203.2594201703906
 30
0.0
 40
1.0
 41
0.0
 71
     5
 72
     1
  1
\A1;12.091
 11
0.0000000000000001
 21
1.0
 31
0.0
 73
     1
 44
1.0
1001
ACAD
1000
MTEXTBEGIN
1070
    73
1070
     1
1070
    44
1040
1.0
1070
    74
1070
     0
1000
MTEXTEND
  0
POINT
  5
6AD
330
6A7
100
AcDbEntity
  8
Defpoints
 62
     0
100
AcDbPoint
 10
144.6451351706091
 20
215.6529051849129
 30
0.0
  0
POINT
  5
6AE
330
6A7
100
AcDbEntity
  8
Defpoints
 62
     0
100
AcDbPoint
 10
141.5217034152955
 20
205.7177535037239
 30
0.0
  0
POINT
  5
6AF
330
6A7
100
AcDbEntity
  8
Defpoints
 62
     0
100
AcDbPoint
 10
132.554110529409
 20
188.4028594351555
 30
0.0
  0
ENDBLK
  5
6B0
330
6A7
100
AcDbEntity
  8
0
100
AcDbBlockEnd
  0
BLOCK
  5
7D1
330
7CB
100
AcDbEntity
  8
0
100
AcDbBlockBegin
  2
*D73
 70
     1
 10
0.0
 20
0.0
 30
0.0
  3
*D73
  1

  0
LINE
  5
944
330
7CB
100
AcDbEntity
  8
DIM
 62
     0
370
    -2
100
AcDbLine
 10
55.00962126130523
 20
-100.1915561600738
 30
0.0
 11
55.00962126130533
 21
-101.3564367080181
 31
0.0
  0
MTEXT
  5
945
330
7CB
100
AcDbEntity
  8
DIM
 62
     0
100
AcDbMText
 10
55.00962126130534
 20
-104.0647700413515
 30
0.0
 40
1.0
 41
0.0
 71
     5
 72
     1
  1
\A1;15.932
 11
0.0000000000000001
 21
1.0
 31
0.0
 73
     1
 44
1.0
1001
ACAD
1000
MTEXTBEGIN
1070
    73
1070
     1
1070
    44
1040
1.0
1070
    74
1070
     0
1000
MTEXTEND
  0
POINT
  5
946
330
7CB
100
AcDbEntity
  8
Defpoints
 62
     0
100
AcDbPoint
 10
55.00962126130523
 20
-99.8165561600738
 30
0.0
  0
POINT
  5
947
330
7CB
100
AcDbEntity
  8
Defpoints
 62
     0
100
AcDbPoint
 10
55.00962126130533
 20
-101.3564367080181
 30
0.0
  0
POINT
  5
948
330
7CB
100
AcDbEntity
  8
Defpoints
 62
     0
100
AcDbPoint
 10
39.07759662010522
 20
-99.81655616007373
 30
0.0
  0
ENDBLK
  5
7D2
330
7CB
100
AcDbEntity
  8
0
100
AcDbBlockEnd
  0
BLOCK
  5
7DB
330
7D3
100
AcDbEntity
  8
0
100
AcDbBlockBegin
  2
*D74
 70
     1
 10
0.0
 20
0.0
 30
0.0
  3
*D74
  1

  0
LINE
  5
949
330
7D3
100
AcDbEntity
  8
DIM
 62
     0
370
    -2
100
AcDbLine
 10
53.9786212613057
 20
-94.88155616007352
 30
0.0
 11
53.9786212613057
 21
-97.52131725596253
 31
0.0
  0
LINE
  5
94A
330
7D3
100
AcDbEntity
  8
DIM
 62
     0
370
    -2
100
AcDbLine
 10
53.9786212613057
 20
-97.52131725596253
 30
0.0
 11
52.97862126130571
 21
-99.52131725596252
 31
0.0
  0
LINE
  5
94B
330
7D3
100
AcDbEntity
  8
DIM
 62
     0
370
    -2
100
AcDbLine
 10
52.97862126130571
 20
-99.52131725596252
 30
0.0
 11
52.97862126130571
 21
-101.5213172559625
 31
0.0
  0
MTEXT
  5
94C
330
7D3
100
AcDbEntity
  8
DIM
 62
     0
100
AcDbMText
 10
52.97862126130572
 20
-103.9796505892958
 30
0.0
 40
1.0
 41
0.0
 71
     5
 72
     1
  1
\A1;14.901
 11
0.0000000000000001
 21
1.0
 31
0.0
 73
     1
 44
1.0
1001
ACAD
1000
MTEXTBEGIN
1070
    73
1070
     1
1070
    44
1040
1.0
1070
    74
1070
     0
1000
MTEXTEND
  0
POINT
  5
94D
330
7D3
100
AcDbEntity
  8
Defpoints
 62
     0
100
AcDbPoint
 10
53.9786212613057
 20
-94.50655616007351
 30
0.0
  0
POINT
  5
94E
330
7D3
100
AcDbEntity
  8
Defpoints
 62
     0
100
AcDbPoint
 10
52.97862126130571
 20
-101.5213172559625
 30
0.0
  0
POINT
  5
94F
330
7D3
100
AcDbEntity
  8
Defpoints
 62
     0
100
AcDbPoint
 10
39.07759662010546
 20
-95.75660190983088
 30
0.0
  0
ENDBLK
  5
7DC
330
7D3
100
AcDbEntity
  8
0
100
AcDbBlockEnd
  0
BLOCK
  5
7E5
330
7DD
100
AcDbEntity
  8
0
100
AcDbBlockBegin
  2
*D75
 70
     1
 10
0.0
 20
0.0
 30
0.0
  3
*D75
  1

  0
LINE
  5
92C
330
7DD
100
AcDbEntity
  8
DIM
 62
     0
370
    -2
100
AcDbLine
 10
40.10862126130547
 20
-94.88155616007352
 30
0.0
 11
40.10862126130547
 21
-98.52131725596253
 31
0.0
  0
LINE
  5
92D
330
7DD
100
AcDbEntity
  8
DIM
 62
     0
370
    -2
100
AcDbLine
 10
40.10862126130547
 20
-98.52131725596253
 30
0.0
 11
41.10862126130547
 21
-100.5213172559625
 31
0.0
  0
LINE
  5
92E
330
7DD
100
AcDbEntity
  8
DIM
 62
     0
370
    -2
100
AcDbLine
 10
41.10862126130547
 20
-100.5213172559625
 30
0.0
 11
41.10862126130547
 21
-102.5213172559625
 31
0.0
  0
MTEXT
  5
92F
330
7DD
100
AcDbEntity
  8
DIM
 62
     0
100
AcDbMText
 10
41.10862126130547
 20
-104.4796505892958
 30
0.0
 40
1.0
 41
0.0
 71
     5
 72
     1
  1
\A1;1.031
 11
0.0000000000000001
 21
1.0
 31
0.0
 73
     1
 44
1.0
1001
ACAD
1000
MTEXTBEGIN
1070
    73
1070
     1
1070
    44
1040
1.0
1070
    74
1070
     0
1000
MTEXTEND
  0
POINT
  5
930
330
7DD
100
AcDbEntity
  8
Defpoints
 62
     0
100
AcDbPoint
 10
40.10862126130547
 20
-94.50655616007351
 30
0.0
  0
POINT
  5
931
330
7DD
100
AcDbEntity
  8
Defpoints
 62
     0
100
AcDbPoint
 10
41.10862126130547
 20
-102.5213172559625
 30
0.0
  0
POINT
  5
932
330
7DD
100
AcDbEntity
  8
Defpoints
 62
     0
100
AcDbPoint
 10
39.07759662010546
 20
-95.75660190983088
 30
0.0
  0
ENDBLK
  5
7E6
330
7DD
100
AcDbEntity
  8
0
100
AcDbBlockEnd
  0
BLOCK
  5
7EF
330
7E7
100
AcDbEntity
  8
0
100
AcDbBlockBegin
  2
*D76
 70
     1
 10
0.0
 20
0.0
 30
0.0
  3
*D76
  1

  0
LINE
  5
988
330
7E7
100
AcDbEntity
  8
0
 62
     0
370
    -2
100
AcDbLine
 10
53.66862126130553
 20
-70.9565561600735
 30
0.0
 11
53.66862126130553
 21
-74.85972193387869
 31
0.0
  0
LINE
  5
989
330
7E7
100
AcDbEntity
  8
0
 62
     0
370
    -2
100
AcDbLine
 10
53.66862126130553
 20
-74.85972193387869
 30
0.0
 11
51.34381563835345
 21
-76.85972193387868
 31
0.0
  0
LINE
  5
98A
330
7E7
100
AcDbEntity
  8
0
 62
     0
370
    -2
100
AcDbLine
 10
51.34381563835345
 20
-76.85972193387868
 30
0.0
 11
51.34381563835345
 21
-78.85972193387869
 31
0.0
  0
MTEXT
  5
98B
330
7E7
100
AcDbEntity
  8
0
 62
     0
100
AcDbMText
 10
51.34381563835346
 20
-81.11638860054533
 30
0.0
 40
1.0
 41
0.0
 71
     5
 72
     1
  1
\A1;14.591
 11
0.0000000000000001
 21
1.0
 31
0.0
 73
     1
 44
1.0
1001
ACAD
1000
MTEXTBEGIN
1070
    73
1070
     1
1070
    44
1040
1.0
1070
    74
1070
     0
1000
MTEXTEND
  0
POINT
  5
98C
330
7E7
100
AcDbEntity
  8
Defpoints
 62
     0
100
AcDbPoint
 10
53.66862126130553
 20
-70.7565561600735
 30
0.0
  0
POINT
  5
98D
330
7E7
100
AcDbEntity
  8
Defpoints
 62
     0
100
AcDbPoint
 10
51.34381563835345
 20
-78.85972193387869
 30
0.0
  0
POINT
  5
98E
330
7E7
100
AcDbEntity
  8
Defpoints
 62
     0
100
AcDbPoint
 10
39.07762126130553
 20
-95.75655616007351
 30
0.0
  0
ENDBLK
  5
7F0
330
7E7
100
AcDbEntity
  8
0
100
AcDbBlockEnd
  0
BLOCK
  5
7F9
330
7F1
100
AcDbEntity
  8
0
100
AcDbBlockBegin
  2
*D77
 70
     1
 10
0.0
 20
0.0
 30
0.0
  3
*D77
  1

  0
LINE
  5
981
330
7F1
100
AcDbEntity
  8
0
 62
     0
370
    -2
100
AcDbLine
 10
51.16862126130553
 20
-68.70655616007351
 30
0.0
 11
51.16862126130553
 21
-74.85972193387869
 31
0.0
  0
LINE
  5
982
330
7F1
100
AcDbEntity
  8
0
 62
     0
370
    -2
100
AcDbLine
 10
51.16862126130553
 20
-74.85972193387869
 30
0.0
 11
48.04518950599192
 21
-76.85972193387868
 31
0.0
  0
LINE
  5
983
330
7F1
100
AcDbEntity
  8
0
 62
     0
370
    -2
100
AcDbLine
 10
48.04518950599192
 20
-76.85972193387868
 30
0.0
 11
48.04518950599192
 21
-78.85972193387869
 31
0.0
  0
MTEXT
  5
984
330
7F1
100
AcDbEntity
  8
0
 62
     0
100
AcDbMText
 10
48.04518950599192
 20
-81.033055267212
 30
0.0
 40
1.0
 41
0.0
 71
     5
 72
     1
  1
\A1;12.091
 11
0.0000000000000001
 21
1.0
 31
0.0
 73
     1
 44
1.0
1001
ACAD
1000
MTEXTBEGIN
1070
    73
1070
     1
1070
    44
1040
1.0
1070
    74
1070
     0
1000
MTEXTEND
  0
POINT
  5
985
330
7F1
100
AcDbEntity
  8
Defpoints
 62
     0
100
AcDbPoint
 10
51.16862126130553
 20
-68.5065561600735
 30
0.0
  0
POINT
  5
986
330
7F1
100
AcDbEntity
  8
Defpoints
 62
     0
100
AcDbPoint
 10
48.04518950599192
 20
-78.85972193387869
 30
0.0
  0
POINT
  5
987
330
7F1
100
AcDbEntity
  8
Defpoints
 62
     0
100
AcDbPoint
 10
39.07759662010546
 20
-95.75660190983088
 30
0.0
  0
ENDBLK
  5
7FA
330
7F1
100
AcDbEntity
  8
0
100
AcDbBlockEnd
  0
BLOCK
  5
801
330
7FB
100
AcDbEntity
  8
0
100
AcDbBlockBegin
  2
*D78
 70
     1
 10
0.0
 20
0.0
 30
0.0
  3
*D78
  1

  0
LINE
  5
919
330
7FB
100
AcDbEntity
  8
DIM
 62
     0
370
    -2
100
AcDbLine
 10
39.07762126130553
 20
-100.0165561600737
 30
0.0
 11
39.07762126130553
 21
-102.5213172559625
 31
0.0
  0
MTEXT
  5
91A
330
7FB
100
AcDbEntity
  8
DIM
 62
     0
100
AcDbMText
 10
39.07762126130554
 20
-104.2779839226291
 30
0.0
 40
1.0
 41
0.0
 71
     5
 72
     1
  1
\A1;0.000
 11
0.0000000000000001
 21
1.0
 31
0.0
 73
     1
 44
1.0
1001
ACAD
1000
MTEXTBEGIN
1070
    73
1070
     1
1070
    44
1040
1.0
1070
    74
1070
     0
1000
MTEXTEND
  0
POINT
  5
91B
330
7FB
100
AcDbEntity
  8
Defpoints
 62
     0
100
AcDbPoint
 10
39.07762126130553
 20
-99.81655616007373
 30
0.0
  0
POINT
  5
91C
330
7FB
100
AcDbEntity
  8
Defpoints
 62
     0
100
AcDbPoint
 10
39.07762126130553
 20
-102.5213172559625
 30
0.0
  0
POINT
  5
91D
330
7FB
100
AcDbEntity
  8
Defpoints
 62
     0
100
AcDbPoint
 10
39.07762126130553
 20
-99.81655616007373
 30
0.0
  0
ENDBLK
  5
802
330
7FB
100
AcDbEntity
  8
0
100
AcDbBlockEnd
  0
BLOCK
  5
809
330
803
100
AcDbEntity
  8
0
100
AcDbBlockBegin
  2
*D79
 70
     1
 10
0.0
 20
0.0
 30
0.0
  3
*D79
  1

  0
LINE
  5
914
330
803
100
AcDbEntity
  8
DIM
 62
     0
370
    -2
100
AcDbLine
 10
38.87762126130552
 20
-99.81655616007373
 30
0.0
 11
36.48885981240181
 21
-99.81655616007373
 31
0.0
  0
MTEXT
  5
915
330
803
100
AcDbEntity
  8
DIM
 62
     0
100
AcDbMText
 10
34.73219314573515
 20
-99.81655616007373
 30
0.0
 40
1.0
 41
0.0
 71
     5
 72
     1
  1
\A1;0.000
 73
     1
 44
1.0
1001
ACAD
1000
MTEXTBEGIN
1070
    73
1070
     1
1070
    44
1040
1.0
1070
    74
1070
     0
1000
MTEXTEND
  0
POINT
  5
916
330
803
100
AcDbEntity
  8
Defpoints
 62
     0
100
AcDbPoint
 10
39.07762126130553
 20
-99.81655616007373
 30
0.0
  0
POINT
  5
917
330
803
100
AcDbEntity
  8
Defpoints
 62
     0
100
AcDbPoint
 10
36.48885981240181
 20
-99.81655616007373
 30
0.0
  0
POINT
  5
918
330
803
100
AcDbEntity
  8
Defpoints
 62
     0
100
AcDbPoint
 10
39.07762126130553
 20
-99.81655616007373
 30
0.0
  0
ENDBLK
  5
80A
330
803
100
AcDbEntity
  8
0
100
AcDbBlockEnd
  0
BLOCK
  5
811
330
80B
100
AcDbEntity
  8
0
100
AcDbBlockBegin
  2
*D80
 70
     1
 10
0.0
 20
0.0
 30
0.0
  3
*D80
  1

  0
LINE
  5
90F
330
80B
100
AcDbEntity
  8
DIM
 62
     0
370
    -2
100
AcDbLine
 10
39.90862126130547
 20
-94.50655616007351
 30
0.0
 11
35.4849565284664
 21
-94.50655616007351
 31
0.0
  0
MTEXT
  5
910
330
80B
100
AcDbEntity
  8
DIM
 62
     0
100
AcDbMText
 10
33.6449565284664
 20
-94.50655616007351
 30
0.0
 40
1.0
 41
0.0
 71
     5
 72
     1
  1
\A1;5.310
 73
     1
 44
1.0
1001
ACAD
1000
MTEXTBEGIN
1070
    73
1070
     1
1070
    44
1040
1.0
1070
    74
1070
     0
1000
MTEXTEND
  0
POINT
  5
911
330
80B
100
AcDbEntity
  8
Defpoints
 62
     0
100
AcDbPoint
 10
40.10862126130547
 20
-94.50655616007351
 30
0.0
  0
POINT
  5
912
330
80B
100
AcDbEntity
  8
Defpoints
 62
     0
100
AcDbPoint
 10
35.4849565284664
 20
-94.50655616007351
 30
0.0
  0
POINT
  5
913
330
80B
100
AcDbEntity
  8
Defpoints
 62
     0
100
AcDbPoint
 10
39.07762126130553
 20
-99.81655616007373
 30
0.0
  0
ENDBLK
  5
812
330
80B
100
AcDbEntity
  8
0
100
AcDbBlockEnd
  0
BLOCK
  5
819
330
813
100
AcDbEntity
  8
0
100
AcDbBlockBegin
  2
*D81
 70
     1
 10
0.0
 20
0.0
 30
0.0
  3
*D81
  1

  0
LINE
  5
90A
330
813
100
AcDbEntity
  8
DIM
 62
     0
370
    -2
100
AcDbLine
 10
39.90862126130547
 20
-84.25657203007711
 30
0.0
 11
36.07762126130552
 21
-84.25657203007711
 31
0.0
  0
MTEXT
  5
90B
330
813
100
AcDbEntity
  8
DIM
 62
     0
100
AcDbMText
 10
33.73762126130552
 20
-84.25657203007711
 30
0.0
 40
1.0
 41
0.0
 71
     5
 72
     1
  1
\A1;15.560
 73
     1
 44
1.0
1001
ACAD
1000
MTEXTBEGIN
1070
    73
1070
     1
1070
    44
1040
1.0
1070
    74
1070
     0
1000
MTEXTEND
  0
POINT
  5
90C
330
813
100
AcDbEntity
  8
Defpoints
 62
     0
100
AcDbPoint
 10
40.10862126130547
 20
-84.25657203007711
 30
0.0
  0
POINT
  5
90D
330
813
100
AcDbEntity
  8
Defpoints
 62
     0
100
AcDbPoint
 10
36.07762126130552
 20
-84.25657203007711
 30
0.0
  0
POINT
  5
90E
330
813
100
AcDbEntity
  8
Defpoints
 62
     0
100
AcDbPoint
 10
39.07762126130553
 20
-99.81655616007373
 30
0.0
  0
ENDBLK
  5
81A
330
813
100
AcDbEntity
  8
0
100
AcDbBlockEnd
  0
BLOCK
  5
821
330
81B
100
AcDbEntity
  8
0
100
AcDbBlockBegin
  2
*D82
 70
     1
 10
0.0
 20
0.0
 30
0.0
  3
*D82
  1

  0
LINE
  5
905
330
81B
100
AcDbEntity
  8
DIM
 62
     0
370
    -2
100
AcDbLine
 10
40.4686212613054
 20
-66.75655616007327
 30
0.0
 11
36.26605761595572
 21
-66.75655616007327
 31
0.0
  0
MTEXT
  5
906
330
81B
100
AcDbEntity
  8
DIM
 62
     0
100
AcDbMText
 10
33.8427242826224
 20
-66.75655616007327
 30
0.0
 40
1.0
 41
0.0
 71
     5
 72
     1
  1
\A1;33.060
 73
     1
 44
1.0
1001
ACAD
1000
MTEXTBEGIN
1070
    73
1070
     1
1070
    44
1040
1.0
1070
    74
1070
     0
1000
MTEXTEND
  0
POINT
  5
907
330
81B
100
AcDbEntity
  8
Defpoints
 62
     0
100
AcDbPoint
 10
40.66862126130541
 20
-66.75655616007327
 30
0.0
  0
POINT
  5
908
330
81B
100
AcDbEntity
  8
Defpoints
 62
     0
100
AcDbPoint
 10
36.26605761595572
 20
-66.75655616007327
 30
0.0
  0
POINT
  5
909
330
81B
100
AcDbEntity
  8
Defpoints
 62
     0
100
AcDbPoint
 10
39.07762126130553
 20
-99.81655616007373
 30
0.0
  0
ENDBLK
  5
822
330
81B
100
AcDbEntity
  8
0
100
AcDbBlockEnd
  0
BLOCK
  5
829
330
823
100
AcDbEntity
  8
0
100
AcDbBlockBegin
  2
*D83
 70
     1
 10
0.0
 20
0.0
 30
0.0
  3
*D83
  1

  0
LINE
  5
900
330
823
100
AcDbEntity
  8
DIM
 62
     0
370
    -2
100
AcDbLine
 10
39.40612126130542
 20
-57.7565561600735
 30
0.0
 11
36.07762126130552
 21
-57.7565561600735
 31
0.0
  0
MTEXT
  5
901
330
823
100
AcDbEntity
  8
DIM
 62
     0
100
AcDbMText
 10
33.65428792797219
 20
-57.7565561600735
 30
0.0
 40
1.0
 41
0.0
 71
     5
 72
     1
  1
\A1;42.060
 73
     1
 44
1.0
1001
ACAD
1000
MTEXTBEGIN
1070
    73
1070
     1
1070
    44
1040
1.0
1070
    74
1070
     0
1000
MTEXTEND
  0
POINT
  5
902
330
823
100
AcDbEntity
  8
Defpoints
 62
     0
100
AcDbPoint
 10
39.60612126130543
 20
-57.7565561600735
 30
0.0
  0
POINT
  5
903
330
823
100
AcDbEntity
  8
Defpoints
 62
     0
100
AcDbPoint
 10
36.07762126130552
 20
-57.7565561600735
 30
0.0
  0
POINT
  5
904
330
823
100
AcDbEntity
  8
Defpoints
 62
     0
100
AcDbPoint
 10
39.07762126130553
 20
-99.81655616007373
 30
0.0
  0
ENDBLK
  5
82A
330
823
100
AcDbEntity
  8
0
100
AcDbBlockEnd
  0
BLOCK
  5
831
330
82B
100
AcDbEntity
  8
0
100
AcDbBlockBegin
  2
*D84
 70
     1
 10
0.0
 20
0.0
 30
0.0
  3
*D84
  1

  0
LINE
  5
8FB
330
82B
100
AcDbEntity
  8
DIM
 62
     0
370
    -2
100
AcDbLine
 10
38.87762126130552
 20
-53.66655616007356
 30
0.0
 11
36.07762126130552
 21
-53.66655616007356
 31
0.0
  0
MTEXT
  5
8FC
330
82B
100
AcDbEntity
  8
DIM
 62
     0
100
AcDbMText
 10
33.73762126130552
 20
-53.66655616007356
 30
0.0
 40
1.0
 41
0.0
 71
     5
 72
     1
  1
\A1;46.150
 73
     1
 44
1.0
1001
ACAD
1000
MTEXTBEGIN
1070
    73
1070
     1
1070
    44
1040
1.0
1070
    74
1070
     0
1000
MTEXTEND
  0
POINT
  5
8FD
330
82B
100
AcDbEntity
  8
Defpoints
 62
     0
100
AcDbPoint
 10
39.07762126130553
 20
-53.66655616007356
 30
0.0
  0
POINT
  5
8FE
330
82B
100
AcDbEntity
  8
Defpoints
 62
     0
100
AcDbPoint
 10
36.07762126130552
 20
-53.66655616007356
 30
0.0
  0
POINT
  5
8FF
330
82B
100
AcDbEntity
  8
Defpoints
 62
     0
100
AcDbPoint
 10
39.07762126130553
 20
-99.81655616007373
 30
0.0
  0
ENDBLK
  5
832
330
82B
100
AcDbEntity
  8
0
100
AcDbBlockEnd
  0
BLOCK
  5
839
330
833
100
AcDbEntity
  8
0
100
AcDbBlockBegin
  2
*D85
 70
     1
 10
0.0
 20
0.0
 30
0.0
  3
*D85
  1

  0
LINE
  5
8F6
330
833
100
AcDbEntity
  8
DIM
 62
     0
370
    -2
100
AcDbLine
 10
53.72062126130565
 20
-54.87805616007324
 30
0.0
 11
58.00962126130542
 21
-54.87805616007324
 31
0.0
  0
MTEXT
  5
8F7
330
833
100
AcDbEntity
  8
DIM
 62
     0
100
AcDbMText
 10
60.59962126130542
 20
-54.87805616007324
 30
0.0
 40
1.0
 41
0.0
 71
     5
 72
     1
  1
\A1;44.939
 73
     1
 44
1.0
1001
ACAD
1000
MTEXTBEGIN
1070
    73
1070
     1
1070
    44
1040
1.0
1070
    74
1070
     0
1000
MTEXTEND
  0
POINT
  5
8F8
330
833
100
AcDbEntity
  8
Defpoints
 62
     0
100
AcDbPoint
 10
53.52062126130565
 20
-54.87805616007324
 30
0.0
  0
POINT
  5
8F9
330
833
100
AcDbEntity
  8
Defpoints
 62
     0
100
AcDbPoint
 10
58.00962126130542
 20
-54.87805616007324
 30
0.0
  0
POINT
  5
8FA
330
833
100
AcDbEntity
  8
Defpoints
 62
     0
100
AcDbPoint
 10
39.07762126130553
 20
-99.81655616007373
 30
0.0
  0
ENDBLK
  5
83A
330
833
100
AcDbEntity
  8
0
100
AcDbBlockEnd
  0
BLOCK
  5
843
330
83B
100
AcDbEntity
  8
0
100
AcDbBlockBegin
  2
*D86
 70
     1
 10
0.0
 20
0.0
 30
0.0
  3
*D86
  1

  0
LINE
  5
8EF
330
83B
100
AcDbEntity
  8
DIM
 62
     0
370
    -2
100
AcDbLine
 10
54.61862126130553
 20
-62.63155616007367
 30
0.0
 11
56.41862126130553
 21
-62.63155616007367
 31
0.0
  0
LINE
  5
8F0
330
83B
100
AcDbEntity
  8
DIM
 62
     0
370
    -2
100
AcDbLine
 10
56.41862126130553
 20
-62.63155616007367
 30
0.0
 11
56.00962126130543
 21
-63.63155616007367
 31
0.0
  0
LINE
  5
8F1
330
83B
100
AcDbEntity
  8
DIM
 62
     0
370
    -2
100
AcDbLine
 10
56.00962126130543
 20
-63.63155616007367
 30
0.0
 11
58.00962126130542
 21
-63.63155616007367
 31
0.0
  0
MTEXT
  5
8F2
330
83B
100
AcDbEntity
  8
DIM
 62
     0
100
AcDbMText
 10
60.43295459463876
 20
-63.63155616007367
 30
0.0
 40
1.0
 41
0.0
 71
     5
 72
     1
  1
\A1;37.185
 73
     1
 44
1.0
1001
ACAD
1000
MTEXTBEGIN
1070
    73
1070
     1
1070
    44
1040
1.0
1070
    74
1070
     0
1000
MTEXTEND
  0
POINT
  5
8F3
330
83B
100
AcDbEntity
  8
Defpoints
 62
     0
100
AcDbPoint
 10
54.41862126130553
 20
-62.63155616007367
 30
0.0
  0
POINT
  5
8F4
330
83B
100
AcDbEntity
  8
Defpoints
 62
     0
100
AcDbPoint
 10
58.00962126130542
 20
-63.63155616007367
 30
0.0
  0
POINT
  5
8F5
330
83B
100
AcDbEntity
  8
Defpoints
 62
     0
100
AcDbPoint
 10
39.07762126130553
 20
-99.81655616007373
 30
0.0
  0
ENDBLK
  5
844
330
83B
100
AcDbEntity
  8
0
100
AcDbBlockEnd
  0
BLOCK
  5
84D
330
845
100
AcDbEntity
  8
0
100
AcDbBlockBegin
  2
*D87
 70
     1
 10
0.0
 20
0.0
 30
0.0
  3
*D87
  1

  0
LINE
  5
8E8
330
845
100
AcDbEntity
  8
DIM
 62
     0
370
    -2
100
AcDbLine
 10
54.61862126130551
 20
-65.8815561600733
 30
0.0
 11
56.41862126130551
 21
-65.8815561600733
 31
0.0
  0
LINE
  5
8E9
330
845
100
AcDbEntity
  8
DIM
 62
     0
370
    -2
100
AcDbLine
 10
56.41862126130551
 20
-65.8815561600733
 30
0.0
 11
56.00962126130543
 21
-64.88155616007327
 31
0.0
  0
LINE
  5
8EA
330
845
100
AcDbEntity
  8
DIM
 62
     0
370
    -2
100
AcDbLine
 10
56.00962126130543
 20
-64.88155616007327
 30
0.0
 11
58.00962126130542
 21
-64.88155616007327
 31
0.0
  0
MTEXT
  5
8EB
330
845
100
AcDbEntity
  8
DIM
 62
     0
100
AcDbMText
 10
60.59962126130542
 20
-64.88155616007327
 30
0.0
 40
1.0
 41
0.0
 71
     5
 72
     1
  1
\A1;33.935
 73
     1
 44
1.0
1001
ACAD
1000
MTEXTBEGIN
1070
    73
1070
     1
1070
    44
1040
1.0
1070
    74
1070
     0
1000
MTEXTEND
  0
POINT
  5
8EC
330
845
100
AcDbEntity
  8
Defpoints
 62
     0
100
AcDbPoint
 10
54.4186212613055
 20
-65.8815561600733
 30
0.0
  0
POINT
  5
8ED
330
845
100
AcDbEntity
  8
Defpoints
 62
     0
100
AcDbPoint
 10
58.00962126130542
 20
-64.88155616007327
 30
0.0
  0
POINT
  5
8EE
330
845
100
AcDbEntity
  8
Defpoints
 62
     0
100
AcDbPoint
 10
39.07762126130553
 20
-99.81655616007373
 30
0.0
  0
ENDBLK
  5
84E
330
845
100
AcDbEntity
  8
0
100
AcDbBlockEnd
  0
BLOCK
  5
855
330
84F
100
AcDbEntity
  8
0
100
AcDbBlockBegin
  2
*D88
 70
     1
 10
0.0
 20
0.0
 30
0.0
  3
*D88
  1

  0
LINE
  5
8E3
330
84F
100
AcDbEntity
  8
DIM
 62
     0
370
    -2
100
AcDbLine
 10
50.96862126130552
 20
-68.5065561600735
 30
0.0
 11
48.47136707186797
 21
-68.5065561600735
 31
0.0
  0
MTEXT
  5
8E4
330
84F
100
AcDbEntity
  8
DIM
 62
     0
100
AcDbMText
 10
46.29803373853464
 20
-68.5065561600735
 30
0.0
 40
1.0
 41
0.0
 71
     5
 72
     1
  1
\A1;31.310
 73
     1
 44
1.0
1001
ACAD
1000
MTEXTBEGIN
1070
    73
1070
     1
1070
    44
1040
1.0
1070
    74
1070
     0
1000
MTEXTEND
  0
POINT
  5
8E5
330
84F
100
AcDbEntity
  8
Defpoints
 62
     0
100
AcDbPoint
 10
51.16862126130553
 20
-68.5065561600735
 30
0.0
  0
POINT
  5
8E6
330
84F
100
AcDbEntity
  8
Defpoints
 62
     0
100
AcDbPoint
 10
48.47136707186797
 20
-68.5065561600735
 30
0.0
  0
POINT
  5
8E7
330
84F
100
AcDbEntity
  8
Defpoints
 62
     0
100
AcDbPoint
 10
39.07762126130553
 20
-99.81655616007373
 30
0.0
  0
ENDBLK
  5
856
330
84F
100
AcDbEntity
  8
0
100
AcDbBlockEnd
  0
BLOCK
  5
85F
330
857
100
AcDbEntity
  8
0
100
AcDbBlockBegin
  2
*D89
 70
     1
 10
0.0
 20
0.0
 30
0.0
  3
*D89
  1

  0
LINE
  5
8DC
330
857
100
AcDbEntity
  8
DIM
 62
     0
370
    -2
100
AcDbLine
 10
53.86862126130553
 20
-69.2565561600735
 30
0.0
 11
55.66862126130553
 21
-69.2565561600735
 31
0.0
  0
LINE
  5
8DD
330
857
100
AcDbEntity
  8
DIM
 62
     0
370
    -2
100
AcDbLine
 10
55.66862126130553
 20
-69.2565561600735
 30
0.0
 11
56.00962126130543
 21
-69.7565561600735
 31
0.0
  0
LINE
  5
8DE
330
857
100
AcDbEntity
  8
DIM
 62
     0
370
    -2
100
AcDbLine
 10
56.00962126130543
 20
-69.7565561600735
 30
0.0
 11
58.00962126130542
 21
-69.7565561600735
 31
0.0
  0
MTEXT
  5
8DF
330
857
100
AcDbEntity
  8
DIM
 62
     0
100
AcDbMText
 10
60.43295459463876
 20
-69.7565561600735
 30
0.0
 40
1.0
 41
0.0
 71
     5
 72
     1
  1
\A1;30.560
 73
     1
 44
1.0
1001
ACAD
1000
MTEXTBEGIN
1070
    73
1070
     1
1070
    44
1040
1.0
1070
    74
1070
     0
1000
MTEXTEND
  0
POINT
  5
8E0
330
857
100
AcDbEntity
  8
Defpoints
 62
     0
100
AcDbPoint
 10
53.66862126130553
 20
-69.2565561600735
 30
0.0
  0
POINT
  5
8E1
330
857
100
AcDbEntity
  8
Defpoints
 62
     0
100
AcDbPoint
 10
58.00962126130542
 20
-69.7565561600735
 30
0.0
  0
POINT
  5
8E2
330
857
100
AcDbEntity
  8
Defpoints
 62
     0
100
AcDbPoint
 10
39.07762126130553
 20
-99.81655616007373
 30
0.0
  0
ENDBLK
  5
860
330
857
100
AcDbEntity
  8
0
100
AcDbBlockEnd
  0
BLOCK
  5
869
330
861
100
AcDbEntity
  8
0
100
AcDbBlockBegin
  2
*D90
 70
     1
 10
0.0
 20
0.0
 30
0.0
  3
*D90
  1

  0
LINE
  5
8D5
330
861
100
AcDbEntity
  8
DIM
 62
     0
370
    -2
100
AcDbLine
 10
53.86862126130553
 20
-70.7565561600735
 30
0.0
 11
55.66862126130553
 21
-70.7565561600735
 31
0.0
  0
LINE
  5
8D6
330
861
100
AcDbEntity
  8
DIM
 62
     0
370
    -2
100
AcDbLine
 10
55.66862126130553
 20
-70.7565561600735
 30
0.0
 11
56.09288306873924
 21
-71.18243690794695
 31
0.0
  0
LINE
  5
8D7
330
861
100
AcDbEntity
  8
DIM
 62
     0
370
    -2
100
AcDbLine
 10
56.09288306873924
 20
-71.18243690794695
 30
0.0
 11
58.09288306873924
 21
-71.18243690794695
 31
0.0
  0
MTEXT
  5
8D8
330
861
100
AcDbEntity
  8
DIM
 62
     0
100
AcDbMText
 10
60.51621640207257
 20
-71.18243690794695
 30
0.0
 40
1.0
 41
0.0
 71
     5
 72
     1
  1
\A1;29.060
 73
     1
 44
1.0
1001
ACAD
1000
MTEXTBEGIN
1070
    73
1070
     1
1070
    44
1040
1.0
1070
    74
1070
     0
1000
MTEXTEND
  0
POINT
  5
8D9
330
861
100
AcDbEntity
  8
Defpoints
 62
     0
100
AcDbPoint
 10
53.66862126130553
 20
-70.7565561600735
 30
0.0
  0
POINT
  5
8DA
330
861
100
AcDbEntity
  8
Defpoints
 62
     0
100
AcDbPoint
 10
58.09288306873924
 20
-71.18243690794695
 30
0.0
  0
POINT
  5
8DB
330
861
100
AcDbEntity
  8
Defpoints
 62
     0
100
AcDbPoint
 10
39.07762126130553
 20
-99.81655616007373
 30
0.0
  0
ENDBLK
  5
86A
330
861
100
AcDbEntity
  8
0
100
AcDbBlockEnd
  0
BLOCK
  5
9A0
330
99F
100
AcDbEntity
  8
0
100
AcDbBlockBegin
  2
*D91
 70
     1
 10
0.0
 20
0.0
 30
0.0
  3
*D91
  1

  0
LINE
  5
9A1
330
99F
100
AcDbEntity
  8
DIM
 62
     0
370
    -2
100
AcDbLine
 10
232.9593958191379
 20
183.9679051849125
 30
0.0
 11
232.9593958191381
 21
181.6381440890238
 31
0.0
  0
MTEXT
  5
9A2
330
99F
100
AcDbEntity
  8
DIM
 62
     0
100
AcDbMText
 10
232.959395819138
 20
178.9298107556905
 30
0.0
 40
1.0
 41
0.0
 71
     5
 72
     1
  1
\A1;15.932
 11
0.0000000000000001
 21
1.0
 31
0.0
 73
     1
 44
1.0
1001
ACAD
1000
MTEXTBEGIN
1070
    73
1070
     1
1070
    44
1040
1.0
1070
    74
1070
     0
1000
MTEXTEND
  0
POINT
  5
9A3
330
99F
100
AcDbEntity
  8
Defpoints
 62
     0
100
AcDbPoint
 10
232.9593958191379
 20
184.3429051849125
 30
0.0
  0
POINT
  5
9A4
330
99F
100
AcDbEntity
  8
Defpoints
 62
     0
100
AcDbPoint
 10
232.9593958191381
 20
181.6381440890238
 30
0.0
  0
POINT
  5
9A5
330
99F
100
AcDbEntity
  8
Defpoints
 62
     0
100
AcDbPoint
 10
217.0273711779381
 20
188.4028594351555
 30
0.0
  0
ENDBLK
  5
9A6
330
99F
100
AcDbEntity
  8
0
100
AcDbBlockEnd
  0
BLOCK
  5
9A8
330
9A7
100
AcDbEntity
  8
0
100
AcDbBlockBegin
  2
*D92
 70
     1
 10
0.0
 20
0.0
 30
0.0
  3
*D92
  1

  0
LINE
  5
9A9
330
9A7
100
AcDbEntity
  8
DIM
 62
     0
370
    -2
100
AcDbLine
 10
231.9283958191383
 20
189.2779051849128
 30
0.0
 11
231.9283958191383
 21
185.6381440890238
 31
0.0
  0
LINE
  5
9AA
330
9A7
100
AcDbEntity
  8
DIM
 62
     0
370
    -2
100
AcDbLine
 10
231.9283958191383
 20
185.6381440890238
 30
0.0
 11
230.9283958191384
 21
183.6381440890238
 31
0.0
  0
LINE
  5
9AB
330
9A7
100
AcDbEntity
  8
DIM
 62
     0
370
    -2
100
AcDbLine
 10
230.9283958191384
 20
183.6381440890238
 30
0.0
 11
230.9283958191384
 21
181.6381440890238
 31
0.0
  0
MTEXT
  5
9AC
330
9A7
100
AcDbEntity
  8
DIM
 62
     0
100
AcDbMText
 10
230.9283958191383
 20
179.1798107556905
 30
0.0
 40
1.0
 41
0.0
 71
     5
 72
     1
  1
\A1;14.901
 11
0.0000000000000001
 21
1.0
 31
0.0
 73
     1
 44
1.0
1001
ACAD
1000
MTEXTBEGIN
1070
    73
1070
     1
1070
    44
1040
1.0
1070
    74
1070
     0
1000
MTEXTEND
  0
POINT
  5
9AD
330
9A7
100
AcDbEntity
  8
Defpoints
 62
     0
100
AcDbPoint
 10
231.9283958191383
 20
189.6529051849128
 30
0.0
  0
POINT
  5
9AE
330
9A7
100
AcDbEntity
  8
Defpoints
 62
     0
100
AcDbPoint
 10
230.9283958191384
 20
181.6381440890238
 30
0.0
  0
POINT
  5
9AF
330
9A7
100
AcDbEntity
  8
Defpoints
 62
     0
100
AcDbPoint
 10
217.0273711779381
 20
188.4028594351555
 30
0.0
  0
ENDBLK
  5
9B0
330
9A7
100
AcDbEntity
  8
0
100
AcDbBlockEnd
  0
BLOCK
  5
9B2
330
9B1
100
AcDbEntity
  8
0
100
AcDbBlockBegin
  2
*D93
 70
     1
 10
0.0
 20
0.0
 30
0.0
  3
*D93
  1

  0
LINE
  5
9B3
330
9B1
100
AcDbEntity
  8
DIM
 62
     0
370
    -2
100
AcDbLine
 10
218.0583958191381
 20
189.2779051849128
 30
0.0
 11
218.0583958191381
 21
185.6381440890238
 31
0.0
  0
LINE
  5
9B4
330
9B1
100
AcDbEntity
  8
DIM
 62
     0
370
    -2
100
AcDbLine
 10
218.0583958191381
 20
185.6381440890238
 30
0.0
 11
219.0583958191381
 21
183.6381440890238
 31
0.0
  0
LINE
  5
9B5
330
9B1
100
AcDbEntity
  8
DIM
 62
     0
370
    -2
100
AcDbLine
 10
219.0583958191381
 20
183.6381440890238
 30
0.0
 11
219.0583958191381
 21
181.6381440890238
 31
0.0
  0
MTEXT
  5
9B6
330
9B1
100
AcDbEntity
  8
DIM
 62
     0
100
AcDbMText
 10
219.0583958191381
 20
179.6798107556905
 30
0.0
 40
1.0
 41
0.0
 71
     5
 72
     1
  1
\A1;1.031
 11
0.0000000000000001
 21
1.0
 31
0.0
 73
     1
 44
1.0
1001
ACAD
1000
MTEXTBEGIN
1070
    73
1070
     1
1070
    44
1040
1.0
1070
    74
1070
     0
1000
MTEXTEND
  0
POINT
  5
9B7
330
9B1
100
AcDbEntity
  8
Defpoints
 62
     0
100
AcDbPoint
 10
218.0583958191381
 20
189.6529051849128
 30
0.0
  0
POINT
  5
9B8
330
9B1
100
AcDbEntity
  8
Defpoints
 62
     0
100
AcDbPoint
 10
219.0583958191381
 20
181.6381440890238
 30
0.0
  0
POINT
  5
9B9
330
9B1
100
AcDbEntity
  8
Defpoints
 62
     0
100
AcDbPoint
 10
217.0273711779381
 20
188.4028594351555
 30
0.0
  0
ENDBLK
  5
9BA
330
9B1
100
AcDbEntity
  8
0
100
AcDbBlockEnd
  0
BLOCK
  5
9BC
330
9BB
100
AcDbEntity
  8
0
100
AcDbBlockBegin
  2
*D94
 70
     1
 10
0.0
 20
0.0
 30
0.0
  3
*D94
  1

  0
LINE
  5
9BD
330
9BB
100
AcDbEntity
  8
0
 62
     0
370
    -2
100
AcDbLine
 10
231.6183958191382
 20
213.0279051849129
 30
0.0
 11
231.6183958191382
 21
209.2127313246224
 31
0.0
  0
LINE
  5
9BE
330
9BB
100
AcDbEntity
  8
0
 62
     0
370
    -2
100
AcDbLine
 10
231.6183958191382
 20
209.2127313246224
 30
0.0
 11
229.2935901961861
 21
207.2127313246224
 31
0.0
  0
LINE
  5
9BF
330
9BB
100
AcDbEntity
  8
0
 62
     0
370
    -2
100
AcDbLine
 10
229.2935901961861
 20
207.2127313246224
 30
0.0
 11
229.2935901961861
 21
205.2127313246224
 31
0.0
  0
MTEXT
  5
9C0
330
9BB
100
AcDbEntity
  8
0
 62
     0
100
AcDbMText
 10
229.293590196186
 20
202.6710646579558
 30
0.0
 40
1.0
 41
0.0
 71
     5
 72
     1
  1
\A1;14.591
 11
0.0000000000000001
 21
1.0
 31
0.0
 73
     1
 44
1.0
1001
ACAD
1000
MTEXTBEGIN
1070
    73
1070
     1
1070
    44
1040
1.0
1070
    74
1070
     0
1000
MTEXTEND
  0
POINT
  5
9C1
330
9BB
100
AcDbEntity
  8
Defpoints
 62
     0
100
AcDbPoint
 10
231.6183958191382
 20
213.4029051849129
 30
0.0
  0
POINT
  5
9C2
330
9BB
100
AcDbEntity
  8
Defpoints
 62
     0
100
AcDbPoint
 10
229.2935901961861
 20
205.2127313246224
 30
0.0
  0
POINT
  5
9C3
330
9BB
100
AcDbEntity
  8
Defpoints
 62
     0
100
AcDbPoint
 10
217.0273958191382
 20
188.4029051849129
 30
0.0
  0
ENDBLK
  5
9C4
330
9BB
100
AcDbEntity
  8
0
100
AcDbBlockEnd
  0
BLOCK
  5
9C6
330
9C5
100
AcDbEntity
  8
0
100
AcDbBlockBegin
  2
*D95
 70
     1
 10
0.0
 20
0.0
 30
0.0
  3
*D95
  1

  0
LINE
  5
9C7
330
9C5
100
AcDbEntity
  8
0
 62
     0
370
    -2
100
AcDbLine
 10
229.1183958191382
 20
215.2779051849129
 30
0.0
 11
229.1183958191382
 21
209.2127313246224
 31
0.0
  0
LINE
  5
9C8
330
9C5
100
AcDbEntity
  8
0
 62
     0
370
    -2
100
AcDbLine
 10
229.1183958191382
 20
209.2127313246224
 30
0.0
 11
225.9949640638246
 21
207.2127313246224
 31
0.0
  0
LINE
  5
9C9
330
9C5
100
AcDbEntity
  8
0
 62
     0
370
    -2
100
AcDbLine
 10
225.9949640638246
 20
207.2127313246224
 30
0.0
 11
225.9949640638246
 21
205.2127313246224
 31
0.0
  0
MTEXT
  5
9CA
330
9C5
100
AcDbEntity
  8
0
 62
     0
100
AcDbMText
 10
225.9949640638245
 20
202.7543979912891
 30
0.0
 40
1.0
 41
0.0
 71
     5
 72
     1
  1
\A1;12.091
 11
0.0000000000000001
 21
1.0
 31
0.0
 73
     1
 44
1.0
1001
ACAD
1000
MTEXTBEGIN
1070
    73
1070
     1
1070
    44
1040
1.0
1070
    74
1070
     0
1000
MTEXTEND
  0
POINT
  5
9CB
330
9C5
100
AcDbEntity
  8
Defpoints
 62
     0
100
AcDbPoint
 10
229.1183958191382
 20
215.6529051849129
 30
0.0
  0
POINT
  5
9CC
330
9C5
100
AcDbEntity
  8
Defpoints
 62
     0
100
AcDbPoint
 10
225.9949640638246
 20
205.2127313246224
 30
0.0
  0
POINT
  5
9CD
330
9C5
100
AcDbEntity
  8
Defpoints
 62
     0
100
AcDbPoint
 10
217.0273711779381
 20
188.4028594351555
 30
0.0
  0
ENDBLK
  5
9CE
330
9C5
100
AcDbEntity
  8
0
100
AcDbBlockEnd
  0
BLOCK
  5
9D0
330
9CF
100
AcDbEntity
  8
0
100
AcDbBlockBegin
  2
*D96
 70
     1
 10
0.0
 20
0.0
 30
0.0
  3
*D96
  1

  0
LINE
  5
9D1
330
9CF
100
AcDbEntity
  8
DIM
 62
     0
370
    -2
100
AcDbLine
 10
217.0273958191382
 20
183.9679051849126
 30
0.0
 11
217.0273958191382
 21
181.6381440890238
 31
0.0
  0
MTEXT
  5
9D2
330
9CF
100
AcDbEntity
  8
DIM
 62
     0
100
AcDbMText
 10
217.0273958191382
 20
179.5964774223572
 30
0.0
 40
1.0
 41
0.0
 71
     5
 72
     1
  1
\A1;0.000
 11
0.0000000000000001
 21
1.0
 31
0.0
 73
     1
 44
1.0
1001
ACAD
1000
MTEXTBEGIN
1070
    73
1070
     1
1070
    44
1040
1.0
1070
    74
1070
     0
1000
MTEXTEND
  0
POINT
  5
9D3
330
9CF
100
AcDbEntity
  8
Defpoints
 62
     0
100
AcDbPoint
 10
217.0273958191382
 20
184.3429051849127
 30
0.0
  0
POINT
  5
9D4
330
9CF
100
AcDbEntity
  8
Defpoints
 62
     0
100
AcDbPoint
 10
217.0273958191382
 20
181.6381440890238
 30
0.0
  0
POINT
  5
9D5
330
9CF
100
AcDbEntity
  8
Defpoints
 62
     0
100
AcDbPoint
 10
217.0273958191382
 20
184.3429051849127
 30
0.0
  0
ENDBLK
  5
9D6
330
9CF
100
AcDbEntity
  8
0
100
AcDbBlockEnd
  0
BLOCK
  5
9D8
330
9D7
100
AcDbEntity
  8
0
100
AcDbBlockBegin
  2
*D97
 70
     1
 10
0.0
 20
0.0
 30
0.0
  3
*D97
  1

  0
LINE
  5
9D9
330
9D7
100
AcDbEntity
  8
DIM
 62
     0
370
    -2
100
AcDbLine
 10
216.6523958191382
 20
184.3429051849127
 30
0.0
 11
214.4386343702345
 21
184.3429051849127
 31
0.0
  0
MTEXT
  5
9DA
330
9D7
100
AcDbEntity
  8
DIM
 62
     0
100
AcDbMText
 10
212.3969677035678
 20
184.3429051849127
 30
0.0
 40
1.0
 41
0.0
 71
     5
 72
     1
  1
\A1;0.000
 73
     1
 44
1.0
1001
ACAD
1000
MTEXTBEGIN
1070
    73
1070
     1
1070
    44
1040
1.0
1070
    74
1070
     0
1000
MTEXTEND
  0
POINT
  5
9DB
330
9D7
100
AcDbEntity
  8
Defpoints
 62
     0
100
AcDbPoint
 10
217.0273958191382
 20
184.3429051849127
 30
0.0
  0
POINT
  5
9DC
330
9D7
100
AcDbEntity
  8
Defpoints
 62
     0
100
AcDbPoint
 10
214.4386343702345
 20
184.3429051849127
 30
0.0
  0
POINT
  5
9DD
330
9D7
100
AcDbEntity
  8
Defpoints
 62
     0
100
AcDbPoint
 10
217.0273958191382
 20
184.3429051849127
 30
0.0
  0
ENDBLK
  5
9DE
330
9D7
100
AcDbEntity
  8
0
100
AcDbBlockEnd
  0
BLOCK
  5
9E0
330
9DF
100
AcDbEntity
  8
0
100
AcDbBlockBegin
  2
*D98
 70
     1
 10
0.0
 20
0.0
 30
0.0
  3
*D98
  1

  0
LINE
  5
9E1
330
9DF
100
AcDbEntity
  8
DIM
 62
     0
370
    -2
100
AcDbLine
 10
217.6833958191381
 20
189.6529051849128
 30
0.0
 11
213.434731086299
 21
189.6529051849128
 31
0.0
  0
MTEXT
  5
9E2
330
9DF
100
AcDbEntity
  8
DIM
 62
     0
100
AcDbMText
 10
211.3097310862991
 20
189.6529051849128
 30
0.0
 40
1.0
 41
0.0
 71
     5
 72
     1
  1
\A1;5.310
 73
     1
 44
1.0
1001
ACAD
1000
MTEXTBEGIN
1070
    73
1070
     1
1070
    44
1040
1.0
1070
    74
1070
     0
1000
MTEXTEND
  0
POINT
  5
9E3
330
9DF
100
AcDbEntity
  8
Defpoints
 62
     0
100
AcDbPoint
 10
218.0583958191381
 20
189.6529051849128
 30
0.0
  0
POINT
  5
9E4
330
9DF
100
AcDbEntity
  8
Defpoints
 62
     0
100
AcDbPoint
 10
213.434731086299
 20
189.6529051849128
 30
0.0
  0
POINT
  5
9E5
330
9DF
100
AcDbEntity
  8
Defpoints
 62
     0
100
AcDbPoint
 10
217.0273958191382
 20
184.3429051849127
 30
0.0
  0
ENDBLK
  5
9E6
330
9DF
100
AcDbEntity
  8
0
100
AcDbBlockEnd
  0
BLOCK
  5
9E8
330
9E7
100
AcDbEntity
  8
0
100
AcDbBlockBegin
  2
*D99
 70
     1
 10
0.0
 20
0.0
 30
0.0
  3
*D99
  1

  0
LINE
  5
9E9
330
9E7
100
AcDbEntity
  8
DIM
 62
     0
370
    -2
100
AcDbLine
 10
217.6833958191381
 20
199.9028893149093
 30
0.0
 11
214.0273958191382
 21
199.9028893149093
 31
0.0
  0
MTEXT
  5
9EA
330
9E7
100
AcDbEntity
  8
DIM
 62
     0
100
AcDbMText
 10
211.4023958191382
 20
199.9028893149093
 30
0.0
 40
1.0
 41
0.0
 71
     5
 72
     1
  1
\A1;15.560
 73
     1
 44
1.0
1001
ACAD
1000
MTEXTBEGIN
1070
    73
1070
     1
1070
    44
1040
1.0
1070
    74
1070
     0
1000
MTEXTEND
  0
POINT
  5
9EB
330
9E7
100
AcDbEntity
  8
Defpoints
 62
     0
100
AcDbPoint
 10
218.0583958191381
 20
199.9028893149093
 30
0.0
  0
POINT
  5
9EC
330
9E7
100
AcDbEntity
  8
Defpoints
 62
     0
100
AcDbPoint
 10
214.0273958191382
 20
199.9028893149093
 30
0.0
  0
POINT
  5
9ED
330
9E7
100
AcDbEntity
  8
Defpoints
 62
     0
100
AcDbPoint
 10
217.0273958191382
 20
184.3429051849127
 30
0.0
  0
ENDBLK
  5
9EE
330
9E7
100
AcDbEntity
  8
0
100
AcDbBlockEnd
  0
BLOCK
  5
9F0
330
9EF
100
AcDbEntity
  8
0
100
AcDbBlockBegin
  2
*D100
 70
     1
 10
0.0
 20
0.0
 30
0.0
  3
*D100
  1

  0
LINE
  5
9F1
330
9EF
100
AcDbEntity
  8
DIM
 62
     0
370
    -2
100
AcDbLine
 10
218.2433958191381
 20
217.4029051849131
 30
0.0
 11
214.2158321737884
 21
217.4029051849131
 31
0.0
  0
MTEXT
  5
9F2
330
9EF
100
AcDbEntity
  8
DIM
 62
     0
100
AcDbMText
 10
211.507498840455
 20
217.4029051849131
 30
0.0
 40
1.0
 41
0.0
 71
     5
 72
     1
  1
\A1;33.060
 73
     1
 44
1.0
1001
ACAD
1000
MTEXTBEGIN
1070
    73
1070
     1
1070
    44
1040
1.0
1070
    74
1070
     0
1000
MTEXTEND
  0
POINT
  5
9F3
330
9EF
100
AcDbEntity
  8
Defpoints
 62
     0
100
AcDbPoint
 10
218.6183958191381
 20
217.4029051849131
 30
0.0
  0
POINT
  5
9F4
330
9EF
100
AcDbEntity
  8
Defpoints
 62
     0
100
AcDbPoint
 10
214.2158321737884
 20
217.4029051849131
 30
0.0
  0
POINT
  5
9F5
330
9EF
100
AcDbEntity
  8
Defpoints
 62
     0
100
AcDbPoint
 10
217.0273958191382
 20
184.3429051849127
 30
0.0
  0
ENDBLK
  5
9F6
330
9EF
100
AcDbEntity
  8
0
100
AcDbBlockEnd
  0
BLOCK
  5
9F8
330
9F7
100
AcDbEntity
  8
0
100
AcDbBlockBegin
  2
*D101
 70
     1
 10
0.0
 20
0.0
 30
0.0
  3
*D101
  1

  0
LINE
  5
9F9
330
9F7
100
AcDbEntity
  8
DIM
 62
     0
370
    -2
100
AcDbLine
 10
217.1808958191381
 20
226.4029051849129
 30
0.0
 11
214.0273958191382
 21
226.4029051849129
 31
0.0
  0
MTEXT
  5
9FA
330
9F7
100
AcDbEntity
  8
DIM
 62
     0
100
AcDbMText
 10
211.3190624858048
 20
226.4029051849129
 30
0.0
 40
1.0
 41
0.0
 71
     5
 72
     1
  1
\A1;42.060
 73
     1
 44
1.0
1001
ACAD
1000
MTEXTBEGIN
1070
    73
1070
     1
1070
    44
1040
1.0
1070
    74
1070
     0
1000
MTEXTEND
  0
POINT
  5
9FB
330
9F7
100
AcDbEntity
  8
Defpoints
 62
     0
100
AcDbPoint
 10
217.5558958191381
 20
226.4029051849129
 30
0.0
  0
POINT
  5
9FC
330
9F7
100
AcDbEntity
  8
Defpoints
 62
     0
100
AcDbPoint
 10
214.0273958191382
 20
226.4029051849129
 30
0.0
  0
POINT
  5
9FD
330
9F7
100
AcDbEntity
  8
Defpoints
 62
     0
100
AcDbPoint
 10
217.0273958191382
 20
184.3429051849127
 30
0.0
  0
ENDBLK
  5
9FE
330
9F7
100
AcDbEntity
  8
0
100
AcDbBlockEnd
  0
BLOCK
  5
A00
330
9FF
100
AcDbEntity
  8
0
100
AcDbBlockBegin
  2
*D102
 70
     1
 10
0.0
 20
0.0
 30
0.0
  3
*D102
  1

  0
LINE
  5
A01
330
9FF
100
AcDbEntity
  8
DIM
 62
     0
370
    -2
100
AcDbLine
 10
216.6523958191382
 20
230.4929051849128
 30
0.0
 11
214.0273958191382
 21
230.4929051849128
 31
0.0
  0
MTEXT
  5
A02
330
9FF
100
AcDbEntity
  8
DIM
 62
     0
100
AcDbMText
 10
211.4023958191382
 20
230.4929051849128
 30
0.0
 40
1.0
 41
0.0
 71
     5
 72
     1
  1
\A1;46.150
 73
     1
 44
1.0
1001
ACAD
1000
MTEXTBEGIN
1070
    73
1070
     1
1070
    44
1040
1.0
1070
    74
1070
     0
1000
MTEXTEND
  0
POINT
  5
A03
330
9FF
100
AcDbEntity
  8
Defpoints
 62
     0
100
AcDbPoint
 10
217.0273958191382
 20
230.4929051849128
 30
0.0
  0
POINT
  5
A04
330
9FF
100
AcDbEntity
  8
Defpoints
 62
     0
100
AcDbPoint
 10
214.0273958191382
 20
230.4929051849128
 30
0.0
  0
POINT
  5
A05
330
9FF
100
AcDbEntity
  8
Defpoints
 62
     0
100
AcDbPoint
 10
217.0273958191382
 20
184.3429051849127
 30
0.0
  0
ENDBLK
  5
A06
330
9FF
100
AcDbEntity
  8
0
100
AcDbBlockEnd
  0
BLOCK
  5
A08
330
A07
100
AcDbEntity
  8
0
100
AcDbBlockBegin
  2
*D103
 70
     1
 10
0.0
 20
0.0
 30
0.0
  3
*D103
  1

  0
LINE
  5
A09
330
A07
100
AcDbEntity
  8
DIM
 62
     0
370
    -2
100
AcDbLine
 10
231.8453958191383
 20
229.2814051849131
 30
0.0
 11
235.9593958191381
 21
229.2814051849131
 31
0.0
  0
MTEXT
  5
A0A
330
A07
100
AcDbEntity
  8
DIM
 62
     0
100
AcDbMText
 10
238.8343958191381
 20
229.2814051849131
 30
0.0
 40
1.0
 41
0.0
 71
     5
 72
     1
  1
\A1;44.939
 73
     1
 44
1.0
1001
ACAD
1000
MTEXTBEGIN
1070
    73
1070
     1
1070
    44
1040
1.0
1070
    74
1070
     0
1000
MTEXTEND
  0
POINT
  5
A0B
330
A07
100
AcDbEntity
  8
Defpoints
 62
     0
100
AcDbPoint
 10
231.4703958191383
 20
229.2814051849131
 30
0.0
  0
POINT
  5
A0C
330
A07
100
AcDbEntity
  8
Defpoints
 62
     0
100
AcDbPoint
 10
235.9593958191381
 20
229.2814051849131
 30
0.0
  0
POINT
  5
A0D
330
A07
100
AcDbEntity
  8
Defpoints
 62
     0
100
AcDbPoint
 10
217.0273958191382
 20
184.3429051849127
 30
0.0
  0
ENDBLK
  5
A0E
330
A07
100
AcDbEntity
  8
0
100
AcDbBlockEnd
  0
BLOCK
  5
A10
330
A0F
100
AcDbEntity
  8
0
100
AcDbBlockBegin
  2
*D104
 70
     1
 10
0.0
 20
0.0
 30
0.0
  3
*D104
  1

  0
LINE
  5
A11
330
A0F
100
AcDbEntity
  8
DIM
 62
     0
370
    -2
100
AcDbLine
 10
232.7433958191382
 20
221.5279051849127
 30
0.0
 11
234.3683958191382
 21
221.5279051849127
 31
0.0
  0
LINE
  5
A12
330
A0F
100
AcDbEntity
  8
DIM
 62
     0
370
    -2
100
AcDbLine
 10
234.3683958191382
 20
221.5279051849127
 30
0.0
 11
233.9593958191381
 21
220.5279051849127
 31
0.0
  0
LINE
  5
A13
330
A0F
100
AcDbEntity
  8
DIM
 62
     0
370
    -2
100
AcDbLine
 10
233.9593958191381
 20
220.5279051849127
 30
0.0
 11
235.9593958191381
 21
220.5279051849127
 31
0.0
  0
MTEXT
  5
A14
330
A0F
100
AcDbEntity
  8
DIM
 62
     0
100
AcDbMText
 10
238.6677291524714
 20
220.5279051849127
 30
0.0
 40
1.0
 41
0.0
 71
     5
 72
     1
  1
\A1;37.185
 73
     1
 44
1.0
1001
ACAD
1000
MTEXTBEGIN
1070
    73
1070
     1
1070
    44
1040
1.0
1070
    74
1070
     0
1000
MTEXTEND
  0
POINT
  5
A15
330
A0F
100
AcDbEntity
  8
Defpoints
 62
     0
100
AcDbPoint
 10
232.3683958191382
 20
221.5279051849127
 30
0.0
  0
POINT
  5
A16
330
A0F
100
AcDbEntity
  8
Defpoints
 62
     0
100
AcDbPoint
 10
235.9593958191381
 20
220.5279051849127
 30
0.0
  0
POINT
  5
A17
330
A0F
100
AcDbEntity
  8
Defpoints
 62
     0
100
AcDbPoint
 10
217.0273958191382
 20
184.3429051849127
 30
0.0
  0
ENDBLK
  5
A18
330
A0F
100
AcDbEntity
  8
0
100
AcDbBlockEnd
  0
BLOCK
  5
A1A
330
A19
100
AcDbEntity
  8
0
100
AcDbBlockBegin
  2
*D105
 70
     1
 10
0.0
 20
0.0
 30
0.0
  3
*D105
  1

  0
LINE
  5
A1B
330
A19
100
AcDbEntity
  8
DIM
 62
     0
370
    -2
100
AcDbLine
 10
232.7433958191381
 20
218.2779051849131
 30
0.0
 11
234.3683958191382
 21
218.2779051849131
 31
0.0
  0
LINE
  5
A1C
330
A19
100
AcDbEntity
  8
DIM
 62
     0
370
    -2
100
AcDbLine
 10
234.3683958191382
 20
218.2779051849131
 30
0.0
 11
233.9593958191381
 21
219.2779051849131
 31
0.0
  0
LINE
  5
A1D
330
A19
100
AcDbEntity
  8
DIM
 62
     0
370
    -2
100
AcDbLine
 10
233.9593958191381
 20
219.2779051849131
 30
0.0
 11
235.9593958191381
 21
219.2779051849131
 31
0.0
  0
MTEXT
  5
A1E
330
A19
100
AcDbEntity
  8
DIM
 62
     0
100
AcDbMText
 10
238.8343958191381
 20
219.2779051849131
 30
0.0
 40
1.0
 41
0.0
 71
     5
 72
     1
  1
\A1;33.935
 73
     1
 44
1.0
1001
ACAD
1000
MTEXTBEGIN
1070
    73
1070
     1
1070
    44
1040
1.0
1070
    74
1070
     0
1000
MTEXTEND
  0
POINT
  5
A1F
330
A19
100
AcDbEntity
  8
Defpoints
 62
     0
100
AcDbPoint
 10
232.3683958191382
 20
218.2779051849131
 30
0.0
  0
POINT
  5
A20
330
A19
100
AcDbEntity
  8
Defpoints
 62
     0
100
AcDbPoint
 10
235.9593958191381
 20
219.2779051849131
 30
0.0
  0
POINT
  5
A21
330
A19
100
AcDbEntity
  8
Defpoints
 62
     0
100
AcDbPoint
 10
217.0273958191382
 20
184.3429051849127
 30
0.0
  0
ENDBLK
  5
A22
330
A19
100
AcDbEntity
  8
0
100
AcDbBlockEnd
  0
BLOCK
  5
A24
330
A23
100
AcDbEntity
  8
0
100
AcDbBlockBegin
  2
*D106
 70
     1
 10
0.0
 20
0.0
 30
0.0
  3
*D106
  1

  0
LINE
  5
A25
330
A23
100
AcDbEntity
  8
DIM
 62
     0
370
    -2
100
AcDbLine
 10
228.7433958191382
 20
215.6529051849129
 30
0.0
 11
226.4211416297006
 21
215.6529051849129
 31
0.0
  0
MTEXT
  5
A26
330
A23
100
AcDbEntity
  8
DIM
 62
     0
100
AcDbMText
 10
223.9628082963673
 20
215.6529051849129
 30
0.0
 40
1.0
 41
0.0
 71
     5
 72
     1
  1
\A1;31.310
 73
     1
 44
1.0
1001
ACAD
1000
MTEXTBEGIN
1070
    73
1070
     1
1070
    44
1040
1.0
1070
    74
1070
     0
1000
MTEXTEND
  0
POINT
  5
A27
330
A23
100
AcDbEntity
  8
Defpoints
 62
     0
100
AcDbPoint
 10
229.1183958191382
 20
215.6529051849129
 30
0.0
  0
POINT
  5
A28
330
A23
100
AcDbEntity
  8
Defpoints
 62
     0
100
AcDbPoint
 10
226.4211416297006
 20
215.6529051849129
 30
0.0
  0
POINT
  5
A29
330
A23
100
AcDbEntity
  8
Defpoints
 62
     0
100
AcDbPoint
 10
217.0273958191382
 20
184.3429051849127
 30
0.0
  0
ENDBLK
  5
A2A
330
A23
100
AcDbEntity
  8
0
100
AcDbBlockEnd
  0
BLOCK
  5
A2C
330
A2B
100
AcDbEntity
  8
0
100
AcDbBlockBegin
  2
*D107
 70
     1
 10
0.0
 20
0.0
 30
0.0
  3
*D107
  1

  0
LINE
  5
A2D
330
A2B
100
AcDbEntity
  8
DIM
 62
     0
370
    -2
100
AcDbLine
 10
231.9933958191382
 20
214.9029051849129
 30
0.0
 11
233.6183958191382
 21
214.9029051849129
 31
0.0
  0
LINE
  5
A2E
330
A2B
100
AcDbEntity
  8
DIM
 62
     0
370
    -2
100
AcDbLine
 10
233.6183958191382
 20
214.9029051849129
 30
0.0
 11
233.9593958191381
 21
214.4029051849129
 31
0.0
  0
LINE
  5
A2F
330
A2B
100
AcDbEntity
  8
DIM
 62
     0
370
    -2
100
AcDbLine
 10
233.9593958191381
 20
214.4029051849129
 30
0.0
 11
235.9593958191381
 21
214.4029051849129
 31
0.0
  0
MTEXT
  5
A30
330
A2B
100
AcDbEntity
  8
DIM
 62
     0
100
AcDbMText
 10
238.6677291524714
 20
214.4029051849129
 30
0.0
 40
1.0
 41
0.0
 71
     5
 72
     1
  1
\A1;30.560
 73
     1
 44
1.0
1001
ACAD
1000
MTEXTBEGIN
1070
    73
1070
     1
1070
    44
1040
1.0
1070
    74
1070
     0
1000
MTEXTEND
  0
POINT
  5
A31
330
A2B
100
AcDbEntity
  8
Defpoints
 62
     0
100
AcDbPoint
 10
231.6183958191382
 20
214.9029051849129
 30
0.0
  0
POINT
  5
A32
330
A2B
100
AcDbEntity
  8
Defpoints
 62
     0
100
AcDbPoint
 10
235.9593958191381
 20
214.4029051849129
 30
0.0
  0
POINT
  5
A33
330
A2B
100
AcDbEntity
  8
Defpoints
 62
     0
100
AcDbPoint
 10
217.0273958191382
 20
184.3429051849127
 30
0.0
  0
ENDBLK
  5
A34
330
A2B
100
AcDbEntity
  8
0
100
AcDbBlockEnd
  0
BLOCK
  5
A36
330
A35
100
AcDbEntity
  8
0
100
AcDbBlockBegin
  2
*D108
 70
     1
 10
0.0
 20
0.0
 30
0.0
  3
*D108
  1

  0
LINE
  5
A37
330
A35
100
AcDbEntity
  8
DIM
 62
     0
370
    -2
100
AcDbLine
 10
231.9933958191382
 20
213.4029051849129
 30
0.0
 11
233.6183958191382
 21
213.4029051849129
 31
0.0
  0
LINE
  5
A38
330
A35
100
AcDbEntity
  8
DIM
 62
     0
370
    -2
100
AcDbLine
 10
233.6183958191382
 20
213.4029051849129
 30
0.0
 11
234.0426576265719
 21
212.9770244370394
 31
0.0
  0
LINE
  5
A39
330
A35
100
AcDbEntity
  8
DIM
 62
     0
370
    -2
100
AcDbLine
 10
234.0426576265719
 20
212.9770244370394
 30
0.0
 11
236.0426576265719
 21
212.9770244370394
 31
0.0
  0
MTEXT
  5
A3A
330
A35
100
AcDbEntity
  8
DIM
 62
     0
100
AcDbMText
 10
238.7509909599053
 20
212.9770244370394
 30
0.0
 40
1.0
 41
0.0
 71
     5
 72
     1
  1
\A1;29.060
 73
     1
 44
1.0
1001
ACAD
1000
MTEXTBEGIN
1070
    73
1070
     1
1070
    44
1040
1.0
1070
    74
1070
     0
1000
MTEXTEND
  0
POINT
  5
A3B
330
A35
100
AcDbEntity
  8
Defpoints
 62
     0
100
AcDbPoint
 10
231.6183958191382
 20
213.4029051849129
 30
0.0
  0
POINT
  5
A3C
330
A35
100
AcDbEntity
  8
Defpoints
 62
     0
100
AcDbPoint
 10
236.0426576265719
 20
212.9770244370394
 30
0.0
  0
POINT
  5
A3D
330
A35
100
AcDbEntity
  8
Defpoints
 62
     0
100
AcDbPoint
 10
217.0273958191382
 20
184.3429051849127
 30
0.0
  0
ENDBLK
  5
A3E
330
A35
100
AcDbEntity
  8
0
100
AcDbBlockEnd
  0
BLOCK
  5
A40
330
A3F
100
AcDbEntity
  8
0
100
AcDbBlockBegin
  2
*D109
 70
     1
 10
0.0
 20
0.0
 30
0.0
  3
*D109
  1

  0
LINE
  5
A41
330
A3F
100
AcDbEntity
  8
DIM
 62
     0
370
    -2
100
AcDbLine
 10
215.106450995197
 20
206.5363767286503
 30
0.0
 11
216.106450995197
 21
206.5363767286503
 31
0.0
  0
LINE
  5
A42
330
A3F
100
AcDbEntity
  8
DIM
 62
     0
370
    -2
100
AcDbLine
 10
216.106450995197
 20
206.5363767286503
 30
0.0
 11
227.787536502025
 21
214.720468335548
 31
0.0
  0
MTEXT
  5
A43
330
A3F
100
AcDbEntity
  8
DIM
 62
     0
100
AcDbMText
 10
214.7314509951971
 20
210.3697100619837
 30
0.0
 40
1.0
 41
0.0
 71
     3
 72
     1
  1
\A1;\U+22051.250 (1)\POPTIONAL:\PETHERNET\PCONNECTION\PPORT
 73
     1
 44
1.0
1001
ACAD
1000
MTEXTBEGIN
1070
    73
1070
     1
1070
    44
1040
1.0
1070
    74
1070
     0
1000
MTEXTEND
  0
SOLID
  5
A44
330
A3F
100
AcDbEntity
  8
DIM
 62
     0
100
AcDbTrace
 10
227.6919019533722
 20
214.8569667270468
 30
0.0
 11
227.8831710506778
 21
214.5839699440493
 31
0.0
 12
228.6065268510177
 22
215.2942756274648
 32
0.0
 13
228.6065268510177
 23
215.2942756274648
 33
0.0
  0
LINE
  5
A45
330
A3F
100
AcDbEntity
  8
DIM
 62
     0
370
    -2
100
AcDbLine
 10
229.0283958191381
 20
215.6529051849128
 30
0.0
 11
229.2083958191381
 21
215.6529051849128
 31
0.0
  0
LINE
  5
A46
330
A3F
100
AcDbEntity
  8
DIM
 62
     0
370
    -2
100
AcDbLine
 10
229.1183958191381
 20
215.5629051849128
 30
0.0
 11
229.1183958191381
 21
215.7429051849127
 31
0.0
  0
POINT
  5
A47
330
A3F
100
AcDbEntity
  8
Defpoints
 62
     0
100
AcDbPoint
 10
228.6065268510177
 20
215.2942756274648
 30
0.0
  0
POINT
  5
A48
330
A3F
100
AcDbEntity
  8
Defpoints
 62
     0
100
AcDbPoint
 10
229.6302647872586
 20
216.0115347423608
 30
0.0
  0
ENDBLK
  5
A49
330
A3F
100
AcDbEntity
  8
0
100
AcDbBlockEnd
  0
BLOCK
  5
B75
330
B6C
100
AcDbEntity
  8
0
100
AcDbBlockBegin
  2
*D111
 70
     1
 10
0.0
 20
0.0
 30
0.0
  3
*D111
  1

  0
LINE
  5
CF4
330
B6C
100
AcDbEntity
  8
DIM
 62
     0
370
    -2
100
AcDbLine
 10
36.87167643736436
 20
-77.62308461633603
 30
0.0
 11
38.15667643736504
 21
-77.62308461633603
 31
0.0
  0
LINE
  5
CF5
330
B6C
100
AcDbEntity
  8
DIM
 62
     0
370
    -2
100
AcDbLine
 10
38.15667643736504
 20
-77.62308461633603
 30
0.0
 11
49.83776194419235
 21
-69.43899300943839
 31
0.0
  0
MTEXT
  5
CF6
330
B6C
100
AcDbEntity
  8
DIM
 62
     0
100
AcDbMText
 10
36.78167643736437
 20
-73.78975128300268
 30
0.0
 40
1.0
 41
0.0
 71
     3
 72
     1
  1
\A1;\U+22051.250 (1)\POPTIONAL:\PETHERNET\PCONNECTION\PPORT
 73
     1
 44
1.0
1001
ACAD
1000
MTEXTBEGIN
1070
    73
1070
     1
1070
    44
1040
1.0
1070
    74
1070
     0
1000
MTEXTEND
  0
SOLID
  5
CF7
330
B6C
100
AcDbEntity
  8
DIM
 62
     0
100
AcDbTrace
 10
49.74212739553954
 20
-69.3024946179396
 30
0.0
 11
49.93339649284514
 21
-69.57549140093717
 31
0.0
 12
50.656752293185
 22
-68.86518571752161
 32
0.0
 13
50.656752293185
 23
-68.86518571752161
 33
0.0
  0
LINE
  5
CF8
330
B6C
100
AcDbEntity
  8
DIM
 62
     0
370
    -2
100
AcDbLine
 10
51.07862126130541
 20
-68.50655616007362
 30
0.0
 11
51.25862126130543
 21
-68.50655616007362
 31
0.0
  0
LINE
  5
CF9
330
B6C
100
AcDbEntity
  8
DIM
 62
     0
370
    -2
100
AcDbLine
 10
51.16862126130541
 20
-68.59655616007363
 30
0.0
 11
51.16862126130542
 21
-68.41655616007361
 31
0.0
  0
POINT
  5
CFA
330
B6C
100
AcDbEntity
  8
Defpoints
 62
     0
100
AcDbPoint
 10
50.656752293185
 20
-68.86518571752161
 30
0.0
  0
POINT
  5
CFB
330
B6C
100
AcDbEntity
  8
Defpoints
 62
     0
100
AcDbPoint
 10
51.68049022942584
 20
-68.14792660262561
 30
0.0
  0
ENDBLK
  5
B76
330
B6C
100
AcDbEntity
  8
0
100
AcDbBlockEnd
  0
BLOCK
  5
B7F
330
B77
100
AcDbEntity
  8
0
100
AcDbBlockBegin
  2
*D112
 70
     1
 10
0.0
 20
0.0
 30
0.0
  3
*D112
  1

  0
LINE
  5
CED
330
B77
100
AcDbEntity
  8
DIM
 62
     0
370
    -2
100
AcDbLine
 10
53.86862126130551
 20
-70.75655616007349
 30
0.0
 11
55.6686212613055
 21
-70.75655616007349
 31
0.0
  0
LINE
  5
CEE
330
B77
100
AcDbEntity
  8
DIM
 62
     0
370
    -2
100
AcDbLine
 10
55.6686212613055
 20
-70.75655616007349
 30
0.0
 11
56.09288306873921
 21
-71.18243690794695
 31
0.0
  0
LINE
  5
CEF
330
B77
100
AcDbEntity
  8
DIM
 62
     0
370
    -2
100
AcDbLine
 10
56.09288306873921
 20
-71.18243690794695
 30
0.0
 11
58.09288306873921
 21
-71.18243690794695
 31
0.0
  0
MTEXT
  5
CF0
330
B77
100
AcDbEntity
  8
DIM
 62
     0
100
AcDbMText
 10
60.51621640207255
 20
-71.18243690794695
 30
0.0
 40
1.0
 41
0.0
 71
     5
 72
     1
  1
\A1;29.060
 73
     1
 44
1.0
1001
ACAD
1000
MTEXTBEGIN
1070
    73
1070
     1
1070
    44
1040
1.0
1070
    74
1070
     0
1000
MTEXTEND
  0
POINT
  5
CF1
330
B77
100
AcDbEntity
  8
Defpoints
 62
     0
100
AcDbPoint
 10
53.6686212613055
 20
-70.75655616007349
 30
0.0
  0
POINT
  5
CF2
330
B77
100
AcDbEntity
  8
Defpoints
 62
     0
100
AcDbPoint
 10
58.09288306873921
 20
-71.18243690794695
 30
0.0
  0
POINT
  5
CF3
330
B77
100
AcDbEntity
  8
Defpoints
 62
     0
100
AcDbPoint
 10
39.07762126130549
 20
-99.81655616007369
 30
0.0
  0
ENDBLK
  5
B80
330
B77
100
AcDbEntity
  8
0
100
AcDbBlockEnd
  0
BLOCK
  5
B89
330
B81
100
AcDbEntity
  8
0
100
AcDbBlockBegin
  2
*D113
 70
     1
 10
0.0
 20
0.0
 30
0.0
  3
*D113
  1

  0
LINE
  5
CE6
330
B81
100
AcDbEntity
  8
DIM
 62
     0
370
    -2
100
AcDbLine
 10
53.86862126130551
 20
-69.25655616007349
 30
0.0
 11
55.6686212613055
 21
-69.25655616007349
 31
0.0
  0
LINE
  5
CE7
330
B81
100
AcDbEntity
  8
DIM
 62
     0
370
    -2
100
AcDbLine
 10
55.6686212613055
 20
-69.25655616007349
 30
0.0
 11
56.00962126130539
 21
-69.75655616007348
 31
0.0
  0
LINE
  5
CE8
330
B81
100
AcDbEntity
  8
DIM
 62
     0
370
    -2
100
AcDbLine
 10
56.00962126130539
 20
-69.75655616007348
 30
0.0
 11
58.00962126130539
 21
-69.75655616007348
 31
0.0
  0
MTEXT
  5
CE9
330
B81
100
AcDbEntity
  8
DIM
 62
     0
100
AcDbMText
 10
60.43295459463873
 20
-69.75655616007348
 30
0.0
 40
1.0
 41
0.0
 71
     5
 72
     1
  1
\A1;30.560
 73
     1
 44
1.0
1001
ACAD
1000
MTEXTBEGIN
1070
    73
1070
     1
1070
    44
1040
1.0
1070
    74
1070
     0
1000
MTEXTEND
  0
POINT
  5
CEA
330
B81
100
AcDbEntity
  8
Defpoints
 62
     0
100
AcDbPoint
 10
53.6686212613055
 20
-69.25655616007349
 30
0.0
  0
POINT
  5
CEB
330
B81
100
AcDbEntity
  8
Defpoints
 62
     0
100
AcDbPoint
 10
58.00962126130539
 20
-69.75655616007348
 30
0.0
  0
POINT
  5
CEC
330
B81
100
AcDbEntity
  8
Defpoints
 62
     0
100
AcDbPoint
 10
39.07762126130549
 20
-99.81655616007369
 30
0.0
  0
ENDBLK
  5
B8A
330
B81
100
AcDbEntity
  8
0
100
AcDbBlockEnd
  0
BLOCK
  5
B91
330
B8B
100
AcDbEntity
  8
0
100
AcDbBlockBegin
  2
*D114
 70
     1
 10
0.0
 20
0.0
 30
0.0
  3
*D114
  1

  0
LINE
  5
CE1
330
B8B
100
AcDbEntity
  8
DIM
 62
     0
370
    -2
100
AcDbLine
 10
50.9686212613055
 20
-68.50655616007348
 30
0.0
 11
48.47136707186795
 21
-68.50655616007348
 31
0.0
  0
MTEXT
  5
CE2
330
B8B
100
AcDbEntity
  8
DIM
 62
     0
100
AcDbMText
 10
46.29803373853461
 20
-68.50655616007348
 30
0.0
 40
1.0
 41
0.0
 71
     5
 72
     1
  1
\A1;31.310
 73
     1
 44
1.0
1001
ACAD
1000
MTEXTBEGIN
1070
    73
1070
     1
1070
    44
1040
1.0
1070
    74
1070
     0
1000
MTEXTEND
  0
POINT
  5
CE3
330
B8B
100
AcDbEntity
  8
Defpoints
 62
     0
100
AcDbPoint
 10
51.1686212613055
 20
-68.50655616007348
 30
0.0
  0
POINT
  5
CE4
330
B8B
100
AcDbEntity
  8
Defpoints
 62
     0
100
AcDbPoint
 10
48.47136707186795
 20
-68.50655616007348
 30
0.0
  0
POINT
  5
CE5
330
B8B
100
AcDbEntity
  8
Defpoints
 62
     0
100
AcDbPoint
 10
39.07762126130549
 20
-99.81655616007369
 30
0.0
  0
ENDBLK
  5
B92
330
B8B
100
AcDbEntity
  8
0
100
AcDbBlockEnd
  0
BLOCK
  5
B9B
330
B93
100
AcDbEntity
  8
0
100
AcDbBlockBegin
  2
*D115
 70
     1
 10
0.0
 20
0.0
 30
0.0
  3
*D115
  1

  0
LINE
  5
CDA
330
B93
100
AcDbEntity
  8
DIM
 62
     0
370
    -2
100
AcDbLine
 10
54.61862126130547
 20
-65.88155616007329
 30
0.0
 11
56.41862126130547
 21
-65.88155616007329
 31
0.0
  0
LINE
  5
CDB
330
B93
100
AcDbEntity
  8
DIM
 62
     0
370
    -2
100
AcDbLine
 10
56.41862126130547
 20
-65.88155616007329
 30
0.0
 11
56.00962126130539
 21
-64.88155616007325
 31
0.0
  0
LINE
  5
CDC
330
B93
100
AcDbEntity
  8
DIM
 62
     0
370
    -2
100
AcDbLine
 10
56.00962126130539
 20
-64.88155616007325
 30
0.0
 11
58.00962126130539
 21
-64.88155616007325
 31
0.0
  0
MTEXT
  5
CDD
330
B93
100
AcDbEntity
  8
DIM
 62
     0
100
AcDbMText
 10
60.5996212613054
 20
-64.88155616007325
 30
0.0
 40
1.0
 41
0.0
 71
     5
 72
     1
  1
\A1;33.935
 73
     1
 44
1.0
1001
ACAD
1000
MTEXTBEGIN
1070
    73
1070
     1
1070
    44
1040
1.0
1070
    74
1070
     0
1000
MTEXTEND
  0
POINT
  5
CDE
330
B93
100
AcDbEntity
  8
Defpoints
 62
     0
100
AcDbPoint
 10
54.41862126130548
 20
-65.88155616007329
 30
0.0
  0
POINT
  5
CDF
330
B93
100
AcDbEntity
  8
Defpoints
 62
     0
100
AcDbPoint
 10
58.00962126130539
 20
-64.88155616007325
 30
0.0
  0
POINT
  5
CE0
330
B93
100
AcDbEntity
  8
Defpoints
 62
     0
100
AcDbPoint
 10
39.07762126130549
 20
-99.81655616007369
 30
0.0
  0
ENDBLK
  5
B9C
330
B93
100
AcDbEntity
  8
0
100
AcDbBlockEnd
  0
BLOCK
  5
BA5
330
B9D
100
AcDbEntity
  8
0
100
AcDbBlockBegin
  2
*D116
 70
     1
 10
0.0
 20
0.0
 30
0.0
  3
*D116
  1

  0
LINE
  5
CD3
330
B9D
100
AcDbEntity
  8
DIM
 62
     0
370
    -2
100
AcDbLine
 10
54.61862126130551
 20
-62.63155616007366
 30
0.0
 11
56.41862126130551
 21
-62.63155616007366
 31
0.0
  0
LINE
  5
CD4
330
B9D
100
AcDbEntity
  8
DIM
 62
     0
370
    -2
100
AcDbLine
 10
56.41862126130551
 20
-62.63155616007366
 30
0.0
 11
56.00962126130539
 21
-63.63155616007365
 31
0.0
  0
LINE
  5
CD5
330
B9D
100
AcDbEntity
  8
DIM
 62
     0
370
    -2
100
AcDbLine
 10
56.00962126130539
 20
-63.63155616007365
 30
0.0
 11
58.00962126130539
 21
-63.63155616007365
 31
0.0
  0
MTEXT
  5
CD6
330
B9D
100
AcDbEntity
  8
DIM
 62
     0
100
AcDbMText
 10
60.43295459463873
 20
-63.63155616007365
 30
0.0
 40
1.0
 41
0.0
 71
     5
 72
     1
  1
\A1;37.185
 73
     1
 44
1.0
1001
ACAD
1000
MTEXTBEGIN
1070
    73
1070
     1
1070
    44
1040
1.0
1070
    74
1070
     0
1000
MTEXTEND
  0
POINT
  5
CD7
330
B9D
100
AcDbEntity
  8
Defpoints
 62
     0
100
AcDbPoint
 10
54.4186212613055
 20
-62.63155616007366
 30
0.0
  0
POINT
  5
CD8
330
B9D
100
AcDbEntity
  8
Defpoints
 62
     0
100
AcDbPoint
 10
58.00962126130539
 20
-63.63155616007365
 30
0.0
  0
POINT
  5
CD9
330
B9D
100
AcDbEntity
  8
Defpoints
 62
     0
100
AcDbPoint
 10
39.07762126130549
 20
-99.81655616007369
 30
0.0
  0
ENDBLK
  5
BA6
330
B9D
100
AcDbEntity
  8
0
100
AcDbBlockEnd
  0
BLOCK
  5
BAD
330
BA7
100
AcDbEntity
  8
0
100
AcDbBlockBegin
  2
*D117
 70
     1
 10
0.0
 20
0.0
 30
0.0
  3
*D117
  1

  0
LINE
  5
CCE
330
BA7
100
AcDbEntity
  8
DIM
 62
     0
370
    -2
100
AcDbLine
 10
53.72062126130562
 20
-54.87805616007323
 30
0.0
 11
58.00962126130539
 21
-54.87805616007323
 31
0.0
  0
MTEXT
  5
CCF
330
BA7
100
AcDbEntity
  8
DIM
 62
     0
100
AcDbMText
 10
60.5996212613054
 20
-54.87805616007323
 30
0.0
 40
1.0
 41
0.0
 71
     5
 72
     1
  1
\A1;44.939
 73
     1
 44
1.0
1001
ACAD
1000
MTEXTBEGIN
1070
    73
1070
     1
1070
    44
1040
1.0
1070
    74
1070
     0
1000
MTEXTEND
  0
POINT
  5
CD0
330
BA7
100
AcDbEntity
  8
Defpoints
 62
     0
100
AcDbPoint
 10
53.52062126130562
 20
-54.87805616007323
 30
0.0
  0
POINT
  5
CD1
330
BA7
100
AcDbEntity
  8
Defpoints
 62
     0
100
AcDbPoint
 10
58.00962126130539
 20
-54.87805616007323
 30
0.0
  0
POINT
  5
CD2
330
BA7
100
AcDbEntity
  8
Defpoints
 62
     0
100
AcDbPoint
 10
39.07762126130549
 20
-99.81655616007369
 30
0.0
  0
ENDBLK
  5
BAE
330
BA7
100
AcDbEntity
  8
0
100
AcDbBlockEnd
  0
BLOCK
  5
BB5
330
BAF
100
AcDbEntity
  8
0
100
AcDbBlockBegin
  2
*D118
 70
     1
 10
0.0
 20
0.0
 30
0.0
  3
*D118
  1

  0
LINE
  5
CC9
330
BAF
100
AcDbEntity
  8
DIM
 62
     0
370
    -2
100
AcDbLine
 10
38.87762126130549
 20
-53.66655616007356
 30
0.0
 11
36.0776212613055
 21
-53.66655616007356
 31
0.0
  0
MTEXT
  5
CCA
330
BAF
100
AcDbEntity
  8
DIM
 62
     0
100
AcDbMText
 10
33.73762126130549
 20
-53.66655616007356
 30
0.0
 40
1.0
 41
0.0
 71
     5
 72
     1
  1
\A1;46.150
 73
     1
 44
1.0
1001
ACAD
1000
MTEXTBEGIN
1070
    73
1070
     1
1070
    44
1040
1.0
1070
    74
1070
     0
1000
MTEXTEND
  0
POINT
  5
CCB
330
BAF
100
AcDbEntity
  8
Defpoints
 62
     0
100
AcDbPoint
 10
39.07762126130549
 20
-53.66655616007356
 30
0.0
  0
POINT
  5
CCC
330
BAF
100
AcDbEntity
  8
Defpoints
 62
     0
100
AcDbPoint
 10
36.0776212613055
 20
-53.66655616007356
 30
0.0
  0
POINT
  5
CCD
330
BAF
100
AcDbEntity
  8
Defpoints
 62
     0
100
AcDbPoint
 10
39.07762126130549
 20
-99.81655616007369
 30
0.0
  0
ENDBLK
  5
BB6
330
BAF
100
AcDbEntity
  8
0
100
AcDbBlockEnd
  0
BLOCK
  5
BBD
330
BB7
100
AcDbEntity
  8
0
100
AcDbBlockBegin
  2
*D119
 70
     1
 10
0.0
 20
0.0
 30
0.0
  3
*D119
  1

  0
LINE
  5
CC4
330
BB7
100
AcDbEntity
  8
DIM
 62
     0
370
    -2
100
AcDbLine
 10
39.40612126130539
 20
-57.75655616007348
 30
0.0
 11
36.0776212613055
 21
-57.75655616007348
 31
0.0
  0
MTEXT
  5
CC5
330
BB7
100
AcDbEntity
  8
DIM
 62
     0
100
AcDbMText
 10
33.65428792797216
 20
-57.75655616007348
 30
0.0
 40
1.0
 41
0.0
 71
     5
 72
     1
  1
\A1;42.060
 73
     1
 44
1.0
1001
ACAD
1000
MTEXTBEGIN
1070
    73
1070
     1
1070
    44
1040
1.0
1070
    74
1070
     0
1000
MTEXTEND
  0
POINT
  5
CC6
330
BB7
100
AcDbEntity
  8
Defpoints
 62
     0
100
AcDbPoint
 10
39.60612126130539
 20
-57.75655616007348
 30
0.0
  0
POINT
  5
CC7
330
BB7
100
AcDbEntity
  8
Defpoints
 62
     0
100
AcDbPoint
 10
36.0776212613055
 20
-57.75655616007348
 30
0.0
  0
POINT
  5
CC8
330
BB7
100
AcDbEntity
  8
Defpoints
 62
     0
100
AcDbPoint
 10
39.07762126130549
 20
-99.81655616007369
 30
0.0
  0
ENDBLK
  5
BBE
330
BB7
100
AcDbEntity
  8
0
100
AcDbBlockEnd
  0
BLOCK
  5
BC5
330
BBF
100
AcDbEntity
  8
0
100
AcDbBlockBegin
  2
*D120
 70
     1
 10
0.0
 20
0.0
 30
0.0
  3
*D120
  1

  0
LINE
  5
CBF
330
BBF
100
AcDbEntity
  8
DIM
 62
     0
370
    -2
100
AcDbLine
 10
40.46862126130538
 20
-66.75655616007325
 30
0.0
 11
36.2660576159557
 21
-66.75655616007325
 31
0.0
  0
MTEXT
  5
CC0
330
BBF
100
AcDbEntity
  8
DIM
 62
     0
100
AcDbMText
 10
33.84272428262237
 20
-66.75655616007325
 30
0.0
 40
1.0
 41
0.0
 71
     5
 72
     1
  1
\A1;33.060
 73
     1
 44
1.0
1001
ACAD
1000
MTEXTBEGIN
1070
    73
1070
     1
1070
    44
1040
1.0
1070
    74
1070
     0
1000
MTEXTEND
  0
POINT
  5
CC1
330
BBF
100
AcDbEntity
  8
Defpoints
 62
     0
100
AcDbPoint
 10
40.66862126130539
 20
-66.75655616007325
 30
0.0
  0
POINT
  5
CC2
330
BBF
100
AcDbEntity
  8
Defpoints
 62
     0
100
AcDbPoint
 10
36.2660576159557
 20
-66.75655616007325
 30
0.0
  0
POINT
  5
CC3
330
BBF
100
AcDbEntity
  8
Defpoints
 62
     0
100
AcDbPoint
 10
39.07762126130549
 20
-99.81655616007369
 30
0.0
  0
ENDBLK
  5
BC6
330
BBF
100
AcDbEntity
  8
0
100
AcDbBlockEnd
  0
BLOCK
  5
BCD
330
BC7
100
AcDbEntity
  8
0
100
AcDbBlockBegin
  2
*D121
 70
     1
 10
0.0
 20
0.0
 30
0.0
  3
*D121
  1

  0
LINE
  5
CBA
330
BC7
100
AcDbEntity
  8
DIM
 62
     0
370
    -2
100
AcDbLine
 10
39.90862126130544
 20
-84.25657203007709
 30
0.0
 11
36.0776212613055
 21
-84.25657203007709
 31
0.0
  0
MTEXT
  5
CBB
330
BC7
100
AcDbEntity
  8
DIM
 62
     0
100
AcDbMText
 10
33.73762126130549
 20
-84.25657203007709
 30
0.0
 40
1.0
 41
0.0
 71
     5
 72
     1
  1
\A1;15.560
 73
     1
 44
1.0
1001
ACAD
1000
MTEXTBEGIN
1070
    73
1070
     1
1070
    44
1040
1.0
1070
    74
1070
     0
1000
MTEXTEND
  0
POINT
  5
CBC
330
BC7
100
AcDbEntity
  8
Defpoints
 62
     0
100
AcDbPoint
 10
40.10862126130544
 20
-84.25657203007709
 30
0.0
  0
POINT
  5
CBD
330
BC7
100
AcDbEntity
  8
Defpoints
 62
     0
100
AcDbPoint
 10
36.0776212613055
 20
-84.25657203007709
 30
0.0
  0
POINT
  5
CBE
330
BC7
100
AcDbEntity
  8
Defpoints
 62
     0
100
AcDbPoint
 10
39.07762126130549
 20
-99.81655616007369
 30
0.0
  0
ENDBLK
  5
BCE
330
BC7
100
AcDbEntity
  8
0
100
AcDbBlockEnd
  0
BLOCK
  5
BD5
330
BCF
100
AcDbEntity
  8
0
100
AcDbBlockBegin
  2
*D122
 70
     1
 10
0.0
 20
0.0
 30
0.0
  3
*D122
  1

  0
LINE
  5
CB5
330
BCF
100
AcDbEntity
  8
DIM
 62
     0
370
    -2
100
AcDbLine
 10
39.90862126130544
 20
-94.50655616007349
 30
0.0
 11
35.48495652846637
 21
-94.50655616007349
 31
0.0
  0
MTEXT
  5
CB6
330
BCF
100
AcDbEntity
  8
DIM
 62
     0
100
AcDbMText
 10
33.64495652846637
 20
-94.50655616007349
 30
0.0
 40
1.0
 41
0.0
 71
     5
 72
     1
  1
\A1;5.310
 73
     1
 44
1.0
1001
ACAD
1000
MTEXTBEGIN
1070
    73
1070
     1
1070
    44
1040
1.0
1070
    74
1070
     0
1000
MTEXTEND
  0
POINT
  5
CB7
330
BCF
100
AcDbEntity
  8
Defpoints
 62
     0
100
AcDbPoint
 10
40.10862126130544
 20
-94.50655616007349
 30
0.0
  0
POINT
  5
CB8
330
BCF
100
AcDbEntity
  8
Defpoints
 62
     0
100
AcDbPoint
 10
35.48495652846637
 20
-94.50655616007349
 30
0.0
  0
POINT
  5
CB9
330
BCF
100
AcDbEntity
  8
Defpoints
 62
     0
100
AcDbPoint
 10
39.07762126130549
 20
-99.81655616007369
 30
0.0
  0
ENDBLK
  5
BD6
330
BCF
100
AcDbEntity
  8
0
100
AcDbBlockEnd
  0
BLOCK
  5
BDD
330
BD7
100
AcDbEntity
  8
0
100
AcDbBlockBegin
  2
*D123
 70
     1
 10
0.0
 20
0.0
 30
0.0
  3
*D123
  1

  0
LINE
  5
CB0
330
BD7
100
AcDbEntity
  8
DIM
 62
     0
370
    -2
100
AcDbLine
 10
38.87762126130549
 20
-99.81655616007369
 30
0.0
 11
36.48885981240179
 21
-99.81655616007369
 31
0.0
  0
MTEXT
  5
CB1
330
BD7
100
AcDbEntity
  8
DIM
 62
     0
100
AcDbMText
 10
34.73219314573512
 20
-99.81655616007369
 30
0.0
 40
1.0
 41
0.0
 71
     5
 72
     1
  1
\A1;0.000
 73
     1
 44
1.0
1001
ACAD
1000
MTEXTBEGIN
1070
    73
1070
     1
1070
    44
1040
1.0
1070
    74
1070
     0
1000
MTEXTEND
  0
POINT
  5
CB2
330
BD7
100
AcDbEntity
  8
Defpoints
 62
     0
100
AcDbPoint
 10
39.07762126130549
 20
-99.81655616007369
 30
0.0
  0
POINT
  5
CB3
330
BD7
100
AcDbEntity
  8
Defpoints
 62
     0
100
AcDbPoint
 10
36.48885981240179
 20
-99.81655616007369
 30
0.0
  0
POINT
  5
CB4
330
BD7
100
AcDbEntity
  8
Defpoints
 62
     0
100
AcDbPoint
 10
39.07762126130549
 20
-99.81655616007369
 30
0.0
  0
ENDBLK
  5
BDE
330
BD7
100
AcDbEntity
  8
0
100
AcDbBlockEnd
  0
BLOCK
  5
BE5
330
BDF
100
AcDbEntity
  8
0
100
AcDbBlockBegin
  2
*D124
 70
     1
 10
0.0
 20
0.0
 30
0.0
  3
*D124
  1

  0
LINE
  5
CAB
330
BDF
100
AcDbEntity
  8
DIM
 62
     0
370
    -2
100
AcDbLine
 10
39.07762126130549
 20
-100.0165561600737
 30
0.0
 11
39.07762126130549
 21
-102.5213172559625
 31
0.0
  0
MTEXT
  5
CAC
330
BDF
100
AcDbEntity
  8
DIM
 62
     0
100
AcDbMText
 10
39.07762126130551
 20
-104.2779839226291
 30
0.0
 40
1.0
 41
0.0
 71
     5
 72
     1
  1
\A1;0.000
 11
0.0000000000000001
 21
1.0
 31
0.0
 73
     1
 44
1.0
1001
ACAD
1000
MTEXTBEGIN
1070
    73
1070
     1
1070
    44
1040
1.0
1070
    74
1070
     0
1000
MTEXTEND
  0
POINT
  5
CAD
330
BDF
100
AcDbEntity
  8
Defpoints
 62
     0
100
AcDbPoint
 10
39.07762126130549
 20
-99.81655616007369
 30
0.0
  0
POINT
  5
CAE
330
BDF
100
AcDbEntity
  8
Defpoints
 62
     0
100
AcDbPoint
 10
39.07762126130549
 20
-102.5213172559625
 30
0.0
  0
POINT
  5
CAF
330
BDF
100
AcDbEntity
  8
Defpoints
 62
     0
100
AcDbPoint
 10
39.07762126130549
 20
-99.81655616007369
 30
0.0
  0
ENDBLK
  5
BE6
330
BDF
100
AcDbEntity
  8
0
100
AcDbBlockEnd
  0
BLOCK
  5
BEF
330
BE7
100
AcDbEntity
  8
0
100
AcDbBlockBegin
  2
*D125
 70
     1
 10
0.0
 20
0.0
 30
0.0
  3
*D125
  1

  0
LINE
  5
CA4
330
BE7
100
AcDbEntity
  8
0
 62
     0
370
    -2
100
AcDbLine
 10
51.1686212613055
 20
-68.70655616007349
 30
0.0
 11
51.1686212613055
 21
-74.94673002036397
 31
0.0
  0
LINE
  5
CA5
330
BE7
100
AcDbEntity
  8
0
 62
     0
370
    -2
100
AcDbLine
 10
51.1686212613055
 20
-74.94673002036397
 30
0.0
 11
48.04518950599188
 21
-76.94673002036397
 31
0.0
  0
LINE
  5
CA6
330
BE7
100
AcDbEntity
  8
0
 62
     0
370
    -2
100
AcDbLine
 10
48.04518950599188
 20
-76.94673002036397
 30
0.0
 11
48.04518950599188
 21
-78.94673002036397
 31
0.0
  0
MTEXT
  5
CA7
330
BE7
100
AcDbEntity
  8
0
 62
     0
100
AcDbMText
 10
48.04518950599189
 20
-81.12006335369729
 30
0.0
 40
1.0
 41
0.0
 71
     5
 72
     1
  1
\A1;12.091
 11
0.0000000000000001
 21
1.0
 31
0.0
 73
     1
 44
1.0
1001
ACAD
1000
MTEXTBEGIN
1070
    73
1070
     1
1070
    44
1040
1.0
1070
    74
1070
     0
1000
MTEXTEND
  0
POINT
  5
CA8
330
BE7
100
AcDbEntity
  8
Defpoints
 62
     0
100
AcDbPoint
 10
51.1686212613055
 20
-68.50655616007348
 30
0.0
  0
POINT
  5
CA9
330
BE7
100
AcDbEntity
  8
Defpoints
 62
     0
100
AcDbPoint
 10
48.04518950599188
 20
-78.94673002036397
 30
0.0
  0
POINT
  5
CAA
330
BE7
100
AcDbEntity
  8
Defpoints
 62
     0
100
AcDbPoint
 10
39.07759662010543
 20
-95.75660190983088
 30
0.0
  0
ENDBLK
  5
BF0
330
BE7
100
AcDbEntity
  8
0
100
AcDbBlockEnd
  0
BLOCK
  5
BF9
330
BF1
100
AcDbEntity
  8
0
100
AcDbBlockBegin
  2
*D126
 70
     1
 10
0.0
 20
0.0
 30
0.0
  3
*D126
  1

  0
LINE
  5
C9D
330
BF1
100
AcDbEntity
  8
0
 62
     0
370
    -2
100
AcDbLine
 10
53.6686212613055
 20
-70.95655616007348
 30
0.0
 11
53.6686212613055
 21
-74.94673002036397
 31
0.0
  0
LINE
  5
C9E
330
BF1
100
AcDbEntity
  8
0
 62
     0
370
    -2
100
AcDbLine
 10
53.6686212613055
 20
-74.94673002036397
 30
0.0
 11
51.34381563835339
 21
-76.94673002036397
 31
0.0
  0
LINE
  5
C9F
330
BF1
100
AcDbEntity
  8
0
 62
     0
370
    -2
100
AcDbLine
 10
51.34381563835339
 20
-76.94673002036397
 30
0.0
 11
51.34381563835339
 21
-78.94673002036397
 31
0.0
  0
MTEXT
  5
CA0
330
BF1
100
AcDbEntity
  8
0
 62
     0
100
AcDbMText
 10
51.3438156383534
 20
-81.20339668703062
 30
0.0
 40
1.0
 41
0.0
 71
     5
 72
     1
  1
\A1;14.591
 11
0.0000000000000001
 21
1.0
 31
0.0
 73
     1
 44
1.0
1001
ACAD
1000
MTEXTBEGIN
1070
    73
1070
     1
1070
    44
1040
1.0
1070
    74
1070
     0
1000
MTEXTEND
  0
POINT
  5
CA1
330
BF1
100
AcDbEntity
  8
Defpoints
 62
     0
100
AcDbPoint
 10
53.6686212613055
 20
-70.75655616007349
 30
0.0
  0
POINT
  5
CA2
330
BF1
100
AcDbEntity
  8
Defpoints
 62
     0
100
AcDbPoint
 10
51.34381563835339
 20
-78.94673002036397
 30
0.0
  0
POINT
  5
CA3
330
BF1
100
AcDbEntity
  8
Defpoints
 62
     0
100
AcDbPoint
 10
39.07762126130549
 20
-95.75655616007349
 30
0.0
  0
ENDBLK
  5
BFA
330
BF1
100
AcDbEntity
  8
0
100
AcDbBlockEnd
  0
BLOCK
  5
C03
330
BFB
100
AcDbEntity
  8
0
100
AcDbBlockBegin
  2
*D127
 70
     1
 10
0.0
 20
0.0
 30
0.0
  3
*D127
  1

  0
LINE
  5
C96
330
BFB
100
AcDbEntity
  8
DIM
 62
     0
370
    -2
100
AcDbLine
 10
40.10862126130544
 20
-94.88155616007349
 30
0.0
 11
40.10862126130544
 21
-98.52131725596251
 31
0.0
  0
LINE
  5
C97
330
BFB
100
AcDbEntity
  8
DIM
 62
     0
370
    -2
100
AcDbLine
 10
40.10862126130544
 20
-98.52131725596251
 30
0.0
 11
41.10862126130544
 21
-100.5213172559625
 31
0.0
  0
LINE
  5
C98
330
BFB
100
AcDbEntity
  8
DIM
 62
     0
370
    -2
100
AcDbLine
 10
41.10862126130544
 20
-100.5213172559625
 30
0.0
 11
41.10862126130544
 21
-102.5213172559625
 31
0.0
  0
MTEXT
  5
C99
330
BFB
100
AcDbEntity
  8
DIM
 62
     0
100
AcDbMText
 10
41.10862126130546
 20
-104.4796505892958
 30
0.0
 40
1.0
 41
0.0
 71
     5
 72
     1
  1
\A1;1.031
 11
0.0000000000000001
 21
1.0
 31
0.0
 73
     1
 44
1.0
1001
ACAD
1000
MTEXTBEGIN
1070
    73
1070
     1
1070
    44
1040
1.0
1070
    74
1070
     0
1000
MTEXTEND
  0
POINT
  5
C9A
330
BFB
100
AcDbEntity
  8
Defpoints
 62
     0
100
AcDbPoint
 10
40.10862126130544
 20
-94.50655616007349
 30
0.0
  0
POINT
  5
C9B
330
BFB
100
AcDbEntity
  8
Defpoints
 62
     0
100
AcDbPoint
 10
41.10862126130544
 20
-102.5213172559625
 30
0.0
  0
POINT
  5
C9C
330
BFB
100
AcDbEntity
  8
Defpoints
 62
     0
100
AcDbPoint
 10
39.07759662010543
 20
-95.75660190983088
 30
0.0
  0
ENDBLK
  5
C04
330
BFB
100
AcDbEntity
  8
0
100
AcDbBlockEnd
  0
BLOCK
  5
C0D
330
C05
100
AcDbEntity
  8
0
100
AcDbBlockBegin
  2
*D128
 70
     1
 10
0.0
 20
0.0
 30
0.0
  3
*D128
  1

  0
LINE
  5
C8F
330
C05
100
AcDbEntity
  8
DIM
 62
     0
370
    -2
100
AcDbLine
 10
53.97862126130568
 20
-94.88155616007349
 30
0.0
 11
53.97862126130568
 21
-98.52131725596251
 31
0.0
  0
LINE
  5
C90
330
C05
100
AcDbEntity
  8
DIM
 62
     0
370
    -2
100
AcDbLine
 10
53.97862126130568
 20
-98.52131725596251
 30
0.0
 11
52.97862126130567
 21
-100.5213172559625
 31
0.0
  0
LINE
  5
C91
330
C05
100
AcDbEntity
  8
DIM
 62
     0
370
    -2
100
AcDbLine
 10
52.97862126130567
 20
-100.5213172559625
 30
0.0
 11
52.97862126130567
 21
-102.5213172559625
 31
0.0
  0
MTEXT
  5
C92
330
C05
100
AcDbEntity
  8
DIM
 62
     0
100
AcDbMText
 10
52.97862126130569
 20
-104.9796505892958
 30
0.0
 40
1.0
 41
0.0
 71
     5
 72
     1
  1
\A1;14.901
 11
0.0000000000000001
 21
1.0
 31
0.0
 73
     1
 44
1.0
1001
ACAD
1000
MTEXTBEGIN
1070
    73
1070
     1
1070
    44
1040
1.0
1070
    74
1070
     0
1000
MTEXTEND
  0
POINT
  5
C93
330
C05
100
AcDbEntity
  8
Defpoints
 62
     0
100
AcDbPoint
 10
53.97862126130568
 20
-94.50655616007349
 30
0.0
  0
POINT
  5
C94
330
C05
100
AcDbEntity
  8
Defpoints
 62
     0
100
AcDbPoint
 10
52.97862126130567
 20
-102.5213172559625
 30
0.0
  0
POINT
  5
C95
330
C05
100
AcDbEntity
  8
Defpoints
 62
     0
100
AcDbPoint
 10
39.07759662010543
 20
-95.75660190983088
 30
0.0
  0
ENDBLK
  5
C0E
330
C05
100
AcDbEntity
  8
0
100
AcDbBlockEnd
  0
BLOCK
  5
C15
330
C0F
100
AcDbEntity
  8
0
100
AcDbBlockBegin
  2
*D129
 70
     1
 10
0.0
 20
0.0
 30
0.0
  3
*D129
  1

  0
LINE
  5
CFC
330
C0F
100
AcDbEntity
  8
DIM
 62
     0
370
    -2
100
AcDbLine
 10
55.0096212613052
 20
-100.1915561600738
 30
0.0
 11
55.0096212613053
 21
-101.3564367080181
 31
0.0
  0
MTEXT
  5
CFD
330
C0F
100
AcDbEntity
  8
DIM
 62
     0
100
AcDbMText
 10
55.00962126130531
 20
-104.0647700413514
 30
0.0
 40
1.0
 41
0.0
 71
     5
 72
     1
  1
\A1;15.932
 11
0.0000000000000001
 21
1.0
 31
0.0
 73
     1
 44
1.0
1001
ACAD
1000
MTEXTBEGIN
1070
    73
1070
     1
1070
    44
1040
1.0
1070
    74
1070
     0
1000
MTEXTEND
  0
POINT
  5
CFE
330
C0F
100
AcDbEntity
  8
Defpoints
 62
     0
100
AcDbPoint
 10
55.0096212613052
 20
-99.8165561600738
 30
0.0
  0
POINT
  5
CFF
330
C0F
100
AcDbEntity
  8
Defpoints
 62
     0
100
AcDbPoint
 10
55.0096212613053
 20
-101.3564367080181
 30
0.0
  0
POINT
  5
D00
330
C0F
100
AcDbEntity
  8
Defpoints
 62
     0
100
AcDbPoint
 10
39.07759662010543
 20
-95.75660190983088
 30
0.0
  0
ENDBLK
  5
C16
330
C0F
100
AcDbEntity
  8
0
100
AcDbBlockEnd
  0
ENDSEC
  0
SECTION
  2
ENTITIES
  0
TEXT
  5
4A5
330
1F
100
AcDbEntity
  8
TEXT
100
AcDbText
 10
70.31807036488685
 20
-108.3970126889423
 30
0.0
 40
0.375
  1
480-400VAC
 72
     1
 11
72.09932036488685
 21
-108.2095126889423
 31
0.0
100
AcDbText
 73
     2
  0
TEXT
  5
4A6
330
1F
100
AcDbEntity
  8
TEXT
100
AcDbText
 10
67.59799195266653
 20
-107.7179186872685
 30
0.0
 40
0.5
  1
IQ8000V16/ 5-6V16HA
 72
     1
 11
72.05632528599986
 21
-107.4679186872685
 31
0.0
100
AcDbText
 73
     2
  0
LINE
  5
4A7
330
1F
100
AcDbEntity
  8
THERMOSTATCVR
100
AcDbLine
 10
54.45001711286269
 20
-107.7644709677379
 30
0.0
 11
54.45001711286269
 21
-110.0818356057623
 31
0.0
  0
LINE
  5
4A8
330
1F
100
AcDbEntity
  8
THERMOSTATCVR
100
AcDbLine
 10
61.99516747634906
 20
-107.7644709677379
 30
0.0
 11
54.45001711286269
 21
-107.7644709677379
 31
0.0
  0
LINE
  5
4A9
330
1F
100
AcDbEntity
  8
BORDER
100
AcDbLine
 10
61.99516747634906
 20
-110.0818356057623
 30
0.0
 11
61.99516747634906
 21
-108.0193356057622
 31
0.0
  0
LINE
  5
4AA
330
1F
100
AcDbEntity
  8
BORDER
100
AcDbLine
 10
61.99516747634906
 20
-110.0818356057623
 30
0.0
 11
54.3787758285019
 21
-110.0818356057623
 31
0.0
  0
TEXT
  5
4AB
330
1F
100
AcDbEntity
  8
TEXT
100
AcDbText
 10
54.74947165242546
 20
-108.5818356057623
 30
0.0
 40
0.375
  1
PROPRIETARY DRAWING
 72
     1
 11
58.18697165242546
 21
-108.3943356057623
 31
0.0
100
AcDbText
 73
     2
  0
TEXT
  5
4AC
330
1F
100
AcDbEntity
  8
TEXT
100
AcDbText
 10
55.03072165242546
 20
-108.9568356057623
 30
0.0
 40
0.1875
  1
THIS DRAWING IS THE PROPERTY OF ICE
 72
     1
 11
58.18697165242546
 21
-108.8630856057623
 31
0.0
100
AcDbText
 73
     2
  0
TEXT
  5
4AD
330
1F
100
AcDbEntity
  8
TEXT
100
AcDbText
 10
54.85884665242546
 20
-109.2380856057624
 30
0.0
 40
0.1875
  1
QUBE, INC. AND IS NOT TO BE DUPLICATED
 72
     1
 11
58.18697165242546
 21
-109.1443356057624
 31
0.0
100
AcDbText
 73
     2
  0
TEXT
  5
4AE
330
1F
100
AcDbEntity
  8
TEXT
100
AcDbText
 10
54.99947165242546
 20
-109.5193356057621
 30
0.0
 40
0.1875
  1
OR ALTERED WITHOUT AUTHORIZATION OF
 72
     1
 11
58.18697165242546
 21
-109.4255856057621
 31
0.0
100
AcDbText
 73
     2
  0
TEXT
  5
4AF
330
1F
100
AcDbEntity
  8
TEXT
100
AcDbText
 10
57.07759665242546
 20
-109.8005856057623
 30
0.0
 40
0.1875
  1
ICE QUBE, INC.
 72
     1
 11
58.18697165242546
 21
-109.7068356057623
 31
0.0
100
AcDbText
 73
     2
  0
LWPOLYLINE
  5
4B0
330
1F
100
AcDbEntity
  8
BORDER
100
AcDbPolyline
 90
        4
 70
     1
 43
0.0
 10
19.95553931088737
 20
-35.08183560576225
 10
76.95347325342471
 20
-35.08183560576225
 10
76.95347325342471
 20
-110.0818356057623
 10
19.95553931088737
 20
-110.0818356057623
  0
TEXT
  5
4B1
330
1F
100
AcDbEntity
  8
TEXT
100
AcDbText
 10
26.29178931088777
 20
-109.9318356057624
 30
0.0
 40
0.3
  1
REVISIONS
 72
     1
 11
27.54178931088777
 21
-109.7818356057624
 31
0.0
100
AcDbText
 73
     2
  0
LINE
  5
4B2
330
1F
100
AcDbEntity
  8
DIMENSION
100
AcDbLine
 10
61.99516747634906
 20
-107.7644709677379
 30
0.0
 11
61.99516747634906
 21
-110.0818356057623
 31
0.0
  0
ARC
  5
4B3
330
1F
100
AcDbEntity
  8
TEXT
100
AcDbCircle
 10
68.78447157337331
 20
-106.9732281532421
 30
0.0
 40
0.0231324513824082
100
AcDbArc
 50
177.2189023070876
 51
10.53261226457849
  0
ARC
  5
4B4
330
1F
100
AcDbEntity
  8
TEXT
100
AcDbCircle
 10
68.74492908212663
 20
-106.7393331429685
 30
0.0
 40
0.0285472227785874
100
AcDbArc
 50
218.2556843178653
 51
317.6564247238851
  0
ARC
  5
4B5
330
1F
100
AcDbEntity
  8
TEXT
100
AcDbCircle
 10
68.78144147642993
 20
-106.7698440704685
 30
0.0
 40
0.0191007083808739
100
AcDbArc
 50
48.87596376793528
 51
143.7953529790059
  0
ARC
  5
4B6
330
1F
100
AcDbEntity
  8
TEXT
100
AcDbCircle
 10
68.80818183036605
 20
-106.7519386691242
 30
0.0
 40
0.0146077050800437
100
AcDbArc
 50
193.9319034609791
 51
333.0378283509304
  0
ARC
  5
4B7
330
1F
100
AcDbEntity
  8
TEXT
100
AcDbCircle
 10
68.85535278049502
 20
-106.781235977269
 30
0.0
 40
0.0339385462160546
100
AcDbArc
 50
222.9877626572334
 51
344.3358851615585
  0
ARC
  5
4B8
330
1F
100
AcDbEntity
  8
TEXT
100
AcDbCircle
 10
68.82022216543948
 20
-106.8110543692408
 30
0.0
 40
0.0122790775063351
100
AcDbArc
 50
32.94435831946183
 51
185.0814072168599
  0
LINE
  5
4B9
330
1F
100
AcDbEntity
  8
TEXT
100
AcDbLine
 10
68.80721426657725
 20
-106.9689996531791
 30
0.0
 11
68.80799134643146
 21
-106.8121419402938
 31
0.0
  0
LINE
  5
4BA
330
1F
100
AcDbEntity
  8
TEXT
100
AcDbLine
 10
68.75592677714445
 20
-106.8175776008553
 30
0.0
 11
68.76136636741772
 21
-106.9721057608367
 31
0.0
  0
ARC
  5
4BB
330
1F
100
AcDbEntity
  8
TEXT
100
AcDbCircle
 10
68.74226185246602
 20
-106.8087544174585
 30
0.0
 40
0.0162658762973286
100
AcDbArc
 50
327.1504341221702
 51
80.13862259361685
  0
LINE
  5
4BC
330
1F
100
AcDbEntity
  8
TEXT
100
AcDbLine
 10
68.70836730570089
 20
-106.7871258564917
 30
0.0
 11
68.74504762789246
 21
-106.7927288695117
 31
0.0
  0
ARC
  5
4BD
330
1F
100
AcDbEntity
  8
TEXT
100
AcDbCircle
 10
68.70387781709453
 20
-106.7949088790857
 30
0.0
 40
0.0089850402696247
100
AcDbArc
 50
60.02231951668139
 51
227.1694577924194
  0
LINE
  5
4BE
330
1F
100
AcDbEntity
  8
TEXT
100
AcDbLine
 10
68.70101979990304
 20
-106.8809150591361
 30
0.0
 11
68.69776949622107
 21
-106.8014982162873
 31
0.0
  0
ARC
  5
4BF
330
1F
100
AcDbEntity
  8
TEXT
100
AcDbCircle
 10
68.68125195062964
 20
-106.8894611063839
 30
0.0
 40
0.0215360810840735
100
AcDbArc
 50
165.6416373020916
 51
23.37981978602075
  0
LINE
  5
4C0
330
1F
100
AcDbEntity
  8
TEXT
100
AcDbLine
 10
68.64969616503789
 20
-106.7954372436453
 30
0.0
 11
68.66038857853647
 21
-106.8841204609773
 31
0.0
  0
ARC
  5
4C1
330
1F
100
AcDbEntity
  8
TEXT
100
AcDbCircle
 10
68.62744611768474
 20
-106.7983555124835
 30
0.0
 40
0.0224406082855181
100
AcDbArc
 50
7.472141028409409
 51
164.1640293291679
  0
LINE
  5
4C2
330
1F
100
AcDbEntity
  8
TEXT
100
AcDbLine
 10
68.60692644845345
 20
-106.8082589066891
 30
0.0
 11
68.60585720084478
 21
-106.7922318232445
 31
0.0
  0
ARC
  5
4C3
330
1F
100
AcDbEntity
  8
TEXT
100
AcDbCircle
 10
68.59105864840667
 20
-106.8058954391245
 30
0.0
 40
0.0160428506586113
100
AcDbArc
 50
208.7068196476633
 51
351.5282258973499
  0
LINE
  5
4C4
330
1F
100
AcDbEntity
  8
TEXT
100
AcDbLine
 10
68.56736447469542
 20
-106.791163343591
 30
0.0
 11
68.57698764058524
 21
-106.8136012678374
 31
0.0
  0
LINE
  5
4C5
330
1F
100
AcDbEntity
  8
TEXT
100
AcDbLine
 10
68.57591839297686
 20
-106.8777096387351
 30
0.0
 11
68.56736447469542
 21
-106.791163343591
 31
0.0
  0
ARC
  5
4C6
330
1F
100
AcDbEntity
  8
TEXT
100
AcDbCircle
 10
68.55448940378727
 20
-106.8787235132365
 30
0.0
 40
0.0214529606157013
100
AcDbArc
 50
185.8633287467241
 51
2.70882780951028
  0
LINE
  5
4C7
330
1F
100
AcDbEntity
  8
TEXT
100
AcDbLine
 10
68.52887171725186
 20
-106.7762047397999
 30
0.0
 11
68.53314867639243
 21
-106.8809150591361
 31
0.0
  0
ARC
  5
4C8
330
1F
100
AcDbEntity
  8
TEXT
100
AcDbCircle
 10
68.51175607131259
 20
-106.7746848885193
 30
0.0
 40
0.0171829940300718
100
AcDbArc
 50
354.9255052590734
 51
174.3705062402905
  0
LINE
  5
4C9
330
1F
100
AcDbEntity
  8
TEXT
100
AcDbLine
 10
68.49465595024341
 20
-106.8103958659961
 30
0.0
 11
68.49465595024341
 21
-106.772999319399
 31
0.0
  0
ARC
  5
4CA
330
1F
100
AcDbEntity
  8
TEXT
100
AcDbCircle
 10
68.48213309625466
 20
-106.8151636641093
 30
0.0
 40
0.0133997675676505
100
AcDbArc
 50
168.6772178130462
 51
20.8432182574363
  0
LINE
  5
4CB
330
1F
100
AcDbEntity
  8
TEXT
100
AcDbLine
 10
68.45830168801723
 20
-106.7569722173947
 30
0.0
 11
68.46899413281083
 21
-106.8125328067436
 31
0.0
  0
LINE
  5
4CC
330
1F
100
AcDbEntity
  8
TEXT
100
AcDbLine
 10
68.40377031032549
 20
-106.7900948824972
 30
0.0
 11
68.40163181510766
 21
-106.7505613951525
 31
0.0
  0
ARC
  5
4CD
330
1F
100
AcDbEntity
  8
TEXT
100
AcDbCircle
 10
68.3788350041427
 20
-106.7997455983528
 30
0.0
 40
0.0267377226208751
100
AcDbArc
 50
170.7272794785987
 51
21.15794103948668
  0
ARC
  5
4CE
330
1F
100
AcDbEntity
  8
TEXT
100
AcDbCircle
 10
68.27134942889259
 20
-106.8268405913677
 30
0.0
 40
0.0220548580163535
100
AcDbArc
 50
167.7181143692787
 51
23.98551077365533
  0
ARC
  5
4CF
330
1F
100
AcDbEntity
  8
TEXT
100
AcDbCircle
 10
67.97767294464008
 20
-106.7514021934381
 30
0.0
 40
0.0254399213638606
100
AcDbArc
 50
225.9317407160006
 51
327.3216812937221
  0
ARC
  5
4D0
330
1F
100
AcDbEntity
  8
TEXT
100
AcDbCircle
 10
69.59318475812428
 20
-106.4760635309343
 30
0.0
 40
0.1665620066274168
100
AcDbArc
 50
312.208697425786
 51
3.264333629957773
  0
ARC
  5
4D1
330
1F
100
AcDbEntity
  8
TEXT
100
AcDbCircle
 10
69.56744199199021
 20
-106.4272732521043
 30
0.0
 40
0.2204227936246722
100
AcDbArc
 50
264.6664639047648
 51
308.6423664458129
  0
ARC
  5
4D2
330
1F
100
AcDbEntity
  8
TEXT
100
AcDbCircle
 10
69.54805420906047
 20
-106.4597300178224
 30
0.0
 40
0.1870149414703838
100
AcDbArc
 50
231.6935697703414
 51
269.6626044169122
  0
ARC
  5
4D3
330
1F
100
AcDbEntity
  8
TEXT
100
AcDbCircle
 10
69.58253529615925
 20
-106.4948065788311
 30
0.0
 40
0.1067527339653108
100
AcDbArc
 50
343.5952529167624
 51
35.13836089167873
  0
ARC
  5
4D4
330
1F
100
AcDbEntity
  8
TEXT
100
AcDbCircle
 10
69.58932245327368
 20
-106.4652142603073
 30
0.0
 40
0.0865822445917264
100
AcDbArc
 50
21.58325850317263
 51
95.38396011116695
  0
ARC
  5
4D5
330
1F
100
AcDbEntity
  8
TEXT
100
AcDbCircle
 10
69.56684581241687
 20
-106.451973014364
 30
0.0
 40
0.0743573649614326
100
AcDbArc
 50
78.87075864991579
 51
146.7670066549802
  0
ARC
  5
4D6
330
1F
100
AcDbEntity
  8
TEXT
100
AcDbCircle
 10
69.62236932822472
 20
-106.4662676346835
 30
0.0
 40
0.1371075361286845
100
AcDbArc
 50
359.8698564192901
 51
62.37231490188371
  0
ARC
  5
4D7
330
1F
100
AcDbEntity
  8
TEXT
100
AcDbCircle
 10
69.62222478771019
 20
-106.5307045457051
 30
0.0
 40
0.1965295738601858
100
AcDbArc
 50
71.07988584761975
 51
127.1124618564865
  0
LINE
  5
4D8
330
1F
100
AcDbEntity
  8
TEXT
100
AcDbLine
 10
69.50464967892265
 20
-106.4112218339837
 30
0.0
 11
69.50565690034371
 21
-106.5843390158222
 31
0.0
  0
LINE
  5
4D9
330
1F
100
AcDbEntity
  8
TEXT
100
AcDbLine
 10
69.38277598087096
 20
-106.238104652145
 30
0.0
 11
69.42507924925647
 21
-106.2411241418673
 31
0.0
  0
LINE
  5
4DA
330
1F
100
AcDbEntity
  8
TEXT
100
AcDbLine
 10
69.38076153802889
 20
-106.2159617708211
 30
0.0
 11
69.38277598087096
 21
-106.238104652145
 31
0.0
  0
ARC
  5
4DB
330
1F
100
AcDbEntity
  8
TEXT
100
AcDbCircle
 10
69.35260642642707
 20
-105.760890227879
 30
0.0
 40
0.4559416843250936
100
AcDbArc
 50
273.5403564160214
 51
289.075801678542
  0
LINE
  5
4DC
330
1F
100
AcDbEntity
  8
TEXT
100
AcDbLine
 10
69.50161673132299
 20
-106.1917947979872
 30
0.0
 11
69.50364248879657
 21
-106.3739815040488
 31
0.0
  0
LINE
  5
4DD
330
1F
100
AcDbEntity
  8
TEXT
100
AcDbLine
 10
69.42507924925647
 20
-106.2411241418673
 30
0.0
 11
69.43212979920332
 21
-106.6064819157058
 31
0.0
  0
ARC
  5
4DE
330
1F
100
AcDbEntity
  8
TEXT
100
AcDbCircle
 10
69.35705461940902
 20
-106.8551011409442
 30
0.0
 40
0.2367896621663238
100
AcDbArc
 50
88.18956599987521
 51
113.1652090520224
  0
ARC
  5
4DF
330
1F
100
AcDbEntity
  8
TEXT
100
AcDbCircle
 10
69.25234709057142
 20
-106.6338840218115
 30
0.0
 40
0.0120820834620642
100
AcDbArc
 50
201.700602772434
 51
343.0678677067636
  0
LINE
  5
4E0
330
1F
100
AcDbEntity
  8
TEXT
100
AcDbLine
 10
69.2401719228587
 20
-106.6023025214425
 30
0.0
 11
69.24112128029297
 21
-106.6383514510925
 31
0.0
  0
ARC
  5
4E1
330
1F
100
AcDbEntity
  8
TEXT
100
AcDbCircle
 10
69.12565571545636
 20
-106.4797881331418
 30
0.0
 40
0.1677013330253736
100
AcDbArc
 50
260.0995263030862
 51
313.067387883247
  0
ARC
  5
4E2
330
1F
100
AcDbEntity
  8
TEXT
100
AcDbCircle
 10
69.09678139068851
 20
-106.5719266900641
 30
0.0
 40
0.0730653629368009
100
AcDbArc
 50
180.7587023263156
 51
270.031539090741
  0
ARC
  5
4E3
330
1F
100
AcDbEntity
  8
TEXT
100
AcDbCircle
 10
69.22565537399304
 20
-106.3840988414355
 30
0.0
 40
0.0147177897158776
100
AcDbArc
 50
337.1943218370272
 51
115.6412778855144
  0
LINE
  5
4E4
330
1F
100
AcDbEntity
  8
TEXT
100
AcDbLine
 10
69.2401719228587
 20
-106.5709968656601
 30
0.0
 11
69.23922259671903
 21
-106.3898035589241
 31
0.0
  0
LINE
  5
4E5
330
1F
100
AcDbEntity
  8
TEXT
100
AcDbLine
 10
69.1851102243901
 20
-106.3689331279225
 30
0.0
 11
69.21928646613365
 21
-106.3708304448934
 31
0.0
  0
LINE
  5
4E6
330
1F
100
AcDbEntity
  8
TEXT
100
AcDbLine
 10
69.18605955052989
 20
-106.3509086538175
 30
0.0
 11
69.1851102243901
 21
-106.3689331279225
 31
0.0
  0
LINE
  5
4E7
330
1F
100
AcDbEntity
  8
TEXT
100
AcDbLine
 10
68.99334355894767
 20
-106.3670358109515
 30
0.0
 11
68.9734074283622
 21
-106.3641898540548
 31
0.0
  0
LINE
  5
4E8
330
1F
100
AcDbEntity
  8
TEXT
100
AcDbLine
 10
68.97245810222249
 20
-106.3509086538175
 30
0.0
 11
68.9734074283622
 21
-106.3641898540548
 31
0.0
  0
ARC
  5
4E9
330
1F
100
AcDbEntity
  8
TEXT
100
AcDbCircle
 10
68.99961695209445
 20
-106.3883441949895
 30
0.0
 40
0.0222126696255043
100
AcDbArc
 50
358.6825606331185
 51
106.4049357729542
  0
LINE
  5
4EA
330
1F
100
AcDbEntity
  8
TEXT
100
AcDbLine
 10
69.30757504891127
 20
-106.3461653799498
 30
0.0
 11
69.30947373248526
 21
-106.5615103179246
 31
0.0
  0
LINE
  5
4EB
330
1F
100
AcDbEntity
  8
TEXT
100
AcDbLine
 10
69.09397360060407
 20
-106.3461653799498
 30
0.0
 11
69.09587228417807
 21
-106.5548697270858
 31
0.0
  0
LINE
  5
4EC
330
1F
100
AcDbEntity
  8
TEXT
100
AcDbLine
 10
69.0218237499689
 20
-106.3888549004386
 30
0.0
 11
69.02372243354297
 21
-106.572894182631
 31
0.0
  0
LINE
  5
4ED
330
1F
100
AcDbEntity
  8
TEXT
100
AcDbLine
 10
69.18605955052989
 20
-106.3509086538175
 30
0.0
 11
69.30757504891127
 21
-106.3461653799498
 31
0.0
  0
LINE
  5
4EE
330
1F
100
AcDbEntity
  8
TEXT
100
AcDbLine
 10
68.97245810222249
 20
-106.3509086538175
 30
0.0
 11
69.09397360060407
 21
-106.3461653799498
 31
0.0
  0
LINE
  5
4EF
330
1F
100
AcDbEntity
  8
TEXT
100
AcDbLine
 10
68.20582387126181
 20
-106.0562754172025
 30
0.0
 11
68.19431084691604
 21
-106.0821610396575
 31
0.0
  0
ARC
  5
4F0
330
1F
100
AcDbEntity
  8
TEXT
100
AcDbCircle
 10
68.22237383202285
 20
-106.0554009346923
 30
0.0
 40
0.0165730480253287
100
AcDbArc
 50
183.0246359049376
 51
356.9753640950624
  0
LINE
  5
4F1
330
1F
100
AcDbEntity
  8
TEXT
100
AcDbLine
 10
68.24468027366184
 20
-106.0116946301919
 30
0.0
 11
68.23892379278365
 21
-106.0562754172025
 31
0.0
  0
ARC
  5
4F2
330
1F
100
AcDbEntity
  8
TEXT
100
AcDbCircle
 10
68.25716606425709
 20
-106.0064193179674
 30
0.0
 40
0.0135544784431422
100
AcDbArc
 50
8.122642540875256
 51
202.904313618346
  0
LINE
  5
4F3
330
1F
100
AcDbEntity
  8
TEXT
100
AcDbLine
 10
68.25907156974065
 20
-106.0907895742893
 30
0.0
 11
68.27058456279139
 21
-106.0045041722925
 31
0.0
  0
ARC
  5
4F4
330
1F
100
AcDbEntity
  8
TEXT
100
AcDbCircle
 10
68.28496511203154
 20
-106.0896839310766
 30
0.0
 40
0.0259171367879809
100
AcDbArc
 50
182.4450201076249
 51
0.7349407504797699
  0
LINE
  5
4F5
330
1F
100
AcDbEntity
  8
TEXT
100
AcDbLine
 10
68.31088011670551
 20
-106.0203231648238
 30
0.0
 11
68.31088011670551
 21
-106.0893514975573
 31
0.0
  0
ARC
  5
4F6
330
1F
100
AcDbEntity
  8
TEXT
100
AcDbCircle
 10
68.33036158385957
 20
-106.020623641992
 30
0.0
 40
0.019483784257779
100
AcDbArc
 50
179.1163546128549
 51
32.14670843865839
  0
LINE
  5
4F7
330
1F
100
AcDbEntity
  8
TEXT
100
AcDbLine
 10
68.34685827866643
 20
-105.9915613703448
 30
0.0
 11
68.34685827866643
 21
-106.0102565349001
 31
0.0
  0
ARC
  5
4F8
330
1F
100
AcDbEntity
  8
TEXT
100
AcDbCircle
 10
68.36708332039508
 20
-105.996580837231
 30
0.0
 40
0.0208386026582117
100
AcDbArc
 50
26.609411299397
 51
166.0619000058104
  0
LINE
  5
4F9
330
1F
100
AcDbEntity
  8
TEXT
100
AcDbLine
 10
68.38859295280006
 20
-106.0289516994556
 30
0.0
 11
68.38571471236102
 21
-105.9872471030288
 31
0.0
  0
ARC
  5
4FA
330
1F
100
AcDbEntity
  8
TEXT
100
AcDbCircle
 10
68.40912997646718
 20
-106.0343041619625
 30
0.0
 40
0.021223058120899
100
AcDbArc
 50
165.3922446503685
 51
2.803879044206374
  0
LINE
  5
4FB
330
1F
100
AcDbEntity
  8
TEXT
100
AcDbLine
 10
68.43176674715285
 20
-105.9786185498374
 30
0.0
 11
68.43032762693359
 21
-106.0332659853312
 31
0.0
  0
ARC
  5
4FC
330
1F
100
AcDbEntity
  8
TEXT
100
AcDbCircle
 10
68.47804540474671
 20
-106.2037052158981
 30
0.0
 40
0.2297949550948067
100
AcDbArc
 50
60.82353397560631
 51
101.6183182656855
  0
ARC
  5
4FD
330
1F
100
AcDbEntity
  8
TEXT
100
AcDbCircle
 10
68.5466189976658
 20
-106.035270133112
 30
0.0
 40
0.0540846530434769
100
AcDbArc
 50
335.482723053163
 51
36.54383594003283
  0
ARC
  5
4FE
330
1F
100
AcDbEntity
  8
TEXT
100
AcDbCircle
 10
68.6080173766355
 20
-106.0753848011589
 30
0.0
 40
0.0214680118608069
100
AcDbArc
 50
124.599119475162
 51
24.91162951380384
  0
ARC
  5
4FF
330
1F
100
AcDbEntity
  8
TEXT
100
AcDbCircle
 10
68.6352817114136
 20
-106.0543390891245
 30
0.0
 40
0.0143113016618727
100
AcDbArc
 50
15.46471151433632
 51
237.0036058083551
  0
ARC
  5
500
330
1F
100
AcDbEntity
  8
TEXT
100
AcDbCircle
 10
68.59727328545663
 20
-106.084582804988
 30
0.0
 40
0.0619957321343656
100
AcDbArc
 50
331.883766695981
 51
33.32508059324487
  0
ARC
  5
501
330
1F
100
AcDbEntity
  8
TEXT
100
AcDbCircle
 10
68.6656248155459
 20
-106.1292404612047
 30
0.0
 40
0.0206240992388143
100
AcDbArc
 50
131.5213803610231
 51
48.47861963898633
  0
ARC
  5
502
330
1F
100
AcDbEntity
  8
TEXT
100
AcDbCircle
 10
68.68924634814796
 20
-106.111491886268
 30
0.0
 40
0.0102138123940189
100
AcDbArc
 50
3.193725348484568
 51
193.0548754998599
  0
ARC
  5
503
330
1F
100
AcDbEntity
  8
TEXT
100
AcDbCircle
 10
68.76222926136584
 20
-106.1388888198806
 30
0.0
 40
0.0687317033736608
100
AcDbArc
 50
155.9906329013478
 51
206.8057304576939
  0
ARC
  5
504
330
1F
100
AcDbEntity
  8
TEXT
100
AcDbCircle
 10
68.42059950258846
 20
-106.2980738423568
 30
0.0
 40
0.3082070260753686
100
AcDbArc
 50
344.8914411173256
 51
24.57723374822019
  0
ARC
  5
505
330
1F
100
AcDbEntity
  8
TEXT
100
AcDbCircle
 10
68.61969837473345
 20
-106.4079125498132
 30
0.0
 40
0.1027805697804442
100
AcDbArc
 50
300.6537348898138
 51
16.68245916375919
  0
ARC
  5
506
330
1F
100
AcDbEntity
  8
TEXT
100
AcDbCircle
 10
68.5281882243377
 20
-106.6276427153188
 30
0.0
 40
0.0394837165390078
100
AcDbArc
 50
244.0629515517949
 51
24.32612031264391
  0
ARC
  5
507
330
1F
100
AcDbEntity
  8
TEXT
100
AcDbCircle
 10
68.46054929236908
 20
-106.6967143818397
 30
0.0
 40
0.0605283642044279
100
AcDbArc
 50
33.67851647490044
 51
106.5775508010123
  0
ARC
  5
508
330
1F
100
AcDbEntity
  8
TEXT
100
AcDbCircle
 10
68.42214714944272
 20
-106.6267218298177
 30
0.0
 40
0.0242921821141258
100
AcDbArc
 50
194.8546182240452
 51
330.4510994340788
  0
ARC
  5
509
330
1F
100
AcDbEntity
  8
TEXT
100
AcDbCircle
 10
68.37136781425005
 20
-106.6018196340471
 30
0.0
 40
0.0414041993530744
100
AcDbArc
 50
223.0305625061279
 51
311.2487591160725
  0
ARC
  5
50A
330
1F
100
AcDbEntity
  8
TEXT
100
AcDbCircle
 10
68.3181117499959
 20
-106.5886681104007
 30
0.0
 40
0.0473596567490983
100
AcDbArc
 50
214.7934494581967
 51
299.0409507876105
  0
ARC
  5
50B
330
1F
100
AcDbEntity
  8
TEXT
100
AcDbCircle
 10
68.26514297328327
 20
-106.6160999783348
 30
0.0
 40
0.0140822397522689
100
AcDbArc
 50
1.658272028068489
 51
160.4091839300748
  0
ARC
  5
50C
330
1F
100
AcDbEntity
  8
TEXT
100
AcDbCircle
 10
68.24066054417404
 20
-106.6131068705512
 30
0.0
 40
0.0113478351145246
100
AcDbArc
 50
156.0593073728623
 51
8.762281217119962
  0
ARC
  5
50D
330
1F
100
AcDbEntity
  8
TEXT
100
AcDbCircle
 10
68.14867615742585
 20
-106.6354119825751
 30
0.0
 40
0.0859348789800251
100
AcDbArc
 50
18.24878221232236
 51
92.19784172829085
  0
ARC
  5
50E
330
1F
100
AcDbEntity
  8
TEXT
100
AcDbCircle
 10
68.1014945543223
 20
-106.5381301336008
 30
0.0
 40
0.0453450343487554
100
AcDbArc
 50
345.4259909574664
 51
72.46181126870029
  0
ARC
  5
50F
330
1F
100
AcDbEntity
  8
TEXT
100
AcDbCircle
 10
68.01872215176323
 20
-106.4726025101413
 30
0.0
 40
0.0989793222879928
100
AcDbArc
 50
346.9852122362369
 51
34.01252680042774
  0
ARC
  5
510
330
1F
100
AcDbEntity
  8
TEXT
100
AcDbCircle
 10
68.51463650655583
 20
-106.3191516483144
 30
0.0
 40
0.4253328080527317
100
AcDbArc
 50
153.5374647244114
 51
193.3327646348701
  0
ARC
  5
511
330
1F
100
AcDbEntity
  8
TEXT
100
AcDbCircle
 10
68.15543186458183
 20
-106.1186212943953
 30
0.0
 40
0.0242063564316216
100
AcDbArc
 50
103.7022990326948
 51
207.0193065629254
  0
ARC
  5
512
330
1F
100
AcDbEntity
  8
TEXT
100
AcDbCircle
 10
68.16932222522362
 20
-106.0793872338885
 30
0.0
 40
0.0251421004004534
100
AcDbArc
 50
218.6904014524238
 51
353.6659411500762
  0
ARC
  5
513
330
1F
100
AcDbEntity
  8
TEXT
100
AcDbCircle
 10
68.21904041459603
 20
-106.1168577516546
 30
0.0
 40
0.1351321100356082
100
AcDbArc
 50
120.6947626763565
 51
155.9971516553444
  0
LINE
  5
514
330
1F
100
AcDbEntity
  8
TEXT
100
AcDbLine
 10
68.09656643125922
 20
-105.9889948105766
 30
0.0
 11
68.09559382182782
 21
-106.0618884338794
 31
0.0
  0
LINE
  5
515
330
1F
100
AcDbEntity
  8
TEXT
100
AcDbLine
 10
68.15200551307761
 20
-105.972472258436
 30
0.0
 11
68.15006029421539
 21
-106.000657794017
 31
0.0
  0
ARC
  5
516
330
1F
100
AcDbEntity
  8
TEXT
100
AcDbCircle
 10
68.12713235190064
 20
-105.9902841582557
 30
0.0
 40
0.0305931025250902
100
AcDbArc
 50
35.60679995345861
 51
177.5845513854531
  0
ARC
  5
517
330
1F
100
AcDbEntity
  8
TEXT
100
AcDbCircle
 10
68.22284401260002
 20
-105.8957076277835
 30
0.0
 40
0.021273023392419
100
AcDbArc
 50
318.2823815987273
 51
84.36248438139951
  0
ARC
  5
518
330
1F
100
AcDbEntity
  8
TEXT
100
AcDbCircle
 10
68.27140115226285
 20
-105.9663748129592
 30
0.0
 40
0.0652789593552486
100
AcDbArc
 50
81.18509483549694
 51
120.03929138241
  0
ARC
  5
519
330
1F
100
AcDbEntity
  8
TEXT
100
AcDbCircle
 10
68.30285885997328
 20
-106.0208269745741
 30
0.0
 40
0.1208792060706077
100
AcDbArc
 50
70.05468846035601
 51
100.2232656721041
  0
ARC
  5
51A
330
1F
100
AcDbEntity
  8
TEXT
100
AcDbCircle
 10
68.35809849105797
 20
-105.911379802952
 30
0.0
 40
0.0146158742644252
100
AcDbArc
 50
163.375655046466
 51
16.62434495353051
  0
ARC
  5
51B
330
1F
100
AcDbEntity
  8
TEXT
100
AcDbCircle
 10
68.39737498713822
 20
-105.9366536224692
 30
0.0
 40
0.0388106839919887
100
AcDbArc
 50
46.43616582623978
 51
130.628309502666
  0
ARC
  5
51C
330
1F
100
AcDbEntity
  8
TEXT
100
AcDbCircle
 10
68.43701760224391
 20
-105.9077286771019
 30
0.0
 40
0.0129206974282422
100
AcDbArc
 50
183.5606974541693
 51
344.4298925613464
  0
ARC
  5
51D
330
1F
100
AcDbEntity
  8
TEXT
100
AcDbCircle
 10
68.47280573906868
 20
-105.9201067868865
 30
0.0
 40
0.0249843467382301
100
AcDbArc
 50
20.89289471578084
 51
159.1071052842191
  0
ARC
  5
51E
330
1F
100
AcDbEntity
  8
TEXT
100
AcDbCircle
 10
68.51223737132669
 20
-105.9374036663826
 30
0.0
 40
0.0307520466590095
100
AcDbArc
 50
24.75773987532642
 51
121.5483884163393
  0
ARC
  5
51F
330
1F
100
AcDbEntity
  8
TEXT
100
AcDbCircle
 10
68.56139294542877
 20
-105.9355214127954
 30
0.0
 40
0.0239087999217996
100
AcDbArc
 50
47.61705801860808
 51
152.6179806586008
  0
ARC
  5
520
330
1F
100
AcDbEntity
  8
TEXT
100
AcDbCircle
 10
68.59188515255848
 20
-105.9314366921089
 30
0.0
 40
0.0197726925807916
100
AcDbArc
 50
136.6395135700795
 51
16.38775991618488
  0
ARC
  5
521
330
1F
100
AcDbEntity
  8
TEXT
100
AcDbCircle
 10
68.61563149454721
 20
-105.9849727328175
 30
0.0
 40
0.05930733198463
100
AcDbArc
 50
41.27304036069129
 51
94.61991284103847
  0
ARC
  5
522
330
1F
100
AcDbEntity
  8
TEXT
100
AcDbCircle
 10
68.68408643203283
 20
-105.9482772400021
 30
0.0
 40
0.0240040095705513
100
AcDbArc
 50
174.1982733486934
 51
308.0634596483613
  0
ARC
  5
523
330
1F
100
AcDbEntity
  8
TEXT
100
AcDbCircle
 10
68.71646080179629
 20
-105.9771329677317
 30
0.0
 40
0.0201994868700719
100
AcDbArc
 50
296.7794474250815
 51
150.4674482996603
  0
ARC
  5
524
330
1F
100
AcDbEntity
  8
TEXT
100
AcDbCircle
 10
68.73289775545242
 20
-106.1406538066371
 30
0.0
 40
0.1456726297907598
100
AcDbArc
 50
78.6467194011529
 51
92.8865786316482
  0
ARC
  5
525
330
1F
100
AcDbEntity
  8
TEXT
100
AcDbCircle
 10
68.71397084767794
 20
-106.0562579279811
 30
0.0
 40
0.0753640437980911
100
AcDbArc
 50
356.7791343814141
 51
50.82801334298917
  0
ARC
  5
526
330
1F
100
AcDbEntity
  8
TEXT
100
AcDbCircle
 10
68.80528904505826
 20
-106.1112291652595
 30
0.0
 40
0.0532219959288009
100
AcDbArc
 50
51.01090143870927
 51
107.577946053111
  0
ARC
  5
527
330
1F
100
AcDbEntity
  8
TEXT
100
AcDbCircle
 10
68.57264372276064
 20
-106.2981162283836
 30
0.0
 40
0.3506080272731332
100
AcDbArc
 50
317.973286304238
 51
40.61894937560235
  0
ARC
  5
528
330
1F
100
AcDbEntity
  8
TEXT
100
AcDbCircle
 10
69.17437940949948
 20
-106.6040892568729
 30
0.0
 40
0.3471954157645391
100
AcDbArc
 50
179.4662202071271
 51
190.5890997840383
  0
ARC
  5
529
330
1F
100
AcDbEntity
  8
TEXT
100
AcDbCircle
 10
68.80367199135289
 20
-106.6818345577428
 30
0.0
 40
0.0325610258630092
100
AcDbArc
 50
282.9712622283038
 51
25.35441378639511
  0
ARC
  5
52A
330
1F
100
AcDbEntity
  8
TEXT
100
AcDbCircle
 10
68.85129846701778
 20
-106.6757807641208
 30
0.0
 40
0.0552553003765589
100
AcDbArc
 50
169.468486757319
 51
223.141843942142
  0
ARC
  5
52B
330
1F
100
AcDbEntity
  8
TEXT
100
AcDbCircle
 10
68.72635487442197
 20
-106.636214742341
 30
0.0
 40
0.0765201974600679
100
AcDbArc
 50
337.3510782224615
 51
22.64892177753845
  0
ARC
  5
52C
330
1F
100
AcDbEntity
  8
TEXT
100
AcDbCircle
 10
68.52767629487624
 20
-106.4065848282641
 30
0.0
 40
0.3011975387222217
100
AcDbArc
 50
311.6071689301101
 51
318.3515702307968
  0
ARC
  5
52D
330
1F
100
AcDbEntity
  8
TEXT
100
AcDbCircle
 10
68.72751307222003
 20
-106.6417986644844
 30
0.0
 40
0.0100052643924706
100
AcDbArc
 50
89.05883162362073
 51
223.9137905963002
  0
ARC
  5
52E
330
1F
100
AcDbEntity
  8
TEXT
100
AcDbCircle
 10
68.64146785427907
 20
-106.6601271881455
 30
0.0
 40
0.0796559893773839
100
AcDbArc
 50
322.6907301981541
 51
8.220255073940986
  0
ARC
  5
52F
330
1F
100
AcDbEntity
  8
TEXT
100
AcDbCircle
 10
68.71738161336601
 20
-106.7238308238062
 30
0.0
 40
0.0198884128034731
100
AcDbArc
 50
129.1527393458017
 51
254.8870408388506
  0
ARC
  5
530
330
1F
100
AcDbEntity
  8
TEXT
100
AcDbCircle
 10
68.71657392645042
 20
-106.7505959773408
 30
0.0
 40
0.0087399854901761
100
AcDbArc
 50
312.7998628402738
 51
120.0581864533371
  0
ARC
  5
531
330
1F
100
AcDbEntity
  8
TEXT
100
AcDbCircle
 10
68.86951214791193
 20
-106.8208532400165
 30
0.0
 40
0.0788296406331001
100
AcDbArc
 50
99.17143729878524
 51
127.7955283290942
  0
ARC
  5
532
330
1F
100
AcDbEntity
  8
TEXT
100
AcDbCircle
 10
68.85380192317581
 20
-106.7789781323686
 30
0.0
 40
0.036084135136231
100
AcDbArc
 50
341.5477100758355
 51
84.99888070834158
  0
ARC
  5
533
330
1F
100
AcDbEntity
  8
TEXT
100
AcDbCircle
 10
68.68844991531165
 20
-106.6865716033716
 30
0.0
 40
0.0584439427015822
100
AcDbArc
 50
156.2885975497958
 51
210.2571046136439
  0
ARC
  5
534
330
1F
100
AcDbEntity
  8
TEXT
100
AcDbCircle
 10
68.6468362402229
 20
-106.6673568070459
 30
0.0
 40
0.012645524455306
100
AcDbArc
 50
31.2309986407668
 51
160.1819529381848
  0
LINE
  5
535
330
1F
100
AcDbEntity
  8
TEXT
100
AcDbLine
 10
68.65689223555643
 20
-106.7182897276022
 30
0.0
 11
68.6576492241832
 21
-106.6608002327404
 31
0.0
  0
ARC
  5
536
330
1F
100
AcDbEntity
  8
TEXT
100
AcDbCircle
 10
68.64681151917704
 20
-106.7223121398243
 30
0.0
 40
0.0108536004534172
100
AcDbArc
 50
144.5711585108376
 51
21.75301147887019
  0
ARC
  5
537
330
1F
100
AcDbEntity
  8
TEXT
100
AcDbCircle
 10
68.4417768059841
 20
-106.7459850378901
 30
0.0
 40
0.0198441386731591
100
AcDbArc
 50
177.787775166229
 51
326.3805826419361
  0
ARC
  5
538
330
1F
100
AcDbEntity
  8
TEXT
100
AcDbCircle
 10
68.41080622560308
 20
-106.744150554351
 30
0.0
 40
0.0111923495175046
100
AcDbArc
 50
354.5219056877808
 51
214.9448543763829
  0
LINE
  5
539
330
1F
100
AcDbEntity
  8
TEXT
100
AcDbLine
 10
68.35030818024204
 20
-106.7291919320001
 30
0.0
 11
68.35244667545993
 21
-106.7954372436453
 31
0.0
  0
ARC
  5
53A
330
1F
100
AcDbEntity
  8
TEXT
100
AcDbCircle
 10
68.30628428885922
 20
-106.710010068952
 30
0.0
 40
0.01199889172128
100
AcDbArc
 50
5.351678383090963
 51
195.2435488026397
  0
LINE
  5
53B
330
1F
100
AcDbEntity
  8
TEXT
100
AcDbLine
 10
68.29149981211529
 20
-106.8178751678917
 30
0.0
 11
68.29470755494155
 21
-106.7131648485555
 31
0.0
  0
LINE
  5
53C
330
1F
100
AcDbEntity
  8
TEXT
100
AcDbLine
 10
68.24017617724995
 20
-106.6896584446556
 30
0.0
 11
68.24979934313986
 21
-106.8221490493863
 31
0.0
  0
ARC
  5
53D
330
1F
100
AcDbEntity
  8
TEXT
100
AcDbCircle
 10
68.21753117718529
 20
-106.6926827408378
 30
0.0
 40
0.0228460586386703
100
AcDbArc
 50
7.606980527162162
 51
103.0413594591623
  0
ARC
  5
53E
330
1F
100
AcDbEntity
  8
TEXT
100
AcDbCircle
 10
68.20275268306229
 20
-106.6912451783539
 30
0.0
 40
0.0229356986989046
100
AcDbArc
 50
65.19241843010778
 51
139.0508106988798
  0
LINE
  5
53F
330
1F
100
AcDbEntity
  8
TEXT
100
AcDbLine
 10
68.18542955429061
 20
-106.7050947926671
 30
0.0
 11
68.18542955429061
 21
-106.6762133626166
 31
0.0
  0
ARC
  5
540
330
1F
100
AcDbEntity
  8
TEXT
100
AcDbCircle
 10
68.1725898959501
 20
-106.7085471692336
 30
0.0
 40
0.0132957034509403
100
AcDbArc
 50
168.3169857564318
 51
15.04995211451593
  0
LINE
  5
541
330
1F
100
AcDbEntity
  8
TEXT
100
AcDbLine
 10
68.15576673479333
 20
-106.670893106024
 30
0.0
 11
68.15956964111165
 21
-106.7058548293232
 31
0.0
  0
ARC
  5
542
330
1F
100
AcDbEntity
  8
TEXT
100
AcDbCircle
 10
68.15052829046923
 20
-106.6662830899757
 30
0.0
 40
0.0069780761604683
100
AcDbArc
 50
318.6510821797587
 51
186.6644145786489
  0
LINE
  5
543
330
1F
100
AcDbEntity
  8
TEXT
100
AcDbLine
 10
68.14055501563612
 20
-106.6936942428258
 30
0.0
 11
68.14359736572645
 21
-106.6670929227435
 31
0.0
  0
ARC
  5
544
330
1F
100
AcDbEntity
  8
TEXT
100
AcDbCircle
 10
68.1217699487005
 20
-106.6986632980301
 30
0.0
 40
0.0194311669591681
100
AcDbArc
 50
172.0457056516397
 51
14.81661014794206
  0
LINE
  5
545
330
1F
100
AcDbEntity
  8
TEXT
100
AcDbLine
 10
68.09796223954942
 20
-106.6321311808848
 30
0.0
 11
68.10252573339025
 21
-106.6959743527939
 31
0.0
  0
ARC
  5
546
330
1F
100
AcDbEntity
  8
TEXT
100
AcDbCircle
 10
68.1029805910247
 20
-106.5856181718878
 30
0.0
 40
0.0467829440873418
100
AcDbArc
 50
209.3802246625984
 51
263.8421008682747
  0
ARC
  5
547
330
1F
100
AcDbEntity
  8
TEXT
100
AcDbCircle
 10
68.04439773561965
 20
-106.6142457226341
 30
0.0
 40
0.0186991566723166
100
AcDbArc
 50
17.66955929970848
 51
146.8111142491872
  0
ARC
  5
548
330
1F
100
AcDbEntity
  8
TEXT
100
AcDbCircle
 10
68.02137800920647
 20
-106.6088664615872
 30
0.0
 40
0.0088271308807469
100
AcDbArc
 50
192.9866902548923
 51
33.38063139741046
  0
LINE
  5
549
330
1F
100
AcDbEntity
  8
TEXT
100
AcDbLine
 10
68.01277665608089
 20
-106.5834887792163
 30
0.0
 11
68.01277665608089
 21
-106.6108501359547
 31
0.0
  0
ARC
  5
54A
330
1F
100
AcDbEntity
  8
TEXT
100
AcDbCircle
 10
68.0069565278996
 20
-106.5806107632098
 30
0.0
 40
0.0064928320617832
100
AcDbArc
 50
333.6879001367202
 51
192.072245755338
  0
LINE
  5
54B
330
1F
100
AcDbEntity
  8
TEXT
100
AcDbLine
 10
68.00060728701402
 20
-106.5819687059041
 30
0.0
 11
67.99908611196904
 21
-106.7651377627363
 31
0.0
  0
ARC
  5
54C
330
1F
100
AcDbEntity
  8
TEXT
100
AcDbCircle
 10
71.75096342442803
 20
-106.653839294664
 30
0.0
 40
3.792753809134314
100
AcDbArc
 50
178.0464319449979
 51
181.7502526685598
  0
ARC
  5
54D
330
1F
100
AcDbEntity
  8
TEXT
100
AcDbCircle
 10
67.9194537497986
 20
-106.5356526343524
 30
0.0
 40
0.042439428205579
100
AcDbArc
 50
15.17145974978874
 51
87.54918714297627
  0
ARC
  5
54E
330
1F
100
AcDbEntity
  8
TEXT
100
AcDbCircle
 10
68.83052341833508
 20
-106.3033993300065
 30
0.0
 40
0.9288640878310687
100
AcDbArc
 50
175.4121316267021
 51
191.7939289657055
  0
ARC
  5
54F
330
1F
100
AcDbEntity
  8
TEXT
100
AcDbCircle
 10
68.12365679029004
 20
-106.2316308382555
 30
0.0
 40
0.2190358327107401
100
AcDbArc
 50
117.3222180892419
 51
179.3383492613259
  0
ARC
  5
550
330
1F
100
AcDbEntity
  8
TEXT
100
AcDbCircle
 10
68.00420897350285
 20
-106.0167411362497
 30
0.0
 40
0.0277366383214723
100
AcDbArc
 50
312.9867785858869
 51
66.99118422926658
  0
ARC
  5
551
330
1F
100
AcDbEntity
  8
TEXT
100
AcDbCircle
 10
68.00129761204097
 20
-105.9839882867711
 30
0.0
 40
0.015534157154539
100
AcDbArc
 50
332.2921775479049
 51
119.5678571759902
  0
ARC
  5
552
330
1F
100
AcDbEntity
  8
TEXT
100
AcDbCircle
 10
68.0079370839377
 20
-105.9940578288517
 30
0.0
 40
0.0275804145931513
100
AcDbArc
 50
121.2424246402124
 51
213.4732397083749
  0
ARC
  5
553
330
1F
100
AcDbEntity
  8
TEXT
100
AcDbCircle
 10
67.97868743188482
 20
-106.0148849382825
 30
0.0
 40
0.0083972248010632
100
AcDbArc
 50
201.5154657473978
 51
41.96660508022808
  0
ARC
  5
554
330
1F
100
AcDbEntity
  8
TEXT
100
AcDbCircle
 10
67.97890142359861
 20
-105.9877296796041
 30
0.0
 40
0.0312821180069065
100
AcDbArc
 50
160.262778281964
 51
255.1333022011721
  0
ARC
  5
555
330
1F
100
AcDbEntity
  8
TEXT
100
AcDbCircle
 10
67.94251806640011
 20
-105.9713013228468
 30
0.0
 40
0.0090850721584386
100
AcDbArc
 50
124.216774595017
 51
319.7988197133694
  0
ARC
  5
556
330
1F
100
AcDbEntity
  8
TEXT
100
AcDbCircle
 10
67.92306746707288
 20
-105.9629724255146
 30
0.0
 40
0.0143650439868701
100
AcDbArc
 50
356.7423630506751
 51
136.5172760690077
  0
ARC
  5
557
330
1F
100
AcDbEntity
  8
TEXT
100
AcDbCircle
 10
67.916493097882
 20
-105.9342255435492
 30
0.0
 40
0.0192504245764867
100
AcDbArc
 50
116.3151684036786
 51
258.4674100382152
  0
ARC
  5
558
330
1F
100
AcDbEntity
  8
TEXT
100
AcDbCircle
 10
67.91819367877204
 20
-105.9267622216495
 30
0.0
 40
0.0141644132330729
100
AcDbArc
 50
348.1206509806772
 51
136.2651890953769
  0
ARC
  5
559
330
1F
100
AcDbEntity
  8
TEXT
100
AcDbCircle
 10
67.9412349146081
 20
-105.9332439142723
 30
0.0
 40
0.0098484268339817
100
AcDbArc
 50
158.7719549350952
 51
25.4671605858406
  0
ARC
  5
55A
330
1F
100
AcDbEntity
  8
TEXT
100
AcDbCircle
 10
67.97658751863107
 20
-105.9312321017022
 30
0.0
 40
0.0265543389333426
100
AcDbArc
 50
32.48569494743581
 51
175.1979664789355
  0
ARC
  5
55B
330
1F
100
AcDbEntity
  8
TEXT
100
AcDbCircle
 10
68.00994678890785
 20
-105.9218669895828
 30
0.0
 40
0.0120042360355189
100
AcDbArc
 50
155.9249042338183
 51
10.66497725508799
  0
ARC
  5
55C
330
1F
100
AcDbEntity
  8
TEXT
100
AcDbCircle
 10
68.06077636188989
 20
-105.9120340613095
 30
0.0
 40
0.0397678779808021
100
AcDbArc
 50
109.4580308571273
 51
191.0341765877006
  0
LINE
  5
55D
330
1F
100
AcDbEntity
  8
TEXT
100
AcDbLine
 10
69.87892106570062
 20
-106.4558069807151
 30
0.0
 11
70.12851099552523
 21
-106.4558069807151
 31
0.0
  0
ARC
  5
55E
330
1F
100
AcDbEntity
  8
TEXT
100
AcDbCircle
 10
70.01513715087259
 20
-106.4505350170591
 30
0.0
 40
0.1134963534750494
100
AcDbArc
 50
357.337623744369
 51
85.63084243886228
  0
ARC
  5
55F
330
1F
100
AcDbEntity
  8
TEXT
100
AcDbCircle
 10
69.97975636695364
 20
-106.5473131864298
 30
0.0
 40
0.2145114628604602
100
AcDbArc
 50
78.15621523985544
 51
106.6122408520357
  0
LINE
  5
560
330
1F
100
AcDbEntity
  8
TEXT
100
AcDbLine
 10
69.87892106570062
 20
-106.4288606655107
 30
0.0
 11
70.0425968813926
 21
-106.4288606655107
 31
0.0
  0
ARC
  5
561
330
1F
100
AcDbEntity
  8
TEXT
100
AcDbCircle
 10
69.95866774327082
 20
-106.444436093221
 30
0.0
 40
0.0812534708909398
100
AcDbArc
 50
103.9179608005984
 51
168.9486088950471
  0
ARC
  5
562
330
1F
100
AcDbEntity
  8
TEXT
100
AcDbCircle
 10
69.97736313620155
 20
-106.4268002211347
 30
0.0
 40
0.0652662772240651
100
AcDbArc
 50
358.1908821763629
 51
69.74957583402924
  0
ARC
  5
563
330
1F
100
AcDbEntity
  8
TEXT
100
AcDbCircle
 10
69.96953850910998
 20
-106.6132667451719
 30
0.0
 40
0.2495589427940663
100
AcDbArc
 50
82.99970676551479
 51
97.00029323448521
  0
ARC
  5
564
330
1F
100
AcDbEntity
  8
TEXT
100
AcDbCircle
 10
69.96773774710757
 20
-106.4887680226129
 30
0.0
 40
0.1550617556562953
100
AcDbArc
 50
108.5416613320802
 51
149.7652339536174
  0
ARC
  5
565
330
1F
100
AcDbEntity
  8
TEXT
100
AcDbCircle
 10
69.96873016952346
 20
-106.4934916159577
 30
0.0
 40
0.1583382231194103
100
AcDbArc
 50
148.4692011102824
 51
195.5802361373379
  0
ARC
  5
566
330
1F
100
AcDbEntity
  8
TEXT
100
AcDbCircle
 10
69.96580116972785
 20
-106.498209310986
 30
0.0
 40
0.1542954973653146
100
AcDbArc
 50
194.1847393568155
 51
248.6586767321129
  0
ARC
  5
567
330
1F
100
AcDbEntity
  8
TEXT
100
AcDbCircle
 10
70.02917893528111
 20
-106.4576533880203
 30
0.0
 40
0.1502692137157161
100
AcDbArc
 50
179.2959701761241
 51
227.5915484940839
  0
ARC
  5
568
330
1F
100
AcDbEntity
  8
TEXT
100
AcDbCircle
 10
69.9964079592886
 20
-106.484402726544
 30
0.0
 40
0.1085922287405707
100
AcDbArc
 50
230.8416488637727
 51
280.5326941523483
  0
ARC
  5
569
330
1F
100
AcDbEntity
  8
TEXT
100
AcDbCircle
 10
70.01059986385168
 20
-106.4549792847278
 30
0.0
 40
0.1363034732059888
100
AcDbArc
 50
272.3792098458872
 51
327.3581874363217
  0
ARC
  5
56A
330
1F
100
AcDbEntity
  8
TEXT
100
AcDbCircle
 10
69.97030442340187
 20
-106.4263575459944
 30
0.0
 40
0.2239378989788902
100
AcDbArc
 50
254.28478308494
 51
294.1819270465997
  0
ARC
  5
56B
330
1F
100
AcDbEntity
  8
TEXT
100
AcDbCircle
 10
69.98848280416313
 20
-106.4819714035593
 30
0.0
 40
0.165873529712186
100
AcDbArc
 50
296.3233923707219
 51
339.8348331475788
  0
ARC
  5
56C
330
1F
100
AcDbEntity
  8
TEXT
100
AcDbCircle
 10
70.13296708065585
 20
-106.5370312543971
 30
0.0
 40
0.0114204126568138
100
AcDbArc
 50
349.2952029716974
 51
131.6626905469364
  0
LINE
  5
56D
330
1F
100
AcDbEntity
  8
TEXT
100
AcDbLine
 10
68.22493375794607
 20
-105.2627582657623
 30
0.0
 11
68.22493375794607
 21
-105.8745374957895
 31
0.0
  0
LINE
  5
56E
330
1F
100
AcDbEntity
  8
TEXT
100
AcDbLine
 10
68.04752903411051
 20
-105.2627582657623
 30
0.0
 11
68.04752903411051
 21
-105.8745374957895
 31
0.0
  0
ARC
  5
56F
330
1F
100
AcDbEntity
  8
TEXT
100
AcDbCircle
 10
68.62893403657699
 20
-105.7313866001329
 30
0.0
 40
0.0149474164447453
100
AcDbArc
 50
3.288025410275707
 51
105.9275278804377
  0
ARC
  5
570
330
1F
100
AcDbEntity
  8
TEXT
100
AcDbCircle
 10
68.51258825211225
 20
-105.6428875281038
 30
0.0
 40
0.134511266670263
100
AcDbArc
 50
282.1628426667851
 51
326.5593609179318
  0
ARC
  5
571
330
1F
100
AcDbEntity
  8
TEXT
100
AcDbCircle
 10
68.51160038315922
 20
-105.6697167014835
 30
0.0
 40
0.1086941518186937
100
AcDbArc
 50
213.1462108998123
 51
285.6537258536391
  0
ARC
  5
572
330
1F
100
AcDbEntity
  8
TEXT
100
AcDbCircle
 10
68.54230246360268
 20
-105.6527085006744
 30
0.0
 40
0.1437225919317553
100
AcDbArc
 50
167.0430028911412
 51
212.1309371309448
  0
ARC
  5
573
330
1F
100
AcDbEntity
  8
TEXT
100
AcDbCircle
 10
68.46722060589204
 20
-105.6338528194396
 30
0.0
 40
0.2013621134637685
100
AcDbArc
 50
310.2152586008206
 51
331.3072507285891
  0
ARC
  5
574
330
1F
100
AcDbEntity
  8
TEXT
100
AcDbCircle
 10
68.486444180716
 20
-105.6821831244673
 30
0.0
 40
0.1529394365370079
100
AcDbArc
 50
251.6347706403312
 51
316.4182924463649
  0
ARC
  5
575
330
1F
100
AcDbEntity
  8
TEXT
100
AcDbCircle
 10
68.46381325884945
 20
-105.687946938146
 30
0.0
 40
0.1417094945864497
100
AcDbArc
 50
194.9511061487671
 51
259.6103135862126
  0
ARC
  5
576
330
1F
100
AcDbEntity
  8
TEXT
100
AcDbCircle
 10
68.47869272667003
 20
-105.6831761398768
 30
0.0
 40
0.1573179651795563
100
AcDbArc
 50
135.7093780000635
 51
195.2317137751529
  0
ARC
  5
577
330
1F
100
AcDbEntity
  8
TEXT
100
AcDbCircle
 10
68.99153228656842
 20
-105.7206965222958
 30
0.0
 40
0.0114204126568138
100
AcDbArc
 50
349.2952029716974
 51
131.6626905469364
  0
ARC
  5
578
330
1F
100
AcDbEntity
  8
TEXT
100
AcDbCircle
 10
68.84704801007564
 20
-105.6656366714578
 30
0.0
 40
0.165873529712186
100
AcDbArc
 50
296.3233923707219
 51
339.8348331475788
  0
ARC
  5
579
330
1F
100
AcDbEntity
  8
TEXT
100
AcDbCircle
 10
68.82886962931431
 20
-105.6100228138931
 30
0.0
 40
0.2239378989788902
100
AcDbArc
 50
254.28478308494
 51
294.1819270465997
  0
ARC
  5
57A
330
1F
100
AcDbEntity
  8
TEXT
100
AcDbCircle
 10
68.86916506976425
 20
-105.6386445526261
 30
0.0
 40
0.1363034732059888
100
AcDbArc
 50
272.3792098458872
 51
327.3581874363217
  0
ARC
  5
57B
330
1F
100
AcDbEntity
  8
TEXT
100
AcDbCircle
 10
68.85497316520084
 20
-105.6680679944425
 30
0.0
 40
0.1085922287405707
100
AcDbArc
 50
230.8416488637727
 51
280.5326941523483
  0
ARC
  5
57C
330
1F
100
AcDbEntity
  8
TEXT
100
AcDbCircle
 10
68.88774414119334
 20
-105.6413186559188
 30
0.0
 40
0.1502692137157161
100
AcDbArc
 50
179.2959701761241
 51
227.5915484940839
  0
ARC
  5
57D
330
1F
100
AcDbEntity
  8
TEXT
100
AcDbCircle
 10
68.8243663756403
 20
-105.6818745788844
 30
0.0
 40
0.1542954973653146
100
AcDbArc
 50
194.1847393568155
 51
248.6586767321129
  0
ARC
  5
57E
330
1F
100
AcDbEntity
  8
TEXT
100
AcDbCircle
 10
68.82729537543591
 20
-105.6771568838564
 30
0.0
 40
0.1583382231194103
100
AcDbArc
 50
148.4692011102824
 51
195.5802361373379
  0
ARC
  5
57F
330
1F
100
AcDbEntity
  8
TEXT
100
AcDbCircle
 10
69.58782120371775
 20
-106.518868046351
 30
0.0
 40
0.0973115932483437
100
AcDbArc
 50
325.293903470732
 51
356.4132772462207
  0
ARC
  5
580
330
1F
100
AcDbEntity
  8
TEXT
100
AcDbCircle
 10
69.59151252178495
 20
-106.5323924101232
 30
0.0
 40
0.0870449330871868
100
AcDbArc
 50
261.8576121462839
 51
331.2394802847385
  0
ARC
  5
581
330
1F
100
AcDbEntity
  8
TEXT
100
AcDbCircle
 10
69.56201496184488
 20
-106.5593485687147
 30
0.0
 40
0.0616502517662663
100
AcDbArc
 50
203.9135879631545
 51
286.170193180254
  0
ARC
  5
582
330
1F
100
AcDbEntity
  8
TEXT
100
AcDbCircle
 10
69.33350388650584
 20
-106.5722110052436
 30
0.0
 40
0.0263049997405141
100
AcDbArc
 50
155.9964711746254
 51
271.4218156194853
  0
LINE
  5
583
330
1F
100
AcDbEntity
  8
TEXT
100
AcDbLine
 10
69.366434114528
 20
-106.5966105890892
 30
0.0
 11
69.33415658765324
 21
-106.5985079060604
 31
0.0
  0
LINE
  5
584
330
1F
100
AcDbEntity
  8
TEXT
100
AcDbLine
 10
69.36453546224843
 20
-106.6184296785763
 30
0.0
 11
69.366434114528
 21
-106.5966105890892
 31
0.0
  0
ARC
  5
585
330
1F
100
AcDbEntity
  8
TEXT
100
AcDbCircle
 10
69.15666834313848
 20
-106.4858073128995
 30
0.0
 40
0.1192900151968246
100
AcDbArc
 50
257.5730930866192
 51
314.4273867462274
  0
ARC
  5
586
330
1F
100
AcDbEntity
  8
TEXT
100
AcDbCircle
 10
69.1574288808392
 20
-106.5460072371023
 30
0.0
 40
0.062191304224996
100
AcDbArc
 50
188.1927496775747
 51
244.8496170020147
  0
ARC
  5
587
330
1F
100
AcDbEntity
  8
TEXT
100
AcDbCircle
 10
68.648725966735
 20
-106.5150261634938
 30
0.0
 40
0.0299315237481412
100
AcDbArc
 50
253.9290889125599
 51
38.652674775114
  0
ARC
  5
588
330
1F
100
AcDbEntity
  8
TEXT
100
AcDbCircle
 10
68.75674902445702
 20
-106.5604940283735
 30
0.0
 40
0.0811923392812831
100
AcDbArc
 50
330.1916644163835
 51
19.9131875818796
  0
ARC
  5
589
330
1F
100
AcDbEntity
  8
TEXT
100
AcDbCircle
 10
68.7748580490622
 20
-106.6598064468693
 30
0.0
 40
0.0574830775048128
100
AcDbArc
 50
67.37252950712522
 51
112.6274704928673
  0
ARC
  5
58A
330
1F
100
AcDbEntity
  8
TEXT
100
AcDbCircle
 10
68.52764262317586
 20
-106.4933306105563
 30
0.0
 40
0.1235686801195331
100
AcDbArc
 50
287.1920036507388
 51
335.899750405153
  0
LINE
  5
58B
330
1F
100
AcDbEntity
  8
TEXT
100
AcDbLine
 10
68.3182308771568
 20
-106.7088909485011
 30
0.0
 11
68.35030818024204
 21
-106.7291919320001
 31
0.0
  0
LINE
  5
58C
330
1F
100
AcDbEntity
  8
BORDER
100
AcDbLine
 10
67.24516747634922
 20
-110.0818356057623
 30
0.0
 11
67.24516747634922
 21
-105.1394709677379
 31
0.0
  0
LINE
  5
58D
330
1F
100
AcDbEntity
  8
BORDER
100
AcDbLine
 10
61.99516747634906
 20
-108.5144709677378
 30
0.0
 11
67.24516747634922
 21
-108.5144709677378
 31
0.0
  0
LINE
  5
58E
330
1F
100
AcDbEntity
  8
BORDER
100
AcDbLine
 10
61.99516747634906
 20
-107.7644709677379
 30
0.0
 11
67.24516747634922
 21
-107.7644709677379
 31
0.0
  0
TEXT
  5
58F
330
1F
100
AcDbEntity
  8
TEXT
100
AcDbText
 10
65.45641747634897
 20
-108.4477209677379
 30
0.0
 40
0.28125
  1
NONE
 72
     1
 11
65.97204247634897
 21
-108.3070959677379
 31
0.0
100
AcDbText
 73
     2
  0
TEXT
  5
590
330
1F
100
AcDbEntity
  8
TEXT
100
AcDbText
 10
64.80766747634928
 20
-108.0457209677379
 30
0.0
 40
0.1875
  1
SCALE
100
AcDbText
  0
TEXT
  5
591
330
1F
100
AcDbEntity
  8
TEXT
100
AcDbText
 10
62.10391747634925
 20
-108.0457209677379
 30
0.0
 40
0.1875
  1
DRAWN
100
AcDbText
  0
TEXT
  5
592
330
1F
100
AcDbEntity
  8
TEXT
100
AcDbText
 10
62.89329247634925
 20
-108.4477209677379
 30
0.0
 40
0.28125
  1
JJH
 72
     1
 11
63.26829247634925
 21
-108.3070959677379
 31
0.0
100
AcDbText
 73
     2
  0
TEXT
  5
593
330
1F
100
AcDbEntity
  8
TEXT
100
AcDbText
 10
62.18266747634928
 20
-108.7957209677379
 30
0.0
 40
0.1875
  1
DATE
100
AcDbText
  0
TEXT
  5
594
330
1F
100
AcDbEntity
  8
TEXT
100
AcDbText
 10
63.52641747634908
 20
-109.0709289237007
 30
0.0
 40
0.375
  1
8-13-10
 72
     1
 11
64.62016747634908
 21
-108.8834289237007
 31
0.0
100
AcDbText
 73
     2
  0
LINE
  5
595
330
1F
100
AcDbEntity
  8
BORDER
100
AcDbLine
 10
61.99516747634906
 20
-109.2644709677379
 30
0.0
 11
67.24516747634922
 21
-109.2644709677379
 31
0.0
  0
TEXT
  5
596
330
1F
100
AcDbEntity
  8
TEXT
100
AcDbText
 10
62.5769293622955
 20
-109.8576544325721
 30
0.0
 40
0.375
  1
SHEET 1 OF 1
 72
     1
 11
64.6394293622955
 21
-109.6701544325721
 31
0.0
100
AcDbText
 73
     2
  0
LINE
  5
597
330
1F
100
AcDbEntity
  8
BORDER
100
AcDbLine
 10
74.89727071086893
 20
-108.5144709677378
 30
0.0
 11
74.89727071086893
 21
-110.0818356057623
 31
0.0
  0
LINE
  5
598
330
1F
100
AcDbEntity
  8
BORDER
100
AcDbLine
 10
67.24516747634922
 20
-108.5144709677378
 30
0.0
 11
76.95347325342472
 21
-108.5144709677378
 31
0.0
  0
LINE
  5
599
330
1F
100
AcDbEntity
  8
BORDER
100
AcDbLine
 10
67.24516747634922
 20
-107.0144709677379
 30
0.0
 11
76.95347325342472
 21
-107.0144709677379
 31
0.0
  0
LINE
  5
59A
330
1F
100
AcDbEntity
  8
BORDER
100
AcDbLine
 10
67.24516747634922
 20
-105.1394709677379
 30
0.0
 11
76.95347325342472
 21
-105.1394709677379
 31
0.0
  0
TEXT
  5
59B
330
1F
100
AcDbEntity
  8
TEXT
100
AcDbText
 10
72.31807036488685
 20
-106.9488459677379
 30
0.0
 40
0.1875
  1
FAX  724-837-3386
 72
     1
 11
73.88057036488685
 21
-106.8550959677379
 31
0.0
100
AcDbText
 73
     2
  0
TEXT
  5
59C
330
1F
100
AcDbEntity
  8
TEXT
100
AcDbText
 10
71.41182036488685
 20
-105.4675959677379
 30
0.0
 40
0.1875
  1
INDUSTRIAL COOLING EQUIPMENT
 72
     1
 11
73.88057036488685
 21
-105.3738459677379
 31
0.0
100
AcDbText
 73
     2
  0
TEXT
  5
59D
330
1F
100
AcDbEntity
  8
TEXT
100
AcDbText
 10
72.34932036488685
 20
-105.8238459677378
 30
0.0
 40
0.1875
  1
141 WILSON AVENUE
 72
     1
 11
73.88057036488685
 21
-105.7300959677378
 31
0.0
100
AcDbText
 73
     2
  0
TEXT
  5
59E
330
1F
100
AcDbEntity
  8
TEXT
100
AcDbText
 10
72.06807036488685
 20
-106.1988459677378
 30
0.0
 40
0.1875
  1
GREENSBURG, PA  15601
 72
     1
 11
73.88057036488685
 21
-106.1050959677378
 31
0.0
100
AcDbText
 73
     2
  0
TEXT
  5
59F
330
1F
100
AcDbEntity
  8
TEXT
100
AcDbText
 10
71.05244536488685
 20
-106.5738459677378
 30
0.0
 40
0.1875
  1
724-837-2204  *  1-888-867-8234
 72
     1
 11
73.88057036488685
 21
-106.4800959677378
 31
0.0
100
AcDbText
 73
     2
  0
TEXT
  5
5A0
330
1F
100
AcDbEntity
  8
TEXT
100
AcDbText
 10
68.508719093609
 20
-109.8137782867501
 30
0.0
 40
0.75
  1
IQ300802
 72
     1
 11
71.071219093609
 21
-109.4387782867501
 31
0.0
100
AcDbText
 73
     2
  0
TEXT
  5
5A1
330
1F
100
AcDbEntity
  8
TEXT
100
AcDbText
 10
75.80037198214677
 20
-109.8137782867501
 30
0.0
 40
0.75
  1
1
 72
     1
 11
75.92537198214677
 21
-109.4387782867501
 31
0.0
100
AcDbText
 73
     2
  0
LINE
  5
5A2
330
1F
100
AcDbEntity
  8
BORDER
100
AcDbLine
 10
39.45014320599707
 20
-110.0818356057623
 30
0.0
 11
19.95553931088737
 21
-110.0818356057623
 31
0.0
  0
LINE
  5
5A3
330
1F
100
AcDbEntity
  8
BORDER
100
AcDbLine
 10
39.45014320599708
 20
-107.681835605762
 30
0.0
 11
39.45014320599707
 21
-110.0818356057623
 31
0.0
  0
LINE
  5
5A4
330
1F
100
AcDbEntity
  8
BORDER
100
AcDbLine
 10
19.95553931088737
 20
-109.4818356057623
 30
0.0
 11
39.45014320599707
 21
-109.4818356057623
 31
0.0
  0
LINE
  5
5A5
330
1F
100
AcDbEntity
  8
BORDER
100
AcDbLine
 10
33.81553931088746
 20
-109.4818356057623
 30
0.0
 11
33.81553931088746
 21
-108.8818356057624
 31
0.0
  0
TEXT
  5
5A6
330
1F
100
AcDbEntity
  8
TEXT
100
AcDbText
 10
34.58553931088749
 20
-109.3318356057623
 30
0.0
 40
0.3
  1
DATE
 72
     1
 11
35.13553931088749
 21
-109.1818356057623
 31
0.0
100
AcDbText
 73
     2
  0
LINE
  5
5A7
330
1F
100
AcDbEntity
  8
BORDER
100
AcDbLine
 10
36.45553931088745
 20
-109.4818356057623
 30
0.0
 11
36.45553931088745
 21
-108.8818356057624
 31
0.0
  0
TEXT
  5
5A8
330
1F
100
AcDbEntity
  8
TEXT
100
AcDbText
 10
36.95284125844243
 20
-109.3318356057623
 30
0.0
 40
0.3
  1
CHECKED
 72
     1
 11
37.95284125844244
 21
-109.1818356057623
 31
0.0
100
AcDbText
 73
     2
  0
TEXT
  5
5A9
330
1F
100
AcDbEntity
  8
TEXT
100
AcDbText
 10
26.04178931088777
 20
-109.3318356057623
 30
0.0
 40
0.3
  1
DESCRIPTION
 72
     1
 11
27.54178931088777
 21
-109.1818356057623
 31
0.0
100
AcDbText
 73
     2
  0
LINE
  5
5AA
330
1F
100
AcDbEntity
  8
BORDER
100
AcDbLine
 10
21.26803931088744
 20
-109.4818356057623
 30
0.0
 11
21.26803931088744
 21
-108.8818356057624
 31
0.0
  0
LINE
  5
5AB
330
1F
100
AcDbEntity
  8
BORDER
100
AcDbLine
 10
19.95553931088737
 20
-110.0818356057623
 30
0.0
 11
19.95553931088737
 21
-106.4818356057621
 31
0.0
  0
TEXT
  5
5AC
330
1F
100
AcDbEntity
  8
TEXT
100
AcDbText
 10
20.16178931088745
 20
-109.3318356057623
 30
0.0
 40
0.3
  1
REV
 72
     1
 11
20.61178931088745
 21
-109.1818356057623
 31
0.0
100
AcDbText
 73
     2
  0
LINE
  5
5AD
330
1F
100
AcDbEntity
  8
BORDER
100
AcDbLine
 10
39.45014320599707
 20
-108.8818356057624
 30
0.0
 11
19.95553931088737
 21
-108.8818356057624
 31
0.0
  0
LINE
  5
5AE
330
1F
100
AcDbEntity
  8
BORDER
100
AcDbLine
 10
39.45014320599707
 20
-109.4818356057623
 30
0.0
 11
19.95553931088737
 21
-109.4818356057623
 31
0.0
  0
LINE
  5
5AF
330
1F
100
AcDbEntity
  8
BORDER
100
AcDbLine
 10
33.81553931088746
 20
-108.8818356057624
 30
0.0
 11
33.81553931088746
 21
-107.681835605762
 31
0.0
  0
TEXT
  5
5B0
330
1F
100
AcDbEntity
  8
TEXT
100
AcDbText
 10
34.26053931088749
 20
-108.7318356057624
 30
0.0
 40
0.3
  1
8-13-10
 72
     1
 11
35.13553931088749
 21
-108.5818356057624
 31
0.0
100
AcDbText
 73
     2
  0
LINE
  5
5B1
330
1F
100
AcDbEntity
  8
BORDER
100
AcDbLine
 10
36.45553931088745
 20
-108.8818356057624
 30
0.0
 11
36.45553931088745
 21
-107.681835605762
 31
0.0
  0
TEXT
  5
5B2
330
1F
100
AcDbEntity
  8
TEXT
100
AcDbText
 10
37.55284125844243
 20
-108.7318356057624
 30
0.0
 40
0.3
  1
JJH
 72
     1
 11
37.95284125844244
 21
-108.5818356057624
 31
0.0
100
AcDbText
 73
     2
  0
TEXT
  5
5B3
330
1F
100
AcDbEntity
  8
TEXT
100
AcDbText
 10
25.49178931088777
 20
-108.7318356057624
 30
0.0
 40
0.3
  1
INITIAL RELEASE
 72
     1
 11
27.54178931088777
 21
-108.5818356057624
 31
0.0
100
AcDbText
 73
     2
  0
LINE
  5
5B4
330
1F
100
AcDbEntity
  8
BORDER
100
AcDbLine
 10
21.26803931088744
 20
-108.8818356057624
 30
0.0
 11
21.26803931088744
 21
-107.681835605762
 31
0.0
  0
TEXT
  5
5B5
330
1F
100
AcDbEntity
  8
TEXT
100
AcDbText
 10
20.53678931088745
 20
-108.7318356057624
 30
0.0
 40
0.3
  1
0
 72
     1
 11
20.61178931088745
 21
-108.5818356057624
 31
0.0
100
AcDbText
 73
     2
  0
LINE
  5
5B6
330
1F
100
AcDbEntity
  8
BORDER
100
AcDbLine
 10
39.45014320599707
 20
-108.2818356057622
 30
0.0
 11
19.95553931088737
 21
-108.2818356057622
 31
0.0
  0
TEXT
  5
7A2
330
1F
100
AcDbEntity
  8
DIM
100
AcDbText
 10
40.06141207463834
 20
-36.76760872712492
 30
0.0
 40
1.25
  1
IQ5000V16HA
 72
     1
 11
46.20724540797167
 21
-36.76760872712492
 31
0.0
100
AcDbText
  0
TEXT
  5
7A3
330
1F
100
AcDbEntity
  8
DIM
100
AcDbText
 10
37.66557874130501
 20
-45.10755905266814
 30
0.0
 40
1.25
  1
CUTOUT DRAWING
 72
     1
 11
46.20724540797167
 21
-45.10755905266814
 31
0.0
100
AcDbText
  0
TEXT
  5
7A4
330
1F
100
AcDbEntity
  8
DIM
100
AcDbText
 10
41.31141207463834
 20
-40.93427539379158
 30
0.0
 40
1.25
  1
IQ8000V16
 72
     1
 11
46.20724540797167
 21
-40.93427539379158
 31
0.0
100
AcDbText
  0
TEXT
  5
7A5
330
1F
100
AcDbEntity
  8
DIM
100
AcDbText
 10
40.06141207463834
 20
-38.85094206045824
 30
0.0
 40
1.25
  1
IQ6000V16HA
 72
     1
 11
46.20724540797167
 21
-38.85094206045824
 31
0.0
100
AcDbText
  0
TEXT
  5
7A6
330
1F
100
AcDbEntity
  8
DIM
100
AcDbText
 10
40.26974540797167
 20
-43.06123477163424
 30
0.0
 40
1.25
  1
480-400VAC
 72
     1
 11
46.20724540797167
 21
-43.06123477163424
 31
0.0
100
AcDbText
  0
DIMENSION
  5
ADD
330
1F
100
AcDbEntity
  8
DIM
100
AcDbDimension
  2
*D111
 10
51.68049022942584
 20
-68.14792660262561
 30
0.0
 11
32.1150097706977
 21
-77.62308461633601
 31
0.0
 70
   163
  1
<> (1)\POPTIONAL:\PETHERNET\PCONNECTION\PPORT
 71
     3
 42
1.250000000000014
  3
Standard
100
AcDbDiametricDimension
 15
50.656752293185
 25
-68.86518571752161
 35
0.0
 40
0.0
  0
CIRCLE
  5
ADE
330
1F
100
AcDbEntity
  8
DIM
100
AcDbCircle
 10
51.1686212613055
 20
-68.50655616007348
 30
0.0
 40
0.625
  0
CIRCLE
  5
ADF
330
1F
100
AcDbEntity
  8
DIM
100
AcDbCircle
 10
53.6686212613055
 20
-69.25655616007349
 30
0.0
 40
0.625
  0
CIRCLE
  5
AE0
330
1F
100
AcDbEntity
  8
DIM
100
AcDbCircle
 10
53.6686212613055
 20
-70.75655616007349
 30
0.0
 40
0.625
  0
ARC
  5
AE1
330
1F
100
AcDbEntity
  8
0
100
AcDbCircle
 10
46.81262126130505
 20
-76.2625561600738
 30
0.0
 40
0.109
100
AcDbArc
 50
180.0
 51
0.0
  0
LINE
  5
AE2
330
1F
100
AcDbEntity
  8
0
100
AcDbLine
 10
46.70362126130513
 20
-76.2625561600738
 30
0.0
 11
46.70362126130513
 21
-75.48055616007364
 31
0.0
  0
LINE
  5
AE3
330
1F
100
AcDbEntity
  8
0
100
AcDbLine
 10
46.92162126130497
 20
-76.2625561600738
 30
0.0
 11
46.92162126130497
 21
-75.48055616007364
 31
0.0
  0
ARC
  5
AE4
330
1F
100
AcDbEntity
  8
0
100
AcDbCircle
 10
46.81262126130505
 20
-75.48055616007364
 30
0.0
 40
0.109
100
AcDbArc
 50
0.0
 51
180.0
  0
ARC
  5
AE5
330
1F
100
AcDbEntity
  8
0
100
AcDbCircle
 10
48.5306212613049
 20
-76.2625561600738
 30
0.0
 40
0.109
100
AcDbArc
 50
180.0
 51
0.0
  0
LINE
  5
AE6
330
1F
100
AcDbEntity
  8
0
100
AcDbLine
 10
48.42162126130498
 20
-76.2625561600738
 30
0.0
 11
48.42162126130498
 21
-75.48055616007364
 31
0.0
  0
ARC
  5
AE7
330
1F
100
AcDbEntity
  8
0
100
AcDbCircle
 10
48.5306212613049
 20
-75.48055616007364
 30
0.0
 40
0.109
100
AcDbArc
 50
0.0
 51
180.0
  0
LINE
  5
AE8
330
1F
100
AcDbEntity
  8
0
100
AcDbLine
 10
48.63962126130482
 20
-76.2625561600738
 30
0.0
 11
48.63962126130482
 21
-75.48055616007364
 31
0.0
  0
LINE
  5
AE9
330
1F
100
AcDbEntity
  8
DIM
100
AcDbLine
 10
40.66862126130539
 20
-66.84655616007326
 30
0.0
 11
40.66862126130539
 21
-66.66655616007325
 31
0.0
  0
LINE
  5
AEA
330
1F
100
AcDbEntity
  8
DIM
100
AcDbLine
 10
40.57862126130538
 20
-66.75655616007325
 30
0.0
 11
40.75862126130539
 21
-66.75655616007325
 31
0.0
  0
LINE
  5
AEB
330
1F
100
AcDbEntity
  8
DIM
100
AcDbLine
 10
40.10862126130544
 20
-84.34657203007709
 30
0.0
 11
40.10862126130544
 21
-84.16657203007709
 31
0.0
  0
LINE
  5
AEC
330
1F
100
AcDbEntity
  8
DIM
100
AcDbLine
 10
40.01862126130544
 20
-84.25657203007709
 30
0.0
 11
40.19862126130544
 21
-84.25657203007709
 31
0.0
  0
LINE
  5
AED
330
1F
100
AcDbEntity
  8
DIM
100
AcDbLine
 10
40.10862126130544
 20
-94.59655616007349
 30
0.0
 11
40.10862126130544
 21
-94.41655616007349
 31
0.0
  0
LINE
  5
AEE
330
1F
100
AcDbEntity
  8
DIM
100
AcDbLine
 10
40.01862126130544
 20
-94.50655616007349
 30
0.0
 11
40.19862126130544
 21
-94.50655616007349
 31
0.0
  0
LINE
  5
AEF
330
1F
100
AcDbEntity
  8
DIM
100
AcDbLine
 10
53.97862126130568
 20
-94.59655616007349
 30
0.0
 11
53.97862126130568
 21
-94.41655616007349
 31
0.0
  0
LINE
  5
AF0
330
1F
100
AcDbEntity
  8
DIM
100
AcDbLine
 10
53.88862126130567
 20
-94.50655616007349
 30
0.0
 11
54.06862126130568
 21
-94.50655616007349
 31
0.0
  0
LINE
  5
AF1
330
1F
100
AcDbEntity
  8
DIM
100
AcDbLine
 10
53.97862126130568
 20
-84.34657203007619
 30
0.0
 11
53.97862126130568
 21
-84.16657203007618
 31
0.0
  0
LINE
  5
AF2
330
1F
100
AcDbEntity
  8
DIM
100
AcDbLine
 10
53.88862126130567
 20
-84.25657203007618
 30
0.0
 11
54.06862126130568
 21
-84.25657203007618
 31
0.0
  0
LINE
  5
AF3
330
1F
100
AcDbEntity
  8
DIM
100
AcDbLine
 10
53.6686212613055
 20
-70.84655616007349
 30
0.0
 11
53.6686212613055
 21
-70.66655616007349
 31
0.0
  0
LINE
  5
AF4
330
1F
100
AcDbEntity
  8
DIM
100
AcDbLine
 10
53.5786212613055
 20
-70.75655616007349
 30
0.0
 11
53.75862126130551
 21
-70.75655616007349
 31
0.0
  0
LINE
  5
AF5
330
1F
100
AcDbEntity
  8
DIM
100
AcDbLine
 10
53.4186212613055
 20
-66.84655616007326
 30
0.0
 11
53.4186212613055
 21
-66.66655616007325
 31
0.0
  0
LINE
  5
AF6
330
1F
100
AcDbEntity
  8
DIM
100
AcDbLine
 10
53.32862126130549
 20
-66.75655616007325
 30
0.0
 11
53.5086212613055
 21
-66.75655616007325
 31
0.0
  0
LINE
  5
AF7
330
1F
100
AcDbEntity
  8
DIM
100
AcDbLine
 10
51.1686212613055
 20
-68.59655616007349
 30
0.0
 11
51.1686212613055
 21
-68.41655616007348
 31
0.0
  0
LINE
  5
AF8
330
1F
100
AcDbEntity
  8
DIM
100
AcDbLine
 10
51.0786212613055
 20
-68.50655616007348
 30
0.0
 11
51.25862126130551
 21
-68.50655616007348
 31
0.0
  0
LINE
  5
AF9
330
1F
100
AcDbEntity
  8
DIM
100
AcDbLine
 10
53.6686212613055
 20
-69.34655616007349
 30
0.0
 11
53.6686212613055
 21
-69.16655616007348
 31
0.0
  0
LINE
  5
AFA
330
1F
100
AcDbEntity
  8
DIM
100
AcDbLine
 10
53.5786212613055
 20
-69.25655616007349
 30
0.0
 11
53.75862126130551
 21
-69.25655616007349
 31
0.0
  0
LINE
  5
AFB
330
1F
100
AcDbEntity
  8
DIM
100
AcDbLine
 10
54.48062126130563
 20
-57.84655616007349
 30
0.0
 11
54.48062126130563
 21
-57.66655616007348
 31
0.0
  0
LINE
  5
AFC
330
1F
100
AcDbEntity
  8
DIM
100
AcDbLine
 10
54.39062126130562
 20
-57.75655616007348
 30
0.0
 11
54.57062126130563
 21
-57.75655616007348
 31
0.0
  0
LINE
  5
AFD
330
1F
100
AcDbEntity
  8
DIM
100
AcDbLine
 10
39.60612126130539
 20
-57.84655616007349
 30
0.0
 11
39.60612126130539
 21
-57.66655616007348
 31
0.0
  0
LINE
  5
AFE
330
1F
100
AcDbEntity
  8
DIM
100
AcDbLine
 10
39.51612126130539
 20
-57.75655616007348
 30
0.0
 11
39.6961212613054
 21
-57.75655616007348
 31
0.0
  0
MTEXT
  5
AFF
330
1F
100
AcDbEntity
  8
DIM
100
AcDbMText
 10
60.46795459463874
 20
-57.34055616007355
 30
0.0
 40
1.0
 41
0.0
 71
     5
 72
     1
  1
\A1;42.101
 73
     1
 44
1.0
1001
ACAD
1000
MTEXTBEGIN
1070
    73
1070
     1
1070
    44
1040
1.0
1070
    74
1070
     0
1000
MTEXTEND
  0
DIMENSION
  5
B00
330
1F
100
AcDbEntity
  8
DIM
100
AcDbDimension
  2
*D112
 10
39.07762126130549
 20
-99.81655616007369
 30
0.0
 11
60.51621640207255
 21
-71.18243690794695
 31
0.0
 70
    38
 71
     5
 42
29.0600000000002
  3
Standard
100
AcDbOrdinateDimension
 13
53.6686212613055
 23
-70.75655616007349
 33
0.0
 14
58.09288306873921
 24
-71.18243690794695
 34
0.0
  0
DIMENSION
  5
B01
330
1F
100
AcDbEntity
  8
DIM
100
AcDbDimension
  2
*D113
 10
39.07762126130549
 20
-99.81655616007369
 30
0.0
 11
60.43295459463873
 21
-69.75655616007348
 31
0.0
 70
    38
 71
     5
 42
30.5600000000002
  3
Standard
100
AcDbOrdinateDimension
 13
53.6686212613055
 23
-69.25655616007349
 33
0.0
 14
58.00962126130539
 24
-69.75655616007348
 34
0.0
  0
DIMENSION
  5
B02
330
1F
100
AcDbEntity
  8
DIM
100
AcDbDimension
  2
*D114
 10
39.07762126130549
 20
-99.81655616007369
 30
0.0
 11
46.29803373853461
 21
-68.50655616007348
 31
0.0
 70
    38
 71
     5
 42
31.3100000000002
  3
Standard
100
AcDbOrdinateDimension
 13
51.1686212613055
 23
-68.50655616007348
 33
0.0
 14
48.47136707186795
 24
-68.50655616007348
 34
0.0
  0
DIMENSION
  5
B03
330
1F
100
AcDbEntity
  8
DIM
100
AcDbDimension
  2
*D115
 10
39.07762126130549
 20
-99.81655616007369
 30
0.0
 11
60.5996212613054
 21
-64.88155616007325
 31
0.0
 70
    38
 71
     5
 42
33.9350000000004
  3
Standard
100
AcDbOrdinateDimension
 13
54.41862126130548
 23
-65.88155616007329
 33
0.0
 14
58.00962126130539
 24
-64.88155616007325
 34
0.0
  0
DIMENSION
  5
B04
330
1F
100
AcDbEntity
  8
DIM
100
AcDbDimension
  2
*D116
 10
39.07762126130549
 20
-99.81655616007369
 30
0.0
 11
60.43295459463873
 21
-63.63155616007365
 31
0.0
 70
    38
 71
     5
 42
37.18500000000003
  3
Standard
100
AcDbOrdinateDimension
 13
54.4186212613055
 23
-62.63155616007366
 33
0.0
 14
58.00962126130539
 24
-63.63155616007365
 34
0.0
  0
DIMENSION
  5
B05
330
1F
100
AcDbEntity
  8
DIM
100
AcDbDimension
  2
*D117
 10
39.07762126130549
 20
-99.81655616007369
 30
0.0
 11
60.5996212613054
 21
-54.87805616007323
 31
0.0
 70
    38
 71
     5
 42
44.93850000000046
  3
Standard
100
AcDbOrdinateDimension
 13
53.52062126130562
 23
-54.87805616007323
 33
0.0
 14
58.00962126130539
 24
-54.87805616007323
 34
0.0
  0
DIMENSION
  5
B06
330
1F
100
AcDbEntity
  8
DIM
100
AcDbDimension
  2
*D118
 10
39.07762126130549
 20
-99.81655616007369
 30
0.0
 11
33.73762126130549
 21
-53.66655616007356
 31
0.0
 70
    38
 71
     5
 42
46.15000000000011
  3
Standard
100
AcDbOrdinateDimension
 13
39.07762126130549
 23
-53.66655616007356
 33
0.0
 14
36.0776212613055
 24
-53.66655616007356
 34
0.0
  0
DIMENSION
  5
B07
330
1F
100
AcDbEntity
  8
DIM
100
AcDbDimension
  2
*D119
 10
39.07762126130549
 20
-99.81655616007369
 30
0.0
 11
33.65428792797216
 21
-57.75655616007348
 31
0.0
 70
    38
 71
     5
 42
42.06000000000019
  3
Standard
100
AcDbOrdinateDimension
 13
39.60612126130539
 23
-57.75655616007348
 33
0.0
 14
36.0776212613055
 24
-57.75655616007348
 34
0.0
  0
DIMENSION
  5
B08
330
1F
100
AcDbEntity
  8
DIM
100
AcDbDimension
  2
*D120
 10
39.07762126130549
 20
-99.81655616007369
 30
0.0
 11
33.84272428262237
 21
-66.75655616007325
 31
0.0
 70
    38
 71
     5
 42
33.06000000000043
  3
Standard
100
AcDbOrdinateDimension
 13
40.66862126130539
 23
-66.75655616007325
 33
0.0
 14
36.2660576159557
 24
-66.75655616007325
 34
0.0
  0
DIMENSION
  5
B09
330
1F
100
AcDbEntity
  8
DIM
100
AcDbDimension
  2
*D121
 10
39.07762126130549
 20
-99.81655616007369
 30
0.0
 11
33.73762126130549
 21
-84.25657203007709
 31
0.0
 70
    38
 71
     5
 42
15.55998412999659
  3
Standard
100
AcDbOrdinateDimension
 13
40.10862126130544
 23
-84.25657203007709
 33
0.0
 14
36.0776212613055
 24
-84.25657203007709
 34
0.0
  0
DIMENSION
  5
B0A
330
1F
100
AcDbEntity
  8
DIM
100
AcDbDimension
  2
*D122
 10
39.07762126130549
 20
-99.81655616007369
 30
0.0
 11
33.64495652846637
 21
-94.50655616007349
 31
0.0
 70
    38
 71
     5
 42
5.310000000000201
  3
Standard
100
AcDbOrdinateDimension
 13
40.10862126130544
 23
-94.50655616007349
 33
0.0
 14
35.48495652846637
 24
-94.50655616007349
 34
0.0
  0
DIMENSION
  5
B0B
330
1F
100
AcDbEntity
  8
DIM
100
AcDbDimension
  2
*D123
 10
39.07762126130549
 20
-99.81655616007369
 30
0.0
 11
34.73219314573512
 21
-99.81655616007369
 31
0.0
 70
    38
 71
     5
 42
0.0
  3
Standard
100
AcDbOrdinateDimension
 13
39.07762126130549
 23
-99.81655616007369
 33
0.0
 14
36.48885981240179
 24
-99.81655616007369
 34
0.0
  0
DIMENSION
  5
B0C
330
1F
100
AcDbEntity
  8
DIM
100
AcDbDimension
  2
*D124
 10
39.07762126130549
 20
-99.81655616007369
 30
0.0
 11
39.07762126130551
 21
-104.2779839226291
 31
0.0
 70
   102
 71
     5
 42
0.0
  3
Standard
100
AcDbOrdinateDimension
 13
39.07762126130549
 23
-99.81655616007369
 33
0.0
 14
39.07762126130549
 24
-102.5213172559625
 34
0.0
  0
LINE
  5
B12
330
1F
100
AcDbEntity
  8
TEMPLATE
  6
DASHDOT
100
AcDbLine
 10
39.07762126130549
 20
-95.75655616007345
 30
0.0
 11
39.07762126130549
 21
-99.81655616007369
 31
0.0
  0
LINE
  5
B13
330
1F
100
AcDbEntity
  8
TEMPLATE
  6
DASHDOT
100
AcDbLine
 10
55.0096212613052
 20
-99.8165561600738
 30
0.0
 11
55.00962126130542
 21
-95.7565561600734
 31
0.0
  0
LINE
  5
B14
330
1F
100
AcDbEntity
  8
TEMPLATE
  6
DASHDOT
100
AcDbLine
 10
39.07762126130549
 20
-99.81655616007369
 30
0.0
 11
55.0096212613052
 21
-99.8165561600746
 31
0.0
  0
DIMENSION
  5
B15
330
1F
100
AcDbEntity
  8
0
100
AcDbDimension
  2
*D125
 10
39.07759662010543
 20
-95.75660190983088
 30
0.0
 11
48.04518950599189
 21
-81.12006335369729
 31
0.0
 70
   102
 71
     5
 42
12.09102464120007
  3
Standard
100
AcDbOrdinateDimension
 13
51.1686212613055
 23
-68.50655616007348
 33
0.0
 14
48.04518950599188
 24
-78.94673002036397
 34
0.0
  0
MTEXT
  5
B16
330
1F
100
AcDbEntity
  8
0
100
AcDbMText
 10
49.72462932262804
 20
-81.40659740735491
 30
0.0
 40
1.0
 41
0.0
 71
     5
 72
     1
  1
\A1;14.341
 11
0.0000000000000001
 21
1.0
 31
0.0
 73
     1
 44
1.0
1001
ACAD
1000
MTEXTBEGIN
1070
    73
1070
     1
1070
    44
1040
1.0
1070
    74
1070
     0
1000
MTEXTEND
  0
LINE
  5
B17
330
1F
100
AcDbEntity
  8
0
100
AcDbLine
 10
49.72462932262809
 20
-76.26135037938381
 30
0.0
 11
49.72462932262809
 21
-78.94673002036397
 31
0.0
  0
LINE
  5
B18
330
1F
100
AcDbEntity
  8
0
100
AcDbLine
 10
52.75599278739898
 20
-74.62011048763883
 30
0.0
 11
49.72462932262809
 21
-76.26135037938381
 31
0.0
  0
LINE
  5
B19
330
1F
100
AcDbEntity
  8
0
100
AcDbLine
 10
53.4186212613055
 20
-67.13155616007326
 30
0.0
 11
53.41862126130547
 21
-68.0254491239895
 31
0.0
  0
LINE
  5
B1A
330
1F
100
AcDbEntity
  8
0
100
AcDbLine
 10
52.75599278739903
 20
-68.0254491239895
 30
0.0
 11
52.75599278739901
 21
-74.6201104876388
 31
0.0
  0
LINE
  5
B1B
330
1F
100
AcDbEntity
  8
0
100
AcDbLine
 10
53.4186212613055
 20
-68.0254491239895
 30
0.0
 11
52.75599278739903
 21
-68.0254491239895
 31
0.0
  0
LINE
  5
B1C
330
1F
100
AcDbEntity
  8
0
100
AcDbLine
 10
53.6686212613055
 20
-70.39862717888986
 30
0.0
 11
53.6686212613055
 21
-69.6144851412571
 31
0.0
  0
MTEXT
  5
B1D
102
{ACAD_REACTORS
330
B1E
102
}
330
1F
100
AcDbEntity
  8
0
100
AcDbMText
 10
58.23379760552668
 20
-72.72100272340928
 30
0.0
 40
1.0
 41
8.294444444444444
 71
     1
 72
     1
  1
%%C1.250 (1) OPTIONAL:\PEXTERNAL HEAT OUTPUT
 73
     1
 44
1.0
1001
ACAD
1000
MTEXTBEGIN
1070
    73
1070
     1
1070
    44
1040
1.0
1070
    74
1070
     0
1000
MTEXTEND
  0
LEADER
  5
B1E
330
1F
100
AcDbEntity
  8
0
100
AcDbLeader
  3
Standard
 73
     0
 40
7.666666666666666
 41
7.666666666666666
 76
     3
 10
54.22470386771536
 20
-71.29549390395816
 30
0.0
 10
56.75755655768901
 20
-73.22100272340929
 30
0.0
 10
57.85879760552669
 20
-73.22100272340929
 30
0.0
213
0.0
223
-0.5
233
0.0
1001
ACAD
1000
DSTYLE
1002
{
1070
   147
1040
0.375
1070
    77
1070
     0
1002
}
  0
LEADER
  5
B1F
330
1F
100
AcDbEntity
  8
0
100
AcDbLeader
  3
Standard
 76
     3
 10
54.19009525312507
 20
-68.73108541113554
 30
0.0
 10
56.0330919894366
 20
-67.78549734866889
 30
0.0
 10
57.92589916942373
 20
-67.78549734866889
 30
0.0
1001
ACAD
1000
DSTYLE
1002
{
1070
   147
1040
0.375
1070
    77
1070
     0
1002
}
  0
DIMENSION
  5
B20
330
1F
100
AcDbEntity
  8
0
100
AcDbDimension
  2
*D126
 10
39.07762126130549
 20
-95.75655616007349
 30
0.0
 11
51.3438156383534
 21
-81.20339668703062
 31
0.0
 70
   102
  1
14.591
 71
     5
 42
14.591
  3
Standard
100
AcDbOrdinateDimension
 13
53.6686212613055
 23
-70.75655616007349
 33
0.0
 14
51.34381563835339
 24
-78.94673002036397
 34
0.0
  0
CIRCLE
  5
B21
330
1F
100
AcDbEntity
  8
TEMPLATE
100
AcDbCircle
 10
40.10862126130544
 20
-94.50655616007349
 30
0.0
 40
0.1875
  0
CIRCLE
  5
B22
330
1F
100
AcDbEntity
  8
TEMPLATE
100
AcDbCircle
 10
53.97862126130568
 20
-94.50655616007349
 30
0.0
 40
0.1875
  0
CIRCLE
  5
B23
330
1F
100
AcDbEntity
  8
TEMPLATE
100
AcDbCircle
 10
40.10862126130544
 20
-84.25657203007709
 30
0.0
 40
0.1875
  0
CIRCLE
  5
B24
330
1F
100
AcDbEntity
  8
TEMPLATE
100
AcDbCircle
 10
53.97862126130568
 20
-84.25657203007618
 30
0.0
 40
0.1875
  0
LINE
  5
B25
330
1F
100
AcDbEntity
  8
TEMPLATE
100
AcDbLine
 10
39.66862126130539
 20
-62.63155616007377
 30
0.0
 11
39.66862126130539
 21
-65.88155616007326
 31
0.0
  0
LINE
  5
B26
330
1F
100
AcDbEntity
  8
TEMPLATE
100
AcDbLine
 10
54.41862126130527
 20
-65.88155616007326
 30
0.0
 11
39.66862126130539
 21
-65.88155616007326
 31
0.0
  0
LINE
  5
B27
330
1F
100
AcDbEntity
  8
TEMPLATE
100
AcDbLine
 10
39.66862126130539
 20
-62.63155616007377
 30
0.0
 11
54.4186212613055
 21
-62.63155616007366
 31
0.0
  0
LINE
  5
B28
330
1F
100
AcDbEntity
  8
TEMPLATE
100
AcDbLine
 10
54.41862126130527
 20
-65.88155616007326
 30
0.0
 11
54.4186212613055
 21
-62.63155616007366
 31
0.0
  0
CIRCLE
  5
B29
330
1F
100
AcDbEntity
  8
TEMPLATE
100
AcDbCircle
 10
40.66862126130539
 20
-66.75655616007325
 30
0.0
 40
0.1875
  0
CIRCLE
  5
B2A
330
1F
100
AcDbEntity
  8
TEMPLATE
100
AcDbCircle
 10
53.4186212613055
 20
-66.75655616007325
 30
0.0
 40
0.1875
  0
CIRCLE
  5
B2B
330
1F
100
AcDbEntity
  8
TEMPLATE
100
AcDbCircle
 10
39.60612126130539
 20
-57.75655616007348
 30
0.0
 40
0.1875
  0
CIRCLE
  5
B2C
330
1F
100
AcDbEntity
  8
TEMPLATE
100
AcDbCircle
 10
54.48062126130563
 20
-57.75655616007348
 30
0.0
 40
0.1875
  0
LINE
  5
B2D
330
1F
100
AcDbEntity
  8
TEMPLATE
100
AcDbLine
 10
40.56962126130568
 20
-54.87805616007323
 30
0.0
 11
40.56962126130568
 21
-57.71555616007354
 31
0.0
  0
LINE
  5
B2E
330
1F
100
AcDbEntity
  8
TEMPLATE
100
AcDbLine
 10
45.0196212613055
 20
-57.7155561600736
 30
0.0
 11
40.56962126130568
 21
-57.71555616007354
 31
0.0
  0
LINE
  5
B2F
330
1F
100
AcDbEntity
  8
TEMPLATE
100
AcDbLine
 10
45.0196212613055
 20
-57.7155561600736
 30
0.0
 11
45.0196212613055
 21
-54.87805616007323
 31
0.0
  0
LINE
  5
B30
330
1F
100
AcDbEntity
  8
TEMPLATE
100
AcDbLine
 10
40.56962126130568
 20
-54.87805616007323
 30
0.0
 11
45.0196212613055
 21
-54.87805616007323
 31
0.0
  0
LINE
  5
B31
330
1F
100
AcDbEntity
  8
TEMPLATE
100
AcDbLine
 10
49.07062126130544
 20
-54.87805616007317
 30
0.0
 11
49.07062126130544
 21
-57.71555616007354
 31
0.0
  0
LINE
  5
B32
330
1F
100
AcDbEntity
  8
TEMPLATE
100
AcDbLine
 10
53.52062126130559
 20
-57.71555616007354
 30
0.0
 11
49.07062126130544
 21
-57.71555616007354
 31
0.0
  0
LINE
  5
B33
330
1F
100
AcDbEntity
  8
TEMPLATE
100
AcDbLine
 10
53.52062126130559
 20
-57.71555616007354
 30
0.0
 11
53.52062126130537
 21
-54.87805616007323
 31
0.0
  0
LINE
  5
B34
330
1F
100
AcDbEntity
  8
TEMPLATE
100
AcDbLine
 10
49.07062126130544
 20
-54.87805616007317
 30
0.0
 11
53.52062126130537
 21
-54.87805616007323
 31
0.0
  0
LINE
  5
B35
330
1F
100
AcDbEntity
  8
TEMPLATE
  6
DASHDOT
100
AcDbLine
 10
55.0096212613054
 20
-53.66655616007356
 30
0.0
 11
39.07762126130549
 21
-53.66655616007356
 31
0.0
  0
LINE
  5
B36
330
1F
100
AcDbEntity
  8
TEMPLATE
  6
DASHDOT
100
AcDbLine
 10
55.0096212613054
 20
-53.66655616007356
 30
0.0
 11
55.0096212613054
 21
-95.75655616007349
 31
0.0
  0
LINE
  5
B37
330
1F
100
AcDbEntity
  8
TEMPLATE
100
AcDbLine
 10
55.4186212613055
 20
-95.00655616007348
 30
0.0
 11
55.0096212613054
 21
-95.00655616007355
 31
0.0
  0
LINE
  5
B38
330
1F
100
AcDbEntity
  8
TEMPLATE
  6
HIDDEN
100
AcDbLine
 10
55.4186212613055
 20
-95.05555616007347
 30
0.0
 11
55.0096212613054
 21
-95.05555616007358
 31
0.0
  0
LINE
  5
B39
330
1F
100
AcDbEntity
  8
TEMPLATE
100
AcDbLine
 10
55.4186212613055
 20
-95.50655616007349
 30
0.0
 11
55.0096212613054
 21
-95.50655616007349
 31
0.0
  0
LINE
  5
B3A
330
1F
100
AcDbEntity
  8
TEMPLATE
  6
HIDDEN
100
AcDbLine
 10
55.4186212613055
 20
-95.45755616007351
 30
0.0
 11
55.0096212613054
 21
-95.45755616007356
 31
0.0
  0
LINE
  5
B3B
330
1F
100
AcDbEntity
  8
TEMPLATE
100
AcDbLine
 10
55.4186212613055
 20
-95.50655616007349
 30
0.0
 11
55.4186212613055
 21
-95.00655616007348
 31
0.0
  0
LINE
  5
B3C
330
1F
100
AcDbEntity
  8
TEMPLATE
  6
DASHDOT
100
AcDbLine
 10
39.07762126130549
 20
-53.66655616007356
 30
0.0
 11
39.07762126130549
 21
-95.75655616007349
 31
0.0
  0
DIMENSION
  5
B3D
330
1F
100
AcDbEntity
  8
DIM
100
AcDbDimension
  2
*D127
 10
39.07759662010543
 20
-95.75660190983088
 30
0.0
 11
41.10862126130546
 21
-104.4796505892958
 31
0.0
 70
   102
 71
     5
 42
1.031024641200019
  3
Standard
100
AcDbOrdinateDimension
 13
40.10862126130544
 23
-94.50655616007349
 33
0.0
 14
41.10862126130544
 24
-102.5213172559625
 34
0.0
1001
ACAD
1000
DSTYLE
1002
{
1070
    41
1040
1.0
1070
    42
1040
0.375
1070
    43
1040
2.125
1070
    44
1040
1.0
1070
   140
1040
1.0
1070
   141
1040
0.5
1070
   147
1040
0.375
1070
   271
1070
     3
1070
   272
1070
     3
1070
   288
1070
     1
1002
}
  0
DIMENSION
  5
B3E
330
1F
100
AcDbEntity
  8
DIM
100
AcDbDimension
  2
*D128
 10
39.07759662010543
 20
-95.75660190983088
 30
0.0
 11
52.97862126130569
 21
-104.9796505892958
 31
0.0
 70
   102
 71
     5
 42
14.90102464120025
  3
Standard
100
AcDbOrdinateDimension
 13
53.97862126130568
 23
-94.50655616007349
 33
0.0
 14
52.97862126130567
 24
-102.5213172559625
 34
0.0
1001
ACAD
1000
DSTYLE
1002
{
1070
    41
1040
1.0
1070
    42
1040
0.375
1070
    43
1040
2.125
1070
    44
1040
1.0
1070
   140
1040
1.0
1070
   141
1040
0.5
1070
   147
1040
0.375
1070
   271
1070
     3
1070
   272
1070
     3
1070
   288
1070
     1
1002
}
  0
LINE
  5
B3F
330
1F
100
AcDbEntity
  8
DIM
100
AcDbLine
 10
39.60612126130539
 20
-57.38155616007349
 30
0.0
 11
39.60612126130539
 21
-53.04155616007356
 31
0.0
  0
LINE
  5
B40
330
1F
100
AcDbEntity
  8
DIM
100
AcDbLine
 10
38.04362126130539
 20
-51.04155616007357
 30
0.0
 11
39.60612126130539
 21
-53.04155616007356
 31
0.0
  0
LINE
  5
B41
330
1F
100
AcDbEntity
  8
DIM
100
AcDbLine
 10
38.04362126130539
 20
-50.66655616007357
 30
0.0
 11
38.04362126130539
 21
-51.04155616007357
 31
0.0
  0
TEXT
  5
B42
330
1F
100
AcDbEntity
  8
DIM
100
AcDbText
 10
38.54362126130539
 20
-50.29155616007357
 30
0.0
 40
1.0
  1
0.529
 50
90.0
 11
38.04362126130539
 21
-50.29155616007357
 31
0.0
100
AcDbText
 73
     2
  0
LINE
  5
B43
330
1F
100
AcDbEntity
  8
DIM
100
AcDbLine
 10
39.66862126130539
 20
-62.25655616007377
 30
0.0
 11
39.66862126130539
 21
-58.50655616007348
 31
0.0
  0
LINE
  5
B44
330
1F
100
AcDbEntity
  8
DIM
100
AcDbLine
 10
39.54362126130539
 20
-50.66655616007357
 30
0.0
 11
39.54362126130539
 21
-51.04155616007357
 31
0.0
  0
TEXT
  5
B45
330
1F
100
AcDbEntity
  8
DIM
100
AcDbText
 10
40.04362126130539
 20
-50.29155616007357
 30
0.0
 40
1.0
  1
0.591
 50
90.0
 11
39.54362126130539
 21
-50.29155616007357
 31
0.0
100
AcDbText
 73
     2
  0
LINE
  5
B46
330
1F
100
AcDbEntity
  8
DIM
100
AcDbLine
 10
40.56962126130545
 20
-54.50305616007323
 30
0.0
 11
40.56962126130545
 21
-53.04155616007356
 31
0.0
  0
LINE
  5
B47
330
1F
100
AcDbEntity
  8
DIM
100
AcDbLine
 10
41.04362126130538
 20
-50.66655616007357
 30
0.0
 11
41.04362126130538
 21
-51.04155616007357
 31
0.0
  0
LINE
  5
B48
330
1F
100
AcDbEntity
  8
DIM
100
AcDbLine
 10
41.04362126130538
 20
-51.04155616007357
 30
0.0
 11
40.56962126130568
 21
-53.04155616007356
 31
0.0
  0
TEXT
  5
B49
330
1F
100
AcDbEntity
  8
DIM
100
AcDbText
 10
41.54362126130538
 20
-50.29155616007357
 30
0.0
 40
1.0
  1
1.492
 50
90.0
 11
41.04362126130538
 21
-50.29155616007357
 31
0.0
100
AcDbText
 73
     2
  0
LINE
  5
B4A
330
1F
100
AcDbEntity
  8
DIM
100
AcDbLine
 10
54.48062126130563
 20
-57.38155616007349
 30
0.0
 11
54.48062126130563
 21
-53.04155616007356
 31
0.0
  0
LINE
  5
B4B
330
1F
100
AcDbEntity
  8
DIM
100
AcDbLine
 10
56.0436212613055
 20
-50.66655616007357
 30
0.0
 11
56.0436212613055
 21
-51.04155616007357
 31
0.0
  0
LINE
  5
B4C
330
1F
100
AcDbEntity
  8
DIM
100
AcDbLine
 10
56.0436212613055
 20
-51.04155616007357
 30
0.0
 11
54.48062126130563
 21
-53.04155616007356
 31
0.0
  0
TEXT
  5
B4D
330
1F
100
AcDbEntity
  8
DIM
100
AcDbText
 10
56.5436212613055
 20
-50.29155616007357
 30
0.0
 40
1.0
  1
15.403
 50
90.0
 11
56.0436212613055
 21
-50.29155616007357
 31
0.0
100
AcDbText
 73
     2
  0
LINE
  5
B4E
330
1F
100
AcDbEntity
  8
DIM
100
AcDbLine
 10
54.41862126130539
 20
-62.25655616007365
 30
0.0
 11
54.41862126130539
 21
-58.50655616007348
 31
0.0
  0
LINE
  5
B4F
330
1F
100
AcDbEntity
  8
DIM
100
AcDbLine
 10
54.54362126130551
 20
-50.66655616007357
 30
0.0
 11
54.54362126130551
 21
-51.04155616007357
 31
0.0
  0
TEXT
  5
B50
330
1F
100
AcDbEntity
  8
DIM
100
AcDbText
 10
55.0436212613055
 20
-50.29155616007357
 30
0.0
 40
1.0
  1
15.341
 50
90.0
 11
54.54362126130551
 21
-50.29155616007357
 31
0.0
100
AcDbText
 73
     2
  0
LINE
  5
B51
330
1F
100
AcDbEntity
  8
DIM
100
AcDbLine
 10
53.52062126130537
 20
-54.50305616007323
 30
0.0
 11
53.52062126130537
 21
-53.04155616007356
 31
0.0
  0
LINE
  5
B52
330
1F
100
AcDbEntity
  8
DIM
100
AcDbLine
 10
51.5436212613055
 20
-50.66655616007357
 30
0.0
 11
51.5436212613055
 21
-51.04155616007357
 31
0.0
  0
LINE
  5
B53
330
1F
100
AcDbEntity
  8
DIM
100
AcDbLine
 10
51.5436212613055
 20
-51.04155616007357
 30
0.0
 11
53.52062126130537
 21
-53.04155616007356
 31
0.0
  0
TEXT
  5
B54
330
1F
100
AcDbEntity
  8
DIM
100
AcDbText
 10
52.04362126130551
 20
-50.29155616007357
 30
0.0
 40
1.0
  1
14.443
 50
90.0
 11
51.5436212613055
 21
-50.29155616007357
 31
0.0
100
AcDbText
 73
     2
  0
LINE
  5
B55
330
1F
100
AcDbEntity
  8
DIM
100
AcDbLine
 10
49.07062126130566
 20
-54.50305616007317
 30
0.0
 11
49.07062126130566
 21
-53.04155616007356
 31
0.0
  0
LINE
  5
B56
330
1F
100
AcDbEntity
  8
DIM
100
AcDbLine
 10
45.0196212613055
 20
-54.50305616007323
 30
0.0
 11
45.0196212613055
 21
-53.04155616007356
 31
0.0
  0
LINE
  5
B57
330
1F
100
AcDbEntity
  8
DIM
100
AcDbLine
 10
48.54362126130538
 20
-50.66655616007357
 30
0.0
 11
48.54362126130538
 21
-51.04155616007357
 31
0.0
  0
LINE
  5
B58
330
1F
100
AcDbEntity
  8
DIM
100
AcDbLine
 10
48.54362126130538
 20
-51.04155616007357
 30
0.0
 11
49.07062126130544
 21
-53.04155616007356
 31
0.0
  0
LINE
  5
B59
330
1F
100
AcDbEntity
  8
DIM
100
AcDbLine
 10
45.54362126130539
 20
-50.66655616007357
 30
0.0
 11
45.54362126130539
 21
-51.04155616007357
 31
0.0
  0
LINE
  5
B5A
330
1F
100
AcDbEntity
  8
DIM
100
AcDbLine
 10
45.54362126130539
 20
-51.04155616007357
 30
0.0
 11
45.0196212613055
 21
-53.04155616007356
 31
0.0
  0
TEXT
  5
B5B
330
1F
100
AcDbEntity
  8
DIM
100
AcDbText
 10
49.04362126130539
 20
-50.29155616007357
 30
0.0
 40
1.0
  1
9.993
 50
90.0
 11
48.54362126130538
 21
-50.29155616007357
 31
0.0
100
AcDbText
 73
     2
  0
TEXT
  5
B5C
330
1F
100
AcDbEntity
  8
DIM
100
AcDbText
 10
46.04362126130538
 20
-50.29155616007357
 30
0.0
 40
1.0
  1
5.942
 50
90.0
 11
45.54362126130539
 21
-50.29155616007357
 31
0.0
100
AcDbText
 73
     2
  0
DIMENSION
  5
B5D
330
1F
100
AcDbEntity
  8
DIM
100
AcDbDimension
  2
*D129
 10
39.07759662010543
 20
-95.75660190983088
 30
0.0
 11
55.00962126130531
 21
-104.0647700413514
 31
0.0
 70
   102
 71
     5
 42
15.93202464119977
  3
Standard
100
AcDbOrdinateDimension
 13
55.0096212613052
 23
-99.8165561600738
 33
0.0
 14
55.0096212613053
 24
-101.3564367080181
 34
0.0
1001
ACAD
1000
DSTYLE
1002
{
1070
    41
1040
1.0
1070
    42
1040
0.375
1070
    43
1040
2.125
1070
    44
1040
1.0
1070
   140
1040
1.0
1070
   141
1040
0.5
1070
   147
1040
0.375
1070
   271
1070
     3
1070
   272
1070
     3
1070
   288
1070
     1
1002
}
  0
LINE
  5
B5E
330
1F
100
AcDbEntity
  8
DIM
100
AcDbLine
 10
40.04362126130539
 20
-58.13155616007349
 30
0.0
 11
40.04362126130539
 21
-53.04155616007356
 31
0.0
  0
LINE
  5
B5F
330
1F
100
AcDbEntity
  8
DIM
100
AcDbLine
 10
54.04362126130539
 20
-58.13155616007349
 30
0.0
 11
54.0436212613055
 21
-53.04155616007356
 31
0.0
  0
LINE
  5
B60
330
1F
100
AcDbEntity
  8
DIM
100
AcDbLine
 10
40.04362126130539
 20
-58.13155616007349
 30
0.0
 11
39.66862126130539
 21
-58.50655616007348
 31
0.0
  0
LINE
  5
B61
330
1F
100
AcDbEntity
  8
DIM
100
AcDbLine
 10
54.04362126130539
 20
-58.13155616007349
 30
0.0
 11
54.41862126130539
 21
-58.50655616007348
 31
0.0
  0
LINE
  5
B62
330
1F
100
AcDbEntity
  8
DIM
100
AcDbLine
 10
39.54362126130539
 20
-51.04155616007357
 30
0.0
 11
40.04362126130539
 21
-53.04155616007356
 31
0.0
  0
LINE
  5
B63
330
1F
100
AcDbEntity
  8
DIM
100
AcDbLine
 10
54.54362126130551
 20
-51.04155616007357
 30
0.0
 11
54.0436212613055
 21
-53.04155616007356
 31
0.0
  0
LINE
  5
B64
330
1F
100
AcDbEntity
  8
DIM
100
AcDbLine
 10
53.70812126130559
 20
-57.71555616007354
 30
0.0
 11
53.89562126130559
 21
-57.71555616007354
 31
0.0
  0
LINE
  5
B65
330
1F
100
AcDbEntity
  8
DIM
100
AcDbLine
 10
54.10562126130563
 20
-57.34055616007355
 30
0.0
 11
58.00962126130539
 21
-57.34055616007355
 31
0.0
  0
LINE
  5
B66
330
1F
100
AcDbEntity
  8
DIM
100
AcDbLine
 10
53.89562126130559
 20
-57.71555616007354
 30
0.0
 11
54.10562126130563
 21
-57.34055616007355
 31
0.0
  0
LINE
  5
B67
330
1F
100
AcDbEntity
  8
DIM
100
AcDbLine
 10
40.66862126130561
 20
-67.13155616007326
 30
0.0
 11
40.66862126130539
 21
-68.25905616007348
 31
0.0
  0
TEXT
  5
B68
330
1F
100
AcDbEntity
  8
DIM
100
AcDbText
 10
41.16862126130539
 20
-71.96738949340681
 30
0.0
 40
1.0
  1
1.591
 50
90.0
 72
     2
 11
40.66862126130539
 21
-68.63405616007348
 31
0.0
100
AcDbText
 73
     2
  0
MTEXT
  5
B69
330
1F
100
AcDbEntity
  8
DIM
100
AcDbMText
 10
58.3846212613054
 20
-67.37234724489177
 30
0.0
 40
1.0
 41
0.0
 71
     1
 72
     1
  1
%%c1.250 (1)
 73
     1
 44
1.0
1001
ACAD
1000
MTEXTBEGIN
1070
    73
1070
     1
1070
    44
1040
1.0
1070
    74
1070
     0
1000
MTEXTEND
  0
LEADER
  5
B6A
330
1F
100
AcDbEntity
  8
DIM
100
AcDbLeader
  3
Standard
 73
     0
 40
1.0
 41
7.333333333333333
 76
     3
 10
54.32508304077092
 20
-94.07762637089406
 30
0.0
 10
57.0096212613054
 20
-92.50655616007348
 30
0.0
 10
58.00962126130539
 20
-92.50655616007348
 30
0.0
213
0.0
223
-0.5
233
0.0
1001
ACAD
1000
DSTYLE
1002
{
1070
    77
1070
     0
1070
    41
1040
1.0
1070
    42
1040
0.375
1070
    43
1040
2.125
1070
    44
1040
1.0
1070
   140
1040
1.0
1070
   141
1040
0.5
1070
   147
1040
0.375
1070
   271
1070
     3
1070
   272
1070
     3
1070
   288
1070
     1
1002
}
  0
MTEXT
  5
B6B
102
{ACAD_REACTORS
330
B6A
102
}
330
1F
100
AcDbEntity
  8
DIM
100
AcDbMText
 10
58.3846212613054
 20
-92.00655616007349
 30
0.0
 40
1.0
 41
0.0
 71
     1
 72
     1
  1
%%c.375 (8)
 73
     1
 44
1.0
1001
ACAD
1000
MTEXTBEGIN
1070
    73
1070
     1
1070
    44
1040
1.0
1070
    74
1070
     0
1000
MTEXTEND
  0
TEXT
  5
D01
330
1F
100
AcDbEntity
  8
TEXT
100
AcDbText
 10
20.56178931088745
 20
-108.1318356057622
 30
0.0
 40
0.3
  1
1
 72
     1
 11
20.61178931088745
 21
-107.9818356057622
 31
0.0
100
AcDbText
 73
     2
  0
TEXT
  5
D02
330
1F
100
AcDbEntity
  8
TEXT
100
AcDbText
 10
21.61678931088777
 20
-108.1318356057622
 30
0.0
 40
0.3
  1
ETHERNET CONNECTION PORT %%C1.250 WAS %%C0.750
 72
     1
 11
27.54178931088777
 21
-107.9818356057622
 31
0.0
100
AcDbText
 73
     2
  0
TEXT
  5
D03
330
1F
100
AcDbEntity
  8
TEXT
100
AcDbText
 10
34.23553931088749
 20
-108.1318356057622
 30
0.0
 40
0.3
  1
6-24-11
 72
     1
 11
35.13553931088749
 21
-107.9818356057622
 31
0.0
100
AcDbText
 73
     2
  0
TEXT
  5
D04
330
1F
100
AcDbEntity
  8
TEXT
100
AcDbText
 10
37.55284125844243
 20
-108.1318356057622
 30
0.0
 40
0.3
  1
JJH
 72
     1
 11
37.95284125844244
 21
-107.9818356057622
 31
0.0
100
AcDbText
 73
     2
  0
LINE
  5
D05
330
1F
100
AcDbEntity
  8
BORDER
100
AcDbLine
 10
39.45014320599707
 20
-107.681835605762
 30
0.0
 11
19.95553931088737
 21
-107.681835605762
 31
0.0
  0
ENDSEC
  0
SECTION
  2
OBJECTS
  0
DICTIONARY
  5
C
330
0
100
AcDbDictionary
281
     1
  3
ACAD_COLOR
350
73
  3
ACAD_GROUP
350
D
  3
ACAD_LAYOUT
350
1A
  3
ACAD_MATERIAL
350
72
  3
ACAD_MLINESTYLE
350
17
  3
ACAD_PLOTSETTINGS
350
19
  3
ACAD_PLOTSTYLENAME
350
E
  3
ACDBHEADERROUNDTRIPXREC
350
D13
  3
AcDbVariableDictionary
350
66
  3
DWGPROPS
350
D12
  0
DICTIONARY
  5
176
330
2
100
AcDbDictionary
280
     1
281
     1
  3
ACAD_LAYERSTATES
360
177
  0
DICTIONARY
  5
73
102
{ACAD_REACTORS
330
C
102
}
330
C
100
AcDbDictionary
281
     1
  0
DICTIONARY
  5
D
102
{ACAD_REACTORS
330
C
102
}
330
C
100
AcDbDictionary
281
     1
  0
DICTIONARY
  5
1A
102
{ACAD_REACTORS
330
C
102
}
330
C
100
AcDbDictionary
281
     1
  3
Layout1
350
59
  3
Layout2
350
5E
  3
Model
350
22
  0
DICTIONARY
  5
72
102
{ACAD_REACTORS
330
C
102
}
330
C
100
AcDbDictionary
281
     1
  0
DICTIONARY
  5
17
102
{ACAD_REACTORS
330
C
102
}
330
C
100
AcDbDictionary
281
     1
  3
Standard
350
18
  0
DICTIONARY
  5
19
102
{ACAD_REACTORS
330
C
102
}
330
C
100
AcDbDictionary
281
     1
  0
ACDBDICTIONARYWDFLT
  5
E
102
{ACAD_REACTORS
330
C
102
}
330
C
100
AcDbDictionary
281
     1
  3
Normal
350
F
100
AcDbDictionaryWithDefault
340
F
  0
DICTIONARY
  5
D13
102
{ACAD_REACTORS
330
C
102
}
330
C
100
AcDbDictionary
281
     1
  3
COLORDICT
350
D15
  3
MATERIALDICT
350
D14
  0
DICTIONARY
  5
66
102
{ACAD_REACTORS
330
C
102
}
330
C
100
AcDbDictionary
281
     1
  3
DIMASSOC
350
67
  3
HIDETEXT
350
6B
  3
PROJECTNAME
350
5BF
  0
XRECORD
  5
D12
102
{ACAD_REACTORS
330
C
102
}
330
C
100
AcDbXrecord
280
     1
  1
DWGPROPS COOKIE
  2

  3

  4

  6

  7

  8

  9

300
=
301
=
302
=
303
=
304
=
305
=
306
=
307
=
308
=
309
=
 40
0.0852702546296296
 41
2455309.386685521
 42
2455737.44743706
  1

 90
        0
  0
DICTIONARY
  5
177
102
{ACAD_REACTORS
330
176
102
}
330
176
100
AcDbDictionary
281
     1
  0
LAYOUT
  5
59
102
{ACAD_XDICTIONARY
360
D18
102
}
102
{ACAD_REACTORS
330
1A
102
}
330
1A
100
AcDbPlotSettings
  1

  2
None
  4

  6

 40
0.0
 41
0.0
 42
0.0
 43
0.0
 44
0.0
 45
0.0
 46
0.0
 47
0.0
 48
0.0
 49
0.0
140
0.0
141
0.0
142
1.0
143
1.0
 70
   688
 72
     0
 73
     0
 74
     5
  7

 75
    16
147
1.0
148
0.0
149
0.0
100
AcDbLayout
  1
Layout1
 70
     1
 71
     1
 10
0.0
 20
0.0
 11
12.0
 21
9.0
 12
0.0
 22
0.0
 32
0.0
 14
0.0
 24
0.0
 34
0.0
 15
0.0
 25
0.0
 35
0.0
146
0.0
 13
0.0
 23
0.0
 33
0.0
 16
1.0
 26
0.0
 36
0.0
 17
0.0
 27
1.0
 37
0.0
 76
     0
330
58
  0
LAYOUT
  5
5E
102
{ACAD_XDICTIONARY
360
D1A
102
}
102
{ACAD_REACTORS
330
1A
102
}
330
1A
100
AcDbPlotSettings
  1

  2
None
  4

  6

 40
0.0
 41
0.0
 42
0.0
 43
0.0
 44
0.0
 45
0.0
 46
0.0
 47
0.0
 48
0.0
 49
0.0
140
0.0
141
0.0
142
1.0
143
1.0
 70
   688
 72
     0
 73
     0
 74
     5
  7

 75
    16
147
1.0
148
0.0
149
0.0
100
AcDbLayout
  1
Layout2
 70
     1
 71
     2
 10
0.0
 20
0.0
 11
12.0
 21
9.0
 12
0.0
 22
0.0
 32
0.0
 14
0.0
 24
0.0
 34
0.0
 15
0.0
 25
0.0
 35
0.0
146
0.0
 13
0.0
 23
0.0
 33
0.0
 16
1.0
 26
0.0
 36
0.0
 17
0.0
 27
1.0
 37
0.0
 76
     0
330
5D
  0
LAYOUT
  5
22
102
{ACAD_XDICTIONARY
360
D16
102
}
102
{ACAD_REACTORS
330
1A
102
}
330
1A
100
AcDbPlotSettings
  1

  2
none_device
  4
ANSI_A_(8.50_x_11.00_Inches)
  6

 40
6.349999904632567
 41
19.04999923706055
 42
6.350006103515625
 43
19.04998779296875
 44
215.8999938964844
 45
279.3999938964844
 46
0.0
 47
0.0
 48
0.0
 49
0.0
140
0.0
141
0.0
142
1.0
143
2.584895464708373
 70
 11952
 72
     0
 73
     1
 74
     0
  7

 75
     0
147
0.3868628397755418
148
0.0
149
0.0
100
AcDbLayout
  1
Model
 70
     1
 71
     0
 10
0.0
 20
0.0
 11
12.0
 21
9.0
 12
0.0
 22
0.0
 32
0.0
 14
0.0
 24
0.0
 34
0.0
 15
0.0
 25
0.0
 35
0.0
146
0.0
 13
0.0
 23
0.0
 33
0.0
 16
1.0
 26
0.0
 36
0.0
 17
0.0
 27
1.0
 37
0.0
 76
     0
330
1F
  0
MLINESTYLE
  5
18
102
{ACAD_REACTORS
330
17
102
}
330
17
100
AcDbMlineStyle
  2
STANDARD
 70
     0
  3

 62
   256
 51
90.0
 52
90.0
 71
     2
 49
0.5
 62
   256
  6
BYLAYER
 49
-0.5
 62
   256
  6
BYLAYER
  0
ACDBPLACEHOLDER
  5
F
102
{ACAD_REACTORS
330
E
102
}
330
E
  0
XRECORD
  5
D15
102
{ACAD_REACTORS
330
D13
102
}
330
D13
100
AcDbXrecord
280
     1
340
73
  0
XRECORD
  5
D14
102
{ACAD_REACTORS
330
D13
102
}
330
D13
100
AcDbXrecord
280
     1
340
72
  0
DICTIONARYVAR
  5
67
102
{ACAD_REACTORS
330
66
102
}
330
66
100
DictionaryVariables
280
     0
  1
2
  0
DICTIONARYVAR
  5
6B
102
{ACAD_REACTORS
330
66
102
}
330
66
100
DictionaryVariables
280
     0
  1
1
  0
DICTIONARYVAR
  5
5BF
102
{ACAD_REACTORS
330
66
102
}
330
66
100
DictionaryVariables
280
     0
  1

  0
DICTIONARY
  5
D18
330
59
100
AcDbDictionary
280
     1
281
     1
  3
ACAD_XREC_ROUNDTRIP
360
D19
  0
DICTIONARY
  5
D1A
330
5E
100
AcDbDictionary
280
     1
281
     1
  3
ACAD_XREC_ROUNDTRIP
360
D1B
  0
DICTIONARY
  5
D16
330
22
100
AcDbDictionary
280
     1
281
     1
  3
ACAD_XREC_ROUNDTRIP
360
D17
  0
XRECORD
  5
D19
102
{ACAD_REACTORS
330
D18
102
}
330
D18
100
AcDbXrecord
280
     1
102
SHADEPLOT
 70
     0
102
SHADEPLOTRESLEVEL
 70
     2
102
SHADEPLOTCUSTOMDPI
 70
   300
  0
XRECORD
  5
D1B
102
{ACAD_REACTORS
330
D1A
102
}
330
D1A
100
AcDbXrecord
280
     1
102
SHADEPLOT
 70
     0
102
SHADEPLOTRESLEVEL
 70
     2
102
SHADEPLOTCUSTOMDPI
 70
   300
  0
XRECORD
  5
D17
102
{ACAD_REACTORS
330
D16
102
}
330
D16
100
AcDbXrecord
280
     1
102
SHADEPLOT
 70
     0
102
SHADEPLOTRESLEVEL
 70
     2
102
SHADEPLOTCUSTOMDPI
 70
   300
  0
ENDSEC
  0
EOF
