  0
SECTION
  2
HEADER
  9
$ACADVER
  1
AC1015
  9
$ACADMAINTVER
 70
    20
  9
$DWGCODEPAGE
  3
ANSI_1252
  9
$INSBASE
 10
0.0
 20
0.0
 30
0.0
  9
$EXTMIN
 10
6.633099030800138
 20
3.26690230516435
 30
-0.0015258207003583
  9
$EXTMAX
 10
40.73081969189679
 20
48.1353948246916
 30
0.0000000349246037
  9
$LIMMIN
 10
0.0
 20
0.0
  9
$LIMMAX
 10
12.0
 20
9.0
  9
$ORTHOMODE
 70
     0
  9
$REGENMODE
 70
     1
  9
$FILLMODE
 70
     1
  9
$QTEXTMODE
 70
     0
  9
$MIRRTEXT
 70
     0
  9
$LTSCALE
 40
1.0
  9
$ATTMODE
 70
     1
  9
$TEXTSIZE
 40
0.2
  9
$TRACEWID
 40
0.05
  9
$TEXTSTYLE
  7
Standard
  9
$CLAYER
  8
0
  9
$CELTYPE
  6
ByLayer
  9
$CECOLOR
 62
   256
  9
$CELTSCALE
 40
1.0
  9
$DISPSILH
 70
     0
  9
$DIMSCALE
 40
1.0
  9
$DIMASZ
 40
0.18
  9
$DIMEXO
 40
0.0625
  9
$DIMDLI
 40
0.38
  9
$DIMRND
 40
0.0
  9
$DIMDLE
 40
0.0
  9
$DIMEXE
 40
0.18
  9
$DIMTP
 40
0.0
  9
$DIMTM
 40
0.0
  9
$DIMTXT
 40
0.18
  9
$DIMCEN
 40
0.09
  9
$DIMTSZ
 40
0.0
  9
$DIMTOL
 70
     0
  9
$DIMLIM
 70
     0
  9
$DIMTIH
 70
     1
  9
$DIMTOH
 70
     1
  9
$DIMSE1
 70
     0
  9
$DIMSE2
 70
     0
  9
$DIMTAD
 70
     0
  9
$DIMZIN
 70
     0
  9
$DIMBLK
  1

  9
$DIMASO
 70
     1
  9
$DIMSHO
 70
     1
  9
$DIMPOST
  1

  9
$DIMAPOST
  1

  9
$DIMALT
 70
     0
  9
$DIMALTD
 70
     2
  9
$DIMALTF
 40
25.4
  9
$DIMLFAC
 40
1.0
  9
$DIMTOFL
 70
     0
  9
$DIMTVP
 40
0.0
  9
$DIMTIX
 70
     0
  9
$DIMSOXD
 70
     0
  9
$DIMSAH
 70
     0
  9
$DIMBLK1
  1

  9
$DIMBLK2
  1

  9
$DIMSTYLE
  2
Standard
  9
$DIMCLRD
 70
     0
  9
$DIMCLRE
 70
     0
  9
$DIMCLRT
 70
     0
  9
$DIMTFAC
 40
1.0
  9
$DIMGAP
 40
0.09
  9
$DIMJUST
 70
     0
  9
$DIMSD1
 70
     0
  9
$DIMSD2
 70
     0
  9
$DIMTOLJ
 70
     1
  9
$DIMTZIN
 70
     0
  9
$DIMALTZ
 70
     0
  9
$DIMALTTZ
 70
     0
  9
$DIMUPT
 70
     0
  9
$DIMDEC
 70
     4
  9
$DIMTDEC
 70
     4
  9
$DIMALTU
 70
     2
  9
$DIMALTTD
 70
     2
  9
$DIMTXSTY
  7
Standard
  9
$DIMAUNIT
 70
     0
  9
$DIMADEC
 70
     0
  9
$DIMALTRND
 40
0.0
  9
$DIMAZIN
 70
     0
  9
$DIMDSEP
 70
    46
  9
$DIMATFIT
 70
     3
  9
$DIMFRAC
 70
     0
  9
$DIMLDRBLK
  1

  9
$DIMLUNIT
 70
     2
  9
$DIMLWD
 70
    -2
  9
$DIMLWE
 70
    -2
  9
$DIMTMOVE
 70
     0
  9
$LUNITS
 70
     2
  9
$LUPREC
 70
     4
  9
$SKETCHINC
 40
0.1
  9
$FILLETRAD
 40
0.0
  9
$AUNITS
 70
     0
  9
$AUPREC
 70
     0
  9
$MENU
  1
.
  9
$ELEVATION
 40
0.0
  9
$PELEVATION
 40
0.0
  9
$THICKNESS
 40
0.0
  9
$LIMCHECK
 70
     0
  9
$CHAMFERA
 40
0.0
  9
$CHAMFERB
 40
0.0
  9
$CHAMFERC
 40
0.0
  9
$CHAMFERD
 40
0.0
  9
$SKPOLY
 70
     0
  9
$TDCREATE
 40
2455197.499553415
  9
$TDUCREATE
 40
2455197.666220081
  9
$TDUPDATE
 40
2456007.638197049
  9
$TDUUPDATE
 40
2456007.804863715
  9
$TDINDWG
 40
0.0160573611
  9
$TDUSRTIMER
 40
0.0160571875
  9
$USRTIMER
 70
     1
  9
$ANGBASE
 50
0.0
  9
$ANGDIR
 70
     0
  9
$PDMODE
 70
     0
  9
$PDSIZE
 40
0.0
  9
$PLINEWID
 40
0.0
  9
$SPLFRAME
 70
     0
  9
$SPLINETYPE
 70
     6
  9
$SPLINESEGS
 70
     8
  9
$HANDSEED
  5
A3A
  9
$SURFTAB1
 70
     6
  9
$SURFTAB2
 70
     6
  9
$SURFTYPE
 70
     6
  9
$SURFU
 70
     6
  9
$SURFV
 70
     6
  9
$UCSBASE
  2

  9
$UCSNAME
  2

  9
$UCSORG
 10
0.0
 20
0.0
 30
0.0
  9
$UCSXDIR
 10
1.0
 20
0.0
 30
0.0
  9
$UCSYDIR
 10
0.0
 20
1.0
 30
0.0
  9
$UCSORTHOREF
  2

  9
$UCSORTHOVIEW
 70
     0
  9
$UCSORGTOP
 10
0.0
 20
0.0
 30
0.0
  9
$UCSORGBOTTOM
 10
0.0
 20
0.0
 30
0.0
  9
$UCSORGLEFT
 10
0.0
 20
0.0
 30
0.0
  9
$UCSORGRIGHT
 10
0.0
 20
0.0
 30
0.0
  9
$UCSORGFRONT
 10
0.0
 20
0.0
 30
0.0
  9
$UCSORGBACK
 10
0.0
 20
0.0
 30
0.0
  9
$PUCSBASE
  2

  9
$PUCSNAME
  2

  9
$PUCSORG
 10
0.0
 20
0.0
 30
0.0
  9
$PUCSXDIR
 10
1.0
 20
0.0
 30
0.0
  9
$PUCSYDIR
 10
0.0
 20
1.0
 30
0.0
  9
$PUCSORTHOREF
  2

  9
$PUCSORTHOVIEW
 70
     0
  9
$PUCSORGTOP
 10
0.0
 20
0.0
 30
0.0
  9
$PUCSORGBOTTOM
 10
0.0
 20
0.0
 30
0.0
  9
$PUCSORGLEFT
 10
0.0
 20
0.0
 30
0.0
  9
$PUCSORGRIGHT
 10
0.0
 20
0.0
 30
0.0
  9
$PUCSORGFRONT
 10
0.0
 20
0.0
 30
0.0
  9
$PUCSORGBACK
 10
0.0
 20
0.0
 30
0.0
  9
$USERI1
 70
     0
  9
$USERI2
 70
     0
  9
$USERI3
 70
     0
  9
$USERI4
 70
     0
  9
$USERI5
 70
     0
  9
$USERR1
 40
0.0
  9
$USERR2
 40
0.0
  9
$USERR3
 40
0.0
  9
$USERR4
 40
0.0
  9
$USERR5
 40
0.0
  9
$WORLDVIEW
 70
     1
  9
$SHADEDGE
 70
     3
  9
$SHADEDIF
 70
    70
  9
$TILEMODE
 70
     1
  9
$MAXACTVP
 70
    64
  9
$PINSBASE
 10
0.0
 20
0.0
 30
0.0
  9
$PLIMCHECK
 70
     0
  9
$PEXTMIN
 10
0.0
 20
0.0
 30
0.0
  9
$PEXTMAX
 10
0.0
 20
0.0
 30
0.0
  9
$PLIMMIN
 10
0.0
 20
0.0
  9
$PLIMMAX
 10
12.0
 20
9.0
  9
$UNITMODE
 70
     0
  9
$VISRETAIN
 70
     1
  9
$PLINEGEN
 70
     0
  9
$PSLTSCALE
 70
     1
  9
$TREEDEPTH
 70
  3020
  9
$CMLSTYLE
  2
Standard
  9
$CMLJUST
 70
     0
  9
$CMLSCALE
 40
1.0
  9
$PROXYGRAPHICS
 70
     1
  9
$MEASUREMENT
 70
     0
  9
$CELWEIGHT
370
    -1
  9
$ENDCAPS
280
     0
  9
$JOINSTYLE
280
     0
  9
$LWDISPLAY
290
     0
  9
$INSUNITS
 70
     1
  9
$HYPERLINKBASE
  1

  9
$STYLESHEET
  1

  9
$XEDIT
290
     1
  9
$CEPSNTYPE
380
     0
  9
$PSTYLEMODE
290
     1
  9
$FINGERPRINTGUID
  2
{FDEAD576-A652-11D2-9A35-0060089B3A3F}
  9
$VERSIONGUID
  2
{D6909794-3C33-4687-9BF6-EAD087A3EE7B}
  9
$EXTNAMES
290
     1
  9
$PSVPSCALE
 40
0.0
  9
$OLESTARTUP
290
     0
  0
ENDSEC
  0
SECTION
  2
CLASSES
  0
CLASS
  1
ACDBDICTIONARYWDFLT
  2
AcDbDictionaryWithDefault
  3
ObjectDBX Classes
 90
        0
280
     0
281
     0
  0
CLASS
  1
ACDBPLACEHOLDER
  2
AcDbPlaceHolder
  3
ObjectDBX Classes
 90
        0
280
     0
281
     0
  0
CLASS
  1
LAYOUT
  2
AcDbLayout
  3
ObjectDBX Classes
 90
        0
280
     0
281
     0
  0
CLASS
  1
DICTIONARYVAR
  2
AcDbDictionaryVar
  3
ObjectDBX Classes
 90
        0
280
     0
281
     0
  0
CLASS
  1
DIMASSOC
  2
AcDbDimAssoc
  3
"AcDbDimAssoc|Product Desc:     AcDim ARX App For Dimension|Company:          Autodesk, Inc.|WEB Address:      www.autodesk.com"
 90
        0
280
     0
281
     0
  0
CLASS
  1
MATERIAL
  2
AcDbMaterial
  3
ObjectDBX Classes
 90
     1153
280
     0
281
     0
  0
CLASS
  1
VISUALSTYLE
  2
AcDbVisualStyle
  3
ObjectDBX Classes
 90
     4095
280
     0
281
     0
  0
CLASS
  1
TABLESTYLE
  2
AcDbTableStyle
  3
ObjectDBX Classes
 90
     4095
280
     0
281
     0
  0
CLASS
  1
SCALE
  2
AcDbScale
  3
ObjectDBX Classes
 90
     1153
280
     0
281
     0
  0
CLASS
  1
MLEADERSTYLE
  2
AcDbMLeaderStyle
  3
ACDB_MLEADERSTYLE_CLASS
 90
     4095
280
     0
281
     0
  0
CLASS
  1
EXACXREFPANELOBJECT
  2
ExAcXREFPanelObject
  3
EXAC_ESW
 90
     1025
280
     0
281
     0
  0
CLASS
  1
NPOCOLLECTION
  2
AcDbImpNonPersistentObjectsCollection
  3
ObjectDBX Classes
 90
     1153
280
     0
281
     0
  0
CLASS
  1
CELLSTYLEMAP
  2
AcDbCellStyleMap
  3
ObjectDBX Classes
 90
     1152
280
     0
281
     0
  0
ENDSEC
  0
SECTION
  2
TABLES
  0
TABLE
  2
VPORT
  5
8
330
0
100
AcDbSymbolTable
 70
     1
  0
VPORT
  5
53F
330
8
100
AcDbSymbolTableRecord
100
AcDbViewportTableRecord
  2
*Active
 70
     0
 10
0.0
 20
0.0
 11
1.0
 21
1.0
 12
23.68195936134847
 22
25.70114856492797
 13
0.0
 23
0.0
 14
0.5
 24
0.5
 15
0.5
 25
0.5
 16
0.0
 26
0.0
 36
1.0
 17
0.0
 27
0.0
 37
0.0
 40
45.25528986883351
 41
2.040287769784172
 42
50.0
 43
0.0
 44
0.0
 50
0.0
 51
0.0
 71
     0
 72
  1000
 73
     1
 74
     3
 75
     0
 76
     0
 77
     0
 78
     0
281
     0
 65
     1
110
0.0
120
0.0
130
0.0
111
1.0
121
0.0
131
0.0
112
0.0
122
1.0
132
0.0
 79
     0
146
0.0
1001
ACAD_NAV_VCDISPLAY
1070
     3
  0
ENDTAB
  0
TABLE
  2
LTYPE
  5
5
330
0
100
AcDbSymbolTable
 70
     4
  0
LTYPE
  5
14
330
5
100
AcDbSymbolTableRecord
100
AcDbLinetypeTableRecord
  2
ByBlock
 70
     0
  3

 72
    65
 73
     0
 40
0.0
  0
LTYPE
  5
15
330
5
100
AcDbSymbolTableRecord
100
AcDbLinetypeTableRecord
  2
ByLayer
 70
     0
  3

 72
    65
 73
     0
 40
0.0
  0
LTYPE
  5
16
330
5
100
AcDbSymbolTableRecord
100
AcDbLinetypeTableRecord
  2
Continuous
 70
     0
  3
Solid line
 72
    65
 73
     0
 40
0.0
  0
LTYPE
  5
3B9
330
5
100
AcDbSymbolTableRecord
100
AcDbLinetypeTableRecord
  2
HIDDEN
 70
     0
  3
Hidden __ __ __ __ __ __ __ __ __ __ __ __ __ _
 72
    65
 73
     2
 40
0.375
 49
0.25
 74
     0
 49
-0.125
 74
     0
  0
LTYPE
  5
597
330
5
100
AcDbSymbolTableRecord
100
AcDbLinetypeTableRecord
  2
DASHED
 70
     0
  3
Dashed __ __ __ __ __ __ __ __ __ __ __ __ __ _
 72
    65
 73
     2
 40
0.75
 49
0.5
 74
     0
 49
-0.25
 74
     0
  0
LTYPE
  5
598
330
5
100
AcDbSymbolTableRecord
100
AcDbLinetypeTableRecord
  2
DOT
 70
     0
  3
Dot . . . . . . . . . . . . . . . . . . . . . .
 72
    65
 73
     2
 40
0.25
 49
0.0
 74
     0
 49
-0.25
 74
     0
  0
ENDTAB
  0
TABLE
  2
LAYER
  5
2
102
{ACAD_XDICTIONARY
360
8C
102
}
330
0
100
AcDbSymbolTable
 70
     8
  0
LAYER
  5
10
102
{ACAD_XDICTIONARY
360
830
102
}
330
2
100
AcDbSymbolTableRecord
100
AcDbLayerTableRecord
  2
0
 70
     0
 62
     7
  6
Continuous
370
    -3
390
F
  0
LAYER
  5
89
102
{ACAD_XDICTIONARY
360
832
102
}
330
2
100
AcDbSymbolTableRecord
100
AcDbLayerTableRecord
  2
TEXT
 70
     0
 62
     7
  6
Continuous
370
    -3
390
F
  0
LAYER
  5
8A
102
{ACAD_XDICTIONARY
360
834
102
}
330
2
100
AcDbSymbolTableRecord
100
AcDbLayerTableRecord
  2
BORDER
 70
     0
 62
     1
  6
Continuous
370
    -3
390
F
  0
LAYER
  5
8B
102
{ACAD_XDICTIONARY
360
836
102
}
330
2
100
AcDbSymbolTableRecord
100
AcDbLayerTableRecord
  2
DIMENSION
 70
     0
 62
     7
  6
Continuous
370
    -3
390
F
  0
LAYER
  5
3BA
102
{ACAD_XDICTIONARY
360
838
102
}
330
2
100
AcDbSymbolTableRecord
100
AcDbLayerTableRecord
  2
1 Cover
 70
     0
 62
     7
  6
Continuous
370
    -3
390
F
  0
LAYER
  5
3BB
102
{ACAD_XDICTIONARY
360
83A
102
}
330
2
100
AcDbSymbolTableRecord
100
AcDbLayerTableRecord
  2
2 Base
 70
     0
 62
     7
  6
Continuous
370
    -3
390
F
  0
LAYER
  5
3BC
330
2
100
AcDbSymbolTableRecord
100
AcDbLayerTableRecord
  2
Defpoints
 70
     0
 62
     7
  6
Continuous
290
     0
370
    -3
390
F
  0
LAYER
  5
3BD
102
{ACAD_XDICTIONARY
360
83C
102
}
330
2
100
AcDbSymbolTableRecord
100
AcDbLayerTableRecord
  2
TXT
 70
     0
 62
     7
  6
Continuous
370
    -3
390
F
  0
ENDTAB
  0
TABLE
  2
STYLE
  5
3
330
0
100
AcDbSymbolTable
 70
     1
  0
STYLE
  5
11
330
3
100
AcDbSymbolTableRecord
100
AcDbTextStyleTableRecord
  2
Standard
 70
     0
 40
0.0
 41
1.0
 50
0.0
 71
     0
 42
0.2
  3
txt
  4

  0
ENDTAB
  0
TABLE
  2
VIEW
  5
6
330
0
100
AcDbSymbolTable
 70
     1
  0
ENDTAB
  0
TABLE
  2
UCS
  5
7
330
0
100
AcDbSymbolTable
 70
     0
  0
ENDTAB
  0
TABLE
  2
APPID
  5
9
330
0
100
AcDbSymbolTable
 70
     4
  0
APPID
  5
12
330
9
100
AcDbSymbolTableRecord
100
AcDbRegAppTableRecord
  2
ACAD
 70
     0
  0
APPID
  5
66E
330
9
100
AcDbSymbolTableRecord
100
AcDbRegAppTableRecord
  2
ACAD_NAV_VCDISPLAY
 70
     0
  0
APPID
  5
82E
330
9
100
AcDbSymbolTableRecord
100
AcDbRegAppTableRecord
  2
ACAD_EXEMPT_FROM_CAD_STANDARDS
 70
     0
  0
APPID
  5
88A
330
9
100
AcDbSymbolTableRecord
100
AcDbRegAppTableRecord
  2
ACAD_MLEADERVER
 70
     0
  0
ENDTAB
  0
TABLE
  2
DIMSTYLE
  5
A
330
0
100
AcDbSymbolTable
 70
     1
100
AcDbDimStyleTable
 71
     0
  0
DIMSTYLE
105
27
102
{ACAD_REACTORS
330
6B7
330
6B8
330
6B9
330
6BA
330
6BB
330
6BC
330
6BD
330
6BE
330
6BF
330
6C0
330
6D9
330
6DC
330
6DF
330
6E2
330
6E5
330
6E8
330
6EB
330
6EE
330
6EF
330
6F2
330
6F3
330
6F4
330
6F7
330
6F8
330
897
330
8A4
102
}
330
A
100
AcDbSymbolTableRecord
100
AcDbDimStyleTableRecord
  2
Standard
 70
     0
340
11
  0
ENDTAB
  0
TABLE
  2
BLOCK_RECORD
  5
1
330
0
100
AcDbSymbolTable
 70
    93
  0
BLOCK_RECORD
  5
1F
330
1
100
AcDbSymbolTableRecord
100
AcDbBlockTableRecord
  2
*Model_Space
340
22
  0
BLOCK_RECORD
  5
58
330
1
100
AcDbSymbolTableRecord
100
AcDbBlockTableRecord
  2
*Paper_Space
340
59
  0
BLOCK_RECORD
  5
5D
330
1
100
AcDbSymbolTableRecord
100
AcDbBlockTableRecord
  2
*Paper_Space0
340
5E
  0
BLOCK_RECORD
  5
304
330
1
100
AcDbSymbolTableRecord
100
AcDbBlockTableRecord
  2
*D1
340
0
  0
BLOCK_RECORD
  5
30C
330
1
100
AcDbSymbolTableRecord
100
AcDbBlockTableRecord
  2
*D2
340
0
  0
BLOCK_RECORD
  5
314
330
1
100
AcDbSymbolTableRecord
100
AcDbBlockTableRecord
  2
*D3
340
0
  0
BLOCK_RECORD
  5
31C
330
1
100
AcDbSymbolTableRecord
100
AcDbBlockTableRecord
  2
*D4
340
0
  0
BLOCK_RECORD
  5
324
330
1
100
AcDbSymbolTableRecord
100
AcDbBlockTableRecord
  2
*D5
340
0
  0
BLOCK_RECORD
  5
32C
330
1
100
AcDbSymbolTableRecord
100
AcDbBlockTableRecord
  2
*D6
340
0
  0
BLOCK_RECORD
  5
334
330
1
100
AcDbSymbolTableRecord
100
AcDbBlockTableRecord
  2
*D7
340
0
  0
BLOCK_RECORD
  5
33C
330
1
100
AcDbSymbolTableRecord
100
AcDbBlockTableRecord
  2
*D8
340
0
  0
BLOCK_RECORD
  5
344
330
1
100
AcDbSymbolTableRecord
100
AcDbBlockTableRecord
  2
*D9
340
0
  0
BLOCK_RECORD
  5
34C
330
1
100
AcDbSymbolTableRecord
100
AcDbBlockTableRecord
  2
*D10
340
0
  0
BLOCK_RECORD
  5
354
330
1
100
AcDbSymbolTableRecord
100
AcDbBlockTableRecord
  2
*D11
340
0
  0
BLOCK_RECORD
  5
35C
330
1
100
AcDbSymbolTableRecord
100
AcDbBlockTableRecord
  2
*D12
340
0
  0
BLOCK_RECORD
  5
366
330
1
100
AcDbSymbolTableRecord
100
AcDbBlockTableRecord
  2
*D13
340
0
  0
BLOCK_RECORD
  5
370
330
1
100
AcDbSymbolTableRecord
100
AcDbBlockTableRecord
  2
*D14
340
0
  0
BLOCK_RECORD
  5
378
330
1
100
AcDbSymbolTableRecord
100
AcDbBlockTableRecord
  2
*D15
340
0
  0
BLOCK_RECORD
  5
380
330
1
100
AcDbSymbolTableRecord
100
AcDbBlockTableRecord
  2
*D16
340
0
  0
BLOCK_RECORD
  5
388
330
1
100
AcDbSymbolTableRecord
100
AcDbBlockTableRecord
  2
*D17
340
0
  0
BLOCK_RECORD
  5
392
330
1
100
AcDbSymbolTableRecord
100
AcDbBlockTableRecord
  2
*D18
340
0
  0
BLOCK_RECORD
  5
39C
330
1
100
AcDbSymbolTableRecord
100
AcDbBlockTableRecord
  2
*D19
340
0
  0
BLOCK_RECORD
  5
3A4
330
1
100
AcDbSymbolTableRecord
100
AcDbBlockTableRecord
  2
*D20
340
0
  0
BLOCK_RECORD
  5
3AE
330
1
100
AcDbSymbolTableRecord
100
AcDbBlockTableRecord
  2
*D21
340
0
  0
BLOCK_RECORD
  5
446
330
1
100
AcDbSymbolTableRecord
100
AcDbBlockTableRecord
  2
*D22
340
0
  0
BLOCK_RECORD
  5
44E
330
1
100
AcDbSymbolTableRecord
100
AcDbBlockTableRecord
  2
*D23
340
0
  0
BLOCK_RECORD
  5
458
330
1
100
AcDbSymbolTableRecord
100
AcDbBlockTableRecord
  2
*D24
340
0
  0
BLOCK_RECORD
  5
462
330
1
100
AcDbSymbolTableRecord
100
AcDbBlockTableRecord
  2
*D25
340
0
  0
BLOCK_RECORD
  5
46A
330
1
100
AcDbSymbolTableRecord
100
AcDbBlockTableRecord
  2
*D26
340
0
  0
BLOCK_RECORD
  5
474
330
1
100
AcDbSymbolTableRecord
100
AcDbBlockTableRecord
  2
*D27
340
0
  0
BLOCK_RECORD
  5
47C
330
1
100
AcDbSymbolTableRecord
100
AcDbBlockTableRecord
  2
*D28
340
0
  0
BLOCK_RECORD
  5
484
330
1
100
AcDbSymbolTableRecord
100
AcDbBlockTableRecord
  2
*D29
340
0
  0
BLOCK_RECORD
  5
48C
330
1
100
AcDbSymbolTableRecord
100
AcDbBlockTableRecord
  2
*D30
340
0
  0
BLOCK_RECORD
  5
494
330
1
100
AcDbSymbolTableRecord
100
AcDbBlockTableRecord
  2
*D31
340
0
  0
BLOCK_RECORD
  5
49F
330
1
100
AcDbSymbolTableRecord
100
AcDbBlockTableRecord
  2
*D32
340
0
  0
BLOCK_RECORD
  5
4C1
330
1
100
AcDbSymbolTableRecord
100
AcDbBlockTableRecord
  2
*D33
340
0
  0
BLOCK_RECORD
  5
4C9
330
1
100
AcDbSymbolTableRecord
100
AcDbBlockTableRecord
  2
*D34
340
0
  0
BLOCK_RECORD
  5
4D8
330
1
100
AcDbSymbolTableRecord
100
AcDbBlockTableRecord
  2
*D35
340
0
  0
BLOCK_RECORD
  5
4E7
330
1
100
AcDbSymbolTableRecord
100
AcDbBlockTableRecord
  2
*D36
340
0
  0
BLOCK_RECORD
  5
4EF
330
1
100
AcDbSymbolTableRecord
100
AcDbBlockTableRecord
  2
*D37
340
0
  0
BLOCK_RECORD
  5
4F7
330
1
100
AcDbSymbolTableRecord
100
AcDbBlockTableRecord
  2
*D38
340
0
  0
BLOCK_RECORD
  5
4FF
330
1
100
AcDbSymbolTableRecord
100
AcDbBlockTableRecord
  2
*D39
340
0
  0
BLOCK_RECORD
  5
507
330
1
100
AcDbSymbolTableRecord
100
AcDbBlockTableRecord
  2
*D40
340
0
  0
BLOCK_RECORD
  5
514
330
1
100
AcDbSymbolTableRecord
100
AcDbBlockTableRecord
  2
*D41
340
0
  0
BLOCK_RECORD
  5
51C
330
1
100
AcDbSymbolTableRecord
100
AcDbBlockTableRecord
  2
*D42
340
0
  0
BLOCK_RECORD
  5
599
330
1
100
AcDbSymbolTableRecord
100
AcDbBlockTableRecord
  2
*D43
340
0
  0
BLOCK_RECORD
  5
5A1
330
1
100
AcDbSymbolTableRecord
100
AcDbBlockTableRecord
  2
*D44
340
0
  0
BLOCK_RECORD
  5
5A9
330
1
100
AcDbSymbolTableRecord
100
AcDbBlockTableRecord
  2
*D45
340
0
  0
BLOCK_RECORD
  5
5B1
330
1
100
AcDbSymbolTableRecord
100
AcDbBlockTableRecord
  2
*D46
340
0
  0
BLOCK_RECORD
  5
5B9
330
1
100
AcDbSymbolTableRecord
100
AcDbBlockTableRecord
  2
*D47
340
0
  0
BLOCK_RECORD
  5
5C1
330
1
100
AcDbSymbolTableRecord
100
AcDbBlockTableRecord
  2
*D48
340
0
  0
BLOCK_RECORD
  5
5CB
330
1
100
AcDbSymbolTableRecord
100
AcDbBlockTableRecord
  2
*D49
340
0
  0
BLOCK_RECORD
  5
5D5
330
1
100
AcDbSymbolTableRecord
100
AcDbBlockTableRecord
  2
*D50
340
0
  0
BLOCK_RECORD
  5
5DF
330
1
100
AcDbSymbolTableRecord
100
AcDbBlockTableRecord
  2
*D51
340
0
  0
BLOCK_RECORD
  5
5E9
330
1
100
AcDbSymbolTableRecord
100
AcDbBlockTableRecord
  2
*D52
340
0
  0
BLOCK_RECORD
  5
5F4
330
1
100
AcDbSymbolTableRecord
100
AcDbBlockTableRecord
  2
*D53
340
0
  0
BLOCK_RECORD
  5
5FC
330
1
100
AcDbSymbolTableRecord
100
AcDbBlockTableRecord
  2
*D54
340
0
  0
BLOCK_RECORD
  5
604
330
1
100
AcDbSymbolTableRecord
100
AcDbBlockTableRecord
  2
*D55
340
0
  0
BLOCK_RECORD
  5
60C
330
1
100
AcDbSymbolTableRecord
100
AcDbBlockTableRecord
  2
*D56
340
0
  0
BLOCK_RECORD
  5
614
330
1
100
AcDbSymbolTableRecord
100
AcDbBlockTableRecord
  2
*D57
340
0
  0
BLOCK_RECORD
  5
61C
330
1
100
AcDbSymbolTableRecord
100
AcDbBlockTableRecord
  2
*D58
340
0
  0
BLOCK_RECORD
  5
624
330
1
100
AcDbSymbolTableRecord
100
AcDbBlockTableRecord
  2
*D59
340
0
  0
BLOCK_RECORD
  5
62E
330
1
100
AcDbSymbolTableRecord
100
AcDbBlockTableRecord
  2
*D60
340
0
  0
BLOCK_RECORD
  5
638
330
1
100
AcDbSymbolTableRecord
100
AcDbBlockTableRecord
  2
*D61
340
0
  0
BLOCK_RECORD
  5
640
330
1
100
AcDbSymbolTableRecord
100
AcDbBlockTableRecord
  2
*D62
340
0
  0
BLOCK_RECORD
  5
648
330
1
100
AcDbSymbolTableRecord
100
AcDbBlockTableRecord
  2
*D63
340
0
  0
BLOCK_RECORD
  5
652
330
1
100
AcDbSymbolTableRecord
100
AcDbBlockTableRecord
  2
*D64
340
0
  0
BLOCK_RECORD
  5
65A
330
1
100
AcDbSymbolTableRecord
100
AcDbBlockTableRecord
  2
*D65
340
0
  0
BLOCK_RECORD
  5
664
330
1
100
AcDbSymbolTableRecord
100
AcDbBlockTableRecord
  2
*D66
340
0
  0
BLOCK_RECORD
  5
6FB
330
1
100
AcDbSymbolTableRecord
100
AcDbBlockTableRecord
  2
*D67
340
0
  0
BLOCK_RECORD
  5
703
330
1
100
AcDbSymbolTableRecord
100
AcDbBlockTableRecord
  2
*D68
340
0
  0
BLOCK_RECORD
  5
70D
330
1
100
AcDbSymbolTableRecord
100
AcDbBlockTableRecord
  2
*D69
340
0
  0
BLOCK_RECORD
  5
715
330
1
100
AcDbSymbolTableRecord
100
AcDbBlockTableRecord
  2
*D70
340
0
  0
BLOCK_RECORD
  5
71D
330
1
100
AcDbSymbolTableRecord
100
AcDbBlockTableRecord
  2
*D71
340
0
  0
BLOCK_RECORD
  5
725
330
1
100
AcDbSymbolTableRecord
100
AcDbBlockTableRecord
  2
*D72
340
0
  0
BLOCK_RECORD
  5
72F
330
1
100
AcDbSymbolTableRecord
100
AcDbBlockTableRecord
  2
*D73
340
0
  0
BLOCK_RECORD
  5
739
330
1
100
AcDbSymbolTableRecord
100
AcDbBlockTableRecord
  2
*D74
340
0
  0
BLOCK_RECORD
  5
743
330
1
100
AcDbSymbolTableRecord
100
AcDbBlockTableRecord
  2
*D75
340
0
  0
BLOCK_RECORD
  5
74D
330
1
100
AcDbSymbolTableRecord
100
AcDbBlockTableRecord
  2
*D76
340
0
  0
BLOCK_RECORD
  5
758
330
1
100
AcDbSymbolTableRecord
100
AcDbBlockTableRecord
  2
*D77
340
0
  0
BLOCK_RECORD
  5
762
330
1
100
AcDbSymbolTableRecord
100
AcDbBlockTableRecord
  2
*D78
340
0
  0
BLOCK_RECORD
  5
76A
330
1
100
AcDbSymbolTableRecord
100
AcDbBlockTableRecord
  2
*D79
340
0
  0
BLOCK_RECORD
  5
774
330
1
100
AcDbSymbolTableRecord
100
AcDbBlockTableRecord
  2
*D80
340
0
  0
BLOCK_RECORD
  5
7BB
330
1
100
AcDbSymbolTableRecord
100
AcDbBlockTableRecord
  2
*D81
340
0
  0
BLOCK_RECORD
  5
7C3
330
1
100
AcDbSymbolTableRecord
100
AcDbBlockTableRecord
  2
*D82
340
0
  0
BLOCK_RECORD
  5
7CB
330
1
100
AcDbSymbolTableRecord
100
AcDbBlockTableRecord
  2
*D83
340
0
  0
BLOCK_RECORD
  5
7D3
330
1
100
AcDbSymbolTableRecord
100
AcDbBlockTableRecord
  2
*D84
340
0
  0
BLOCK_RECORD
  5
7DB
330
1
100
AcDbSymbolTableRecord
100
AcDbBlockTableRecord
  2
*D85
340
0
  0
BLOCK_RECORD
  5
7E3
330
1
100
AcDbSymbolTableRecord
100
AcDbBlockTableRecord
  2
*D86
340
0
  0
BLOCK_RECORD
  5
7EB
330
1
100
AcDbSymbolTableRecord
100
AcDbBlockTableRecord
  2
*D87
340
0
  0
BLOCK_RECORD
  5
7FC
330
1
100
AcDbSymbolTableRecord
100
AcDbBlockTableRecord
  2
*D88
340
0
  0
BLOCK_RECORD
  5
810
330
1
100
AcDbSymbolTableRecord
100
AcDbBlockTableRecord
  2
*D89
340
0
  0
BLOCK_RECORD
  5
81F
330
1
100
AcDbSymbolTableRecord
100
AcDbBlockTableRecord
  2
*D90
340
0
  0
BLOCK_RECORD
  5
89A
330
1
100
AcDbSymbolTableRecord
100
AcDbBlockTableRecord
  2
*D91
340
0
  0
BLOCK_RECORD
  5
8A7
330
1
100
AcDbSymbolTableRecord
100
AcDbBlockTableRecord
  2
*D92
340
0
  0
ENDTAB
  0
ENDSEC
  0
SECTION
  2
BLOCKS
  0
BLOCK
  5
20
330
1F
100
AcDbEntity
  8
0
100
AcDbBlockBegin
  2
*Model_Space
 70
     0
 10
0.0
 20
0.0
 30
0.0
  3
*Model_Space
  1

  0
ENDBLK
  5
21
330
1F
100
AcDbEntity
  8
0
100
AcDbBlockEnd
  0
BLOCK
  5
5A
330
58
100
AcDbEntity
 67
     1
  8
0
100
AcDbBlockBegin
  2
*Paper_Space
 70
     0
 10
0.0
 20
0.0
 30
0.0
  3
*Paper_Space
  1

  0
ENDBLK
  5
5B
330
58
100
AcDbEntity
 67
     1
  8
0
100
AcDbBlockEnd
  0
BLOCK
  5
5F
330
5D
100
AcDbEntity
 67
     1
  8
0
100
AcDbBlockBegin
  2
*Paper_Space0
 70
     0
 10
0.0
 20
0.0
 30
0.0
  3
*Paper_Space0
  1

  0
ENDBLK
  5
60
330
5D
100
AcDbEntity
 67
     1
  8
0
100
AcDbBlockEnd
  0
BLOCK
  5
305
330
304
100
AcDbEntity
  8
0
100
AcDbBlockBegin
  2
*D1
 70
     1
 10
0.0
 20
0.0
 30
0.0
  3
*D1
  1

  0
LINE
  5
306
330
304
100
AcDbEntity
  8
0
 62
     0
370
    -2
100
AcDbLine
 10
116.1874202182364
 20
-74.44924374231672
 30
0.0
 11
115.4374202182363
 21
-74.44924374231672
 31
0.0
  0
MTEXT
  5
307
330
304
100
AcDbEntity
  8
0
 62
     0
100
AcDbMText
 10
114.414086884903
 20
-74.44924374231672
 30
0.0
 40
0.5600000000000001
 41
0.0
 71
     5
 72
     1
  1
\A1;0.000
 73
     1
 44
1.0
1001
ACAD
1000
MTEXTBEGIN
1070
    73
1070
     1
1070
    44
1040
1.0
1070
    74
1070
     0
1000
MTEXTEND
  0
POINT
  5
308
330
304
100
AcDbEntity
  8
Defpoints
 62
     0
100
AcDbPoint
 10
116.4374202182364
 20
-74.44924374231672
 30
0.0
  0
POINT
  5
309
330
304
100
AcDbEntity
  8
Defpoints
 62
     0
100
AcDbPoint
 10
115.4374202182363
 20
-74.44924374231672
 30
0.0
  0
POINT
  5
30A
330
304
100
AcDbEntity
  8
Defpoints
 62
     0
100
AcDbPoint
 10
116.4374202182364
 20
-74.44924374231678
 30
0.0
  0
ENDBLK
  5
30B
330
304
100
AcDbEntity
  8
0
100
AcDbBlockEnd
  0
BLOCK
  5
30D
330
30C
100
AcDbEntity
  8
0
100
AcDbBlockBegin
  2
*D2
 70
     1
 10
0.0
 20
0.0
 30
0.0
  3
*D2
  1

  0
LINE
  5
30E
330
30C
100
AcDbEntity
  8
0
 62
     0
370
    -2
100
AcDbLine
 10
116.4374202182363
 20
-74.69924374231665
 30
0.0
 11
116.4374202182364
 21
-75.44924374231674
 31
0.0
  0
MTEXT
  5
30F
330
30C
100
AcDbEntity
  8
0
 62
     0
100
AcDbMText
 10
116.4374202182364
 20
-76.47257707565003
 30
0.0
 40
0.5600000000000001
 41
0.0
 71
     5
 72
     1
  1
\A1;0.000
 11
0.0000000000000001
 21
1.0
 31
0.0
 73
     1
 44
1.0
1001
ACAD
1000
MTEXTBEGIN
1070
    73
1070
     1
1070
    44
1040
1.0
1070
    74
1070
     0
1000
MTEXTEND
  0
POINT
  5
310
330
30C
100
AcDbEntity
  8
Defpoints
 62
     0
100
AcDbPoint
 10
116.4374202182363
 20
-74.44924374231668
 30
0.0
  0
POINT
  5
311
330
30C
100
AcDbEntity
  8
Defpoints
 62
     0
100
AcDbPoint
 10
116.4374202182364
 20
-75.44924374231674
 30
0.0
  0
POINT
  5
312
330
30C
100
AcDbEntity
  8
Defpoints
 62
     0
100
AcDbPoint
 10
116.4374202182363
 20
-74.44924374231672
 30
0.0
  0
ENDBLK
  5
313
330
30C
100
AcDbEntity
  8
0
100
AcDbBlockEnd
  0
BLOCK
  5
315
330
314
100
AcDbEntity
  8
0
100
AcDbBlockBegin
  2
*D3
 70
     1
 10
0.0
 20
0.0
 30
0.0
  3
*D3
  1

  0
LINE
  5
316
330
314
100
AcDbEntity
  8
0
 62
     0
370
    -2
100
AcDbLine
 10
118.0274202182364
 20
-73.16719079443638
 30
0.0
 11
118.0274202182364
 21
-75.44924374231674
 31
0.0
  0
MTEXT
  5
317
330
314
100
AcDbEntity
  8
0
 62
     0
100
AcDbMText
 10
118.0274202182364
 20
-77.45257707565004
 30
0.0
 40
0.5600000000000001
 41
0.0
 71
     5
 72
     1
  1
\A1;(2) 1.590
 11
0.0000000000000001
 21
1.0
 31
0.0
 73
     1
 44
1.0
1001
ACAD
1000
MTEXTBEGIN
1070
    73
1070
     1
1070
    44
1040
1.0
1070
    74
1070
     0
1000
MTEXTEND
  0
POINT
  5
318
330
314
100
AcDbEntity
  8
Defpoints
 62
     0
100
AcDbPoint
 10
118.0274202182364
 20
-72.91719079443637
 30
0.0
  0
POINT
  5
319
330
314
100
AcDbEntity
  8
Defpoints
 62
     0
100
AcDbPoint
 10
118.0274202182364
 20
-75.44924374231674
 30
0.0
  0
POINT
  5
31A
330
314
100
AcDbEntity
  8
Defpoints
 62
     0
100
AcDbPoint
 10
116.4374202182363
 20
-74.44924374231672
 30
0.0
  0
ENDBLK
  5
31B
330
314
100
AcDbEntity
  8
0
100
AcDbBlockEnd
  0
BLOCK
  5
31D
330
31C
100
AcDbEntity
  8
0
100
AcDbBlockBegin
  2
*D4
 70
     1
 10
0.0
 20
0.0
 30
0.0
  3
*D4
  1

  0
LINE
  5
31E
330
31C
100
AcDbEntity
  8
0
 62
     0
370
    -2
100
AcDbLine
 10
125.5274202182364
 20
-73.16719079443638
 30
0.0
 11
125.5274202182364
 21
-75.44924374231674
 31
0.0
  0
MTEXT
  5
31F
330
31C
100
AcDbEntity
  8
0
 62
     0
100
AcDbMText
 10
125.5274202182364
 20
-77.49924374231671
 30
0.0
 40
0.5600000000000001
 41
0.0
 71
     5
 72
     1
  1
\A1;(2) 9.090
 11
0.0000000000000001
 21
1.0
 31
0.0
 73
     1
 44
1.0
1001
ACAD
1000
MTEXTBEGIN
1070
    73
1070
     1
1070
    44
1040
1.0
1070
    74
1070
     0
1000
MTEXTEND
  0
POINT
  5
320
330
31C
100
AcDbEntity
  8
Defpoints
 62
     0
100
AcDbPoint
 10
125.5274202182364
 20
-72.91719079443637
 30
0.0
  0
POINT
  5
321
330
31C
100
AcDbEntity
  8
Defpoints
 62
     0
100
AcDbPoint
 10
125.5274202182364
 20
-75.44924374231674
 30
0.0
  0
POINT
  5
322
330
31C
100
AcDbEntity
  8
Defpoints
 62
     0
100
AcDbPoint
 10
116.4374202182363
 20
-74.44924374231672
 30
0.0
  0
ENDBLK
  5
323
330
31C
100
AcDbEntity
  8
0
100
AcDbBlockEnd
  0
BLOCK
  5
325
330
324
100
AcDbEntity
  8
0
100
AcDbBlockBegin
  2
*D5
 70
     1
 10
0.0
 20
0.0
 30
0.0
  3
*D5
  1

  0
LINE
  5
326
330
324
100
AcDbEntity
  8
0
 62
     0
370
    -2
100
AcDbLine
 10
125.7774202182364
 20
-72.91719079443637
 30
0.0
 11
128.1174202182364
 21
-72.91719079443637
 31
0.0
  0
MTEXT
  5
327
330
324
100
AcDbEntity
  8
0
 62
     0
100
AcDbMText
 10
130.1674202182364
 20
-72.91719079443637
 30
0.0
 40
0.5600000000000001
 41
0.0
 71
     5
 72
     1
  1
\A1;1.532 (2)
 73
     1
 44
1.0
1001
ACAD
1000
MTEXTBEGIN
1070
    73
1070
     1
1070
    44
1040
1.0
1070
    74
1070
     0
1000
MTEXTEND
  0
POINT
  5
328
330
324
100
AcDbEntity
  8
Defpoints
 62
     0
100
AcDbPoint
 10
125.5274202182364
 20
-72.91719079443637
 30
0.0
  0
POINT
  5
329
330
324
100
AcDbEntity
  8
Defpoints
 62
     0
100
AcDbPoint
 10
128.1174202182364
 20
-72.91719079443637
 30
0.0
  0
POINT
  5
32A
330
324
100
AcDbEntity
  8
Defpoints
 62
     0
100
AcDbPoint
 10
116.4374202182363
 20
-74.44924374231672
 30
0.0
  0
ENDBLK
  5
32B
330
324
100
AcDbEntity
  8
0
100
AcDbBlockEnd
  0
BLOCK
  5
32D
330
32C
100
AcDbEntity
  8
0
100
AcDbBlockBegin
  2
*D6
 70
     1
 10
0.0
 20
0.0
 30
0.0
  3
*D6
  1

  0
LINE
  5
32E
330
32C
100
AcDbEntity
  8
0
 62
     0
370
    -2
100
AcDbLine
 10
116.8374202182362
 20
-65.35902146968798
 30
0.0
 11
115.4374202182364
 21
-65.35902146968798
 31
0.0
  0
MTEXT
  5
32F
330
32C
100
AcDbEntity
  8
0
 62
     0
100
AcDbMText
 10
114.3207535515697
 20
-65.35902146968798
 30
0.0
 40
0.5600000000000001
 41
0.0
 71
     5
 72
     1
  1
\A1;9.090
 73
     1
 44
1.0
1001
ACAD
1000
MTEXTBEGIN
1070
    73
1070
     1
1070
    44
1040
1.0
1070
    74
1070
     0
1000
MTEXTEND
  0
POINT
  5
330
330
32C
100
AcDbEntity
  8
Defpoints
 62
     0
100
AcDbPoint
 10
117.0874202182362
 20
-65.35902146968798
 30
0.0
  0
POINT
  5
331
330
32C
100
AcDbEntity
  8
Defpoints
 62
     0
100
AcDbPoint
 10
115.4374202182364
 20
-65.35902146968798
 30
0.0
  0
POINT
  5
332
330
32C
100
AcDbEntity
  8
Defpoints
 62
     0
100
AcDbPoint
 10
116.4374202182363
 20
-74.44924374231672
 30
0.0
  0
ENDBLK
  5
333
330
32C
100
AcDbEntity
  8
0
100
AcDbBlockEnd
  0
BLOCK
  5
335
330
334
100
AcDbEntity
  8
0
100
AcDbBlockBegin
  2
*D7
 70
     1
 10
0.0
 20
0.0
 30
0.0
  3
*D7
  1

  0
LINE
  5
336
330
334
100
AcDbEntity
  8
0
 62
     0
370
    -2
100
AcDbLine
 10
116.8374202182362
 20
-62.35312146968792
 30
0.0
 11
115.4374202182364
 21
-62.35312146968792
 31
0.0
  0
MTEXT
  5
337
330
334
100
AcDbEntity
  8
0
 62
     0
100
AcDbMText
 10
114.0874202182364
 20
-62.35312146968792
 30
0.0
 40
0.5600000000000001
 41
0.0
 71
     5
 72
     1
  1
\A1;12.096
 73
     1
 44
1.0
1001
ACAD
1000
MTEXTBEGIN
1070
    73
1070
     1
1070
    44
1040
1.0
1070
    74
1070
     0
1000
MTEXTEND
  0
POINT
  5
338
330
334
100
AcDbEntity
  8
Defpoints
 62
     0
100
AcDbPoint
 10
117.0874202182362
 20
-62.35312146968792
 30
0.0
  0
POINT
  5
339
330
334
100
AcDbEntity
  8
Defpoints
 62
     0
100
AcDbPoint
 10
115.4374202182364
 20
-62.35312146968792
 30
0.0
  0
POINT
  5
33A
330
334
100
AcDbEntity
  8
Defpoints
 62
     0
100
AcDbPoint
 10
116.4374202182363
 20
-74.44924374231672
 30
0.0
  0
ENDBLK
  5
33B
330
334
100
AcDbEntity
  8
0
100
AcDbBlockEnd
  0
BLOCK
  5
33D
330
33C
100
AcDbEntity
  8
0
100
AcDbBlockBegin
  2
*D8
 70
     1
 10
0.0
 20
0.0
 30
0.0
  3
*D8
  1

  0
LINE
  5
33E
330
33C
100
AcDbEntity
  8
0
 62
     0
370
    -2
100
AcDbLine
 10
125.7774202182364
 20
-57.07919079443624
 30
0.0
 11
128.1174202182364
 21
-57.07919079443623
 31
0.0
  0
MTEXT
  5
33F
330
33C
100
AcDbEntity
  8
0
 62
     0
100
AcDbMText
 10
130.4007535515697
 20
-57.07919079443623
 30
0.0
 40
0.5600000000000001
 41
0.0
 71
     5
 72
     1
  1
\A1;17.370 (2)
 73
     1
 44
1.0
1001
ACAD
1000
MTEXTBEGIN
1070
    73
1070
     1
1070
    44
1040
1.0
1070
    74
1070
     0
1000
MTEXTEND
  0
POINT
  5
340
330
33C
100
AcDbEntity
  8
Defpoints
 62
     0
100
AcDbPoint
 10
125.5274202182364
 20
-57.07919079443624
 30
0.0
  0
POINT
  5
341
330
33C
100
AcDbEntity
  8
Defpoints
 62
     0
100
AcDbPoint
 10
128.1174202182364
 20
-57.07919079443623
 30
0.0
  0
POINT
  5
342
330
33C
100
AcDbEntity
  8
Defpoints
 62
     0
100
AcDbPoint
 10
116.4374202182363
 20
-74.44924374231672
 30
0.0
  0
ENDBLK
  5
343
330
33C
100
AcDbEntity
  8
0
100
AcDbBlockEnd
  0
BLOCK
  5
345
330
344
100
AcDbEntity
  8
0
100
AcDbBlockBegin
  2
*D9
 70
     1
 10
0.0
 20
0.0
 30
0.0
  3
*D9
  1

  0
LINE
  5
346
330
344
100
AcDbEntity
  8
0
 62
     0
370
    -2
100
AcDbLine
 10
122.0274202182363
 20
-52.25447365530378
 30
0.0
 11
128.1174202182363
 21
-52.25447365530374
 31
0.0
  0
MTEXT
  5
347
330
344
100
AcDbEntity
  8
0
 62
     0
100
AcDbMText
 10
129.514086884903
 20
-52.25447365530374
 30
0.0
 40
0.5600000000000001
 41
0.0
 71
     5
 72
     1
  1
\A1;22.195
 73
     1
 44
1.0
1001
ACAD
1000
MTEXTBEGIN
1070
    73
1070
     1
1070
    44
1040
1.0
1070
    74
1070
     0
1000
MTEXTEND
  0
POINT
  5
348
330
344
100
AcDbEntity
  8
Defpoints
 62
     0
100
AcDbPoint
 10
121.7774202182363
 20
-52.25447365530378
 30
0.0
  0
POINT
  5
349
330
344
100
AcDbEntity
  8
Defpoints
 62
     0
100
AcDbPoint
 10
128.1174202182363
 20
-52.25447365530374
 30
0.0
  0
POINT
  5
34A
330
344
100
AcDbEntity
  8
Defpoints
 62
     0
100
AcDbPoint
 10
116.4374202182363
 20
-74.44924374231672
 30
0.0
  0
ENDBLK
  5
34B
330
344
100
AcDbEntity
  8
0
100
AcDbBlockEnd
  0
BLOCK
  5
34D
330
34C
100
AcDbEntity
  8
0
100
AcDbBlockBegin
  2
*D10
 70
     1
 10
0.0
 20
0.0
 30
0.0
  3
*D10
  1

  0
LINE
  5
34E
330
34C
100
AcDbEntity
  8
0
 62
     0
370
    -2
100
AcDbLine
 10
126.9049202182364
 20
-46.50334943122667
 30
0.0
 11
128.1174202182363
 21
-46.50334943122667
 31
0.0
  0
MTEXT
  5
34F
330
34C
100
AcDbEntity
  8
0
 62
     0
100
AcDbMText
 10
130.5407535515697
 20
-46.50334943122667
 30
0.0
 40
0.5600000000000001
 41
0.0
 71
     5
 72
     1
  1
\A1;27.946 (2)
 73
     1
 44
1.0
1001
ACAD
1000
MTEXTBEGIN
1070
    73
1070
     1
1070
    44
1040
1.0
1070
    74
1070
     0
1000
MTEXTEND
  0
POINT
  5
350
330
34C
100
AcDbEntity
  8
Defpoints
 62
     0
100
AcDbPoint
 10
126.6549202182364
 20
-46.50334943122667
 30
0.0
  0
POINT
  5
351
330
34C
100
AcDbEntity
  8
Defpoints
 62
     0
100
AcDbPoint
 10
128.1174202182363
 20
-46.50334943122667
 30
0.0
  0
POINT
  5
352
330
34C
100
AcDbEntity
  8
Defpoints
 62
     0
100
AcDbPoint
 10
116.4374202182363
 20
-74.44924374231672
 30
0.0
  0
ENDBLK
  5
353
330
34C
100
AcDbEntity
  8
0
100
AcDbBlockEnd
  0
BLOCK
  5
355
330
354
100
AcDbEntity
  8
0
100
AcDbBlockBegin
  2
*D11
 70
     1
 10
0.0
 20
0.0
 30
0.0
  3
*D11
  1

  0
LINE
  5
356
330
354
100
AcDbEntity
  8
0
 62
     0
370
    -2
100
AcDbLine
 10
126.6549202182364
 20
-46.25334943122667
 30
0.0
 11
126.6549202182364
 21
-44.69924374231662
 31
0.0
  0
MTEXT
  5
357
330
354
100
AcDbEntity
  8
0
 62
     0
100
AcDbMText
 10
126.6549202182364
 20
-43.44257707564993
 30
0.0
 40
0.5600000000000001
 41
0.0
 71
     5
 72
     1
  1
\A1;10.218
 11
0.0000000000000001
 21
1.0
 31
0.0
 73
     1
 44
1.0
1001
ACAD
1000
MTEXTBEGIN
1070
    73
1070
     1
1070
    44
1040
1.0
1070
    74
1070
     0
1000
MTEXTEND
  0
POINT
  5
358
330
354
100
AcDbEntity
  8
Defpoints
 62
     0
100
AcDbPoint
 10
126.6549202182364
 20
-46.50334943122667
 30
0.0
  0
POINT
  5
359
330
354
100
AcDbEntity
  8
Defpoints
 62
     0
100
AcDbPoint
 10
126.6549202182364
 20
-44.69924374231662
 30
0.0
  0
POINT
  5
35A
330
354
100
AcDbEntity
  8
Defpoints
 62
     0
100
AcDbPoint
 10
116.4374202182363
 20
-74.44924374231672
 30
0.0
  0
ENDBLK
  5
35B
330
354
100
AcDbEntity
  8
0
100
AcDbBlockEnd
  0
BLOCK
  5
35D
330
35C
100
AcDbEntity
  8
0
100
AcDbBlockBegin
  2
*D12
 70
     1
 10
0.0
 20
0.0
 30
0.0
  3
*D12
  1

  0
LINE
  5
35E
330
35C
100
AcDbEntity
  8
0
 62
     0
370
    -2
100
AcDbLine
 10
126.3424202182364
 20
-45.86129669019697
 30
0.0
 11
126.3424202182364
 21
-45.41924374231661
 31
0.0
  0
LINE
  5
35F
330
35C
100
AcDbEntity
  8
0
 62
     0
370
    -2
100
AcDbLine
 10
126.3424202182364
 20
-45.41924374231661
 30
0.0
 11
125.8081934317873
 21
-45.05924374231661
 31
0.0
  0
LINE
  5
360
330
35C
100
AcDbEntity
  8
0
 62
     0
370
    -2
100
AcDbLine
 10
125.8081934317873
 20
-45.05924374231661
 30
0.0
 11
125.8081934317873
 21
-44.69924374231662
 31
0.0
  0
MTEXT
  5
361
330
35C
100
AcDbEntity
  8
0
 62
     0
100
AcDbMText
 10
125.8081934317873
 20
-43.53591040898326
 30
0.0
 40
0.5600000000000001
 41
0.0
 71
     5
 72
     1
  1
\A1;9.905
 11
0.0000000000000001
 21
1.0
 31
0.0
 73
     1
 44
1.0
1001
ACAD
1000
MTEXTBEGIN
1070
    73
1070
     1
1070
    44
1040
1.0
1070
    74
1070
     0
1000
MTEXTEND
  0
POINT
  5
362
330
35C
100
AcDbEntity
  8
Defpoints
 62
     0
100
AcDbPoint
 10
126.3424202182364
 20
-46.11129669019695
 30
0.0
  0
POINT
  5
363
330
35C
100
AcDbEntity
  8
Defpoints
 62
     0
100
AcDbPoint
 10
125.8081934317873
 20
-44.69924374231662
 30
0.0
  0
POINT
  5
364
330
35C
100
AcDbEntity
  8
Defpoints
 62
     0
100
AcDbPoint
 10
116.4374202182363
 20
-74.44924374231672
 30
0.0
  0
ENDBLK
  5
365
330
35C
100
AcDbEntity
  8
0
100
AcDbBlockEnd
  0
BLOCK
  5
367
330
366
100
AcDbEntity
  8
0
100
AcDbBlockBegin
  2
*D13
 70
     1
 10
0.0
 20
0.0
 30
0.0
  3
*D13
  1

  0
LINE
  5
368
330
366
100
AcDbEntity
  8
0
 62
     0
370
    -2
100
AcDbLine
 10
117.2124202182363
 20
-45.86129669019697
 30
0.0
 11
117.2124202182363
 21
-45.41924374231661
 31
0.0
  0
LINE
  5
369
330
366
100
AcDbEntity
  8
0
 62
     0
370
    -2
100
AcDbLine
 10
117.2124202182363
 20
-45.41924374231661
 30
0.0
 11
117.7394844937429
 21
-45.05924374231661
 31
0.0
  0
LINE
  5
36A
330
366
100
AcDbEntity
  8
0
 62
     0
370
    -2
100
AcDbLine
 10
117.7394844937429
 20
-45.05924374231661
 30
0.0
 11
117.7394844937429
 21
-44.69924374231662
 31
0.0
  0
MTEXT
  5
36B
330
366
100
AcDbEntity
  8
0
 62
     0
100
AcDbMText
 10
117.7394844937429
 20
-43.53591040898327
 30
0.0
 40
0.5600000000000001
 41
0.0
 71
     5
 72
     1
  1
\A1;0.775
 11
0.0000000000000001
 21
1.0
 31
0.0
 73
     1
 44
1.0
1001
ACAD
1000
MTEXTBEGIN
1070
    73
1070
     1
1070
    44
1040
1.0
1070
    74
1070
     0
1000
MTEXTEND
  0
POINT
  5
36C
330
366
100
AcDbEntity
  8
Defpoints
 62
     0
100
AcDbPoint
 10
117.2124202182363
 20
-46.11129669019695
 30
0.0
  0
POINT
  5
36D
330
366
100
AcDbEntity
  8
Defpoints
 62
     0
100
AcDbPoint
 10
117.7394844937429
 20
-44.69924374231662
 30
0.0
  0
POINT
  5
36E
330
366
100
AcDbEntity
  8
Defpoints
 62
     0
100
AcDbPoint
 10
116.4374202182363
 20
-74.44924374231672
 30
0.0
  0
ENDBLK
  5
36F
330
366
100
AcDbEntity
  8
0
100
AcDbBlockEnd
  0
BLOCK
  5
371
330
370
100
AcDbEntity
  8
0
100
AcDbBlockBegin
  2
*D14
 70
     1
 10
0.0
 20
0.0
 30
0.0
  3
*D14
  1

  0
LINE
  5
372
330
370
100
AcDbEntity
  8
0
 62
     0
370
    -2
100
AcDbLine
 10
116.8999202182363
 20
-46.25334943122667
 30
0.0
 11
116.8999202182364
 21
-44.69924374231662
 31
0.0
  0
MTEXT
  5
373
330
370
100
AcDbEntity
  8
0
 62
     0
100
AcDbMText
 10
116.8999202182364
 20
-43.53591040898326
 30
0.0
 40
0.5600000000000001
 41
0.0
 71
     5
 72
     1
  1
\A1;0.462
 11
0.0000000000000001
 21
1.0
 31
0.0
 73
     1
 44
1.0
1001
ACAD
1000
MTEXTBEGIN
1070
    73
1070
     1
1070
    44
1040
1.0
1070
    74
1070
     0
1000
MTEXTEND
  0
POINT
  5
374
330
370
100
AcDbEntity
  8
Defpoints
 62
     0
100
AcDbPoint
 10
116.8999202182363
 20
-46.50334943122667
 30
0.0
  0
POINT
  5
375
330
370
100
AcDbEntity
  8
Defpoints
 62
     0
100
AcDbPoint
 10
116.8999202182364
 20
-44.69924374231662
 30
0.0
  0
POINT
  5
376
330
370
100
AcDbEntity
  8
Defpoints
 62
     0
100
AcDbPoint
 10
116.4374202182363
 20
-74.44924374231672
 30
0.0
  0
ENDBLK
  5
377
330
370
100
AcDbEntity
  8
0
100
AcDbBlockEnd
  0
BLOCK
  5
379
330
378
100
AcDbEntity
  8
0
100
AcDbBlockBegin
  2
*D15
 70
     1
 10
0.0
 20
0.0
 30
0.0
  3
*D15
  1

  0
LINE
  5
37A
330
378
100
AcDbEntity
  8
0
 62
     0
370
    -2
100
AcDbLine
 10
116.9624202182363
 20
-49.11719669019696
 30
0.0
 11
115.4374202182364
 21
-49.11719669019696
 31
0.0
  0
MTEXT
  5
37B
330
378
100
AcDbEntity
  8
0
 62
     0
100
AcDbMText
 10
113.9474202182364
 20
-49.11719669019696
 30
0.0
 40
0.5600000000000001
 41
0.0
 71
     5
 72
     1
  1
\A1;25.332
 73
     1
 44
1.0
1001
ACAD
1000
MTEXTBEGIN
1070
    73
1070
     1
1070
    44
1040
1.0
1070
    74
1070
     0
1000
MTEXTEND
  0
POINT
  5
37C
330
378
100
AcDbEntity
  8
Defpoints
 62
     0
100
AcDbPoint
 10
117.2124202182363
 20
-49.11719669019696
 30
0.0
  0
POINT
  5
37D
330
378
100
AcDbEntity
  8
Defpoints
 62
     0
100
AcDbPoint
 10
115.4374202182364
 20
-49.11719669019696
 30
0.0
  0
POINT
  5
37E
330
378
100
AcDbEntity
  8
Defpoints
 62
     0
100
AcDbPoint
 10
116.4374202182363
 20
-74.44924374231672
 30
0.0
  0
ENDBLK
  5
37F
330
378
100
AcDbEntity
  8
0
100
AcDbBlockEnd
  0
BLOCK
  5
381
330
380
100
AcDbEntity
  8
0
100
AcDbBlockBegin
  2
*D16
 70
     1
 10
0.0
 20
0.0
 30
0.0
  3
*D16
  1

  0
LINE
  5
382
330
380
100
AcDbEntity
  8
0
 62
     0
370
    -2
100
AcDbLine
 10
116.9624202182363
 20
-46.11129669019695
 30
0.0
 11
115.4374202182364
 21
-46.11129669019695
 31
0.0
  0
MTEXT
  5
383
330
380
100
AcDbEntity
  8
0
 62
     0
100
AcDbMText
 10
113.9474202182364
 20
-46.11129669019695
 30
0.0
 40
0.5600000000000001
 41
0.0
 71
     5
 72
     1
  1
\A1;28.338
 73
     1
 44
1.0
1001
ACAD
1000
MTEXTBEGIN
1070
    73
1070
     1
1070
    44
1040
1.0
1070
    74
1070
     0
1000
MTEXTEND
  0
POINT
  5
384
330
380
100
AcDbEntity
  8
Defpoints
 62
     0
100
AcDbPoint
 10
117.2124202182363
 20
-46.11129669019695
 30
0.0
  0
POINT
  5
385
330
380
100
AcDbEntity
  8
Defpoints
 62
     0
100
AcDbPoint
 10
115.4374202182364
 20
-46.11129669019695
 30
0.0
  0
POINT
  5
386
330
380
100
AcDbEntity
  8
Defpoints
 62
     0
100
AcDbPoint
 10
116.4374202182363
 20
-74.44924374231672
 30
0.0
  0
ENDBLK
  5
387
330
380
100
AcDbEntity
  8
0
100
AcDbBlockEnd
  0
BLOCK
  5
389
330
388
100
AcDbEntity
  8
0
100
AcDbBlockBegin
  2
*D17
 70
     1
 10
0.0
 20
0.0
 30
0.0
  3
*D17
  1

  0
LINE
  5
38A
330
388
100
AcDbEntity
  8
0
 62
     0
370
    -2
100
AcDbLine
 10
117.0874202182362
 20
-62.10312146968792
 30
0.0
 11
117.0874202182362
 21
-60.79175550135173
 31
0.0
  0
LINE
  5
38B
330
388
100
AcDbEntity
  8
0
 62
     0
370
    -2
100
AcDbLine
 10
117.0874202182362
 20
-60.79175550135173
 30
0.0
 11
118.2109951415292
 21
-60.43175550135173
 31
0.0
  0
LINE
  5
38C
330
388
100
AcDbEntity
  8
0
 62
     0
370
    -2
100
AcDbLine
 10
118.2109951415292
 20
-60.43175550135173
 30
0.0
 11
118.2109951415292
 21
-60.07175550135173
 31
0.0
  0
MTEXT
  5
38D
330
388
100
AcDbEntity
  8
0
 62
     0
100
AcDbMText
 10
118.2109951415292
 20
-58.95508883468504
 30
0.0
 40
0.5600000000000001
 41
0.0
 71
     5
 72
     1
  1
\A1;0.650
 11
0.0000000000000001
 21
1.0
 31
0.0
 73
     1
 44
1.0
1001
ACAD
1000
MTEXTBEGIN
1070
    73
1070
     1
1070
    44
1040
1.0
1070
    74
1070
     0
1000
MTEXTEND
  0
POINT
  5
38E
330
388
100
AcDbEntity
  8
Defpoints
 62
     0
100
AcDbPoint
 10
117.0874202182362
 20
-62.35312146968792
 30
0.0
  0
POINT
  5
38F
330
388
100
AcDbEntity
  8
Defpoints
 62
     0
100
AcDbPoint
 10
118.2109951415292
 20
-60.07175550135173
 30
0.0
  0
POINT
  5
390
330
388
100
AcDbEntity
  8
Defpoints
 62
     0
100
AcDbPoint
 10
116.4374202182363
 20
-74.44924374231672
 30
0.0
  0
ENDBLK
  5
391
330
388
100
AcDbEntity
  8
0
100
AcDbBlockEnd
  0
BLOCK
  5
393
330
392
100
AcDbEntity
  8
0
100
AcDbBlockBegin
  2
*D18
 70
     1
 10
0.0
 20
0.0
 30
0.0
  3
*D18
  1

  0
LINE
  5
394
330
392
100
AcDbEntity
  8
0
 62
     0
370
    -2
100
AcDbLine
 10
126.4674202182362
 20
-62.10312146968792
 30
0.0
 11
126.4674202182362
 21
-60.79175550135173
 31
0.0
  0
LINE
  5
395
330
392
100
AcDbEntity
  8
0
 62
     0
370
    -2
100
AcDbLine
 10
126.4674202182362
 20
-60.79175550135173
 30
0.0
 11
125.3438452949433
 21
-60.43175550135173
 31
0.0
  0
LINE
  5
396
330
392
100
AcDbEntity
  8
0
 62
     0
370
    -2
100
AcDbLine
 10
125.3438452949433
 20
-60.43175550135173
 30
0.0
 11
125.3438452949433
 21
-60.07175550135173
 31
0.0
  0
MTEXT
  5
397
330
392
100
AcDbEntity
  8
0
 62
     0
100
AcDbMText
 10
125.3438452949433
 20
-58.81508883468504
 30
0.0
 40
0.5600000000000001
 41
0.0
 71
     5
 72
     1
  1
\A1;10.030
 11
0.0000000000000001
 21
1.0
 31
0.0
 73
     1
 44
1.0
1001
ACAD
1000
MTEXTBEGIN
1070
    73
1070
     1
1070
    44
1040
1.0
1070
    74
1070
     0
1000
MTEXTEND
  0
POINT
  5
398
330
392
100
AcDbEntity
  8
Defpoints
 62
     0
100
AcDbPoint
 10
126.4674202182362
 20
-62.35312146968792
 30
0.0
  0
POINT
  5
399
330
392
100
AcDbEntity
  8
Defpoints
 62
     0
100
AcDbPoint
 10
125.3438452949433
 20
-60.07175550135173
 30
0.0
  0
POINT
  5
39A
330
392
100
AcDbEntity
  8
Defpoints
 62
     0
100
AcDbPoint
 10
116.4374202182363
 20
-74.44924374231672
 30
0.0
  0
ENDBLK
  5
39B
330
392
100
AcDbEntity
  8
0
100
AcDbBlockEnd
  0
BLOCK
  5
39D
330
39C
100
AcDbEntity
  8
0
100
AcDbBlockBegin
  2
*D19
 70
     1
 10
0.0
 20
0.0
 30
0.0
  3
*D19
  1

  0
LINE
  5
39E
330
39C
100
AcDbEntity
  8
0
 62
     0
370
    -2
100
AcDbLine
 10
121.7774202182363
 20
-52.50447365530377
 30
0.0
 11
121.7774202182363
 21
-54.95805634112684
 31
0.0
  0
MTEXT
  5
39F
330
39C
100
AcDbEntity
  8
0
 62
     0
100
AcDbMText
 10
121.7774202182363
 20
-56.12138967446014
 30
0.0
 40
0.5600000000000001
 41
0.0
 71
     5
 72
     1
  1
\A1;5.340
 11
0.0000000000000001
 21
1.0
 31
0.0
 73
     1
 44
1.0
1001
ACAD
1000
MTEXTBEGIN
1070
    73
1070
     1
1070
    44
1040
1.0
1070
    74
1070
     0
1000
MTEXTEND
  0
POINT
  5
3A0
330
39C
100
AcDbEntity
  8
Defpoints
 62
     0
100
AcDbPoint
 10
121.7774202182363
 20
-52.25447365530378
 30
0.0
  0
POINT
  5
3A1
330
39C
100
AcDbEntity
  8
Defpoints
 62
     0
100
AcDbPoint
 10
121.7774202182363
 20
-54.95805634112684
 30
0.0
  0
POINT
  5
3A2
330
39C
100
AcDbEntity
  8
Defpoints
 62
     0
100
AcDbPoint
 10
116.4374202182363
 20
-74.44924374231672
 30
0.0
  0
ENDBLK
  5
3A3
330
39C
100
AcDbEntity
  8
0
100
AcDbBlockEnd
  0
BLOCK
  5
3A5
330
3A4
100
AcDbEntity
  8
0
100
AcDbBlockBegin
  2
*D20
 70
     1
 10
0.0
 20
0.0
 30
0.0
  3
*D20
  1

  0
LINE
  5
3A6
330
3A4
100
AcDbEntity
  8
0
 62
     0
370
    -2
100
AcDbLine
 10
115.4374202182363
 20
-53.92443236009629
 30
0.0
 11
120.6315053212784
 21
-52.55630812803661
 31
0.0
  0
MTEXT
  5
3A7
102
{ACAD_XDICTIONARY
360
9FD
102
}
330
3A4
100
AcDbEntity
  8
0
 62
     0
100
AcDbMText
 10
114.0874202182363
 20
-53.92443236009629
 30
0.0
 40
0.5600000000000001
 41
0.0
 71
     5
 72
     1
  1
\A1;\U+22051.250
 73
     1
 44
1.0
1001
ACAD
1000
MTEXTBEGIN
1070
    73
1070
     1
1070
    44
1040
1.0
1070
    74
1070
     0
1000
MTEXTEND
  0
SOLID
  5
3A8
330
3A4
100
AcDbEntity
  8
0
 62
     0
100
AcDbTrace
 10
120.6077321419914
 20
-52.46605322757299
 30
0.0
 11
120.6552785005654
 21
-52.64656302850026
 31
0.0
 12
121.1730347240602
 22
-52.41366905231478
 32
0.0
 13
121.1730347240602
 23
-52.41366905231478
 33
0.0
  0
LINE
  5
3A9
330
3A4
100
AcDbEntity
  8
0
 62
     0
370
    -2
100
AcDbLine
 10
121.6874202182363
 20
-52.25447365530378
 30
0.0
 11
121.8674202182363
 21
-52.25447365530378
 31
0.0
  0
LINE
  5
3AA
330
3A4
100
AcDbEntity
  8
0
 62
     0
370
    -2
100
AcDbLine
 10
121.7774202182363
 20
-52.34447365530375
 30
0.0
 11
121.7774202182363
 21
-52.16447365530378
 31
0.0
  0
POINT
  5
3AB
330
3A4
100
AcDbEntity
  8
Defpoints
 62
     0
100
AcDbPoint
 10
121.1730347240602
 20
-52.41366905231478
 30
0.0
  0
POINT
  5
3AC
330
3A4
100
AcDbEntity
  8
Defpoints
 62
     0
100
AcDbPoint
 10
122.3818057124124
 20
-52.09527825829278
 30
0.0
  0
ENDBLK
  5
3AD
330
3A4
100
AcDbEntity
  8
0
100
AcDbBlockEnd
  0
BLOCK
  5
3AF
330
3AE
100
AcDbEntity
  8
0
100
AcDbBlockBegin
  2
*D21
 70
     1
 10
0.0
 20
0.0
 30
0.0
  3
*D21
  1

  0
LINE
  5
3B0
330
3AE
100
AcDbEntity
  8
0
 62
     0
370
    -2
100
AcDbLine
 10
114.8774202182365
 20
-58.75193735497272
 30
0.0
 11
115.4374202182366
 21
-58.75193735497272
 31
0.0
  0
LINE
  5
3B1
330
3AE
100
AcDbEntity
  8
0
 62
     0
370
    -2
100
AcDbLine
 10
115.4374202182366
 20
-58.75193735497272
 30
0.0
 11
117.3994950071599
 21
-57.48473509447578
 31
0.0
  0
MTEXT
  5
3B2
102
{ACAD_XDICTIONARY
360
9FF
102
}
330
3AE
100
AcDbEntity
  8
0
 62
     0
100
AcDbMText
 10
112.7807535515698
 20
-58.75193735497269
 30
0.0
 40
0.5600000000000001
 41
0.0
 71
     5
 72
     1
  1
\A1;(6)\U+22050.375
 73
     1
 44
1.0
1001
ACAD
1000
MTEXTBEGIN
1070
    73
1070
     1
1070
    44
1040
1.0
1070
    74
1070
     0
1000
MTEXTEND
  0
SOLID
  5
3B3
330
3AE
100
AcDbEntity
  8
0
 62
     0
100
AcDbTrace
 10
117.3488584836321
 20
-57.40633194660447
 30
0.0
 11
117.4501315306877
 21
-57.56313824234709
 31
0.0
 12
117.8699138943878
 22
-57.18091595330903
 32
0.0
 13
117.8699138943878
 23
-57.18091595330903
 33
0.0
  0
LINE
  5
3B4
330
3AE
100
AcDbEntity
  8
0
 62
     0
370
    -2
100
AcDbLine
 10
117.9374202182364
 20
-57.07919079443623
 30
0.0
 11
118.1174202182364
 21
-57.07919079443626
 31
0.0
  0
LINE
  5
3B5
330
3AE
100
AcDbEntity
  8
0
 62
     0
370
    -2
100
AcDbLine
 10
118.0274202182364
 20
-57.16919079443624
 30
0.0
 11
118.0274202182364
 21
-56.98919079443625
 31
0.0
  0
POINT
  5
3B6
330
3AE
100
AcDbEntity
  8
Defpoints
 62
     0
100
AcDbPoint
 10
117.8699138943878
 20
-57.18091595330903
 30
0.0
  0
POINT
  5
3B7
330
3AE
100
AcDbEntity
  8
Defpoints
 62
     0
100
AcDbPoint
 10
118.1849265420851
 20
-56.97746563556346
 30
0.0
  0
ENDBLK
  5
3B8
330
3AE
100
AcDbEntity
  8
0
100
AcDbBlockEnd
  0
BLOCK
  5
44C
330
446
100
AcDbEntity
  8
0
100
AcDbBlockBegin
  2
*D22
 70
     1
 10
0.0
 20
0.0
 30
0.0
  3
*D22
  1

  0
LINE
  5
4A9
330
446
100
AcDbEntity
  8
0
 62
     0
370
    -2
100
AcDbLine
 10
24.01516076600203
 20
32.85481486352136
 30
0.0
 11
24.01516076600203
 21
30.40123217769828
 31
0.0
  0
MTEXT
  5
4AA
330
446
100
AcDbEntity
  8
0
 62
     0
100
AcDbMText
 10
24.01516076600203
 20
29.23789884436495
 30
0.0
 40
0.5600000000000001
 41
0.0
 71
     5
 72
     1
  1
\A1;5.340
 11
0.0000000000000001
 21
1.0
 31
0.0
 73
     1
 44
1.0
1001
ACAD
1000
MTEXTBEGIN
1070
    73
1070
     1
1070
    44
1040
1.0
1070
    74
1070
     0
1000
MTEXTEND
  0
POINT
  5
4AB
330
446
100
AcDbEntity
  8
Defpoints
 62
     0
100
AcDbPoint
 10
24.01516076600203
 20
33.10481486352137
 30
0.0
  0
POINT
  5
4AC
330
446
100
AcDbEntity
  8
Defpoints
 62
     0
100
AcDbPoint
 10
24.01516076600203
 20
30.40123217769828
 30
0.0
  0
POINT
  5
4AD
330
446
100
AcDbEntity
  8
Defpoints
 62
     0
100
AcDbPoint
 10
18.67516076600205
 20
10.9100447765084
 30
0.0
  0
ENDBLK
  5
44D
330
446
100
AcDbEntity
  8
0
100
AcDbBlockEnd
  0
BLOCK
  5
456
330
44E
100
AcDbEntity
  8
0
100
AcDbBlockBegin
  2
*D23
 70
     1
 10
0.0
 20
0.0
 30
0.0
  3
*D23
  1

  0
LINE
  5
4AE
330
44E
100
AcDbEntity
  8
0
 62
     0
370
    -2
100
AcDbLine
 10
28.70516076600193
 20
23.2561670491372
 30
0.0
 11
28.70516076600193
 21
24.56753301747339
 31
0.0
  0
LINE
  5
4AF
330
44E
100
AcDbEntity
  8
0
 62
     0
370
    -2
100
AcDbLine
 10
28.70516076600193
 20
24.56753301747339
 30
0.0
 11
27.58158584270895
 21
24.9275330174734
 31
0.0
  0
LINE
  5
4B0
330
44E
100
AcDbEntity
  8
0
 62
     0
370
    -2
100
AcDbLine
 10
27.58158584270895
 20
24.9275330174734
 30
0.0
 11
27.58158584270895
 21
25.2875330174734
 31
0.0
  0
MTEXT
  5
4B1
330
44E
100
AcDbEntity
  8
0
 62
     0
100
AcDbMText
 10
27.58158584270894
 20
26.54419968414007
 30
0.0
 40
0.5600000000000001
 41
0.0
 71
     5
 72
     1
  1
\A1;10.030
 11
0.0000000000000001
 21
1.0
 31
0.0
 73
     1
 44
1.0
1001
ACAD
1000
MTEXTBEGIN
1070
    73
1070
     1
1070
    44
1040
1.0
1070
    74
1070
     0
1000
MTEXTEND
  0
POINT
  5
4B2
330
44E
100
AcDbEntity
  8
Defpoints
 62
     0
100
AcDbPoint
 10
28.70516076600193
 20
23.0061670491372
 30
0.0
  0
POINT
  5
4B3
330
44E
100
AcDbEntity
  8
Defpoints
 62
     0
100
AcDbPoint
 10
27.58158584270895
 20
25.2875330174734
 30
0.0
  0
POINT
  5
4B4
330
44E
100
AcDbEntity
  8
Defpoints
 62
     0
100
AcDbPoint
 10
18.67516076600205
 20
10.9100447765084
 30
0.0
  0
ENDBLK
  5
457
330
44E
100
AcDbEntity
  8
0
100
AcDbBlockEnd
  0
BLOCK
  5
460
330
458
100
AcDbEntity
  8
0
100
AcDbBlockBegin
  2
*D24
 70
     1
 10
0.0
 20
0.0
 30
0.0
  3
*D24
  1

  0
LINE
  5
4B5
330
458
100
AcDbEntity
  8
0
 62
     0
370
    -2
100
AcDbLine
 10
19.32516076600191
 20
23.2561670491372
 30
0.0
 11
19.32516076600192
 21
24.56753301747339
 31
0.0
  0
LINE
  5
4B6
330
458
100
AcDbEntity
  8
0
 62
     0
370
    -2
100
AcDbLine
 10
19.32516076600192
 20
24.56753301747339
 30
0.0
 11
20.44873568929489
 21
24.9275330174734
 31
0.0
  0
LINE
  5
4B7
330
458
100
AcDbEntity
  8
0
 62
     0
370
    -2
100
AcDbLine
 10
20.44873568929489
 20
24.9275330174734
 30
0.0
 11
20.44873568929489
 21
25.2875330174734
 31
0.0
  0
MTEXT
  5
4B8
330
458
100
AcDbEntity
  8
0
 62
     0
100
AcDbMText
 10
20.44873568929489
 20
26.40419968414006
 30
0.0
 40
0.5600000000000001
 41
0.0
 71
     5
 72
     1
  1
\A1;0.650
 11
0.0000000000000001
 21
1.0
 31
0.0
 73
     1
 44
1.0
1001
ACAD
1000
MTEXTBEGIN
1070
    73
1070
     1
1070
    44
1040
1.0
1070
    74
1070
     0
1000
MTEXTEND
  0
POINT
  5
4B9
330
458
100
AcDbEntity
  8
Defpoints
 62
     0
100
AcDbPoint
 10
19.32516076600191
 20
23.0061670491372
 30
0.0
  0
POINT
  5
4BA
330
458
100
AcDbEntity
  8
Defpoints
 62
     0
100
AcDbPoint
 10
20.44873568929489
 20
25.2875330174734
 30
0.0
  0
POINT
  5
4BB
330
458
100
AcDbEntity
  8
Defpoints
 62
     0
100
AcDbPoint
 10
18.67516076600205
 20
10.9100447765084
 30
0.0
  0
ENDBLK
  5
461
330
458
100
AcDbEntity
  8
0
100
AcDbBlockEnd
  0
BLOCK
  5
468
330
462
100
AcDbEntity
  8
0
100
AcDbBlockBegin
  2
*D25
 70
     1
 10
0.0
 20
0.0
 30
0.0
  3
*D25
  1

  0
LINE
  5
4BC
330
462
100
AcDbEntity
  8
0
 62
     0
370
    -2
100
AcDbLine
 10
19.20016076600203
 20
39.24799182862816
 30
0.0
 11
17.67516076600211
 21
39.24799182862816
 31
0.0
  0
MTEXT
  5
4BD
330
462
100
AcDbEntity
  8
0
 62
     0
100
AcDbMText
 10
16.1851607660021
 20
39.24799182862816
 30
0.0
 40
0.5600000000000001
 41
0.0
 71
     5
 72
     1
  1
\A1;28.338
 73
     1
 44
1.0
1001
ACAD
1000
MTEXTBEGIN
1070
    73
1070
     1
1070
    44
1040
1.0
1070
    74
1070
     0
1000
MTEXTEND
  0
POINT
  5
4BE
330
462
100
AcDbEntity
  8
Defpoints
 62
     0
100
AcDbPoint
 10
19.45016076600203
 20
39.24799182862816
 30
0.0
  0
POINT
  5
4BF
330
462
100
AcDbEntity
  8
Defpoints
 62
     0
100
AcDbPoint
 10
17.67516076600211
 20
39.24799182862816
 30
0.0
  0
POINT
  5
4C0
330
462
100
AcDbEntity
  8
Defpoints
 62
     0
100
AcDbPoint
 10
18.67516076600205
 20
10.9100447765084
 30
0.0
  0
ENDBLK
  5
469
330
462
100
AcDbEntity
  8
0
100
AcDbBlockEnd
  0
BLOCK
  5
472
330
46A
100
AcDbEntity
  8
0
100
AcDbBlockBegin
  2
*D26
 70
     1
 10
0.0
 20
0.0
 30
0.0
  3
*D26
  1

  0
LINE
  5
4D1
330
46A
100
AcDbEntity
  8
0
 62
     0
370
    -2
100
AcDbLine
 10
19.45016076600204
 20
39.49799182862817
 30
0.0
 11
19.45016076600204
 21
39.9400447765085
 31
0.0
  0
LINE
  5
4D2
330
46A
100
AcDbEntity
  8
0
 62
     0
370
    -2
100
AcDbLine
 10
19.45016076600204
 20
39.9400447765085
 30
0.0
 11
19.97722504150859
 21
40.3000447765085
 31
0.0
  0
LINE
  5
4D3
330
46A
100
AcDbEntity
  8
0
 62
     0
370
    -2
100
AcDbLine
 10
19.97722504150859
 20
40.3000447765085
 30
0.0
 11
19.97722504150859
 21
40.66004477650849
 31
0.0
  0
MTEXT
  5
4D4
330
46A
100
AcDbEntity
  8
0
 62
     0
100
AcDbMText
 10
19.97722504150858
 20
41.82337810984184
 30
0.0
 40
0.5600000000000001
 41
0.0
 71
     5
 72
     1
  1
\A1;0.775
 11
0.0000000000000001
 21
1.0
 31
0.0
 73
     1
 44
1.0
1001
ACAD
1000
MTEXTBEGIN
1070
    73
1070
     1
1070
    44
1040
1.0
1070
    74
1070
     0
1000
MTEXTEND
  0
POINT
  5
4D5
330
46A
100
AcDbEntity
  8
Defpoints
 62
     0
100
AcDbPoint
 10
19.45016076600204
 20
39.24799182862816
 30
0.0
  0
POINT
  5
4D6
330
46A
100
AcDbEntity
  8
Defpoints
 62
     0
100
AcDbPoint
 10
19.97722504150859
 20
40.66004477650849
 30
0.0
  0
POINT
  5
4D7
330
46A
100
AcDbEntity
  8
Defpoints
 62
     0
100
AcDbPoint
 10
18.67516076600205
 20
10.9100447765084
 30
0.0
  0
ENDBLK
  5
473
330
46A
100
AcDbEntity
  8
0
100
AcDbBlockEnd
  0
BLOCK
  5
47A
330
474
100
AcDbEntity
  8
0
100
AcDbBlockBegin
  2
*D27
 70
     1
 10
0.0
 20
0.0
 30
0.0
  3
*D27
  1

  0
LINE
  5
4E2
330
474
100
AcDbEntity
  8
0
 62
     0
370
    -2
100
AcDbLine
 10
28.89266076600208
 20
39.10593908759845
 30
0.0
 11
28.89266076600208
 21
40.66004477650849
 31
0.0
  0
MTEXT
  5
4E3
330
474
100
AcDbEntity
  8
0
 62
     0
100
AcDbMText
 10
28.89266076600208
 20
41.91671144317517
 30
0.0
 40
0.5600000000000001
 41
0.0
 71
     5
 72
     1
  1
\A1;10.218
 11
0.0000000000000001
 21
1.0
 31
0.0
 73
     1
 44
1.0
1001
ACAD
1000
MTEXTBEGIN
1070
    73
1070
     1
1070
    44
1040
1.0
1070
    74
1070
     0
1000
MTEXTEND
  0
POINT
  5
4E4
330
474
100
AcDbEntity
  8
Defpoints
 62
     0
100
AcDbPoint
 10
28.89266076600208
 20
38.85593908759845
 30
0.0
  0
POINT
  5
4E5
330
474
100
AcDbEntity
  8
Defpoints
 62
     0
100
AcDbPoint
 10
28.89266076600208
 20
40.66004477650849
 30
0.0
  0
POINT
  5
4E6
330
474
100
AcDbEntity
  8
Defpoints
 62
     0
100
AcDbPoint
 10
18.67516076600205
 20
10.9100447765084
 30
0.0
  0
ENDBLK
  5
47B
330
474
100
AcDbEntity
  8
0
100
AcDbBlockEnd
  0
BLOCK
  5
482
330
47C
100
AcDbEntity
  8
0
100
AcDbBlockBegin
  2
*D28
 70
     1
 10
0.0
 20
0.0
 30
0.0
  3
*D28
  1

  0
LINE
  5
50F
330
47C
100
AcDbEntity
  8
0
 62
     0
370
    -2
100
AcDbLine
 10
28.01516076600208
 20
12.44209772438874
 30
0.0
 11
30.35516076600212
 21
12.44209772438876
 31
0.0
  0
MTEXT
  5
510
330
47C
100
AcDbEntity
  8
0
 62
     0
100
AcDbMText
 10
32.40516076600211
 20
12.44209772438876
 30
0.0
 40
0.5600000000000001
 41
0.0
 71
     5
 72
     1
  1
\A1;1.532 (2)
 73
     1
 44
1.0
1001
ACAD
1000
MTEXTBEGIN
1070
    73
1070
     1
1070
    44
1040
1.0
1070
    74
1070
     0
1000
MTEXTEND
  0
POINT
  5
511
330
47C
100
AcDbEntity
  8
Defpoints
 62
     0
100
AcDbPoint
 10
27.76516076600208
 20
12.44209772438874
 30
0.0
  0
POINT
  5
512
330
47C
100
AcDbEntity
  8
Defpoints
 62
     0
100
AcDbPoint
 10
30.35516076600212
 20
12.44209772438876
 30
0.0
  0
POINT
  5
513
330
47C
100
AcDbEntity
  8
Defpoints
 62
     0
100
AcDbPoint
 10
18.67516076600205
 20
10.9100447765084
 30
0.0
  0
ENDBLK
  5
483
330
47C
100
AcDbEntity
  8
0
100
AcDbBlockEnd
  0
BLOCK
  5
48A
330
484
100
AcDbEntity
  8
0
100
AcDbBlockBegin
  2
*D29
 70
     1
 10
0.0
 20
0.0
 30
0.0
  3
*D29
  1

  0
LINE
  5
524
330
484
100
AcDbEntity
  8
0
 62
     0
370
    -2
100
AcDbLine
 10
18.67516076600205
 20
10.66004477650845
 30
0.0
 11
18.6751607660021
 21
9.910044776508399
 31
0.0
  0
MTEXT
  5
525
330
484
100
AcDbEntity
  8
0
 62
     0
100
AcDbMText
 10
18.6751607660021
 20
8.886711443175068
 30
0.0
 40
0.5600000000000001
 41
0.0
 71
     5
 72
     1
  1
\A1;0.000
 11
0.0000000000000001
 21
1.0
 31
0.0
 73
     1
 44
1.0
1001
ACAD
1000
MTEXTBEGIN
1070
    73
1070
     1
1070
    44
1040
1.0
1070
    74
1070
     0
1000
MTEXTEND
  0
POINT
  5
526
330
484
100
AcDbEntity
  8
Defpoints
 62
     0
100
AcDbPoint
 10
18.67516076600205
 20
10.91004477650844
 30
0.0
  0
POINT
  5
527
330
484
100
AcDbEntity
  8
Defpoints
 62
     0
100
AcDbPoint
 10
18.6751607660021
 20
9.910044776508399
 30
0.0
  0
POINT
  5
528
330
484
100
AcDbEntity
  8
Defpoints
 62
     0
100
AcDbPoint
 10
18.67516076600205
 20
10.9100447765084
 30
0.0
  0
ENDBLK
  5
48B
330
484
100
AcDbEntity
  8
0
100
AcDbBlockEnd
  0
BLOCK
  5
492
330
48C
100
AcDbEntity
  8
0
100
AcDbBlockBegin
  2
*D30
 70
     1
 10
0.0
 20
0.0
 30
0.0
  3
*D30
  1

  0
LINE
  5
529
330
48C
100
AcDbEntity
  8
0
 62
     0
370
    -2
100
AcDbLine
 10
18.42516076600211
 20
10.9100447765084
 30
0.0
 11
17.67516076600205
 21
10.9100447765084
 31
0.0
  0
MTEXT
  5
52A
330
48C
100
AcDbEntity
  8
0
 62
     0
100
AcDbMText
 10
16.65182743266871
 20
10.9100447765084
 30
0.0
 40
0.5600000000000001
 41
0.0
 71
     5
 72
     1
  1
\A1;0.000
 73
     1
 44
1.0
1001
ACAD
1000
MTEXTBEGIN
1070
    73
1070
     1
1070
    44
1040
1.0
1070
    74
1070
     0
1000
MTEXTEND
  0
POINT
  5
52B
330
48C
100
AcDbEntity
  8
Defpoints
 62
     0
100
AcDbPoint
 10
18.6751607660021
 20
10.9100447765084
 30
0.0
  0
POINT
  5
52C
330
48C
100
AcDbEntity
  8
Defpoints
 62
     0
100
AcDbPoint
 10
17.67516076600205
 20
10.9100447765084
 30
0.0
  0
POINT
  5
52D
330
48C
100
AcDbEntity
  8
Defpoints
 62
     0
100
AcDbPoint
 10
18.6751607660021
 20
10.91004477650834
 30
0.0
  0
ENDBLK
  5
493
330
48C
100
AcDbEntity
  8
0
100
AcDbBlockEnd
  0
BLOCK
  5
49D
330
494
100
AcDbEntity
  8
0
100
AcDbBlockBegin
  2
*D31
 70
     1
 10
0.0
 20
0.0
 30
0.0
  3
*D31
  1

  0
LINE
  5
52E
330
494
100
AcDbEntity
  8
0
 62
     0
370
    -2
100
AcDbLine
 10
17.11516076600198
 20
26.60735116385244
 30
0.0
 11
17.67516076600198
 21
26.60735116385244
 31
0.0
  0
LINE
  5
52F
330
494
100
AcDbEntity
  8
0
 62
     0
370
    -2
100
AcDbLine
 10
17.67516076600198
 20
26.60735116385244
 30
0.0
 11
19.63723555492558
 21
27.87455342434938
 31
0.0
  0
MTEXT
  5
530
102
{ACAD_XDICTIONARY
360
A01
102
}
330
494
100
AcDbEntity
  8
0
 62
     0
100
AcDbMText
 10
15.01849409933532
 20
26.60735116385244
 30
0.0
 40
0.5600000000000001
 41
0.0
 71
     5
 72
     1
  1
\A1;(6)\U+22050.375
 73
     1
 44
1.0
1001
ACAD
1000
MTEXTBEGIN
1070
    73
1070
     1
1070
    44
1040
1.0
1070
    74
1070
     0
1000
MTEXTEND
  0
SOLID
  5
531
330
494
100
AcDbEntity
  8
0
 62
     0
100
AcDbTrace
 10
19.58659903139779
 20
27.95295657222069
 30
0.0
 11
19.68787207845336
 21
27.79615027647807
 31
0.0
 12
20.10765444215346
 22
28.17837256551609
 32
0.0
 13
20.10765444215346
 23
28.17837256551609
 33
0.0
  0
LINE
  5
532
330
494
100
AcDbEntity
  8
0
 62
     0
370
    -2
100
AcDbLine
 10
20.17516076600209
 20
28.28009772438889
 30
0.0
 11
20.35516076600209
 21
28.28009772438889
 31
0.0
  0
LINE
  5
533
330
494
100
AcDbEntity
  8
0
 62
     0
370
    -2
100
AcDbLine
 10
20.26516076600209
 20
28.19009772438889
 30
0.0
 11
20.26516076600209
 21
28.37009772438888
 31
0.0
  0
POINT
  5
534
330
494
100
AcDbEntity
  8
Defpoints
 62
     0
100
AcDbPoint
 10
20.10765444215346
 20
28.17837256551609
 30
0.0
  0
POINT
  5
535
330
494
100
AcDbEntity
  8
Defpoints
 62
     0
100
AcDbPoint
 10
20.42266708985072
 20
28.38182288326168
 30
0.0
  0
ENDBLK
  5
49E
330
494
100
AcDbEntity
  8
0
100
AcDbBlockEnd
  0
BLOCK
  5
4A7
330
49F
100
AcDbEntity
  8
0
100
AcDbBlockBegin
  2
*D32
 70
     1
 10
0.0
 20
0.0
 30
0.0
  3
*D32
  1

  0
LINE
  5
536
330
49F
100
AcDbEntity
  8
0
 62
     0
370
    -2
100
AcDbLine
 10
17.67516076600204
 20
31.43485615872878
 30
0.0
 11
22.86924586904411
 21
32.80298039078849
 31
0.0
  0
MTEXT
  5
537
102
{ACAD_XDICTIONARY
360
A03
102
}
330
49F
100
AcDbEntity
  8
0
 62
     0
100
AcDbMText
 10
16.32516076600203
 20
31.43485615872879
 30
0.0
 40
0.5600000000000001
 41
0.0
 71
     5
 72
     1
  1
\A1;\U+22051.250
 73
     1
 44
1.0
1001
ACAD
1000
MTEXTBEGIN
1070
    73
1070
     1
1070
    44
1040
1.0
1070
    74
1070
     0
1000
MTEXTEND
  0
SOLID
  5
538
330
49F
100
AcDbEntity
  8
0
 62
     0
100
AcDbTrace
 10
22.84547268975714
 20
32.89323529125212
 30
0.0
 11
22.89301904833109
 21
32.71272549032485
 31
0.0
 12
23.41077527182591
 22
32.94561946651035
 32
0.0
 13
23.41077527182591
 23
32.94561946651035
 33
0.0
  0
LINE
  5
539
330
49F
100
AcDbEntity
  8
0
 62
     0
370
    -2
100
AcDbLine
 10
23.92516076600202
 20
33.10481486352134
 30
0.0
 11
24.10516076600201
 21
33.10481486352137
 31
0.0
  0
LINE
  5
53A
330
49F
100
AcDbEntity
  8
0
 62
     0
370
    -2
100
AcDbLine
 10
24.01516076600201
 20
33.01481486352134
 30
0.0
 11
24.01516076600201
 21
33.19481486352135
 31
0.0
  0
POINT
  5
53B
330
49F
100
AcDbEntity
  8
Defpoints
 62
     0
100
AcDbPoint
 10
23.41077527182591
 20
32.94561946651035
 30
0.0
  0
POINT
  5
53C
330
49F
100
AcDbEntity
  8
Defpoints
 62
     0
100
AcDbPoint
 10
24.61954626017812
 20
33.26401026053235
 30
0.0
  0
ENDBLK
  5
4A8
330
49F
100
AcDbEntity
  8
0
100
AcDbBlockEnd
  0
BLOCK
  5
4C7
330
4C1
100
AcDbEntity
  8
0
100
AcDbBlockBegin
  2
*D33
 70
     1
 10
0.0
 20
0.0
 30
0.0
  3
*D33
  1

  0
LINE
  5
4C2
330
4C1
100
AcDbEntity
  8
0
 62
     0
370
    -2
100
AcDbLine
 10
19.20016076600203
 20
36.24209182862818
 30
0.0
 11
17.67516076600211
 21
36.24209182862818
 31
0.0
  0
MTEXT
  5
4C3
330
4C1
100
AcDbEntity
  8
0
 62
     0
100
AcDbMText
 10
16.1851607660021
 20
36.24209182862818
 30
0.0
 40
0.5600000000000001
 41
0.0
 71
     5
 72
     1
  1
\A1;25.332
 73
     1
 44
1.0
1001
ACAD
1000
MTEXTBEGIN
1070
    73
1070
     1
1070
    44
1040
1.0
1070
    74
1070
     0
1000
MTEXTEND
  0
POINT
  5
4C4
330
4C1
100
AcDbEntity
  8
Defpoints
 62
     0
100
AcDbPoint
 10
19.45016076600203
 20
36.24209182862818
 30
0.0
  0
POINT
  5
4C5
330
4C1
100
AcDbEntity
  8
Defpoints
 62
     0
100
AcDbPoint
 10
17.67516076600211
 20
36.24209182862818
 30
0.0
  0
POINT
  5
4C6
330
4C1
100
AcDbEntity
  8
Defpoints
 62
     0
100
AcDbPoint
 10
18.67516076600205
 20
10.9100447765084
 30
0.0
  0
ENDBLK
  5
4C8
330
4C1
100
AcDbEntity
  8
0
100
AcDbBlockEnd
  0
BLOCK
  5
4CF
330
4C9
100
AcDbEntity
  8
0
100
AcDbBlockBegin
  2
*D34
 70
     1
 10
0.0
 20
0.0
 30
0.0
  3
*D34
  1

  0
LINE
  5
4CA
330
4C9
100
AcDbEntity
  8
0
 62
     0
370
    -2
100
AcDbLine
 10
19.13766076600203
 20
39.10593908759845
 30
0.0
 11
19.13766076600204
 21
40.66004477650849
 31
0.0
  0
MTEXT
  5
4CB
330
4C9
100
AcDbEntity
  8
0
 62
     0
100
AcDbMText
 10
19.13766076600203
 20
41.82337810984185
 30
0.0
 40
0.5600000000000001
 41
0.0
 71
     5
 72
     1
  1
\A1;0.462
 11
0.0000000000000001
 21
1.0
 31
0.0
 73
     1
 44
1.0
1001
ACAD
1000
MTEXTBEGIN
1070
    73
1070
     1
1070
    44
1040
1.0
1070
    74
1070
     0
1000
MTEXTEND
  0
POINT
  5
4CC
330
4C9
100
AcDbEntity
  8
Defpoints
 62
     0
100
AcDbPoint
 10
19.13766076600203
 20
38.85593908759845
 30
0.0
  0
POINT
  5
4CD
330
4C9
100
AcDbEntity
  8
Defpoints
 62
     0
100
AcDbPoint
 10
19.13766076600204
 20
40.66004477650849
 30
0.0
  0
POINT
  5
4CE
330
4C9
100
AcDbEntity
  8
Defpoints
 62
     0
100
AcDbPoint
 10
18.67516076600205
 20
10.9100447765084
 30
0.0
  0
ENDBLK
  5
4D0
330
4C9
100
AcDbEntity
  8
0
100
AcDbBlockEnd
  0
BLOCK
  5
4E0
330
4D8
100
AcDbEntity
  8
0
100
AcDbBlockBegin
  2
*D35
 70
     1
 10
0.0
 20
0.0
 30
0.0
  3
*D35
  1

  0
LINE
  5
4D9
330
4D8
100
AcDbEntity
  8
0
 62
     0
370
    -2
100
AcDbLine
 10
28.58016076600208
 20
39.49799182862817
 30
0.0
 11
28.58016076600208
 21
39.94004477650851
 31
0.0
  0
LINE
  5
4DA
330
4D8
100
AcDbEntity
  8
0
 62
     0
370
    -2
100
AcDbLine
 10
28.58016076600208
 20
39.94004477650851
 30
0.0
 11
28.04593397955303
 21
40.30004477650851
 31
0.0
  0
LINE
  5
4DB
330
4D8
100
AcDbEntity
  8
0
 62
     0
370
    -2
100
AcDbLine
 10
28.04593397955303
 20
40.30004477650851
 30
0.0
 11
28.04593397955303
 21
40.66004477650849
 31
0.0
  0
MTEXT
  5
4DC
330
4D8
100
AcDbEntity
  8
0
 62
     0
100
AcDbMText
 10
28.04593397955302
 20
41.82337810984185
 30
0.0
 40
0.5600000000000001
 41
0.0
 71
     5
 72
     1
  1
\A1;9.905
 11
0.0000000000000001
 21
1.0
 31
0.0
 73
     1
 44
1.0
1001
ACAD
1000
MTEXTBEGIN
1070
    73
1070
     1
1070
    44
1040
1.0
1070
    74
1070
     0
1000
MTEXTEND
  0
POINT
  5
4DD
330
4D8
100
AcDbEntity
  8
Defpoints
 62
     0
100
AcDbPoint
 10
28.58016076600208
 20
39.24799182862816
 30
0.0
  0
POINT
  5
4DE
330
4D8
100
AcDbEntity
  8
Defpoints
 62
     0
100
AcDbPoint
 10
28.04593397955303
 20
40.66004477650849
 30
0.0
  0
POINT
  5
4DF
330
4D8
100
AcDbEntity
  8
Defpoints
 62
     0
100
AcDbPoint
 10
18.67516076600205
 20
10.9100447765084
 30
0.0
  0
ENDBLK
  5
4E1
330
4D8
100
AcDbEntity
  8
0
100
AcDbBlockEnd
  0
BLOCK
  5
4ED
330
4E7
100
AcDbEntity
  8
0
100
AcDbBlockBegin
  2
*D36
 70
     1
 10
0.0
 20
0.0
 30
0.0
  3
*D36
  1

  0
LINE
  5
4E8
330
4E7
100
AcDbEntity
  8
0
 62
     0
370
    -2
100
AcDbLine
 10
29.14266076600208
 20
38.85593908759845
 30
0.0
 11
30.355160766002
 21
38.85593908759845
 31
0.0
  0
MTEXT
  5
4E9
330
4E7
100
AcDbEntity
  8
0
 62
     0
100
AcDbMText
 10
32.77849409933534
 20
38.85593908759845
 30
0.0
 40
0.5600000000000001
 41
0.0
 71
     5
 72
     1
  1
\A1;27.946 (2)
 73
     1
 44
1.0
1001
ACAD
1000
MTEXTBEGIN
1070
    73
1070
     1
1070
    44
1040
1.0
1070
    74
1070
     0
1000
MTEXTEND
  0
POINT
  5
4EA
330
4E7
100
AcDbEntity
  8
Defpoints
 62
     0
100
AcDbPoint
 10
28.89266076600208
 20
38.85593908759845
 30
0.0
  0
POINT
  5
4EB
330
4E7
100
AcDbEntity
  8
Defpoints
 62
     0
100
AcDbPoint
 10
30.355160766002
 20
38.85593908759845
 30
0.0
  0
POINT
  5
4EC
330
4E7
100
AcDbEntity
  8
Defpoints
 62
     0
100
AcDbPoint
 10
18.67516076600205
 20
10.9100447765084
 30
0.0
  0
ENDBLK
  5
4EE
330
4E7
100
AcDbEntity
  8
0
100
AcDbBlockEnd
  0
BLOCK
  5
4F5
330
4EF
100
AcDbEntity
  8
0
100
AcDbBlockBegin
  2
*D37
 70
     1
 10
0.0
 20
0.0
 30
0.0
  3
*D37
  1

  0
LINE
  5
4F0
330
4EF
100
AcDbEntity
  8
0
 62
     0
370
    -2
100
AcDbLine
 10
24.26516076600203
 20
33.10481486352137
 30
0.0
 11
30.35516076600203
 21
33.10481486352138
 31
0.0
  0
MTEXT
  5
4F1
330
4EF
100
AcDbEntity
  8
0
 62
     0
100
AcDbMText
 10
31.7518274326687
 20
33.10481486352138
 30
0.0
 40
0.5600000000000001
 41
0.0
 71
     5
 72
     1
  1
\A1;22.195
 73
     1
 44
1.0
1001
ACAD
1000
MTEXTBEGIN
1070
    73
1070
     1
1070
    44
1040
1.0
1070
    74
1070
     0
1000
MTEXTEND
  0
POINT
  5
4F2
330
4EF
100
AcDbEntity
  8
Defpoints
 62
     0
100
AcDbPoint
 10
24.01516076600203
 20
33.10481486352137
 30
0.0
  0
POINT
  5
4F3
330
4EF
100
AcDbEntity
  8
Defpoints
 62
     0
100
AcDbPoint
 10
30.35516076600203
 20
33.10481486352138
 30
0.0
  0
POINT
  5
4F4
330
4EF
100
AcDbEntity
  8
Defpoints
 62
     0
100
AcDbPoint
 10
18.67516076600205
 20
10.9100447765084
 30
0.0
  0
ENDBLK
  5
4F6
330
4EF
100
AcDbEntity
  8
0
100
AcDbBlockEnd
  0
BLOCK
  5
4FD
330
4F7
100
AcDbEntity
  8
0
100
AcDbBlockBegin
  2
*D38
 70
     1
 10
0.0
 20
0.0
 30
0.0
  3
*D38
  1

  0
LINE
  5
4F8
330
4F7
100
AcDbEntity
  8
0
 62
     0
370
    -2
100
AcDbLine
 10
28.01516076600208
 20
28.28009772438888
 30
0.0
 11
30.35516076600206
 21
28.28009772438889
 31
0.0
  0
MTEXT
  5
4F9
330
4F7
100
AcDbEntity
  8
0
 62
     0
100
AcDbMText
 10
32.63849409933539
 20
28.28009772438889
 30
0.0
 40
0.5600000000000001
 41
0.0
 71
     5
 72
     1
  1
\A1;17.370 (2)
 73
     1
 44
1.0
1001
ACAD
1000
MTEXTBEGIN
1070
    73
1070
     1
1070
    44
1040
1.0
1070
    74
1070
     0
1000
MTEXTEND
  0
POINT
  5
4FA
330
4F7
100
AcDbEntity
  8
Defpoints
 62
     0
100
AcDbPoint
 10
27.76516076600208
 20
28.28009772438888
 30
0.0
  0
POINT
  5
4FB
330
4F7
100
AcDbEntity
  8
Defpoints
 62
     0
100
AcDbPoint
 10
30.35516076600206
 20
28.28009772438889
 30
0.0
  0
POINT
  5
4FC
330
4F7
100
AcDbEntity
  8
Defpoints
 62
     0
100
AcDbPoint
 10
18.67516076600205
 20
10.9100447765084
 30
0.0
  0
ENDBLK
  5
4FE
330
4F7
100
AcDbEntity
  8
0
100
AcDbBlockEnd
  0
BLOCK
  5
505
330
4FF
100
AcDbEntity
  8
0
100
AcDbBlockBegin
  2
*D39
 70
     1
 10
0.0
 20
0.0
 30
0.0
  3
*D39
  1

  0
LINE
  5
500
330
4FF
100
AcDbEntity
  8
0
 62
     0
370
    -2
100
AcDbLine
 10
19.07516076600191
 20
23.0061670491372
 30
0.0
 11
17.67516076600205
 21
23.0061670491372
 31
0.0
  0
MTEXT
  5
501
330
4FF
100
AcDbEntity
  8
0
 62
     0
100
AcDbMText
 10
16.32516076600206
 20
23.0061670491372
 30
0.0
 40
0.5600000000000001
 41
0.0
 71
     5
 72
     1
  1
\A1;12.096
 73
     1
 44
1.0
1001
ACAD
1000
MTEXTBEGIN
1070
    73
1070
     1
1070
    44
1040
1.0
1070
    74
1070
     0
1000
MTEXTEND
  0
POINT
  5
502
330
4FF
100
AcDbEntity
  8
Defpoints
 62
     0
100
AcDbPoint
 10
19.32516076600191
 20
23.0061670491372
 30
0.0
  0
POINT
  5
503
330
4FF
100
AcDbEntity
  8
Defpoints
 62
     0
100
AcDbPoint
 10
17.67516076600205
 20
23.0061670491372
 30
0.0
  0
POINT
  5
504
330
4FF
100
AcDbEntity
  8
Defpoints
 62
     0
100
AcDbPoint
 10
18.67516076600205
 20
10.9100447765084
 30
0.0
  0
ENDBLK
  5
506
330
4FF
100
AcDbEntity
  8
0
100
AcDbBlockEnd
  0
BLOCK
  5
50D
330
507
100
AcDbEntity
  8
0
100
AcDbBlockBegin
  2
*D40
 70
     1
 10
0.0
 20
0.0
 30
0.0
  3
*D40
  1

  0
LINE
  5
508
330
507
100
AcDbEntity
  8
0
 62
     0
370
    -2
100
AcDbLine
 10
19.07516076600191
 20
20.00026704913715
 30
0.0
 11
17.67516076600205
 21
20.00026704913715
 31
0.0
  0
MTEXT
  5
509
330
507
100
AcDbEntity
  8
0
 62
     0
100
AcDbMText
 10
16.5584940993354
 20
20.00026704913715
 30
0.0
 40
0.5600000000000001
 41
0.0
 71
     5
 72
     1
  1
\A1;9.090
 73
     1
 44
1.0
1001
ACAD
1000
MTEXTBEGIN
1070
    73
1070
     1
1070
    44
1040
1.0
1070
    74
1070
     0
1000
MTEXTEND
  0
POINT
  5
50A
330
507
100
AcDbEntity
  8
Defpoints
 62
     0
100
AcDbPoint
 10
19.32516076600191
 20
20.00026704913715
 30
0.0
  0
POINT
  5
50B
330
507
100
AcDbEntity
  8
Defpoints
 62
     0
100
AcDbPoint
 10
17.67516076600205
 20
20.00026704913715
 30
0.0
  0
POINT
  5
50C
330
507
100
AcDbEntity
  8
Defpoints
 62
     0
100
AcDbPoint
 10
18.67516076600205
 20
10.9100447765084
 30
0.0
  0
ENDBLK
  5
50E
330
507
100
AcDbEntity
  8
0
100
AcDbBlockEnd
  0
BLOCK
  5
51A
330
514
100
AcDbEntity
  8
0
100
AcDbBlockBegin
  2
*D41
 70
     1
 10
0.0
 20
0.0
 30
0.0
  3
*D41
  1

  0
LINE
  5
515
330
514
100
AcDbEntity
  8
0
 62
     0
370
    -2
100
AcDbLine
 10
27.76516076600208
 20
12.19209772438874
 30
0.0
 11
27.7651607660021
 21
9.910044776508399
 31
0.0
  0
MTEXT
  5
516
330
514
100
AcDbEntity
  8
0
 62
     0
100
AcDbMText
 10
27.7651607660021
 20
7.860044776508402
 30
0.0
 40
0.5600000000000001
 41
0.0
 71
     5
 72
     1
  1
\A1;(2) 9.090
 11
0.0000000000000001
 21
1.0
 31
0.0
 73
     1
 44
1.0
1001
ACAD
1000
MTEXTBEGIN
1070
    73
1070
     1
1070
    44
1040
1.0
1070
    74
1070
     0
1000
MTEXTEND
  0
POINT
  5
517
330
514
100
AcDbEntity
  8
Defpoints
 62
     0
100
AcDbPoint
 10
27.76516076600208
 20
12.44209772438874
 30
0.0
  0
POINT
  5
518
330
514
100
AcDbEntity
  8
Defpoints
 62
     0
100
AcDbPoint
 10
27.7651607660021
 20
9.910044776508399
 30
0.0
  0
POINT
  5
519
330
514
100
AcDbEntity
  8
Defpoints
 62
     0
100
AcDbPoint
 10
18.67516076600205
 20
10.9100447765084
 30
0.0
  0
ENDBLK
  5
51B
330
514
100
AcDbEntity
  8
0
100
AcDbBlockEnd
  0
BLOCK
  5
522
330
51C
100
AcDbEntity
  8
0
100
AcDbBlockBegin
  2
*D42
 70
     1
 10
0.0
 20
0.0
 30
0.0
  3
*D42
  1

  0
LINE
  5
51D
330
51C
100
AcDbEntity
  8
0
 62
     0
370
    -2
100
AcDbLine
 10
20.26516076600208
 20
12.19209772438874
 30
0.0
 11
20.2651607660021
 21
9.910044776508399
 31
0.0
  0
MTEXT
  5
51E
330
51C
100
AcDbEntity
  8
0
 62
     0
100
AcDbMText
 10
20.26516076600209
 20
7.90671144317507
 30
0.0
 40
0.5600000000000001
 41
0.0
 71
     5
 72
     1
  1
\A1;(2) 1.590
 11
0.0000000000000001
 21
1.0
 31
0.0
 73
     1
 44
1.0
1001
ACAD
1000
MTEXTBEGIN
1070
    73
1070
     1
1070
    44
1040
1.0
1070
    74
1070
     0
1000
MTEXTEND
  0
POINT
  5
51F
330
51C
100
AcDbEntity
  8
Defpoints
 62
     0
100
AcDbPoint
 10
20.26516076600208
 20
12.44209772438874
 30
0.0
  0
POINT
  5
520
330
51C
100
AcDbEntity
  8
Defpoints
 62
     0
100
AcDbPoint
 10
20.2651607660021
 20
9.910044776508399
 30
0.0
  0
POINT
  5
521
330
51C
100
AcDbEntity
  8
Defpoints
 62
     0
100
AcDbPoint
 10
18.67516076600205
 20
10.9100447765084
 30
0.0
  0
ENDBLK
  5
523
330
51C
100
AcDbEntity
  8
0
100
AcDbBlockEnd
  0
BLOCK
  5
59A
330
599
100
AcDbEntity
  8
0
100
AcDbBlockBegin
  2
*D43
 70
     1
 10
0.0
 20
0.0
 30
0.0
  3
*D43
  1

  0
LINE
  5
59B
330
599
100
AcDbEntity
  8
0
 62
     0
370
    -2
100
AcDbLine
 10
116.1874202182364
 20
-74.44924374231672
 30
0.0
 11
115.4374202182363
 21
-74.44924374231672
 31
0.0
  0
MTEXT
  5
59C
330
599
100
AcDbEntity
  8
0
 62
     0
100
AcDbMText
 10
114.414086884903
 20
-74.44924374231672
 30
0.0
 40
0.5600000000000001
 41
0.0
 71
     5
 72
     1
  1
\A1;0.000
 73
     1
 44
1.0
1001
ACAD
1000
MTEXTBEGIN
1070
    73
1070
     1
1070
    44
1040
1.0
1070
    74
1070
     0
1000
MTEXTEND
  0
POINT
  5
59D
330
599
100
AcDbEntity
  8
Defpoints
 62
     0
100
AcDbPoint
 10
116.4374202182364
 20
-74.44924374231672
 30
0.0
  0
POINT
  5
59E
330
599
100
AcDbEntity
  8
Defpoints
 62
     0
100
AcDbPoint
 10
115.4374202182363
 20
-74.44924374231672
 30
0.0
  0
POINT
  5
59F
330
599
100
AcDbEntity
  8
Defpoints
 62
     0
100
AcDbPoint
 10
116.4374202182364
 20
-74.44924374231678
 30
0.0
  0
ENDBLK
  5
5A0
330
599
100
AcDbEntity
  8
0
100
AcDbBlockEnd
  0
BLOCK
  5
5A2
330
5A1
100
AcDbEntity
  8
0
100
AcDbBlockBegin
  2
*D44
 70
     1
 10
0.0
 20
0.0
 30
0.0
  3
*D44
  1

  0
LINE
  5
5A3
330
5A1
100
AcDbEntity
  8
0
 62
     0
370
    -2
100
AcDbLine
 10
116.4374202182363
 20
-74.69924374231665
 30
0.0
 11
116.4374202182364
 21
-75.44924374231674
 31
0.0
  0
MTEXT
  5
5A4
330
5A1
100
AcDbEntity
  8
0
 62
     0
100
AcDbMText
 10
116.4374202182364
 20
-76.47257707565003
 30
0.0
 40
0.5600000000000001
 41
0.0
 71
     5
 72
     1
  1
\A1;0.000
 11
0.0000000000000001
 21
1.0
 31
0.0
 73
     1
 44
1.0
1001
ACAD
1000
MTEXTBEGIN
1070
    73
1070
     1
1070
    44
1040
1.0
1070
    74
1070
     0
1000
MTEXTEND
  0
POINT
  5
5A5
330
5A1
100
AcDbEntity
  8
Defpoints
 62
     0
100
AcDbPoint
 10
116.4374202182363
 20
-74.44924374231668
 30
0.0
  0
POINT
  5
5A6
330
5A1
100
AcDbEntity
  8
Defpoints
 62
     0
100
AcDbPoint
 10
116.4374202182364
 20
-75.44924374231674
 30
0.0
  0
POINT
  5
5A7
330
5A1
100
AcDbEntity
  8
Defpoints
 62
     0
100
AcDbPoint
 10
116.4374202182363
 20
-74.44924374231672
 30
0.0
  0
ENDBLK
  5
5A8
330
5A1
100
AcDbEntity
  8
0
100
AcDbBlockEnd
  0
BLOCK
  5
5AA
330
5A9
100
AcDbEntity
  8
0
100
AcDbBlockBegin
  2
*D45
 70
     1
 10
0.0
 20
0.0
 30
0.0
  3
*D45
  1

  0
LINE
  5
5AB
330
5A9
100
AcDbEntity
  8
0
 62
     0
370
    -2
100
AcDbLine
 10
118.0274202182364
 20
-73.16719079443638
 30
0.0
 11
118.0274202182364
 21
-75.44924374231674
 31
0.0
  0
MTEXT
  5
5AC
330
5A9
100
AcDbEntity
  8
0
 62
     0
100
AcDbMText
 10
118.0274202182364
 20
-77.45257707565007
 30
0.0
 40
0.5600000000000001
 41
0.0
 71
     5
 72
     1
  1
\A1;(2) 1.590
 11
0.0000000000000001
 21
1.0
 31
0.0
 73
     1
 44
1.0
1001
ACAD
1000
MTEXTBEGIN
1070
    73
1070
     1
1070
    44
1040
1.0
1070
    74
1070
     0
1000
MTEXTEND
  0
POINT
  5
5AD
330
5A9
100
AcDbEntity
  8
Defpoints
 62
     0
100
AcDbPoint
 10
118.0274202182364
 20
-72.91719079443637
 30
0.0
  0
POINT
  5
5AE
330
5A9
100
AcDbEntity
  8
Defpoints
 62
     0
100
AcDbPoint
 10
118.0274202182364
 20
-75.44924374231674
 30
0.0
  0
POINT
  5
5AF
330
5A9
100
AcDbEntity
  8
Defpoints
 62
     0
100
AcDbPoint
 10
116.4374202182363
 20
-74.44924374231672
 30
0.0
  0
ENDBLK
  5
5B0
330
5A9
100
AcDbEntity
  8
0
100
AcDbBlockEnd
  0
BLOCK
  5
5B2
330
5B1
100
AcDbEntity
  8
0
100
AcDbBlockBegin
  2
*D46
 70
     1
 10
0.0
 20
0.0
 30
0.0
  3
*D46
  1

  0
LINE
  5
5B3
330
5B1
100
AcDbEntity
  8
0
 62
     0
370
    -2
100
AcDbLine
 10
125.5274202182364
 20
-73.16719079443638
 30
0.0
 11
125.5274202182364
 21
-75.44924374231674
 31
0.0
  0
MTEXT
  5
5B4
330
5B1
100
AcDbEntity
  8
0
 62
     0
100
AcDbMText
 10
125.5274202182364
 20
-77.49924374231672
 30
0.0
 40
0.5600000000000001
 41
0.0
 71
     5
 72
     1
  1
\A1;(2) 9.090
 11
0.0000000000000001
 21
1.0
 31
0.0
 73
     1
 44
1.0
1001
ACAD
1000
MTEXTBEGIN
1070
    73
1070
     1
1070
    44
1040
1.0
1070
    74
1070
     0
1000
MTEXTEND
  0
POINT
  5
5B5
330
5B1
100
AcDbEntity
  8
Defpoints
 62
     0
100
AcDbPoint
 10
125.5274202182364
 20
-72.91719079443637
 30
0.0
  0
POINT
  5
5B6
330
5B1
100
AcDbEntity
  8
Defpoints
 62
     0
100
AcDbPoint
 10
125.5274202182364
 20
-75.44924374231674
 30
0.0
  0
POINT
  5
5B7
330
5B1
100
AcDbEntity
  8
Defpoints
 62
     0
100
AcDbPoint
 10
116.4374202182363
 20
-74.44924374231672
 30
0.0
  0
ENDBLK
  5
5B8
330
5B1
100
AcDbEntity
  8
0
100
AcDbBlockEnd
  0
BLOCK
  5
5BA
330
5B9
100
AcDbEntity
  8
0
100
AcDbBlockBegin
  2
*D47
 70
     1
 10
0.0
 20
0.0
 30
0.0
  3
*D47
  1

  0
LINE
  5
5BB
330
5B9
100
AcDbEntity
  8
0
 62
     0
370
    -2
100
AcDbLine
 10
125.7774202182364
 20
-72.91719079443637
 30
0.0
 11
128.1174202182364
 21
-72.91719079443637
 31
0.0
  0
MTEXT
  5
5BC
330
5B9
100
AcDbEntity
  8
0
 62
     0
100
AcDbMText
 10
130.1674202182364
 20
-72.91719079443637
 30
0.0
 40
0.5600000000000001
 41
0.0
 71
     5
 72
     1
  1
\A1;1.532 (2)
 73
     1
 44
1.0
1001
ACAD
1000
MTEXTBEGIN
1070
    73
1070
     1
1070
    44
1040
1.0
1070
    74
1070
     0
1000
MTEXTEND
  0
POINT
  5
5BD
330
5B9
100
AcDbEntity
  8
Defpoints
 62
     0
100
AcDbPoint
 10
125.5274202182364
 20
-72.91719079443637
 30
0.0
  0
POINT
  5
5BE
330
5B9
100
AcDbEntity
  8
Defpoints
 62
     0
100
AcDbPoint
 10
128.1174202182364
 20
-72.91719079443637
 30
0.0
  0
POINT
  5
5BF
330
5B9
100
AcDbEntity
  8
Defpoints
 62
     0
100
AcDbPoint
 10
116.4374202182363
 20
-74.44924374231672
 30
0.0
  0
ENDBLK
  5
5C0
330
5B9
100
AcDbEntity
  8
0
100
AcDbBlockEnd
  0
BLOCK
  5
5C2
330
5C1
100
AcDbEntity
  8
0
100
AcDbBlockBegin
  2
*D48
 70
     1
 10
0.0
 20
0.0
 30
0.0
  3
*D48
  1

  0
LINE
  5
5C3
330
5C1
100
AcDbEntity
  8
0
 62
     0
370
    -2
100
AcDbLine
 10
116.9624202182361
 20
-65.2340214696879
 30
0.0
 11
116.1574202182364
 21
-65.2340214696879
 31
0.0
  0
LINE
  5
5C4
330
5C1
100
AcDbEntity
  8
0
 62
     0
370
    -2
100
AcDbLine
 10
116.1574202182364
 20
-65.2340214696879
 30
0.0
 11
115.7974202182364
 21
-65.35902146968798
 31
0.0
  0
LINE
  5
5C5
330
5C1
100
AcDbEntity
  8
0
 62
     0
370
    -2
100
AcDbLine
 10
115.7974202182364
 20
-65.35902146968798
 30
0.0
 11
115.4374202182364
 21
-65.35902146968798
 31
0.0
  0
MTEXT
  5
5C6
330
5C1
100
AcDbEntity
  8
0
 62
     0
100
AcDbMText
 10
114.3207535515697
 20
-65.35902146968798
 30
0.0
 40
0.5600000000000001
 41
0.0
 71
     5
 72
     1
  1
\A1;9.215
 73
     1
 44
1.0
1001
ACAD
1000
MTEXTBEGIN
1070
    73
1070
     1
1070
    44
1040
1.0
1070
    74
1070
     0
1000
MTEXTEND
  0
POINT
  5
5C7
330
5C1
100
AcDbEntity
  8
Defpoints
 62
     0
100
AcDbPoint
 10
117.2124202182361
 20
-65.2340214696879
 30
0.0
  0
POINT
  5
5C8
330
5C1
100
AcDbEntity
  8
Defpoints
 62
     0
100
AcDbPoint
 10
115.4374202182364
 20
-65.35902146968798
 30
0.0
  0
POINT
  5
5C9
330
5C1
100
AcDbEntity
  8
Defpoints
 62
     0
100
AcDbPoint
 10
116.4374202182363
 20
-74.44924374231672
 30
0.0
  0
ENDBLK
  5
5CA
330
5C1
100
AcDbEntity
  8
0
100
AcDbBlockEnd
  0
BLOCK
  5
5CC
330
5CB
100
AcDbEntity
  8
0
100
AcDbBlockBegin
  2
*D49
 70
     1
 10
0.0
 20
0.0
 30
0.0
  3
*D49
  1

  0
LINE
  5
5CD
330
5CB
100
AcDbEntity
  8
0
 62
     0
370
    -2
100
AcDbLine
 10
116.9624202182361
 20
-62.47812146968792
 30
0.0
 11
116.1574202182364
 21
-62.47812146968792
 31
0.0
  0
LINE
  5
5CE
330
5CB
100
AcDbEntity
  8
0
 62
     0
370
    -2
100
AcDbLine
 10
116.1574202182364
 20
-62.47812146968792
 30
0.0
 11
115.7974202182364
 21
-62.35312146968792
 31
0.0
  0
LINE
  5
5CF
330
5CB
100
AcDbEntity
  8
0
 62
     0
370
    -2
100
AcDbLine
 10
115.7974202182364
 20
-62.35312146968792
 30
0.0
 11
115.4374202182364
 21
-62.35312146968792
 31
0.0
  0
MTEXT
  5
5D0
330
5CB
100
AcDbEntity
  8
0
 62
     0
100
AcDbMText
 10
114.2274202182364
 20
-62.35312146968792
 30
0.0
 40
0.5600000000000001
 41
0.0
 71
     5
 72
     1
  1
\A1;11.971
 73
     1
 44
1.0
1001
ACAD
1000
MTEXTBEGIN
1070
    73
1070
     1
1070
    44
1040
1.0
1070
    74
1070
     0
1000
MTEXTEND
  0
POINT
  5
5D1
330
5CB
100
AcDbEntity
  8
Defpoints
 62
     0
100
AcDbPoint
 10
117.2124202182361
 20
-62.47812146968792
 30
0.0
  0
POINT
  5
5D2
330
5CB
100
AcDbEntity
  8
Defpoints
 62
     0
100
AcDbPoint
 10
115.4374202182364
 20
-62.35312146968792
 30
0.0
  0
POINT
  5
5D3
330
5CB
100
AcDbEntity
  8
Defpoints
 62
     0
100
AcDbPoint
 10
116.4374202182363
 20
-74.44924374231672
 30
0.0
  0
ENDBLK
  5
5D4
330
5CB
100
AcDbEntity
  8
0
100
AcDbBlockEnd
  0
BLOCK
  5
5D6
330
5D5
100
AcDbEntity
  8
0
100
AcDbBlockBegin
  2
*D50
 70
     1
 10
0.0
 20
0.0
 30
0.0
  3
*D50
  1

  0
LINE
  5
5D7
330
5D5
100
AcDbEntity
  8
0
 62
     0
370
    -2
100
AcDbLine
 10
117.2124202182361
 20
-62.22812146968792
 30
0.0
 11
117.2124202182361
 21
-60.79175550135173
 31
0.0
  0
LINE
  5
5D8
330
5D5
100
AcDbEntity
  8
0
 62
     0
370
    -2
100
AcDbLine
 10
117.2124202182361
 20
-60.79175550135173
 30
0.0
 11
118.2109951415292
 21
-60.43175550135173
 31
0.0
  0
LINE
  5
5D9
330
5D5
100
AcDbEntity
  8
0
 62
     0
370
    -2
100
AcDbLine
 10
118.2109951415292
 20
-60.43175550135173
 30
0.0
 11
118.2109951415292
 21
-60.07175550135173
 31
0.0
  0
MTEXT
  5
5DA
330
5D5
100
AcDbEntity
  8
0
 62
     0
100
AcDbMText
 10
118.2109951415292
 20
-58.90842216801837
 30
0.0
 40
0.5600000000000001
 41
0.0
 71
     5
 72
     1
  1
\A1;0.775
 11
0.0000000000000001
 21
1.0
 31
0.0
 73
     1
 44
1.0
1001
ACAD
1000
MTEXTBEGIN
1070
    73
1070
     1
1070
    44
1040
1.0
1070
    74
1070
     0
1000
MTEXTEND
  0
POINT
  5
5DB
330
5D5
100
AcDbEntity
  8
Defpoints
 62
     0
100
AcDbPoint
 10
117.2124202182361
 20
-62.47812146968792
 30
0.0
  0
POINT
  5
5DC
330
5D5
100
AcDbEntity
  8
Defpoints
 62
     0
100
AcDbPoint
 10
118.2109951415292
 20
-60.07175550135173
 30
0.0
  0
POINT
  5
5DD
330
5D5
100
AcDbEntity
  8
Defpoints
 62
     0
100
AcDbPoint
 10
116.4374202182363
 20
-74.44924374231672
 30
0.0
  0
ENDBLK
  5
5DE
330
5D5
100
AcDbEntity
  8
0
100
AcDbBlockEnd
  0
BLOCK
  5
5E0
330
5DF
100
AcDbEntity
  8
0
100
AcDbBlockBegin
  2
*D51
 70
     1
 10
0.0
 20
0.0
 30
0.0
  3
*D51
  1

  0
LINE
  5
5E1
330
5DF
100
AcDbEntity
  8
0
 62
     0
370
    -2
100
AcDbLine
 10
126.3424202182361
 20
-62.22812146968792
 30
0.0
 11
126.3424202182361
 21
-60.79175550135173
 31
0.0
  0
LINE
  5
5E2
330
5DF
100
AcDbEntity
  8
0
 62
     0
370
    -2
100
AcDbLine
 10
126.3424202182361
 20
-60.79175550135173
 30
0.0
 11
125.3438452949433
 21
-60.43175550135173
 31
0.0
  0
LINE
  5
5E3
330
5DF
100
AcDbEntity
  8
0
 62
     0
370
    -2
100
AcDbLine
 10
125.3438452949433
 20
-60.43175550135173
 30
0.0
 11
125.3438452949433
 21
-60.07175550135173
 31
0.0
  0
MTEXT
  5
5E4
330
5DF
100
AcDbEntity
  8
0
 62
     0
100
AcDbMText
 10
125.3438452949433
 20
-58.90842216801837
 30
0.0
 40
0.5600000000000001
 41
0.0
 71
     5
 72
     1
  1
\A1;9.905
 11
0.0000000000000001
 21
1.0
 31
0.0
 73
     1
 44
1.0
1001
ACAD
1000
MTEXTBEGIN
1070
    73
1070
     1
1070
    44
1040
1.0
1070
    74
1070
     0
1000
MTEXTEND
  0
POINT
  5
5E5
330
5DF
100
AcDbEntity
  8
Defpoints
 62
     0
100
AcDbPoint
 10
126.3424202182361
 20
-62.47812146968792
 30
0.0
  0
POINT
  5
5E6
330
5DF
100
AcDbEntity
  8
Defpoints
 62
     0
100
AcDbPoint
 10
125.3438452949433
 20
-60.07175550135173
 30
0.0
  0
POINT
  5
5E7
330
5DF
100
AcDbEntity
  8
Defpoints
 62
     0
100
AcDbPoint
 10
116.4374202182363
 20
-74.44924374231672
 30
0.0
  0
ENDBLK
  5
5E8
330
5DF
100
AcDbEntity
  8
0
100
AcDbBlockEnd
  0
BLOCK
  5
5EA
330
5E9
100
AcDbEntity
  8
0
100
AcDbBlockBegin
  2
*D52
 70
     1
 10
0.0
 20
0.0
 30
0.0
  3
*D52
  1

  0
LINE
  5
5EB
330
5E9
100
AcDbEntity
  8
0
 62
     0
370
    -2
100
AcDbLine
 10
114.8774202182357
 20
-68.05381262798253
 30
0.0
 11
115.437420218236
 21
-68.05381262798251
 31
0.0
  0
LINE
  5
5EC
330
5E9
100
AcDbEntity
  8
0
 62
     0
370
    -2
100
AcDbLine
 10
115.437420218236
 20
-68.05381262798251
 30
0.0
 11
117.3994950071598
 21
-66.78661036748554
 31
0.0
  0
MTEXT
  5
5ED
102
{ACAD_XDICTIONARY
360
A36
102
}
330
5E9
100
AcDbEntity
  8
0
 62
     0
100
AcDbMText
 10
112.7807535515691
 20
-68.05381262798249
 30
0.0
 40
0.5600000000000001
 41
0.0
 71
     5
 72
     1
  1
\A1;(6)\U+22050.375
 73
     1
 44
1.0
1001
ACAD
1000
MTEXTBEGIN
1070
    73
1070
     1
1070
    44
1040
1.0
1070
    74
1070
     0
1000
MTEXTEND
  0
SOLID
  5
5EE
330
5E9
100
AcDbEntity
  8
0
 62
     0
100
AcDbTrace
 10
117.348858483632
 20
-66.70820721961423
 30
0.0
 11
117.4501315306876
 21
-66.86501351535685
 31
0.0
 12
117.8699138943877
 22
-66.48279122631882
 32
0.0
 13
117.8699138943877
 23
-66.48279122631882
 33
0.0
  0
LINE
  5
5EF
330
5E9
100
AcDbEntity
  8
0
 62
     0
370
    -2
100
AcDbLine
 10
117.9374202182363
 20
-66.38106606744604
 30
0.0
 11
118.1174202182363
 21
-66.38106606744603
 31
0.0
  0
LINE
  5
5F0
330
5E9
100
AcDbEntity
  8
0
 62
     0
370
    -2
100
AcDbLine
 10
118.0274202182363
 20
-66.47106606744603
 30
0.0
 11
118.0274202182363
 21
-66.29106606744603
 31
0.0
  0
POINT
  5
5F1
330
5E9
100
AcDbEntity
  8
Defpoints
 62
     0
100
AcDbPoint
 10
117.8699138943877
 20
-66.48279122631882
 30
0.0
  0
POINT
  5
5F2
330
5E9
100
AcDbEntity
  8
Defpoints
 62
     0
100
AcDbPoint
 10
118.1849265420849
 20
-66.27934090857323
 30
0.0
  0
ENDBLK
  5
5F3
330
5E9
100
AcDbEntity
  8
0
100
AcDbBlockEnd
  0
BLOCK
  5
5F5
330
5F4
100
AcDbEntity
  8
0
100
AcDbBlockBegin
  2
*D53
 70
     1
 10
0.0
 20
0.0
 30
0.0
  3
*D53
  1

  0
LINE
  5
5F6
330
5F4
100
AcDbEntity
  8
0
 62
     0
370
    -2
100
AcDbLine
 10
116.8929202182362
 20
-51.60265685776082
 30
0.0
 11
115.4374202182364
 21
-51.60265685776082
 31
0.0
  0
MTEXT
  5
5F7
330
5F4
100
AcDbEntity
  8
0
 62
     0
100
AcDbMText
 10
113.9474202182364
 20
-51.60265685776082
 30
0.0
 40
0.5600000000000001
 41
0.0
 71
     5
 72
     1
  1
\A1;22.847
 73
     1
 44
1.0
1001
ACAD
1000
MTEXTBEGIN
1070
    73
1070
     1
1070
    44
1040
1.0
1070
    74
1070
     0
1000
MTEXTEND
  0
POINT
  5
5F8
330
5F4
100
AcDbEntity
  8
Defpoints
 62
     0
100
AcDbPoint
 10
117.1429202182362
 20
-51.60265685776082
 30
0.0
  0
POINT
  5
5F9
330
5F4
100
AcDbEntity
  8
Defpoints
 62
     0
100
AcDbPoint
 10
115.4374202182364
 20
-51.60265685776082
 30
0.0
  0
POINT
  5
5FA
330
5F4
100
AcDbEntity
  8
Defpoints
 62
     0
100
AcDbPoint
 10
116.4374202182363
 20
-74.44924374231668
 30
0.0
  0
ENDBLK
  5
5FB
330
5F4
100
AcDbEntity
  8
0
100
AcDbBlockEnd
  0
BLOCK
  5
5FD
330
5FC
100
AcDbEntity
  8
0
100
AcDbBlockBegin
  2
*D54
 70
     1
 10
0.0
 20
0.0
 30
0.0
  3
*D54
  1

  0
LINE
  5
5FE
330
5FC
100
AcDbEntity
  8
0
 62
     0
370
    -2
100
AcDbLine
 10
116.8929202182362
 20
-47.14865685776087
 30
0.0
 11
115.4374202182364
 21
-47.14865685776087
 31
0.0
  0
MTEXT
  5
5FF
330
5FC
100
AcDbEntity
  8
0
 62
     0
100
AcDbMText
 10
114.0874202182364
 20
-47.14865685776087
 30
0.0
 40
0.5600000000000001
 41
0.0
 71
     5
 72
     1
  1
\A1;27.301
 73
     1
 44
1.0
1001
ACAD
1000
MTEXTBEGIN
1070
    73
1070
     1
1070
    44
1040
1.0
1070
    74
1070
     0
1000
MTEXTEND
  0
POINT
  5
600
330
5FC
100
AcDbEntity
  8
Defpoints
 62
     0
100
AcDbPoint
 10
117.1429202182362
 20
-47.14865685776087
 30
0.0
  0
POINT
  5
601
330
5FC
100
AcDbEntity
  8
Defpoints
 62
     0
100
AcDbPoint
 10
115.4374202182364
 20
-47.14865685776087
 30
0.0
  0
POINT
  5
602
330
5FC
100
AcDbEntity
  8
Defpoints
 62
     0
100
AcDbPoint
 10
116.4374202182363
 20
-74.44924374231668
 30
0.0
  0
ENDBLK
  5
603
330
5FC
100
AcDbEntity
  8
0
100
AcDbBlockEnd
  0
BLOCK
  5
605
330
604
100
AcDbEntity
  8
0
100
AcDbBlockBegin
  2
*D55
 70
     1
 10
0.0
 20
0.0
 30
0.0
  3
*D55
  1

  0
LINE
  5
606
330
604
100
AcDbEntity
  8
0
 62
     0
370
    -2
100
AcDbLine
 10
120.9024202182363
 20
-52.87621896979925
 30
0.0
 11
115.4374202182364
 21
-52.87621896979925
 31
0.0
  0
MTEXT
  5
607
330
604
100
AcDbEntity
  8
0
 62
     0
100
AcDbMText
 10
114.0407535515697
 20
-52.87621896979925
 30
0.0
 40
0.5600000000000001
 41
0.0
 71
     5
 72
     1
  1
\A1;21.573
 73
     1
 44
1.0
1001
ACAD
1000
MTEXTBEGIN
1070
    73
1070
     1
1070
    44
1040
1.0
1070
    74
1070
     0
1000
MTEXTEND
  0
POINT
  5
608
330
604
100
AcDbEntity
  8
Defpoints
 62
     0
100
AcDbPoint
 10
121.1524202182363
 20
-52.87621896979925
 30
0.0
  0
POINT
  5
609
330
604
100
AcDbEntity
  8
Defpoints
 62
     0
100
AcDbPoint
 10
115.4374202182364
 20
-52.87621896979925
 30
0.0
  0
POINT
  5
60A
330
604
100
AcDbEntity
  8
Defpoints
 62
     0
100
AcDbPoint
 10
116.4374202182363
 20
-74.44924374231668
 30
0.0
  0
ENDBLK
  5
60B
330
604
100
AcDbEntity
  8
0
100
AcDbBlockEnd
  0
BLOCK
  5
60D
330
60C
100
AcDbEntity
  8
0
100
AcDbBlockBegin
  2
*D56
 70
     1
 10
0.0
 20
0.0
 30
0.0
  3
*D56
  1

  0
LINE
  5
60E
330
60C
100
AcDbEntity
  8
0
 62
     0
370
    -2
100
AcDbLine
 10
125.7774202182363
 20
-66.38106606744603
 30
0.0
 11
128.1174202182364
 21
-66.38106606744603
 31
0.0
  0
MTEXT
  5
60F
330
60C
100
AcDbEntity
  8
0
 62
     0
100
AcDbMText
 10
129.2807535515697
 20
-66.38106606744603
 30
0.0
 40
0.5600000000000001
 41
0.0
 71
     5
 72
     1
  1
\A1;8.068
 73
     1
 44
1.0
1001
ACAD
1000
MTEXTBEGIN
1070
    73
1070
     1
1070
    44
1040
1.0
1070
    74
1070
     0
1000
MTEXTEND
  0
POINT
  5
610
330
60C
100
AcDbEntity
  8
Defpoints
 62
     0
100
AcDbPoint
 10
125.5274202182363
 20
-66.38106606744603
 30
0.0
  0
POINT
  5
611
330
60C
100
AcDbEntity
  8
Defpoints
 62
     0
100
AcDbPoint
 10
128.1174202182364
 20
-66.38106606744603
 30
0.0
  0
POINT
  5
612
330
60C
100
AcDbEntity
  8
Defpoints
 62
     0
100
AcDbPoint
 10
116.4374202182363
 20
-74.44924374231668
 30
0.0
  0
ENDBLK
  5
613
330
60C
100
AcDbEntity
  8
0
100
AcDbBlockEnd
  0
BLOCK
  5
615
330
614
100
AcDbEntity
  8
0
100
AcDbBlockBegin
  2
*D57
 70
     1
 10
0.0
 20
0.0
 30
0.0
  3
*D57
  1

  0
LINE
  5
616
330
614
100
AcDbEntity
  8
0
 62
     0
370
    -2
100
AcDbLine
 10
126.5274202182364
 20
-52.50009474572217
 30
0.0
 11
128.1174202182364
 21
-52.50009474572217
 31
0.0
  0
MTEXT
  5
617
330
614
100
AcDbEntity
  8
0
 62
     0
100
AcDbMText
 10
129.5140868849031
 20
-52.50009474572217
 30
0.0
 40
0.5600000000000001
 41
0.0
 71
     5
 72
     1
  1
\A1;21.949
 73
     1
 44
1.0
1001
ACAD
1000
MTEXTBEGIN
1070
    73
1070
     1
1070
    44
1040
1.0
1070
    74
1070
     0
1000
MTEXTEND
  0
POINT
  5
618
330
614
100
AcDbEntity
  8
Defpoints
 62
     0
100
AcDbPoint
 10
126.2774202182364
 20
-52.50009474572217
 30
0.0
  0
POINT
  5
619
330
614
100
AcDbEntity
  8
Defpoints
 62
     0
100
AcDbPoint
 10
128.1174202182364
 20
-52.50009474572217
 30
0.0
  0
POINT
  5
61A
330
614
100
AcDbEntity
  8
Defpoints
 62
     0
100
AcDbPoint
 10
116.4374202182363
 20
-74.44924374231668
 30
0.0
  0
ENDBLK
  5
61B
330
614
100
AcDbEntity
  8
0
100
AcDbBlockEnd
  0
BLOCK
  5
61D
330
61C
100
AcDbEntity
  8
0
100
AcDbBlockBegin
  2
*D58
 70
     1
 10
0.0
 20
0.0
 30
0.0
  3
*D58
  1

  0
LINE
  5
61E
330
61C
100
AcDbEntity
  8
0
 62
     0
370
    -2
100
AcDbLine
 10
126.9049202182363
 20
-46.50334943122659
 30
0.0
 11
128.1174202182364
 21
-46.50334943122659
 31
0.0
  0
MTEXT
  5
61F
330
61C
100
AcDbEntity
  8
0
 62
     0
100
AcDbMText
 10
129.6074202182364
 20
-46.50334943122659
 30
0.0
 40
0.5600000000000001
 41
0.0
 71
     5
 72
     1
  1
\A1;27.946
 73
     1
 44
1.0
1001
ACAD
1000
MTEXTBEGIN
1070
    73
1070
     1
1070
    44
1040
1.0
1070
    74
1070
     0
1000
MTEXTEND
  0
POINT
  5
620
330
61C
100
AcDbEntity
  8
Defpoints
 62
     0
100
AcDbPoint
 10
126.6549202182363
 20
-46.50334943122659
 30
0.0
  0
POINT
  5
621
330
61C
100
AcDbEntity
  8
Defpoints
 62
     0
100
AcDbPoint
 10
128.1174202182364
 20
-46.50334943122659
 30
0.0
  0
POINT
  5
622
330
61C
100
AcDbEntity
  8
Defpoints
 62
     0
100
AcDbPoint
 10
116.4374202182363
 20
-74.44924374231668
 30
0.0
  0
ENDBLK
  5
623
330
61C
100
AcDbEntity
  8
0
100
AcDbBlockEnd
  0
BLOCK
  5
625
330
624
100
AcDbEntity
  8
0
100
AcDbBlockBegin
  2
*D59
 70
     1
 10
0.0
 20
0.0
 30
0.0
  3
*D59
  1

  0
LINE
  5
626
330
624
100
AcDbEntity
  8
0
 62
     0
370
    -2
100
AcDbLine
 10
117.2774202182362
 20
-52.75009474572217
 30
0.0
 11
117.2774202182362
 21
-53.82255387247372
 31
0.0
  0
LINE
  5
627
330
624
100
AcDbEntity
  8
0
 62
     0
370
    -2
100
AcDbLine
 10
117.2774202182362
 20
-53.82255387247372
 30
0.0
 11
119.1277919031503
 21
-54.18255387247372
 31
0.0
  0
LINE
  5
628
330
624
100
AcDbEntity
  8
0
 62
     0
370
    -2
100
AcDbLine
 10
119.1277919031503
 20
-54.18255387247372
 30
0.0
 11
119.1277919031503
 21
-54.5425538724737
 31
0.0
  0
MTEXT
  5
629
330
624
100
AcDbEntity
  8
0
 62
     0
100
AcDbMText
 10
119.1277919031503
 20
-55.65922053914036
 30
0.0
 40
0.5600000000000001
 41
0.0
 71
     5
 72
     1
  1
\A1;0.840
 11
0.0000000000000001
 21
1.0
 31
0.0
 73
     1
 44
1.0
1001
ACAD
1000
MTEXTBEGIN
1070
    73
1070
     1
1070
    44
1040
1.0
1070
    74
1070
     0
1000
MTEXTEND
  0
POINT
  5
62A
330
624
100
AcDbEntity
  8
Defpoints
 62
     0
100
AcDbPoint
 10
117.2774202182362
 20
-52.50009474572217
 30
0.0
  0
POINT
  5
62B
330
624
100
AcDbEntity
  8
Defpoints
 62
     0
100
AcDbPoint
 10
119.1277919031503
 20
-54.5425538724737
 30
0.0
  0
POINT
  5
62C
330
624
100
AcDbEntity
  8
Defpoints
 62
     0
100
AcDbPoint
 10
116.4374202182363
 20
-74.44924374231668
 30
0.0
  0
ENDBLK
  5
62D
330
624
100
AcDbEntity
  8
0
100
AcDbBlockEnd
  0
BLOCK
  5
62F
330
62E
100
AcDbEntity
  8
0
100
AcDbBlockBegin
  2
*D60
 70
     1
 10
0.0
 20
0.0
 30
0.0
  3
*D60
  1

  0
LINE
  5
630
330
62E
100
AcDbEntity
  8
0
 62
     0
370
    -2
100
AcDbLine
 10
126.2774202182364
 20
-52.75009474572217
 30
0.0
 11
126.2774202182364
 21
-53.82255387247372
 31
0.0
  0
LINE
  5
631
330
62E
100
AcDbEntity
  8
0
 62
     0
370
    -2
100
AcDbLine
 10
126.2774202182364
 20
-53.82255387247372
 30
0.0
 11
124.2999936938044
 21
-54.18255387247372
 31
0.0
  0
LINE
  5
632
330
62E
100
AcDbEntity
  8
0
 62
     0
370
    -2
100
AcDbLine
 10
124.2999936938044
 20
-54.18255387247372
 30
0.0
 11
124.2999936938044
 21
-54.5425538724737
 31
0.0
  0
MTEXT
  5
633
330
62E
100
AcDbEntity
  8
0
 62
     0
100
AcDbMText
 10
124.2999936938044
 20
-55.70588720580703
 30
0.0
 40
0.5600000000000001
 41
0.0
 71
     5
 72
     1
  1
\A1;9.840
 11
0.0000000000000001
 21
1.0
 31
0.0
 73
     1
 44
1.0
1001
ACAD
1000
MTEXTBEGIN
1070
    73
1070
     1
1070
    44
1040
1.0
1070
    74
1070
     0
1000
MTEXTEND
  0
POINT
  5
634
330
62E
100
AcDbEntity
  8
Defpoints
 62
     0
100
AcDbPoint
 10
126.2774202182364
 20
-52.50009474572217
 30
0.0
  0
POINT
  5
635
330
62E
100
AcDbEntity
  8
Defpoints
 62
     0
100
AcDbPoint
 10
124.2999936938044
 20
-54.5425538724737
 30
0.0
  0
POINT
  5
636
330
62E
100
AcDbEntity
  8
Defpoints
 62
     0
100
AcDbPoint
 10
116.4374202182363
 20
-74.44924374231668
 30
0.0
  0
ENDBLK
  5
637
330
62E
100
AcDbEntity
  8
0
100
AcDbBlockEnd
  0
BLOCK
  5
639
330
638
100
AcDbEntity
  8
0
100
AcDbBlockBegin
  2
*D61
 70
     1
 10
0.0
 20
0.0
 30
0.0
  3
*D61
  1

  0
LINE
  5
63A
330
638
100
AcDbEntity
  8
0
 62
     0
370
    -2
100
AcDbLine
 10
127.1174202182363
 20
-45.44924374231655
 30
0.0
 11
127.1174202182363
 21
-44.69924374231655
 31
0.0
  0
MTEXT
  5
63B
330
638
100
AcDbEntity
  8
0
 62
     0
100
AcDbMText
 10
127.1174202182363
 20
-43.39591040898318
 30
0.0
 40
0.5600000000000001
 41
0.0
 71
     5
 72
     1
  1
\A1;10.680
 11
0.0000000000000001
 21
1.0
 31
0.0
 73
     1
 44
1.0
1001
ACAD
1000
MTEXTBEGIN
1070
    73
1070
     1
1070
    44
1040
1.0
1070
    74
1070
     0
1000
MTEXTEND
  0
POINT
  5
63C
330
638
100
AcDbEntity
  8
Defpoints
 62
     0
100
AcDbPoint
 10
127.1174202182363
 20
-45.69924374231655
 30
0.0
  0
POINT
  5
63D
330
638
100
AcDbEntity
  8
Defpoints
 62
     0
100
AcDbPoint
 10
127.1174202182363
 20
-44.69924374231655
 30
0.0
  0
POINT
  5
63E
330
638
100
AcDbEntity
  8
Defpoints
 62
     0
100
AcDbPoint
 10
116.4374202182363
 20
-74.44924374231668
 30
0.0
  0
ENDBLK
  5
63F
330
638
100
AcDbEntity
  8
0
100
AcDbBlockEnd
  0
BLOCK
  5
641
330
640
100
AcDbEntity
  8
0
100
AcDbBlockBegin
  2
*D62
 70
     1
 10
0.0
 20
0.0
 30
0.0
  3
*D62
  1

  0
LINE
  5
642
330
640
100
AcDbEntity
  8
0
 62
     0
370
    -2
100
AcDbLine
 10
127.3674202182363
 20
-45.69924374231655
 30
0.0
 11
128.1174202182364
 21
-45.69924374231655
 31
0.0
  0
MTEXT
  5
643
330
640
100
AcDbEntity
  8
0
 62
     0
100
AcDbMText
 10
129.5607535515697
 20
-45.69924374231655
 30
0.0
 40
0.5600000000000001
 41
0.0
 71
     5
 72
     1
  1
\A1;28.750
 73
     1
 44
1.0
1001
ACAD
1000
MTEXTBEGIN
1070
    73
1070
     1
1070
    44
1040
1.0
1070
    74
1070
     0
1000
MTEXTEND
  0
POINT
  5
644
330
640
100
AcDbEntity
  8
Defpoints
 62
     0
100
AcDbPoint
 10
127.1174202182363
 20
-45.69924374231655
 30
0.0
  0
POINT
  5
645
330
640
100
AcDbEntity
  8
Defpoints
 62
     0
100
AcDbPoint
 10
128.1174202182364
 20
-45.69924374231655
 30
0.0
  0
POINT
  5
646
330
640
100
AcDbEntity
  8
Defpoints
 62
     0
100
AcDbPoint
 10
116.4374202182363
 20
-74.44924374231668
 30
0.0
  0
ENDBLK
  5
647
330
640
100
AcDbEntity
  8
0
100
AcDbBlockEnd
  0
BLOCK
  5
649
330
648
100
AcDbEntity
  8
0
100
AcDbBlockBegin
  2
*D63
 70
     1
 10
0.0
 20
0.0
 30
0.0
  3
*D63
  1

  0
LINE
  5
64A
330
648
100
AcDbEntity
  8
0
 62
     0
370
    -2
100
AcDbLine
 10
126.6549202182363
 20
-46.25334943122659
 30
0.0
 11
126.6549202182363
 21
-45.41924374231655
 31
0.0
  0
LINE
  5
64B
330
648
100
AcDbEntity
  8
0
 62
     0
370
    -2
100
AcDbLine
 10
126.6549202182363
 20
-45.41924374231655
 30
0.0
 11
126.4097072428583
 21
-45.05924374231655
 31
0.0
  0
LINE
  5
64C
330
648
100
AcDbEntity
  8
0
 62
     0
370
    -2
100
AcDbLine
 10
126.4097072428583
 20
-45.05924374231655
 30
0.0
 11
126.4097072428583
 21
-44.69924374231655
 31
0.0
  0
MTEXT
  5
64D
330
648
100
AcDbEntity
  8
0
 62
     0
100
AcDbMText
 10
126.4097072428583
 20
-43.44257707564986
 30
0.0
 40
0.5600000000000001
 41
0.0
 71
     5
 72
     1
  1
\A1;10.218
 11
0.0000000000000001
 21
1.0
 31
0.0
 73
     1
 44
1.0
1001
ACAD
1000
MTEXTBEGIN
1070
    73
1070
     1
1070
    44
1040
1.0
1070
    74
1070
     0
1000
MTEXTEND
  0
POINT
  5
64E
330
648
100
AcDbEntity
  8
Defpoints
 62
     0
100
AcDbPoint
 10
126.6549202182363
 20
-46.50334943122659
 30
0.0
  0
POINT
  5
64F
330
648
100
AcDbEntity
  8
Defpoints
 62
     0
100
AcDbPoint
 10
126.4097072428583
 20
-44.69924374231655
 30
0.0
  0
POINT
  5
650
330
648
100
AcDbEntity
  8
Defpoints
 62
     0
100
AcDbPoint
 10
116.4374202182363
 20
-74.44924374231668
 30
0.0
  0
ENDBLK
  5
651
330
648
100
AcDbEntity
  8
0
100
AcDbBlockEnd
  0
BLOCK
  5
653
330
652
100
AcDbEntity
  8
0
100
AcDbBlockBegin
  2
*D64
 70
     1
 10
0.0
 20
0.0
 30
0.0
  3
*D64
  1

  0
LINE
  5
654
330
652
100
AcDbEntity
  8
0
 62
     0
370
    -2
100
AcDbLine
 10
116.8999202182362
 20
-46.25334943122659
 30
0.0
 11
116.8999202182362
 21
-44.69924374231655
 31
0.0
  0
MTEXT
  5
655
330
652
100
AcDbEntity
  8
0
 62
     0
100
AcDbMText
 10
116.8999202182362
 20
-43.5359104089832
 30
0.0
 40
0.5600000000000001
 41
0.0
 71
     5
 72
     1
  1
\A1;0.462
 11
0.0000000000000001
 21
1.0
 31
0.0
 73
     1
 44
1.0
1001
ACAD
1000
MTEXTBEGIN
1070
    73
1070
     1
1070
    44
1040
1.0
1070
    74
1070
     0
1000
MTEXTEND
  0
POINT
  5
656
330
652
100
AcDbEntity
  8
Defpoints
 62
     0
100
AcDbPoint
 10
116.8999202182362
 20
-46.50334943122659
 30
0.0
  0
POINT
  5
657
330
652
100
AcDbEntity
  8
Defpoints
 62
     0
100
AcDbPoint
 10
116.8999202182362
 20
-44.69924374231655
 30
0.0
  0
POINT
  5
658
330
652
100
AcDbEntity
  8
Defpoints
 62
     0
100
AcDbPoint
 10
116.4374202182363
 20
-74.44924374231668
 30
0.0
  0
ENDBLK
  5
659
330
652
100
AcDbEntity
  8
0
100
AcDbBlockEnd
  0
BLOCK
  5
65B
330
65A
100
AcDbEntity
  8
0
100
AcDbBlockBegin
  2
*D65
 70
     1
 10
0.0
 20
0.0
 30
0.0
  3
*D65
  1

  0
LINE
  5
65C
330
65A
100
AcDbEntity
  8
0
 62
     0
370
    -2
100
AcDbLine
 10
117.1429202182362
 20
-46.89865685776084
 30
0.0
 11
117.1429202182362
 21
-45.41924374231655
 31
0.0
  0
LINE
  5
65D
330
65A
100
AcDbEntity
  8
0
 62
     0
370
    -2
100
AcDbLine
 10
117.1429202182362
 20
-45.41924374231655
 30
0.0
 11
117.6633176919636
 21
-45.05924374231655
 31
0.0
  0
LINE
  5
65E
330
65A
100
AcDbEntity
  8
0
 62
     0
370
    -2
100
AcDbLine
 10
117.6633176919636
 20
-45.05924374231655
 30
0.0
 11
117.6633176919636
 21
-44.69924374231655
 31
0.0
  0
MTEXT
  5
65F
330
65A
100
AcDbEntity
  8
0
 62
     0
100
AcDbMText
 10
117.6633176919636
 20
-43.58257707564987
 30
0.0
 40
0.5600000000000001
 41
0.0
 71
     5
 72
     1
  1
\A1;0.705
 11
0.0000000000000001
 21
1.0
 31
0.0
 73
     1
 44
1.0
1001
ACAD
1000
MTEXTBEGIN
1070
    73
1070
     1
1070
    44
1040
1.0
1070
    74
1070
     0
1000
MTEXTEND
  0
POINT
  5
660
330
65A
100
AcDbEntity
  8
Defpoints
 62
     0
100
AcDbPoint
 10
117.1429202182362
 20
-47.14865685776087
 30
0.0
  0
POINT
  5
661
330
65A
100
AcDbEntity
  8
Defpoints
 62
     0
100
AcDbPoint
 10
117.6633176919636
 20
-44.69924374231655
 30
0.0
  0
POINT
  5
662
330
65A
100
AcDbEntity
  8
Defpoints
 62
     0
100
AcDbPoint
 10
116.4374202182363
 20
-74.44924374231668
 30
0.0
  0
ENDBLK
  5
663
330
65A
100
AcDbEntity
  8
0
100
AcDbBlockEnd
  0
BLOCK
  5
665
330
664
100
AcDbEntity
  8
0
100
AcDbBlockBegin
  2
*D66
 70
     1
 10
0.0
 20
0.0
 30
0.0
  3
*D66
  1

  0
LINE
  5
666
330
664
100
AcDbEntity
  8
0
 62
     0
370
    -2
100
AcDbLine
 10
126.4119202182362
 20
-46.89865685776084
 30
0.0
 11
126.4119202182362
 21
-45.41924374231655
 31
0.0
  0
LINE
  5
667
330
664
100
AcDbEntity
  8
0
 62
     0
370
    -2
100
AcDbLine
 10
126.4119202182362
 20
-45.41924374231655
 30
0.0
 11
125.7805141730894
 21
-45.05924374231655
 31
0.0
  0
LINE
  5
668
330
664
100
AcDbEntity
  8
0
 62
     0
370
    -2
100
AcDbLine
 10
125.7805141730894
 20
-45.05924374231655
 30
0.0
 11
125.7805141730894
 21
-44.69924374231655
 31
0.0
  0
MTEXT
  5
669
330
664
100
AcDbEntity
  8
0
 62
     0
100
AcDbMText
 10
125.7805141730894
 20
-43.48924374231653
 30
0.0
 40
0.5600000000000001
 41
0.0
 71
     5
 72
     1
  1
\A1;9.974
 11
0.0000000000000001
 21
1.0
 31
0.0
 73
     1
 44
1.0
1001
ACAD
1000
MTEXTBEGIN
1070
    73
1070
     1
1070
    44
1040
1.0
1070
    74
1070
     0
1000
MTEXTEND
  0
POINT
  5
66A
330
664
100
AcDbEntity
  8
Defpoints
 62
     0
100
AcDbPoint
 10
126.4119202182362
 20
-47.14865685776087
 30
0.0
  0
POINT
  5
66B
330
664
100
AcDbEntity
  8
Defpoints
 62
     0
100
AcDbPoint
 10
125.7805141730894
 20
-44.69924374231655
 30
0.0
  0
POINT
  5
66C
330
664
100
AcDbEntity
  8
Defpoints
 62
     0
100
AcDbPoint
 10
116.4374202182363
 20
-74.44924374231668
 30
0.0
  0
ENDBLK
  5
66D
330
664
100
AcDbEntity
  8
0
100
AcDbBlockEnd
  0
BLOCK
  5
6FC
330
6FB
100
AcDbEntity
  8
0
100
AcDbBlockBegin
  2
*D67
 70
     1
 10
0.0
 20
0.0
 30
0.0
  3
*D67
  1

  0
LINE
  5
77E
330
6FB
100
AcDbEntity
  8
0
 62
     0
370
    -2
100
AcDbLine
 10
17.98149630478483
 20
12.40734522516155
 30
0.0
 11
17.23149630478471
 21
12.40734522516155
 31
0.0
  0
MTEXT
  5
77F
330
6FB
100
AcDbEntity
  8
0
 62
     0
100
AcDbMText
 10
16.20816297145138
 20
12.40734522516155
 30
0.0
 40
0.5600000000000001
 41
0.0
 71
     5
 72
     1
  1
\A1;0.000
 73
     1
 44
1.0
1001
ACAD
1000
MTEXTBEGIN
1070
    73
1070
     1
1070
    44
1040
1.0
1070
    74
1070
     0
1000
MTEXTEND
  0
POINT
  5
780
330
6FB
100
AcDbEntity
  8
Defpoints
 62
     0
100
AcDbPoint
 10
18.23149630478482
 20
12.40734522516155
 30
0.0
  0
POINT
  5
781
330
6FB
100
AcDbEntity
  8
Defpoints
 62
     0
100
AcDbPoint
 10
17.23149630478471
 20
12.40734522516155
 30
0.0
  0
POINT
  5
782
330
6FB
100
AcDbEntity
  8
Defpoints
 62
     0
100
AcDbPoint
 10
18.23149630478482
 20
12.40734522516149
 30
0.0
  0
ENDBLK
  5
6FD
330
6FB
100
AcDbEntity
  8
0
100
AcDbBlockEnd
  0
BLOCK
  5
704
330
703
100
AcDbEntity
  8
0
100
AcDbBlockBegin
  2
*D68
 70
     1
 10
0.0
 20
0.0
 30
0.0
  3
*D68
  1

  0
LINE
  5
783
330
703
100
AcDbEntity
  8
0
 62
     0
370
    -2
100
AcDbLine
 10
18.23149630478471
 20
12.15734522516159
 30
0.0
 11
18.23149630478482
 21
11.40734522516153
 31
0.0
  0
MTEXT
  5
784
330
703
100
AcDbEntity
  8
0
 62
     0
100
AcDbMText
 10
18.23149630478482
 20
10.3840118918282
 30
0.0
 40
0.5600000000000001
 41
0.0
 71
     5
 72
     1
  1
\A1;0.000
 11
0.0000000000000001
 21
1.0
 31
0.0
 73
     1
 44
1.0
1001
ACAD
1000
MTEXTBEGIN
1070
    73
1070
     1
1070
    44
1040
1.0
1070
    74
1070
     0
1000
MTEXTEND
  0
POINT
  5
785
330
703
100
AcDbEntity
  8
Defpoints
 62
     0
100
AcDbPoint
 10
18.23149630478471
 20
12.40734522516159
 30
0.0
  0
POINT
  5
786
330
703
100
AcDbEntity
  8
Defpoints
 62
     0
100
AcDbPoint
 10
18.23149630478482
 20
11.40734522516153
 30
0.0
  0
POINT
  5
787
330
703
100
AcDbEntity
  8
Defpoints
 62
     0
100
AcDbPoint
 10
18.23149630478471
 20
12.40734522516155
 30
0.0
  0
ENDBLK
  5
705
330
703
100
AcDbEntity
  8
0
100
AcDbBlockEnd
  0
BLOCK
  5
70E
330
70D
100
AcDbEntity
  8
0
100
AcDbBlockBegin
  2
*D69
 70
     1
 10
0.0
 20
0.0
 30
0.0
  3
*D69
  1

  0
LINE
  5
788
330
70D
100
AcDbEntity
  8
0
 62
     0
370
    -2
100
AcDbLine
 10
19.82149630478483
 20
13.68939817304189
 30
0.0
 11
19.82149630478483
 21
11.40734522516153
 31
0.0
  0
MTEXT
  5
789
330
70D
100
AcDbEntity
  8
0
 62
     0
100
AcDbMText
 10
19.82149630478483
 20
9.404011891828202
 30
0.0
 40
0.5600000000000001
 41
0.0
 71
     5
 72
     1
  1
\A1;(2) 1.590
 11
0.0000000000000001
 21
1.0
 31
0.0
 73
     1
 44
1.0
1001
ACAD
1000
MTEXTBEGIN
1070
    73
1070
     1
1070
    44
1040
1.0
1070
    74
1070
     0
1000
MTEXTEND
  0
POINT
  5
78A
330
70D
100
AcDbEntity
  8
Defpoints
 62
     0
100
AcDbPoint
 10
19.82149630478483
 20
13.93939817304189
 30
0.0
  0
POINT
  5
78B
330
70D
100
AcDbEntity
  8
Defpoints
 62
     0
100
AcDbPoint
 10
19.82149630478483
 20
11.40734522516153
 30
0.0
  0
POINT
  5
78C
330
70D
100
AcDbEntity
  8
Defpoints
 62
     0
100
AcDbPoint
 10
18.23149630478471
 20
12.40734522516155
 30
0.0
  0
ENDBLK
  5
70F
330
70D
100
AcDbEntity
  8
0
100
AcDbBlockEnd
  0
BLOCK
  5
716
330
715
100
AcDbEntity
  8
0
100
AcDbBlockBegin
  2
*D70
 70
     1
 10
0.0
 20
0.0
 30
0.0
  3
*D70
  1

  0
LINE
  5
78D
330
715
100
AcDbEntity
  8
0
 62
     0
370
    -2
100
AcDbLine
 10
27.32149630478483
 20
13.68939817304189
 30
0.0
 11
27.32149630478483
 21
11.40734522516153
 31
0.0
  0
MTEXT
  5
78E
330
715
100
AcDbEntity
  8
0
 62
     0
100
AcDbMText
 10
27.32149630478483
 20
9.357345225161539
 30
0.0
 40
0.5600000000000001
 41
0.0
 71
     5
 72
     1
  1
\A1;(2) 9.090
 11
0.0000000000000001
 21
1.0
 31
0.0
 73
     1
 44
1.0
1001
ACAD
1000
MTEXTBEGIN
1070
    73
1070
     1
1070
    44
1040
1.0
1070
    74
1070
     0
1000
MTEXTEND
  0
POINT
  5
78F
330
715
100
AcDbEntity
  8
Defpoints
 62
     0
100
AcDbPoint
 10
27.32149630478483
 20
13.93939817304189
 30
0.0
  0
POINT
  5
790
330
715
100
AcDbEntity
  8
Defpoints
 62
     0
100
AcDbPoint
 10
27.32149630478483
 20
11.40734522516153
 30
0.0
  0
POINT
  5
791
330
715
100
AcDbEntity
  8
Defpoints
 62
     0
100
AcDbPoint
 10
18.23149630478471
 20
12.40734522516155
 30
0.0
  0
ENDBLK
  5
717
330
715
100
AcDbEntity
  8
0
100
AcDbBlockEnd
  0
BLOCK
  5
71E
330
71D
100
AcDbEntity
  8
0
100
AcDbBlockBegin
  2
*D71
 70
     1
 10
0.0
 20
0.0
 30
0.0
  3
*D71
  1

  0
LINE
  5
792
330
71D
100
AcDbEntity
  8
0
 62
     0
370
    -2
100
AcDbLine
 10
27.57149630478483
 20
13.93939817304189
 30
0.0
 11
29.91149630478484
 21
13.93939817304189
 31
0.0
  0
MTEXT
  5
793
330
71D
100
AcDbEntity
  8
0
 62
     0
100
AcDbMText
 10
31.96149630478484
 20
13.93939817304189
 30
0.0
 40
0.5600000000000001
 41
0.0
 71
     5
 72
     1
  1
\A1;1.532 (2)
 73
     1
 44
1.0
1001
ACAD
1000
MTEXTBEGIN
1070
    73
1070
     1
1070
    44
1040
1.0
1070
    74
1070
     0
1000
MTEXTEND
  0
POINT
  5
794
330
71D
100
AcDbEntity
  8
Defpoints
 62
     0
100
AcDbPoint
 10
27.32149630478483
 20
13.93939817304189
 30
0.0
  0
POINT
  5
795
330
71D
100
AcDbEntity
  8
Defpoints
 62
     0
100
AcDbPoint
 10
29.91149630478484
 20
13.93939817304189
 30
0.0
  0
POINT
  5
796
330
71D
100
AcDbEntity
  8
Defpoints
 62
     0
100
AcDbPoint
 10
18.23149630478471
 20
12.40734522516155
 30
0.0
  0
ENDBLK
  5
71F
330
71D
100
AcDbEntity
  8
0
100
AcDbBlockEnd
  0
BLOCK
  5
726
330
725
100
AcDbEntity
  8
0
100
AcDbBlockBegin
  2
*D72
 70
     1
 10
0.0
 20
0.0
 30
0.0
  3
*D72
  1

  0
LINE
  5
797
330
725
100
AcDbEntity
  8
0
 62
     0
370
    -2
100
AcDbLine
 10
18.75649630478452
 20
21.62256749779037
 30
0.0
 11
17.95149630478482
 21
21.62256749779037
 31
0.0
  0
LINE
  5
798
330
725
100
AcDbEntity
  8
0
 62
     0
370
    -2
100
AcDbLine
 10
17.95149630478482
 20
21.62256749779037
 30
0.0
 11
17.59149630478482
 21
21.4975674977903
 31
0.0
  0
LINE
  5
799
330
725
100
AcDbEntity
  8
0
 62
     0
370
    -2
100
AcDbLine
 10
17.59149630478482
 20
21.4975674977903
 30
0.0
 11
17.23149630478483
 21
21.4975674977903
 31
0.0
  0
MTEXT
  5
79A
330
725
100
AcDbEntity
  8
0
 62
     0
100
AcDbMText
 10
16.11482963811816
 20
21.4975674977903
 30
0.0
 40
0.5600000000000001
 41
0.0
 71
     5
 72
     1
  1
\A1;9.215
 73
     1
 44
1.0
1001
ACAD
1000
MTEXTBEGIN
1070
    73
1070
     1
1070
    44
1040
1.0
1070
    74
1070
     0
1000
MTEXTEND
  0
POINT
  5
79B
330
725
100
AcDbEntity
  8
Defpoints
 62
     0
100
AcDbPoint
 10
19.00649630478452
 20
21.62256749779037
 30
0.0
  0
POINT
  5
79C
330
725
100
AcDbEntity
  8
Defpoints
 62
     0
100
AcDbPoint
 10
17.23149630478483
 20
21.4975674977903
 30
0.0
  0
POINT
  5
79D
330
725
100
AcDbEntity
  8
Defpoints
 62
     0
100
AcDbPoint
 10
18.23149630478471
 20
12.40734522516155
 30
0.0
  0
ENDBLK
  5
727
330
725
100
AcDbEntity
  8
0
100
AcDbBlockEnd
  0
BLOCK
  5
730
330
72F
100
AcDbEntity
  8
0
100
AcDbBlockBegin
  2
*D73
 70
     1
 10
0.0
 20
0.0
 30
0.0
  3
*D73
  1

  0
LINE
  5
79E
330
72F
100
AcDbEntity
  8
0
 62
     0
370
    -2
100
AcDbLine
 10
18.75649630478452
 20
24.37846749779036
 30
0.0
 11
17.95149630478482
 21
24.37846749779036
 31
0.0
  0
LINE
  5
79F
330
72F
100
AcDbEntity
  8
0
 62
     0
370
    -2
100
AcDbLine
 10
17.95149630478482
 20
24.37846749779036
 30
0.0
 11
17.59149630478482
 21
24.50346749779035
 31
0.0
  0
LINE
  5
7A0
330
72F
100
AcDbEntity
  8
0
 62
     0
370
    -2
100
AcDbLine
 10
17.59149630478482
 20
24.50346749779035
 30
0.0
 11
17.23149630478483
 21
24.50346749779035
 31
0.0
  0
MTEXT
  5
7A1
330
72F
100
AcDbEntity
  8
0
 62
     0
100
AcDbMText
 10
16.02149630478482
 20
24.50346749779035
 30
0.0
 40
0.5600000000000001
 41
0.0
 71
     5
 72
     1
  1
\A1;11.971
 73
     1
 44
1.0
1001
ACAD
1000
MTEXTBEGIN
1070
    73
1070
     1
1070
    44
1040
1.0
1070
    74
1070
     0
1000
MTEXTEND
  0
POINT
  5
7A2
330
72F
100
AcDbEntity
  8
Defpoints
 62
     0
100
AcDbPoint
 10
19.00649630478452
 20
24.37846749779036
 30
0.0
  0
POINT
  5
7A3
330
72F
100
AcDbEntity
  8
Defpoints
 62
     0
100
AcDbPoint
 10
17.23149630478483
 20
24.50346749779035
 30
0.0
  0
POINT
  5
7A4
330
72F
100
AcDbEntity
  8
Defpoints
 62
     0
100
AcDbPoint
 10
18.23149630478471
 20
12.40734522516155
 30
0.0
  0
ENDBLK
  5
731
330
72F
100
AcDbEntity
  8
0
100
AcDbBlockEnd
  0
BLOCK
  5
73A
330
739
100
AcDbEntity
  8
0
100
AcDbBlockBegin
  2
*D74
 70
     1
 10
0.0
 20
0.0
 30
0.0
  3
*D74
  1

  0
LINE
  5
7A5
330
739
100
AcDbEntity
  8
0
 62
     0
370
    -2
100
AcDbLine
 10
19.00649630478452
 20
24.62846749779036
 30
0.0
 11
19.00649630478452
 21
26.06483346612654
 31
0.0
  0
LINE
  5
7A6
330
739
100
AcDbEntity
  8
0
 62
     0
370
    -2
100
AcDbLine
 10
19.00649630478452
 20
26.06483346612654
 30
0.0
 11
20.00507122807761
 21
26.42483346612654
 31
0.0
  0
LINE
  5
7A7
330
739
100
AcDbEntity
  8
0
 62
     0
370
    -2
100
AcDbLine
 10
20.00507122807761
 20
26.42483346612654
 30
0.0
 11
20.00507122807761
 21
26.78483346612654
 31
0.0
  0
MTEXT
  5
7A8
330
739
100
AcDbEntity
  8
0
 62
     0
100
AcDbMText
 10
20.00507122807761
 20
27.94816679945988
 30
0.0
 40
0.5600000000000001
 41
0.0
 71
     5
 72
     1
  1
\A1;0.775
 11
0.0000000000000001
 21
1.0
 31
0.0
 73
     1
 44
1.0
1001
ACAD
1000
MTEXTBEGIN
1070
    73
1070
     1
1070
    44
1040
1.0
1070
    74
1070
     0
1000
MTEXTEND
  0
POINT
  5
7A9
330
739
100
AcDbEntity
  8
Defpoints
 62
     0
100
AcDbPoint
 10
19.00649630478452
 20
24.37846749779036
 30
0.0
  0
POINT
  5
7AA
330
739
100
AcDbEntity
  8
Defpoints
 62
     0
100
AcDbPoint
 10
20.00507122807761
 20
26.78483346612654
 30
0.0
  0
POINT
  5
7AB
330
739
100
AcDbEntity
  8
Defpoints
 62
     0
100
AcDbPoint
 10
18.23149630478471
 20
12.40734522516155
 30
0.0
  0
ENDBLK
  5
73B
330
739
100
AcDbEntity
  8
0
100
AcDbBlockEnd
  0
BLOCK
  5
744
330
743
100
AcDbEntity
  8
0
100
AcDbBlockBegin
  2
*D75
 70
     1
 10
0.0
 20
0.0
 30
0.0
  3
*D75
  1

  0
LINE
  5
7AC
330
743
100
AcDbEntity
  8
0
 62
     0
370
    -2
100
AcDbLine
 10
28.13649630478451
 20
24.62846749779036
 30
0.0
 11
28.13649630478451
 21
26.06483346612654
 31
0.0
  0
LINE
  5
7AD
330
743
100
AcDbEntity
  8
0
 62
     0
370
    -2
100
AcDbLine
 10
28.13649630478451
 20
26.06483346612654
 30
0.0
 11
27.13792138149171
 21
26.42483346612654
 31
0.0
  0
LINE
  5
7AE
330
743
100
AcDbEntity
  8
0
 62
     0
370
    -2
100
AcDbLine
 10
27.13792138149171
 20
26.42483346612654
 30
0.0
 11
27.13792138149171
 21
26.78483346612654
 31
0.0
  0
MTEXT
  5
7AF
330
743
100
AcDbEntity
  8
0
 62
     0
100
AcDbMText
 10
27.1379213814917
 20
27.94816679945988
 30
0.0
 40
0.5600000000000001
 41
0.0
 71
     5
 72
     1
  1
\A1;9.905
 11
0.0000000000000001
 21
1.0
 31
0.0
 73
     1
 44
1.0
1001
ACAD
1000
MTEXTBEGIN
1070
    73
1070
     1
1070
    44
1040
1.0
1070
    74
1070
     0
1000
MTEXTEND
  0
POINT
  5
7B0
330
743
100
AcDbEntity
  8
Defpoints
 62
     0
100
AcDbPoint
 10
28.13649630478451
 20
24.37846749779036
 30
0.0
  0
POINT
  5
7B1
330
743
100
AcDbEntity
  8
Defpoints
 62
     0
100
AcDbPoint
 10
27.13792138149171
 20
26.78483346612654
 30
0.0
  0
POINT
  5
7B2
330
743
100
AcDbEntity
  8
Defpoints
 62
     0
100
AcDbPoint
 10
18.23149630478471
 20
12.40734522516155
 30
0.0
  0
ENDBLK
  5
745
330
743
100
AcDbEntity
  8
0
100
AcDbBlockEnd
  0
BLOCK
  5
74E
330
74D
100
AcDbEntity
  8
0
100
AcDbBlockBegin
  2
*D76
 70
     1
 10
0.0
 20
0.0
 30
0.0
  3
*D76
  1

  0
LINE
  5
7B3
330
74D
100
AcDbEntity
  8
0
 62
     0
370
    -2
100
AcDbLine
 10
16.67149630478418
 20
18.80277633949578
 30
0.0
 11
17.23149630478523
 21
18.80277633949578
 31
0.0
  0
LINE
  5
7B4
330
74D
100
AcDbEntity
  8
0
 62
     0
370
    -2
100
AcDbLine
 10
17.23149630478523
 20
18.80277633949578
 30
0.0
 11
19.19357109370826
 21
20.06997859999268
 31
0.0
  0
MTEXT
  5
7B5
102
{ACAD_XDICTIONARY
360
A38
102
}
330
74D
100
AcDbEntity
  8
0
 62
     0
100
AcDbMText
 10
14.57482963811752
 20
18.80277633949578
 30
0.0
 40
0.5600000000000001
 41
0.0
 71
     5
 72
     1
  1
\A1;(6)\U+22050.375
 73
     1
 44
1.0
1001
ACAD
1000
MTEXTBEGIN
1070
    73
1070
     1
1070
    44
1040
1.0
1070
    74
1070
     0
1000
MTEXTEND
  0
SOLID
  5
7B6
330
74D
100
AcDbEntity
  8
0
 62
     0
100
AcDbTrace
 10
19.14293457018048
 20
20.14838174786399
 30
0.0
 11
19.24420761723607
 21
19.99157545212137
 31
0.0
 12
19.66398998093612
 22
20.37379774115945
 32
0.0
 13
19.66398998093612
 23
20.37379774115945
 33
0.0
  0
LINE
  5
7B7
330
74D
100
AcDbEntity
  8
0
 62
     0
370
    -2
100
AcDbLine
 10
19.73149630478472
 20
20.47552290003224
 30
0.0
 11
19.91149630478471
 21
20.47552290003224
 31
0.0
  0
LINE
  5
7B8
330
74D
100
AcDbEntity
  8
0
 62
     0
370
    -2
100
AcDbLine
 10
19.82149630478471
 20
20.38552290003224
 30
0.0
 11
19.82149630478471
 21
20.56552290003224
 31
0.0
  0
POINT
  5
7B9
330
74D
100
AcDbEntity
  8
Defpoints
 62
     0
100
AcDbPoint
 10
19.66398998093612
 20
20.37379774115945
 30
0.0
  0
POINT
  5
7BA
330
74D
100
AcDbEntity
  8
Defpoints
 62
     0
100
AcDbPoint
 10
19.97900262863332
 20
20.57724805890504
 30
0.0
  0
ENDBLK
  5
74F
330
74D
100
AcDbEntity
  8
0
100
AcDbBlockEnd
  0
BLOCK
  5
759
330
758
100
AcDbEntity
  8
0
100
AcDbBlockBegin
  2
*D77
 70
     1
 10
0.0
 20
0.0
 30
0.0
  3
*D77
  1

  0
LINE
  5
7F5
330
758
100
AcDbEntity
  8
0
 62
     0
370
    -2
100
AcDbLine
 10
28.07149630478483
 20
34.1064942217561
 30
0.0
 11
28.07149630478483
 21
33.03403509500457
 31
0.0
  0
LINE
  5
7F6
330
758
100
AcDbEntity
  8
0
 62
     0
370
    -2
100
AcDbLine
 10
28.07149630478483
 20
33.03403509500457
 30
0.0
 11
26.09406978035281
 21
32.67403509500457
 31
0.0
  0
LINE
  5
7F7
330
758
100
AcDbEntity
  8
0
 62
     0
370
    -2
100
AcDbLine
 10
26.09406978035281
 20
32.67403509500457
 30
0.0
 11
26.09406978035281
 21
32.31403509500457
 31
0.0
  0
MTEXT
  5
7F8
330
758
100
AcDbEntity
  8
0
 62
     0
100
AcDbMText
 10
26.09406978035281
 20
31.15070176167126
 30
0.0
 40
0.5600000000000001
 41
0.0
 71
     5
 72
     1
  1
\A1;9.840
 11
0.0000000000000001
 21
1.0
 31
0.0
 73
     1
 44
1.0
1001
ACAD
1000
MTEXTBEGIN
1070
    73
1070
     1
1070
    44
1040
1.0
1070
    74
1070
     0
1000
MTEXTEND
  0
POINT
  5
7F9
330
758
100
AcDbEntity
  8
Defpoints
 62
     0
100
AcDbPoint
 10
28.07149630478483
 20
34.3564942217561
 30
0.0
  0
POINT
  5
7FA
330
758
100
AcDbEntity
  8
Defpoints
 62
     0
100
AcDbPoint
 10
26.09406978035281
 20
32.31403509500457
 30
0.0
  0
POINT
  5
7FB
330
758
100
AcDbEntity
  8
Defpoints
 62
     0
100
AcDbPoint
 10
18.23149630478471
 20
12.40734522516159
 30
0.0
  0
ENDBLK
  5
75A
330
758
100
AcDbEntity
  8
0
100
AcDbBlockEnd
  0
BLOCK
  5
763
330
762
100
AcDbEntity
  8
0
100
AcDbBlockBegin
  2
*D78
 70
     1
 10
0.0
 20
0.0
 30
0.0
  3
*D78
  1

  0
LINE
  5
804
330
762
100
AcDbEntity
  8
0
 62
     0
370
    -2
100
AcDbLine
 10
29.16149630478471
 20
41.15734522516172
 30
0.0
 11
29.91149630478484
 21
41.15734522516172
 31
0.0
  0
MTEXT
  5
805
330
762
100
AcDbEntity
  8
0
 62
     0
100
AcDbMText
 10
31.35482963811818
 20
41.15734522516172
 30
0.0
 40
0.5600000000000001
 41
0.0
 71
     5
 72
     1
  1
\A1;28.750
 73
     1
 44
1.0
1001
ACAD
1000
MTEXTBEGIN
1070
    73
1070
     1
1070
    44
1040
1.0
1070
    74
1070
     0
1000
MTEXTEND
  0
POINT
  5
806
330
762
100
AcDbEntity
  8
Defpoints
 62
     0
100
AcDbPoint
 10
28.91149630478471
 20
41.15734522516172
 30
0.0
  0
POINT
  5
807
330
762
100
AcDbEntity
  8
Defpoints
 62
     0
100
AcDbPoint
 10
29.91149630478484
 20
41.15734522516172
 30
0.0
  0
POINT
  5
808
330
762
100
AcDbEntity
  8
Defpoints
 62
     0
100
AcDbPoint
 10
18.23149630478471
 20
12.40734522516159
 30
0.0
  0
ENDBLK
  5
764
330
762
100
AcDbEntity
  8
0
100
AcDbBlockEnd
  0
BLOCK
  5
76B
330
76A
100
AcDbEntity
  8
0
100
AcDbBlockBegin
  2
*D79
 70
     1
 10
0.0
 20
0.0
 30
0.0
  3
*D79
  1

  0
LINE
  5
809
330
76A
100
AcDbEntity
  8
0
 62
     0
370
    -2
100
AcDbLine
 10
28.44899630478471
 20
40.60323953625167
 30
0.0
 11
28.44899630478471
 21
41.43734522516171
 31
0.0
  0
LINE
  5
80A
330
76A
100
AcDbEntity
  8
0
 62
     0
370
    -2
100
AcDbLine
 10
28.44899630478471
 20
41.43734522516171
 30
0.0
 11
28.2037833294067
 21
41.79734522516172
 31
0.0
  0
LINE
  5
80B
330
76A
100
AcDbEntity
  8
0
 62
     0
370
    -2
100
AcDbLine
 10
28.2037833294067
 20
41.79734522516172
 30
0.0
 11
28.2037833294067
 21
42.15734522516171
 31
0.0
  0
MTEXT
  5
80C
330
76A
100
AcDbEntity
  8
0
 62
     0
100
AcDbMText
 10
28.2037833294067
 20
43.41401189182839
 30
0.0
 40
0.5600000000000001
 41
0.0
 71
     5
 72
     1
  1
\A1;10.218
 11
0.0000000000000001
 21
1.0
 31
0.0
 73
     1
 44
1.0
1001
ACAD
1000
MTEXTBEGIN
1070
    73
1070
     1
1070
    44
1040
1.0
1070
    74
1070
     0
1000
MTEXTEND
  0
POINT
  5
80D
330
76A
100
AcDbEntity
  8
Defpoints
 62
     0
100
AcDbPoint
 10
28.44899630478471
 20
40.35323953625168
 30
0.0
  0
POINT
  5
80E
330
76A
100
AcDbEntity
  8
Defpoints
 62
     0
100
AcDbPoint
 10
28.2037833294067
 20
42.15734522516171
 30
0.0
  0
POINT
  5
80F
330
76A
100
AcDbEntity
  8
Defpoints
 62
     0
100
AcDbPoint
 10
18.23149630478471
 20
12.40734522516159
 30
0.0
  0
ENDBLK
  5
76C
330
76A
100
AcDbEntity
  8
0
100
AcDbBlockEnd
  0
BLOCK
  5
775
330
774
100
AcDbEntity
  8
0
100
AcDbBlockBegin
  2
*D80
 70
     1
 10
0.0
 20
0.0
 30
0.0
  3
*D80
  1

  0
LINE
  5
818
330
774
100
AcDbEntity
  8
0
 62
     0
370
    -2
100
AcDbLine
 10
18.93699630478461
 20
39.9579321097174
 30
0.0
 11
18.93699630478462
 21
41.43734522516171
 31
0.0
  0
LINE
  5
819
330
774
100
AcDbEntity
  8
0
 62
     0
370
    -2
100
AcDbLine
 10
18.93699630478462
 20
41.43734522516171
 30
0.0
 11
19.45739377851201
 21
41.79734522516172
 31
0.0
  0
LINE
  5
81A
330
774
100
AcDbEntity
  8
0
 62
     0
370
    -2
100
AcDbLine
 10
19.45739377851201
 20
41.79734522516172
 30
0.0
 11
19.45739377851201
 21
42.15734522516171
 31
0.0
  0
MTEXT
  5
81B
330
774
100
AcDbEntity
  8
0
 62
     0
100
AcDbMText
 10
19.457393778512
 20
43.27401189182839
 30
0.0
 40
0.5600000000000001
 41
0.0
 71
     5
 72
     1
  1
\A1;0.706
 11
0.0000000000000001
 21
1.0
 31
0.0
 73
     1
 44
1.0
1001
ACAD
1000
MTEXTBEGIN
1070
    73
1070
     1
1070
    44
1040
1.0
1070
    74
1070
     0
1000
MTEXTEND
  0
POINT
  5
81C
330
774
100
AcDbEntity
  8
Defpoints
 62
     0
100
AcDbPoint
 10
18.93699630478461
 20
39.7079321097174
 30
0.0
  0
POINT
  5
81D
330
774
100
AcDbEntity
  8
Defpoints
 62
     0
100
AcDbPoint
 10
19.45739377851201
 20
42.15734522516171
 30
0.0
  0
POINT
  5
81E
330
774
100
AcDbEntity
  8
Defpoints
 62
     0
100
AcDbPoint
 10
18.23149630478471
 20
12.40734522516159
 30
0.0
  0
ENDBLK
  5
776
330
774
100
AcDbEntity
  8
0
100
AcDbBlockEnd
  0
BLOCK
  5
7BC
330
7BB
100
AcDbEntity
  8
0
100
AcDbBlockBegin
  2
*D81
 70
     1
 10
0.0
 20
0.0
 30
0.0
  3
*D81
  1

  0
LINE
  5
7BE
330
7BB
100
AcDbEntity
  8
0
 62
     0
370
    -2
100
AcDbLine
 10
18.68699630478461
 20
35.25393210971746
 30
0.0
 11
17.23149630478483
 21
35.25393210971746
 31
0.0
  0
MTEXT
  5
7BF
330
7BB
100
AcDbEntity
  8
0
 62
     0
100
AcDbMText
 10
15.74149630478482
 20
35.25393210971746
 30
0.0
 40
0.5600000000000001
 41
0.0
 71
     5
 72
     1
  1
\A1;22.847
 73
     1
 44
1.0
1001
ACAD
1000
MTEXTBEGIN
1070
    73
1070
     1
1070
    44
1040
1.0
1070
    74
1070
     0
1000
MTEXTEND
  0
POINT
  5
7C0
330
7BB
100
AcDbEntity
  8
Defpoints
 62
     0
100
AcDbPoint
 10
18.93699630478461
 20
35.25393210971746
 30
0.0
  0
POINT
  5
7C1
330
7BB
100
AcDbEntity
  8
Defpoints
 62
     0
100
AcDbPoint
 10
17.23149630478483
 20
35.25393210971746
 30
0.0
  0
POINT
  5
7C2
330
7BB
100
AcDbEntity
  8
Defpoints
 62
     0
100
AcDbPoint
 10
18.23149630478471
 20
12.40734522516159
 30
0.0
  0
ENDBLK
  5
7BD
330
7BB
100
AcDbEntity
  8
0
100
AcDbBlockEnd
  0
BLOCK
  5
7C4
330
7C3
100
AcDbEntity
  8
0
100
AcDbBlockBegin
  2
*D82
 70
     1
 10
0.0
 20
0.0
 30
0.0
  3
*D82
  1

  0
LINE
  5
7C6
330
7C3
100
AcDbEntity
  8
0
 62
     0
370
    -2
100
AcDbLine
 10
18.68699630478461
 20
39.7079321097174
 30
0.0
 11
17.23149630478483
 21
39.7079321097174
 31
0.0
  0
MTEXT
  5
7C7
330
7C3
100
AcDbEntity
  8
0
 62
     0
100
AcDbMText
 10
15.88149630478483
 20
39.7079321097174
 30
0.0
 40
0.5600000000000001
 41
0.0
 71
     5
 72
     1
  1
\A1;27.301
 73
     1
 44
1.0
1001
ACAD
1000
MTEXTBEGIN
1070
    73
1070
     1
1070
    44
1040
1.0
1070
    74
1070
     0
1000
MTEXTEND
  0
POINT
  5
7C8
330
7C3
100
AcDbEntity
  8
Defpoints
 62
     0
100
AcDbPoint
 10
18.93699630478461
 20
39.7079321097174
 30
0.0
  0
POINT
  5
7C9
330
7C3
100
AcDbEntity
  8
Defpoints
 62
     0
100
AcDbPoint
 10
17.23149630478483
 20
39.7079321097174
 30
0.0
  0
POINT
  5
7CA
330
7C3
100
AcDbEntity
  8
Defpoints
 62
     0
100
AcDbPoint
 10
18.23149630478471
 20
12.40734522516159
 30
0.0
  0
ENDBLK
  5
7C5
330
7C3
100
AcDbEntity
  8
0
100
AcDbBlockEnd
  0
BLOCK
  5
7CC
330
7CB
100
AcDbEntity
  8
0
100
AcDbBlockBegin
  2
*D83
 70
     1
 10
0.0
 20
0.0
 30
0.0
  3
*D83
  1

  0
LINE
  5
7CE
330
7CB
100
AcDbEntity
  8
0
 62
     0
370
    -2
100
AcDbLine
 10
22.6964963047847
 20
33.98036999767902
 30
0.0
 11
17.23149630478483
 21
33.98036999767902
 31
0.0
  0
MTEXT
  5
7CF
330
7CB
100
AcDbEntity
  8
0
 62
     0
100
AcDbMText
 10
15.83482963811816
 20
33.98036999767902
 30
0.0
 40
0.5600000000000001
 41
0.0
 71
     5
 72
     1
  1
\A1;21.573
 73
     1
 44
1.0
1001
ACAD
1000
MTEXTBEGIN
1070
    73
1070
     1
1070
    44
1040
1.0
1070
    74
1070
     0
1000
MTEXTEND
  0
POINT
  5
7D0
330
7CB
100
AcDbEntity
  8
Defpoints
 62
     0
100
AcDbPoint
 10
22.9464963047847
 20
33.98036999767902
 30
0.0
  0
POINT
  5
7D1
330
7CB
100
AcDbEntity
  8
Defpoints
 62
     0
100
AcDbPoint
 10
17.23149630478483
 20
33.98036999767902
 30
0.0
  0
POINT
  5
7D2
330
7CB
100
AcDbEntity
  8
Defpoints
 62
     0
100
AcDbPoint
 10
18.23149630478471
 20
12.40734522516159
 30
0.0
  0
ENDBLK
  5
7CD
330
7CB
100
AcDbEntity
  8
0
100
AcDbBlockEnd
  0
BLOCK
  5
7D4
330
7D3
100
AcDbEntity
  8
0
100
AcDbBlockBegin
  2
*D84
 70
     1
 10
0.0
 20
0.0
 30
0.0
  3
*D84
  1

  0
LINE
  5
7D6
330
7D3
100
AcDbEntity
  8
0
 62
     0
370
    -2
100
AcDbLine
 10
27.5714963047847
 20
20.47552290003225
 30
0.0
 11
29.91149630478484
 21
20.47552290003225
 31
0.0
  0
MTEXT
  5
7D7
330
7D3
100
AcDbEntity
  8
0
 62
     0
100
AcDbMText
 10
31.07482963811817
 20
20.47552290003225
 30
0.0
 40
0.5600000000000001
 41
0.0
 71
     5
 72
     1
  1
\A1;8.068
 73
     1
 44
1.0
1001
ACAD
1000
MTEXTBEGIN
1070
    73
1070
     1
1070
    44
1040
1.0
1070
    74
1070
     0
1000
MTEXTEND
  0
POINT
  5
7D8
330
7D3
100
AcDbEntity
  8
Defpoints
 62
     0
100
AcDbPoint
 10
27.3214963047847
 20
20.47552290003225
 30
0.0
  0
POINT
  5
7D9
330
7D3
100
AcDbEntity
  8
Defpoints
 62
     0
100
AcDbPoint
 10
29.91149630478484
 20
20.47552290003225
 30
0.0
  0
POINT
  5
7DA
330
7D3
100
AcDbEntity
  8
Defpoints
 62
     0
100
AcDbPoint
 10
18.23149630478471
 20
12.40734522516159
 30
0.0
  0
ENDBLK
  5
7D5
330
7D3
100
AcDbEntity
  8
0
100
AcDbBlockEnd
  0
BLOCK
  5
7DC
330
7DB
100
AcDbEntity
  8
0
100
AcDbBlockBegin
  2
*D85
 70
     1
 10
0.0
 20
0.0
 30
0.0
  3
*D85
  1

  0
LINE
  5
7DE
330
7DB
100
AcDbEntity
  8
0
 62
     0
370
    -2
100
AcDbLine
 10
28.32149630478483
 20
34.3564942217561
 30
0.0
 11
29.91149630478484
 21
34.3564942217561
 31
0.0
  0
MTEXT
  5
7DF
330
7DB
100
AcDbEntity
  8
0
 62
     0
100
AcDbMText
 10
31.3081629714515
 20
34.3564942217561
 30
0.0
 40
0.5600000000000001
 41
0.0
 71
     5
 72
     1
  1
\A1;21.949
 73
     1
 44
1.0
1001
ACAD
1000
MTEXTBEGIN
1070
    73
1070
     1
1070
    44
1040
1.0
1070
    74
1070
     0
1000
MTEXTEND
  0
POINT
  5
7E0
330
7DB
100
AcDbEntity
  8
Defpoints
 62
     0
100
AcDbPoint
 10
28.07149630478483
 20
34.3564942217561
 30
0.0
  0
POINT
  5
7E1
330
7DB
100
AcDbEntity
  8
Defpoints
 62
     0
100
AcDbPoint
 10
29.91149630478484
 20
34.3564942217561
 30
0.0
  0
POINT
  5
7E2
330
7DB
100
AcDbEntity
  8
Defpoints
 62
     0
100
AcDbPoint
 10
18.23149630478471
 20
12.40734522516159
 30
0.0
  0
ENDBLK
  5
7DD
330
7DB
100
AcDbEntity
  8
0
100
AcDbBlockEnd
  0
BLOCK
  5
7E4
330
7E3
100
AcDbEntity
  8
0
100
AcDbBlockBegin
  2
*D86
 70
     1
 10
0.0
 20
0.0
 30
0.0
  3
*D86
  1

  0
LINE
  5
7E6
330
7E3
100
AcDbEntity
  8
0
 62
     0
370
    -2
100
AcDbLine
 10
28.69899630478471
 20
40.35323953625168
 30
0.0
 11
29.91149630478484
 21
40.35323953625168
 31
0.0
  0
MTEXT
  5
7E7
330
7E3
100
AcDbEntity
  8
0
 62
     0
100
AcDbMText
 10
31.40149630478485
 20
40.35323953625168
 30
0.0
 40
0.5600000000000001
 41
0.0
 71
     5
 72
     1
  1
\A1;27.946
 73
     1
 44
1.0
1001
ACAD
1000
MTEXTBEGIN
1070
    73
1070
     1
1070
    44
1040
1.0
1070
    74
1070
     0
1000
MTEXTEND
  0
POINT
  5
7E8
330
7E3
100
AcDbEntity
  8
Defpoints
 62
     0
100
AcDbPoint
 10
28.44899630478471
 20
40.35323953625168
 30
0.0
  0
POINT
  5
7E9
330
7E3
100
AcDbEntity
  8
Defpoints
 62
     0
100
AcDbPoint
 10
29.91149630478484
 20
40.35323953625168
 30
0.0
  0
POINT
  5
7EA
330
7E3
100
AcDbEntity
  8
Defpoints
 62
     0
100
AcDbPoint
 10
18.23149630478471
 20
12.40734522516159
 30
0.0
  0
ENDBLK
  5
7E5
330
7E3
100
AcDbEntity
  8
0
100
AcDbBlockEnd
  0
BLOCK
  5
7EC
330
7EB
100
AcDbEntity
  8
0
100
AcDbBlockBegin
  2
*D87
 70
     1
 10
0.0
 20
0.0
 30
0.0
  3
*D87
  1

  0
LINE
  5
7EE
330
7EB
100
AcDbEntity
  8
0
 62
     0
370
    -2
100
AcDbLine
 10
19.07149630478462
 20
34.1064942217561
 30
0.0
 11
19.07149630478462
 21
33.03403509500457
 31
0.0
  0
LINE
  5
7EF
330
7EB
100
AcDbEntity
  8
0
 62
     0
370
    -2
100
AcDbLine
 10
19.07149630478462
 20
33.03403509500457
 30
0.0
 11
20.92186798969871
 21
32.67403509500457
 31
0.0
  0
LINE
  5
7F0
330
7EB
100
AcDbEntity
  8
0
 62
     0
370
    -2
100
AcDbLine
 10
20.92186798969871
 20
32.67403509500457
 30
0.0
 11
20.92186798969871
 21
32.31403509500457
 31
0.0
  0
MTEXT
  5
7F1
330
7EB
100
AcDbEntity
  8
0
 62
     0
100
AcDbMText
 10
20.92186798969871
 20
31.19736842833791
 30
0.0
 40
0.5600000000000001
 41
0.0
 71
     5
 72
     1
  1
\A1;0.840
 11
0.0000000000000001
 21
1.0
 31
0.0
 73
     1
 44
1.0
1001
ACAD
1000
MTEXTBEGIN
1070
    73
1070
     1
1070
    44
1040
1.0
1070
    74
1070
     0
1000
MTEXTEND
  0
POINT
  5
7F2
330
7EB
100
AcDbEntity
  8
Defpoints
 62
     0
100
AcDbPoint
 10
19.07149630478462
 20
34.3564942217561
 30
0.0
  0
POINT
  5
7F3
330
7EB
100
AcDbEntity
  8
Defpoints
 62
     0
100
AcDbPoint
 10
20.92186798969871
 20
32.31403509500457
 30
0.0
  0
POINT
  5
7F4
330
7EB
100
AcDbEntity
  8
Defpoints
 62
     0
100
AcDbPoint
 10
18.23149630478471
 20
12.40734522516159
 30
0.0
  0
ENDBLK
  5
7ED
330
7EB
100
AcDbEntity
  8
0
100
AcDbBlockEnd
  0
BLOCK
  5
7FD
330
7FC
100
AcDbEntity
  8
0
100
AcDbBlockBegin
  2
*D88
 70
     1
 10
0.0
 20
0.0
 30
0.0
  3
*D88
  1

  0
LINE
  5
7FF
330
7FC
100
AcDbEntity
  8
0
 62
     0
370
    -2
100
AcDbLine
 10
28.91149630478471
 20
41.40734522516171
 30
0.0
 11
28.91149630478471
 21
42.15734522516171
 31
0.0
  0
MTEXT
  5
800
330
7FC
100
AcDbEntity
  8
0
 62
     0
100
AcDbMText
 10
28.9114963047847
 20
43.46067855849506
 30
0.0
 40
0.5600000000000001
 41
0.0
 71
     5
 72
     1
  1
\A1;10.680
 11
0.0000000000000001
 21
1.0
 31
0.0
 73
     1
 44
1.0
1001
ACAD
1000
MTEXTBEGIN
1070
    73
1070
     1
1070
    44
1040
1.0
1070
    74
1070
     0
1000
MTEXTEND
  0
POINT
  5
801
330
7FC
100
AcDbEntity
  8
Defpoints
 62
     0
100
AcDbPoint
 10
28.91149630478471
 20
41.15734522516172
 30
0.0
  0
POINT
  5
802
330
7FC
100
AcDbEntity
  8
Defpoints
 62
     0
100
AcDbPoint
 10
28.91149630478471
 20
42.15734522516171
 30
0.0
  0
POINT
  5
803
330
7FC
100
AcDbEntity
  8
Defpoints
 62
     0
100
AcDbPoint
 10
18.23149630478471
 20
12.40734522516159
 30
0.0
  0
ENDBLK
  5
7FE
330
7FC
100
AcDbEntity
  8
0
100
AcDbBlockEnd
  0
BLOCK
  5
811
330
810
100
AcDbEntity
  8
0
100
AcDbBlockBegin
  2
*D89
 70
     1
 10
0.0
 20
0.0
 30
0.0
  3
*D89
  1

  0
LINE
  5
813
330
810
100
AcDbEntity
  8
0
 62
     0
370
    -2
100
AcDbLine
 10
18.69399630478462
 20
40.60323953625167
 30
0.0
 11
18.69399630478462
 21
42.15734522516171
 31
0.0
  0
MTEXT
  5
814
330
810
100
AcDbEntity
  8
0
 62
     0
100
AcDbMText
 10
18.69399630478461
 20
43.32067855849506
 30
0.0
 40
0.5600000000000001
 41
0.0
 71
     5
 72
     1
  1
\A1;0.463
 11
0.0000000000000001
 21
1.0
 31
0.0
 73
     1
 44
1.0
1001
ACAD
1000
MTEXTBEGIN
1070
    73
1070
     1
1070
    44
1040
1.0
1070
    74
1070
     0
1000
MTEXTEND
  0
POINT
  5
815
330
810
100
AcDbEntity
  8
Defpoints
 62
     0
100
AcDbPoint
 10
18.69399630478462
 20
40.35323953625168
 30
0.0
  0
POINT
  5
816
330
810
100
AcDbEntity
  8
Defpoints
 62
     0
100
AcDbPoint
 10
18.69399630478462
 20
42.15734522516171
 30
0.0
  0
POINT
  5
817
330
810
100
AcDbEntity
  8
Defpoints
 62
     0
100
AcDbPoint
 10
18.23149630478471
 20
12.40734522516159
 30
0.0
  0
ENDBLK
  5
812
330
810
100
AcDbEntity
  8
0
100
AcDbBlockEnd
  0
BLOCK
  5
820
330
81F
100
AcDbEntity
  8
0
100
AcDbBlockBegin
  2
*D90
 70
     1
 10
0.0
 20
0.0
 30
0.0
  3
*D90
  1

  0
LINE
  5
822
330
81F
100
AcDbEntity
  8
0
 62
     0
370
    -2
100
AcDbLine
 10
28.20599630478462
 20
39.9579321097174
 30
0.0
 11
28.20599630478462
 21
41.43734522516171
 31
0.0
  0
LINE
  5
823
330
81F
100
AcDbEntity
  8
0
 62
     0
370
    -2
100
AcDbLine
 10
28.20599630478462
 20
41.43734522516171
 30
0.0
 11
27.57459025963783
 21
41.79734522516172
 31
0.0
  0
LINE
  5
824
330
81F
100
AcDbEntity
  8
0
 62
     0
370
    -2
100
AcDbLine
 10
27.57459025963783
 20
41.79734522516172
 30
0.0
 11
27.57459025963783
 21
42.15734522516171
 31
0.0
  0
MTEXT
  5
825
330
81F
100
AcDbEntity
  8
0
 62
     0
100
AcDbMText
 10
27.57459025963783
 20
43.36734522516171
 30
0.0
 40
0.5600000000000001
 41
0.0
 71
     5
 72
     1
  1
\A1;9.975
 11
0.0000000000000001
 21
1.0
 31
0.0
 73
     1
 44
1.0
1001
ACAD
1000
MTEXTBEGIN
1070
    73
1070
     1
1070
    44
1040
1.0
1070
    74
1070
     0
1000
MTEXTEND
  0
POINT
  5
826
330
81F
100
AcDbEntity
  8
Defpoints
 62
     0
100
AcDbPoint
 10
28.20599630478462
 20
39.7079321097174
 30
0.0
  0
POINT
  5
827
330
81F
100
AcDbEntity
  8
Defpoints
 62
     0
100
AcDbPoint
 10
27.57459025963783
 20
42.15734522516171
 30
0.0
  0
POINT
  5
828
330
81F
100
AcDbEntity
  8
Defpoints
 62
     0
100
AcDbPoint
 10
18.23149630478471
 20
12.40734522516159
 30
0.0
  0
ENDBLK
  5
821
330
81F
100
AcDbEntity
  8
0
100
AcDbBlockEnd
  0
BLOCK
  5
89B
330
89A
100
AcDbEntity
  8
0
100
AcDbBlockBegin
  2
*D91
 70
     1
 10
0.0
 20
0.0
 30
0.0
  3
*D91
  1

  0
LINE
  5
8C9
330
89A
100
AcDbEntity
  8
0
 62
     0
370
    -2
100
AcDbLine
 10
22.9464963047847
 20
33.73036999767902
 30
0.0
 11
22.9464963047847
 21
32.31403509500457
 31
0.0
  0
MTEXT
  5
8CA
330
89A
100
AcDbEntity
  8
0
 62
     0
100
AcDbMText
 10
22.9464963047847
 20
31.19736842833791
 30
0.0
 40
0.5600000000000001
 41
0.0
 71
     5
 72
     1
  1
\A1;4.715
 11
0.0000000000000001
 21
1.0
 31
0.0
 73
     1
 44
1.0
1001
ACAD
1000
MTEXTBEGIN
1070
    73
1070
     1
1070
    44
1040
1.0
1070
    74
1070
     0
1000
MTEXTEND
  0
POINT
  5
8CB
330
89A
100
AcDbEntity
  8
Defpoints
 62
     0
100
AcDbPoint
 10
22.9464963047847
 20
33.98036999767902
 30
0.0
  0
POINT
  5
8CC
330
89A
100
AcDbEntity
  8
Defpoints
 62
     0
100
AcDbPoint
 10
22.9464963047847
 20
32.31403509500457
 30
0.0
  0
POINT
  5
8CD
330
89A
100
AcDbEntity
  8
Defpoints
 62
     0
100
AcDbPoint
 10
18.23149630478471
 20
12.40734522516159
 30
0.0
  0
ENDBLK
  5
89C
330
89A
100
AcDbEntity
  8
0
100
AcDbBlockEnd
  0
BLOCK
  5
8A8
330
8A7
100
AcDbEntity
  8
0
100
AcDbBlockBegin
  2
*D92
 70
     1
 10
0.0
 20
0.0
 30
0.0
  3
*D92
  1

  0
LINE
  5
8CE
330
8A7
100
AcDbEntity
  8
0
 62
     0
370
    -2
100
AcDbLine
 10
24.1964963047847
 20
33.73036999767899
 30
0.0
 11
24.1964963047847
 21
32.31403509500457
 31
0.0
  0
MTEXT
  5
8CF
330
8A7
100
AcDbEntity
  8
0
 62
     0
100
AcDbMText
 10
24.1964963047847
 20
31.10403509500458
 30
0.0
 40
0.5600000000000001
 41
0.0
 71
     5
 72
     1
  1
\A1;5.965
 11
0.0000000000000001
 21
1.0
 31
0.0
 73
     1
 44
1.0
1001
ACAD
1000
MTEXTBEGIN
1070
    73
1070
     1
1070
    44
1040
1.0
1070
    74
1070
     0
1000
MTEXTEND
  0
POINT
  5
8D0
330
8A7
100
AcDbEntity
  8
Defpoints
 62
     0
100
AcDbPoint
 10
24.1964963047847
 20
33.98036999767898
 30
0.0
  0
POINT
  5
8D1
330
8A7
100
AcDbEntity
  8
Defpoints
 62
     0
100
AcDbPoint
 10
24.1964963047847
 20
32.31403509500457
 30
0.0
  0
POINT
  5
8D2
330
8A7
100
AcDbEntity
  8
Defpoints
 62
     0
100
AcDbPoint
 10
18.23149630478471
 20
12.40734522516159
 30
0.0
  0
ENDBLK
  5
8A9
330
8A7
100
AcDbEntity
  8
0
100
AcDbBlockEnd
  0
ENDSEC
  0
SECTION
  2
ENTITIES
  0
LWPOLYLINE
  5
1CB
330
1F
100
AcDbEntity
  8
BORDER
100
AcDbPolyline
 90
        4
 70
     1
 43
0.0
 10
6.633880364652436
 20
48.13392578177886
 10
40.72957662902765
 20
48.13392578177886
 10
40.72957662902765
 20
3.269541356789508
 10
6.633880364652436
 20
3.269541356789508
  0
LINE
  5
1CC
330
1F
100
AcDbEntity
  8
BORDER
100
AcDbLine
 10
31.78164088597088
 20
4.655769863098879
 30
0.0
 11
27.26819386661341
 21
4.655769863098879
 31
0.0
  0
LINE
  5
1CD
330
1F
100
AcDbEntity
  8
BORDER
100
AcDbLine
 10
31.78164088597088
 20
3.269541356789506
 30
0.0
 11
31.78164088597088
 21
4.503311928476716
 31
0.0
  0
LINE
  5
1CE
330
1F
100
AcDbEntity
  8
BORDER
100
AcDbLine
 10
31.78164088597088
 20
3.269541356789506
 30
0.0
 11
27.22557791503344
 21
3.269541356789506
 31
0.0
  0
TEXT
  5
1CF
330
1F
100
AcDbEntity
  8
TEXT
100
AcDbText
 10
27.44732511435685
 20
4.166829045289292
 30
0.0
 40
0.2243219221249466
  1
PROPRIETARY DRAWING
 72
     1
 11
29.50360940050219
 21
4.278990006351765
 31
0.0
100
AcDbText
 73
     2
  0
TEXT
  5
1D0
330
1F
100
AcDbEntity
  8
TEXT
100
AcDbText
 10
27.61556655595056
 20
3.942507123164345
 30
0.0
 40
0.1121609610624733
  1
THIS DRAWING IS THE PROPERTY OF ICE
 72
     1
 11
29.50360940050219
 21
3.998587603695582
 31
0.0
100
AcDbText
 73
     2
  0
TEXT
  5
1D1
330
1F
100
AcDbEntity
  8
TEXT
100
AcDbText
 10
27.51275234164329
 20
3.774265681570634
 30
0.0
 40
0.1121609610624733
  1
QUBE, INC. AND IS NOT TO BE DUPLICATED
 72
     1
 11
29.50360940050219
 21
3.830346162101871
 31
0.0
100
AcDbText
 73
     2
  0
TEXT
  5
1D2
330
1F
100
AcDbEntity
  8
TEXT
100
AcDbText
 10
27.59687306244015
 20
3.60602423997693
 30
0.0
 40
0.1121609610624733
  1
OR ALTERED WITHOUT AUTHORIZATION OF
 72
     1
 11
29.50360940050219
 21
3.662104720508167
 31
0.0
100
AcDbText
 73
     2
  0
TEXT
  5
1D3
330
1F
100
AcDbEntity
  8
TEXT
100
AcDbText
 10
28.83999038088256
 20
3.437782798383216
 30
0.0
 40
0.1121609610624733
  1
ICE QUBE, INC.
 72
     1
 11
29.50360940050219
 21
3.493863278914453
 31
0.0
100
AcDbText
 73
     2
  0
LINE
  5
1D4
330
1F
100
AcDbEntity
  8
DIMENSION
100
AcDbLine
 10
31.78164088597088
 20
4.655769863098879
 30
0.0
 11
31.78164088597088
 21
3.269541356789506
 31
0.0
  0
ARC
  5
1D5
330
1F
100
AcDbEntity
  8
TEXT
100
AcDbCircle
 10
35.84294687246475
 20
5.129084820472872
 30
0.0
 40
0.0138376425535032
100
AcDbArc
 50
177.2189023070876
 51
10.53261226457853
  0
ARC
  5
1D6
330
1F
100
AcDbEntity
  8
TEXT
100
AcDbCircle
 10
35.8192928787525
 20
5.268998895886195
 30
0.0
 40
0.0170767143600581
100
AcDbArc
 50
218.2556843178653
 51
317.6564247238853
  0
ARC
  5
1D7
330
1F
100
AcDbEntity
  8
TEXT
100
AcDbCircle
 10
35.84113429334323
 20
5.250747509479269
 30
0.0
 40
0.0114258869811886
100
AcDbArc
 50
48.87596376793599
 51
143.7953529790059
  0
ARC
  5
1D8
330
1F
100
AcDbEntity
  8
TEXT
100
AcDbCircle
 10
35.85713015359195
 20
5.261458373601842
 30
0.0
 40
0.008738209283706
100
AcDbArc
 50
193.9319034609791
 51
333.0378283509304
  0
ARC
  5
1D9
330
1F
100
AcDbEntity
  8
TEXT
100
AcDbCircle
 10
35.88534742879567
 20
5.243932964332167
 30
0.0
 40
0.0203017597901646
100
AcDbArc
 50
222.9877626572325
 51
344.3358851615585
  0
ARC
  5
1DA
330
1F
100
AcDbEntity
  8
TEXT
100
AcDbCircle
 10
35.86433258320991
 20
5.226095846994011
 30
0.0
 40
0.0073452433817128
100
AcDbArc
 50
32.94435831946194
 51
185.0814072168599
  0
LINE
  5
1DB
330
1F
100
AcDbEntity
  8
TEXT
100
AcDbLine
 10
35.85655136487491
 20
5.131614274504516
 30
0.0
 11
35.85701620766569
 21
5.225445270916545
 31
0.0
  0
LINE
  5
1DC
330
1F
100
AcDbEntity
  8
TEXT
100
AcDbLine
 10
35.82587160964685
 20
5.222193703382789
 30
0.0
 11
35.82912552790205
 21
5.129756226397556
 31
0.0
  0
ARC
  5
1DD
330
1F
100
AcDbEntity
  8
TEXT
100
AcDbCircle
 10
35.81769736386136
 20
5.227471659273106
 30
0.0
 40
0.009730113696169
100
AcDbArc
 50
327.1504341221702
 51
80.13862259361689
  0
LINE
  5
1DE
330
1F
100
AcDbEntity
  8
TEXT
100
AcDbLine
 10
35.79742192418162
 20
5.240409686923316
 30
0.0
 11
35.81936379185665
 21
5.237058010522375
 31
0.0
  0
ARC
  5
1DF
330
1F
100
AcDbEntity
  8
TEXT
100
AcDbCircle
 10
35.79473634894545
 20
5.235753946688021
 30
0.0
 40
0.0053747773430727
100
AcDbArc
 50
60.02231951668147
 51
227.1694577924201
  0
LINE
  5
1E0
330
1F
100
AcDbEntity
  8
TEXT
100
AcDbLine
 10
35.79302670651931
 20
5.184305755691966
 30
0.0
 11
35.7910824015342
 21
5.231812259257005
 31
0.0
  0
ARC
  5
1E1
330
1F
100
AcDbEntity
  8
TEXT
100
AcDbCircle
 10
35.78120174133184
 20
5.179193580371496
 30
0.0
 40
0.0128827069435148
100
AcDbArc
 50
165.6416373020916
 51
23.37981978602059
  0
LINE
  5
1E2
330
1F
100
AcDbEntity
  8
TEXT
100
AcDbLine
 10
35.76232532939009
 20
5.235437883345143
 30
0.0
 11
35.76872144338537
 21
5.18238831061943
 31
0.0
  0
ARC
  5
1E3
330
1F
100
AcDbEntity
  8
TEXT
100
AcDbCircle
 10
35.74901553368457
 20
5.233692198878311
 30
0.0
 40
0.0134237876913611
100
AcDbArc
 50
7.472141028409409
 51
164.1640293291679
  0
LINE
  5
1E4
330
1F
100
AcDbEntity
  8
TEXT
100
AcDbLine
 10
35.73674083596897
 20
5.22776806974825
 30
0.0
 11
35.7361012208254
 21
5.237355339519852
 31
0.0
  0
ARC
  5
1E5
330
1F
100
AcDbEntity
  8
TEXT
100
AcDbCircle
 10
35.72724884821858
 20
5.229181876646903
 30
0.0
 40
0.0095967015896084
100
AcDbArc
 50
208.7068196476631
 51
351.5282258973499
  0
LINE
  5
1E6
330
1F
100
AcDbEntity
  8
TEXT
100
AcDbLine
 10
35.71307518797849
 20
5.237994495278887
 30
0.0
 11
35.71883168683014
 21
5.224572313157743
 31
0.0
  0
LINE
  5
1E7
330
1F
100
AcDbEntity
  8
TEXT
100
AcDbLine
 10
35.7181920716866
 20
5.186223211866766
 30
0.0
 11
35.71307518797849
 21
5.237994495278887
 31
0.0
  0
ARC
  5
1E8
330
1F
100
AcDbEntity
  8
TEXT
100
AcDbCircle
 10
35.70537342623552
 20
5.18561672046168
 30
0.0
 40
0.0128329849615598
100
AcDbArc
 50
185.8633287467241
 51
2.70882780951028
  0
LINE
  5
1E9
330
1F
100
AcDbEntity
  8
TEXT
100
AcDbLine
 10
35.69004913641143
 20
5.246942609291455
 30
0.0
 11
35.69260757826544
 21
5.184305755691966
 31
0.0
  0
ARC
  5
1EA
330
1F
100
AcDbEntity
  8
TEXT
100
AcDbCircle
 10
35.67981069748998
 20
5.247851771853148
 30
0.0
 40
0.0102787259964992
100
AcDbArc
 50
354.9255052590734
 51
174.3705062402905
  0
LINE
  5
1EB
330
1F
100
AcDbEntity
  8
TEXT
100
AcDbLine
 10
35.66958154541854
 20
5.226489758230278
 30
0.0
 11
35.66958154541854
 21
5.248860065466335
 31
0.0
  0
ARC
  5
1EC
330
1F
100
AcDbEntity
  8
TEXT
100
AcDbCircle
 10
35.662090476946
 20
5.223637700531321
 30
0.0
 40
0.008015630978141
100
AcDbArc
 50
168.6772178130462
 51
20.8432182574363
  0
LINE
  5
1ED
330
1F
100
AcDbEntity
  8
TEXT
100
AcDbLine
 10
35.64783472413859
 20
5.258447346340084
 30
0.0
 11
35.65423085685392
 21
5.225211457814531
 31
0.0
  0
LINE
  5
1EE
330
1F
100
AcDbEntity
  8
TEXT
100
AcDbLine
 10
35.61521450157864
 20
5.238633639935688
 30
0.0
 11
35.61393527129153
 21
5.262282247587471
 31
0.0
  0
ARC
  5
1EF
330
1F
100
AcDbEntity
  8
TEXT
100
AcDbCircle
 10
35.60029840608084
 20
5.23286066092065
 30
0.0
 40
0.015994286217489
100
AcDbArc
 50
170.7272794785986
 51
21.15794103948683
  0
ARC
  5
1F0
330
1F
100
AcDbEntity
  8
TEXT
100
AcDbCircle
 10
35.53600141717203
 20
5.216652658485781
 30
0.0
 40
0.0131930350464565
100
AcDbArc
 50
167.7181143692787
 51
23.98551077365514
  0
ARC
  5
1F1
330
1F
100
AcDbEntity
  8
TEXT
100
AcDbCircle
 10
35.36032655469103
 20
5.261779288954183
 30
0.0
 40
0.0152179521574632
100
AcDbArc
 50
225.9317407159997
 51
327.321681293723
  0
ARC
  5
1F2
330
1F
100
AcDbEntity
  8
TEXT
100
AcDbCircle
 10
35.57627350294529
 20
6.199967163229858
 30
0.0
 40
0.0096947242263127
100
AcDbArc
 50
305.0065695458966
 51
188.3798152009863
  0
ARC
  5
1F3
330
1F
100
AcDbEntity
  8
TEXT
100
AcDbCircle
 10
35.55601129432054
 20
6.197575898594417
 30
0.0
 40
0.0107157484673298
100
AcDbArc
 50
183.0745908828774
 51
5.238726745824518
  0
ARC
  5
1F4
330
1F
100
AcDbEntity
  8
TEXT
100
AcDbCircle
 10
35.53548788794743
 20
6.19467211584066
 30
0.0
 40
0.0100954121991078
100
AcDbArc
 50
13.33841226381423
 51
197.9246330182951
  0
ARC
  5
1F5
330
1F
100
AcDbEntity
  8
TEXT
100
AcDbCircle
 10
35.52073273445581
 20
6.203065390400642
 30
0.0
 40
0.0126006644607958
100
AcDbArc
 50
191.7667831442131
 51
294.1224948725133
  0
ARC
  5
1F6
330
1F
100
AcDbEntity
  8
TEXT
100
AcDbCircle
 10
35.49667722677904
 20
6.185619274223776
 30
0.0
 40
0.0189383096082129
100
AcDbArc
 50
51.76909225769996
 51
154.0890012254433
  0
ARC
  5
1F7
330
1F
100
AcDbEntity
  8
TEXT
100
AcDbCircle
 10
35.46803874309758
 20
6.198508260869667
 30
0.0
 40
0.0124874259172945
100
AcDbArc
 50
179.7887253899368
 51
338.318548208448
  0
ARC
  5
1F8
330
1F
100
AcDbEntity
  8
TEXT
100
AcDbCircle
 10
35.44738971177399
 20
6.201489869724909
 30
0.0
 40
0.0086735641434701
100
AcDbArc
 50
340.2175703033614
 51
119.511112702139
  0
ARC
  5
1F9
330
1F
100
AcDbEntity
  8
TEXT
100
AcDbCircle
 10
35.4358245439502
 20
6.206842588310951
 30
0.0
 40
0.0076159658918785
100
AcDbArc
 50
208.4553291170971
 51
16.75507449313882
  0
ARC
  5
1FA
330
1F
100
AcDbEntity
  8
TEXT
100
AcDbCircle
 10
35.42080503280178
 20
6.202107961122968
 30
0.0
 40
0.0083967734049173
100
AcDbArc
 50
7.567610287757044
 51
183.0538693842452
  0
ARC
  5
1FB
330
1F
100
AcDbEntity
  8
TEXT
100
AcDbCircle
 10
35.40190684973774
 20
6.200515305995867
 30
0.0
 40
0.0105755352782464
100
AcDbArc
 50
151.6108765070449
 51
6.217261201770575
  0
ARC
  5
1FC
330
1F
100
AcDbEntity
  8
TEXT
100
AcDbCircle
 10
35.3843675022448
 20
6.205065764833387
 30
0.0
 40
0.0082494841501441
100
AcDbArc
 50
3.320051391017444
 51
168.5145862198274
  0
ARC
  5
1FD
330
1F
100
AcDbEntity
  8
TEXT
100
AcDbCircle
 10
35.36615205824296
 20
6.202803146105221
 30
0.0
 40
0.0108577700834392
100
AcDbArc
 50
181.931421762249
 51
21.08009584438978
  0
ARC
  5
1FE
330
1F
100
AcDbEntity
  8
TEXT
100
AcDbCircle
 10
35.34298528125822
 20
6.194459070363262
 30
0.0
 40
0.0146735869675135
100
AcDbArc
 50
32.93635467158797
 51
189.5430854165199
  0
ARC
  5
1FF
330
1F
100
AcDbEntity
  8
TEXT
100
AcDbCircle
 10
36.32671246193449
 20
5.426484616975788
 30
0.0
 40
0.0996360252790673
100
AcDbArc
 50
312.2086974257854
 51
3.264333629957773
  0
ARC
  5
200
330
1F
100
AcDbEntity
  8
TEXT
100
AcDbCircle
 10
36.31131335052113
 20
5.455670561317539
 30
0.0
 40
0.1318551059894317
100
AcDbArc
 50
264.6664639047648
 51
308.6423664458132
  0
ARC
  5
201
330
1F
100
AcDbEntity
  8
TEXT
100
AcDbCircle
 10
36.29971573790108
 20
5.436255190459363
 30
0.0
 40
0.1118708030312557
100
AcDbArc
 50
231.6935697703408
 51
269.6626044169122
  0
ARC
  5
202
330
1F
100
AcDbEntity
  8
TEXT
100
AcDbCircle
 10
36.32034204119437
 20
5.415272679560662
 30
0.0
 40
0.0638586092671776
100
AcDbArc
 50
343.5952529167626
 51
35.13836089167873
  0
ARC
  5
203
330
1F
100
AcDbEntity
  8
TEXT
100
AcDbCircle
 10
36.32440206287335
 20
5.432974561617771
 30
0.0
 40
0.0517927880765555
100
AcDbArc
 50
21.58325850317256
 51
95.38396011116695
  0
ARC
  5
204
330
1F
100
AcDbEntity
  8
TEXT
100
AcDbCircle
 10
36.3109567207936
 20
5.440895366261383
 30
0.0
 40
0.0444799654194526
100
AcDbArc
 50
78.87075864991584
 51
146.7670066549814
  0
ARC
  5
205
330
1F
100
AcDbEntity
  8
TEXT
100
AcDbCircle
 10
36.34417043223137
 20
5.432344441711659
 30
0.0
 40
0.0820166027792055
100
AcDbArc
 50
359.8698564192901
 51
62.37231490188333
  0
ARC
  5
206
330
1F
100
AcDbEntity
  8
TEXT
100
AcDbCircle
 10
36.34408396928185
 20
5.393798810415248
 30
0.0
 40
0.1175623780339028
100
AcDbArc
 50
71.07988584761956
 51
127.1124618564865
  0
LINE
  5
207
330
1F
100
AcDbEntity
  8
TEXT
100
AcDbLine
 10
36.2737515042225
 20
5.465272387892635
 30
0.0
 11
36.27435401580964
 21
5.361715110604944
 31
0.0
  0
LINE
  5
208
330
1F
100
AcDbEntity
  8
TEXT
100
AcDbLine
 10
36.20084765834667
 20
5.568829665180393
 30
0.0
 11
36.22615312628375
 21
5.567023431211566
 31
0.0
  0
LINE
  5
209
330
1F
100
AcDbEntity
  8
TEXT
100
AcDbLine
 10
36.19964263517257
 20
5.582075355046836
 30
0.0
 11
36.20084765834667
 21
5.568829665180393
 31
0.0
  0
ARC
  5
20A
330
1F
100
AcDbEntity
  8
TEXT
100
AcDbCircle
 10
36.18280047850001
 20
5.854295416959343
 30
0.0
 40
0.2727405733458417
100
AcDbArc
 50
273.5403564160214
 51
289.0758016785419
  0
LINE
  5
20B
330
1F
100
AcDbEntity
  8
TEXT
100
AcDbLine
 10
36.2719372198617
 20
5.596531839841797
 30
0.0
 11
36.27314901135564
 21
5.487549247603471
 31
0.0
  0
LINE
  5
20C
330
1F
100
AcDbEntity
  8
TEXT
100
AcDbLine
 10
36.22615312628375
 20
5.567023431211566
 30
0.0
 11
36.23037070739338
 21
5.348469409636248
 31
0.0
  0
ARC
  5
20D
330
1F
100
AcDbEntity
  8
TEXT
100
AcDbCircle
 10
36.18546135103253
 20
5.199747429682386
 30
0.0
 40
0.141645632417244
100
AcDbArc
 50
88.18956599987521
 51
113.1652090520224
  0
ARC
  5
20E
330
1F
100
AcDbEntity
  8
TEXT
100
AcDbCircle
 10
36.12282616668635
 20
5.332077694671101
 30
0.0
 40
0.0072274031612914
100
AcDbArc
 50
201.700602772435
 51
343.0678677067636
  0
LINE
  5
20F
330
1F
100
AcDbEntity
  8
TEXT
100
AcDbLine
 10
36.11554308129028
 20
5.350969488981346
 30
0.0
 11
36.11611097911564
 21
5.329405315142374
 31
0.0
  0
ARC
  5
210
330
1F
100
AcDbEntity
  8
TEXT
100
AcDbCircle
 10
36.04704042593314
 20
5.424256590505621
 30
0.0
 40
0.1003175609791136
100
AcDbArc
 50
260.0995263030863
 51
313.0673878832467
  0
ARC
  5
211
330
1F
100
AcDbEntity
  8
TEXT
100
AcDbCircle
 10
36.02976804184792
 20
5.369140061997202
 30
0.0
 40
0.04370710041264
100
AcDbArc
 50
180.7587023263156
 51
270.031539090741
  0
ARC
  5
212
330
1F
100
AcDbEntity
  8
TEXT
100
AcDbCircle
 10
36.1068594009059
 20
5.481497139418493
 30
0.0
 40
0.0088040610093238
100
AcDbArc
 50
337.1943218370273
 51
115.6412778855146
  0
LINE
  5
213
330
1F
100
AcDbEntity
  8
TEXT
100
AcDbLine
 10
36.11554308129028
 20
5.36969627532405
 30
0.0
 11
36.11497520218531
 21
5.478084624239238
 31
0.0
  0
LINE
  5
214
330
1F
100
AcDbEntity
  8
TEXT
100
AcDbLine
 10
36.08260562519453
 20
5.490569144766886
 30
0.0
 11
36.10304957249829
 21
5.48943418532741
 31
0.0
  0
LINE
  5
215
330
1F
100
AcDbEntity
  8
TEXT
100
AcDbLine
 10
36.08317350429954
 20
5.501351237237521
 30
0.0
 11
36.08260562519453
 21
5.490569144766886
 31
0.0
  0
LINE
  5
216
330
1F
100
AcDbEntity
  8
TEXT
100
AcDbLine
 10
35.96789237988372
 20
5.491704104206366
 30
0.0
 11
35.9559667501966
 21
5.493406532263334
 31
0.0
  0
LINE
  5
217
330
1F
100
AcDbEntity
  8
TEXT
100
AcDbLine
 10
35.95539887109158
 20
5.501351237237521
 30
0.0
 11
35.9559667501966
 21
5.493406532263334
 31
0.0
  0
ARC
  5
218
330
1F
100
AcDbEntity
  8
TEXT
100
AcDbCircle
 10
35.97164507217418
 20
5.478957603766875
 30
0.0
 40
0.0132874366557855
100
AcDbArc
 50
358.6825606331185
 51
106.404935772954
  0
LINE
  5
219
330
1F
100
AcDbEntity
  8
TEXT
100
AcDbLine
 10
36.15586307807256
 20
5.504188624734076
 30
0.0
 11
36.15699885500283
 21
5.375371050317046
 31
0.0
  0
LINE
  5
21A
330
1F
100
AcDbEntity
  8
TEXT
100
AcDbLine
 10
36.02808844486473
 20
5.504188624734076
 30
0.0
 11
36.02922422179498
 21
5.379343397252912
 31
0.0
  0
LINE
  5
21B
330
1F
100
AcDbEntity
  8
TEXT
100
AcDbLine
 10
35.98492899639672
 20
5.478652103958988
 30
0.0
 11
35.986064773327
 21
5.36856131588458
 31
0.0
  0
LINE
  5
21C
330
1F
100
AcDbEntity
  8
TEXT
100
AcDbLine
 10
36.08317350429954
 20
5.501351237237521
 30
0.0
 11
36.15586307807256
 21
5.504188624734076
 31
0.0
  0
LINE
  5
21D
330
1F
100
AcDbEntity
  8
TEXT
100
AcDbLine
 10
35.95539887109158
 20
5.501351237237521
 30
0.0
 11
36.02808844486473
 21
5.504188624734076
 31
0.0
  0
LINE
  5
21E
330
1F
100
AcDbEntity
  8
TEXT
100
AcDbLine
 10
35.49680456640925
 20
5.677598421129161
 30
0.0
 11
35.48991756974081
 21
5.66211385423716
 31
0.0
  0
ARC
  5
21F
330
1F
100
AcDbEntity
  8
TEXT
100
AcDbCircle
 10
35.50670461709991
 20
5.678121529389379
 30
0.0
 40
0.0099138613026955
100
AcDbArc
 50
183.0246359049376
 51
356.9753640950624
  0
LINE
  5
220
330
1F
100
AcDbEntity
  8
TEXT
100
AcDbLine
 10
35.52004814740441
 20
5.70426628201465
 30
0.0
 11
35.51660466779043
 21
5.677598421129161
 31
0.0
  0
ARC
  5
221
330
1F
100
AcDbEntity
  8
TEXT
100
AcDbCircle
 10
35.52751704485962
 20
5.707421930489418
 30
0.0
 40
0.0081081777540448
100
AcDbArc
 50
8.122642540875256
 51
202.9043136183461
  0
LINE
  5
222
330
1F
100
AcDbEntity
  8
TEXT
100
AcDbLine
 10
35.52865690259999
 20
5.656952335640546
 30
0.0
 11
35.53554388054804
 21
5.708567554913257
 31
0.0
  0
ARC
  5
223
330
1F
100
AcDbEntity
  8
TEXT
100
AcDbCircle
 10
35.54414620707282
 20
5.657613722335701
 30
0.0
 40
0.0155034185073468
100
AcDbArc
 50
182.4450201076249
 51
0.7349407504797698
  0
LINE
  5
224
330
1F
100
AcDbEntity
  8
TEXT
100
AcDbLine
 10
35.55964835016695
 20
5.699104763418041
 30
0.0
 11
35.55964835016695
 21
5.657812581338558
 31
0.0
  0
ARC
  5
225
330
1F
100
AcDbEntity
  8
TEXT
100
AcDbCircle
 10
35.57130200392117
 20
5.698925020442297
 30
0.0
 40
0.011655039826594
100
AcDbArc
 50
179.1163546128549
 51
32.14670843865929
  0
LINE
  5
226
330
1F
100
AcDbEntity
  8
TEXT
100
AcDbLine
 10
35.58117019135526
 20
5.716309832808159
 30
0.0
 11
35.58117019135526
 21
5.705126538814754
 31
0.0
  0
ARC
  5
227
330
1F
100
AcDbEntity
  8
TEXT
100
AcDbCircle
 10
35.59326864531686
 20
5.713307228914962
 30
0.0
 40
0.0124654810738349
100
AcDbArc
 50
26.60941129939754
 51
166.0619000058106
  0
LINE
  5
228
330
1F
100
AcDbEntity
  8
TEXT
100
AcDbLine
 10
35.60613553087772
 20
5.693943244821461
 30
0.0
 11
35.6044137910706
 21
5.718890592106562
 31
0.0
  0
ARC
  5
229
330
1F
100
AcDbEntity
  8
TEXT
100
AcDbCircle
 10
35.61842060987447
 20
5.690741445681117
 30
0.0
 40
0.0126954591761321
100
AcDbArc
 50
165.3922446503685
 51
2.803879044206374
  0
LINE
  5
22A
330
1F
100
AcDbEntity
  8
TEXT
100
AcDbLine
 10
35.63196174030351
 20
5.724052121805347
 30
0.0
 11
35.63110087040006
 21
5.691362474420951
 31
0.0
  0
ARC
  5
22B
330
1F
100
AcDbEntity
  8
TEXT
100
AcDbCircle
 10
35.65964525343627
 20
5.589407125604306
 30
0.0
 40
0.1374614560572875
100
AcDbArc
 50
60.82353397560639
 51
101.6183182656855
  0
ARC
  5
22C
330
1F
100
AcDbEntity
  8
TEXT
100
AcDbCircle
 10
35.7006654138912
 20
5.690163609667674
 30
0.0
 40
0.0323529955417962
100
AcDbArc
 50
335.4827230531638
 51
36.54383594003182
  0
ARC
  5
22D
330
1F
100
AcDbEntity
  8
TEXT
100
AcDbCircle
 10
35.73739342025344
 20
5.666167344489895
 30
0.0
 40
0.0128419884928463
100
AcDbArc
 50
124.5991194751616
 51
24.91162951380403
  0
ARC
  5
22E
330
1F
100
AcDbEntity
  8
TEXT
100
AcDbCircle
 10
35.75370272154116
 20
5.678756716692761
 30
0.0
 40
0.0085609031917366
100
AcDbArc
 50
15.46471151433632
 51
237.0036058083549
  0
ARC
  5
22F
330
1F
100
AcDbEntity
  8
TEXT
100
AcDbCircle
 10
35.73096639309416
 20
5.660665174093576
 30
0.0
 40
0.0370853381224646
100
AcDbArc
 50
331.8837666959812
 51
33.32508059324594
  0
ARC
  5
230
330
1F
100
AcDbEntity
  8
TEXT
100
AcDbCircle
 10
35.77185371738711
 20
5.633951330679842
 30
0.0
 40
0.0123371668889239
100
AcDbArc
 50
131.5213803610224
 51
48.47861963898633
  0
ARC
  5
231
330
1F
100
AcDbEntity
  8
TEXT
100
AcDbCircle
 10
35.78598392431191
 20
5.64456838253265
 30
0.0
 40
0.0061098187425331
100
AcDbArc
 50
3.193725348484568
 51
193.0548754998599
  0
ARC
  5
232
330
1F
100
AcDbEntity
  8
TEXT
100
AcDbCircle
 10
35.82964170397947
 20
5.628179761710491
 30
0.0
 40
0.0411147408312035
100
AcDbArc
 50
155.9906329013486
 51
206.805730457695
  0
ARC
  5
233
330
1F
100
AcDbEntity
  8
TEXT
100
AcDbCircle
 10
35.62528158626199
 20
5.532956587802896
 30
0.0
 40
0.1843669133377072
100
AcDbArc
 50
344.8914411173256
 51
24.57723374822083
  0
ARC
  5
234
330
1F
100
AcDbEntity
  8
TEXT
100
AcDbCircle
 10
35.74438089744201
 20
5.467251974522026
 30
0.0
 40
0.0614824932539905
100
AcDbArc
 50
300.6537348898141
 51
16.6824591637588
  0
ARC
  5
235
330
1F
100
AcDbEntity
  8
TEXT
100
AcDbCircle
 10
35.68964027655997
 20
5.335811192988476
 30
0.0
 40
0.0236188351644447
100
AcDbArc
 50
244.0629515517945
 51
24.326120312643
  0
ARC
  5
236
330
1F
100
AcDbEntity
  8
TEXT
100
AcDbCircle
 10
35.64917922261418
 20
5.294493088992851
 30
0.0
 40
0.0362075706704429
100
AcDbArc
 50
33.67851647490054
 51
106.5775508010124
  0
ARC
  5
237
330
1F
100
AcDbEntity
  8
TEXT
100
AcDbCircle
 10
35.62620737590768
 20
5.336362059136869
 30
0.0
 40
0.0145313839585332
100
AcDbArc
 50
194.8546182240452
 51
330.451099434079
  0
ARC
  5
238
330
1F
100
AcDbEntity
  8
TEXT
100
AcDbCircle
 10
35.59583159437533
 20
5.351258348257893
 30
0.0
 40
0.0247676522211363
100
AcDbArc
 50
223.0305625061276
 51
311.2487591160724
  0
ARC
  5
239
330
1F
100
AcDbEntity
  8
TEXT
100
AcDbCircle
 10
35.56397425384639
 20
5.359125481759869
 30
0.0
 40
0.0283301579550278
100
AcDbArc
 50
214.7934494581965
 51
299.040950787611
  0
ARC
  5
23A
330
1F
100
AcDbEntity
  8
TEXT
100
AcDbCircle
 10
35.53228876636705
 20
5.342715963513306
 30
0.0
 40
0.0084238802374755
100
AcDbArc
 50
1.658272028068489
 51
160.4091839300748
  0
ARC
  5
23B
330
1F
100
AcDbEntity
  8
TEXT
100
AcDbCircle
 10
35.51764357821754
 20
5.34450641602313
 30
0.0
 40
0.006788181826259
100
AcDbArc
 50
156.0593073728624
 51
8.762281217119962
  0
ARC
  5
23C
330
1F
100
AcDbEntity
  8
TEXT
100
AcDbCircle
 10
35.46261927304211
 20
5.331163681083403
 30
0.0
 40
0.0514055392809971
100
AcDbArc
 50
18.24878221232236
 51
92.19784172829085
  0
ARC
  5
23D
330
1F
100
AcDbEntity
  8
TEXT
100
AcDbCircle
 10
35.43439562531637
 20
5.389356884682792
 30
0.0
 40
0.0271250273704921
100
AcDbArc
 50
345.4259909574664
 51
72.46181126870012
  0
ARC
  5
23E
330
1F
100
AcDbEntity
  8
TEXT
100
AcDbCircle
 10
35.38488185347372
 20
5.428554971207346
 30
0.0
 40
0.059208618203379
100
AcDbArc
 50
346.9852122362369
 51
34.01252680042893
  0
ARC
  5
23F
330
1F
100
AcDbEntity
  8
TEXT
100
AcDbCircle
 10
35.68153375021097
 20
5.52034801727873
 30
0.0
 40
0.2544305947871726
100
AcDbArc
 50
153.5374647244112
 51
193.3327646348701
  0
ARC
  5
240
330
1F
100
AcDbEntity
  8
TEXT
100
AcDbCircle
 10
35.46666048161414
 20
5.640303629106637
 30
0.0
 40
0.0144800437396878
100
AcDbArc
 50
103.7022990326946
 51
207.0193065629252
  0
ARC
  5
241
330
1F
100
AcDbEntity
  8
TEXT
100
AcDbCircle
 10
35.47496958134259
 20
5.663773122081757
 30
0.0
 40
0.0150397981015683
100
AcDbArc
 50
218.6904014524231
 51
353.6659411500759
  0
ARC
  5
242
330
1F
100
AcDbEntity
  8
TEXT
100
AcDbCircle
 10
35.50471059415484
 20
5.641358565899594
 30
0.0
 40
0.0808349191039665
100
AcDbArc
 50
120.6947626763568
 51
155.9971516553446
  0
LINE
  5
243
330
1F
100
AcDbEntity
  8
TEXT
100
AcDbLine
 10
35.43144766254836
 20
5.717845127795992
 30
0.0
 11
35.43086585556948
 21
5.674240760622817
 31
0.0
  0
LINE
  5
244
330
1F
100
AcDbEntity
  8
TEXT
100
AcDbLine
 10
35.46461086626657
 20
5.727728782874905
 30
0.0
 11
35.46344725230894
 21
5.710868426827754
 31
0.0
  0
ARC
  5
245
330
1F
100
AcDbEntity
  8
TEXT
100
AcDbCircle
 10
35.4497319454013
 20
5.717073850596946
 30
0.0
 40
0.0183005428325168
100
AcDbArc
 50
35.60679995345934
 51
177.5845513854531
  0
ARC
  5
246
330
1F
100
AcDbEntity
  8
TEXT
100
AcDbCircle
 10
35.50698587526213
 20
5.773648754872747
 30
0.0
 40
0.012725347991457
100
AcDbArc
 50
318.2823815987277
 51
84.36248438139953
  0
ARC
  5
247
330
1F
100
AcDbEntity
  8
TEXT
100
AcDbCircle
 10
35.53603235766778
 20
5.731376224713379
 30
0.0
 40
0.0390493376983617
100
AcDbArc
 50
81.18509483549694
 51
120.0392913824104
  0
ARC
  5
248
330
1F
100
AcDbEntity
  8
TEXT
100
AcDbCircle
 10
35.55485010022567
 20
5.698803388560524
 30
0.0
 40
0.07230894893519
100
AcDbArc
 50
70.05468846035579
 51
100.2232656721042
  0
ARC
  5
249
330
1F
100
AcDbEntity
  8
TEXT
100
AcDbCircle
 10
35.58789399415188
 20
5.764273788318901
 30
0.0
 40
0.008743096022753
100
AcDbArc
 50
163.375655046466
 51
16.62434495353045
  0
ARC
  5
24A
330
1F
100
AcDbEntity
  8
TEXT
100
AcDbCircle
 10
35.61138887173883
 20
5.749155196922847
 30
0.0
 40
0.0232162326188448
100
AcDbArc
 50
46.43616582623992
 51
130.6283095026662
  0
ARC
  5
24B
330
1F
100
AcDbEntity
  8
TEXT
100
AcDbCircle
 10
35.63510275872161
 20
5.766457861835222
 30
0.0
 40
0.0077290551527951
100
AcDbArc
 50
183.5606974541693
 51
344.4298925613464
  0
ARC
  5
24C
330
1F
100
AcDbEntity
  8
TEXT
100
AcDbCircle
 10
35.65651092843297
 20
5.759053378157505
 30
0.0
 40
0.0149454311556158
100
AcDbArc
 50
20.89289471578032
 51
159.1071052842194
  0
ARC
  5
24D
330
1F
100
AcDbEntity
  8
TEXT
100
AcDbCircle
 10
35.68009860720812
 20
5.748706526810082
 30
0.0
 40
0.0183956219088668
100
AcDbArc
 50
24.75773987532587
 51
121.5483884163393
  0
ARC
  5
24E
330
1F
100
AcDbEntity
  8
TEXT
100
AcDbCircle
 10
35.70950306818341
 20
5.749832475456901
 30
0.0
 40
0.014302047877757
100
AcDbArc
 50
47.61705801860736
 51
152.6179806586004
  0
ARC
  5
24F
330
1F
100
AcDbEntity
  8
TEXT
100
AcDbCircle
 10
35.72774325621855
 20
5.752275921845591
 30
0.0
 40
0.0118278624141569
100
AcDbArc
 50
136.6395135700791
 51
16.38775991618527
  0
ARC
  5
250
330
1F
100
AcDbEntity
  8
TEXT
100
AcDbCircle
 10
35.7419481230941
 20
5.720251101699679
 30
0.0
 40
0.0354771592183854
100
AcDbArc
 50
41.27304036069129
 51
94.61991284103847
  0
ARC
  5
251
330
1F
100
AcDbEntity
  8
TEXT
100
AcDbCircle
 10
35.7828973048429
 20
5.742202044317419
 30
0.0
 40
0.0143590015081912
100
AcDbArc
 50
174.1982733486934
 51
308.0634596483615
  0
ARC
  5
252
330
1F
100
AcDbEntity
  8
TEXT
100
AcDbCircle
 10
35.80226338711727
 20
5.724940784827822
 30
0.0
 40
0.0120831672550191
100
AcDbArc
 50
296.7794474250819
 51
150.4674482996606
  0
ARC
  5
253
330
1F
100
AcDbEntity
  8
TEXT
100
AcDbCircle
 10
35.81209583788535
 20
5.627123961119099
 30
0.0
 40
0.087140171508424
100
AcDbArc
 50
78.6467194011529
 51
92.8865786316482
  0
ARC
  5
254
330
1F
100
AcDbEntity
  8
TEXT
100
AcDbCircle
 10
35.80077391700044
 20
5.677608883037867
 30
0.0
 40
0.0450821524370573
100
AcDbArc
 50
356.7791343814141
 51
50.82801334298971
  0
ARC
  5
255
330
1F
100
AcDbEntity
  8
TEXT
100
AcDbCircle
 10
35.85539971316384
 20
5.644725540083648
 30
0.0
 40
0.0318369611361992
100
AcDbArc
 50
51.01090143870948
 51
107.577946053111
  0
ARC
  5
256
330
1F
100
AcDbEntity
  8
TEXT
100
AcDbCircle
 10
35.71623319084074
 20
5.532931232829488
 30
0.0
 40
0.2097308442409198
100
AcDbArc
 50
317.9732863042375
 51
40.61894937560249
  0
ARC
  5
257
330
1F
100
AcDbEntity
  8
TEXT
100
AcDbCircle
 10
36.07618653980188
 20
5.349900678511918
 30
0.0
 40
0.2076894480460571
100
AcDbArc
 50
179.466220207127
 51
190.5890997840383
  0
ARC
  5
258
330
1F
100
AcDbEntity
  8
TEXT
100
AcDbCircle
 10
35.85443240490957
 20
5.303394077639072
 30
0.0
 40
0.0194777384212009
100
AcDbArc
 50
282.9712622283036
 51
25.35441378639511
  0
ARC
  5
259
330
1F
100
AcDbEntity
  8
TEXT
100
AcDbCircle
 10
35.8829221717501
 20
5.307015407296129
 30
0.0
 40
0.0330532671681626
100
AcDbArc
 50
169.468486757319
 51
223.1418439421427
  0
ARC
  5
25A
330
1F
100
AcDbEntity
  8
TEXT
100
AcDbCircle
 10
35.80818194015467
 20
5.330683476780148
 30
0.0
 40
0.0457737540683277
100
AcDbArc
 50
337.3510782224613
 51
22.64892177753829
  0
ARC
  5
25B
330
1F
100
AcDbEntity
  8
TEXT
100
AcDbCircle
 10
35.68933404455798
 20
5.468046206655113
 30
0.0
 40
0.1801738955345915
100
AcDbArc
 50
311.6071689301104
 51
318.3515702307968
  0
ARC
  5
25C
330
1F
100
AcDbEntity
  8
TEXT
100
AcDbCircle
 10
35.80887476457129
 20
5.327343220384981
 30
0.0
 40
0.0059850670396994
100
AcDbArc
 50
89.05883162362073
 51
223.9137905963005
  0
ARC
  5
25D
330
1F
100
AcDbEntity
  8
TEXT
100
AcDbCircle
 10
35.75740322142953
 20
5.316379247965373
 30
0.0
 40
0.0476495590557309
100
AcDbArc
 50
322.6907301981532
 51
8.220255073940956
  0
ARC
  5
25E
330
1F
100
AcDbEntity
  8
TEXT
100
AcDbCircle
 10
35.8028142090405
 20
5.278272255971208
 30
0.0
 40
0.011897085301572
100
AcDbArc
 50
129.1527393458021
 51
254.8870408388504
  0
ARC
  5
25F
330
1F
100
AcDbEntity
  8
TEXT
100
AcDbCircle
 10
35.80233105735679
 20
5.262261560806376
 30
0.0
 40
0.0052281875853345
100
AcDbArc
 50
312.7998628402736
 51
120.0581864533373
  0
ARC
  5
260
330
1F
100
AcDbEntity
  8
TEXT
100
AcDbCircle
 10
35.89381744616916
 20
5.220234242921915
 30
0.0
 40
0.0471552440192955
100
AcDbArc
 50
99.17143729878524
 51
127.7955283290937
  0
ARC
  5
261
330
1F
100
AcDbEntity
  8
TEXT
100
AcDbCircle
 10
35.88441971867629
 20
5.245283588619886
 30
0.0
 40
0.0215852334719351
100
AcDbArc
 50
341.5477100758356
 51
84.99888070834156
  0
ARC
  5
262
330
1F
100
AcDbEntity
  8
TEXT
100
AcDbCircle
 10
35.78550750472599
 20
5.300560415824101
 30
0.0
 40
0.0349606868356778
100
AcDbArc
 50
156.2885975497952
 51
210.2571046136444
  0
ARC
  5
263
330
1F
100
AcDbEntity
  8
TEXT
100
AcDbCircle
 10
35.76061454583918
 20
5.312054549277313
 30
0.0
 40
0.0075644489389127
100
AcDbArc
 50
31.23099864076716
 51
160.1819529381846
  0
LINE
  5
264
330
1F
100
AcDbEntity
  8
TEXT
100
AcDbLine
 10
35.76662995971148
 20
5.28158689424097
 30
0.0
 11
35.76708278409486
 21
5.315976638212791
 31
0.0
  0
ARC
  5
265
330
1F
100
AcDbEntity
  8
TEXT
100
AcDbCircle
 10
35.76059975791257
 20
5.279180720264371
 30
0.0
 40
0.006492534708498
100
AcDbArc
 50
144.5711585108374
 51
21.75301147887026
  0
ARC
  5
266
330
1F
100
AcDbEntity
  8
TEXT
100
AcDbCircle
 10
35.6379496753371
 20
5.265019786940776
 30
0.0
 40
0.0118706008802055
100
AcDbArc
 50
177.787775166229
 51
326.3805826419355
  0
ARC
  5
267
330
1F
100
AcDbEntity
  8
TEXT
100
AcDbCircle
 10
35.6194233283493
 20
5.266117159936992
 30
0.0
 40
0.0066951716182956
100
AcDbArc
 50
354.5219056877808
 51
214.9448543763829
  0
LINE
  5
268
330
1F
100
AcDbEntity
  8
TEXT
100
AcDbLine
 10
35.58323389416232
 20
5.275065285051777
 30
0.0
 11
35.5845131244495
 21
5.235437883345143
 31
0.0
  0
ARC
  5
269
330
1F
100
AcDbEntity
  8
TEXT
100
AcDbCircle
 10
35.55689916367037
 20
5.286539718088813
 30
0.0
 40
0.0071776385447644
100
AcDbArc
 50
5.351678383090947
 51
195.2435488026394
  0
LINE
  5
26A
330
1F
100
AcDbEntity
  8
TEXT
100
AcDbLine
 10
35.54805521102828
 20
5.222015701223996
 30
0.0
 11
35.54997405645887
 21
5.284652554823458
 31
0.0
  0
LINE
  5
26B
330
1F
100
AcDbEntity
  8
TEXT
100
AcDbLine
 10
35.51735383389908
 20
5.298713892703636
 30
0.0
 11
35.52311033275064
 21
5.219459100392424
 31
0.0
  0
ARC
  5
26C
330
1F
100
AcDbEntity
  8
TEXT
100
AcDbCircle
 10
35.50380778072309
 20
5.296904783549964
 30
0.0
 40
0.0136663247648153
100
AcDbArc
 50
7.606980527162162
 51
103.0413594591621
  0
ARC
  5
26D
330
1F
100
AcDbEntity
  8
TEXT
100
AcDbCircle
 10
35.49496740683557
 20
5.297764721628662
 30
0.0
 40
0.0137199467131118
100
AcDbArc
 50
65.19241843010743
 51
139.050810698879
  0
LINE
  5
26E
330
1F
100
AcDbEntity
  8
TEXT
100
AcDbLine
 10
35.4846048533868
 20
5.289479996019603
 30
0.0
 11
35.4846048533868
 21
5.30675663042663
 31
0.0
  0
ARC
  5
26F
330
1F
100
AcDbEntity
  8
TEXT
100
AcDbCircle
 10
35.47692427515125
 20
5.287414812693458
 30
0.0
 40
0.0079533806776486
100
AcDbArc
 50
168.3169857564316
 51
15.04995211451593
  0
LINE
  5
270
330
1F
100
AcDbEntity
  8
TEXT
100
AcDbLine
 10
35.4668607982261
 20
5.309939164253441
 30
0.0
 11
35.46913566557265
 21
5.289025348330117
 31
0.0
  0
ARC
  5
271
330
1F
100
AcDbEntity
  8
TEXT
100
AcDbCircle
 10
35.46372720382681
 20
5.312696838016012
 30
0.0
 40
0.004174227885468
100
AcDbArc
 50
318.6510821797593
 51
186.6644145786489
  0
LINE
  5
272
330
1F
100
AcDbEntity
  8
TEXT
100
AcDbLine
 10
35.45776127267892
 20
5.296299711362753
 30
0.0
 11
35.45958118153239
 21
5.312212402701191
 31
0.0
  0
ARC
  5
273
330
1F
100
AcDbEntity
  8
TEXT
100
AcDbCircle
 10
35.44652419981972
 20
5.293327263323841
 30
0.0
 40
0.0116235645904303
100
AcDbArc
 50
172.0457056516397
 51
14.81661014794206
  0
LINE
  5
274
330
1F
100
AcDbEntity
  8
TEXT
100
AcDbLine
 10
35.4322826236112
 20
5.333126229726755
 30
0.0
 11
35.4350124681712
 21
5.294935768294132
 31
0.0
  0
ARC
  5
275
330
1F
100
AcDbEntity
  8
TEXT
100
AcDbCircle
 10
35.4352845602748
 20
5.360949929945466
 30
0.0
 40
0.0279851731742305
100
AcDbArc
 50
209.3802246625984
 51
263.8421008682747
  0
ARC
  5
276
330
1F
100
AcDbEntity
  8
TEXT
100
AcDbCircle
 10
35.40024077700002
 20
5.343825164054358
 30
0.0
 40
0.0111856820449322
100
AcDbArc
 50
17.66955929970854
 51
146.8111142491861
  0
ARC
  5
277
330
1F
100
AcDbEntity
  8
TEXT
100
AcDbCircle
 10
35.38647056559798
 20
5.347042993861353
 30
0.0
 40
0.0052803172427136
100
AcDbArc
 50
192.9866902548923
 51
33.38063139741035
  0
LINE
  5
278
330
1F
100
AcDbEntity
  8
TEXT
100
AcDbLine
 10
35.3813253067554
 20
5.362223715164198
 30
0.0
 11
35.3813253067554
 21
5.345856376136215
 31
0.0
  0
ARC
  5
279
330
1F
100
AcDbEntity
  8
TEXT
100
AcDbCircle
 10
35.37784375384685
 20
5.363945320717511
 30
0.0
 40
0.0038839588483565
100
AcDbArc
 50
333.6879001367226
 51
192.072245755338
  0
LINE
  5
27A
330
1F
100
AcDbEntity
  8
TEXT
100
AcDbLine
 10
35.37404569006162
 20
5.363133010543257
 30
0.0
 11
35.37313573563489
 21
5.25356278413682
 31
0.0
  0
ARC
  5
27B
330
1F
100
AcDbEntity
  8
TEXT
100
AcDbCircle
 10
37.61747794978905
 20
5.320140614237018
 30
0.0
 40
2.268794198964592
100
AcDbArc
 50
178.0464319449979
 51
181.7502526685598
  0
ARC
  5
27C
330
1F
100
AcDbEntity
  8
TEXT
100
AcDbCircle
 10
35.3255003101805
 20
5.390838904398683
 30
0.0
 40
0.0253869176238911
100
AcDbArc
 50
15.17145974978874
 51
87.54918714297627
  0
ARC
  5
27D
330
1F
100
AcDbEntity
  8
TEXT
100
AcDbCircle
 10
35.87049470814282
 20
5.529770924800686
 30
0.0
 40
0.5556388735336021
100
AcDbArc
 50
175.4121316267021
 51
191.7939289657055
  0
ARC
  5
27E
330
1F
100
AcDbEntity
  8
TEXT
100
AcDbCircle
 10
35.447652892972
 20
5.57270224751415
 30
0.0
 40
0.1310254373544306
100
AcDbArc
 50
117.322218089242
 51
179.3383492613259
  0
ARC
  5
27F
330
1F
100
AcDbEntity
  8
TEXT
100
AcDbCircle
 10
35.37620018935775
 20
5.70124750351094
 30
0.0
 40
0.016591829390819
100
AcDbArc
 50
312.9867785858861
 51
66.99118422926638
  0
ARC
  5
280
330
1F
100
AcDbEntity
  8
TEXT
100
AcDbCircle
 10
35.37445863682671
 20
5.720839989244598
 30
0.0
 40
0.0092924053106591
100
AcDbArc
 50
332.2921775479047
 51
119.5678571759902
  0
ARC
  5
281
330
1F
100
AcDbEntity
  8
TEXT
100
AcDbCircle
 10
35.37843031442078
 20
5.714816471819395
 30
0.0
 40
0.0164983776387697
100
AcDbArc
 50
121.2424246402128
 51
213.473239708375
  0
ARC
  5
282
330
1F
100
AcDbEntity
  8
TEXT
100
AcDbCircle
 10
35.36093341263426
 20
5.702357865899922
 30
0.0
 40
0.0050231509543727
100
AcDbArc
 50
201.5154657473976
 51
41.96660508022721
  0
ARC
  5
283
330
1F
100
AcDbEntity
  8
TEXT
100
AcDbCircle
 10
35.36106142072089
 20
5.718601918759968
 30
0.0
 40
0.0187127062385298
100
AcDbArc
 50
160.2627782819637
 51
255.1333022011724
  0
ARC
  5
284
330
1F
100
AcDbEntity
  8
TEXT
100
AcDbCircle
 10
35.33929719506729
 20
5.728429226933813
 30
0.0
 40
0.0054346155979328
100
AcDbArc
 50
124.2167745950174
 51
319.7988197133694
  0
ARC
  5
285
330
1F
100
AcDbEntity
  8
TEXT
100
AcDbCircle
 10
35.32766200619386
 20
5.733411504957164
 30
0.0
 40
0.0085930514094509
100
AcDbArc
 50
356.7423630506751
 51
136.5172760690068
  0
ARC
  5
286
330
1F
100
AcDbEntity
  8
TEXT
100
AcDbCircle
 10
35.32372927250403
 20
5.750607653803942
 30
0.0
 40
0.0115154459805835
100
AcDbArc
 50
116.3151684036785
 51
258.4674100382152
  0
ARC
  5
287
330
1F
100
AcDbEntity
  8
TEXT
100
AcDbCircle
 10
35.32474654603458
 20
5.755072151707981
 30
0.0
 40
0.0084730357392399
100
AcDbArc
 50
348.1206509806773
 51
136.2651890953773
  0
ARC
  5
288
330
1F
100
AcDbEntity
  8
TEXT
100
AcDbCircle
 10
35.33852962419698
 20
5.751194856380442
 30
0.0
 40
0.0058912480994818
100
AcDbArc
 50
158.7719549350954
 51
25.46716058584096
  0
ARC
  5
289
330
1F
100
AcDbEntity
  8
TEXT
100
AcDbCircle
 10
35.35967726176116
 20
5.752398306147547
 30
0.0
 40
0.0158845876007592
100
AcDbArc
 50
32.48569494743576
 51
175.1979664789355
  0
ARC
  5
28A
330
1F
100
AcDbEntity
  8
TEXT
100
AcDbCircle
 10
35.37963250343889
 20
5.758000439351937
 30
0.0
 40
0.0071808354696778
100
AcDbArc
 50
155.9249042338181
 51
10.66497725508796
  0
ARC
  5
28B
330
1F
100
AcDbEntity
  8
TEXT
100
AcDbCircle
 10
35.41003833680456
 20
5.763882416339384
 30
0.0
 40
0.0237888182066237
100
AcDbArc
 50
109.4580308571273
 51
191.0341765877007
  0
LINE
  5
28C
330
1F
100
AcDbEntity
  8
TEXT
100
AcDbLine
 10
36.49763757589833
 20
5.438601919057877
 30
0.0
 11
36.64694022336831
 21
5.438601919057877
 31
0.0
  0
ARC
  5
28D
330
1F
100
AcDbEntity
  8
TEXT
100
AcDbCircle
 10
36.57912092003183
 20
5.4417555644465
 30
0.0
 40
0.0678925871085213
100
AcDbArc
 50
357.3376237443689
 51
85.63084243886232
  0
ARC
  5
28E
330
1F
100
AcDbEntity
  8
TEXT
100
AcDbCircle
 10
36.55795642548529
 20
5.383863657851872
 30
0.0
 40
0.1283189964445134
100
AcDbArc
 50
78.15621523985548
 51
106.6122408520358
  0
LINE
  5
28F
330
1F
100
AcDbEntity
  8
TEXT
100
AcDbLine
 10
36.49763757589833
 20
5.45472098364682
 30
0.0
 11
36.59554710544867
 21
5.45472098364682
 31
0.0
  0
ARC
  5
290
330
1F
100
AcDbEntity
  8
TEXT
100
AcDbCircle
 10
36.54534138388658
 20
5.445403890628512
 30
0.0
 40
0.0486051593855441
100
AcDbArc
 50
103.9179608005984
 51
168.9486088950471
  0
ARC
  5
291
330
1F
100
AcDbEntity
  8
TEXT
100
AcDbCircle
 10
36.55652481449215
 20
5.455953524561111
 30
0.0
 40
0.0390417513515785
100
AcDbArc
 50
358.1908821763629
 51
69.74957583402936
  0
ARC
  5
292
330
1F
100
AcDbEntity
  8
TEXT
100
AcDbCircle
 10
36.55184418678798
 20
5.344410780337152
 30
0.0
 40
0.1492841112827588
100
AcDbArc
 50
82.99970676551479
 51
97.00029323448521
  0
ARC
  5
293
330
1F
100
AcDbEntity
  8
TEXT
100
AcDbCircle
 10
36.55076698573811
 20
5.418884894327838
 30
0.0
 40
0.0927566695383706
100
AcDbArc
 50
108.54166133208
 51
149.7652339536173
  0
ARC
  5
294
330
1F
100
AcDbEntity
  8
TEXT
100
AcDbCircle
 10
36.55136064468182
 20
5.416059279558756
 30
0.0
 40
0.0947166254826528
100
AcDbArc
 50
148.4692011102835
 51
195.5802361373379
  0
ARC
  5
295
330
1F
100
AcDbEntity
  8
TEXT
100
AcDbCircle
 10
36.54960854104442
 20
5.413237193114141
 30
0.0
 40
0.0922983001178987
100
AcDbArc
 50
194.1847393568155
 51
248.6586767321129
  0
ARC
  5
296
330
1F
100
AcDbEntity
  8
TEXT
100
AcDbCircle
 10
36.58752060021472
 20
5.437497413362636
 30
0.0
 40
0.0898898102851036
100
AcDbArc
 50
179.2959701761241
 51
227.5915484940841
  0
ARC
  5
297
330
1F
100
AcDbEntity
  8
TEXT
100
AcDbCircle
 10
36.56791727134919
 20
5.421496178607493
 30
0.0
 40
0.0649589799437779
100
AcDbArc
 50
230.841648863773
 51
280.5326941523482
  0
ARC
  5
298
330
1F
100
AcDbEntity
  8
TEXT
100
AcDbCircle
 10
36.57640675217665
 20
5.439097040004194
 30
0.0
 40
0.0815356189383295
100
AcDbArc
 50
272.3792098458871
 51
327.3581874363218
  0
ARC
  5
299
330
1F
100
AcDbEntity
  8
TEXT
100
AcDbCircle
 10
36.55230235043092
 20
5.456218329196672
 30
0.0
 40
0.1339578131615114
100
AcDbArc
 50
254.2847830849396
 51
294.1819270465994
  0
ARC
  5
29A
330
1F
100
AcDbEntity
  8
TEXT
100
AcDbCircle
 10
36.56317650860025
 20
5.422950576061414
 30
0.0
 40
0.0992241840391654
100
AcDbArc
 50
296.3233923707218
 51
339.8348331475782
  0
ARC
  5
29B
330
1F
100
AcDbEntity
  8
TEXT
100
AcDbCircle
 10
36.64960581691945
 20
5.390014225203239
 30
0.0
 40
0.0068315971163641
100
AcDbArc
 50
349.2952029716974
 51
131.662690546936
  0
ARC
  5
29C
330
1F
100
AcDbEntity
  8
TEXT
100
AcDbCircle
 10
35.56980440334803
 20
6.137940291482507
 30
0.0
 40
0.0137388340947483
100
AcDbArc
 50
146.5485285753441
 51
33.45147142465568
  0
ARC
  5
29D
330
1F
100
AcDbEntity
  8
TEXT
100
AcDbCircle
 10
35.54782020879482
 20
6.162319532455742
 30
0.0
 40
0.0106537702156869
100
AcDbArc
 50
2.749965920202108
 51
141.7961814814361
  0
LINE
  5
29E
330
1F
100
AcDbEntity
  8
TEXT
100
AcDbLine
 10
35.58183507885047
 20
6.192026347700338
 30
0.0
 11
35.58126744085156
 21
6.145513555869337
 31
0.0
  0
LINE
  5
29F
330
1F
100
AcDbEntity
  8
TEXT
100
AcDbLine
 10
35.5584617102887
 20
6.162830674082787
 30
0.0
 11
35.55834136584432
 21
6.145513555869337
 31
0.0
  0
LINE
  5
2A0
330
1F
100
AcDbEntity
  8
TEXT
100
AcDbLine
 10
35.53944830913837
 20
6.168908471365273
 30
0.0
 11
35.50823594377631
 21
6.152273868196481
 31
0.0
  0
LINE
  5
2A1
330
1F
100
AcDbEntity
  8
TEXT
100
AcDbLine
 10
35.37090152869429
 20
6.168908471365273
 30
0.0
 11
35.40211389405657
 21
6.152273868196481
 31
0.0
  0
ARC
  5
2A2
330
1F
100
AcDbEntity
  8
TEXT
100
AcDbCircle
 10
35.36252962903805
 20
6.162319532455742
 30
0.0
 40
0.0106537702156869
100
AcDbArc
 50
38.20381851856382
 51
177.2500340797979
  0
LINE
  5
2A3
330
1F
100
AcDbEntity
  8
TEXT
100
AcDbLine
 10
35.50823594377631
 20
6.152273868196481
 30
0.0
 11
35.50823594377631
 21
5.786312554074211
 31
0.0
  0
LINE
  5
2A4
330
1F
100
AcDbEntity
  8
TEXT
100
AcDbLine
 10
35.40211389405657
 20
6.152273868196481
 30
0.0
 11
35.40211389405657
 21
5.786312554074211
 31
0.0
  0
ARC
  5
2A5
330
1F
100
AcDbEntity
  8
TEXT
100
AcDbCircle
 10
35.34239269656578
 20
5.952220023516924
 30
0.0
 40
0.0109636333869332
100
AcDbArc
 50
177.899482485688
 51
2.100517514311817
  0
LINE
  5
2A6
330
1F
100
AcDbEntity
  8
TEXT
100
AcDbLine
 10
35.35188812754397
 20
6.162830674082787
 30
0.0
 11
35.35334896307918
 21
5.952621870665733
 31
0.0
  0
LINE
  5
2A7
330
1F
100
AcDbEntity
  8
TEXT
100
AcDbLine
 10
35.32851475898218
 20
6.192026347700338
 30
0.0
 11
35.33143643005242
 21
5.952621870665733
 31
0.0
  0
ARC
  5
2A8
330
1F
100
AcDbEntity
  8
TEXT
100
AcDbCircle
 10
35.74990559455355
 20
5.871944244921062
 30
0.0
 40
0.0089414218338328
100
AcDbArc
 50
3.288025410275718
 51
105.9275278804377
  0
ARC
  5
2A9
330
1F
100
AcDbEntity
  8
TEXT
100
AcDbCircle
 10
35.68030850121413
 20
5.924883663438017
 30
0.0
 40
0.0804635356984925
100
AcDbArc
 50
282.1628426667851
 51
326.5593609179302
  0
ARC
  5
2AA
330
1F
100
AcDbEntity
  8
TEXT
100
AcDbCircle
 10
35.67971756611455
 20
5.908834672127213
 30
0.0
 40
0.0650199494925603
100
AcDbArc
 50
213.1462108998123
 51
285.6537258536394
  0
ARC
  5
2AB
330
1F
100
AcDbEntity
  8
TEXT
100
AcDbCircle
 10
35.69808329864343
 20
5.919008838253525
 30
0.0
 40
0.0859736748664285
100
AcDbArc
 50
167.0430028911411
 51
212.1309371309446
  0
ARC
  5
2AC
330
1F
100
AcDbEntity
  8
TEXT
100
AcDbCircle
 10
35.68796329419012
 20
5.911605412762782
 30
0.0
 40
0.0783474765850985
100
AcDbArc
 50
117.3722826858102
 51
160.0902491401813
  0
ARC
  5
2AD
330
1F
100
AcDbEntity
  8
TEXT
100
AcDbCircle
 10
35.65316994760785
 20
5.930288152007067
 30
0.0
 40
0.120453163560891
100
AcDbArc
 50
310.2152586008202
 51
331.3072507285896
  0
ARC
  5
2AE
330
1F
100
AcDbEntity
  8
TEXT
100
AcDbCircle
 10
35.66466933228673
 20
5.901377360218592
 30
0.0
 40
0.0914871156605011
100
AcDbArc
 50
251.6347706403311
 51
316.4182924463649
  0
ARC
  5
2AF
330
1F
100
AcDbEntity
  8
TEXT
100
AcDbCircle
 10
35.65113170057312
 20
5.897929494183422
 30
0.0
 40
0.084769456557299
100
AcDbArc
 50
194.9511061487671
 51
259.6103135862126
  0
ARC
  5
2B0
330
1F
100
AcDbEntity
  8
TEXT
100
AcDbCircle
 10
35.66003247609779
 20
5.900783346550847
 30
0.0
 40
0.0941063155569693
100
AcDbArc
 50
135.7093780000637
 51
195.2317137751528
  0
ARC
  5
2B1
330
1F
100
AcDbEntity
  8
TEXT
100
AcDbCircle
 10
35.66080976337683
 20
5.914209943201452
 30
0.0
 40
0.0858892172918794
100
AcDbArc
 50
97.06566064011505
 51
142.4986334312248
  0
ARC
  5
2B2
330
1F
100
AcDbEntity
  8
TEXT
100
AcDbCircle
 10
35.67078662240162
 20
5.705021358875237
 30
0.0
 40
0.2768018344975518
100
AcDbArc
 50
86.31431733544657
 51
93.90381943516564
  0
ARC
  5
2B3
330
1F
100
AcDbEntity
  8
TEXT
100
AcDbCircle
 10
35.66492579649241
 20
5.956775278636616
 30
0.0
 40
0.0340379087819161
100
AcDbArc
 50
16.716844407307
 51
45.97719400399777
  0
ARC
  5
2B4
330
1F
100
AcDbEntity
  8
TEXT
100
AcDbCircle
 10
35.73067842739208
 20
5.966572190692119
 30
0.0
 40
0.0331532337392917
100
AcDbArc
 50
180.010674400693
 51
201.825185271803
  0
ARC
  5
2B5
330
1F
100
AcDbEntity
  8
TEXT
100
AcDbCircle
 10
35.72490806749779
 20
5.965979678713914
 30
0.0
 40
0.027622299605818
100
AcDbArc
 50
205.1359642898991
 51
307.6679722285764
  0
ARC
  5
2B6
330
1F
100
AcDbEntity
  8
TEXT
100
AcDbCircle
 10
35.71946493075066
 20
5.962091093363117
 30
0.0
 40
0.0286609337711164
100
AcDbArc
 50
321.1558234807585
 51
36.94217904229974
  0
ARC
  5
2B7
330
1F
100
AcDbEntity
  8
TEXT
100
AcDbCircle
 10
35.69424463437554
 20
5.934173151996766
 30
0.0
 40
0.0659861180294247
100
AcDbArc
 50
43.16761867319049
 51
81.57335966331341
  0
ARC
  5
2B8
330
1F
100
AcDbEntity
  8
TEXT
100
AcDbCircle
 10
35.67707962501972
 20
5.714437567199952
 30
0.0
 40
0.2862698537129634
100
AcDbArc
 50
84.62122141578795
 51
95.37877858421206
  0
ARC
  5
2B9
330
1F
100
AcDbEntity
  8
TEXT
100
AcDbCircle
 10
35.96680889161277
 20
5.878338961742656
 30
0.0
 40
0.0068315971163641
100
AcDbArc
 50
349.2952029716974
 51
131.662690546936
  0
ARC
  5
2BA
330
1F
100
AcDbEntity
  8
TEXT
100
AcDbCircle
 10
35.88037958329358
 20
5.911275312601052
 30
0.0
 40
0.0992241840391654
100
AcDbArc
 50
296.3233923707218
 51
339.8348331475782
  0
ARC
  5
2BB
330
1F
100
AcDbEntity
  8
TEXT
100
AcDbCircle
 10
35.86950542512417
 20
5.944543065736222
 30
0.0
 40
0.1339578131615114
100
AcDbArc
 50
254.2847830849396
 51
294.1819270465994
  0
ARC
  5
2BC
330
1F
100
AcDbEntity
  8
TEXT
100
AcDbCircle
 10
35.89360982686989
 20
5.927421776543737
 30
0.0
 40
0.0815356189383295
100
AcDbArc
 50
272.3792098458871
 51
327.3581874363218
  0
ARC
  5
2BD
330
1F
100
AcDbEntity
  8
TEXT
100
AcDbCircle
 10
35.88512034604246
 20
5.90982091514703
 30
0.0
 40
0.0649589799437779
100
AcDbArc
 50
230.841648863773
 51
280.5326941523482
  0
ARC
  5
2BE
330
1F
100
AcDbEntity
  8
TEXT
100
AcDbCircle
 10
35.90472367490797
 20
5.925822149902253
 30
0.0
 40
0.0898898102851036
100
AcDbArc
 50
179.2959701761241
 51
227.5915484940841
  0
ARC
  5
2BF
330
1F
100
AcDbEntity
  8
TEXT
100
AcDbCircle
 10
35.86681161573775
 20
5.90156192965377
 30
0.0
 40
0.0922983001178987
100
AcDbArc
 50
194.1847393568155
 51
248.6586767321129
  0
ARC
  5
2C0
330
1F
100
AcDbEntity
  8
TEXT
100
AcDbCircle
 10
35.86856371937516
 20
5.904384016098267
 30
0.0
 40
0.0947166254826528
100
AcDbArc
 50
148.4692011102835
 51
195.5802361373379
  0
ARC
  5
2C1
330
1F
100
AcDbEntity
  8
TEXT
100
AcDbCircle
 10
35.86797006043146
 20
5.907209630867437
 30
0.0
 40
0.0927566695383706
100
AcDbArc
 50
108.54166133208
 51
149.7652339536173
  0
ARC
  5
2C2
330
1F
100
AcDbEntity
  8
TEXT
100
AcDbCircle
 10
35.86904726148123
 20
5.832735516876795
 30
0.0
 40
0.1492841112827588
100
AcDbArc
 50
82.99970676551479
 51
97.00029323448521
  0
ARC
  5
2C3
330
1F
100
AcDbEntity
  8
TEXT
100
AcDbCircle
 10
35.87372788918548
 20
5.944278261100655
 30
0.0
 40
0.0390417513515785
100
AcDbArc
 50
358.1908821763629
 51
69.74957583402936
  0
ARC
  5
2C4
330
1F
100
AcDbEntity
  8
TEXT
100
AcDbCircle
 10
35.86254445857982
 20
5.933728627168082
 30
0.0
 40
0.0486051593855441
100
AcDbArc
 50
103.9179608005984
 51
168.9486088950471
  0
LINE
  5
2C5
330
1F
100
AcDbEntity
  8
TEXT
100
AcDbLine
 10
35.81484065059168
 20
5.943045720186387
 30
0.0
 11
35.91275018014191
 21
5.943045720186387
 31
0.0
  0
ARC
  5
2C6
330
1F
100
AcDbEntity
  8
TEXT
100
AcDbCircle
 10
35.87515950017853
 20
5.872188394391502
 30
0.0
 40
0.1283189964445134
100
AcDbArc
 50
78.15621523985548
 51
106.6122408520358
  0
ARC
  5
2C7
330
1F
100
AcDbEntity
  8
TEXT
100
AcDbCircle
 10
35.89632399472515
 20
5.930080300986102
 30
0.0
 40
0.0678925871085213
100
AcDbArc
 50
357.3376237443689
 51
85.63084243886232
  0
LINE
  5
2C8
330
1F
100
AcDbEntity
  8
TEXT
100
AcDbLine
 10
35.81484065059168
 20
5.92692665559758
 30
0.0
 11
35.96414329806155
 21
5.92692665559758
 31
0.0
  0
ARC
  5
2C9
330
1F
100
AcDbEntity
  8
TEXT
100
AcDbCircle
 10
36.32350402771076
 20
5.400879307178716
 30
0.0
 40
0.0582109963800251
100
AcDbArc
 50
325.2939034707313
 51
356.4132772462207
  0
ARC
  5
2CA
330
1F
100
AcDbEntity
  8
TEXT
100
AcDbCircle
 10
36.32571214388133
 20
5.392789143773721
 30
0.0
 40
0.052069564536947
100
AcDbArc
 50
261.8576121462839
 51
331.2394802847383
  0
ARC
  5
2CB
330
1F
100
AcDbEntity
  8
TEXT
100
AcDbCircle
 10
36.3080669456316
 20
5.376664190951395
 30
0.0
 40
0.0368786746018553
100
AcDbArc
 50
203.9135879631542
 51
286.1701931802543
  0
ARC
  5
2CC
330
1F
100
AcDbEntity
  8
TEXT
100
AcDbCircle
 10
36.17137349590645
 20
5.368969986990418
 30
0.0
 40
0.0157354349421023
100
AcDbArc
 50
155.9964711746264
 51
271.4218156194853
  0
LINE
  5
2CD
330
1F
100
AcDbEntity
  8
TEXT
100
AcDbLine
 10
36.19107208802887
 20
5.354374356197636
 30
0.0
 11
36.1717639363756
 21
5.353239396758159
 31
0.0
  0
LINE
  5
2CE
330
1F
100
AcDbEntity
  8
TEXT
100
AcDbLine
 10
36.18993632981877
 20
5.341322355950193
 30
0.0
 11
36.19107208802887
 21
5.354374356197636
 31
0.0
  0
ARC
  5
2CF
330
1F
100
AcDbEntity
  8
TEXT
100
AcDbCircle
 10
36.06559192527136
 20
5.420655966578094
 30
0.0
 40
0.0713583079980421
100
AcDbArc
 50
257.573093086619
 51
314.4273867462269
  0
ARC
  5
2D0
330
1F
100
AcDbEntity
  8
TEXT
100
AcDbCircle
 10
36.06604687268155
 20
5.384644866020834
 30
0.0
 40
0.0372023277418891
100
AcDbArc
 50
188.1927496775747
 51
244.8496170020148
  0
ARC
  5
2D1
330
1F
100
AcDbEntity
  8
TEXT
100
AcDbCircle
 10
35.76174496472847
 20
5.403177489971105
 30
0.0
 40
0.0179047918381641
100
AcDbArc
 50
253.9290889125597
 51
38.65267477511383
  0
ARC
  5
2D2
330
1F
100
AcDbEntity
  8
TEXT
100
AcDbCircle
 10
35.82636347124042
 20
5.37597898638511
 30
0.0
 40
0.0485685909583953
100
AcDbArc
 50
330.1916644163827
 51
19.91318758188005
  0
ARC
  5
2D3
330
1F
100
AcDbEntity
  8
TEXT
100
AcDbCircle
 10
35.83719614112644
 20
5.316571112764169
 30
0.0
 40
0.0343859051614317
100
AcDbArc
 50
67.37252950712534
 51
112.6274704928676
  0
ARC
  5
2D4
330
1F
100
AcDbEntity
  8
TEXT
100
AcDbCircle
 10
35.68931390242328
 20
5.416155591668443
 30
0.0
 40
0.0739177702369502
100
AcDbArc
 50
287.1920036507392
 51
335.8997504051536
  0
LINE
  5
2D5
330
1F
100
AcDbEntity
  8
TEXT
100
AcDbLine
 10
35.56404551473638
 20
5.287209166757286
 30
0.0
 11
35.58323389416232
 21
5.275065285051777
 31
0.0
  0
LINE
  5
2D6
330
1F
100
AcDbEntity
  8
BORDER
100
AcDbLine
 10
34.92214779572013
 20
3.269541356789506
 30
0.0
 11
34.92214779572013
 21
6.22602331797351
 31
0.0
  0
LINE
  5
2D7
330
1F
100
AcDbEntity
  8
BORDER
100
AcDbLine
 10
31.78164088597088
 20
4.207126018848988
 30
0.0
 11
34.92214779572013
 21
4.207126018848988
 31
0.0
  0
LINE
  5
2D8
330
1F
100
AcDbEntity
  8
BORDER
100
AcDbLine
 10
31.78164088597088
 20
4.655769863098879
 30
0.0
 11
34.92214779572013
 21
4.655769863098879
 31
0.0
  0
TEXT
  5
2D9
330
1F
100
AcDbEntity
  8
TEXT
100
AcDbText
 10
33.85213222718415
 20
4.247055320987239
 30
0.0
 40
0.1682414415937099
  1
NONE
 72
     1
 11
34.16057487010595
 21
4.331176041784093
 31
0.0
100
AcDbText
 73
     2
  0
TEXT
  5
2DA
330
1F
100
AcDbEntity
  8
TEXT
100
AcDbText
 10
33.46405530190797
 20
4.487528421505171
 30
0.0
 40
0.1121609610624733
  1
SCALE
100
AcDbText
  0
TEXT
  5
2DB
330
1F
100
AcDbEntity
  8
TEXT
100
AcDbText
 10
31.84669424338713
 20
4.487528421505171
 30
0.0
 40
0.1121609610624733
  1
DRAWN
100
AcDbText
  0
TEXT
  5
2DC
330
1F
100
AcDbEntity
  8
TEXT
100
AcDbText
 10
32.31889188946013
 20
4.247055320987239
 30
0.0
 40
0.1682414415937099
  1
JMH
 72
     1
 11
32.54321381158508
 21
4.331176041784093
 31
0.0
100
AcDbText
 73
     2
  0
TEXT
  5
2DD
330
1F
100
AcDbEntity
  8
TEXT
100
AcDbText
 10
31.89380184703335
 20
4.038884577255274
 30
0.0
 40
0.1121609610624733
  1
DATE
100
AcDbText
  0
TEXT
  5
2DE
330
1F
100
AcDbEntity
  8
TEXT
100
AcDbText
 10
32.58546110691861
 20
3.874257436813503
 30
0.0
 40
0.2243219221249466
  1
12-31-09
 72
     1
 11
33.35189434084551
 21
3.986418397875977
 31
0.0
100
AcDbText
 73
     2
  0
LINE
  5
2DF
330
1F
100
AcDbEntity
  8
BORDER
100
AcDbLine
 10
31.78164088597088
 20
3.758482174599095
 30
0.0
 11
34.92214779572013
 21
3.758482174599095
 31
0.0
  0
TEXT
  5
2E0
330
1F
100
AcDbEntity
  8
TEXT
100
AcDbText
 10
32.12964607123629
 20
3.403644694587513
 30
0.0
 40
0.2243219221249466
  1
SHEET 1 OF 1
 72
     1
 11
33.3634166429235
 21
3.515805655649987
 31
0.0
100
AcDbText
 73
     2
  0
LINE
  5
2E1
330
1F
100
AcDbEntity
  8
BORDER
100
AcDbLine
 10
39.49957314469608
 20
4.207126018848988
 30
0.0
 11
39.49957314469608
 21
3.269541356789506
 31
0.0
  0
LINE
  5
2E2
330
1F
100
AcDbEntity
  8
BORDER
100
AcDbLine
 10
34.92214779572013
 20
4.207126018848988
 30
0.0
 11
40.72957662902765
 21
4.207126018848988
 31
0.0
  0
LINE
  5
2E3
330
1F
100
AcDbEntity
  8
BORDER
100
AcDbLine
 10
34.92214779572013
 20
5.104413707348768
 30
0.0
 11
40.72957662902765
 21
5.104413707348768
 31
0.0
  0
LINE
  5
2E4
330
1F
100
AcDbEntity
  8
BORDER
100
AcDbLine
 10
34.92214779572013
 20
6.22602331797351
 30
0.0
 11
40.72957662902765
 21
6.22602331797351
 31
0.0
  0
TEXT
  5
2E5
330
1F
100
AcDbEntity
  8
TEXT
100
AcDbText
 10
37.95671666694674
 20
5.143670043720642
 30
0.0
 40
0.1121609610624733
  1
FAX  724-837-3386
 72
     1
 11
38.89139134246735
 21
5.199750524251879
 31
0.0
100
AcDbText
 73
     2
  0
TEXT
  5
2E6
330
1F
100
AcDbEntity
  8
TEXT
100
AcDbText
 10
37.41460535514479
 20
6.029741636114181
 30
0.0
 40
0.1121609610624733
  1
INDUSTRIAL COOLING EQUIPMENT
 72
     1
 11
38.89139134246735
 21
6.085822116645418
 31
0.0
100
AcDbText
 73
     2
  0
TEXT
  5
2E7
330
1F
100
AcDbEntity
  8
TEXT
100
AcDbText
 10
37.97541016045715
 20
5.816635810095415
 30
0.0
 40
0.1121609610624733
  1
141 WILSON AVENUE
 72
     1
 11
38.89139134246735
 21
5.872716290626652
 31
0.0
100
AcDbText
 73
     2
  0
TEXT
  5
2E8
330
1F
100
AcDbEntity
  8
TEXT
100
AcDbText
 10
37.80716871886344
 20
5.592313887970536
 30
0.0
 40
0.1121609610624733
  1
GREENSBURG, PA  15601
 72
     1
 11
38.89139134246735
 21
5.648394368501772
 31
0.0
100
AcDbText
 73
     2
  0
TEXT
  5
2E9
330
1F
100
AcDbEntity
  8
TEXT
100
AcDbText
 10
37.19963017977505
 20
5.367991965845524
 30
0.0
 40
0.1121609610624733
  1
724-837-2204  *  1-888-867-8234
 72
     1
 11
38.89139134246735
 21
5.424072446376761
 31
0.0
100
AcDbText
 73
     2
  0
TEXT
  5
2EA
330
1F
100
AcDbEntity
  8
TEXT
100
AcDbText
 10
35.80671334510643
 20
4.341719172123892
 30
0.0
 40
0.4486438442498934
  1
IQ900HE-CF
 72
     1
 11
37.82561064423095
 21
4.566041094248839
 31
0.0
100
AcDbText
 73
     2
  0
TEXT
  5
2EB
330
1F
100
AcDbEntity
  8
TEXT
100
AcDbText
 10
35.64060701533345
 20
3.42989104489749
 30
0.0
 40
0.4486438442498934
  1
IQ291227
 72
     1
 11
37.21086047020808
 21
3.654212967022437
 31
0.0
100
AcDbText
 73
     2
  0
TEXT
  5
2EC
330
1F
100
AcDbEntity
  8
TEXT
100
AcDbText
 10
40.03980091282016
 20
3.42989104489749
 30
0.0
 40
0.4486438442498934
  1
1
 72
     1
 11
40.11457488686182
 21
3.654212967022437
 31
0.0
100
AcDbText
 73
     2
  0
LINE
  5
2ED
330
1F
100
AcDbEntity
  8
BORDER
100
AcDbLine
 10
27.26819386661341
 20
4.655769863098879
 30
0.0
 11
27.26819386661341
 21
3.269541356789506
 31
0.0
  0
TEXT
  5
2EE
330
1F
100
AcDbEntity
  8
TEXT
100
AcDbText
 10
10.42417310882375
 20
3.359270125639479
 30
0.0
 40
0.1794575376999573
  1
REVISIONS
 72
     1
 11
11.17191284924024
 21
3.448998894489458
 31
0.0
100
AcDbText
 73
     2
  0
LINE
  5
2EF
330
1F
100
AcDbEntity
  8
BORDER
100
AcDbLine
 10
18.29539240949361
 20
3.269541356789506
 30
0.0
 11
6.633880364652422
 21
3.269541356789506
 31
0.0
  0
LINE
  5
2F0
330
1F
100
AcDbEntity
  8
BORDER
100
AcDbLine
 10
18.29539240949361
 20
4.705201658389288
 30
0.0
 11
18.29539240949361
 21
3.269541356789506
 31
0.0
  0
LINE
  5
2F1
330
1F
100
AcDbEntity
  8
BORDER
100
AcDbLine
 10
6.633880364652422
 20
3.628456432189423
 30
0.0
 11
18.29539240949361
 21
3.628456432189423
 31
0.0
  0
LINE
  5
2F2
330
1F
100
AcDbEntity
  8
BORDER
100
AcDbLine
 10
14.92481860639052
 20
3.628456432189423
 30
0.0
 11
14.92481860639052
 21
3.987371507589339
 31
0.0
  0
TEXT
  5
2F3
330
1F
100
AcDbEntity
  8
TEXT
100
AcDbText
 10
15.38542628648709
 20
3.7181852010394
 30
0.0
 40
0.1794575376999573
  1
DATE
 72
     1
 11
15.71443177227035
 21
3.807913969889379
 31
0.0
100
AcDbText
 73
     2
  0
LINE
  5
2F4
330
1F
100
AcDbEntity
  8
BORDER
100
AcDbLine
 10
16.50404493815007
 20
3.628456432189423
 30
0.0
 11
16.50404493815007
 21
3.987371507589339
 31
0.0
  0
TEXT
  5
2F5
330
1F
100
AcDbEntity
  8
TEXT
100
AcDbText
 10
16.80152688148864
 20
3.7181852010394
 30
0.0
 40
0.1794575376999573
  1
CHECKED
 72
     1
 11
17.39971867382183
 21
3.807913969889379
 31
0.0
100
AcDbText
 73
     2
  0
TEXT
  5
2F6
330
1F
100
AcDbEntity
  8
TEXT
100
AcDbText
 10
10.27462516074045
 20
3.7181852010394
 30
0.0
 40
0.1794575376999573
  1
DESCRIPTION
 72
     1
 11
11.17191284924024
 21
3.807913969889379
 31
0.0
100
AcDbText
 73
     2
  0
LINE
  5
2F7
330
1F
100
AcDbEntity
  8
BORDER
100
AcDbLine
 10
7.419007092089819
 20
3.628456432189423
 30
0.0
 11
7.419007092089819
 21
3.987371507589339
 31
0.0
  0
TEXT
  5
2F8
330
1F
100
AcDbEntity
  8
TEXT
100
AcDbText
 10
6.757257421821145
 20
3.7181852010394
 30
0.0
 40
0.1794575376999573
  1
REV
 72
     1
 11
7.026443728371081
 21
3.807913969889379
 31
0.0
100
AcDbText
 73
     2
  0
LINE
  5
2F9
330
1F
100
AcDbEntity
  8
BORDER
100
AcDbLine
 10
18.29539240949361
 20
3.987371507589339
 30
0.0
 11
6.633880364652422
 21
3.987371507589339
 31
0.0
  0
LINE
  5
2FA
330
1F
100
AcDbEntity
  8
BORDER
100
AcDbLine
 10
18.29539240949361
 20
3.628456432189423
 30
0.0
 11
6.633880364652422
 21
3.628456432189423
 31
0.0
  0
LINE
  5
2FB
330
1F
100
AcDbEntity
  8
BORDER
100
AcDbLine
 10
14.92481860639052
 20
3.987371507589339
 30
0.0
 11
14.92481860639052
 21
4.705201658389288
 31
0.0
  0
TEXT
  5
2FC
330
1F
100
AcDbEntity
  8
TEXT
100
AcDbText
 10
15.10128518512883
 20
4.077100276439314
 30
0.0
 40
0.1794575376999573
  1
12-31-09
 72
     1
 11
15.71443177227035
 21
4.166829045289293
 31
0.0
100
AcDbText
 73
     2
  0
LINE
  5
2FD
330
1F
100
AcDbEntity
  8
BORDER
100
AcDbLine
 10
16.50404493815007
 20
3.987371507589339
 30
0.0
 11
16.50404493815006
 21
4.705201658389288
 31
0.0
  0
TEXT
  5
2FE
330
1F
100
AcDbEntity
  8
TEXT
100
AcDbText
 10
17.16044195688855
 20
4.077100276439314
 30
0.0
 40
0.1794575376999573
  1
JMH
 72
     1
 11
17.39971867382183
 21
4.166829045289293
 31
0.0
100
AcDbText
 73
     2
  0
TEXT
  5
2FF
330
1F
100
AcDbEntity
  8
TEXT
100
AcDbText
 10
9.9456196749572
 20
4.077100276439314
 30
0.0
 40
0.1794575376999573
  1
INITIAL RELEASE
 72
     1
 11
11.17191284924024
 21
4.166829045289293
 31
0.0
100
AcDbText
 73
     2
  0
LINE
  5
300
330
1F
100
AcDbEntity
  8
BORDER
100
AcDbLine
 10
7.419007092089819
 20
3.628456432189423
 30
0.0
 11
7.419007092089819
 21
4.705201658389288
 31
0.0
  0
TEXT
  5
301
330
1F
100
AcDbEntity
  8
TEXT
100
AcDbText
 10
6.981579343946092
 20
4.077100276439314
 30
0.0
 40
0.1794575376999573
  1
0
 72
     1
 11
7.026443728371081
 21
4.166829045289293
 31
0.0
100
AcDbText
 73
     2
  0
LINE
  5
302
330
1F
100
AcDbEntity
  8
BORDER
100
AcDbLine
 10
18.29539240949361
 20
4.346286582989312
 30
0.0
 11
6.633880364652422
 21
4.346286582989312
 31
0.0
  0
LINE
  5
303
330
1F
100
AcDbEntity
  8
BORDER
100
AcDbLine
 10
6.633880364652422
 20
3.269541356789506
 30
0.0
 11
6.633880364652422
 21
5.42303180918912
 31
0.0
  0
TEXT
  5
431
330
1F
100
AcDbEntity
  8
TXT
100
AcDbText
 10
19.90849409933539
 20
45.23629463059225
 30
0.0
 40
0.5600000000000001
  1
CUT OUT DRAWING
 72
     1
 11
24.01516076600206
 21
45.23629463059225
 31
0.0
100
AcDbText
  0
TEXT
  5
432
330
1F
100
AcDbEntity
  8
TXT
100
AcDbText
 10
21.49516076600206
 20
46.32580612212217
 30
0.0
 40
0.5600000000000001
  1
IQ900HE-CF
 72
     1
 11
24.01516076600206
 21
46.32580612212217
 31
0.0
100
AcDbText
  0
DIMENSION
  5
6B7
330
1F
100
AcDbEntity
  8
0
100
AcDbDimension
  2
*D67
 10
18.23149630478482
 20
12.40734522516149
 30
0.0
 11
16.20816297145138
 21
12.40734522516155
 31
0.0
 70
    38
 71
     5
 42
0.0000000000000568
  3
Standard
100
AcDbOrdinateDimension
 13
18.23149630478482
 23
12.40734522516155
 33
0.0
 14
17.23149630478471
 24
12.40734522516155
 34
0.0
1001
ACAD
1000
DSTYLE
1002
{
1070
    42
1040
0.25
1070
   140
1040
0.5600000000000001
1070
   271
1070
     3
1002
}
  0
DIMENSION
  5
6B8
330
1F
100
AcDbEntity
  8
0
100
AcDbDimension
  2
*D68
 10
18.23149630478471
 20
12.40734522516155
 30
0.0
 11
18.23149630478482
 21
10.3840118918282
 31
0.0
 70
   102
 71
     5
 42
0.0
  3
Standard
100
AcDbOrdinateDimension
 13
18.23149630478471
 23
12.40734522516159
 33
0.0
 14
18.23149630478482
 24
11.40734522516153
 34
0.0
1001
ACAD
1000
DSTYLE
1002
{
1070
    42
1040
0.25
1070
   140
1040
0.5600000000000001
1070
   271
1070
     3
1002
}
  0
DIMENSION
  5
6B9
330
1F
100
AcDbEntity
  8
0
100
AcDbDimension
  2
*D69
 10
18.23149630478471
 20
12.40734522516155
 30
0.0
 11
19.82149630478483
 21
9.404011891828202
 31
0.0
 70
   102
  1
(2) <>
 71
     5
 42
1.590000000000116
  3
Standard
100
AcDbOrdinateDimension
 13
19.82149630478483
 23
13.93939817304189
 33
0.0
 14
19.82149630478483
 24
11.40734522516153
 34
0.0
1001
ACAD
1000
DSTYLE
1002
{
1070
    42
1040
0.25
1070
   140
1040
0.5600000000000001
1070
   271
1070
     3
1002
}
  0
DIMENSION
  5
6BA
330
1F
100
AcDbEntity
  8
0
100
AcDbDimension
  2
*D70
 10
18.23149630478471
 20
12.40734522516155
 30
0.0
 11
27.32149630478483
 21
9.357345225161539
 31
0.0
 70
   102
  1
(2) <>
 71
     5
 42
9.090000000000117
  3
Standard
100
AcDbOrdinateDimension
 13
27.32149630478483
 23
13.93939817304189
 33
0.0
 14
27.32149630478483
 24
11.40734522516153
 34
0.0
1001
ACAD
1000
DSTYLE
1002
{
1070
    42
1040
0.25
1070
   140
1040
0.5600000000000001
1070
   271
1070
     3
1002
}
  0
DIMENSION
  5
6BB
330
1F
100
AcDbEntity
  8
0
100
AcDbDimension
  2
*D71
 10
18.23149630478471
 20
12.40734522516155
 30
0.0
 11
31.96149630478484
 21
13.93939817304189
 31
0.0
 70
    38
  1
<> (2)
 71
     5
 42
1.532052947880345
  3
Standard
100
AcDbOrdinateDimension
 13
27.32149630478483
 23
13.93939817304189
 33
0.0
 14
29.91149630478484
 24
13.93939817304189
 34
0.0
1001
ACAD
1000
DSTYLE
1002
{
1070
    42
1040
0.25
1070
   140
1040
0.5600000000000001
1070
   271
1070
     3
1002
}
  0
DIMENSION
  5
6BC
330
1F
100
AcDbEntity
  8
0
100
AcDbDimension
  2
*D72
 10
18.23149630478471
 20
12.40734522516155
 30
0.0
 11
16.11482963811816
 21
21.4975674977903
 31
0.0
 70
    38
 71
     5
 42
9.215222272628819
  3
Standard
100
AcDbOrdinateDimension
 13
19.00649630478452
 23
21.62256749779037
 33
0.0
 14
17.23149630478483
 24
21.4975674977903
 34
0.0
1001
ACAD
1000
DSTYLE
1002
{
1070
    42
1040
0.25
1070
   140
1040
0.5600000000000001
1070
   271
1070
     3
1002
}
  0
DIMENSION
  5
6BD
330
1F
100
AcDbEntity
  8
0
100
AcDbDimension
  2
*D73
 10
18.23149630478471
 20
12.40734522516155
 30
0.0
 11
16.02149630478482
 21
24.50346749779035
 31
0.0
 70
    38
 71
     5
 42
11.9711222726288
  3
Standard
100
AcDbOrdinateDimension
 13
19.00649630478452
 23
24.37846749779036
 33
0.0
 14
17.23149630478483
 24
24.50346749779035
 34
0.0
1001
ACAD
1000
DSTYLE
1002
{
1070
    42
1040
0.25
1070
   140
1040
0.5600000000000001
1070
   271
1070
     3
1002
}
  0
DIMENSION
  5
6BE
330
1F
100
AcDbEntity
  8
0
100
AcDbDimension
  2
*D74
 10
18.23149630478471
 20
12.40734522516155
 30
0.0
 11
20.00507122807761
 21
27.94816679945988
 31
0.0
 70
   102
 71
     5
 42
0.7749999999998032
  3
Standard
100
AcDbOrdinateDimension
 13
19.00649630478452
 23
24.37846749779036
 33
0.0
 14
20.00507122807761
 24
26.78483346612654
 34
0.0
1001
ACAD
1000
DSTYLE
1002
{
1070
    42
1040
0.25
1070
   140
1040
0.5600000000000001
1070
   271
1070
     3
1002
}
  0
DIMENSION
  5
6BF
330
1F
100
AcDbEntity
  8
0
100
AcDbDimension
  2
*D75
 10
18.23149630478471
 20
12.40734522516155
 30
0.0
 11
27.1379213814917
 21
27.94816679945988
 31
0.0
 70
   102
 71
     5
 42
9.904999999999796
  3
Standard
100
AcDbOrdinateDimension
 13
28.13649630478451
 23
24.37846749779036
 33
0.0
 14
27.13792138149171
 24
26.78483346612654
 34
0.0
1001
ACAD
1000
DSTYLE
1002
{
1070
    42
1040
0.25
1070
   140
1040
0.5600000000000001
1070
   271
1070
     3
1002
}
  0
DIMENSION
  5
6C0
330
1F
100
AcDbEntity
  8
0
100
AcDbDimension
  2
*D76
 10
19.97900262863332
 20
20.57724805890504
 30
0.0
 11
14.57482963811752
 21
18.80277633949578
 31
0.0
 70
   163
  1
(6)<>
 71
     5
 42
0.3749999999999787
  3
Standard
100
AcDbDiametricDimension
 15
19.66398998093612
 25
20.37379774115945
 35
0.0
 40
0.0
1001
ACAD
1000
DSTYLE
1002
{
1070
    41
1040
0.5600000000000001
1070
    42
1040
0.25
1070
   140
1040
0.5600000000000001
1070
   271
1070
     3
1002
}
  0
LINE
  5
6C1
102
{ACAD_REACTORS
330
6E1
102
}
330
1F
100
AcDbEntity
  8
0
100
AcDbLine
 10
22.9464963047847
 20
33.98036999767902
 30
0.0
 11
22.94649630478462
 21
35.25393210971746
 31
0.0
  0
LINE
  5
6C2
330
1F
100
AcDbEntity
  8
0
100
AcDbLine
 10
22.94649630478462
 20
33.98036999767902
 30
0.0
 11
24.1964963047847
 21
33.98036999767898
 31
0.0
  0
LINE
  5
6C3
330
1F
100
AcDbEntity
  8
0
100
AcDbLine
 10
24.1964963047847
 20
33.98036999767898
 30
0.0
 11
24.1964963047847
 21
35.25393210971746
 31
0.0
  0
LINE
  5
6C4
330
1F
100
AcDbEntity
  8
2 Base
100
AcDbLine
 10
19.00649630478452
 20
24.37846749779036
 30
0.0
 11
19.00649630478452
 21
21.62256749779037
 31
0.0
  0
LINE
  5
6C5
330
1F
100
AcDbEntity
  8
2 Base
100
AcDbLine
 10
19.00649630478452
 20
21.62256749779037
 30
0.0
 11
28.13649630478451
 21
21.62256749779037
 31
0.0
  0
LINE
  5
6C6
330
1F
100
AcDbEntity
  8
2 Base
100
AcDbLine
 10
28.13649630478451
 20
21.62256749779037
 30
0.0
 11
28.13649630478451
 21
24.37846749779036
 31
0.0
  0
LINE
  5
6C7
330
1F
100
AcDbEntity
  8
2 Base
100
AcDbLine
 10
28.13649630478451
 20
24.37846749779036
 30
0.0
 11
19.00649630478452
 21
24.37846749779041
 31
0.0
  0
LINE
  5
6C8
330
1F
100
AcDbEntity
  8
0
100
AcDbLine
 10
28.91149630478471
 20
41.15734522516172
 30
0.0
 11
18.23149630478482
 21
41.15734522516172
 31
0.0
  0
LINE
  5
6C9
330
1F
100
AcDbEntity
  8
1 Cover
100
AcDbLine
 10
28.91149630478471
 20
12.40734522516166
 30
0.0
 11
18.23149630478482
 21
12.40734522516155
 31
0.0
  0
LINE
  5
6CA
102
{ACAD_REACTORS
330
6F1
102
}
330
1F
100
AcDbEntity
  8
1 Cover
100
AcDbLine
 10
28.91149630478471
 20
12.40734522516166
 30
0.0
 11
28.91149630478471
 21
41.15734522516172
 31
0.0
  0
LINE
  5
6CB
330
1F
100
AcDbEntity
  8
1 Cover
100
AcDbLine
 10
18.23149630478471
 20
12.40734522516155
 30
0.0
 11
18.23149630478482
 21
41.15734522516172
 31
0.0
  0
LINE
  5
6CC
330
1F
100
AcDbEntity
  8
0
100
AcDbLine
 10
18.93699630478461
 20
39.7079321097174
 30
0.0
 11
28.20599630478462
 21
39.7079321097174
 31
0.0
  0
LINE
  5
6CD
330
1F
100
AcDbEntity
  8
0
100
AcDbLine
 10
18.93699630478461
 20
35.25393210971746
 30
0.0
 11
22.94649630478462
 21
35.25393210971746
 31
0.0
  0
LINE
  5
6CE
102
{ACAD_REACTORS
330
6FA
102
}
330
1F
100
AcDbEntity
  8
0
100
AcDbLine
 10
28.20599630478462
 20
39.7079321097174
 30
0.0
 11
28.20599630478462
 21
35.25393210971746
 31
0.0
  0
LINE
  5
6CF
102
{ACAD_REACTORS
330
6DB
330
6DE
102
}
330
1F
100
AcDbEntity
  8
0
100
AcDbLine
 10
18.93699630478461
 20
39.7079321097174
 30
0.0
 11
18.93699630478461
 21
35.25393210971746
 31
0.0
  0
LINE
  5
6D0
330
1F
100
AcDbEntity
  8
0
100
AcDbLine
 10
24.1964963047847
 20
35.25393210971746
 30
0.0
 11
28.20599630478462
 21
35.25393210971746
 31
0.0
  0
CIRCLE
  5
6D1
102
{ACAD_REACTORS
330
6EA
102
}
330
1F
100
AcDbEntity
  8
0
100
AcDbCircle
 10
28.44899630478471
 20
40.35323953625168
 30
0.0
 40
0.1875
  0
CIRCLE
  5
6D2
102
{ACAD_REACTORS
330
6E7
102
}
330
1F
100
AcDbEntity
  8
0
100
AcDbCircle
 10
28.07149630478483
 20
34.3564942217561
 30
0.0
 40
0.1875
  0
CIRCLE
  5
6D3
102
{ACAD_REACTORS
330
6ED
102
}
330
1F
100
AcDbEntity
  8
0
100
AcDbCircle
 10
19.07149630478462
 20
34.3564942217561
 30
0.0
 40
0.1875
  0
CIRCLE
  5
6D4
330
1F
100
AcDbEntity
  8
0
100
AcDbCircle
 10
19.8214963047847
 20
20.47552290003225
 30
0.0
 40
0.1875
  0
CIRCLE
  5
6D5
102
{ACAD_REACTORS
330
6E4
102
}
330
1F
100
AcDbEntity
  8
0
100
AcDbCircle
 10
27.3214963047847
 20
20.47552290003225
 30
0.0
 40
0.1875
  0
CIRCLE
  5
6D6
330
1F
100
AcDbEntity
  8
0
100
AcDbCircle
 10
19.8214963047847
 20
13.93939817304201
 30
0.0
 40
0.1875
  0
CIRCLE
  5
6D7
330
1F
100
AcDbEntity
  8
0
100
AcDbCircle
 10
27.3214963047847
 20
13.93939817304201
 30
0.0
 40
0.1875
  0
CIRCLE
  5
6D8
102
{ACAD_REACTORS
330
6F6
102
}
330
1F
100
AcDbEntity
  8
0
100
AcDbCircle
 10
18.69399630478462
 20
40.35323953625168
 30
0.0
 40
0.1875
  0
DIMENSION
  5
6D9
102
{ACAD_XDICTIONARY
360
6DA
102
}
102
{ACAD_REACTORS
330
6DB
102
}
330
1F
100
AcDbEntity
  8
0
100
AcDbDimension
  2
*D81
 10
18.23149630478471
 20
12.40734522516159
 30
0.0
 11
15.74149630478482
 21
35.25393210971746
 31
0.0
 70
    38
 71
     5
 42
22.84658688455586
  3
Standard
100
AcDbOrdinateDimension
 13
18.93699630478461
 23
35.25393210971746
 33
0.0
 14
17.23149630478483
 24
35.25393210971746
 34
0.0
1001
ACAD
1000
DSTYLE
1002
{
1070
    42
1040
0.25
1070
   140
1040
0.5600000000000001
1070
   271
1070
     3
1002
}
  0
DIMENSION
  5
6DC
102
{ACAD_XDICTIONARY
360
6DD
102
}
102
{ACAD_REACTORS
330
6DE
102
}
330
1F
100
AcDbEntity
  8
0
100
AcDbDimension
  2
*D82
 10
18.23149630478471
 20
12.40734522516159
 30
0.0
 11
15.88149630478483
 21
39.7079321097174
 31
0.0
 70
    38
 71
     5
 42
27.30058688455581
  3
Standard
100
AcDbOrdinateDimension
 13
18.93699630478461
 23
39.7079321097174
 33
0.0
 14
17.23149630478483
 24
39.7079321097174
 34
0.0
1001
ACAD
1000
DSTYLE
1002
{
1070
    42
1040
0.25
1070
   140
1040
0.5600000000000001
1070
   271
1070
     3
1002
}
  0
DIMENSION
  5
6DF
102
{ACAD_XDICTIONARY
360
6E0
102
}
102
{ACAD_REACTORS
330
6E1
102
}
330
1F
100
AcDbEntity
  8
0
100
AcDbDimension
  2
*D83
 10
18.23149630478471
 20
12.40734522516159
 30
0.0
 11
15.83482963811816
 21
33.98036999767902
 31
0.0
 70
    38
 71
     5
 42
21.57302477251743
  3
Standard
100
AcDbOrdinateDimension
 13
22.9464963047847
 23
33.98036999767902
 33
0.0
 14
17.23149630478483
 24
33.98036999767902
 34
0.0
1001
ACAD
1000
DSTYLE
1002
{
1070
    42
1040
0.25
1070
   140
1040
0.5600000000000001
1070
   271
1070
     3
1002
}
  0
DIMENSION
  5
6E2
102
{ACAD_XDICTIONARY
360
6E3
102
}
102
{ACAD_REACTORS
330
6E4
102
}
330
1F
100
AcDbEntity
  8
0
100
AcDbDimension
  2
*D84
 10
18.23149630478471
 20
12.40734522516159
 30
0.0
 11
31.07482963811817
 21
20.47552290003225
 31
0.0
 70
    38
 71
     5
 42
8.068177674870652
  3
Standard
100
AcDbOrdinateDimension
 13
27.3214963047847
 23
20.47552290003225
 33
0.0
 14
29.91149630478484
 24
20.47552290003225
 34
0.0
1001
ACAD
1000
DSTYLE
1002
{
1070
    42
1040
0.25
1070
   140
1040
0.5600000000000001
1070
   271
1070
     3
1002
}
  0
DIMENSION
  5
6E5
102
{ACAD_XDICTIONARY
360
6E6
102
}
102
{ACAD_REACTORS
330
6E7
102
}
330
1F
100
AcDbEntity
  8
0
100
AcDbDimension
  2
*D85
 10
18.23149630478471
 20
12.40734522516159
 30
0.0
 11
31.3081629714515
 21
34.3564942217561
 31
0.0
 70
    38
 71
     5
 42
21.94914899659451
  3
Standard
100
AcDbOrdinateDimension
 13
28.07149630478483
 23
34.3564942217561
 33
0.0
 14
29.91149630478484
 24
34.3564942217561
 34
0.0
1001
ACAD
1000
DSTYLE
1002
{
1070
    42
1040
0.25
1070
   140
1040
0.5600000000000001
1070
   271
1070
     3
1002
}
  0
DIMENSION
  5
6E8
102
{ACAD_XDICTIONARY
360
6E9
102
}
102
{ACAD_REACTORS
330
6EA
102
}
330
1F
100
AcDbEntity
  8
0
100
AcDbDimension
  2
*D86
 10
18.23149630478471
 20
12.40734522516159
 30
0.0
 11
31.40149630478485
 21
40.35323953625168
 31
0.0
 70
    38
 71
     5
 42
27.94589431109009
  3
Standard
100
AcDbOrdinateDimension
 13
28.44899630478471
 23
40.35323953625168
 33
0.0
 14
29.91149630478484
 24
40.35323953625168
 34
0.0
1001
ACAD
1000
DSTYLE
1002
{
1070
    42
1040
0.25
1070
   140
1040
0.5600000000000001
1070
   271
1070
     3
1002
}
  0
DIMENSION
  5
6EB
102
{ACAD_XDICTIONARY
360
6EC
102
}
102
{ACAD_REACTORS
330
6ED
102
}
330
1F
100
AcDbEntity
  8
0
100
AcDbDimension
  2
*D87
 10
18.23149630478471
 20
12.40734522516159
 30
0.0
 11
20.92186798969871
 21
31.19736842833791
 31
0.0
 70
   102
 71
     5
 42
0.8399999999999002
  3
Standard
100
AcDbOrdinateDimension
 13
19.07149630478462
 23
34.3564942217561
 33
0.0
 14
20.92186798969871
 24
32.31403509500457
 34
0.0
1001
ACAD
1000
DSTYLE
1002
{
1070
    42
1040
0.25
1070
   140
1040
0.5600000000000001
1070
   271
1070
     3
1002
}
  0
DIMENSION
  5
6EE
330
1F
100
AcDbEntity
  8
0
100
AcDbDimension
  2
*D77
 10
18.23149630478471
 20
12.40734522516159
 30
0.0
 11
26.09406978035281
 21
31.15070176167126
 31
0.0
 70
   102
 71
     5
 42
9.840000000000113
  3
Standard
100
AcDbOrdinateDimension
 13
28.07149630478483
 23
34.3564942217561
 33
0.0
 14
26.09406978035281
 24
32.31403509500457
 34
0.0
1001
ACAD
1000
DSTYLE
1002
{
1070
    42
1040
0.25
1070
   140
1040
0.5600000000000001
1070
   271
1070
     3
1002
}
  0
DIMENSION
  5
6EF
102
{ACAD_XDICTIONARY
360
6F0
102
}
102
{ACAD_REACTORS
330
6F1
102
}
330
1F
100
AcDbEntity
  8
0
100
AcDbDimension
  2
*D88
 10
18.23149630478471
 20
12.40734522516159
 30
0.0
 11
28.9114963047847
 21
43.46067855849506
 31
0.0
 70
   102
 71
     5
 42
10.67999999999998
  3
Standard
100
AcDbOrdinateDimension
 13
28.91149630478471
 23
41.15734522516172
 33
0.0
 14
28.91149630478471
 24
42.15734522516171
 34
0.0
1001
ACAD
1000
DSTYLE
1002
{
1070
    42
1040
0.25
1070
   140
1040
0.5600000000000001
1070
   271
1070
     3
1002
}
  0
DIMENSION
  5
6F2
330
1F
100
AcDbEntity
  8
0
100
AcDbDimension
  2
*D78
 10
18.23149630478471
 20
12.40734522516159
 30
0.0
 11
31.35482963811818
 21
41.15734522516172
 31
0.0
 70
    38
 71
     5
 42
28.75000000000013
  3
Standard
100
AcDbOrdinateDimension
 13
28.91149630478471
 23
41.15734522516172
 33
0.0
 14
29.91149630478484
 24
41.15734522516172
 34
0.0
1001
ACAD
1000
DSTYLE
1002
{
1070
    42
1040
0.25
1070
   140
1040
0.5600000000000001
1070
   271
1070
     3
1002
}
  0
DIMENSION
  5
6F3
330
1F
100
AcDbEntity
  8
0
100
AcDbDimension
  2
*D79
 10
18.23149630478471
 20
12.40734522516159
 30
0.0
 11
28.2037833294067
 21
43.41401189182839
 31
0.0
 70
   102
 71
     5
 42
10.21749999999999
  3
Standard
100
AcDbOrdinateDimension
 13
28.44899630478471
 23
40.35323953625168
 33
0.0
 14
28.2037833294067
 24
42.15734522516171
 34
0.0
1001
ACAD
1000
DSTYLE
1002
{
1070
    42
1040
0.25
1070
   140
1040
0.5600000000000001
1070
   271
1070
     3
1002
}
  0
DIMENSION
  5
6F4
102
{ACAD_XDICTIONARY
360
6F5
102
}
102
{ACAD_REACTORS
330
6F6
102
}
330
1F
100
AcDbEntity
  8
0
100
AcDbDimension
  2
*D89
 10
18.23149630478471
 20
12.40734522516159
 30
0.0
 11
18.69399630478461
 21
43.32067855849506
 31
0.0
 70
   102
 71
     5
 42
0.4624999999998991
  3
Standard
100
AcDbOrdinateDimension
 13
18.69399630478462
 23
40.35323953625168
 33
0.0
 14
18.69399630478462
 24
42.15734522516171
 34
0.0
1001
ACAD
1000
DSTYLE
1002
{
1070
    42
1040
0.25
1070
   140
1040
0.5600000000000001
1070
   271
1070
     3
1002
}
  0
DIMENSION
  5
6F7
330
1F
100
AcDbEntity
  8
0
100
AcDbDimension
  2
*D80
 10
18.23149630478471
 20
12.40734522516159
 30
0.0
 11
19.457393778512
 21
43.27401189182839
 31
0.0
 70
   102
 71
     5
 42
0.7054999999998977
  3
Standard
100
AcDbOrdinateDimension
 13
18.93699630478461
 23
39.7079321097174
 33
0.0
 14
19.45739377851201
 24
42.15734522516171
 34
0.0
1001
ACAD
1000
DSTYLE
1002
{
1070
    42
1040
0.25
1070
   140
1040
0.5600000000000001
1070
   271
1070
     3
1002
}
  0
DIMENSION
  5
6F8
102
{ACAD_XDICTIONARY
360
6F9
102
}
102
{ACAD_REACTORS
330
6FA
102
}
330
1F
100
AcDbEntity
  8
0
100
AcDbDimension
  2
*D90
 10
18.23149630478471
 20
12.40734522516159
 30
0.0
 11
27.57459025963783
 21
43.36734522516171
 31
0.0
 70
   102
 71
     5
 42
9.974499999999904
  3
Standard
100
AcDbOrdinateDimension
 13
28.20599630478462
 23
39.7079321097174
 33
0.0
 14
27.57459025963783
 24
42.15734522516171
 34
0.0
1001
ACAD
1000
DSTYLE
1002
{
1070
    42
1040
0.25
1070
   140
1040
0.5600000000000001
1070
   271
1070
     3
1002
}
  0
TEXT
  5
829
330
1F
100
AcDbEntity
  8
TEXT
100
AcDbText
 10
15.20596874878713
 20
4.436015351839287
 30
0.0
 40
0.1794575376999573
  1
8-18-11
 72
     1
 11
15.71443177227035
 21
4.525744120689266
 31
0.0
100
AcDbText
 73
     2
  0
TEXT
  5
82A
330
1F
100
AcDbEntity
  8
TEXT
100
AcDbText
 10
17.16044195688855
 20
4.436015351839287
 30
0.0
 40
0.1794575376999573
  1
JMH
 72
     1
 11
17.39971867382183
 21
4.525744120689266
 31
0.0
100
AcDbText
 73
     2
  0
TEXT
  5
82B
330
1F
100
AcDbEntity
  8
TEXT
100
AcDbText
 10
9.91571008534054
 20
4.436015351839287
 30
0.0
 40
0.1794575376999573
  1
CUTOUT CHANGE 
 72
     1
 11
11.17191284924024
 21
4.525744120689266
 31
0.0
100
AcDbText
 73
     2
  0
TEXT
  5
82C
330
1F
100
AcDbEntity
  8
TEXT
100
AcDbText
 10
6.99653413875442
 20
4.436015351839287
 30
0.0
 40
0.1794575376999573
  1
1
 72
     1
 11
7.02644372837108
 21
4.525744120689266
 31
0.0
100
AcDbText
 73
     2
  0
LINE
  5
82D
330
1F
100
AcDbEntity
  8
BORDER
100
AcDbLine
 10
18.29539240949361
 20
4.705201658389288
 30
0.0
 11
6.633880364652421
 21
4.705201658389288
 31
0.0
  0
DIMENSION
  5
897
330
1F
100
AcDbEntity
  8
0
100
AcDbDimension
  2
*D91
 10
18.23149630478471
 20
12.40734522516159
 30
0.0
 11
22.9464963047847
 21
31.19736842833791
 31
0.0
 70
   102
 71
     5
 42
4.714999999999984
  3
Standard
100
AcDbOrdinateDimension
 13
22.9464963047847
 23
33.98036999767902
 33
0.0
 14
22.9464963047847
 24
32.31403509500457
 34
0.0
1001
ACAD
1000
DSTYLE
1002
{
1070
    42
1040
0.25
1070
   140
1040
0.5600000000000001
1070
   271
1070
     3
1002
}
  0
DIMENSION
  5
8A4
330
1F
100
AcDbEntity
  8
0
100
AcDbDimension
  2
*D92
 10
18.23149630478471
 20
12.40734522516159
 30
0.0
 11
24.1964963047847
 21
31.10403509500458
 31
0.0
 70
   102
 71
     5
 42
5.964999999999985
  3
Standard
100
AcDbOrdinateDimension
 13
24.1964963047847
 23
33.98036999767898
 33
0.0
 14
24.1964963047847
 24
32.31403509500457
 34
0.0
1001
ACAD
1000
DSTYLE
1002
{
1070
    42
1040
0.25
1070
   140
1040
0.5600000000000001
1070
   271
1070
     3
1002
}
  0
ENDSEC
  0
SECTION
  2
OBJECTS
  0
DICTIONARY
  5
C
330
0
100
AcDbDictionary
281
     1
  3
ACAD_CIP_PREVIOUS_PRODUCT_INFO
350
594
  3
ACAD_COLOR
350
73
  3
ACAD_GROUP
350
D
  3
ACAD_LAYOUT
350
1A
  3
ACAD_MATERIAL
350
72
  3
ACAD_MLEADERSTYLE
350
591
  3
ACAD_MLINESTYLE
350
17
  3
ACAD_PLOTSETTINGS
350
19
  3
ACAD_PLOTSTYLENAME
350
E
  3
ACAD_SCALELIST
350
57F
  3
ACAD_TABLESTYLE
350
57D
  3
ACAD_VISUALSTYLE
350
564
  3
ACDB_RECOMPOSE_DATA
350
9F6
  3
AcDbVariableDictionary
350
66
  3
DWGPROPS
350
9F7
  0
DICTIONARY
  5
8C
330
2
100
AcDbDictionary
280
     1
281
     1
  3
ACAD_LAYERSTATES
360
8D
  0
DICTIONARY
  5
830
330
10
100
AcDbDictionary
280
     1
281
     1
  3
ADSK_XREC_LAYER_RECONCILED
360
831
  0
DICTIONARY
  5
832
330
89
100
AcDbDictionary
280
     1
281
     1
  3
ADSK_XREC_LAYER_RECONCILED
360
833
  0
DICTIONARY
  5
834
330
8A
100
AcDbDictionary
280
     1
281
     1
  3
ADSK_XREC_LAYER_RECONCILED
360
835
  0
DICTIONARY
  5
836
330
8B
100
AcDbDictionary
280
     1
281
     1
  3
ADSK_XREC_LAYER_RECONCILED
360
837
  0
DICTIONARY
  5
838
330
3BA
100
AcDbDictionary
280
     1
281
     1
  3
ADSK_XREC_LAYER_RECONCILED
360
839
  0
DICTIONARY
  5
83A
330
3BB
100
AcDbDictionary
280
     1
281
     1
  3
ADSK_XREC_LAYER_RECONCILED
360
83B
  0
DICTIONARY
  5
83C
330
3BD
100
AcDbDictionary
280
     1
281
     1
  3
ADSK_XREC_LAYER_RECONCILED
360
83D
  0
DICTIONARY
  5
9FD
330
3A7
100
AcDbDictionary
280
     1
281
     1
  3
ACAD_MTEXT_RT
360
9FE
  0
DICTIONARY
  5
9FF
330
3B2
100
AcDbDictionary
280
     1
281
     1
  3
ACAD_MTEXT_RT
360
A00
  0
DICTIONARY
  5
A01
330
530
100
AcDbDictionary
280
     1
281
     1
  3
ACAD_MTEXT_RT
360
A02
  0
DICTIONARY
  5
A03
330
537
100
AcDbDictionary
280
     1
281
     1
  3
ACAD_MTEXT_RT
360
A04
  0
DICTIONARY
  5
A36
330
5ED
100
AcDbDictionary
280
     1
281
     1
  3
ACAD_MTEXT_RT
360
A37
  0
DICTIONARY
  5
A38
330
7B5
100
AcDbDictionary
280
     1
281
     1
  3
ACAD_MTEXT_RT
360
A39
  0
DICTIONARY
  5
6DA
330
6D9
100
AcDbDictionary
280
     1
281
     1
  3
ACAD_DIMASSOC
360
6DB
  0
DICTIONARY
  5
6DD
330
6DC
100
AcDbDictionary
280
     1
281
     1
  3
ACAD_DIMASSOC
360
6DE
  0
DICTIONARY
  5
6E0
330
6DF
100
AcDbDictionary
280
     1
281
     1
  3
ACAD_DIMASSOC
360
6E1
  0
DICTIONARY
  5
6E3
330
6E2
100
AcDbDictionary
280
     1
281
     1
  3
ACAD_DIMASSOC
360
6E4
  0
DICTIONARY
  5
6E6
330
6E5
100
AcDbDictionary
280
     1
281
     1
  3
ACAD_DIMASSOC
360
6E7
  0
DICTIONARY
  5
6E9
330
6E8
100
AcDbDictionary
280
     1
281
     1
  3
ACAD_DIMASSOC
360
6EA
  0
DICTIONARY
  5
6EC
330
6EB
100
AcDbDictionary
280
     1
281
     1
  3
ACAD_DIMASSOC
360
6ED
  0
DICTIONARY
  5
6F0
330
6EF
100
AcDbDictionary
280
     1
281
     1
  3
ACAD_DIMASSOC
360
6F1
  0
DICTIONARY
  5
6F5
330
6F4
100
AcDbDictionary
280
     1
281
     1
  3
ACAD_DIMASSOC
360
6F6
  0
DICTIONARY
  5
6F9
330
6F8
100
AcDbDictionary
280
     1
281
     1
  3
ACAD_DIMASSOC
360
6FA
  0
XRECORD
  5
594
102
{ACAD_REACTORS
330
C
102
}
330
C
100
AcDbXrecord
280
     1
300
AMECH_PP
300
2012
300
PDSP_F_S
  0
DICTIONARY
  5
73
102
{ACAD_REACTORS
330
C
102
}
330
C
100
AcDbDictionary
281
     1
  0
DICTIONARY
  5
D
102
{ACAD_REACTORS
330
C
102
}
330
C
100
AcDbDictionary
281
     1
  0
DICTIONARY
  5
1A
102
{ACAD_REACTORS
330
C
102
}
330
C
100
AcDbDictionary
281
     1
  3
Layout1
350
59
  3
Layout2
350
5E
  3
Model
350
22
  0
DICTIONARY
  5
72
102
{ACAD_REACTORS
330
C
102
}
330
C
100
AcDbDictionary
281
     1
  3
ByBlock
350
554
  3
ByLayer
350
54C
  3
Global
350
55C
  0
DICTIONARY
  5
591
102
{ACAD_REACTORS
330
C
102
}
330
C
100
AcDbDictionary
281
     1
  3
Standard
350
592
  0
DICTIONARY
  5
17
102
{ACAD_REACTORS
330
C
102
}
330
C
100
AcDbDictionary
281
     1
  3
Standard
350
18
  0
DICTIONARY
  5
19
102
{ACAD_REACTORS
330
C
102
}
330
C
100
AcDbDictionary
281
     1
  0
ACDBDICTIONARYWDFLT
  5
E
102
{ACAD_REACTORS
330
C
102
}
330
C
100
AcDbDictionary
281
     1
  3
Normal
350
F
100
AcDbDictionaryWithDefault
340
F
  0
DICTIONARY
  5
57F
102
{ACAD_REACTORS
330
C
102
}
330
C
100
AcDbDictionary
281
     1
  3
A0
350
580
  3
A1
350
581
  3
A2
350
582
  3
A3
350
583
  3
A4
350
584
  3
A5
350
585
  3
A6
350
586
  3
A7
350
587
  3
A8
350
588
  3
A9
350
589
  3
B0
350
58A
  3
B1
350
58B
  3
B2
350
58C
  3
B3
350
58D
  3
B4
350
58E
  3
B5
350
58F
  3
B6
350
590
  0
DICTIONARY
  5
57D
102
{ACAD_REACTORS
330
C
102
}
330
C
100
AcDbDictionary
281
     1
  3
Standard
350
57E
  0
DICTIONARY
  5
564
102
{ACAD_REACTORS
330
C
102
}
330
C
100
AcDbDictionary
281
     1
  3
2dWireframe
350
56A
  3
Basic
350
569
  3
Brighten
350
570
  3
ColorChange
350
574
  3
Conceptual
350
56D
  3
Dim
350
56F
  3
EdgeColorOff
350
57C
  3
Facepattern
350
573
  3
Flat
350
565
  3
FlatWithEdges
350
566
  3
Gouraud
350
567
  3
GouraudWithEdges
350
568
  3
Hidden
350
56C
  3
JitterOff
350
57A
  3
Linepattern
350
572
  3
OverhangOff
350
57B
  3
Realistic
350
56E
  3
Shaded
350
579
  3
Shaded with edges
350
578
  3
Shades of Gray
350
575
  3
Sketchy
350
576
  3
Thicken
350
571
  3
Wireframe
350
56B
  3
X-Ray
350
577
  0
XRECORD
  5
9F6
102
{ACAD_REACTORS
330
C
102
}
330
C
100
AcDbXrecord
280
     1
 90
        1
330
57E
  0
DICTIONARY
  5
66
102
{ACAD_REACTORS
330
C
102
}
330
C
100
AcDbDictionary
281
     1
  3
CANNOSCALE
350
840
  3
CMLEADERSTYLE
350
83F
  3
CTABLESTYLE
350
83E
  3
DIMASSOC
350
67
  3
HIDETEXT
350
6B
  3
INDEXCTL
350
842
  3
PROJECTNAME
350
53E
  3
SORTENTS
350
841
  3
XCLIPFRAME
350
9AF
  0
XRECORD
  5
9F7
102
{ACAD_REACTORS
330
C
102
}
330
C
100
AcDbXrecord
280
     1
  1
DWGPROPS COOKIE
  2

  3

  4

  6

  7

  8
jasper
  9

300
=
301
=
302
=
303
=
304
=
305
=
306
=
307
=
308
=
309
=
 40
0.0160571643518519
 41
2455197.499553415
 42
2456007.638197049
  1

 90
        0
  0
DICTIONARY
  5
8D
102
{ACAD_REACTORS
330
8C
102
}
330
8C
100
AcDbDictionary
281
     1
  0
XRECORD
  5
831
102
{ACAD_REACTORS
330
830
102
}
330
830
100
AcDbXrecord
280
     1
290
     1
  0
XRECORD
  5
833
102
{ACAD_REACTORS
330
832
102
}
330
832
100
AcDbXrecord
280
     1
290
     1
  0
XRECORD
  5
835
102
{ACAD_REACTORS
330
834
102
}
330
834
100
AcDbXrecord
280
     1
290
     1
  0
XRECORD
  5
837
102
{ACAD_REACTORS
330
836
102
}
330
836
100
AcDbXrecord
280
     1
290
     1
  0
XRECORD
  5
839
102
{ACAD_REACTORS
330
838
102
}
330
838
100
AcDbXrecord
280
     1
290
     1
  0
XRECORD
  5
83B
102
{ACAD_REACTORS
330
83A
102
}
330
83A
100
AcDbXrecord
280
     1
290
     1
  0
XRECORD
  5
83D
102
{ACAD_REACTORS
330
83C
102
}
330
83C
100
AcDbXrecord
280
     1
290
     1
  0
XRECORD
  5
9FE
102
{ACAD_REACTORS
330
9FD
102
}
330
9FD
100
AcDbXrecord
280
     1
 40
7238.0
  1
\A1;\U+22051.250
  0
XRECORD
  5
A00
102
{ACAD_REACTORS
330
9FF
102
}
330
9FF
100
AcDbXrecord
280
     1
 40
10183.0
  1
\A1;(6)\U+22050.375
  0
XRECORD
  5
A02
102
{ACAD_REACTORS
330
A01
102
}
330
A01
100
AcDbXrecord
280
     1
 40
10183.0
  1
\A1;(6)\U+22050.375
  0
XRECORD
  5
A04
102
{ACAD_REACTORS
330
A03
102
}
330
A03
100
AcDbXrecord
280
     1
 40
7238.0
  1
\A1;\U+22051.250
  0
XRECORD
  5
A37
102
{ACAD_REACTORS
330
A36
102
}
330
A36
100
AcDbXrecord
280
     1
 40
10183.0
  1
\A1;(6)\U+22050.375
  0
XRECORD
  5
A39
102
{ACAD_REACTORS
330
A38
102
}
330
A38
100
AcDbXrecord
280
     1
 40
10183.0
  1
\A1;(6)\U+22050.375
  0
DIMASSOC
  5
6DB
102
{ACAD_REACTORS
330
6DA
102
}
330
6DA
100
AcDbDimAssoc
330
6D9
 90
        2
 70
     0
 71
     0
  1
AcDbOsnapPointRef
 72
     1
331
6CF
 73
     2
 91
        0
 40
1.0
 10
0.0
 20
0.0
 30
2.000000000000000E+50
 75
     0
  0
DIMASSOC
  5
6DE
102
{ACAD_REACTORS
330
6DD
102
}
330
6DD
100
AcDbDimAssoc
330
6DC
 90
        2
 70
     0
 71
     0
  1
AcDbOsnapPointRef
 72
    13
331
6CF
 73
     2
 91
        0
 40
0.0
 10
0.0
 20
0.0
 30
2.000000000000000E+50
 75
     0
  0
DIMASSOC
  5
6E1
102
{ACAD_REACTORS
330
6E0
102
}
330
6E0
100
AcDbDimAssoc
330
6DF
 90
        2
 70
     0
 71
     0
  1
AcDbOsnapPointRef
 72
    13
331
6C1
 73
     2
 91
        0
 40
0.0
 10
0.0
 20
0.0
 30
2.000000000000000E+50
 75
     0
  0
DIMASSOC
  5
6E4
102
{ACAD_REACTORS
330
6E3
102
}
330
6E3
100
AcDbDimAssoc
330
6E2
 90
        2
 70
     0
 71
     0
  1
AcDbOsnapPointRef
 72
     3
331
6D5
 73
     2
 91
        0
 40
0.0
 10
0.0
 20
0.0
 30
0.0
 75
     0
  0
DIMASSOC
  5
6E7
102
{ACAD_REACTORS
330
6E6
102
}
330
6E6
100
AcDbDimAssoc
330
6E5
 90
        2
 70
     0
 71
     0
  1
AcDbOsnapPointRef
 72
     3
331
6D2
 73
     2
 91
        0
 40
0.0
 10
0.0
 20
0.0
 30
0.0
 75
     0
  0
DIMASSOC
  5
6EA
102
{ACAD_REACTORS
330
6E9
102
}
330
6E9
100
AcDbDimAssoc
330
6E8
 90
        2
 70
     0
 71
     0
  1
AcDbOsnapPointRef
 72
     3
331
6D1
 73
     2
 91
        0
 40
0.0
 10
0.0
 20
0.0
 30
0.0
 75
     0
  0
DIMASSOC
  5
6ED
102
{ACAD_REACTORS
330
6EC
102
}
330
6EC
100
AcDbDimAssoc
330
6EB
 90
        2
 70
     0
 71
     0
  1
AcDbOsnapPointRef
 72
     3
331
6D3
 73
     2
 91
        0
 40
0.0
 10
0.0
 20
0.0
 30
0.0
 75
     0
  0
DIMASSOC
  5
6F1
102
{ACAD_REACTORS
330
6F0
102
}
330
6F0
100
AcDbDimAssoc
330
6EF
 90
        2
 70
     0
 71
     0
  1
AcDbOsnapPointRef
 72
     1
331
6CA
 73
     2
 91
        0
 40
1.0
 10
0.0
 20
0.0
 30
2.000000000000000E+50
 75
     0
  0
DIMASSOC
  5
6F6
102
{ACAD_REACTORS
330
6F5
102
}
330
6F5
100
AcDbDimAssoc
330
6F4
 90
        2
 70
     0
 71
     0
  1
AcDbOsnapPointRef
 72
     3
331
6D8
 73
     2
 91
        0
 40
0.0
 10
0.0
 20
0.0
 30
0.0
 75
     0
  0
DIMASSOC
  5
6FA
102
{ACAD_REACTORS
330
6F9
102
}
330
6F9
100
AcDbDimAssoc
330
6F8
 90
        2
 70
     0
 71
     0
  1
AcDbOsnapPointRef
 72
    13
331
6CE
 73
     2
 91
        0
 40
0.0
 10
0.0
 20
0.0
 30
2.000000000000000E+50
 75
     0
  0
LAYOUT
  5
59
102
{ACAD_XDICTIONARY
360
9F9
102
}
102
{ACAD_REACTORS
330
1A
102
}
330
1A
100
AcDbPlotSettings
  1

  2
None
  4

  6

 40
0.0
 41
0.0
 42
0.0
 43
0.0
 44
0.0
 45
0.0
 46
0.0
 47
0.0
 48
0.0
 49
0.0
140
0.0
141
0.0
142
1.0
143
1.0
 70
   688
 72
     0
 73
     0
 74
     5
  7

 75
    16
147
1.0
148
0.0
149
0.0
100
AcDbLayout
  1
Layout1
 70
     1
 71
     1
 10
0.0
 20
0.0
 11
12.0
 21
9.0
 12
0.0
 22
0.0
 32
0.0
 14
0.0
 24
0.0
 34
0.0
 15
0.0
 25
0.0
 35
0.0
146
0.0
 13
0.0
 23
0.0
 33
0.0
 16
1.0
 26
0.0
 36
0.0
 17
0.0
 27
1.0
 37
0.0
 76
     0
330
58
  0
LAYOUT
  5
5E
102
{ACAD_XDICTIONARY
360
9FB
102
}
102
{ACAD_REACTORS
330
1A
102
}
330
1A
100
AcDbPlotSettings
  1

  2
None
  4

  6

 40
0.0
 41
0.0
 42
0.0
 43
0.0
 44
0.0
 45
0.0
 46
0.0
 47
0.0
 48
0.0
 49
0.0
140
0.0
141
0.0
142
1.0
143
1.0
 70
   688
 72
     0
 73
     0
 74
     5
  7

 75
    16
147
1.0
148
0.0
149
0.0
100
AcDbLayout
  1
Layout2
 70
     1
 71
     2
 10
0.0
 20
0.0
 11
12.0
 21
9.0
 12
0.0
 22
0.0
 32
0.0
 14
0.0
 24
0.0
 34
0.0
 15
0.0
 25
0.0
 35
0.0
146
0.0
 13
0.0
 23
0.0
 33
0.0
 16
1.0
 26
0.0
 36
0.0
 17
0.0
 27
1.0
 37
0.0
 76
     0
330
5D
  0
LAYOUT
  5
22
102
{ACAD_XDICTIONARY
360
96B
102
}
102
{ACAD_REACTORS
330
1A
102
}
330
1A
100
AcDbPlotSettings
  1

  2
none_device
  4
ANSI_A_(8.50_x_11.00_Inches)
  6

 40
6.349999904632567
 41
19.04999923706055
 42
6.350006103515625
 43
19.04998779296875
 44
215.8999938964844
 45
279.3999938964844
 46
0.0
 47
0.0
 48
0.0
 49
0.0
140
0.0
141
0.0
142
1.0
143
2.584895464708373
 70
 11952
 72
     0
 73
     1
 74
     0
  7

 75
     0
147
0.3868628397755418
148
0.0
149
0.0
100
AcDbLayout
  1
Model
 70
     1
 71
     0
 10
0.0
 20
0.0
 11
12.0
 21
9.0
 12
0.0
 22
0.0
 32
0.0
 14
0.0
 24
0.0
 34
0.0
 15
0.0
 25
0.0
 35
0.0
146
0.0
 13
0.0
 23
0.0
 33
0.0
 16
1.0
 26
0.0
 36
0.0
 17
0.0
 27
1.0
 37
0.0
 76
     0
330
1F
331
53F
  0
MATERIAL
  5
554
102
{ACAD_XDICTIONARY
360
555
102
}
102
{ACAD_REACTORS
330
72
102
}
330
72
100
AcDbMaterial
  1
ByBlock
 72
     0
 43
0.0208333333333333
 43
0.0
 43
0.0
 43
0.0
 43
0.0
 43
0.0208333333333333
 43
0.0
 43
0.0
 43
0.0
 43
0.0
 43
1.0
 43
0.0
 43
0.0
 43
0.0
 43
0.0
 43
1.0
 77
     0
 47
0.0208333333333333
 47
0.0
 47
0.0
 47
0.0
 47
0.0
 47
0.0208333333333333
 47
0.0
 47
0.0
 47
0.0
 47
0.0
 47
1.0
 47
0.0
 47
0.0
 47
0.0
 47
0.0
 47
1.0
171
     0
 49
0.0208333333333333
 49
0.0
 49
0.0
 49
0.0
 49
0.0
 49
0.0208333333333333
 49
0.0
 49
0.0
 49
0.0
 49
0.0
 49
1.0
 49
0.0
 49
0.0
 49
0.0
 49
0.0
 49
1.0
175
     0
142
0.0208333333333333
142
0.0
142
0.0
142
0.0
142
0.0
142
0.0208333333333333
142
0.0
142
0.0
142
0.0
142
0.0
142
1.0
142
0.0
142
0.0
142
0.0
142
0.0
142
1.0
179
     0
144
0.0208333333333333
144
0.0
144
0.0
144
0.0
144
0.0
144
0.0208333333333333
144
0.0
144
0.0
144
0.0
144
0.0
144
1.0
144
0.0
144
0.0
144
0.0
144
0.0
144
1.0
147
0.0208333333333333
147
0.0
147
0.0
147
0.0
147
0.0
147
0.0208333333333333
147
0.0
147
0.0
147
0.0
147
0.0
147
1.0
147
0.0
147
0.0
147
0.0
147
0.0
147
1.0
  0
MATERIAL
  5
54C
102
{ACAD_XDICTIONARY
360
54D
102
}
102
{ACAD_REACTORS
330
72
102
}
330
72
100
AcDbMaterial
  1
ByLayer
 72
     0
 43
0.0208333333333333
 43
0.0
 43
0.0
 43
0.0
 43
0.0
 43
0.0208333333333333
 43
0.0
 43
0.0
 43
0.0
 43
0.0
 43
1.0
 43
0.0
 43
0.0
 43
0.0
 43
0.0
 43
1.0
 77
     0
 47
0.0208333333333333
 47
0.0
 47
0.0
 47
0.0
 47
0.0
 47
0.0208333333333333
 47
0.0
 47
0.0
 47
0.0
 47
0.0
 47
1.0
 47
0.0
 47
0.0
 47
0.0
 47
0.0
 47
1.0
171
     0
 49
0.0208333333333333
 49
0.0
 49
0.0
 49
0.0
 49
0.0
 49
0.0208333333333333
 49
0.0
 49
0.0
 49
0.0
 49
0.0
 49
1.0
 49
0.0
 49
0.0
 49
0.0
 49
0.0
 49
1.0
175
     0
142
0.0208333333333333
142
0.0
142
0.0
142
0.0
142
0.0
142
0.0208333333333333
142
0.0
142
0.0
142
0.0
142
0.0
142
1.0
142
0.0
142
0.0
142
0.0
142
0.0
142
1.0
179
     0
144
0.0208333333333333
144
0.0
144
0.0
144
0.0
144
0.0
144
0.0208333333333333
144
0.0
144
0.0
144
0.0
144
0.0
144
1.0
144
0.0
144
0.0
144
0.0
144
0.0
144
1.0
147
0.0208333333333333
147
0.0
147
0.0
147
0.0
147
0.0
147
0.0208333333333333
147
0.0
147
0.0
147
0.0
147
0.0
147
1.0
147
0.0
147
0.0
147
0.0
147
0.0
147
1.0
  0
MATERIAL
  5
55C
102
{ACAD_XDICTIONARY
360
55D
102
}
102
{ACAD_REACTORS
330
72
102
}
330
72
100
AcDbMaterial
  1
Global
 72
     0
 43
0.0208333333333333
 43
0.0
 43
0.0
 43
0.0
 43
0.0
 43
0.0208333333333333
 43
0.0
 43
0.0
 43
0.0
 43
0.0
 43
1.0
 43
0.0
 43
0.0
 43
0.0
 43
0.0
 43
1.0
 77
     0
 47
0.0208333333333333
 47
0.0
 47
0.0
 47
0.0
 47
0.0
 47
0.0208333333333333
 47
0.0
 47
0.0
 47
0.0
 47
0.0
 47
1.0
 47
0.0
 47
0.0
 47
0.0
 47
0.0
 47
1.0
171
     0
 49
0.0208333333333333
 49
0.0
 49
0.0
 49
0.0
 49
0.0
 49
0.0208333333333333
 49
0.0
 49
0.0
 49
0.0
 49
0.0
 49
1.0
 49
0.0
 49
0.0
 49
0.0
 49
0.0
 49
1.0
175
     0
142
0.0208333333333333
142
0.0
142
0.0
142
0.0
142
0.0
142
0.0208333333333333
142
0.0
142
0.0
142
0.0
142
0.0
142
1.0
142
0.0
142
0.0
142
0.0
142
0.0
142
1.0
179
     0
144
0.0208333333333333
144
0.0
144
0.0
144
0.0
144
0.0
144
0.0208333333333333
144
0.0
144
0.0
144
0.0
144
0.0
144
1.0
144
0.0
144
0.0
144
0.0
144
0.0
144
1.0
147
0.0208333333333333
147
0.0
147
0.0
147
0.0
147
0.0
147
0.0208333333333333
147
0.0
147
0.0
147
0.0
147
0.0
147
1.0
147
0.0
147
0.0
147
0.0
147
0.0
147
1.0
  0
MLEADERSTYLE
  5
592
102
{ACAD_REACTORS
330
591
102
}
330
591
100
AcDbMLeaderStyle
170
     2
171
     1
172
     0
 90
        2
 40
0.0
 41
0.0
173
     1
 91
-1056964608
340
14
 92
       -2
290
     1
 42
0.09
291
     1
 43
0.36
  3
Standard
 44
0.18
300

342
11
174
     1
178
     6
175
     1
176
     0
 93
-1056964608
 45
0.18
292
     0
297
     0
 46
0.18
 94
-1056964608
 47
1.0
 49
1.0
140
1.0
293
     1
141
0.0
294
     1
177
     0
142
1.0
295
     0
296
     0
143
0.125
1001
ACAD_MLEADERVER
1070
     2
  0
MLINESTYLE
  5
18
102
{ACAD_REACTORS
330
17
102
}
330
17
100
AcDbMlineStyle
  2
STANDARD
 70
     0
  3

 62
   256
 51
90.0
 52
90.0
 71
     2
 49
0.5
 62
   256
  6
BYLAYER
 49
-0.5
 62
   256
  6
BYLAYER
  0
ACDBPLACEHOLDER
  5
F
102
{ACAD_REACTORS
330
E
102
}
330
E
  0
SCALE
  5
580
102
{ACAD_REACTORS
330
57F
102
}
330
57F
100
AcDbScale
 70
     0
300
1:1
140
1.0
141
1.0
290
     1
  0
SCALE
  5
581
102
{ACAD_REACTORS
330
57F
102
}
330
57F
100
AcDbScale
 70
     0
300
1/128" = 1'-0"
140
0.0078125
141
12.0
290
     0
  0
SCALE
  5
582
102
{ACAD_REACTORS
330
57F
102
}
330
57F
100
AcDbScale
 70
     0
300
1/64" = 1'-0"
140
0.015625
141
12.0
290
     0
  0
SCALE
  5
583
102
{ACAD_REACTORS
330
57F
102
}
330
57F
100
AcDbScale
 70
     0
300
1/32" = 1'-0"
140
0.03125
141
12.0
290
     0
  0
SCALE
  5
584
102
{ACAD_REACTORS
330
57F
102
}
330
57F
100
AcDbScale
 70
     0
300
1/16" = 1'-0"
140
0.0625
141
12.0
290
     0
  0
SCALE
  5
585
102
{ACAD_REACTORS
330
57F
102
}
330
57F
100
AcDbScale
 70
     0
300
3/32" = 1'-0"
140
0.09375
141
12.0
290
     0
  0
SCALE
  5
586
102
{ACAD_REACTORS
330
57F
102
}
330
57F
100
AcDbScale
 70
     0
300
1/8" = 1'-0"
140
0.125
141
12.0
290
     0
  0
SCALE
  5
587
102
{ACAD_REACTORS
330
57F
102
}
330
57F
100
AcDbScale
 70
     0
300
3/16" = 1'-0"
140
0.1875
141
12.0
290
     0
  0
SCALE
  5
588
102
{ACAD_REACTORS
330
57F
102
}
330
57F
100
AcDbScale
 70
     0
300
1/4" = 1'-0"
140
0.25
141
12.0
290
     0
  0
SCALE
  5
589
102
{ACAD_REACTORS
330
57F
102
}
330
57F
100
AcDbScale
 70
     0
300
3/8" = 1'-0"
140
0.375
141
12.0
290
     0
  0
SCALE
  5
58A
102
{ACAD_REACTORS
330
57F
102
}
330
57F
100
AcDbScale
 70
     0
300
1/2" = 1'-0"
140
0.5
141
12.0
290
     0
  0
SCALE
  5
58B
102
{ACAD_REACTORS
330
57F
102
}
330
57F
100
AcDbScale
 70
     0
300
3/4" = 1'-0"
140
0.75
141
12.0
290
     0
  0
SCALE
  5
58C
102
{ACAD_REACTORS
330
57F
102
}
330
57F
100
AcDbScale
 70
     0
300
1" = 1'-0"
140
1.0
141
12.0
290
     0
  0
SCALE
  5
58D
102
{ACAD_REACTORS
330
57F
102
}
330
57F
100
AcDbScale
 70
     0
300
1-1/2" = 1'-0"
140
1.5
141
12.0
290
     0
  0
SCALE
  5
58E
102
{ACAD_REACTORS
330
57F
102
}
330
57F
100
AcDbScale
 70
     0
300
3" = 1'-0"
140
3.0
141
12.0
290
     0
  0
SCALE
  5
58F
102
{ACAD_REACTORS
330
57F
102
}
330
57F
100
AcDbScale
 70
     0
300
6" = 1'-0"
140
6.0
141
12.0
290
     0
  0
SCALE
  5
590
102
{ACAD_REACTORS
330
57F
102
}
330
57F
100
AcDbScale
 70
     0
300
1'-0" = 1'-0"
140
12.0
141
12.0
290
     0
  0
TABLESTYLE
  5
57E
102
{ACAD_XDICTIONARY
360
844
102
}
102
{ACAD_REACTORS
330
57D
102
}
330
57D
100
AcDbTableStyle
  3
Standard
 70
     0
 71
     0
 40
0.06
 41
0.06
280
     0
281
     0
  7
Standard
140
0.18
170
     2
 62
     0
 63
     7
283
     0
274
    -2
284
     1
 64
     0
275
    -2
285
     1
 65
     0
276
    -2
286
     1
 66
     0
277
    -2
287
     1
 67
     0
278
    -2
288
     1
 68
     0
279
    -2
289
     1
 69
     0
  7
Standard
140
0.25
170
     5
 62
     0
 63
     7
283
     0
274
    -2
284
     1
 64
     0
275
    -2
285
     1
 65
     0
276
    -2
286
     1
 66
     0
277
    -2
287
     1
 67
     0
278
    -2
288
     1
 68
     0
279
    -2
289
     1
 69
     0
  7
Standard
140
0.18
170
     5
 62
     0
 63
     7
283
     0
274
    -2
284
     1
 64
     0
275
    -2
285
     1
 65
     0
276
    -2
286
     1
 66
     0
277
    -2
287
     1
 67
     0
278
    -2
288
     1
 68
     0
279
    -2
289
     1
 69
     0
  0
VISUALSTYLE
  5
56A
102
{ACAD_XDICTIONARY
360
A0F
102
}
102
{ACAD_REACTORS
330
564
102
}
330
564
100
AcDbVisualStyle
  2

 70
     4
 71
     0
 72
     2
 73
     0
 90
        0
 40
-0.6
 41
-30.0
 62
     5
 63
     7
 74
     1
 91
        4
 64
     7
 65
   257
 75
     1
175
     1
 42
1.0
 92
        0
 66
   257
 43
1.0
 76
     1
 77
     6
 78
     2
 67
     7
 79
     5
170
     0
171
     0
290
     0
174
     0
 93
        1
 44
0.0
173
     0
291
     0
 45
0.0
1001
ACAD
1000
AcDbSavedByObjectVersion
1070
     0
  0
VISUALSTYLE
  5
569
102
{ACAD_XDICTIONARY
360
A0D
102
}
102
{ACAD_REACTORS
330
564
102
}
330
564
100
AcDbVisualStyle
  2

 70
     7
 71
     1
 72
     0
 73
     1
 90
        0
 40
-0.6
 41
-30.0
 62
     5
 63
     7
 74
     0
 91
        4
 64
     7
 65
   257
 75
     1
175
     1
 42
1.0
 92
        8
 66
     7
 43
1.0
 76
     1
 77
     6
 78
     2
 67
     7
 79
     5
170
     0
171
     0
290
     0
174
     0
 93
        1
 44
0.0
173
     0
291
     1
 45
0.0
1001
ACAD
1000
AcDbSavedByObjectVersion
1070
     0
  0
VISUALSTYLE
  5
570
102
{ACAD_XDICTIONARY
360
A1B
102
}
102
{ACAD_REACTORS
330
564
102
}
330
564
100
AcDbVisualStyle
  2

 70
    12
 71
     2
 72
     2
 73
     0
 90
        0
 40
-0.6
 41
-30.0
 62
     5
 63
     7
 74
     1
 91
        4
 64
     7
 65
   257
 75
     1
175
     1
 42
1.0
 92
        8
 66
     7
 43
1.0
 76
     1
 77
     6
 78
     2
 67
     7
 79
     5
170
     0
171
     0
290
     0
174
     0
 93
        1
 44
50.0
173
     0
291
     1
 45
0.0
1001
ACAD
1000
AcDbSavedByObjectVersion
1070
     0
  0
VISUALSTYLE
  5
574
102
{ACAD_XDICTIONARY
360
A23
102
}
102
{ACAD_REACTORS
330
564
102
}
330
564
100
AcDbVisualStyle
  2

 70
    16
 71
     2
 72
     2
 73
     3
 90
        0
 40
-0.6
 41
-30.0
 62
     5
 63
     8
 74
     1
 91
        4
 64
     7
 65
   257
 75
     1
175
     1
 42
1.0
 92
        8
 66
     8
 43
1.0
 76
     1
 77
     6
 78
     2
 67
     7
 79
     5
170
     0
171
     0
290
     0
174
     0
 93
        1
 44
0.0
173
     0
291
     1
 45
0.0
1001
ACAD
1000
AcDbSavedByObjectVersion
1070
     0
  0
VISUALSTYLE
  5
56D
102
{ACAD_XDICTIONARY
360
A15
102
}
102
{ACAD_REACTORS
330
564
102
}
330
564
100
AcDbVisualStyle
  2

 70
     9
 71
     3
 72
     2
 73
     0
 90
        0
 40
-0.6
 41
-30.0
 62
     5
 63
     7
 74
     2
 91
        2
 64
     7
 65
   257
 75
     1
175
     1
 42
179.0
 92
        8
 66
     7
 43
1.0
 76
     1
 77
     6
 78
     2
 67
     7
 79
     3
170
     0
171
     0
290
     0
174
     0
 93
        1
 44
0.0
173
     0
291
     0
 45
0.0
1001
ACAD
1000
AcDbSavedByObjectVersion
1070
     0
  0
VISUALSTYLE
  5
56F
102
{ACAD_XDICTIONARY
360
A19
102
}
102
{ACAD_REACTORS
330
564
102
}
330
564
100
AcDbVisualStyle
  2

 70
    11
 71
     2
 72
     2
 73
     0
 90
        0
 40
-0.6
 41
-30.0
 62
     5
 63
     7
 74
     1
 91
        4
 64
     7
 65
   257
 75
     1
175
     1
 42
1.0
 92
        8
 66
     7
 43
1.0
 76
     1
 77
     6
 78
     2
 67
     7
 79
     5
170
     0
171
     0
290
     0
174
     0
 93
        1
 44
-50.0
173
     0
291
     1
 45
0.0
1001
ACAD
1000
AcDbSavedByObjectVersion
1070
     0
  0
VISUALSTYLE
  5
57C
102
{ACAD_XDICTIONARY
360
A33
102
}
102
{ACAD_REACTORS
330
564
102
}
330
564
100
AcDbVisualStyle
  2

 70
    22
 71
     2
 72
     2
 73
     0
 90
        0
 40
-0.6
 41
-30.0
 62
     5
 63
     7
 74
     1
 91
        4
 64
     7
 65
   257
 75
     1
175
     1
 42
1.0
 92
        8
 66
     7
 43
1.0
 76
     1
 77
     6
 78
     2
 67
     7
 79
     5
170
     0
171
     0
290
     0
174
     0
 93
        1
 44
0.0
173
     0
291
     1
 45
0.0
1001
ACAD
1000
AcDbSavedByObjectVersion
1070
     0
  0
VISUALSTYLE
  5
573
102
{ACAD_XDICTIONARY
360
A21
102
}
102
{ACAD_REACTORS
330
564
102
}
330
564
100
AcDbVisualStyle
  2

 70
    15
 71
     2
 72
     2
 73
     0
 90
        0
 40
-0.6
 41
-30.0
 62
     5
 63
     7
 74
     1
 91
        4
 64
     7
 65
   257
 75
     1
175
     1
 42
1.0
 92
        8
 66
     7
 43
1.0
 76
     1
 77
     6
 78
     2
 67
     7
 79
     5
170
     0
171
     0
290
     0
174
     0
 93
        1
 44
0.0
173
     0
291
     1
 45
0.0
1001
ACAD
1000
AcDbSavedByObjectVersion
1070
     0
  0
VISUALSTYLE
  5
565
102
{ACAD_XDICTIONARY
360
A05
102
}
102
{ACAD_REACTORS
330
564
102
}
330
564
100
AcDbVisualStyle
  2

 70
     0
 71
     2
 72
     1
 73
     1
 90
        2
 40
-0.6
 41
30.0
 62
     5
 63
     7
 74
     0
 91
        0
 64
     7
 65
   257
 75
     1
175
     1
 42
1.0
 92
        8
 66
     7
 43
1.0
 76
     1
 77
     6
 78
     2
 67
     7
 79
     5
170
     0
171
     0
290
     0
174
     0
 93
       13
 44
0.0
173
     0
291
     1
 45
0.0
1001
ACAD
1000
AcDbSavedByObjectVersion
1070
     0
  0
VISUALSTYLE
  5
566
102
{ACAD_XDICTIONARY
360
A07
102
}
102
{ACAD_REACTORS
330
564
102
}
330
564
100
AcDbVisualStyle
  2

 70
     1
 71
     2
 72
     1
 73
     1
 90
        2
 40
-0.6
 41
30.0
 62
     5
 63
     7
 74
     1
 91
        0
 64
     7
 65
   257
 75
     1
175
     1
 42
1.0
 92
        0
 66
   257
 43
1.0
 76
     1
 77
     6
 78
     2
 67
     7
 79
     5
170
     0
171
     0
290
     0
174
     0
 93
       13
 44
0.0
173
     0
291
     1
 45
0.0
1001
ACAD
1000
AcDbSavedByObjectVersion
1070
     0
  0
VISUALSTYLE
  5
567
102
{ACAD_XDICTIONARY
360
A09
102
}
102
{ACAD_REACTORS
330
564
102
}
330
564
100
AcDbVisualStyle
  2

 70
     2
 71
     2
 72
     2
 73
     1
 90
        2
 40
-0.6
 41
30.0
 62
     5
 63
     7
 74
     0
 91
        0
 64
     7
 65
   257
 75
     1
175
     1
 42
1.0
 92
        0
 66
     7
 43
1.0
 76
     1
 77
     6
 78
     2
 67
     7
 79
     5
170
     0
171
     0
290
     0
174
     0
 93
       13
 44
0.0
173
     0
291
     1
 45
0.0
1001
ACAD
1000
AcDbSavedByObjectVersion
1070
     0
  0
VISUALSTYLE
  5
568
102
{ACAD_XDICTIONARY
360
A0B
102
}
102
{ACAD_REACTORS
330
564
102
}
330
564
100
AcDbVisualStyle
  2

 70
     3
 71
     2
 72
     2
 73
     1
 90
        2
 40
-0.6
 41
30.0
 62
     5
 63
     7
 74
     1
 91
        0
 64
     7
 65
   257
 75
     1
175
     1
 42
1.0
 92
        0
 66
   257
 43
1.0
 76
     1
 77
     6
 78
     2
 67
     7
 79
     5
170
     0
171
     0
290
     0
174
     0
 93
       13
 44
0.0
173
     0
291
     1
 45
0.0
1001
ACAD
1000
AcDbSavedByObjectVersion
1070
     0
  0
VISUALSTYLE
  5
56C
102
{ACAD_XDICTIONARY
360
A13
102
}
102
{ACAD_REACTORS
330
564
102
}
330
564
100
AcDbVisualStyle
  2

 70
     6
 71
     1
 72
     2
 73
     2
 90
        0
 40
-0.6
 41
-30.0
 62
     5
 63
     7
 74
     2
 91
        2
 64
     7
 65
   257
 75
     2
175
     1
 42
40.0
 92
        0
 66
   257
 43
1.0
 76
     1
 77
     6
 78
     2
 67
     7
 79
     3
170
     0
171
     0
290
     0
174
     0
 93
        1
 44
0.0
173
     0
291
     0
 45
0.0
1001
ACAD
1000
AcDbSavedByObjectVersion
1070
     0
  0
VISUALSTYLE
  5
57A
102
{ACAD_XDICTIONARY
360
A2F
102
}
102
{ACAD_REACTORS
330
564
102
}
330
564
100
AcDbVisualStyle
  2

 70
    20
 71
     2
 72
     2
 73
     0
 90
        0
 40
-0.6
 41
-30.0
 62
     5
 63
     7
 74
     1
 91
        4
 64
     7
 65
   257
 75
     1
175
     1
 42
1.0
 92
       10
 66
     7
 43
1.0
 76
     1
 77
     6
 78
     2
 67
     7
 79
     5
170
     0
171
     0
290
     0
174
     0
 93
        1
 44
0.0
173
     0
291
     1
 45
0.0
1001
ACAD
1000
AcDbSavedByObjectVersion
1070
     0
  0
VISUALSTYLE
  5
572
102
{ACAD_XDICTIONARY
360
A1F
102
}
102
{ACAD_REACTORS
330
564
102
}
330
564
100
AcDbVisualStyle
  2

 70
    14
 71
     2
 72
     2
 73
     0
 90
        0
 40
-0.6
 41
-30.0
 62
     5
 63
     7
 74
     1
 91
        4
 64
     7
 65
   257
 75
     7
175
     7
 42
1.0
 92
        8
 66
     7
 43
1.0
 76
     1
 77
     6
 78
     2
 67
     7
 79
     5
170
     0
171
     0
290
     0
174
     0
 93
        1
 44
0.0
173
     0
291
     1
 45
0.0
1001
ACAD
1000
AcDbSavedByObjectVersion
1070
     0
  0
VISUALSTYLE
  5
57B
102
{ACAD_XDICTIONARY
360
A31
102
}
102
{ACAD_REACTORS
330
564
102
}
330
564
100
AcDbVisualStyle
  2

 70
    21
 71
     2
 72
     2
 73
     0
 90
        0
 40
-0.6
 41
-30.0
 62
     5
 63
     7
 74
     1
 91
        4
 64
     7
 65
   257
 75
     1
175
     1
 42
1.0
 92
        9
 66
     7
 43
1.0
 76
     1
 77
     6
 78
     2
 67
     7
 79
     5
170
     0
171
     0
290
     0
174
     0
 93
        1
 44
0.0
173
     0
291
     1
 45
0.0
1001
ACAD
1000
AcDbSavedByObjectVersion
1070
     0
  0
VISUALSTYLE
  5
56E
102
{ACAD_XDICTIONARY
360
A17
102
}
102
{ACAD_REACTORS
330
564
102
}
330
564
100
AcDbVisualStyle
  2

 70
     8
 71
     2
 72
     3
 73
     0
 90
        2
 40
-0.6
 41
30.0
 62
     5
 63
     7
 74
     0
 91
        0
 64
     7
 65
   257
 75
     1
175
     1
 42
1.0
 92
        8
 66
   257
 43
1.0
 76
     1
 77
     6
 78
     2
 67
     7
 79
     3
170
     0
171
     0
290
     0
174
     0
 93
       13
 44
0.0
173
     0
291
     0
 45
0.0
1001
ACAD
1000
AcDbSavedByObjectVersion
1070
     0
  0
VISUALSTYLE
  5
579
102
{ACAD_XDICTIONARY
360
A2D
102
}
102
{ACAD_REACTORS
330
564
102
}
330
564
100
AcDbVisualStyle
  2

 70
    27
 71
     2
 72
     2
 73
     1
 90
        2
 40
-0.6
 41
30.0
 62
     5
 63
     7
 74
     0
 91
        4
 64
     7
 65
   257
 75
     1
175
     1
 42
1.0
 92
        8
 66
   257
 43
1.0
 76
     1
 77
     6
 78
     2
 67
     8
 79
     3
170
     0
171
     0
290
     0
174
     0
 93
        5
 44
0.0
173
     0
291
     0
 45
0.0
1001
ACAD
1000
AcDbSavedByObjectVersion
1070
     0
  0
VISUALSTYLE
  5
578
102
{ACAD_XDICTIONARY
360
A2B
102
}
102
{ACAD_REACTORS
330
564
102
}
330
564
100
AcDbVisualStyle
  2

 70
    26
 71
     2
 72
     2
 73
     1
 90
        2
 40
-0.6
 41
30.0
 62
     5
 63
     7
 74
     1
 91
       10
 64
     7
 65
   257
 75
     2
175
     1
 42
1.0
 92
        8
 66
   257
 43
1.0
 76
     1
 77
     6
 78
     2
 67
     7
 79
     3
170
     0
171
     0
290
     0
174
     0
 93
        5
 44
0.0
173
     0
291
     0
 45
0.0
1001
ACAD
1000
AcDbSavedByObjectVersion
1070
     0
  0
VISUALSTYLE
  5
575
102
{ACAD_XDICTIONARY
360
A25
102
}
102
{ACAD_REACTORS
330
564
102
}
330
564
100
AcDbVisualStyle
  2

 70
    23
 71
     2
 72
     2
 73
     3
 90
        0
 40
-0.6
 41
-30.0
 62
     5
 63
     7
 74
     2
 91
        2
 64
     7
 65
     7
 75
     1
175
     1
 42
40.0
 92
        8
 66
     7
 43
1.0
 76
     1
 77
     6
 78
     2
 67
     7
 79
     3
170
     0
171
     0
290
     0
174
     0
 93
        1
 44
0.0
173
     0
291
     0
 45
0.0
1001
ACAD
1000
AcDbSavedByObjectVersion
1070
     0
  0
VISUALSTYLE
  5
576
102
{ACAD_XDICTIONARY
360
A27
102
}
102
{ACAD_REACTORS
330
564
102
}
330
564
100
AcDbVisualStyle
  2

 70
    24
 71
     1
 72
     2
 73
     2
 90
        0
 40
-0.6
 41
-30.0
 62
     5
 63
     7
 74
     2
 91
        2
 64
     7
 65
     7
 75
     1
175
     1
 42
40.0
 92
       11
 66
     7
 43
1.0
 76
     1
 77
     6
 78
     2
 67
     7
 79
     6
170
     0
171
     0
290
     0
174
     0
 93
        1
 44
0.0
173
     0
291
     0
 45
0.0
1001
ACAD
1000
AcDbSavedByObjectVersion
1070
     0
  0
VISUALSTYLE
  5
571
102
{ACAD_XDICTIONARY
360
A1D
102
}
102
{ACAD_REACTORS
330
564
102
}
330
564
100
AcDbVisualStyle
  2

 70
    13
 71
     2
 72
     2
 73
     0
 90
        0
 40
-0.6
 41
-30.0
 62
     5
 63
     7
 74
     1
 91
        4
 64
     7
 65
   257
 75
     1
175
     1
 42
1.0
 92
       12
 66
     7
 43
1.0
 76
     1
 77
     6
 78
     2
 67
     7
 79
     5
170
     0
171
     0
290
     0
174
     0
 93
        1
 44
0.0
173
     0
291
     1
 45
0.0
1001
ACAD
1000
AcDbSavedByObjectVersion
1070
     0
  0
VISUALSTYLE
  5
56B
102
{ACAD_XDICTIONARY
360
A11
102
}
102
{ACAD_REACTORS
330
564
102
}
330
564
100
AcDbVisualStyle
  2

 70
     5
 71
     0
 72
     2
 73
     0
 90
        0
 40
-0.6
 41
-30.0
 62
     5
 63
     7
 74
     1
 91
        4
 64
     7
 65
   257
 75
     1
175
     1
 42
1.0
 92
        0
 66
   257
 43
1.0
 76
     1
 77
     6
 78
     2
 67
     7
 79
     3
170
     0
171
     0
290
     0
174
     0
 93
        1
 44
0.0
173
     0
291
     0
 45
0.0
1001
ACAD
1000
AcDbSavedByObjectVersion
1070
     0
  0
VISUALSTYLE
  5
577
102
{ACAD_XDICTIONARY
360
A29
102
}
102
{ACAD_REACTORS
330
564
102
}
330
564
100
AcDbVisualStyle
  2

 70
    25
 71
     2
 72
     2
 73
     1
 90
        1
 40
0.5
 41
-30.0
 62
     5
 63
     7
 74
     1
 91
        0
 64
     7
 65
   257
 75
     1
175
     1
 42
1.0
 92
        8
 66
     7
 43
1.0
 76
     1
 77
     6
 78
     2
 67
     7
 79
     3
170
     0
171
     0
290
     0
174
     0
 93
       13
 44
0.0
173
     0
291
     0
 45
0.0
1001
ACAD
1000
AcDbSavedByObjectVersion
1070
     0
  0
DICTIONARYVAR
  5
840
102
{ACAD_REACTORS
330
66
102
}
330
66
100
DictionaryVariables
280
     0
  1
1:1
  0
DICTIONARYVAR
  5
83F
102
{ACAD_REACTORS
330
66
102
}
330
66
100
DictionaryVariables
280
     0
  1
STANDARD
  0
DICTIONARYVAR
  5
83E
102
{ACAD_REACTORS
330
66
102
}
330
66
100
DictionaryVariables
280
     0
  1
STANDARD
  0
DICTIONARYVAR
  5
67
102
{ACAD_REACTORS
330
66
102
}
330
66
100
DictionaryVariables
280
     0
  1
2
  0
DICTIONARYVAR
  5
6B
102
{ACAD_REACTORS
330
66
102
}
330
66
100
DictionaryVariables
280
     0
  1
1
  0
DICTIONARYVAR
  5
842
102
{ACAD_REACTORS
330
66
102
}
330
66
100
DictionaryVariables
280
     0
  1
0
  0
DICTIONARYVAR
  5
53E
102
{ACAD_REACTORS
330
66
102
}
330
66
100
DictionaryVariables
280
     0
  1

  0
DICTIONARYVAR
  5
841
102
{ACAD_REACTORS
330
66
102
}
330
66
100
DictionaryVariables
280
     0
  1
127
  0
DICTIONARYVAR
  5
9AF
102
{ACAD_REACTORS
330
66
102
}
330
66
100
DictionaryVariables
280
     0
  1
2
  0
DICTIONARY
  5
9F9
330
59
100
AcDbDictionary
280
     1
281
     1
  3
ACAD_XREC_ROUNDTRIP
360
9FA
  0
DICTIONARY
  5
9FB
330
5E
100
AcDbDictionary
280
     1
281
     1
  3
ACAD_XREC_ROUNDTRIP
360
9FC
  0
DICTIONARY
  5
96B
330
22
100
AcDbDictionary
280
     1
281
     1
  3
ACAD_XREC_ROUNDTRIP
360
9F8
  3
ADSK_XREC_LAYOUTTHUMBNAIL
360
96C
  0
DICTIONARY
  5
555
330
554
100
AcDbDictionary
280
     1
281
     1
  3
ACAD_XREC_ROUNDTRIP
360
857
  3
BUMPTILE
360
557
  3
DIFFUSETILE
360
556
  3
OPACITYTILE
360
55A
  3
REFLECTIONTILE
360
559
  3
REFRACTIONTILE
360
55B
  3
SPECULARTILE
360
558
  0
DICTIONARY
  5
54D
330
54C
100
AcDbDictionary
280
     1
281
     1
  3
ACAD_XREC_ROUNDTRIP
360
856
  3
BUMPTILE
360
54F
  3
DIFFUSETILE
360
54E
  3
OPACITYTILE
360
552
  3
REFLECTIONTILE
360
551
  3
REFRACTIONTILE
360
553
  3
SPECULARTILE
360
550
  0
DICTIONARY
  5
55D
330
55C
100
AcDbDictionary
280
     1
281
     1
  3
ACAD_XREC_ROUNDTRIP
360
858
  3
BUMPTILE
360
55F
  3
DIFFUSETILE
360
55E
  3
OPACITYTILE
360
562
  3
REFLECTIONTILE
360
561
  3
REFRACTIONTILE
360
563
  3
SPECULARTILE
360
560
  0
DICTIONARY
  5
844
330
57E
100
AcDbDictionary
280
     1
281
     1
  3
ACAD_ROUNDTRIP_2008_TABLESTYLE_CELLSTYLEMAP
360
9F5
  3
ACAD_XREC_ROUNDTRIP
360
A35
  0
DICTIONARY
  5
A0F
330
56A
100
AcDbDictionary
280
     1
281
     1
  3
ACAD_XREC_ROUNDTRIP
360
A10
  0
DICTIONARY
  5
A0D
330
569
100
AcDbDictionary
280
     1
281
     1
  3
ACAD_XREC_ROUNDTRIP
360
A0E
  0
DICTIONARY
  5
A1B
330
570
100
AcDbDictionary
280
     1
281
     1
  3
ACAD_XREC_ROUNDTRIP
360
A1C
  0
DICTIONARY
  5
A23
330
574
100
AcDbDictionary
280
     1
281
     1
  3
ACAD_XREC_ROUNDTRIP
360
A24
  0
DICTIONARY
  5
A15
330
56D
100
AcDbDictionary
280
     1
281
     1
  3
ACAD_XREC_ROUNDTRIP
360
A16
  0
DICTIONARY
  5
A19
330
56F
100
AcDbDictionary
280
     1
281
     1
  3
ACAD_XREC_ROUNDTRIP
360
A1A
  0
DICTIONARY
  5
A33
330
57C
100
AcDbDictionary
280
     1
281
     1
  3
ACAD_XREC_ROUNDTRIP
360
A34
  0
DICTIONARY
  5
A21
330
573
100
AcDbDictionary
280
     1
281
     1
  3
ACAD_XREC_ROUNDTRIP
360
A22
  0
DICTIONARY
  5
A05
330
565
100
AcDbDictionary
280
     1
281
     1
  3
ACAD_XREC_ROUNDTRIP
360
A06
  0
DICTIONARY
  5
A07
330
566
100
AcDbDictionary
280
     1
281
     1
  3
ACAD_XREC_ROUNDTRIP
360
A08
  0
DICTIONARY
  5
A09
330
567
100
AcDbDictionary
280
     1
281
     1
  3
ACAD_XREC_ROUNDTRIP
360
A0A
  0
DICTIONARY
  5
A0B
330
568
100
AcDbDictionary
280
     1
281
     1
  3
ACAD_XREC_ROUNDTRIP
360
A0C
  0
DICTIONARY
  5
A13
330
56C
100
AcDbDictionary
280
     1
281
     1
  3
ACAD_XREC_ROUNDTRIP
360
A14
  0
DICTIONARY
  5
A2F
330
57A
100
AcDbDictionary
280
     1
281
     1
  3
ACAD_XREC_ROUNDTRIP
360
A30
  0
DICTIONARY
  5
A1F
330
572
100
AcDbDictionary
280
     1
281
     1
  3
ACAD_XREC_ROUNDTRIP
360
A20
  0
DICTIONARY
  5
A31
330
57B
100
AcDbDictionary
280
     1
281
     1
  3
ACAD_XREC_ROUNDTRIP
360
A32
  0
DICTIONARY
  5
A17
330
56E
100
AcDbDictionary
280
     1
281
     1
  3
ACAD_XREC_ROUNDTRIP
360
A18
  0
DICTIONARY
  5
A2D
330
579
100
AcDbDictionary
280
     1
281
     1
  3
ACAD_XREC_ROUNDTRIP
360
A2E
  0
DICTIONARY
  5
A2B
330
578
100
AcDbDictionary
280
     1
281
     1
  3
ACAD_XREC_ROUNDTRIP
360
A2C
  0
DICTIONARY
  5
A25
330
575
100
AcDbDictionary
280
     1
281
     1
  3
ACAD_XREC_ROUNDTRIP
360
A26
  0
DICTIONARY
  5
A27
330
576
100
AcDbDictionary
280
     1
281
     1
  3
ACAD_XREC_ROUNDTRIP
360
A28
  0
DICTIONARY
  5
A1D
330
571
100
AcDbDictionary
280
     1
281
     1
  3
ACAD_XREC_ROUNDTRIP
360
A1E
  0
DICTIONARY
  5
A11
330
56B
100
AcDbDictionary
280
     1
281
     1
  3
ACAD_XREC_ROUNDTRIP
360
A12
  0
DICTIONARY
  5
A29
330
577
100
AcDbDictionary
280
     1
281
     1
  3
ACAD_XREC_ROUNDTRIP
360
A2A
  0
XRECORD
  5
9FA
102
{ACAD_REACTORS
330
9F9
102
}
330
9F9
100
AcDbXrecord
280
     1
102
SHADEPLOT
 70
     0
102
SHADEPLOTRESLEVEL
 70
     2
102
SHADEPLOTCUSTOMDPI
 70
   300
  0
XRECORD
  5
9FC
102
{ACAD_REACTORS
330
9FB
102
}
330
9FB
100
AcDbXrecord
280
     1
102
SHADEPLOT
 70
     0
102
SHADEPLOTRESLEVEL
 70
     2
102
SHADEPLOTCUSTOMDPI
 70
   300
  0
XRECORD
  5
9F8
102
{ACAD_REACTORS
330
96B
102
}
330
96B
100
AcDbXrecord
280
     1
102
SHADEPLOT
 70
     0
102
SHADEPLOTRESLEVEL
 70
     2
102
SHADEPLOTCUSTOMDPI
 70
   300
  0
XRECORD
  5
96C
102
{ACAD_REACTORS
330
96B
102
}
330
96B
100
AcDbXrecord
280
     1
310
28000000000100007D0000000100080000000000007D0000000000000000000000010000000000000000000000000000C8C8C8000000000000000000000000000000000000000000000000000000000000000000330000006600000099000000CC000000FF00000000330000333300006633000099330000CC330000FF3300
310
0000660000336600006666000099660000CC660000FF66000000990000339900006699000099990000CC990000FF99000000CC000033CC000066CC000099CC0000CCCC0000FFCC000000FF000033FF000066FF000099FF0000CCFF0000FFFF000000003300330033006600330099003300CC003300FF003300003333003333
310
33006633330099333300CC333300FF33330000663300336633006666330099663300CC663300FF66330000993300339933006699330099993300CC993300FF99330000CC330033CC330066CC330099CC3300CCCC3300FFCC330000FF330033FF330066FF330099FF3300CCFF3300FFFF330000006600330066006600660099
310
006600CC006600FF00660000336600333366006633660099336600CC336600FF33660000666600336666006666660099666600CC666600FF66660000996600339966006699660099996600CC996600FF99660000CC660033CC660066CC660099CC6600CCCC6600FFCC660000FF660033FF660066FF660099FF6600CCFF6600
310
FFFF660000009900330099006600990099009900CC009900FF00990000339900333399006633990099339900CC339900FF33990000669900336699006666990099669900CC669900FF66990000999900339999006699990099999900CC999900FF99990000CC990033CC990066CC990099CC9900CCCC9900FFCC990000FF99
310
0033FF990066FF990099FF9900CCFF9900FFFF99000000CC003300CC006600CC009900CC00CC00CC00FF00CC000033CC003333CC006633CC009933CC00CC33CC00FF33CC000066CC003366CC006666CC009966CC00CC66CC00FF66CC000099CC003399CC006699CC009999CC00CC99CC00FF99CC0000CCCC0033CCCC0066CC
310
CC0099CCCC00CCCCCC00FFCCCC0000FFCC0033FFCC0066FFCC0099FFCC00CCFFCC00FFFFCC000000FF003300FF006600FF009900FF00CC00FF00FF00FF000033FF003333FF006633FF009933FF00CC33FF00FF33FF000066FF003366FF006666FF009966FF00CC66FF00FF66FF000099FF003399FF006699FF009999FF00CC
310
99FF00FF99FF0000CCFF0033CCFF0066CCFF0099CCFF00CCCCFF00FFCCFF0000FFFF0033FFFF0066FFFF0099FFFF00CCFFFF00FFFFFF00000000000D0D0D001A1A1A00282828003535350043434300505050005D5D5D006B6B6B00787878008686860093939300A1A1A100AEAEAE00BBBBBB00C9C9C900D6D6D600E4E4E400
310
F1F1F100FFFFFF000000000000000000000000000000000000000000000000000000000000000000000000000000000000000000000000000000000000000000000000000000000000000000000000000000000000000000000000000000000000000000000000000000000000000000000000000000F50000000000000000
310
0000F5000000F500000000000000000000000000000000000000000000000000000000000000000000000000000000000000000000000000F500F500F50000000000000000000000F5000000000000000000000000000000000000000000000000000000000000000000000000000000000000000000000000000000000000
310
0000000000000000000000000000000000000000000000000000000000000000000000BE000000000000000000000000000000000000000000000000000000000000000000000000000000000000000000000000000000000000000000000000000000000000000000000000000000000000000000000000F5000000000000
310
00000000F5F5F5F5F500000000000000000000000000000000000000000000000000000000000000000000000000000000000000000000000000F500F500F50000000000000000000000F500000000000000000000000000000000000000000000000000000000000000000000000000000000000000000000000000000000
310
00000000000000000000000000000000000000000000000000000000000000000000000000BE000000000000000000000000000000000000000000000000000000000000000000000000000000000000000000000000000000000000000000000000000000000000000000000000000000000000000000000000F500000000
310
00000000000000000000000000000000000000000000000000000000000000000000000000000000000000000000000000000000000000000000000000F5F5F5000000000000000000000000F50000000000000000000000000000000000000000000000000000000000000000000000000000000000000000000000000000
310
000000000000000000000000000000000000000000000000000000000000000000000000000000BE000000000000000000000000000000000000000000000000000000000000000000000000000000000000000000000000000000000000000000000000000000000000000000000000000000000000000000000000F50000
310
0000000000000000000000F5F50000000000000000000000000000000000000000000000000000000000000000000000000000000000000000000000000000000000000000000000000000000000F5000000000000000000000000000000000000000000000000000000000000000000000000000000000000000000000000
310
0000000000000000000000000000000000000000000000000000000000000000000000000000000000BE000000000000000000000000000000000000000000000000000000000000000000000000000000000000000000000000000000000000000000000000000000000000000000000000000000000000000000000000F5
310
00000000000000000000F5000000000000000000000000000000000000000000000000000000000000000000000000000000000000000000000000000000000000000000F50000000000000000000000F500000000000000000000000000000000000000000000000000000000000000000000000000000000000000000000
310
00000000000000000000000000000000000000000000000000000000000000000000000000000000000000BE0000000000000000000000000000000000000000000000000000000000000000000000000000000000000000000000000000000000000000000000000000000000000000000000000000000000000000000000
310
00F500000000000000000000F5000000F50000000000000000000000000000000000000000000000000000000000000000000000000000000000000000000000000000F5F500000000000000000000000000F50000000000000000000000000000000000000000000000000000000000000000000000000000000000000000
310
000000000000000000000000000000000000000000000000000000000000000000000000000000000000000000BE000000000000000000000000000000000000000000000000000000000000000000000000000000000000000000000000000000000000000000000000000000000000000000000000000000000000000000
310
000000F500000000000000000000F500F5F50000000000000000000000000000000000000000000000000000000000000000000000000000000000000000000000000000F500F500F50000000000000000000000F5000000000000000000000000000000000000000000000000000000000000000000000000000000000000
310
0000000000000000000000000000000000000000000000000000000000000000000000000000000000000000000000BE00000000000000000000000000000000000000000000000000000000000000000000000000000000000000000000000000000000000000000000000000000000000000000000000000000000000000
310
0000000000F500000000000000000000F5F500000000000000000000000000000000000000000000000000000000000000000000000000000000000000000000000000000000F500F500F50000000000000000000000F500000000000000000000000000000000000000000000000000000000000000000000000000000000
310
00000000000000000000000000000000000000000000000000000000000000000000000000000000000000000000000000BE0000000000000000000000000000000000000000000000000000000000000000000000000000000000000000000000000000000000000000000000000000000000000000000000000000000000
310
00000000000000F500000000000000000000F5000000000000000000000000000000000000000000000000000000000000000000000000000000000000000000000000000000000000F5F5F5000000000000000000000000F50000000000000000000000000000000000000000000000000000000000000000000000000000
310
000000000000000000000000000000000000000000000000000000000000000000000000000000000000000000000000000000BE000000000000000000000000000000000000000000000000000000000000000000000000000000000000000000000000000000000000000000000000000000000000000000000000000000
310
000000000000000000F500000000000000000000F5000000F50000000000000000000000000000000000000000000000000000000000000000000000000000000000000000000000000000F5F5F5F50000000000000000000000F5000000000000000000000000000000000000000000000000000000000000000000000000
310
0000000000000000000000000000000000000000000000000000000000000000000000000000000000000000000000000000000000BE00000000000000000000000000000000000000000000000000000000000000000000000000000000000000000000000000000000000000000000000000000000000000000000000000
310
0000000000000000000000F500000000000000000000F500F5F50000000000000000000000000000000000000000000000000000000000000000000000000000000000000000000000000000F5000000F50000000000000000000000F500000000000000000000000000000000000000000000000000000000000000000000
310
00000000000000000000000000000000000000000000000000000000000000000000000000000000000000000000000000000000000000BE0000000000000000000000000000000000000000000000000000000000000000000000000000000000000000000000000000000000000000000000000000000000000000000000
310
00000000000000000000000000F500000000000000000000F5F500000000000000000000000000000000000000000000000000000000000000000000000000000000000000000000000000000000F5F5F5F5F50000000000000000000000F50000000000000000000000000000000000000000000000000000000000000000
310
000000000000000000000000000000000000000000000000000000000000000000000000000000000000000000000000000000000000000000BE000000000000000000000000000000000000000000000000000000000000000000000000000000000000000000000000000000000000000000000000000000000000000000
310
000000000000000000000000000000F50000000000000000000000000000000000000000000000000000000000000000000000000000000000000000000000000000000000000000000000000000000000000000000000000000000000000000F5000000000000000000000000000000000000000000000000000000000000
310
0000000000000000000000000000000000000000000000000000000000000000000000000000000000000000000000000000000000000000000000BE00000000000000000000000000000000000000000000000000000000000000000000000000000000000000000000000000000000000000000000000000000000000000
310
0000000000000000000000000000000000F500000000000000000000F5F500F5F500000000000000000000000000000000000000000000000000000000000000000000000000000000000000000000000000F5F5F500F50000000000000000000000F500000000000000000000000000000000000000000000000000000000
310
00000000000000000000000000000000000000000000000000000000000000000000000000000000000000000000000000000000000000000000000000BE0000000000000000000000000000000000000000000000000000000000000000000000000000000000000000000000000000000000000000000000000000000000
310
00000000000000000000000000000000000000F500000000000000000000F5F50000F500000000000000000000000000000000000000000000000000000000000000000000000000000000000000000000000000F500F500F50000000000000000000000F50000000000000000000000000000000000000000000000000000
310
000000000000000000000000000000000000000000000000000000000000000000000000000000000000000000000000000000000000000000000000000000BE000000000000000000000000000000000000000000000000000000000000000000000000000000000000000000000000000000000000000000000000000000
310
000000000000000000000000000000000000000000F500000000000000000000F5F5F5F5F500000000000000000000000000000000000000000000000000000000000000000000000000000000000000000000000000F500F5F5F50000000000000000000000F5000000000000000000000000000000000000000000000000
310
0000000000000000000000000000000000000000000000000000000000000000000000000000000000000000000000000000000000000000000000000000000000BE00000000000000000000000000000000000000000000000000000000000000000000000000000000000000000000000000000000000000000000000000
310
0000000000000000000000000000000000000000000000F50000000000000000000000000000000000000000000000000000000000000000000000000000000000000000000000000000000000000000000000000000000000000000000000000000000000000000F500000000000000000000000000000000000000000000
310
00000000000000000000000000000000000000000000000000000000000000000000000000000000000000000000000000000000000000000000000000000000000000BE0000000000000000000000000000000000000000000000000000000000000000000000000000000000000000000000000000000000000000000000
310
00000000000000000000000000000000000000000000000000F50000000000000000000000000000000000000000000000000000000000000000000000000000000000000000000000000000000000000000000000000000000000000000000000000000000000000000F50000000000000000000000000000000000000000
310
000000000000000000000000000000000000000000000000000000000000000000000000000000000000000000000000000000000000000000000000000000000000000000BE000000000000000000000000000000000000000000000000000000000000000000000000000000000000000000000000000000000000000000
310
000000000000000000000000000000000000000000000000000000F50000000000000000000000000000000000000000000000000000000000000000000000000000000000000000000000000000000000000000000000000000000000000000000000000000000000000000F5000000000000000000000000000000000000
310
0000000000000000000000000000000000000000000000000000000000000000000000000000000000000000000000000000000000000000000000000000000000000000000000BE00000000000000000000000000000000000000000000000000000000000000000000000000000000000000000000000000000000000000
310
0000000000000000000000000000000000000000000000000000000000F50000000000000000000000000000000000000000000000000000000000000000000000000000000000000000000000000000000000000000000000000000000000000000000000000000000000000000F500000000000000000000000000000000
310
00000000000000000000000000000000000000000000000000000000000000000000000000000000000000000000000000000000000000000000000000000000000000000000000000BE0000000000000000000000000000000000000000000000000000000000000000000000000000000000000000000000000000000000
310
00000000000000000000000000000000000000000000000000000000000000F50000000000000000000000000000000000000000000000000000000000000000000000000000000000000000000000000000000000000000000000000000000000000000000000000000000000000000F50000000000000000000000000000
310
000000000000000000000000000000000000000000000000000000000000000000000000000000000000000000000000000000000000000000000000000000000000000000000000000000BE000000000000000000000000000000000000000000000000000000000000000000000000000000000000000000000000000000
310
000000000000000000000000000000000000000000000000000000000000000000F50000000000000000000000000000000000000000000000000000000000000000000000000000000000000000000000000000000000000000000000000000000000000000000000000000000000000000F5000000000000000000000000
310
0000000000000000000000000000000000000000000000000000000000000000000000000000000000000000000000000000000000000000000000000000000000000000000000000000000000BE00000000000000000000000000000000000000000000000000000000000000000000000000000000000000000000000000
310
0000000000000000000000000000000000000000000000000000000000000000000000F50000000000000000000000000000000000000000000000000000000000000000000000000000000000000000000000000000000000000000000000000000000000000000000000000000000000000000F500000000000000000000
310
00000000000000000000000000000000000000000000000000000000000000000000000000000000000000000000000000000000000000000000000000000000000000000000000000000000000000BE0000000000000000000000000000000000000000000000000000000000000000000000000000000000000000000000
310
00000000000000000000000000000000000000000000000000000000000000000000000000F5000000000000000000000000000000000000000000000000000000000000000000000000000000000000F5F500F5F500000000000000000000F5F5000000000000000000000000000000000000000000F50000000000000000
310
000000000000000000000000000000000000000000000000000000000000000000000000000000000000000000000000000000000000000000000000000000000000000000000000000000000000000000BE000000000000000000000000000000000000000000000000000000000000000000000000000000000000000000
310
000000000000000000000000000000000000000000000000000000000000000000000000000000F5000000000000000000000000000000000000F5F5F50000000000000000000000000000F5000000000000F5F50000F5000000000000000000F500F500F500000000000000000000000000000000000000F5000000000000
310
0000000000000000000000000000000000000000000000000000000000000000000000000000000000000000000000000000000000000000000000000000000000000000000000000000000000000000000000BE00000000000000000000000000000000000000000000000000000000000000000000000000000000000000
310
0000000000000000000000000000000000000000000000000000000000000000000000000000000000F50000000000000000000000000000000000F5000000F50000000000000000000000F5F5F5000000000000F5F50000F5000000000000000000F500F500F500000000000000000000000000000000000000F500000000
310
00000000000000000000000000000000000000000000000000000000000000000000000000000000000000000000000000000000000000000000000000000000000000000000000000000000000000000000000000BE0000000000000000000000000000000000000000000000000000000000000000000000000000000000
310
00000000000000000000000000000000000000000000000000000000000000000000000000000000000000F50000000000000000000000000000000000F5F5F5F5F500000000000000000000F5F5F5F5F5F500000000F500F5F500000000000000000000F5F5F5F50000000000000000000000000000000000000000F50000
310
000000000000000000000000000000000000000000000000000000000000000000000000000000000000000000000000000000000000000000000000000000000000000000000000000000000000000000000000000000BE000000000000000000000000000000000000000000000000000000000000000000000000000000
310
000000000000000000000000000000000000000000000000000000000000000000000000000000000000000000F50000000000000000000000000000000000000000000000000000000000000000000000F5000000000000000000F5F5000000000000000000000000000000000000000000000000000000000000000000F5
310
0000000000000000000000000000000000000000000000000000000000000000000000000000000000000000000000000000000000000000000000000000000000000000000000000000000000000000000000000000000000BE00000000000000000000000000000000000000000000000000000000000000000000000000
310
0000000000000000000000000000000000000000000000000000000000000000000000000000000000000000000000F50000000000000000000000000000000000000000F5F50000000000000000000000000000F5F500000000F5F500000000000000000000000000000000F5000000000000000000000000000000000000
310
00F50000000000000000000000000000000000000000000000000000000000000000000000000000000000000000000000000000000000000000000000000000000000000000000000000000000000000000000000000000000000BE0000000000000000000000000000000000000000000000000000000000000000000000
310
00000000000000000000000000000000000000000000000000000000000000000000000000000000000000000000000000F5000000000000000000000000000000000000F500F5000000000000000000000000000000000000000000F500F500F500000000000000000000F5F5F5F500000000000000000000000000000000
310
000000F50000000000000000000000000000000000000000000000000000000000000000000000000000000000000000000000000000000000000000000000000000000000000000000000000000000000000000000000000000000000BE000000000000000000000000000000000000000000000000000000000000000000
310
000000000000000000000000000000000000000000000000000000000000000000000000000000000000000000000000000000F50000000000000000000000000000000000F500F500F500000000000000000000F500000000F500000000F500F500F5000000000000000000F500F500F50000000000000000000000000000
310
0000000000F50000000000000000000000000000000000000000000000000000000000000000000000000000000000000000000000000000000000000000000000000000000000000000000000000000000000000000000000000000000000BE00000000000000000000000000000000000000000000000000000000000000
310
0000000000000000000000000000000000000000000000000000000000000000000000000000000000000000000000000000000000F50000000000000000000000000000000000F500F500F500000000000000000000F50000F5F50000000000F5F5F5F500000000000000000000F500F500F5000000000000000000000000
310
00000000000000F50000000000000000000000000000000000000000000000000000000000000000000000000000000000000000000000000000000000000000000000000000000000000000000000000000000000000000000000000000000000BE0000000000000000000000000000000000000000000000000000000000
310
00000000000000000000000000000000000000000000000000000000000000000000000000000000000000000000000000000000000000F5000000000000000000000000000000000000F500F50000000000000000000000F5F5F500000000000000000000000000000000000000000000F5F5F5F500000000000000000000
310
000000000000000000F50000000000000000000000000000000000000000000000000000000000000000000000000000000000000000000000000000000000000000000000000000000000000000000000000000000000000000000000000000000000BE000000000000000000000000000000000000000000000000000000
310
000000000000000000000000000000000000000000000000000000000000000000000000000000000000000000000000000000000000000000F50000000000000000000000000000000000000000F50000000000000000000000F500000000000000000000F5F5F5F5000000000000000000000000F5000000000000000000
310
0000000000000000000000F50000000000000000000000000000000000000000000000000000000000000000000000000000000000000000000000000000000000000000000000000000000000000000000000000000000000000000000000000000000000BE00000000000000000000000000000000000000000000000000
310
0000000000000000000000000000000000000000000000000000000000000000000000000000000000000000000000000000000000000000000000F5000000000000000000000000000000000000F5F5F5000000000000000000000000F5000000F500000000F500F500F500000000000000000000F5F5F500000000000000
310
00000000000000000000000000F50000000000000000000000000000000000000000000000000000000000000000000000000000000000000000000000000000000000000000000000000000000000000000000000000000000000000000000000000000000000BE0000000000000000000000000000000000000000000000
310
00000000000000000000000000000000000000000000000000000000000000000000000000000000000000000000000000000000000000000000000000F50000000000000000000000000000000000F5F5F5F5F500000000000000000000F5F5F5F5F5F500000000F500F5F5F5000000000000000000F5F5F5F5F500000000
310
000000000000000000000000000000F50000000000000000000000000000000000000000000000000000000000000000000000000000000000000000000000000000000000000000000000000000000000000000000000000000000000000000000000000000000000BE000000000000000000000000000000000000000000
310
000000000000000000000000000000000000000000000000000000000000000000000000000000000000000000000000000000000000000000000000000000F50000000000000000000000000000000000000000F50000000000000000000000000000000000000000000000000000000000000000000000000000F5000000
310
0000000000000000000000000000000000F50000000000000000000000000000000000000000000000000000000000000000000000000000000000000000000000000000000000000000000000000000000000000000000000000000000000000000000000000000000000BE00000000000000000000000000000000000000
310
0000000000000000000000000000000000000000000000000000000000000000000000000000000000000000000000000000000000000000000000000000000000F50000000000000000000000000000000000000000000000000000000000000000F5F5F500F50000000000F5F500F5000000000000000000000000000000
310
00000000000000000000000000000000000000F50000000000000000000000000000000000000000000000000000000000000000000000000000000000000000000000000000000000000000000000000000000000000000000000000000000000000000000000000000000000BE0000000000000000000000000000000000
310
00000000000000000000000000000000000000000000000000000000000000000000000000000000000000000000000000000000000000000000000000000000000000F50000000000000000000000000000000000F5F5F5F5F500000000000000000000F500F50000F500000000F5F50000F5000000000000000000F5F5F5
310
F5F500000000000000000000000000000000000000F50000000000000000000000000000000000000000000000000000000000000000000000000000000000000000000000000000000000000000000000000000000000000000000000000000000000000000000000000000000000BE000000000000000000000000000000
310
000000000000000000000000000000000000000000000000000000000000000000000000000000000000000000000000000000000000000000000000000000000000000000F50000000000000000000000000000000000F5000000F500000000000000000000F500F50000F500000000F5F50000F5000000000000000000F5
310
000000F500000000000000000000000000000000000000F50000000000000000000000000000000000000000000000000000000000000000000000000000000000000000000000000000000000000000000000000000000000000000000000000000000000000000000000000000000000BE00000000000000000000000000
310
0000000000000000000000000000000000000000000000000000000000000000000000000000000000000000000000000000000000000000000000000000000000000000000000F5000000000000000000000000000000000000F5F5F50000000000000000000000F500F5F5F50000000000F500F5F5000000000000000000
310
0000F5F5F5F500000000000000000000000000000000000000F50000000000000000000000000000000000000000000000000000000000000000000000000000000000000000000000000000000000000000000000000000000000000000000000000000000000000000000000000000000000BE0000000000000000000000
310
00000000000000000000000000000000000000000000000000000000000000000000000000000000000000000000000000000000000000000000000000000000000000000000000000F500000000000000000000000000000000000000F50000000000000000000000000000F5000000000000000000F50000000000000000
310
0000000000F5000000000000000000000000000000000000000000F50000000000000000000000000000000000000000000000000000000000000000000000000000000000000000000000000000000000000000000000000000000000000000000000000000000000000000000000000000000000BE000000000000000000
310
000000000000000000000000000000000000000000000000000000000000000000000000000000000000000000000000000000000000000000000000000000000000000000000000000000F500000000000000000000000000000000000000F50000000000000000000000000000F5000000000000000000F5000000000000
310
00000000000000F5000000000000000000000000000000000000000000F50000000000000000000000000000000000000000000000000000000000000000000000000000000000000000000000000000000000000000000000000000000000000000000000000000000000000000000000000000000000BE00000000000000
310
0000000000000000000000000000000000000000000000000000000000000000000000000000000000000000000000000000000000000000000000000000000000000000000000000000000000F50000000000000000000000000000000000F5F5F50000000000000000000000000000F5000000000000000000F500000000
310
000000000000000000F5F5F500000000000000000000000000000000000000F50000000000000000000000000000000000000000000000000000000000000000000000000000000000000000000000000000000000000000000000000000000000000000000000000000000000000000000000000000000000BE0000000000
310
00000000000000000000000000000000000000000000000000000000000000000000000000000000000000000000000000000000000000000000000000000000000000000000000000000000000000F5000000000000000000000000F5F5F5F5F50000000000000000000000000000000000F5000000000000000000F50000
310
0000000000000000000000000000F5F5F5F5F50000000000000000000000000000F50000000000000000000000000000000000000000000000000000000000000000000000000000000000000000000000000000000000000000000000000000000000000000000000000000000000000000000000000000000000BE000000
310
000000000000000000000000000000000000000000000000000000000000000000000000000000000000000000000000000000000000000000000000000000000000000000000000000000000000000000F50000000000000000F5F5F5F500000000000000000000000000000000000000000000F5000000000000000000F5
310
000000000000000000000000000000000000000000F5F5F5F5F5000000000000000000F50000000000000000000000000000000000000000000000000000000000000000000000000000000000000000000000000000000000000000000000000000000000000000000000000000000000000000000000000000000000BE00
310
0000000000000000000000000000000000000000000000000000000000000000000000000000000000000000000000000000000000000000000000000000000000000000000000000000000000000000000000F50000000000F5F5F50000000000000000000000000000000000000000000000000000F50000000000000000
310
00F50000000000000000000000000000000000000000000000000000F5F5F5000000000000F50000000000000000000000000000000000000000000000000000000000000000000000000000000000000000000000000000000000000000000000000000000000000000000000000000000000000000000000000000000000
310
BE000000000000000000000000000000000000000000000000000000000000000000000000000000000000000000000000000000000000000000000000000000000000000000000000000000000000000000000000F50000000000F500000000000000000000000000000000000000000000000000000000F5000000000000
310
000000F500000000000000000000000000000000000000000000000000000000F5000000000000F5000000000000000000000000000000000000000000000000000000000000000000000000000000000000000000000000000000000000000000000000000000000000000000000000000000000000000000000000000000
310
0000BE000000000000000000000000000000000000000000000000000000000000000000000000000000000000000000000000000000000000000000000000000000000000000000000000000000000000000000000000F50000000000F500000000000000000000000000000000000000000000000000000000F500000000
310
0000000000F500000000000000000000000000000000000000000000000000000000F5000000000000F500000000000000000000000000000000000000000000000000000000000000000000000000000000000000000000000000000000000000000000000000000000000000000000000000000000000000000000000000
310
00000000BE000000000000000000000000000000000000000000000000000000000000000000000000000000000000000000000000000000000000000000000000000000000000000000000000000000000000000000000000F50000000000F500000000000000000000000000000000000000000000000000000000F50000
310
00000000000000F500000000000000000000000000000000000000000000000000000000F5000000000000F50000000000000000000000000000000000000000000000000000000000000000000000000000000000000000000000000000000000000000000000000000000000000000000000000000000000000000000000
310
000000000000BE000000000000000000000000000000000000000000000000000000000000000000000000000000000000000000000000000000000000000000000000000000000000000000000000000000000000000000000000F50000000000F500000000000000000000000000000000000000000000000000000000F5
310
000000000000000000F500000000000000000000000000000000000000000000000000000000F5000000000000F5000000000000000000000000000000000000000000000000000000000000000000000000000000000000000000000000000000000000000000000000000000000000000000000000000000000000000000
310
0000000000000000BE00000000000000000000000000000000000000000000000000000000000000000000000000000000000000000000000000000000000000F5F5F5F500F5F500F5F5F5F5F500F50000F5F5F5F50000000000000000F50000000000F5000000000000000000000000000000000000000000000000000000
310
00F5000000000000000000F500000000000000000000000000000000000000000000000000000000F5000000000000F500000000000000000000000000000000000000000000000000000000000000000000000000000000000000000000000000000000000000000000000000000000000000000000000000000000000000
310
00000000000000000000BE00000000000000000000000000000000000000000000000000000000000000000000000000000000000000000000000000000000000000F500000000F5000000000000F50000F500000000F50000000000000000F50000000000F500000000000000000000000000000000000000000000000000
310
000000000000000000000000000000000000000000000000000000000000000000000000000000000000F5000000000000F50000000000000000000000000000000000000000000000000000000000000000000000000000000000000000000000000000000000000000000000000000000000000000000000000000000000
310
000000000000000000000000BE0000000000000000000000000000000000000000000000000000000000000000000000000000000000000000000000000000000000000000F5F5F500F5000000000000F50000F5000000F5F5F5F5F5F5F5F5F5F5F5F5F5F5F5F5F5F5F5F5F5F5F5F5F5F5F5F5F5F5F5F5F5F5F5F5F5F5F5F5
310
F5F5F5F5F5F5F5F5F5F5F5F5F5F5F5F500000000000000000000000000000000000000000000000000000000F5000000000000F5000000000000000000000000000000000000000000000000000000000000000000000000000000000000000000000000000000000000000000000000000000000000000000000000000000
310
0000000000000000000000000000BE00000000000000000000000000000000000000000000000000000000000000000000000000000000000000000000000000000000000000F50000F500F5000000F5F5F500000000F5F50000F50000000000000000F500000000F5F5F50000000000000000000000000000000000000000
310
00000000000000F5000000000000000000F500000000000000000000000000000000000000000000000000000000F5F50000000000F500000000000000F5F5F5F5F5F5F5F500F5F500000000F50000F50000000000000000000000000000000000000000000000000000000000000000000000000000000000000000000000
310
00000000000000000000000000000000BE0000000000000000000000000000000000000000000000000000000000000000000000000000000000000000000000000000000000000000F5F5F500F5000000F5F5F5F5F5F5F5F500F5F5F50000000000000000F500000000F500F5000000000000000000000000000000000000
310
000000000000000000F5000000000000000000F5000000000000000000000000000000000000000000000000000000F500F5F500000000F500000000000000F500000000F50000000000F500F5F5F5F50000F5F500000000000000000000000000000000000000000000000000000000000000000000000000000000000000
310
000000000000000000000000000000000000BE000000000000000000000000000000000000000000000000000000000000000000000000000000000000000000000000000000000000000000000000000000000000000000000000000000000000000000000000F500000000F5F5F500000000000000000000000000000000
310
0000000000000000000000F5000000000000000000F5000000000000000000000000000000000000000000000000000000F5F500F5F5F5F5F5F5F5F5F5F5F5F5F500F5F5F500F5000000F5F5F50000F5F500F5F5F5F50000000000000000000000000000000000000000000000000000000000000000000000000000000000
310
0000000000000000000000000000000000000000BE000000000000000000000000000000000000000000000000000000000000000000000000000000000000000000000000000000000000000000000000000000000000000000000000000000000000000000000000F500000000F5F5F50000000000000000000000000000
310
00000000000000000000000000F5000000000000000000F5000000000000000000000000000000000000000000000000000000F5F5F50000000000F500000000000000F50000F5F5F5000000F500F50000F5F500F50000F5000000000000000000000000000000000000000000000000000000000000000000000000000000
310
00000000000000000000000000000000000000000000BE000000000000000000000000000000000000000000000000000000000000000000000000000000000000000000000000000000000000000000000000000000000000000000000000000000000000000000000000F500000000000000000000000000000000000000
310
000000000000000000000000000000F5000000000000000000F50000000000000000000000000000000000000000000000000000000000000000000000F50000000000000000F5F50000F5000000F5F5F5000000F50000F5F50000000000000000000000000000000000000000000000000000000000000000000000000000
310
000000000000000000000000000000000000000000000000BE000000000000000000000000000000000000000000000000000000000000000000000000000000000000000000000000000000000000000000000000000000000000000000000000000000000000000000000000F50000000000000000000000000000000000
310
0000000000000000000000000000000000F5000000000000000000F50000000000000000000000000000000000000000000000000000000000000000000000F5000000000000000000000000000000000000000000000000000000000000000000000000000000000000000000000000000000000000000000000000000000
310
0000000000000000000000000000000000000000000000000000BE000000000000000000000000000000000000000000000000000000000000000000000000000000000000000000000000000000000000F5F5F5F5F5F5F5F500F500F5F5000000F50000F500000000000000000000F5000000000000000000000000000000
310
00000000000000000000000000000000000000F5000000000000000000F50000000000000000000000000000000000000000000000000000000000000000000000F500000000000000000000000000000000000000000000000000000000000000000000000000000000000000000000000000000000000000000000000000
310
00000000000000000000000000000000000000000000000000000000BE000000000000000000000000000000000000000000000000000000000000000000000000000000000000000000000000000000000000F5000000F500000000F5F50000F50000F50000F500000000000000000000F500000000000000000000000000
310
000000000000000000000000000000000000000000F5000000000000000000F50000000000000000000000000000000000000000000000000000000000000000000000F50000000000000000000000000000000000000000000000000000000000000000000000000000000000000000000000000000000000000000000000
310
000000000000000000000000000000000000000000000000000000000000BE000000000000000000000000000000000000000000000000000000000000000000000000000000000000000000000000000000000000F5F5F500F5F5F5000000F5F5F5F5F5F5F5F50000F500F5F5F5F5F5F5F5F5F5F5F5F500F5F5F5F5F5F5F5
310
F5F5F5F5F5F5F5F5F5F5F5F5F5F5F5F5F5F5F5F5F5F5F5F5000000000000000000F5F5F5F5F5F5F5F5F5F5F5F5F5F5F5F5F5F5F5F5F5F5F5F5F5F5F5F5F5F5F50000000000F5000000000000000000000000000000000000000000000000000000000000000000000000000000000000000000000000000000000000000000
310
0000000000000000000000000000000000000000000000000000000000000000BE000000000000000000000000000000000000000000000000000000000000000000000000000000000000000000000000000000000000000000F5000000F50000F50000F500F5F5000000F5000000000000000000F500000000F500000000
310
0000000000000000000000000000000000000000000000000000000000000000000000000000000000000000000000000000000000000000000000000000000000F50000000000F500000000000000000000000000000000000000000000000000000000000000000000000000000000000000000000000000000000000000
310
00000000000000000000000000000000000000000000000000000000000000000000BE000000000000000000000000000000000000000000000000000000000000000000000000000000000000000000000000000000000000F50000F5F50000F50000F50000F500F5F500000000F50000000000000000F500000000F50000
310
00000000000000000000000000000000000000000000000000000000000000000000000000000000000000000000000000000000000000000000000000000000000000F50000000000F50000000000000000000000000000000000000000000000000000000000000000000000000000000000000000000000000000000000
310
000000000000000000000000000000000000000000000000000000000000000000000000BE00000000000000000000000000000000000000000000000000000000000000000000000000000000000000000000000000000000000000F5F50000F5F500000000F5F5000000F500F5F5F5F50000000000000000F500000000F5
310
000000000000000000000000000000000000000000000000000000000000000000000000000000000000000000000000000000000000000000000000000000000000000000F50000000000F5000000000000000000000000000000000000000000000000000000000000000000000000000000000000000000000000000000
310
0000000000000000000000000000000000000000000000000000000000000000000000000000BE000000000000000000000000000000000000000000000000000000000000000000000000000000000000000000000000000000000000000000000000000000000000000000000000000000000000000000000000F5000000
310
00F5000000000000000000000000000000000000000000000000000000000000000000000000000000000000000000000000000000000000000000000000000000000000000000F50000000000F500000000000000000000000000000000000000000000000000000000000000000000000000000000000000000000000000
310
00000000000000000000000000000000000000000000000000000000000000000000000000000000BE000000000000000000000000000000000000000000000000000000000000000000000000000000000000000000000000000000000000000000000000000000000000000000000000000000000000000000000000F500
310
000000F5000000000000000000000000000000000000000000000000000000000000000000000000000000000000000000000000000000000000000000000000000000000000000000F50000000000F50000000000000000000000000000000000000000000000000000000000000000000000000000000000000000000000
310
000000000000000000000000000000000000000000000000000000000000000000000000000000000000BE000000000000000000000000000000000000000000000000000000000000000000000000000000000000000000000000000000000000000000000000000000000000000000000000000000000000000000000000
310
F500000000F5000000000000000000000000000000000000000000000000000000000000000000000000000000000000000000000000000000000000000000000000000000000000000000F50000000000F5000000000000000000000000000000000000000000000000000000000000000000000000000000000000000000
310
0000000000000000000000000000000000000000000000000000000000000000000000000000000000000000BE00000000000000000000000000000000000000000000000000000000000000000000000000000000000000000000000000000000000000000000000000000000000000000000000000000000000000000000
310
0000F500000000F5000000000000000000000000000000000000000000000000000000000000000000000000000000000000000000000000000000000000000000000000000000000000000000F50000000000F500000000000000000000000000000000000000000000000000000000000000000000000000000000000000
310
00000000000000000000000000000000000000000000000000000000000000000000000000000000000000000000BE0000000000000000000000000000000000000000000000000000000000000000000000000000000000000000000000000000000000000000000000000000000000000000000000000000000000000000
310
00000000F500000000F5000000000000000000000000000000000000000000000000000000000000000000000000000000000000000000000000000000000000000000000000000000000000000000F50000000000F50000000000000000000000000000000000000000000000000000000000000000000000000000000000
310
000000000000000000000000000000000000000000000000000000000000000000000000000000000000000000000000BE000000000000000000000000000000000000000000000000000000000000000000000000000000000000000000000000000000000000000000000000000000000000000000000000000000000000
310
000000000000F500000000F5000000000000000000000000000000000000000000000000000000000000000000000000000000000000000000000000000000000000000000000000000000000000000000F50000000000F5000000000000000000000000000000000000000000000000000000000000000000000000000000
310
0000000000000000000000000000000000000000000000000000000000000000000000000000000000000000000000000000BE00000000000000000000000000000000000000000000000000000000000000000000000000000000000000000000000000000000000000000000000000000000000000000000000000000000
310
0000000000000000F500000000F5000000000000000000000000000000000000000000000000000000000000000000000000000000000000000000000000000000000000000000000000000000000000000000F50000000000F500000000000000000000000000000000000000000000000000000000000000000000000000
310
00000000000000000000000000000000000000000000000000000000000000000000000000000000000000000000000000000000BE0000000000000000000000000000000000000000000000000000000000000000000000000000000000000000000000000000000000000000000000000000000000000000000000000000
310
00000000000000000000F500000000F5000000000000000000000000000000000000000000000000000000000000000000000000000000000000000000000000000000000000000000000000000000000000000000F50000000000F50000000000000000000000000000000000000000000000000000000000000000000000
310
000000000000000000000000000000000000000000000000000000000000000000000000000000000000000000000000000000000000BE000000000000000000000000000000000000000000000000000000000000000000000000000000000000000000000000000000000000000000000000000000000000000000000000
310
000000000000000000000000F500000000F5000000000000000000000000000000000000000000000000000000000000000000000000000000000000000000000000000000000000000000000000000000000000000000F50000000000F5000000000000000000000000000000000000000000000000000000000000000000
310
0000000000000000000000000000000000000000000000000000000000000000000000000000000000000000000000000000000000000000BE00000000000000000000000000000000000000000000000000000000000000000000000000000000000000000000000000000000000000000000000000000000000000000000
310
0000000000000000000000000000F500000000F5000000000000000000000000000000000000000000000000000000000000000000000000000000000000000000000000000000000000000000000000000000000000000000F50000000000F500000000000000000000000000000000000000000000000000000000000000
310
00000000000000000000000000000000000000000000000000000000000000000000000000000000000000000000000000000000000000000000BE0000000000000000000000000000000000000000000000000000000000000000000000000000000000000000000000000000000000000000000000000000000000000000
310
00000000000000000000000000000000F500000000F5000000000000000000000000000000000000000000000000000000000000000000000000000000000000000000000000000000000000000000000000000000000000000000F50000000000F50000000000000000000000000000000000000000000000000000000000
310
000000000000000000000000000000000000000000000000000000000000000000000000000000000000000000000000000000000000000000000000BE000000000000000000000000000000000000000000000000000000000000000000000000000000000000000000000000000000000000000000000000000000000000
310
000000000000000000000000000000000000F500000000F5000000000000000000000000000000000000000000000000000000000000000000000000000000000000000000000000000000000000000000000000000000000000000000F50000000000F5000000000000000000000000000000000000000000000000000000
310
0000000000000000000000000000000000000000000000000000000000000000000000000000000000000000000000000000000000000000000000000000BE00000000000000000000000000000000000000000000000000000000000000000000000000000000000000000000000000000000000000000000000000000000
310
0000000000000000000000000000000000000000F500000000F5000000000000000000000000000000000000000000000000000000000000000000000000000000000000000000000000000000000000000000000000000000000000000000F50000000000F500000000000000000000000000000000000000000000000000
310
00000000000000000000000000000000000000000000000000000000000000000000000000000000000000000000000000000000000000000000000000000000BE0000000000000000000000000000000000000000000000000000000000000000000000000000000000000000000000000000000000000000000000000000
310
00000000000000000000000000000000000000000000F500000000F5000000000000000000000000000000000000000000000000000000000000000000000000000000000000000000000000000000000000000000000000000000000000000000F50000000000F50000000000000000000000000000000000000000000000
310
000000000000000000000000000000000000000000000000000000000000000000000000000000000000000000000000000000000000000000000000000000000000BE000000000000000000000000000000000000000000000000000000000000000000000000000000000000000000000000000000000000000000000000
310
000000000000000000000000000000000000000000000000F500000000F5000000000000000000000000000000000000000000000000000000000000000000000000000000000000000000000000000000000000000000000000000000000000000000F50000000000F5000000000000000000000000000000000000000000
310
0000000000000000000000000000000000000000000000000000000000000000000000000000000000000000000000000000000000000000000000000000000000000000BE00000000000000000000000000000000000000000000000000000000000000000000000000000000000000000000000000000000000000000000
310
0000000000000000000000000000000000000000000000000000F500000000F5000000000000000000000000000000000000000000000000000000000000000000000000000000000000000000000000000000000000000000000000000000000000000000F50000000000F500000000000000000000000000000000000000
310
00000000000000000000000000000000000000000000000000000000000000000000000000000000000000000000000000000000000000000000000000000000000000000000BE0000000000000000000000000000000000000000000000000000000000000000000000000000000000000000000000000000000000000000
310
00000000000000000000000000000000000000000000000000000000F500000000F5000000000000000000000000000000000000000000000000000000000000000000000000000000000000000000000000000000000000000000000000000000000000000000F50000000000F50000000000000000000000000000000000
310
000000000000000000000000000000000000000000000000000000000000000000000000000000000000000000000000000000000000000000000000000000000000000000000000BE000000000000000000000000000000000000000000000000000000000000000000000000000000000000000000000000000000000000
310
000000000000000000000000000000000000000000000000000000000000F500000000F5000000000000000000000000000000000000000000000000000000000000000000000000000000000000000000000000000000000000000000000000000000000000000000F50000000000F5000000000000000000000000000000
310
0000000000000000000000000000000000000000000000000000000000000000000000000000000000000000000000000000000000000000000000000000000000000000000000000000BE00000000000000000000000000000000000000000000000000000000000000000000000000000000000000000000000000000000
310
0000000000000000000000000000000000000000000000000000000000000000F500000000F5000000000000000000000000000000000000000000000000000000000000000000000000000000000000000000000000000000000000000000000000000000000000000000F50000000000F500000000000000000000000000
310
00000000000000000000000000000000000000000000000000000000000000000000000000000000000000000000000000000000000000000000000000000000000000000000000000000000BE0000000000000000000000000000000000000000000000000000000000000000000000000000000000000000000000000000
310
00000000000000000000000000000000000000000000000000000000000000000000F500000000F5000000000000000000000000000000000000000000000000000000000000000000000000000000000000000000000000000000000000000000000000000000000000000000F50000000000F50000000000000000000000
310
000000000000000000000000000000000000000000000000000000000000000000000000000000000000000000000000000000000000000000000000000000000000000000000000000000000000BE000000000000000000000000000000000000000000000000000000000000000000000000000000000000000000000000
310
000000000000000000000000000000000000000000000000000000000000000000000000F500000000F5000000000000000000000000000000000000000000000000000000000000000000000000000000000000000000000000000000000000000000000000000000000000000000F50000000000F5000000000000000000
310
0000000000000000000000000000000000000000000000000000000000000000000000000000000000000000000000000000000000000000000000000000000000000000000000000000000000000000BE00000000000000000000000000000000000000000000000000000000000000000000000000000000000000000000
310
0000000000000000000000000000000000000000000000000000000000000000000000000000F500000000F5000000000000000000000000000000000000000000000000000000000000000000000000000000000000000000000000000000000000000000000000000000000000000000F50000000000F500000000000000
310
00000000000000000000000000000000000000000000000000000000000000000000000000000000000000000000000000000000000000000000000000000000000000000000000000000000000000000000BE0000000000000000000000000000000000000000000000000000000000000000000000000000000000000000
310
00000000000000000000000000000000000000000000000000000000000000000000000000000000F500000000F5000000000000000000000000000000000000000000000000000000000000000000000000000000000000000000000000000000000000000000000000000000000000000000F50000000000F50000000000
310
000000000000000000000000000000000000000000000000000000000000000000000000000000000000000000000000000000000000000000000000000000000000000000000000000000000000000000000000BE000000000000000000000000000000000000000000000000000000000000000000000000000000000000
310
000000000000000000000000000000000000000000000000000000000000000000000000000000000000F500000000F5000000000000000000000000000000000000000000000000000000000000000000000000000000000000000000000000000000000000000000000000000000000000000000F50000000000F5000000
310
0000000000000000000000000000000000000000000000000000000000000000000000000000000000000000000000000000000000000000000000000000000000000000000000000000000000000000000000000000BE00000000000000000000000000000000000000000000000000000000000000000000000000000000
310
0000000000000000000000000000000000000000000000000000000000000000000000000000000000000000F500000000F5000000000000000000000000000000000000000000000000000000000000000000000000000000000000000000000000000000000000000000000000000000000000000000F50000000000F500
310
00000000000000000000000000000000000000000000000000000000000000000000000000000000000000000000000000000000000000000000000000000000000000000000000000000000000000000000000000000000BE0000000000000000000000000000000000000000000000000000000000000000000000000000
310
00000000000000000000000000000000000000000000000000000000000000000000000000000000000000000000F500000000F5000000000000000000000000000000000000000000000000000000000000000000000000000000000000000000000000000000000000000000000000000000000000000000F50000000000
310
F50000000000000000000000000000000000000000000000000000000000000000000000000000000000000000000000000000000000000000000000000000000000000000000000000000000000000000000000000000000000BE000000000000000000000000000000000000000000000000000000000000000000000000
310
000000000000000000000000000000000000000000000000000000000000000000000000000000000000000000000000F500000000F5000000000000000000000000000000000000000000000000000000000000000000000000000000000000000000000000000000000000000000000000000000000000000000F5000000
310
0000F50000000000000000000000000000000000000000000000000000000000000000000000000000000000000000000000000000000000000000000000000000000000000000000000000000000000000000000000000000000000BE00000000000000000000000000000000000000000000000000000000000000000000
310
0000000000000000000000000000000000000000000000000000000000000000000000000000000000000000000000000000F500000000F5000000000000000000000000000000000000000000000000000000000000000000000000000000000000000000000000000000000000000000000000000000000000000000F500
310
00000000F50000000000000000000000000000000000000000000000000000000000000000000000000000000000000000000000000000000000000000000000000000000000000000000000000000000000000000000000000000000000BE0000000000000000000000000000000000000000000000000000000000000000
310
000000000000000000000000000000000000000000000000F5F5F5F500F5000000F500F5F50000F5F500F5F50000000000000000F500000000F5000000000000000000000000000000000000000000000000000000000000000000000000000000000000000000000000000000000000000000000000000000000000000000
310
F50000000000F50000000000000000000000000000000000000000000000000000000000000000000000000000000000000000000000000000000000000000000000000000000000000000000000000000000000000000000000000000000000BE000000000000000000000000000000000000000000000000000000000000
310
0000000000000000000000000000000000000000000000000000F50000000000F50000F5F50000F5F500F50000F50000000000000000F500000000F500000000000000000000000000000000000000000000000000000000000000000000000000000000000000000000000000000000000000000000000000000000000000
310
0000F50000000000F50000000000000000000000000000000000000000000000000000000000000000000000000000000000000000000000000000000000000000000000000000000000000000000000000000000000000000000000000000000000BE00000000000000000000000000000000000000000000000000000000
310
0000000000000000000000000000000000000000000000000000000000F5F5000000F50000000000F500F500F50000F5F5F5F5F5F5F5F5F5F5F5F5F500F5F5F5F5F5F5F5F5F5F5F5F5F5F5F5F5F5F5F5F5F5F5F5F5F5F5F5F5F5F5F5F5F5F5F5F5F5F5F5F5F5F5F5F5F5F5F5F5F5F5F5F5F5F5F5F5F5F5F5F5F5F5F5F5F5F5
310
F5F5F5F5F50000000000F50000000000000000000000000000000000000000000000000000000000000000000000000000000000000000000000000000000000000000000000000000000000000000000000000000000000000000000000000000000000BE0000000000000000000000000000000000000000000000000000
310
000000000000000000000000000000000000000000000000000000000000F50000F5000000F50000F50000F5F500F500F5F50000000000000000F50000000000000000000000000000000000000000000000000000000000000000000000000000000000000000000000000000000000000000000000000000000000000000
310
000000000000000000000000F50000000000000000000000000000000000000000000000000000000000000000000000000000000000000000000000000000000000000000000000000000000000000000000000000000000000000000000000000000000000BE000000000000000000000000000000000000000000000000
310
000000000000000000000000000000000000000000000000000000000000000000F5F500F5F5F5F5000000F5F50000F5F50000F50000000000000000F500000000F500000000000000000000000000000000000000000000000000000000000000000000000000000000000000000000000000000000000000000000000000
310
0000000000000000F50000000000F50000000000000000000000000000000000000000000000000000000000000000000000000000000000000000000000000000000000000000000000000000000000000000000000000000000000000000000000000000000000BE00000000000000000000000000000000000000000000
310
0000000000000000000000000000000000000000000000000000000000000000000000000000000000000000000000000000000000000000000000000000F50000F500F50000000000000000000000000000000000000000000000000000000000000000000000000000000000000000000000000000000000000000000000
310
00000000000000000000F500F5000000F500000000000000F5F5F5F500F5000000F500F500000000F500F5F5F5F5000000000000000000000000000000000000000000000000000000000000000000000000000000000000000000000000000000000000000000000000BE0000000000000000000000000000000000000000
310
00000000000000000000000000000000000000000000000000000000000000000000000000000000000000000000000000000000000000000000000000000000F500F5F5F5F5000000000000000000000000000000000000000000000000000000000000000000000000000000000000000000000000000000000000000000
310
000000000000000000000000F5F5F5F5F500F500000000000000F50000000000F50000000000F5F5F5F5F5F5F50000F5000000000000000000000000000000000000000000000000000000000000000000000000000000000000000000000000000000000000000000000000BE000000000000000000000000000000000000
310
000000000000000000000000000000000000000000000000000000000000000000000000000000000000000000000000000000000000000000000000000000000000F500F5F5F5F500000000000000000000000000000000000000000000000000000000000000000000000000000000000000000000000000000000000000
310
0000000000000000000000000000F5F5F500F5F5F5F5F5F5F5F5F5F500F5F5000000F500000000F5F5F500F5F500F5F5F5F5000000000000000000000000000000000000000000000000000000000000000000000000000000000000000000000000000000000000000000000000BE00000000000000000000000000000000
310
0000000000000000000000000000000000000000000000000000000000000000000000000000000000000000000000000000000000000000000000000000000000000000F500F5F5F5F50000000000000000000000000000000000000000000000000000000000000000000000000000000000000000000000000000000000
310
00000000000000000000000000000000F5F5F5F50000F500000000000000F50000F5000000F50000F50000F500F5F500F5000000000000000000000000000000000000000000000000000000000000000000000000000000000000000000000000000000000000000000000000000000BE0000000000000000000000000000
310
00000000000000000000000000000000000000000000000000000000000000000000000000000000000000000000000000000000000000000000000000000000000000000000F50000F500F5000000000000000000000000000000000000000000000000000000000000000000000000000000000000000000000000000000
310
000000000000000000000000000000000000F500F5000000F50000000000000000F5F500F5F5F5F5000000F5F5000000F50000F5F5F5000000000000000000000000000000000000000000000000000000000000000000000000000000000000000000000000000000000000000000000000BE000000000000000000000000
310
000000000000000000000000000000000000000000000000000000000000000000000000000000000000000000000000000000000000000000000000000000000000000000000000F50000F500F500000000000000000000000000000000000000000000000000000000000000000000000000000000000000000000000000
310
0000000000000000000000000000000000000000F500F5000000F50000000000000000000000000000000000000000000000000000000000000000000000000000000000000000000000000000000000000000000000000000000000000000000000000000000000000000000000000000000000BE00000000000000000000
310
0000000000000000000000000000000000000000000000000000000000000000000000000000000000000000000000000000000000000000000000000000000000000000000000000000F50000F500F50000000000000000000000000000000000000000000000000000000000000000000000000000000000000000000000
310
00000000000000000000000000000000000000000000F500F5000000F500000000000000F5F5F5F500F5F50000F500F5000000F5F50000F5F500000000000000000000000000000000000000000000000000000000000000000000000000000000000000000000000000000000000000000000000000BE0000000000000000
310
00000000000000000000000000000000000000000000000000000000000000000000000000000000000000000000000000000000000000000000000000000000000000000000000000000000F50000F500F5000000000000000000000000000000000000000000000000000000000000000000000000000000000000000000
310
000000000000000000000000000000000000000000000000F500F5000000F500000000000000F5000000F50000F500F50000F500F50000F5F50000F5000000000000000000000000000000000000000000000000000000000000000000000000000000000000000000000000000000000000000000000000BE000000000000
310
000000000000000000000000000000000000000000000000000000000000000000000000000000000000000000000000000000000000000000000000000000000000000000000000000000000000F5F5F5F5F5F5F5F5F5F5F5F5F5F5F5F5F5F5F5F5F5F5F5F5F5F5F5F5F5F5F5F5F5F5F5F5F5F5F5F5F5F5F5F5F5F5F5F5F5
310
F5F5F5F5F5F5F5F5F5F5F5F5F5F5F5F5F5F5F5F5F5F5F5F5F5F5F5F5F5F5F5F5F500F5F5F5F5F5F500F5F50000F5F50000000000F500000000F5F50000F5000000000000000000000000000000000000000000000000000000000000000000000000000000000000000000000000000000000000000000000000BE00000000
310
0000000000000000000000000000000000000000000000000000000000000000000000000000000000000000000000000000000000000000000000000000000000000000000000000000000000000000000000F500F50000000000000000000000000000000000000000000000000000000000000000000000000000000000
310
00000000000000000000000000000000000000000000000000000000F500F50000000000000000000000F50000F5F50000F50000000000F5F5F5F500F50000F5000000000000000000000000000000000000000000000000000000000000000000000000000000000000000000000000000000000000000000000000BE0000
310
00000000000000000000000000000000000000000000000000000000000000000000000000000000000000000000000000000000000000000000000000000000000000000000000000000000000000000000000000F500F5000000000000000000000000000000000000000000000000000000000000000000000000000000
310
000000000000000000000000000000000000000000000000000000000000F500F5000000F50000000000000000F5F50000F5F5000000F5F5F5F5F5F5F5F500F5F500000000000000000000000000000000000000000000000000000000000000000000000000000000000000000000000000000000000000000000000000BE
310
000000000000000000000000000000000000000000000000000000000000000000000000000000000000000000000000000000000000000000000000000000000000000000000000000000000000000000000000000000F50000F5000000000000000000000000000000000000000000000000000000000000000000000000
310
00000000000000000000000000000000000000000000000000000000000000F500F500000000F500000000000000000000000000000000000000000000000000000000000000000000000000000000000000000000000000000000000000000000000000000000000000000000000000000000000000000000000000000000
310
00BE000000000000000000000000000000000000000000000000000000000000000000000000000000000000000000000000000000000000000000000000000000000000000000000000000000000000000000000000000000F5000000F5F50000000000000000000000000000000000000000000000000000000000000000
310
00000000000000000000000000000000000000000000000000000000000000F5F50000F500000000F50000000000000000000000000000000000000000000000000000000000000000000000000000000000000000000000000000000000000000000000000000000000000000000000000000000000000000000000000000
310
000000BE000000000000000000000000000000000000000000000000000000000000000000000000000000000000000000000000000000000000000000000000000000000000000000000000000000000000000000000000000000F50000000000F50000000000000000000000000000000000000000000000000000000000
310
0000000000000000000000000000000000000000000000000000000000000000F5000000F50000000000F5000000000000000000000000000000000000000000000000000000000000000000000000000000000000000000000000000000000000000000000000000000000000000000000000000000000000000000000000
310
0000000000BE000000000000000000000000000000000000000000000000000000000000000000000000000000000000000000000000000000000000000000000000000000000000000000000000000000000000000000000000000000F50000000000F5000000000000000000000000000000000000000000000000000000
310
00000000000000000000000000000000000000000000000000000000000000000000F5000000F50000000000F500000000000000000000000000000000000000000000000000000000000000000000000000000000000000000000000000000000000000000000000000000000000000000000000000000000000000000000
310
00000000000000BE000000000000000000000000000000000000000000000000000000000000000000000000000000000000000000000000000000000000000000000000000000000000000000000000000000000000000000000000000000F50000000000F500000000000000000000000000000000000000000000000000
310
000000000000000000000000000000000000000000000000000000000000000000000000F5000000F50000000000F50000000000000000000000000000000000000000000000000000000000000000000000000000000000000000000000000000000000000000000000000000000000000000000000000000000000000000
310
000000000000000000BE0000000000000000000000000000000000000000000000000000000000000000000000000000000000000000000000000000000000000000000000000000000000000000000000000000000000000000000000000000F5F5F5F500F5F5F5F500000000000000000000000000000000000000000000
310
000000000000000000000000000000000000000000000000000000000000000000000000F5F5000000F50000F500F5000000F500000000000000000000000000000000000000000000000000000000000000000000000000000000000000000000000000000000000000000000000000000000000000000000000000000000
310
0000000000000000000000BE00000000000000000000000000000000000000000000000000000000000000000000000000000000000000000000000000000000000000000000000000000000000000000000000000000000000000000000000000F5000000F500F5000000F500000000000000000000000000000000000000
310
00000000000000000000000000000000000000000000000000000000000000000000000000F50000F500F5F5F5F5F500F5F5F5F5F50000000000000000000000000000000000000000000000000000000000000000000000000000000000000000000000000000000000000000000000000000000000000000000000000000
310
00000000000000000000000000BE00000000000000000000000000000000000000000000000000000000000000000000000000000000000000000000000000000000000000000000000000000000000000000000000000000000000000000000000000F5F5F5F5F500F5F5F5F5F50000000000000000000000000000000000
310
000000000000000000000000000000000000000000000000000000000000000000000000000000F50000F500F5000000F50000000000F5000000000000000000000000000000000000000000000000000000000000000000000000000000000000000000000000000000000000000000000000000000000000000000000000
310
000000000000000000000000000000BE000000000000000000000000000000000000000000000000000000000000000000000000000000000000000000000000000000000000000000000000000000000000000000000000000000000000000000000000000000000000000000000000000000000000000000000000000000
310
000000000000000000000000000000000000000000000000000000000000000000000000000000000000F5F5F5F500F5F5F5F500F5F5F5F50000000000000000000000000000000000000000000000000000000000000000000000000000000000000000000000000000000000000000000000000000000000000000000000
310
0000000000000000000000000000000000BE0000000000000000000000000000000000000000000000000000000000000000000000000000000000000000000000000000000000000000000000000000000000000000000000000000000000000000000000000000000000F500000000F5F500000000000000000000000000
310
0000000000000000000000000000000000000000000000000000000000000000000000000000000000000000000000F5F5000000F500F5000000F50000000000000000000000000000000000000000000000000000000000000000000000000000000000000000000000000000000000000000000000000000000000000000
310
00000000000000000000000000000000000000BE00000000000000000000000000000000000000000000000000000000000000000000000000000000000000000000000000000000000000000000000000000000000000000000000000000000000000000000000000000000F50000F5000000000000000000000000000000
310
000000000000000000000000000000000000000000000000000000000000000000000000000000000000000000000000000000F5F5F5F500F5F5F5F500000000000000000000000000000000000000000000000000000000000000000000000000000000000000000000000000000000000000000000000000000000000000
310
000000000000000000000000000000000000000000BE0000000000000000000000000000000000000000000000000000000000000000000000000000000000000000000000000000000000000000000000000000000000000000000000000000000000000000000000000000F5F5F50000F5000000F5000000000000000000
310
0000000000000000000000000000000000000000000000000000000000000000000000000000000000000000000000F5F5F5F500F5000000F500000000F5F500000000000000000000000000000000000000000000000000000000000000000000000000000000000000000000000000000000000000000000000000000000
310
0000000000000000000000000000000000000000000000BE00000000000000000000000000000000000000000000000000000000000000000000000000000000000000000000000000000000000000000000000000000000000000000000000000000000000000000000000000F5F5F5F5F500F500F5F50000000000000000
310
00000000000000000000000000000000000000000000000000000000000000000000000000000000000000000000000000F50000F500F5000000000000000000000000000000000000000000000000000000000000000000000000000000000000000000000000000000000000000000000000000000000000000000000000
310
00000000000000000000000000000000000000000000000000BE00000000000000000000000000000000000000000000000000000000000000000000000000000000000000000000000000000000000000000000000000000000000000000000000000000000000000000000000000000000F50000F5F50000000000000000
310
000000000000000000000000000000000000000000000000000000000000000000000000000000000000000000000000000000F50000F5F500F500F5F50000F5F5F500000000000000000000000000000000000000000000000000000000000000000000000000000000000000000000000000000000000000000000000000
310
000000000000000000000000000000000000000000000000000000BE0000000000000000000000000000000000000000000000000000000000000000000000000000000000000000000000000000000000000000000000000000000000000000000000000000000000000000000000000000F5F5F5F500F5F5F5F500000000
310
000000000000000000000000000000000000000000000000000000000000000000000000000000000000000000000000000000000000F5F5F500F500F500F500F500F500F500000000000000000000000000000000000000000000000000000000000000000000000000000000000000000000000000000000000000000000
310
0000000000000000000000000000000000000000000000000000000000BE0000000000000000000000000000
  0
XRECORD
  5
857
102
{ACAD_REACTORS
330
555
102
}
330
555
100
AcDbXrecord
280
     1
102
MATERIAL
148
0.0
149
0.0
149
0.0
 93
        0
 94
      127
282
     0
 72
     0
 77
     0
171
     0
175
     0
179
     0
273
     0
  0
XRECORD
  5
557
102
{ACAD_REACTORS
330
555
102
}
330
555
100
AcDbXrecord
280
     1
270
     1
271
     1
  0
XRECORD
  5
556
102
{ACAD_REACTORS
330
555
102
}
330
555
100
AcDbXrecord
280
     1
270
     1
271
     1
  0
XRECORD
  5
55A
102
{ACAD_REACTORS
330
555
102
}
330
555
100
AcDbXrecord
280
     1
270
     1
271
     1
  0
XRECORD
  5
559
102
{ACAD_REACTORS
330
555
102
}
330
555
100
AcDbXrecord
280
     1
270
     1
271
     1
  0
XRECORD
  5
55B
102
{ACAD_REACTORS
330
555
102
}
330
555
100
AcDbXrecord
280
     1
270
     1
271
     1
  0
XRECORD
  5
558
102
{ACAD_REACTORS
330
555
102
}
330
555
100
AcDbXrecord
280
     1
270
     1
271
     1
  0
XRECORD
  5
856
102
{ACAD_REACTORS
330
54D
102
}
330
54D
100
AcDbXrecord
280
     1
102
MATERIAL
148
0.0
149
0.0
149
0.0
 93
        0
 94
      127
282
     0
 72
     0
 77
     0
171
     0
175
     0
179
     0
273
     0
  0
XRECORD
  5
54F
102
{ACAD_REACTORS
330
54D
102
}
330
54D
100
AcDbXrecord
280
     1
270
     1
271
     1
  0
XRECORD
  5
54E
102
{ACAD_REACTORS
330
54D
102
}
330
54D
100
AcDbXrecord
280
     1
270
     1
271
     1
  0
XRECORD
  5
552
102
{ACAD_REACTORS
330
54D
102
}
330
54D
100
AcDbXrecord
280
     1
270
     1
271
     1
  0
XRECORD
  5
551
102
{ACAD_REACTORS
330
54D
102
}
330
54D
100
AcDbXrecord
280
     1
270
     1
271
     1
  0
XRECORD
  5
553
102
{ACAD_REACTORS
330
54D
102
}
330
54D
100
AcDbXrecord
280
     1
270
     1
271
     1
  0
XRECORD
  5
550
102
{ACAD_REACTORS
330
54D
102
}
330
54D
100
AcDbXrecord
280
     1
270
     1
271
     1
  0
XRECORD
  5
858
102
{ACAD_REACTORS
330
55D
102
}
330
55D
100
AcDbXrecord
280
     1
102
MATERIAL
148
0.0
149
0.0
149
0.0
 93
        0
 94
      127
282
     0
 72
     0
 77
     0
171
     0
175
     0
179
     0
273
     0
  0
XRECORD
  5
55F
102
{ACAD_REACTORS
330
55D
102
}
330
55D
100
AcDbXrecord
280
     1
270
     1
271
     1
  0
XRECORD
  5
55E
102
{ACAD_REACTORS
330
55D
102
}
330
55D
100
AcDbXrecord
280
     1
270
     1
271
     1
  0
XRECORD
  5
562
102
{ACAD_REACTORS
330
55D
102
}
330
55D
100
AcDbXrecord
280
     1
270
     1
271
     1
  0
XRECORD
  5
561
102
{ACAD_REACTORS
330
55D
102
}
330
55D
100
AcDbXrecord
280
     1
270
     1
271
     1
  0
XRECORD
  5
563
102
{ACAD_REACTORS
330
55D
102
}
330
55D
100
AcDbXrecord
280
     1
270
     1
271
     1
  0
XRECORD
  5
560
102
{ACAD_REACTORS
330
55D
102
}
330
55D
100
AcDbXrecord
280
     1
270
     1
271
     1
  0
CELLSTYLEMAP
  5
9F5
102
{ACAD_REACTORS
330
844
102
}
330
844
100
AcDbCellStyleMap
 90
        3
300
CELLSTYLE
  1
TABLEFORMAT_BEGIN
 90
        5
170
     1
 91
        0
 92
    32768
 62
   257
 93
        1
300
CONTENTFORMAT
  1
CONTENTFORMAT_BEGIN
 90
        0
 91
        0
 92
      512
 93
        0
300

 40
0.0
140
1.0
 94
        5
 62
     0
340
11
144
0.25
309
CONTENTFORMAT_END
171
     1
301
MARGIN
  1
CELLMARGIN_BEGIN
 40
0.06
 40
0.06
 40
0.06
 40
0.06
 40
0.18
 40
0.18
309
CELLMARGIN_END
 94
        6
 95
        1
302
GRIDFORMAT
  1
GRIDFORMAT_BEGIN
 90
        0
 91
        1
 62
     0
 92
       -2
340
0
 93
        0
 40
0.045
309
GRIDFORMAT_END
 95
        2
302
GRIDFORMAT
  1
GRIDFORMAT_BEGIN
 90
        0
 91
        1
 62
     0
 92
       -2
340
0
 93
        0
 40
0.045
309
GRIDFORMAT_END
 95
        4
302
GRIDFORMAT
  1
GRIDFORMAT_BEGIN
 90
        0
 91
        1
 62
     0
 92
       -2
340
0
 93
        0
 40
0.045
309
GRIDFORMAT_END
 95
        8
302
GRIDFORMAT
  1
GRIDFORMAT_BEGIN
 90
        0
 91
        1
 62
     0
 92
       -2
340
0
 93
        0
 40
0.045
309
GRIDFORMAT_END
 95
       16
302
GRIDFORMAT
  1
GRIDFORMAT_BEGIN
 90
        0
 91
        1
 62
     0
 92
       -2
340
0
 93
        0
 40
0.045
309
GRIDFORMAT_END
 95
       32
302
GRIDFORMAT
  1
GRIDFORMAT_BEGIN
 90
        0
 91
        1
 62
     0
 92
       -2
340
0
 93
        0
 40
0.045
309
GRIDFORMAT_END
309
TABLEFORMAT_END
  1
CELLSTYLE_BEGIN
 90
        1
 91
        1
300
_TITLE
309
CELLSTYLE_END
300
CELLSTYLE
  1
TABLEFORMAT_BEGIN
 90
        5
170
     1
 91
        0
 92
        0
 62
   257
 93
        1
300
CONTENTFORMAT
  1
CONTENTFORMAT_BEGIN
 90
        0
 91
        0
 92
      512
 93
        0
300

 40
0.0
140
1.0
 94
        5
 62
     0
340
11
144
0.18
309
CONTENTFORMAT_END
171
     1
301
MARGIN
  1
CELLMARGIN_BEGIN
 40
0.06
 40
0.06
 40
0.06
 40
0.06
 40
0.18
 40
0.18
309
CELLMARGIN_END
 94
        6
 95
        1
302
GRIDFORMAT
  1
GRIDFORMAT_BEGIN
 90
        0
 91
        1
 62
     0
 92
       -2
340
0
 93
        0
 40
0.045
309
GRIDFORMAT_END
 95
        2
302
GRIDFORMAT
  1
GRIDFORMAT_BEGIN
 90
        0
 91
        1
 62
     0
 92
       -2
340
0
 93
        0
 40
0.045
309
GRIDFORMAT_END
 95
        4
302
GRIDFORMAT
  1
GRIDFORMAT_BEGIN
 90
        0
 91
        1
 62
     0
 92
       -2
340
0
 93
        0
 40
0.045
309
GRIDFORMAT_END
 95
        8
302
GRIDFORMAT
  1
GRIDFORMAT_BEGIN
 90
        0
 91
        1
 62
     0
 92
       -2
340
0
 93
        0
 40
0.045
309
GRIDFORMAT_END
 95
       16
302
GRIDFORMAT
  1
GRIDFORMAT_BEGIN
 90
        0
 91
        1
 62
     0
 92
       -2
340
0
 93
        0
 40
0.045
309
GRIDFORMAT_END
 95
       32
302
GRIDFORMAT
  1
GRIDFORMAT_BEGIN
 90
        0
 91
        1
 62
     0
 92
       -2
340
0
 93
        0
 40
0.045
309
GRIDFORMAT_END
309
TABLEFORMAT_END
  1
CELLSTYLE_BEGIN
 90
        2
 91
        1
300
_HEADER
309
CELLSTYLE_END
300
CELLSTYLE
  1
TABLEFORMAT_BEGIN
 90
        5
170
     1
 91
        0
 92
        0
 62
   257
 93
        1
300
CONTENTFORMAT
  1
CONTENTFORMAT_BEGIN
 90
        0
 91
        0
 92
      512
 93
        0
300

 40
0.0
140
1.0
 94
        2
 62
     0
340
11
144
0.18
309
CONTENTFORMAT_END
171
     1
301
MARGIN
  1
CELLMARGIN_BEGIN
 40
0.06
 40
0.06
 40
0.06
 40
0.06
 40
0.18
 40
0.18
309
CELLMARGIN_END
 94
        6
 95
        1
302
GRIDFORMAT
  1
GRIDFORMAT_BEGIN
 90
        0
 91
        1
 62
     0
 92
       -2
340
0
 93
        0
 40
0.045
309
GRIDFORMAT_END
 95
        2
302
GRIDFORMAT
  1
GRIDFORMAT_BEGIN
 90
        0
 91
        1
 62
     0
 92
       -2
340
0
 93
        0
 40
0.045
309
GRIDFORMAT_END
 95
        4
302
GRIDFORMAT
  1
GRIDFORMAT_BEGIN
 90
        0
 91
        1
 62
     0
 92
       -2
340
0
 93
        0
 40
0.045
309
GRIDFORMAT_END
 95
        8
302
GRIDFORMAT
  1
GRIDFORMAT_BEGIN
 90
        0
 91
        1
 62
     0
 92
       -2
340
0
 93
        0
 40
0.045
309
GRIDFORMAT_END
 95
       16
302
GRIDFORMAT
  1
GRIDFORMAT_BEGIN
 90
        0
 91
        1
 62
     0
 92
       -2
340
0
 93
        0
 40
0.045
309
GRIDFORMAT_END
 95
       32
302
GRIDFORMAT
  1
GRIDFORMAT_BEGIN
 90
        0
 91
        1
 62
     0
 92
       -2
340
0
 93
        0
 40
0.045
309
GRIDFORMAT_END
309
TABLEFORMAT_END
  1
CELLSTYLE_BEGIN
 90
        3
 91
        2
300
_DATA
309
CELLSTYLE_END
  0
XRECORD
  5
A35
102
{ACAD_REACTORS
330
844
102
}
330
844
100
AcDbXrecord
280
     1
102
ACAD_ROUNDTRIP_PRE2007_TABLESTYLE
 90
      512
 91
        0
  1

 92
      512
 93
        0
  2

 94
      512
 95
        0
  3

  0
XRECORD
  5
A10
102
{ACAD_REACTORS
330
A0F
102
}
330
A0F
100
AcDbXrecord
280
     1
102
RTVSPropertyOp0
 70
     1
102
RTVSPropertyOp1
 70
     1
102
RTVSPropertyOp2
 70
     1
102
RTVSPropertyOp3
 70
     1
102
RTVSPropertyOp4
 70
     1
102
RTVSPropertyOp5
 70
     1
102
RTVSPropertyOp6
 70
     1
102
RTVSPropertyOp7
 70
     1
102
RTVSPropertyOp8
 70
     1
102
RTVSPropertyOp9
 70
     1
102
RTVSPropertyOp10
 70
     1
102
RTVSPropertyOp11
 70
     1
102
RTVSPropertyOp12
 70
     1
102
RTVSPropertyOp13
 70
     1
102
RTVSPropertyOp14
 70
     1
102
RTVSPropertyOp15
 70
     1
102
RTVSPropertyOp16
 70
     1
102
RTVSPropertyOp17
 70
     1
102
RTVSPropertyOp18
 70
     1
102
RTVSPropertyOp19
 70
     1
102
RTVSPropertyOp20
 70
     1
102
RTVSPropertyOp21
 70
     1
102
RTVSPropertyOp22
 70
     1
102
RTVSPropertyOp23
 70
     1
102
RTVSPropertyOp24
 70
     1
102
RTVSPropertyOp25
 70
     1
102
RTVSPropertyOp26
 70
     1
102
RTVSPropertyOp27
 70
     1
102
RTVSPropertyOp28
 70
     1
102
RTVSPropertyOp29
 70
     1
102
RTVSPropertyOp30
 70
     1
102
RTVSPropertyOp31
 70
     1
102
RTVSPropertyOp32
 70
     1
  0
XRECORD
  5
A0E
102
{ACAD_REACTORS
330
A0D
102
}
330
A0D
100
AcDbXrecord
280
     1
102
RTVSPropertyOp0
 70
     1
102
RTVSPropertyOp1
 70
     1
102
RTVSPropertyOp2
 70
     1
102
RTVSPropertyOp3
 70
     1
102
RTVSPropertyOp4
 70
     1
102
RTVSPropertyOp5
 70
     1
102
RTVSPropertyOp6
 70
     1
102
RTVSPropertyOp7
 70
     1
102
RTVSPropertyOp8
 70
     1
102
RTVSPropertyOp9
 70
     1
102
RTVSPropertyOp10
 70
     1
102
RTVSPropertyOp11
 70
     1
102
RTVSPropertyOp12
 70
     1
102
RTVSPropertyOp13
 70
     1
102
RTVSPropertyOp14
 70
     1
102
RTVSPropertyOp15
 70
     1
102
RTVSPropertyOp16
 70
     1
102
RTVSPropertyOp17
 70
     1
102
RTVSPropertyOp18
 70
     1
102
RTVSPropertyOp19
 70
     1
102
RTVSPropertyOp20
 70
     1
102
RTVSPropertyOp21
 70
     1
102
RTVSPropertyOp22
 70
     1
102
RTVSPropertyOp23
 70
     1
102
RTVSPropertyOp24
 70
     1
102
RTVSPropertyOp25
 70
     1
102
RTVSPropertyOp26
 70
     1
102
RTVSPropertyOp27
 70
     1
102
RTVSPropertyOp28
 70
     1
102
RTVSPropertyOp29
 70
     1
102
RTVSPropertyOp30
 70
     1
102
RTVSPropertyOp31
 70
     1
102
RTVSPropertyOp32
 70
     1
  0
XRECORD
  5
A1C
102
{ACAD_REACTORS
330
A1B
102
}
330
A1B
100
AcDbXrecord
280
     1
102
RTVSPropertyOp0
 70
     1
102
RTVSPropertyOp1
 70
     1
102
RTVSPropertyOp2
 70
     1
102
RTVSPropertyOp3
 70
     1
102
RTVSPropertyOp4
 70
     1
102
RTVSPropertyOp5
 70
     1
102
RTVSPropertyOp6
 70
     1
102
RTVSPropertyOp7
 70
     1
102
RTVSPropertyOp8
 70
     1
102
RTVSPropertyOp9
 70
     1
102
RTVSPropertyOp10
 70
     1
102
RTVSPropertyOp11
 70
     1
102
RTVSPropertyOp12
 70
     1
102
RTVSPropertyOp13
 70
     1
102
RTVSPropertyOp14
 70
     1
102
RTVSPropertyOp15
 70
     1
102
RTVSPropertyOp16
 70
     1
102
RTVSPropertyOp17
 70
     1
102
RTVSPropertyOp18
 70
     1
102
RTVSPropertyOp19
 70
     1
102
RTVSPropertyOp20
 70
     1
102
RTVSPropertyOp21
 70
     1
102
RTVSPropertyOp22
 70
     1
102
RTVSPropertyOp23
 70
     1
102
RTVSPropertyOp24
 70
     1
102
RTVSPropertyOp25
 70
     1
102
RTVSPropertyOp26
 70
     1
102
RTVSPropertyOp27
 70
     1
102
RTVSPropertyOp28
 70
     1
102
RTVSPropertyOp29
 70
     1
102
RTVSPropertyOp30
 70
     1
102
RTVSPropertyOp31
 70
     1
102
RTVSPropertyOp32
 70
     1
  0
XRECORD
  5
A24
102
{ACAD_REACTORS
330
A23
102
}
330
A23
100
AcDbXrecord
280
     1
102
RTVSPropertyOp0
 70
     1
102
RTVSPropertyOp1
 70
     1
102
RTVSPropertyOp2
 70
     1
102
RTVSPropertyOp3
 70
     1
102
RTVSPropertyOp4
 70
     1
102
RTVSPropertyOp5
 70
     1
102
RTVSPropertyOp6
 70
     1
102
RTVSPropertyOp7
 70
     1
102
RTVSPropertyOp8
 70
     1
102
RTVSPropertyOp9
 70
     1
102
RTVSPropertyOp10
 70
     1
102
RTVSPropertyOp11
 70
     1
102
RTVSPropertyOp12
 70
     1
102
RTVSPropertyOp13
 70
     1
102
RTVSPropertyOp14
 70
     1
102
RTVSPropertyOp15
 70
     1
102
RTVSPropertyOp16
 70
     1
102
RTVSPropertyOp17
 70
     1
102
RTVSPropertyOp18
 70
     1
102
RTVSPropertyOp19
 70
     1
102
RTVSPropertyOp20
 70
     1
102
RTVSPropertyOp21
 70
     1
102
RTVSPropertyOp22
 70
     1
102
RTVSPropertyOp23
 70
     1
102
RTVSPropertyOp24
 70
     1
102
RTVSPropertyOp25
 70
     1
102
RTVSPropertyOp26
 70
     1
102
RTVSPropertyOp27
 70
     1
102
RTVSPropertyOp28
 70
     1
102
RTVSPropertyOp29
 70
     1
102
RTVSPropertyOp30
 70
     1
102
RTVSPropertyOp31
 70
     1
102
RTVSPropertyOp32
 70
     1
  0
XRECORD
  5
A16
102
{ACAD_REACTORS
330
A15
102
}
330
A15
100
AcDbXrecord
280
     1
102
RTVSPropertyOp0
 70
     1
102
RTVSPropertyOp1
 70
     1
102
RTVSPropertyOp2
 70
     1
102
RTVSPropertyOp3
 70
     1
102
RTVSPropertyOp4
 70
     1
102
RTVSPropertyOp5
 70
     1
102
RTVSPropertyOp6
 70
     1
102
RTVSPropertyOp7
 70
     1
102
RTVSPropertyOp8
 70
     1
102
RTVSPropertyOp9
 70
     1
102
RTVSPropertyOp10
 70
     1
102
RTVSPropertyOp11
 70
     1
102
RTVSPropertyOp12
 70
     1
102
RTVSPropertyOp13
 70
     1
102
RTVSPropertyOp14
 70
     1
102
RTVSPropertyOp15
 70
     1
102
RTVSPropertyOp16
 70
     1
102
RTVSPropertyOp17
 70
     1
102
RTVSPropertyOp18
 70
     1
102
RTVSPropertyOp19
 70
     1
102
RTVSPropertyOp20
 70
     1
102
RTVSPropertyOp21
 70
     1
102
RTVSPropertyOp22
 70
     1
102
RTVSPropertyOp23
 70
     1
102
RTVSPropertyOp24
 70
     1
102
RTVSPropertyOp25
 70
     1
102
RTVSPropertyOp26
 70
     1
102
RTVSPropertyOp27
 70
     1
102
RTVSPropertyOp28
 70
     1
102
RTVSPropertyOp29
 70
     1
102
RTVSPropertyOp30
 70
     1
102
RTVSPropertyOp31
 70
     1
102
RTVSPropertyOp32
 70
     1
  0
XRECORD
  5
A1A
102
{ACAD_REACTORS
330
A19
102
}
330
A19
100
AcDbXrecord
280
     1
102
RTVSPropertyOp0
 70
     1
102
RTVSPropertyOp1
 70
     1
102
RTVSPropertyOp2
 70
     1
102
RTVSPropertyOp3
 70
     1
102
RTVSPropertyOp4
 70
     1
102
RTVSPropertyOp5
 70
     1
102
RTVSPropertyOp6
 70
     1
102
RTVSPropertyOp7
 70
     1
102
RTVSPropertyOp8
 70
     1
102
RTVSPropertyOp9
 70
     1
102
RTVSPropertyOp10
 70
     1
102
RTVSPropertyOp11
 70
     1
102
RTVSPropertyOp12
 70
     1
102
RTVSPropertyOp13
 70
     1
102
RTVSPropertyOp14
 70
     1
102
RTVSPropertyOp15
 70
     1
102
RTVSPropertyOp16
 70
     1
102
RTVSPropertyOp17
 70
     1
102
RTVSPropertyOp18
 70
     1
102
RTVSPropertyOp19
 70
     1
102
RTVSPropertyOp20
 70
     1
102
RTVSPropertyOp21
 70
     1
102
RTVSPropertyOp22
 70
     1
102
RTVSPropertyOp23
 70
     1
102
RTVSPropertyOp24
 70
     1
102
RTVSPropertyOp25
 70
     1
102
RTVSPropertyOp26
 70
     1
102
RTVSPropertyOp27
 70
     1
102
RTVSPropertyOp28
 70
     1
102
RTVSPropertyOp29
 70
     1
102
RTVSPropertyOp30
 70
     1
102
RTVSPropertyOp31
 70
     1
102
RTVSPropertyOp32
 70
     1
  0
XRECORD
  5
A34
102
{ACAD_REACTORS
330
A33
102
}
330
A33
100
AcDbXrecord
280
     1
102
RTVSPropertyOp0
 70
     0
102
RTVSPropertyOp1
 70
     0
102
RTVSPropertyOp2
 70
     0
102
RTVSPropertyOp3
 70
     0
102
RTVSPropertyOp4
 70
     0
102
RTVSPropertyOp5
 70
     0
102
RTVSPropertyOp6
 70
     0
102
RTVSPropertyOp7
 70
     0
102
RTVSPropertyOp8
 70
     0
102
RTVSPropertyOp9
 70
     0
102
RTVSPropertyOp10
 70
     0
102
RTVSPropertyOp11
 70
     0
102
RTVSPropertyOp12
 70
     0
102
RTVSPropertyOp13
 70
     0
102
RTVSPropertyOp14
 70
     2
102
RTVSPropertyOp15
 70
     0
102
RTVSPropertyOp16
 70
     0
102
RTVSPropertyOp17
 70
     0
102
RTVSPropertyOp18
 70
     0
102
RTVSPropertyOp19
 70
     0
102
RTVSPropertyOp20
 70
     0
102
RTVSPropertyOp21
 70
     0
102
RTVSPropertyOp22
 70
     0
102
RTVSPropertyOp23
 70
     0
102
RTVSPropertyOp24
 70
     0
102
RTVSPropertyOp25
 70
     0
102
RTVSPropertyOp26
 70
     0
102
RTVSPropertyOp27
 70
     0
102
RTVSPropertyOp28
 70
     0
102
RTVSPropertyOp29
 70
     0
102
RTVSPropertyOp30
 70
     0
102
RTVSPropertyOp31
 70
     0
102
RTVSPropertyOp32
 70
     0
  0
XRECORD
  5
A22
102
{ACAD_REACTORS
330
A21
102
}
330
A21
100
AcDbXrecord
280
     1
102
RTVSPropertyOp0
 70
     1
102
RTVSPropertyOp1
 70
     1
102
RTVSPropertyOp2
 70
     1
102
RTVSPropertyOp3
 70
     1
102
RTVSPropertyOp4
 70
     1
102
RTVSPropertyOp5
 70
     1
102
RTVSPropertyOp6
 70
     1
102
RTVSPropertyOp7
 70
     1
102
RTVSPropertyOp8
 70
     1
102
RTVSPropertyOp9
 70
     1
102
RTVSPropertyOp10
 70
     1
102
RTVSPropertyOp11
 70
     1
102
RTVSPropertyOp12
 70
     1
102
RTVSPropertyOp13
 70
     1
102
RTVSPropertyOp14
 70
     1
102
RTVSPropertyOp15
 70
     1
102
RTVSPropertyOp16
 70
     1
102
RTVSPropertyOp17
 70
     1
102
RTVSPropertyOp18
 70
     1
102
RTVSPropertyOp19
 70
     1
102
RTVSPropertyOp20
 70
     1
102
RTVSPropertyOp21
 70
     1
102
RTVSPropertyOp22
 70
     1
102
RTVSPropertyOp23
 70
     1
102
RTVSPropertyOp24
 70
     1
102
RTVSPropertyOp25
 70
     1
102
RTVSPropertyOp26
 70
     1
102
RTVSPropertyOp27
 70
     1
102
RTVSPropertyOp28
 70
     1
102
RTVSPropertyOp29
 70
     1
102
RTVSPropertyOp30
 70
     1
102
RTVSPropertyOp31
 70
     1
102
RTVSPropertyOp32
 70
     1
  0
XRECORD
  5
A06
102
{ACAD_REACTORS
330
A05
102
}
330
A05
100
AcDbXrecord
280
     1
102
RTVSPropertyOp0
 70
     1
102
RTVSPropertyOp1
 70
     1
102
RTVSPropertyOp2
 70
     1
102
RTVSPropertyOp3
 70
     1
102
RTVSPropertyOp4
 70
     1
102
RTVSPropertyOp5
 70
     1
102
RTVSPropertyOp6
 70
     1
102
RTVSPropertyOp7
 70
     1
102
RTVSPropertyOp8
 70
     1
102
RTVSPropertyOp9
 70
     1
102
RTVSPropertyOp10
 70
     1
102
RTVSPropertyOp11
 70
     1
102
RTVSPropertyOp12
 70
     1
102
RTVSPropertyOp13
 70
     1
102
RTVSPropertyOp14
 70
     1
102
RTVSPropertyOp15
 70
     1
102
RTVSPropertyOp16
 70
     1
102
RTVSPropertyOp17
 70
     1
102
RTVSPropertyOp18
 70
     1
102
RTVSPropertyOp19
 70
     1
102
RTVSPropertyOp20
 70
     1
102
RTVSPropertyOp21
 70
     1
102
RTVSPropertyOp22
 70
     1
102
RTVSPropertyOp23
 70
     1
102
RTVSPropertyOp24
 70
     1
102
RTVSPropertyOp25
 70
     1
102
RTVSPropertyOp26
 70
     1
102
RTVSPropertyOp27
 70
     1
102
RTVSPropertyOp28
 70
     1
102
RTVSPropertyOp29
 70
     1
102
RTVSPropertyOp30
 70
     1
102
RTVSPropertyOp31
 70
     1
102
RTVSPropertyOp32
 70
     1
  0
XRECORD
  5
A08
102
{ACAD_REACTORS
330
A07
102
}
330
A07
100
AcDbXrecord
280
     1
102
RTVSPropertyOp0
 70
     1
102
RTVSPropertyOp1
 70
     1
102
RTVSPropertyOp2
 70
     1
102
RTVSPropertyOp3
 70
     1
102
RTVSPropertyOp4
 70
     1
102
RTVSPropertyOp5
 70
     1
102
RTVSPropertyOp6
 70
     1
102
RTVSPropertyOp7
 70
     1
102
RTVSPropertyOp8
 70
     1
102
RTVSPropertyOp9
 70
     1
102
RTVSPropertyOp10
 70
     1
102
RTVSPropertyOp11
 70
     1
102
RTVSPropertyOp12
 70
     1
102
RTVSPropertyOp13
 70
     1
102
RTVSPropertyOp14
 70
     1
102
RTVSPropertyOp15
 70
     1
102
RTVSPropertyOp16
 70
     1
102
RTVSPropertyOp17
 70
     1
102
RTVSPropertyOp18
 70
     1
102
RTVSPropertyOp19
 70
     1
102
RTVSPropertyOp20
 70
     1
102
RTVSPropertyOp21
 70
     1
102
RTVSPropertyOp22
 70
     1
102
RTVSPropertyOp23
 70
     1
102
RTVSPropertyOp24
 70
     1
102
RTVSPropertyOp25
 70
     1
102
RTVSPropertyOp26
 70
     1
102
RTVSPropertyOp27
 70
     1
102
RTVSPropertyOp28
 70
     1
102
RTVSPropertyOp29
 70
     1
102
RTVSPropertyOp30
 70
     1
102
RTVSPropertyOp31
 70
     1
102
RTVSPropertyOp32
 70
     1
  0
XRECORD
  5
A0A
102
{ACAD_REACTORS
330
A09
102
}
330
A09
100
AcDbXrecord
280
     1
102
RTVSPropertyOp0
 70
     1
102
RTVSPropertyOp1
 70
     1
102
RTVSPropertyOp2
 70
     1
102
RTVSPropertyOp3
 70
     1
102
RTVSPropertyOp4
 70
     1
102
RTVSPropertyOp5
 70
     1
102
RTVSPropertyOp6
 70
     1
102
RTVSPropertyOp7
 70
     1
102
RTVSPropertyOp8
 70
     1
102
RTVSPropertyOp9
 70
     1
102
RTVSPropertyOp10
 70
     1
102
RTVSPropertyOp11
 70
     1
102
RTVSPropertyOp12
 70
     1
102
RTVSPropertyOp13
 70
     1
102
RTVSPropertyOp14
 70
     1
102
RTVSPropertyOp15
 70
     1
102
RTVSPropertyOp16
 70
     1
102
RTVSPropertyOp17
 70
     1
102
RTVSPropertyOp18
 70
     1
102
RTVSPropertyOp19
 70
     1
102
RTVSPropertyOp20
 70
     1
102
RTVSPropertyOp21
 70
     1
102
RTVSPropertyOp22
 70
     1
102
RTVSPropertyOp23
 70
     1
102
RTVSPropertyOp24
 70
     1
102
RTVSPropertyOp25
 70
     1
102
RTVSPropertyOp26
 70
     1
102
RTVSPropertyOp27
 70
     1
102
RTVSPropertyOp28
 70
     1
102
RTVSPropertyOp29
 70
     1
102
RTVSPropertyOp30
 70
     1
102
RTVSPropertyOp31
 70
     1
102
RTVSPropertyOp32
 70
     1
  0
XRECORD
  5
A0C
102
{ACAD_REACTORS
330
A0B
102
}
330
A0B
100
AcDbXrecord
280
     1
102
RTVSPropertyOp0
 70
     1
102
RTVSPropertyOp1
 70
     1
102
RTVSPropertyOp2
 70
     1
102
RTVSPropertyOp3
 70
     1
102
RTVSPropertyOp4
 70
     1
102
RTVSPropertyOp5
 70
     1
102
RTVSPropertyOp6
 70
     1
102
RTVSPropertyOp7
 70
     1
102
RTVSPropertyOp8
 70
     1
102
RTVSPropertyOp9
 70
     1
102
RTVSPropertyOp10
 70
     1
102
RTVSPropertyOp11
 70
     1
102
RTVSPropertyOp12
 70
     1
102
RTVSPropertyOp13
 70
     1
102
RTVSPropertyOp14
 70
     1
102
RTVSPropertyOp15
 70
     1
102
RTVSPropertyOp16
 70
     1
102
RTVSPropertyOp17
 70
     1
102
RTVSPropertyOp18
 70
     1
102
RTVSPropertyOp19
 70
     1
102
RTVSPropertyOp20
 70
     1
102
RTVSPropertyOp21
 70
     1
102
RTVSPropertyOp22
 70
     1
102
RTVSPropertyOp23
 70
     1
102
RTVSPropertyOp24
 70
     1
102
RTVSPropertyOp25
 70
     1
102
RTVSPropertyOp26
 70
     1
102
RTVSPropertyOp27
 70
     1
102
RTVSPropertyOp28
 70
     1
102
RTVSPropertyOp29
 70
     1
102
RTVSPropertyOp30
 70
     1
102
RTVSPropertyOp31
 70
     1
102
RTVSPropertyOp32
 70
     1
  0
XRECORD
  5
A14
102
{ACAD_REACTORS
330
A13
102
}
330
A13
100
AcDbXrecord
280
     1
102
RTVSPropertyOp0
 70
     1
102
RTVSPropertyOp1
 70
     1
102
RTVSPropertyOp2
 70
     1
102
RTVSPropertyOp3
 70
     1
102
RTVSPropertyOp4
 70
     1
102
RTVSPropertyOp5
 70
     1
102
RTVSPropertyOp6
 70
     1
102
RTVSPropertyOp7
 70
     1
102
RTVSPropertyOp8
 70
     1
102
RTVSPropertyOp9
 70
     1
102
RTVSPropertyOp10
 70
     1
102
RTVSPropertyOp11
 70
     1
102
RTVSPropertyOp12
 70
     1
102
RTVSPropertyOp13
 70
     1
102
RTVSPropertyOp14
 70
     1
102
RTVSPropertyOp15
 70
     1
102
RTVSPropertyOp16
 70
     1
102
RTVSPropertyOp17
 70
     1
102
RTVSPropertyOp18
 70
     1
102
RTVSPropertyOp19
 70
     1
102
RTVSPropertyOp20
 70
     1
102
RTVSPropertyOp21
 70
     1
102
RTVSPropertyOp22
 70
     1
102
RTVSPropertyOp23
 70
     1
102
RTVSPropertyOp24
 70
     1
102
RTVSPropertyOp25
 70
     1
102
RTVSPropertyOp26
 70
     1
102
RTVSPropertyOp27
 70
     1
102
RTVSPropertyOp28
 70
     1
102
RTVSPropertyOp29
 70
     1
102
RTVSPropertyOp30
 70
     1
102
RTVSPropertyOp31
 70
     1
102
RTVSPropertyOp32
 70
     1
  0
XRECORD
  5
A30
102
{ACAD_REACTORS
330
A2F
102
}
330
A2F
100
AcDbXrecord
280
     1
102
RTVSPropertyOp0
 70
     0
102
RTVSPropertyOp1
 70
     0
102
RTVSPropertyOp2
 70
     0
102
RTVSPropertyOp3
 70
     0
102
RTVSPropertyOp4
 70
     0
102
RTVSPropertyOp5
 70
     0
102
RTVSPropertyOp6
 70
     0
102
RTVSPropertyOp7
 70
     0
102
RTVSPropertyOp8
 70
     0
102
RTVSPropertyOp9
 70
     0
102
RTVSPropertyOp10
 70
     0
102
RTVSPropertyOp11
 70
     0
102
RTVSPropertyOp12
 70
     0
102
RTVSPropertyOp13
 70
     0
102
RTVSPropertyOp14
 70
     2
102
RTVSPropertyOp15
 70
     0
102
RTVSPropertyOp16
 70
     0
102
RTVSPropertyOp17
 70
     0
102
RTVSPropertyOp18
 70
     0
102
RTVSPropertyOp19
 70
     0
102
RTVSPropertyOp20
 70
     0
102
RTVSPropertyOp21
 70
     0
102
RTVSPropertyOp22
 70
     0
102
RTVSPropertyOp23
 70
     0
102
RTVSPropertyOp24
 70
     0
102
RTVSPropertyOp25
 70
     0
102
RTVSPropertyOp26
 70
     0
102
RTVSPropertyOp27
 70
     0
102
RTVSPropertyOp28
 70
     0
102
RTVSPropertyOp29
 70
     0
102
RTVSPropertyOp30
 70
     0
102
RTVSPropertyOp31
 70
     0
102
RTVSPropertyOp32
 70
     0
  0
XRECORD
  5
A20
102
{ACAD_REACTORS
330
A1F
102
}
330
A1F
100
AcDbXrecord
280
     1
102
RTVSPropertyOp0
 70
     1
102
RTVSPropertyOp1
 70
     1
102
RTVSPropertyOp2
 70
     1
102
RTVSPropertyOp3
 70
     1
102
RTVSPropertyOp4
 70
     1
102
RTVSPropertyOp5
 70
     1
102
RTVSPropertyOp6
 70
     1
102
RTVSPropertyOp7
 70
     1
102
RTVSPropertyOp8
 70
     1
102
RTVSPropertyOp9
 70
     1
102
RTVSPropertyOp10
 70
     1
102
RTVSPropertyOp11
 70
     1
102
RTVSPropertyOp12
 70
     1
102
RTVSPropertyOp13
 70
     1
102
RTVSPropertyOp14
 70
     1
102
RTVSPropertyOp15
 70
     1
102
RTVSPropertyOp16
 70
     1
102
RTVSPropertyOp17
 70
     1
102
RTVSPropertyOp18
 70
     1
102
RTVSPropertyOp19
 70
     1
102
RTVSPropertyOp20
 70
     1
102
RTVSPropertyOp21
 70
     1
102
RTVSPropertyOp22
 70
     1
102
RTVSPropertyOp23
 70
     1
102
RTVSPropertyOp24
 70
     1
102
RTVSPropertyOp25
 70
     1
102
RTVSPropertyOp26
 70
     1
102
RTVSPropertyOp27
 70
     1
102
RTVSPropertyOp28
 70
     1
102
RTVSPropertyOp29
 70
     1
102
RTVSPropertyOp30
 70
     1
102
RTVSPropertyOp31
 70
     1
102
RTVSPropertyOp32
 70
     1
  0
XRECORD
  5
A32
102
{ACAD_REACTORS
330
A31
102
}
330
A31
100
AcDbXrecord
280
     1
102
RTVSPropertyOp0
 70
     0
102
RTVSPropertyOp1
 70
     0
102
RTVSPropertyOp2
 70
     0
102
RTVSPropertyOp3
 70
     0
102
RTVSPropertyOp4
 70
     0
102
RTVSPropertyOp5
 70
     0
102
RTVSPropertyOp6
 70
     0
102
RTVSPropertyOp7
 70
     0
102
RTVSPropertyOp8
 70
     0
102
RTVSPropertyOp9
 70
     0
102
RTVSPropertyOp10
 70
     0
102
RTVSPropertyOp11
 70
     0
102
RTVSPropertyOp12
 70
     0
102
RTVSPropertyOp13
 70
     0
102
RTVSPropertyOp14
 70
     2
102
RTVSPropertyOp15
 70
     0
102
RTVSPropertyOp16
 70
     0
102
RTVSPropertyOp17
 70
     0
102
RTVSPropertyOp18
 70
     0
102
RTVSPropertyOp19
 70
     0
102
RTVSPropertyOp20
 70
     0
102
RTVSPropertyOp21
 70
     0
102
RTVSPropertyOp22
 70
     0
102
RTVSPropertyOp23
 70
     0
102
RTVSPropertyOp24
 70
     0
102
RTVSPropertyOp25
 70
     0
102
RTVSPropertyOp26
 70
     0
102
RTVSPropertyOp27
 70
     0
102
RTVSPropertyOp28
 70
     0
102
RTVSPropertyOp29
 70
     0
102
RTVSPropertyOp30
 70
     0
102
RTVSPropertyOp31
 70
     0
102
RTVSPropertyOp32
 70
     0
  0
XRECORD
  5
A18
102
{ACAD_REACTORS
330
A17
102
}
330
A17
100
AcDbXrecord
280
     1
102
RTVSPropertyOp0
 70
     1
102
RTVSPropertyOp1
 70
     1
102
RTVSPropertyOp2
 70
     1
102
RTVSPropertyOp3
 70
     1
102
RTVSPropertyOp4
 70
     1
102
RTVSPropertyOp5
 70
     1
102
RTVSPropertyOp6
 70
     1
102
RTVSPropertyOp7
 70
     1
102
RTVSPropertyOp8
 70
     1
102
RTVSPropertyOp9
 70
     1
102
RTVSPropertyOp10
 70
     1
102
RTVSPropertyOp11
 70
     1
102
RTVSPropertyOp12
 70
     1
102
RTVSPropertyOp13
 70
     1
102
RTVSPropertyOp14
 70
     1
102
RTVSPropertyOp15
 70
     1
102
RTVSPropertyOp16
 70
     1
102
RTVSPropertyOp17
 70
     1
102
RTVSPropertyOp18
 70
     1
102
RTVSPropertyOp19
 70
     1
102
RTVSPropertyOp20
 70
     1
102
RTVSPropertyOp21
 70
     1
102
RTVSPropertyOp22
 70
     1
102
RTVSPropertyOp23
 70
     1
102
RTVSPropertyOp24
 70
     1
102
RTVSPropertyOp25
 70
     1
102
RTVSPropertyOp26
 70
     1
102
RTVSPropertyOp27
 70
     1
102
RTVSPropertyOp28
 70
     1
102
RTVSPropertyOp29
 70
     1
102
RTVSPropertyOp30
 70
     1
102
RTVSPropertyOp31
 70
     1
102
RTVSPropertyOp32
 70
     1
  0
XRECORD
  5
A2E
102
{ACAD_REACTORS
330
A2D
102
}
330
A2D
100
AcDbXrecord
280
     1
102
RTVSPropertyOp0
 70
     1
102
RTVSPropertyOp1
 70
     1
102
RTVSPropertyOp2
 70
     1
102
RTVSPropertyOp3
 70
     1
102
RTVSPropertyOp4
 70
     1
102
RTVSPropertyOp5
 70
     1
102
RTVSPropertyOp6
 70
     1
102
RTVSPropertyOp7
 70
     1
102
RTVSPropertyOp8
 70
     1
102
RTVSPropertyOp9
 70
     1
102
RTVSPropertyOp10
 70
     1
102
RTVSPropertyOp11
 70
     1
102
RTVSPropertyOp12
 70
     1
102
RTVSPropertyOp13
 70
     1
102
RTVSPropertyOp14
 70
     1
102
RTVSPropertyOp15
 70
     1
102
RTVSPropertyOp16
 70
     1
102
RTVSPropertyOp17
 70
     1
102
RTVSPropertyOp18
 70
     1
102
RTVSPropertyOp19
 70
     1
102
RTVSPropertyOp20
 70
     1
102
RTVSPropertyOp21
 70
     1
102
RTVSPropertyOp22
 70
     1
102
RTVSPropertyOp23
 70
     1
102
RTVSPropertyOp24
 70
     1
102
RTVSPropertyOp25
 70
     1
102
RTVSPropertyOp26
 70
     1
102
RTVSPropertyOp27
 70
     1
102
RTVSPropertyOp28
 70
     1
102
RTVSPropertyOp29
 70
     1
102
RTVSPropertyOp30
 70
     1
102
RTVSPropertyOp31
 70
     1
102
RTVSPropertyOp32
 70
     1
  0
XRECORD
  5
A2C
102
{ACAD_REACTORS
330
A2B
102
}
330
A2B
100
AcDbXrecord
280
     1
102
RTVSPropertyOp0
 70
     1
102
RTVSPropertyOp1
 70
     1
102
RTVSPropertyOp2
 70
     1
102
RTVSPropertyOp3
 70
     1
102
RTVSPropertyOp4
 70
     1
102
RTVSPropertyOp5
 70
     1
102
RTVSPropertyOp6
 70
     1
102
RTVSPropertyOp7
 70
     1
102
RTVSPropertyOp8
 70
     1
102
RTVSPropertyOp9
 70
     1
102
RTVSPropertyOp10
 70
     1
102
RTVSPropertyOp11
 70
     1
102
RTVSPropertyOp12
 70
     1
102
RTVSPropertyOp13
 70
     1
102
RTVSPropertyOp14
 70
     1
102
RTVSPropertyOp15
 70
     1
102
RTVSPropertyOp16
 70
     1
102
RTVSPropertyOp17
 70
     1
102
RTVSPropertyOp18
 70
     1
102
RTVSPropertyOp19
 70
     1
102
RTVSPropertyOp20
 70
     1
102
RTVSPropertyOp21
 70
     1
102
RTVSPropertyOp22
 70
     1
102
RTVSPropertyOp23
 70
     1
102
RTVSPropertyOp24
 70
     1
102
RTVSPropertyOp25
 70
     1
102
RTVSPropertyOp26
 70
     1
102
RTVSPropertyOp27
 70
     1
102
RTVSPropertyOp28
 70
     1
102
RTVSPropertyOp29
 70
     1
102
RTVSPropertyOp30
 70
     1
102
RTVSPropertyOp31
 70
     1
102
RTVSPropertyOp32
 70
     1
  0
XRECORD
  5
A26
102
{ACAD_REACTORS
330
A25
102
}
330
A25
100
AcDbXrecord
280
     1
102
RTVSPropertyOp0
 70
     1
102
RTVSPropertyOp1
 70
     1
102
RTVSPropertyOp2
 70
     1
102
RTVSPropertyOp3
 70
     1
102
RTVSPropertyOp4
 70
     1
102
RTVSPropertyOp5
 70
     1
102
RTVSPropertyOp6
 70
     1
102
RTVSPropertyOp7
 70
     1
102
RTVSPropertyOp8
 70
     1
102
RTVSPropertyOp9
 70
     1
102
RTVSPropertyOp10
 70
     1
102
RTVSPropertyOp11
 70
     1
102
RTVSPropertyOp12
 70
     1
102
RTVSPropertyOp13
 70
     1
102
RTVSPropertyOp14
 70
     1
102
RTVSPropertyOp15
 70
     1
102
RTVSPropertyOp16
 70
     1
102
RTVSPropertyOp17
 70
     1
102
RTVSPropertyOp18
 70
     1
102
RTVSPropertyOp19
 70
     1
102
RTVSPropertyOp20
 70
     1
102
RTVSPropertyOp21
 70
     1
102
RTVSPropertyOp22
 70
     1
102
RTVSPropertyOp23
 70
     1
102
RTVSPropertyOp24
 70
     1
102
RTVSPropertyOp25
 70
     1
102
RTVSPropertyOp26
 70
     1
102
RTVSPropertyOp27
 70
     1
102
RTVSPropertyOp28
 70
     1
102
RTVSPropertyOp29
 70
     1
102
RTVSPropertyOp30
 70
     1
102
RTVSPropertyOp31
 70
     1
102
RTVSPropertyOp32
 70
     1
  0
XRECORD
  5
A28
102
{ACAD_REACTORS
330
A27
102
}
330
A27
100
AcDbXrecord
280
     1
102
RTVSPropertyOp0
 70
     1
102
RTVSPropertyOp1
 70
     1
102
RTVSPropertyOp2
 70
     1
102
RTVSPropertyOp3
 70
     1
102
RTVSPropertyOp4
 70
     1
102
RTVSPropertyOp5
 70
     1
102
RTVSPropertyOp6
 70
     1
102
RTVSPropertyOp7
 70
     1
102
RTVSPropertyOp8
 70
     1
102
RTVSPropertyOp9
 70
     1
102
RTVSPropertyOp10
 70
     1
102
RTVSPropertyOp11
 70
     1
102
RTVSPropertyOp12
 70
     1
102
RTVSPropertyOp13
 70
     1
102
RTVSPropertyOp14
 70
     1
102
RTVSPropertyOp15
 70
     1
102
RTVSPropertyOp16
 70
     1
102
RTVSPropertyOp17
 70
     1
102
RTVSPropertyOp18
 70
     1
102
RTVSPropertyOp19
 70
     1
102
RTVSPropertyOp20
 70
     1
102
RTVSPropertyOp21
 70
     1
102
RTVSPropertyOp22
 70
     1
102
RTVSPropertyOp23
 70
     1
102
RTVSPropertyOp24
 70
     1
102
RTVSPropertyOp25
 70
     1
102
RTVSPropertyOp26
 70
     1
102
RTVSPropertyOp27
 70
     1
102
RTVSPropertyOp28
 70
     1
102
RTVSPropertyOp29
 70
     1
102
RTVSPropertyOp30
 70
     1
102
RTVSPropertyOp31
 70
     1
102
RTVSPropertyOp32
 70
     1
  0
XRECORD
  5
A1E
102
{ACAD_REACTORS
330
A1D
102
}
330
A1D
100
AcDbXrecord
280
     1
102
RTVSPropertyOp0
 70
     1
102
RTVSPropertyOp1
 70
     1
102
RTVSPropertyOp2
 70
     1
102
RTVSPropertyOp3
 70
     1
102
RTVSPropertyOp4
 70
     1
102
RTVSPropertyOp5
 70
     1
102
RTVSPropertyOp6
 70
     1
102
RTVSPropertyOp7
 70
     1
102
RTVSPropertyOp8
 70
     1
102
RTVSPropertyOp9
 70
     1
102
RTVSPropertyOp10
 70
     1
102
RTVSPropertyOp11
 70
     1
102
RTVSPropertyOp12
 70
     1
102
RTVSPropertyOp13
 70
     1
102
RTVSPropertyOp14
 70
     1
102
RTVSPropertyOp15
 70
     1
102
RTVSPropertyOp16
 70
     1
102
RTVSPropertyOp17
 70
     1
102
RTVSPropertyOp18
 70
     1
102
RTVSPropertyOp19
 70
     1
102
RTVSPropertyOp20
 70
     1
102
RTVSPropertyOp21
 70
     1
102
RTVSPropertyOp22
 70
     1
102
RTVSPropertyOp23
 70
     1
102
RTVSPropertyOp24
 70
     1
102
RTVSPropertyOp25
 70
     1
102
RTVSPropertyOp26
 70
     1
102
RTVSPropertyOp27
 70
     1
102
RTVSPropertyOp28
 70
     1
102
RTVSPropertyOp29
 70
     1
102
RTVSPropertyOp30
 70
     1
102
RTVSPropertyOp31
 70
     1
102
RTVSPropertyOp32
 70
     1
  0
XRECORD
  5
A12
102
{ACAD_REACTORS
330
A11
102
}
330
A11
100
AcDbXrecord
280
     1
102
RTVSPropertyOp0
 70
     1
102
RTVSPropertyOp1
 70
     1
102
RTVSPropertyOp2
 70
     1
102
RTVSPropertyOp3
 70
     1
102
RTVSPropertyOp4
 70
     1
102
RTVSPropertyOp5
 70
     1
102
RTVSPropertyOp6
 70
     1
102
RTVSPropertyOp7
 70
     1
102
RTVSPropertyOp8
 70
     1
102
RTVSPropertyOp9
 70
     1
102
RTVSPropertyOp10
 70
     1
102
RTVSPropertyOp11
 70
     1
102
RTVSPropertyOp12
 70
     1
102
RTVSPropertyOp13
 70
     1
102
RTVSPropertyOp14
 70
     1
102
RTVSPropertyOp15
 70
     1
102
RTVSPropertyOp16
 70
     1
102
RTVSPropertyOp17
 70
     1
102
RTVSPropertyOp18
 70
     1
102
RTVSPropertyOp19
 70
     1
102
RTVSPropertyOp20
 70
     1
102
RTVSPropertyOp21
 70
     1
102
RTVSPropertyOp22
 70
     1
102
RTVSPropertyOp23
 70
     1
102
RTVSPropertyOp24
 70
     1
102
RTVSPropertyOp25
 70
     1
102
RTVSPropertyOp26
 70
     1
102
RTVSPropertyOp27
 70
     1
102
RTVSPropertyOp28
 70
     1
102
RTVSPropertyOp29
 70
     1
102
RTVSPropertyOp30
 70
     1
102
RTVSPropertyOp31
 70
     1
102
RTVSPropertyOp32
 70
     1
  0
XRECORD
  5
A2A
102
{ACAD_REACTORS
330
A29
102
}
330
A29
100
AcDbXrecord
280
     1
102
RTVSPropertyOp0
 70
     1
102
RTVSPropertyOp1
 70
     1
102
RTVSPropertyOp2
 70
     1
102
RTVSPropertyOp3
 70
     1
102
RTVSPropertyOp4
 70
     1
102
RTVSPropertyOp5
 70
     1
102
RTVSPropertyOp6
 70
     1
102
RTVSPropertyOp7
 70
     1
102
RTVSPropertyOp8
 70
     1
102
RTVSPropertyOp9
 70
     1
102
RTVSPropertyOp10
 70
     1
102
RTVSPropertyOp11
 70
     1
102
RTVSPropertyOp12
 70
     1
102
RTVSPropertyOp13
 70
     1
102
RTVSPropertyOp14
 70
     1
102
RTVSPropertyOp15
 70
     1
102
RTVSPropertyOp16
 70
     1
102
RTVSPropertyOp17
 70
     1
102
RTVSPropertyOp18
 70
     1
102
RTVSPropertyOp19
 70
     1
102
RTVSPropertyOp20
 70
     1
102
RTVSPropertyOp21
 70
     1
102
RTVSPropertyOp22
 70
     1
102
RTVSPropertyOp23
 70
     1
102
RTVSPropertyOp24
 70
     1
102
RTVSPropertyOp25
 70
     1
102
RTVSPropertyOp26
 70
     1
102
RTVSPropertyOp27
 70
     1
102
RTVSPropertyOp28
 70
     1
102
RTVSPropertyOp29
 70
     1
102
RTVSPropertyOp30
 70
     1
102
RTVSPropertyOp31
 70
     1
102
RTVSPropertyOp32
 70
     1
  0
ENDSEC
  0
EOF
