  0
SECTION
  2
HEADER
  9
$ACADVER
  1
AC1018
  9
$ACADMAINTVER
 70
     0
  9
$DWGCODEPAGE
  3
ANSI_1252
  9
$LASTSAVEDBY
  1
Erik
  9
$INSBASE
 10
0.0
 20
0.0
 30
0.0
  9
$EXTMIN
 10
-22.56159339267022
 20
1.159466366712329
 30
0.0
  9
$EXTMAX
 10
117.1561373450842
 20
65.33578478835943
 30
0.4375
  9
$LIMMIN
 10
0.0
 20
0.0
  9
$LIMMAX
 10
12.0
 20
9.0
  9
$ORTHOMODE
 70
     1
  9
$REGENMODE
 70
     1
  9
$FILLMODE
 70
     1
  9
$QTEXTMODE
 70
     0
  9
$MIRRTEXT
 70
     0
  9
$LTSCALE
 40
1.0
  9
$ATTMODE
 70
     1
  9
$TEXTSIZE
 40
0.2
  9
$TRACEWID
 40
0.05
  9
$TEXTSTYLE
  7
Standard
  9
$CLAYER
  8
0
  9
$CELTYPE
  6
ByLayer
  9
$CECOLOR
 62
   256
  9
$CELTSCALE
 40
1.0
  9
$DISPSILH
 70
     0
  9
$DIMSCALE
 40
1.0
  9
$DIMASZ
 40
0.75
  9
$DIMEXO
 40
0.0625
  9
$DIMDLI
 40
0.38
  9
$DIMRND
 40
0.0
  9
$DIMDLE
 40
0.0
  9
$DIMEXE
 40
0.18
  9
$DIMTP
 40
0.0
  9
$DIMTM
 40
0.0
  9
$DIMTXT
 40
0.75
  9
$DIMCEN
 40
0.09
  9
$DIMTSZ
 40
0.0
  9
$DIMTOL
 70
     0
  9
$DIMLIM
 70
     0
  9
$DIMTIH
 70
     1
  9
$DIMTOH
 70
     1
  9
$DIMSE1
 70
     0
  9
$DIMSE2
 70
     0
  9
$DIMTAD
 70
     0
  9
$DIMZIN
 70
     0
  9
$DIMBLK
  1

  9
$DIMASO
 70
     1
  9
$DIMSHO
 70
     1
  9
$DIMPOST
  1

  9
$DIMAPOST
  1

  9
$DIMALT
 70
     0
  9
$DIMALTD
 70
     2
  9
$DIMALTF
 40
25.4
  9
$DIMLFAC
 40
1.0
  9
$DIMTOFL
 70
     0
  9
$DIMTVP
 40
0.0
  9
$DIMTIX
 70
     0
  9
$DIMSOXD
 70
     0
  9
$DIMSAH
 70
     0
  9
$DIMBLK1
  1

  9
$DIMBLK2
  1

  9
$DIMSTYLE
  2
Standard
  9
$DIMCLRD
 70
     0
  9
$DIMCLRE
 70
     0
  9
$DIMCLRT
 70
     0
  9
$DIMTFAC
 40
1.0
  9
$DIMGAP
 40
0.09
  9
$DIMJUST
 70
     0
  9
$DIMSD1
 70
     0
  9
$DIMSD2
 70
     0
  9
$DIMTOLJ
 70
     1
  9
$DIMTZIN
 70
     0
  9
$DIMALTZ
 70
     0
  9
$DIMALTTZ
 70
     0
  9
$DIMUPT
 70
     0
  9
$DIMDEC
 70
     3
  9
$DIMTDEC
 70
     3
  9
$DIMALTU
 70
     2
  9
$DIMALTTD
 70
     2
  9
$DIMTXSTY
  7
Standard
  9
$DIMAUNIT
 70
     0
  9
$DIMADEC
 70
     0
  9
$DIMALTRND
 40
0.0
  9
$DIMAZIN
 70
     0
  9
$DIMDSEP
 70
    46
  9
$DIMATFIT
 70
     3
  9
$DIMFRAC
 70
     0
  9
$DIMLDRBLK
  1

  9
$DIMLUNIT
 70
     2
  9
$DIMLWD
 70
    -2
  9
$DIMLWE
 70
    -2
  9
$DIMTMOVE
 70
     0
  9
$LUNITS
 70
     2
  9
$LUPREC
 70
     4
  9
$SKETCHINC
 40
0.1
  9
$FILLETRAD
 40
0.0
  9
$AUNITS
 70
     0
  9
$AUPREC
 70
     0
  9
$MENU
  1
.
  9
$ELEVATION
 40
0.0
  9
$PELEVATION
 40
0.0
  9
$THICKNESS
 40
0.0
  9
$LIMCHECK
 70
     0
  9
$CHAMFERA
 40
0.0
  9
$CHAMFERB
 40
0.0
  9
$CHAMFERC
 40
0.0
  9
$CHAMFERD
 40
0.0
  9
$SKPOLY
 70
     0
  9
$TDCREATE
 40
2455303.345650359
  9
$TDUCREATE
 40
2455303.512317026
  9
$TDUPDATE
 40
2457242.355444201
  9
$TDUUPDATE
 40
2457242.522110868
  9
$TDINDWG
 40
0.1053669444
  9
$TDUSRTIMER
 40
2457242.520147824
  9
$USRTIMER
 70
     1
  9
$ANGBASE
 50
0.0
  9
$ANGDIR
 70
     0
  9
$PDMODE
 70
     0
  9
$PDSIZE
 40
0.0
  9
$PLINEWID
 40
0.0
  9
$SPLFRAME
 70
     0
  9
$SPLINETYPE
 70
     6
  9
$SPLINESEGS
 70
     8
  9
$HANDSEED
  5
F86
  9
$SURFTAB1
 70
     6
  9
$SURFTAB2
 70
     6
  9
$SURFTYPE
 70
     6
  9
$SURFU
 70
     6
  9
$SURFV
 70
     6
  9
$UCSBASE
  2

  9
$UCSNAME
  2

  9
$UCSORG
 10
0.0
 20
0.0
 30
0.0
  9
$UCSXDIR
 10
1.0
 20
0.0
 30
0.0
  9
$UCSYDIR
 10
0.0
 20
1.0
 30
0.0
  9
$UCSORTHOREF
  2

  9
$UCSORTHOVIEW
 70
     0
  9
$UCSORGTOP
 10
0.0
 20
0.0
 30
0.0
  9
$UCSORGBOTTOM
 10
0.0
 20
0.0
 30
0.0
  9
$UCSORGLEFT
 10
0.0
 20
0.0
 30
0.0
  9
$UCSORGRIGHT
 10
0.0
 20
0.0
 30
0.0
  9
$UCSORGFRONT
 10
0.0
 20
0.0
 30
0.0
  9
$UCSORGBACK
 10
0.0
 20
0.0
 30
0.0
  9
$PUCSBASE
  2

  9
$PUCSNAME
  2

  9
$PUCSORG
 10
0.0
 20
0.0
 30
0.0
  9
$PUCSXDIR
 10
1.0
 20
0.0
 30
0.0
  9
$PUCSYDIR
 10
0.0
 20
1.0
 30
0.0
  9
$PUCSORTHOREF
  2

  9
$PUCSORTHOVIEW
 70
     0
  9
$PUCSORGTOP
 10
0.0
 20
0.0
 30
0.0
  9
$PUCSORGBOTTOM
 10
0.0
 20
0.0
 30
0.0
  9
$PUCSORGLEFT
 10
0.0
 20
0.0
 30
0.0
  9
$PUCSORGRIGHT
 10
0.0
 20
0.0
 30
0.0
  9
$PUCSORGFRONT
 10
0.0
 20
0.0
 30
0.0
  9
$PUCSORGBACK
 10
0.0
 20
0.0
 30
0.0
  9
$USERI1
 70
     0
  9
$USERI2
 70
     0
  9
$USERI3
 70
     0
  9
$USERI4
 70
     0
  9
$USERI5
 70
     0
  9
$USERR1
 40
0.0
  9
$USERR2
 40
0.0
  9
$USERR3
 40
0.0
  9
$USERR4
 40
0.0
  9
$USERR5
 40
0.0
  9
$WORLDVIEW
 70
     1
  9
$SHADEDGE
 70
     3
  9
$SHADEDIF
 70
    70
  9
$TILEMODE
 70
     1
  9
$MAXACTVP
 70
    64
  9
$PINSBASE
 10
0.0
 20
0.0
 30
0.0
  9
$PLIMCHECK
 70
     0
  9
$PEXTMIN
 10
0.0
 20
0.0
 30
0.0
  9
$PEXTMAX
 10
0.0
 20
0.0
 30
0.0
  9
$PLIMMIN
 10
0.0
 20
0.0
  9
$PLIMMAX
 10
0.0
 20
0.0
  9
$UNITMODE
 70
     0
  9
$VISRETAIN
 70
     1
  9
$PLINEGEN
 70
     0
  9
$PSLTSCALE
 70
     1
  9
$TREEDEPTH
 70
  3020
  9
$CMLSTYLE
  2
Standard
  9
$CMLJUST
 70
     0
  9
$CMLSCALE
 40
1.0
  9
$PROXYGRAPHICS
 70
     1
  9
$MEASUREMENT
 70
     0
  9
$CELWEIGHT
370
    -1
  9
$ENDCAPS
280
     0
  9
$JOINSTYLE
280
     0
  9
$LWDISPLAY
290
     0
  9
$INSUNITS
 70
     1
  9
$HYPERLINKBASE
  1

  9
$STYLESHEET
  1

  9
$XEDIT
290
     1
  9
$CEPSNTYPE
380
     0
  9
$PSTYLEMODE
290
     1
  9
$FINGERPRINTGUID
  2
{FDEAD576-A652-11D2-9A35-0060089B3A3F}
  9
$VERSIONGUID
  2
{56DFCCEF-A379-4701-86F5-98A5BC4F4DB2}
  9
$EXTNAMES
290
     1
  9
$PSVPSCALE
 40
0.0
  9
$OLESTARTUP
290
     0
  9
$SORTENTS
280
   127
  9
$INDEXCTL
280
     0
  9
$HIDETEXT
280
     1
  9
$XCLIPFRAME
290
     0
  9
$HALOGAP
280
     0
  9
$OBSCOLOR
 70
   257
  9
$OBSLTYPE
280
     0
  9
$INTERSECTIONDISPLAY
280
     0
  9
$INTERSECTIONCOLOR
 70
   257
  9
$DIMASSOC
280
     2
  9
$PROJECTNAME
  1

  0
ENDSEC
  0
SECTION
  2
CLASSES
  0
CLASS
  1
ACDBDICTIONARYWDFLT
  2
AcDbDictionaryWithDefault
  3
ObjectDBX Classes
 90
        0
 91
        7
280
     0
281
     0
  0
CLASS
  1
ACDBPLACEHOLDER
  2
AcDbPlaceHolder
  3
ObjectDBX Classes
 90
        0
 91
        1
280
     0
281
     0
  0
CLASS
  1
LAYOUT
  2
AcDbLayout
  3
ObjectDBX Classes
 90
        0
 91
        1
280
     0
281
     0
  0
CLASS
  1
DICTIONARYVAR
  2
AcDbDictionaryVar
  3
ObjectDBX Classes
 90
        0
 91
        5
280
     0
281
     0
  0
CLASS
  1
SORTENTSTABLE
  2
AcDbSortentsTable
  3
ObjectDBX Classes
 90
        0
 91
        5
280
     0
281
     0
  0
CLASS
  1
SCALE
  2
AcDbScale
  3
ObjectDBX Classes
 90
     1153
 91
        7
280
     0
281
     0
  0
CLASS
  1
VISUALSTYLE
  2
AcDbVisualStyle
  3
ObjectDBX Classes
 90
     4095
 91
        7
280
     0
281
     0
  0
CLASS
  1
MATERIAL
  2
AcDbMaterial
  3
ObjectDBX Classes
 90
     1153
 91
        7
280
     0
281
     0
  0
CLASS
  1
TABLESTYLE
  2
AcDbTableStyle
  3
ObjectDBX Classes
 90
     4095
 91
        7
280
     0
281
     0
  0
CLASS
  1
SUN
  2
AcDbSun
  3
SCENEOE
 90
     1153
 91
        7
280
     0
281
     0
  0
CLASS
  1
RASTERVARIABLES
  2
AcDbRasterVariables
  3
ISM
 90
        0
 91
        7
280
     0
281
     0
  0
CLASS
  1
CELLSTYLEMAP
  2
AcDbCellStyleMap
  3
ObjectDBX Classes
 90
     1152
 91
        5
280
     0
281
     0
  0
ENDSEC
  0
SECTION
  2
TABLES
  0
TABLE
  2
VPORT
  5
8
330
0
100
AcDbSymbolTable
 70
     1
  0
VPORT
  5
F23
330
8
100
AcDbSymbolTableRecord
100
AcDbViewportTableRecord
  2
*Active
 70
     0
 10
0.0
 20
0.0
 11
1.0
 21
1.0
 12
63.83955235385331
 22
23.99386132964427
 13
0.0
 23
0.0
 14
0.5
 24
0.5
 15
0.5
 25
0.5
 16
0.0
 26
0.0
 36
1.0
 17
0.0
 27
0.0
 37
0.0
 40
54.43808119789247
 41
1.937866354044548
 42
50.0
 43
0.0
 44
0.0
 50
0.0
 51
0.0
 71
    16
 72
  1000
 73
     1
 74
     3
 75
     0
 76
     0
 77
     0
 78
     0
281
     0
 65
     1
110
0.0
120
0.0
130
0.0
111
1.0
121
0.0
131
0.0
112
0.0
122
1.0
132
0.0
 79
     0
146
0.0
  0
ENDTAB
  0
TABLE
  2
LTYPE
  5
5
330
0
100
AcDbSymbolTable
 70
     2
  0
LTYPE
  5
14
330
5
100
AcDbSymbolTableRecord
100
AcDbLinetypeTableRecord
  2
ByBlock
 70
     0
  3

 72
    65
 73
     0
 40
0.0
  0
LTYPE
  5
15
330
5
100
AcDbSymbolTableRecord
100
AcDbLinetypeTableRecord
  2
ByLayer
 70
     0
  3

 72
    65
 73
     0
 40
0.0
  0
LTYPE
  5
16
330
5
100
AcDbSymbolTableRecord
100
AcDbLinetypeTableRecord
  2
Continuous
 70
     0
  3
Solid line
 72
    65
 73
     0
 40
0.0
  0
LTYPE
  5
125
330
5
100
AcDbSymbolTableRecord
100
AcDbLinetypeTableRecord
  2
DASHDOT
 70
     0
  3
Dash dot __ . __ . __ . __ . __ . __ . __ . __
 72
    65
 73
     4
 40
1.0
 49
0.5
 74
     0
 49
-0.25
 74
     0
 49
0.0
 74
     0
 49
-0.25
 74
     0
  0
ENDTAB
  0
TABLE
  2
LAYER
  5
2
102
{ACAD_XDICTIONARY
360
12B
102
}
330
0
100
AcDbSymbolTable
 70
     7
  0
LAYER
  5
10
330
2
100
AcDbSymbolTableRecord
100
AcDbLayerTableRecord
  2
0
 70
     0
 62
     7
  6
Continuous
370
    -3
390
F
  0
LAYER
  5
126
330
2
100
AcDbSymbolTableRecord
100
AcDbLayerTableRecord
  2
DIMENSION
 70
     0
 62
     7
  6
Continuous
370
    -3
390
F
  0
LAYER
  5
127
330
2
100
AcDbSymbolTableRecord
100
AcDbLayerTableRecord
  2
TEXT
 70
     0
 62
     7
  6
Continuous
370
    -3
390
F
  0
LAYER
  5
128
330
2
100
AcDbSymbolTableRecord
100
AcDbLayerTableRecord
  2
Defpoints
 70
     0
 62
     7
  6
Continuous
290
     0
370
    -3
390
F
  0
LAYER
  5
129
330
2
100
AcDbSymbolTableRecord
100
AcDbLayerTableRecord
  2
TEMPLATE
 70
     0
 62
     7
  6
Continuous
370
    -3
390
F
  0
LAYER
  5
12A
330
2
100
AcDbSymbolTableRecord
100
AcDbLayerTableRecord
  2
BORDER
 70
     0
 62
     7
  6
Continuous
370
    -3
390
F
  0
LAYER
  5
684
330
2
100
AcDbSymbolTableRecord
100
AcDbLayerTableRecord
  2
Washer
 70
     0
 62
     7
  6
Continuous
370
    -3
390
F
  0
ENDTAB
  0
TABLE
  2
STYLE
  5
3
330
0
100
AcDbSymbolTable
 70
     1
  0
STYLE
  5
11
330
3
100
AcDbSymbolTableRecord
100
AcDbTextStyleTableRecord
  2
Standard
 70
     0
 40
0.0
 41
1.0
 50
0.0
 71
     0
 42
0.2
  3
txt
  4

  0
ENDTAB
  0
TABLE
  2
VIEW
  5
6
330
0
100
AcDbSymbolTable
 70
     0
  0
ENDTAB
  0
TABLE
  2
UCS
  5
7
330
0
100
AcDbSymbolTable
 70
     0
  0
ENDTAB
  0
TABLE
  2
APPID
  5
9
330
0
100
AcDbSymbolTable
 70
     1
  0
APPID
  5
12
330
9
100
AcDbSymbolTableRecord
100
AcDbRegAppTableRecord
  2
ACAD
 70
     0
  0
ENDTAB
  0
TABLE
  2
DIMSTYLE
  5
A
330
0
100
AcDbSymbolTable
 70
     1
100
AcDbDimStyleTable
  0
DIMSTYLE
105
27
102
{ACAD_REACTORS
330
B64
330
B65
330
B66
330
B67
330
B68
330
B69
330
B6A
330
B6B
330
B6C
330
B6D
330
B6E
330
B6F
330
B70
330
B71
330
B72
330
B73
330
B74
330
B79
330
B7A
330
B80
330
B81
330
B85
330
B86
330
B87
330
B88
330
B89
330
B90
330
B91
102
}
330
A
100
AcDbSymbolTableRecord
100
AcDbDimStyleTableRecord
  2
Standard
 70
     0
 41
0.75
140
0.75
178
     0
271
     3
272
     3
340
11
  0
ENDTAB
  0
TABLE
  2
BLOCK_RECORD
  5
1
330
0
100
AcDbSymbolTable
 70
   151
  0
BLOCK_RECORD
  5
1F
330
1
100
AcDbSymbolTableRecord
100
AcDbBlockTableRecord
  2
*Model_Space
340
22
  0
BLOCK_RECORD
  5
58
330
1
100
AcDbSymbolTableRecord
100
AcDbBlockTableRecord
  2
*Paper_Space
340
59
  0
BLOCK_RECORD
  5
5D
330
1
100
AcDbSymbolTableRecord
100
AcDbBlockTableRecord
  2
*Paper_Space0
340
5E
  0
BLOCK_RECORD
  5
89
330
1
100
AcDbSymbolTableRecord
100
AcDbBlockTableRecord
  2
*D1
340
0
  0
BLOCK_RECORD
  5
91
330
1
100
AcDbSymbolTableRecord
100
AcDbBlockTableRecord
  2
*D2
340
0
  0
BLOCK_RECORD
  5
9B
330
1
100
AcDbSymbolTableRecord
100
AcDbBlockTableRecord
  2
*D3
340
0
  0
BLOCK_RECORD
  5
A3
330
1
100
AcDbSymbolTableRecord
100
AcDbBlockTableRecord
  2
*D4
340
0
  0
BLOCK_RECORD
  5
AB
330
1
100
AcDbSymbolTableRecord
100
AcDbBlockTableRecord
  2
*D5
340
0
  0
BLOCK_RECORD
  5
B3
330
1
100
AcDbSymbolTableRecord
100
AcDbBlockTableRecord
  2
*D6
340
0
  0
BLOCK_RECORD
  5
BB
330
1
100
AcDbSymbolTableRecord
100
AcDbBlockTableRecord
  2
*D7
340
0
  0
BLOCK_RECORD
  5
C3
330
1
100
AcDbSymbolTableRecord
100
AcDbBlockTableRecord
  2
*D8
340
0
  0
BLOCK_RECORD
  5
CB
330
1
100
AcDbSymbolTableRecord
100
AcDbBlockTableRecord
  2
*D9
340
0
  0
BLOCK_RECORD
  5
D3
330
1
100
AcDbSymbolTableRecord
100
AcDbBlockTableRecord
  2
*D10
340
0
  0
BLOCK_RECORD
  5
DB
330
1
100
AcDbSymbolTableRecord
100
AcDbBlockTableRecord
  2
*D11
340
0
  0
BLOCK_RECORD
  5
E3
330
1
100
AcDbSymbolTableRecord
100
AcDbBlockTableRecord
  2
*D12
340
0
  0
BLOCK_RECORD
  5
EB
330
1
100
AcDbSymbolTableRecord
100
AcDbBlockTableRecord
  2
*D13
340
0
  0
BLOCK_RECORD
  5
F3
330
1
100
AcDbSymbolTableRecord
100
AcDbBlockTableRecord
  2
*D14
340
0
  0
BLOCK_RECORD
  5
FB
330
1
100
AcDbSymbolTableRecord
100
AcDbBlockTableRecord
  2
*D15
340
0
  0
BLOCK_RECORD
  5
103
330
1
100
AcDbSymbolTableRecord
100
AcDbBlockTableRecord
  2
*D16
340
0
  0
BLOCK_RECORD
  5
10D
330
1
100
AcDbSymbolTableRecord
100
AcDbBlockTableRecord
  2
*D17
340
0
  0
BLOCK_RECORD
  5
115
330
1
100
AcDbSymbolTableRecord
100
AcDbBlockTableRecord
  2
*D18
340
0
  0
BLOCK_RECORD
  5
11D
330
1
100
AcDbSymbolTableRecord
100
AcDbBlockTableRecord
  2
*D19
340
0
  0
BLOCK_RECORD
  5
409
330
1
100
AcDbSymbolTableRecord
100
AcDbBlockTableRecord
  2
*D20
340
0
  0
BLOCK_RECORD
  5
411
330
1
100
AcDbSymbolTableRecord
100
AcDbBlockTableRecord
  2
*D21
340
0
  0
BLOCK_RECORD
  5
419
330
1
100
AcDbSymbolTableRecord
100
AcDbBlockTableRecord
  2
*D22
340
0
  0
BLOCK_RECORD
  5
421
330
1
100
AcDbSymbolTableRecord
100
AcDbBlockTableRecord
  2
*D23
340
0
  0
BLOCK_RECORD
  5
429
330
1
100
AcDbSymbolTableRecord
100
AcDbBlockTableRecord
  2
*D24
340
0
  0
BLOCK_RECORD
  5
431
330
1
100
AcDbSymbolTableRecord
100
AcDbBlockTableRecord
  2
*D25
340
0
  0
BLOCK_RECORD
  5
439
330
1
100
AcDbSymbolTableRecord
100
AcDbBlockTableRecord
  2
*D26
340
0
  0
BLOCK_RECORD
  5
443
330
1
100
AcDbSymbolTableRecord
100
AcDbBlockTableRecord
  2
*D27
340
0
  0
BLOCK_RECORD
  5
44B
330
1
100
AcDbSymbolTableRecord
100
AcDbBlockTableRecord
  2
*D28
340
0
  0
BLOCK_RECORD
  5
453
330
1
100
AcDbSymbolTableRecord
100
AcDbBlockTableRecord
  2
*D29
340
0
  0
BLOCK_RECORD
  5
45B
330
1
100
AcDbSymbolTableRecord
100
AcDbBlockTableRecord
  2
*D30
340
0
  0
BLOCK_RECORD
  5
463
330
1
100
AcDbSymbolTableRecord
100
AcDbBlockTableRecord
  2
*D31
340
0
  0
BLOCK_RECORD
  5
46B
330
1
100
AcDbSymbolTableRecord
100
AcDbBlockTableRecord
  2
*D32
340
0
  0
BLOCK_RECORD
  5
473
330
1
100
AcDbSymbolTableRecord
100
AcDbBlockTableRecord
  2
*D33
340
0
  0
BLOCK_RECORD
  5
47B
330
1
100
AcDbSymbolTableRecord
100
AcDbBlockTableRecord
  2
*D34
340
0
  0
BLOCK_RECORD
  5
483
330
1
100
AcDbSymbolTableRecord
100
AcDbBlockTableRecord
  2
*D35
340
0
  0
BLOCK_RECORD
  5
48D
330
1
100
AcDbSymbolTableRecord
100
AcDbBlockTableRecord
  2
*D36
340
0
  0
BLOCK_RECORD
  5
495
330
1
100
AcDbSymbolTableRecord
100
AcDbBlockTableRecord
  2
*D37
340
0
  0
BLOCK_RECORD
  5
49D
330
1
100
AcDbSymbolTableRecord
100
AcDbBlockTableRecord
  2
*D38
340
0
  0
BLOCK_RECORD
  5
58F
330
1
100
AcDbSymbolTableRecord
100
AcDbBlockTableRecord
  2
*D39
340
0
  0
BLOCK_RECORD
  5
597
330
1
100
AcDbSymbolTableRecord
100
AcDbBlockTableRecord
  2
*D40
340
0
  0
BLOCK_RECORD
  5
5A1
330
1
100
AcDbSymbolTableRecord
100
AcDbBlockTableRecord
  2
*D41
340
0
  0
BLOCK_RECORD
  5
5A9
330
1
100
AcDbSymbolTableRecord
100
AcDbBlockTableRecord
  2
*D42
340
0
  0
BLOCK_RECORD
  5
5B1
330
1
100
AcDbSymbolTableRecord
100
AcDbBlockTableRecord
  2
*D43
340
0
  0
BLOCK_RECORD
  5
5B9
330
1
100
AcDbSymbolTableRecord
100
AcDbBlockTableRecord
  2
*D44
340
0
  0
BLOCK_RECORD
  5
5C1
330
1
100
AcDbSymbolTableRecord
100
AcDbBlockTableRecord
  2
*D45
340
0
  0
BLOCK_RECORD
  5
5CB
330
1
100
AcDbSymbolTableRecord
100
AcDbBlockTableRecord
  2
*D46
340
0
  0
BLOCK_RECORD
  5
5D3
330
1
100
AcDbSymbolTableRecord
100
AcDbBlockTableRecord
  2
*D47
340
0
  0
BLOCK_RECORD
  5
5DB
330
1
100
AcDbSymbolTableRecord
100
AcDbBlockTableRecord
  2
*D48
340
0
  0
BLOCK_RECORD
  5
5E3
330
1
100
AcDbSymbolTableRecord
100
AcDbBlockTableRecord
  2
*D49
340
0
  0
BLOCK_RECORD
  5
5EB
330
1
100
AcDbSymbolTableRecord
100
AcDbBlockTableRecord
  2
*D50
340
0
  0
BLOCK_RECORD
  5
5F3
330
1
100
AcDbSymbolTableRecord
100
AcDbBlockTableRecord
  2
*D51
340
0
  0
BLOCK_RECORD
  5
5FB
330
1
100
AcDbSymbolTableRecord
100
AcDbBlockTableRecord
  2
*D52
340
0
  0
BLOCK_RECORD
  5
603
330
1
100
AcDbSymbolTableRecord
100
AcDbBlockTableRecord
  2
*D53
340
0
  0
BLOCK_RECORD
  5
60B
330
1
100
AcDbSymbolTableRecord
100
AcDbBlockTableRecord
  2
*D54
340
0
  0
BLOCK_RECORD
  5
615
330
1
100
AcDbSymbolTableRecord
100
AcDbBlockTableRecord
  2
*D55
340
0
  0
BLOCK_RECORD
  5
61D
330
1
100
AcDbSymbolTableRecord
100
AcDbBlockTableRecord
  2
*D56
340
0
  0
BLOCK_RECORD
  5
625
330
1
100
AcDbSymbolTableRecord
100
AcDbBlockTableRecord
  2
*D57
340
0
  0
BLOCK_RECORD
  5
62D
330
1
100
AcDbSymbolTableRecord
100
AcDbBlockTableRecord
  2
*D58
340
0
  0
BLOCK_RECORD
  5
635
330
1
100
AcDbSymbolTableRecord
100
AcDbBlockTableRecord
  2
*D59
340
0
  0
BLOCK_RECORD
  5
63D
330
1
100
AcDbSymbolTableRecord
100
AcDbBlockTableRecord
  2
*D60
340
0
  0
BLOCK_RECORD
  5
645
330
1
100
AcDbSymbolTableRecord
100
AcDbBlockTableRecord
  2
*D61
340
0
  0
BLOCK_RECORD
  5
64F
330
1
100
AcDbSymbolTableRecord
100
AcDbBlockTableRecord
  2
*D62
340
0
  0
BLOCK_RECORD
  5
65A
330
1
100
AcDbSymbolTableRecord
100
AcDbBlockTableRecord
  2
*D63
340
0
  0
BLOCK_RECORD
  5
665
330
1
100
AcDbSymbolTableRecord
100
AcDbBlockTableRecord
  2
*D64
340
0
  0
BLOCK_RECORD
  5
670
330
1
100
AcDbSymbolTableRecord
100
AcDbBlockTableRecord
  2
*D65
340
0
  0
BLOCK_RECORD
  5
67A
330
1
100
AcDbSymbolTableRecord
100
AcDbBlockTableRecord
  2
*D66
340
0
  0
BLOCK_RECORD
  5
705
330
1
100
AcDbSymbolTableRecord
100
AcDbBlockTableRecord
  2
*D67
340
0
  0
BLOCK_RECORD
  5
70F
330
1
100
AcDbSymbolTableRecord
100
AcDbBlockTableRecord
  2
*D68
340
0
  0
BLOCK_RECORD
  5
717
330
1
100
AcDbSymbolTableRecord
100
AcDbBlockTableRecord
  2
*D69
340
0
  0
BLOCK_RECORD
  5
71F
330
1
100
AcDbSymbolTableRecord
100
AcDbBlockTableRecord
  2
*D70
340
0
  0
BLOCK_RECORD
  5
727
330
1
100
AcDbSymbolTableRecord
100
AcDbBlockTableRecord
  2
*D71
340
0
  0
BLOCK_RECORD
  5
72F
330
1
100
AcDbSymbolTableRecord
100
AcDbBlockTableRecord
  2
*D72
340
0
  0
BLOCK_RECORD
  5
739
330
1
100
AcDbSymbolTableRecord
100
AcDbBlockTableRecord
  2
*D73
340
0
  0
BLOCK_RECORD
  5
741
330
1
100
AcDbSymbolTableRecord
100
AcDbBlockTableRecord
  2
*D74
340
0
  0
BLOCK_RECORD
  5
749
330
1
100
AcDbSymbolTableRecord
100
AcDbBlockTableRecord
  2
*D75
340
0
  0
BLOCK_RECORD
  5
751
330
1
100
AcDbSymbolTableRecord
100
AcDbBlockTableRecord
  2
*D76
340
0
  0
BLOCK_RECORD
  5
759
330
1
100
AcDbSymbolTableRecord
100
AcDbBlockTableRecord
  2
*D77
340
0
  0
BLOCK_RECORD
  5
761
330
1
100
AcDbSymbolTableRecord
100
AcDbBlockTableRecord
  2
*D78
340
0
  0
BLOCK_RECORD
  5
769
330
1
100
AcDbSymbolTableRecord
100
AcDbBlockTableRecord
  2
*D79
340
0
  0
BLOCK_RECORD
  5
771
330
1
100
AcDbSymbolTableRecord
100
AcDbBlockTableRecord
  2
*D80
340
0
  0
BLOCK_RECORD
  5
779
330
1
100
AcDbSymbolTableRecord
100
AcDbBlockTableRecord
  2
*D81
340
0
  0
BLOCK_RECORD
  5
783
330
1
100
AcDbSymbolTableRecord
100
AcDbBlockTableRecord
  2
*D82
340
0
  0
BLOCK_RECORD
  5
78B
330
1
100
AcDbSymbolTableRecord
100
AcDbBlockTableRecord
  2
*D83
340
0
  0
BLOCK_RECORD
  5
793
330
1
100
AcDbSymbolTableRecord
100
AcDbBlockTableRecord
  2
*D84
340
0
  0
BLOCK_RECORD
  5
79B
330
1
100
AcDbSymbolTableRecord
100
AcDbBlockTableRecord
  2
*D85
340
0
  0
BLOCK_RECORD
  5
7A3
330
1
100
AcDbSymbolTableRecord
100
AcDbBlockTableRecord
  2
*D86
340
0
  0
BLOCK_RECORD
  5
7AB
330
1
100
AcDbSymbolTableRecord
100
AcDbBlockTableRecord
  2
*D87
340
0
  0
BLOCK_RECORD
  5
7B3
330
1
100
AcDbSymbolTableRecord
100
AcDbBlockTableRecord
  2
*D88
340
0
  0
BLOCK_RECORD
  5
7BD
330
1
100
AcDbSymbolTableRecord
100
AcDbBlockTableRecord
  2
*D89
340
0
  0
BLOCK_RECORD
  5
7C8
330
1
100
AcDbSymbolTableRecord
100
AcDbBlockTableRecord
  2
*D90
340
0
  0
BLOCK_RECORD
  5
7D3
330
1
100
AcDbSymbolTableRecord
100
AcDbBlockTableRecord
  2
*D91
340
0
  0
BLOCK_RECORD
  5
7DE
330
1
100
AcDbSymbolTableRecord
100
AcDbBlockTableRecord
  2
*D92
340
0
  0
BLOCK_RECORD
  5
7E8
330
1
100
AcDbSymbolTableRecord
100
AcDbBlockTableRecord
  2
*D93
340
0
  0
BLOCK_RECORD
  5
7F2
330
1
100
AcDbSymbolTableRecord
100
AcDbBlockTableRecord
  2
*D94
340
0
  0
BLOCK_RECORD
  5
A17
330
1
100
AcDbSymbolTableRecord
100
AcDbBlockTableRecord
  2
*D95
340
0
  0
BLOCK_RECORD
  5
A1F
330
1
100
AcDbSymbolTableRecord
100
AcDbBlockTableRecord
  2
*D96
340
0
  0
BLOCK_RECORD
  5
A29
330
1
100
AcDbSymbolTableRecord
100
AcDbBlockTableRecord
  2
*D97
340
0
  0
BLOCK_RECORD
  5
A31
330
1
100
AcDbSymbolTableRecord
100
AcDbBlockTableRecord
  2
*D98
340
0
  0
BLOCK_RECORD
  5
A39
330
1
100
AcDbSymbolTableRecord
100
AcDbBlockTableRecord
  2
*D99
340
0
  0
BLOCK_RECORD
  5
A41
330
1
100
AcDbSymbolTableRecord
100
AcDbBlockTableRecord
  2
*D100
340
0
  0
BLOCK_RECORD
  5
A49
330
1
100
AcDbSymbolTableRecord
100
AcDbBlockTableRecord
  2
*D101
340
0
  0
BLOCK_RECORD
  5
A53
330
1
100
AcDbSymbolTableRecord
100
AcDbBlockTableRecord
  2
*D102
340
0
  0
BLOCK_RECORD
  5
A5B
330
1
100
AcDbSymbolTableRecord
100
AcDbBlockTableRecord
  2
*D103
340
0
  0
BLOCK_RECORD
  5
A63
330
1
100
AcDbSymbolTableRecord
100
AcDbBlockTableRecord
  2
*D104
340
0
  0
BLOCK_RECORD
  5
A6B
330
1
100
AcDbSymbolTableRecord
100
AcDbBlockTableRecord
  2
*D105
340
0
  0
BLOCK_RECORD
  5
A73
330
1
100
AcDbSymbolTableRecord
100
AcDbBlockTableRecord
  2
*D106
340
0
  0
BLOCK_RECORD
  5
A7B
330
1
100
AcDbSymbolTableRecord
100
AcDbBlockTableRecord
  2
*D107
340
0
  0
BLOCK_RECORD
  5
A83
330
1
100
AcDbSymbolTableRecord
100
AcDbBlockTableRecord
  2
*D108
340
0
  0
BLOCK_RECORD
  5
A8B
330
1
100
AcDbSymbolTableRecord
100
AcDbBlockTableRecord
  2
*D109
340
0
  0
BLOCK_RECORD
  5
A93
330
1
100
AcDbSymbolTableRecord
100
AcDbBlockTableRecord
  2
*D110
340
0
  0
BLOCK_RECORD
  5
A9D
330
1
100
AcDbSymbolTableRecord
100
AcDbBlockTableRecord
  2
*D111
340
0
  0
BLOCK_RECORD
  5
AA5
330
1
100
AcDbSymbolTableRecord
100
AcDbBlockTableRecord
  2
*D112
340
0
  0
BLOCK_RECORD
  5
AAD
330
1
100
AcDbSymbolTableRecord
100
AcDbBlockTableRecord
  2
*D113
340
0
  0
BLOCK_RECORD
  5
AB5
330
1
100
AcDbSymbolTableRecord
100
AcDbBlockTableRecord
  2
*D114
340
0
  0
BLOCK_RECORD
  5
ABD
330
1
100
AcDbSymbolTableRecord
100
AcDbBlockTableRecord
  2
*D115
340
0
  0
BLOCK_RECORD
  5
AC7
330
1
100
AcDbSymbolTableRecord
100
AcDbBlockTableRecord
  2
*D116
340
0
  0
BLOCK_RECORD
  5
AD2
330
1
100
AcDbSymbolTableRecord
100
AcDbBlockTableRecord
  2
*D117
340
0
  0
BLOCK_RECORD
  5
ADD
330
1
100
AcDbSymbolTableRecord
100
AcDbBlockTableRecord
  2
*D118
340
0
  0
BLOCK_RECORD
  5
AE8
330
1
100
AcDbSymbolTableRecord
100
AcDbBlockTableRecord
  2
*D119
340
0
  0
BLOCK_RECORD
  5
AF2
330
1
100
AcDbSymbolTableRecord
100
AcDbBlockTableRecord
  2
*D120
340
0
  0
BLOCK_RECORD
  5
AFC
330
1
100
AcDbSymbolTableRecord
100
AcDbBlockTableRecord
  2
*D121
340
0
  0
BLOCK_RECORD
  5
B06
330
1
100
AcDbSymbolTableRecord
100
AcDbBlockTableRecord
  2
*D122
340
0
  0
BLOCK_RECORD
  5
B92
330
1
100
AcDbSymbolTableRecord
100
AcDbBlockTableRecord
  2
*D123
340
0
  0
BLOCK_RECORD
  5
B9A
330
1
100
AcDbSymbolTableRecord
100
AcDbBlockTableRecord
  2
*D124
340
0
  0
BLOCK_RECORD
  5
BA4
330
1
100
AcDbSymbolTableRecord
100
AcDbBlockTableRecord
  2
*D125
340
0
  0
BLOCK_RECORD
  5
BAC
330
1
100
AcDbSymbolTableRecord
100
AcDbBlockTableRecord
  2
*D126
340
0
  0
BLOCK_RECORD
  5
BB4
330
1
100
AcDbSymbolTableRecord
100
AcDbBlockTableRecord
  2
*D127
340
0
  0
BLOCK_RECORD
  5
BBC
330
1
100
AcDbSymbolTableRecord
100
AcDbBlockTableRecord
  2
*D128
340
0
  0
BLOCK_RECORD
  5
BC4
330
1
100
AcDbSymbolTableRecord
100
AcDbBlockTableRecord
  2
*D129
340
0
  0
BLOCK_RECORD
  5
BCE
330
1
100
AcDbSymbolTableRecord
100
AcDbBlockTableRecord
  2
*D130
340
0
  0
BLOCK_RECORD
  5
BD6
330
1
100
AcDbSymbolTableRecord
100
AcDbBlockTableRecord
  2
*D131
340
0
  0
BLOCK_RECORD
  5
BDE
330
1
100
AcDbSymbolTableRecord
100
AcDbBlockTableRecord
  2
*D132
340
0
  0
BLOCK_RECORD
  5
BE6
330
1
100
AcDbSymbolTableRecord
100
AcDbBlockTableRecord
  2
*D133
340
0
  0
BLOCK_RECORD
  5
BEE
330
1
100
AcDbSymbolTableRecord
100
AcDbBlockTableRecord
  2
*D134
340
0
  0
BLOCK_RECORD
  5
BF6
330
1
100
AcDbSymbolTableRecord
100
AcDbBlockTableRecord
  2
*D135
340
0
  0
BLOCK_RECORD
  5
BFE
330
1
100
AcDbSymbolTableRecord
100
AcDbBlockTableRecord
  2
*D136
340
0
  0
BLOCK_RECORD
  5
C06
330
1
100
AcDbSymbolTableRecord
100
AcDbBlockTableRecord
  2
*D137
340
0
  0
BLOCK_RECORD
  5
C0E
330
1
100
AcDbSymbolTableRecord
100
AcDbBlockTableRecord
  2
*D138
340
0
  0
BLOCK_RECORD
  5
C18
330
1
100
AcDbSymbolTableRecord
100
AcDbBlockTableRecord
  2
*D139
340
0
  0
BLOCK_RECORD
  5
C20
330
1
100
AcDbSymbolTableRecord
100
AcDbBlockTableRecord
  2
*D140
340
0
  0
BLOCK_RECORD
  5
C28
330
1
100
AcDbSymbolTableRecord
100
AcDbBlockTableRecord
  2
*D141
340
0
  0
BLOCK_RECORD
  5
C30
330
1
100
AcDbSymbolTableRecord
100
AcDbBlockTableRecord
  2
*D142
340
0
  0
BLOCK_RECORD
  5
C38
330
1
100
AcDbSymbolTableRecord
100
AcDbBlockTableRecord
  2
*D143
340
0
  0
BLOCK_RECORD
  5
C42
330
1
100
AcDbSymbolTableRecord
100
AcDbBlockTableRecord
  2
*D144
340
0
  0
BLOCK_RECORD
  5
C4D
330
1
100
AcDbSymbolTableRecord
100
AcDbBlockTableRecord
  2
*D145
340
0
  0
BLOCK_RECORD
  5
C58
330
1
100
AcDbSymbolTableRecord
100
AcDbBlockTableRecord
  2
*D146
340
0
  0
BLOCK_RECORD
  5
C63
330
1
100
AcDbSymbolTableRecord
100
AcDbBlockTableRecord
  2
*D147
340
0
  0
BLOCK_RECORD
  5
C6D
330
1
100
AcDbSymbolTableRecord
100
AcDbBlockTableRecord
  2
*D148
340
0
  0
BLOCK_RECORD
  5
C77
330
1
100
AcDbSymbolTableRecord
100
AcDbBlockTableRecord
  2
*D149
340
0
  0
BLOCK_RECORD
  5
C81
330
1
100
AcDbSymbolTableRecord
100
AcDbBlockTableRecord
  2
*D150
340
0
  0
ENDTAB
  0
ENDSEC
  0
SECTION
  2
BLOCKS
  0
BLOCK
  5
20
330
1F
100
AcDbEntity
  8
0
100
AcDbBlockBegin
  2
*Model_Space
 70
     0
 10
0.0
 20
0.0
 30
0.0
  3
*Model_Space
  1
*Model_Space
  0
ENDBLK
  5
21
330
1F
100
AcDbEntity
  8
0
100
AcDbBlockEnd
  0
BLOCK
  5
5A
330
58
100
AcDbEntity
 67
     1
  8
0
100
AcDbBlockBegin
  2
*Paper_Space
 70
     0
 10
0.0
 20
0.0
 30
0.0
  3
*Paper_Space
  1
*Paper_Space
  0
ENDBLK
  5
5B
330
58
100
AcDbEntity
 67
     1
  8
0
100
AcDbBlockEnd
  0
BLOCK
  5
5F
330
5D
100
AcDbEntity
  8
0
100
AcDbBlockBegin
  2
*Paper_Space0
 70
     0
 10
0.0
 20
0.0
 30
0.0
  3
*Paper_Space0
  1
*Paper_Space0
  0
ENDBLK
  5
60
330
5D
100
AcDbEntity
  8
0
100
AcDbBlockEnd
  0
BLOCK
  5
8A
330
89
100
AcDbEntity
  8
0
100
AcDbBlockBegin
  2
*D1
 70
     1
 10
0.0
 20
0.0
 30
0.0
  3
*D1
  1
*D1
  0
LINE
  5
8B
330
89
100
AcDbEntity
  8
DIMENSION
 62
     0
370
    -2
100
AcDbLine
 10
105.9937833375778
 20
-37.589373490231
 30
0.0
 11
103.3687833375774
 21
-37.589373490231
 31
0.0
  0
MTEXT
  5
8C
330
89
100
AcDbEntity
  8
DIMENSION
 62
     0
100
AcDbMText
 10
101.7437833375774
 20
-37.589373490231
 30
0.0
 40
0.75
 41
0.0
 71
     5
 72
     1
  1
\A1;0.000
 73
     1
 44
1.0
  0
POINT
  5
8D
330
89
100
AcDbEntity
  8
Defpoints
 62
     0
100
AcDbPoint
 10
106.3687833375777
 20
-37.589373490231
 30
0.0
  0
POINT
  5
8E
330
89
100
AcDbEntity
  8
Defpoints
 62
     0
100
AcDbPoint
 10
103.3687833375774
 20
-37.589373490231
 30
0.0
  0
POINT
  5
8F
330
89
100
AcDbEntity
  8
Defpoints
 62
     0
100
AcDbPoint
 10
106.368776413279
 20
-37.589373490231
 30
0.0
  0
ENDBLK
  5
90
330
89
100
AcDbEntity
  8
0
100
AcDbBlockEnd
  0
BLOCK
  5
92
330
91
100
AcDbEntity
  8
0
100
AcDbBlockBegin
  2
*D2
 70
     1
 10
0.0
 20
0.0
 30
0.0
  3
*D2
  1
*D2
  0
LINE
  5
93
330
91
100
AcDbEntity
  8
DIMENSION
 62
     0
370
    -2
100
AcDbLine
 10
106.368776413279
 20
-37.964373490231
 30
0.0
 11
106.368776413279
 21
-39.089373490231
 31
0.0
  0
LINE
  5
94
330
91
100
AcDbEntity
  8
DIMENSION
 62
     0
370
    -2
100
AcDbLine
 10
106.368776413279
 20
-39.089373490231
 30
0.0
 11
106.3687833375774
 21
-39.08937349023105
 31
0.0
  0
LINE
  5
95
330
91
100
AcDbEntity
  8
DIMENSION
 62
     0
370
    -2
100
AcDbLine
 10
106.3687833375774
 20
-39.08937349023105
 30
0.0
 11
106.3687833375774
 21
-40.58937349023103
 31
0.0
  0
MTEXT
  5
96
330
91
100
AcDbEntity
  8
DIMENSION
 62
     0
100
AcDbMText
 10
106.3687833375774
 20
-42.21437349023104
 30
0.0
 40
0.75
 41
0.0
 71
     5
 72
     1
  1
\A1;0.000
 11
1.000000000000000E-16
 21
1.0
 31
0.0
 73
     1
 44
1.0
  0
POINT
  5
97
330
91
100
AcDbEntity
  8
Defpoints
 62
     0
100
AcDbPoint
 10
106.368776413279
 20
-37.589373490231
 30
0.0
  0
POINT
  5
98
330
91
100
AcDbEntity
  8
Defpoints
 62
     0
100
AcDbPoint
 10
106.3687833375774
 20
-40.58937349023103
 30
0.0
  0
POINT
  5
99
330
91
100
AcDbEntity
  8
Defpoints
 62
     0
100
AcDbPoint
 10
106.368776413279
 20
-37.589373490231
 30
0.0
  0
ENDBLK
  5
9A
330
91
100
AcDbEntity
  8
0
100
AcDbBlockEnd
  0
BLOCK
  5
9C
330
9B
100
AcDbEntity
  8
0
100
AcDbBlockBegin
  2
*D3
 70
     1
 10
0.0
 20
0.0
 30
0.0
  3
*D3
  1
*D3
  0
LINE
  5
9D
330
9B
100
AcDbEntity
  8
DIMENSION
 62
     0
370
    -2
100
AcDbLine
 10
106.7447833375774
 20
-28.18387349023092
 30
0.0
 11
103.3687833375774
 21
-28.18387349023092
 31
0.0
  0
MTEXT
  5
9E
330
9B
100
AcDbEntity
  8
DIMENSION
 62
     0
100
AcDbMText
 10
101.5562833375774
 20
-28.18387349023092
 30
0.0
 40
0.75
 41
0.0
 71
     5
 72
     1
  1
\A1;9.406
 73
     1
 44
1.0
  0
POINT
  5
9F
330
9B
100
AcDbEntity
  8
Defpoints
 62
     0
100
AcDbPoint
 10
107.1197833375774
 20
-28.18387349023092
 30
0.0
  0
POINT
  5
A0
330
9B
100
AcDbEntity
  8
Defpoints
 62
     0
100
AcDbPoint
 10
103.3687833375774
 20
-28.18387349023092
 30
0.0
  0
POINT
  5
A1
330
9B
100
AcDbEntity
  8
Defpoints
 62
     0
100
AcDbPoint
 10
106.3687833375777
 20
-37.589373490231
 30
0.0
  0
ENDBLK
  5
A2
330
9B
100
AcDbEntity
  8
0
100
AcDbBlockEnd
  0
BLOCK
  5
A4
330
A3
100
AcDbEntity
  8
0
100
AcDbBlockBegin
  2
*D4
 70
     1
 10
0.0
 20
0.0
 30
0.0
  3
*D4
  1
*D4
  0
LINE
  5
A5
330
A3
100
AcDbEntity
  8
DIMENSION
 62
     0
370
    -2
100
AcDbLine
 10
111.7447833375774
 20
-22.05937349023079
 30
0.0
 11
115.8687833375773
 21
-22.05937349023079
 31
0.0
  0
MTEXT
  5
A6
330
A3
100
AcDbEntity
  8
DIMENSION
 62
     0
100
AcDbMText
 10
117.9312833375773
 20
-22.05937349023079
 30
0.0
 40
0.75
 41
0.0
 71
     5
 72
     1
  1
\A1;15.530
 73
     1
 44
1.0
  0
POINT
  5
A7
330
A3
100
AcDbEntity
  8
Defpoints
 62
     0
100
AcDbPoint
 10
111.3697833375774
 20
-22.05937349023079
 30
0.0
  0
POINT
  5
A8
330
A3
100
AcDbEntity
  8
Defpoints
 62
     0
100
AcDbPoint
 10
115.8687833375773
 20
-22.05937349023079
 30
0.0
  0
POINT
  5
A9
330
A3
100
AcDbEntity
  8
Defpoints
 62
     0
100
AcDbPoint
 10
106.3687833375777
 20
-37.589373490231
 30
0.0
  0
ENDBLK
  5
AA
330
A3
100
AcDbEntity
  8
0
100
AcDbBlockEnd
  0
BLOCK
  5
AC
330
AB
100
AcDbEntity
  8
0
100
AcDbBlockBegin
  2
*D5
 70
     1
 10
0.0
 20
0.0
 30
0.0
  3
*D5
  1
*D5
  0
LINE
  5
AD
330
AB
100
AcDbEntity
  8
DIMENSION
 62
     0
370
    -2
100
AcDbLine
 10
106.7447833375774
 20
-18.18387349023091
 30
0.0
 11
103.3687833375774
 21
-18.18387349023091
 31
0.0
  0
MTEXT
  5
AE
330
AB
100
AcDbEntity
  8
DIMENSION
 62
     0
100
AcDbMText
 10
101.3062833375774
 20
-18.18387349023091
 30
0.0
 40
0.75
 41
0.0
 71
     5
 72
     1
  1
\A1;19.406
 73
     1
 44
1.0
  0
POINT
  5
AF
330
AB
100
AcDbEntity
  8
Defpoints
 62
     0
100
AcDbPoint
 10
107.1197833375774
 20
-18.18387349023091
 30
0.0
  0
POINT
  5
B0
330
AB
100
AcDbEntity
  8
Defpoints
 62
     0
100
AcDbPoint
 10
103.3687833375774
 20
-18.18387349023091
 30
0.0
  0
POINT
  5
B1
330
AB
100
AcDbEntity
  8
Defpoints
 62
     0
100
AcDbPoint
 10
106.3687833375777
 20
-37.589373490231
 30
0.0
  0
ENDBLK
  5
B2
330
AB
100
AcDbEntity
  8
0
100
AcDbBlockEnd
  0
BLOCK
  5
B4
330
B3
100
AcDbEntity
  8
0
100
AcDbBlockBegin
  2
*D6
 70
     1
 10
0.0
 20
0.0
 30
0.0
  3
*D6
  1
*D6
  0
LINE
  5
B5
330
B3
100
AcDbEntity
  8
DIMENSION
 62
     0
370
    -2
100
AcDbLine
 10
107.9517833375774
 20
-17.39437349023082
 30
0.0
 11
107.9517833375774
 21
-40.58937349023103
 31
0.0
  0
MTEXT
  5
B6
330
B3
100
AcDbEntity
  8
DIMENSION
 62
     0
100
AcDbMText
 10
107.9517833375774
 20
-42.33937349023103
 30
0.0
 40
0.75
 41
0.0
 71
     5
 72
     1
  1
\A1;1.583
 11
1.000000000000000E-16
 21
1.0
 31
0.0
 73
     1
 44
1.0
  0
POINT
  5
B7
330
B3
100
AcDbEntity
  8
Defpoints
 62
     0
100
AcDbPoint
 10
107.9517833375774
 20
-17.01937349023082
 30
0.0
  0
POINT
  5
B8
330
B3
100
AcDbEntity
  8
Defpoints
 62
     0
100
AcDbPoint
 10
107.9517833375774
 20
-40.58937349023103
 30
0.0
  0
POINT
  5
B9
330
B3
100
AcDbEntity
  8
Defpoints
 62
     0
100
AcDbPoint
 10
106.3687833375777
 20
-37.589373490231
 30
0.0
  0
ENDBLK
  5
BA
330
B3
100
AcDbEntity
  8
0
100
AcDbBlockEnd
  0
BLOCK
  5
BC
330
BB
100
AcDbEntity
  8
0
100
AcDbBlockBegin
  2
*D7
 70
     1
 10
0.0
 20
0.0
 30
0.0
  3
*D7
  1
*D7
  0
LINE
  5
BD
330
BB
100
AcDbEntity
  8
DIMENSION
 62
     0
370
    -2
100
AcDbLine
 10
112.4017833375774
 20
-17.39437349023082
 30
0.0
 11
112.4017833375774
 21
-40.58937349023103
 31
0.0
  0
MTEXT
  5
BE
330
BB
100
AcDbEntity
  8
DIMENSION
 62
     0
100
AcDbMText
 10
112.4017833375774
 20
-42.40187349023103
 30
0.0
 40
0.75
 41
0.0
 71
     5
 72
     1
  1
\A1;6.033
 11
1.000000000000000E-16
 21
1.0
 31
0.0
 73
     1
 44
1.0
  0
POINT
  5
BF
330
BB
100
AcDbEntity
  8
Defpoints
 62
     0
100
AcDbPoint
 10
112.4017833375774
 20
-17.01937349023082
 30
0.0
  0
POINT
  5
C0
330
BB
100
AcDbEntity
  8
Defpoints
 62
     0
100
AcDbPoint
 10
112.4017833375774
 20
-40.58937349023103
 30
0.0
  0
POINT
  5
C1
330
BB
100
AcDbEntity
  8
Defpoints
 62
     0
100
AcDbPoint
 10
106.3687833375777
 20
-37.589373490231
 30
0.0
  0
ENDBLK
  5
C2
330
BB
100
AcDbEntity
  8
0
100
AcDbBlockEnd
  0
BLOCK
  5
C4
330
C3
100
AcDbEntity
  8
0
100
AcDbBlockBegin
  2
*D8
 70
     1
 10
0.0
 20
0.0
 30
0.0
  3
*D8
  1
*D8
  0
LINE
  5
C5
330
C3
100
AcDbEntity
  8
DIMENSION
 62
     0
370
    -2
100
AcDbLine
 10
112.7767833375774
 20
-17.01937349023082
 30
0.0
 11
115.8687833375773
 21
-17.01937349023082
 31
0.0
  0
MTEXT
  5
C6
330
C3
100
AcDbEntity
  8
DIMENSION
 62
     0
100
AcDbMText
 10
117.9937833375773
 20
-17.01937349023082
 30
0.0
 40
0.75
 41
0.0
 71
     5
 72
     1
  1
\A1;20.570
 73
     1
 44
1.0
  0
POINT
  5
C7
330
C3
100
AcDbEntity
  8
Defpoints
 62
     0
100
AcDbPoint
 10
112.4017833375774
 20
-17.01937349023082
 30
0.0
  0
POINT
  5
C8
330
C3
100
AcDbEntity
  8
Defpoints
 62
     0
100
AcDbPoint
 10
115.8687833375773
 20
-17.01937349023082
 30
0.0
  0
POINT
  5
C9
330
C3
100
AcDbEntity
  8
Defpoints
 62
     0
100
AcDbPoint
 10
106.3687833375777
 20
-37.589373490231
 30
0.0
  0
ENDBLK
  5
CA
330
C3
100
AcDbEntity
  8
0
100
AcDbBlockEnd
  0
BLOCK
  5
CC
330
CB
100
AcDbEntity
  8
0
100
AcDbBlockBegin
  2
*D9
 70
     1
 10
0.0
 20
0.0
 30
0.0
  3
*D9
  1
*D9
  0
LINE
  5
CD
330
CB
100
AcDbEntity
  8
DIMENSION
 62
     0
370
    -2
100
AcDbLine
 10
112.7767833375774
 20
-11.49437349023108
 30
0.0
 11
115.8687833375773
 21
-11.49437349023108
 31
0.0
  0
MTEXT
  5
CE
330
CB
100
AcDbEntity
  8
DIMENSION
 62
     0
100
AcDbMText
 10
118.0562833375773
 20
-11.49437349023108
 30
0.0
 40
0.75
 41
0.0
 71
     5
 72
     1
  1
\A1;26.095
 73
     1
 44
1.0
  0
POINT
  5
CF
330
CB
100
AcDbEntity
  8
Defpoints
 62
     0
100
AcDbPoint
 10
112.4017833375774
 20
-11.49437349023108
 30
0.0
  0
POINT
  5
D0
330
CB
100
AcDbEntity
  8
Defpoints
 62
     0
100
AcDbPoint
 10
115.8687833375773
 20
-11.49437349023108
 30
0.0
  0
POINT
  5
D1
330
CB
100
AcDbEntity
  8
Defpoints
 62
     0
100
AcDbPoint
 10
106.3687833375777
 20
-37.589373490231
 30
0.0
  0
ENDBLK
  5
D2
330
CB
100
AcDbEntity
  8
0
100
AcDbBlockEnd
  0
BLOCK
  5
D4
330
D3
100
AcDbEntity
  8
0
100
AcDbBlockBegin
  2
*D10
 70
     1
 10
0.0
 20
0.0
 30
0.0
  3
*D10
  1
*D10
  0
LINE
  5
D5
330
D3
100
AcDbEntity
  8
DIMENSION
 62
     0
370
    -2
100
AcDbLine
 10
106.7447833375774
 20
-10.43387349023091
 30
0.0
 11
103.3687833375774
 21
-10.43387349023091
 31
0.0
  0
MTEXT
  5
D6
330
D3
100
AcDbEntity
  8
DIMENSION
 62
     0
100
AcDbMText
 10
101.2437833375774
 20
-10.43387349023091
 30
0.0
 40
0.75
 41
0.0
 71
     5
 72
     1
  1
\A1;27.156
 73
     1
 44
1.0
  0
POINT
  5
D7
330
D3
100
AcDbEntity
  8
Defpoints
 62
     0
100
AcDbPoint
 10
107.1197833375774
 20
-10.43387349023091
 30
0.0
  0
POINT
  5
D8
330
D3
100
AcDbEntity
  8
Defpoints
 62
     0
100
AcDbPoint
 10
103.3687833375774
 20
-10.43387349023091
 30
0.0
  0
POINT
  5
D9
330
D3
100
AcDbEntity
  8
Defpoints
 62
     0
100
AcDbPoint
 10
106.3687833375777
 20
-37.589373490231
 30
0.0
  0
ENDBLK
  5
DA
330
D3
100
AcDbEntity
  8
0
100
AcDbBlockEnd
  0
BLOCK
  5
DC
330
DB
100
AcDbEntity
  8
0
100
AcDbBlockBegin
  2
*D11
 70
     1
 10
0.0
 20
0.0
 30
0.0
  3
*D11
  1
*D11
  0
LINE
  5
DD
330
DB
100
AcDbEntity
  8
DIMENSION
 62
     0
370
    -2
100
AcDbLine
 10
109.9947833375774
 20
-7.289373490230807
 30
0.0
 11
115.8687833375773
 21
-7.289373490230807
 31
0.0
  0
MTEXT
  5
DE
330
DB
100
AcDbEntity
  8
DIMENSION
 62
     0
100
AcDbMText
 10
117.9312833375773
 20
-7.289373490230807
 30
0.0
 40
0.75
 41
0.0
 71
     5
 72
     1
  1
\A1;30.300
 73
     1
 44
1.0
  0
POINT
  5
DF
330
DB
100
AcDbEntity
  8
Defpoints
 62
     0
100
AcDbPoint
 10
109.6197833375774
 20
-7.289373490230807
 30
0.0
  0
POINT
  5
E0
330
DB
100
AcDbEntity
  8
Defpoints
 62
     0
100
AcDbPoint
 10
115.8687833375773
 20
-7.289373490230807
 30
0.0
  0
POINT
  5
E1
330
DB
100
AcDbEntity
  8
Defpoints
 62
     0
100
AcDbPoint
 10
106.3687833375777
 20
-37.589373490231
 30
0.0
  0
ENDBLK
  5
E2
330
DB
100
AcDbEntity
  8
0
100
AcDbBlockEnd
  0
BLOCK
  5
E4
330
E3
100
AcDbEntity
  8
0
100
AcDbBlockBegin
  2
*D12
 70
     1
 10
0.0
 20
0.0
 30
0.0
  3
*D12
  1
*D12
  0
LINE
  5
E5
330
E3
100
AcDbEntity
  8
DIMENSION
 62
     0
370
    -2
100
AcDbLine
 10
106.7447833375774
 20
-4.43437349023079
 30
0.0
 11
103.3687833375774
 21
-4.43437349023079
 31
0.0
  0
MTEXT
  5
E6
330
E3
100
AcDbEntity
  8
DIMENSION
 62
     0
100
AcDbMText
 10
101.2437833375774
 20
-4.43437349023079
 30
0.0
 40
0.75
 41
0.0
 71
     5
 72
     1
  1
\A1;33.155
 73
     1
 44
1.0
  0
POINT
  5
E7
330
E3
100
AcDbEntity
  8
Defpoints
 62
     0
100
AcDbPoint
 10
107.1197833375774
 20
-4.43437349023079
 30
0.0
  0
POINT
  5
E8
330
E3
100
AcDbEntity
  8
Defpoints
 62
     0
100
AcDbPoint
 10
103.3687833375774
 20
-4.43437349023079
 30
0.0
  0
POINT
  5
E9
330
E3
100
AcDbEntity
  8
Defpoints
 62
     0
100
AcDbPoint
 10
106.3687833375777
 20
-37.589373490231
 30
0.0
  0
ENDBLK
  5
EA
330
E3
100
AcDbEntity
  8
0
100
AcDbBlockEnd
  0
BLOCK
  5
EC
330
EB
100
AcDbEntity
  8
0
100
AcDbBlockBegin
  2
*D13
 70
     1
 10
0.0
 20
0.0
 30
0.0
  3
*D13
  1
*D13
  0
LINE
  5
ED
330
EB
100
AcDbEntity
  8
DIMENSION
 62
     0
370
    -2
100
AcDbLine
 10
113.2437833375774
 20
-3.559373490230676
 30
0.0
 11
115.8687833375773
 21
-3.559373490230676
 31
0.0
  0
MTEXT
  5
EE
330
EB
100
AcDbEntity
  8
DIMENSION
 62
     0
100
AcDbMText
 10
117.9937833375773
 20
-3.559373490230676
 30
0.0
 40
0.75
 41
0.0
 71
     5
 72
     1
  1
\A1;34.030
 73
     1
 44
1.0
  0
POINT
  5
EF
330
EB
100
AcDbEntity
  8
Defpoints
 62
     0
100
AcDbPoint
 10
112.8687833375774
 20
-3.559373490230676
 30
0.0
  0
POINT
  5
F0
330
EB
100
AcDbEntity
  8
Defpoints
 62
     0
100
AcDbPoint
 10
115.8687833375773
 20
-3.559373490230676
 30
0.0
  0
POINT
  5
F1
330
EB
100
AcDbEntity
  8
Defpoints
 62
     0
100
AcDbPoint
 10
106.3687833375777
 20
-37.589373490231
 30
0.0
  0
ENDBLK
  5
F2
330
EB
100
AcDbEntity
  8
0
100
AcDbBlockEnd
  0
BLOCK
  5
F4
330
F3
100
AcDbEntity
  8
0
100
AcDbBlockBegin
  2
*D14
 70
     1
 10
0.0
 20
0.0
 30
0.0
  3
*D14
  1
*D14
  0
LINE
  5
F5
330
F3
100
AcDbEntity
  8
DIMENSION
 62
     0
370
    -2
100
AcDbLine
 10
107.1197833375774
 20
-4.05937349023079
 30
0.0
 11
107.1197833375774
 21
-0.559373490230783
 31
0.0
  0
MTEXT
  5
F6
330
F3
100
AcDbEntity
  8
DIMENSION
 62
     0
100
AcDbMText
 10
107.1197833375774
 20
1.190626509769234
 30
0.0
 40
0.75
 41
0.0
 71
     5
 72
     1
  1
\A1;0.750
 11
1.000000000000000E-16
 21
1.0
 31
0.0
 73
     1
 44
1.0
  0
POINT
  5
F7
330
F3
100
AcDbEntity
  8
Defpoints
 62
     0
100
AcDbPoint
 10
107.1197833375774
 20
-4.43437349023079
 30
0.0
  0
POINT
  5
F8
330
F3
100
AcDbEntity
  8
Defpoints
 62
     0
100
AcDbPoint
 10
107.1197833375774
 20
-0.559373490230783
 30
0.0
  0
POINT
  5
F9
330
F3
100
AcDbEntity
  8
Defpoints
 62
     0
100
AcDbPoint
 10
106.3687833375777
 20
-37.589373490231
 30
0.0
  0
ENDBLK
  5
FA
330
F3
100
AcDbEntity
  8
0
100
AcDbBlockEnd
  0
BLOCK
  5
FC
330
FB
100
AcDbEntity
  8
0
100
AcDbBlockBegin
  2
*D15
 70
     1
 10
0.0
 20
0.0
 30
0.0
  3
*D15
  1
*D15
  0
LINE
  5
FD
330
FB
100
AcDbEntity
  8
DIMENSION
 62
     0
370
    -2
100
AcDbLine
 10
109.6197833375774
 20
-6.914373490230807
 30
0.0
 11
109.6197833375774
 21
-0.5593734902307901
 31
0.0
  0
MTEXT
  5
FE
330
FB
100
AcDbEntity
  8
DIMENSION
 62
     0
100
AcDbMText
 10
109.6197833375774
 20
1.253126509769227
 30
0.0
 40
0.75
 41
0.0
 71
     5
 72
     1
  1
\A1;3.250
 11
1.000000000000000E-16
 21
1.0
 31
0.0
 73
     1
 44
1.0
  0
POINT
  5
FF
330
FB
100
AcDbEntity
  8
Defpoints
 62
     0
100
AcDbPoint
 10
109.6197833375774
 20
-7.289373490230807
 30
0.0
  0
POINT
  5
100
330
FB
100
AcDbEntity
  8
Defpoints
 62
     0
100
AcDbPoint
 10
109.6197833375774
 20
-0.5593734902307901
 30
0.0
  0
POINT
  5
101
330
FB
100
AcDbEntity
  8
Defpoints
 62
     0
100
AcDbPoint
 10
106.3687833375777
 20
-37.589373490231
 30
0.0
  0
ENDBLK
  5
102
330
FB
100
AcDbEntity
  8
0
100
AcDbBlockEnd
  0
BLOCK
  5
104
330
103
100
AcDbEntity
  8
0
100
AcDbBlockBegin
  2
*D16
 70
     1
 10
0.0
 20
0.0
 30
0.0
  3
*D16
  1
*D16
  0
LINE
  5
105
330
103
100
AcDbEntity
  8
DIMENSION
 62
     0
370
    -2
100
AcDbLine
 10
112.1197833375774
 20
-4.05937349023079
 30
0.0
 11
112.1197833375774
 21
-2.934373490230788
 31
0.0
  0
LINE
  5
106
330
103
100
AcDbEntity
  8
DIMENSION
 62
     0
370
    -2
100
AcDbLine
 10
112.1197833375774
 20
-2.934373490230788
 30
0.0
 11
111.8687833375774
 21
-2.05937349023079
 31
0.0
  0
LINE
  5
107
330
103
100
AcDbEntity
  8
DIMENSION
 62
     0
370
    -2
100
AcDbLine
 10
111.8687833375774
 20
-2.05937349023079
 30
0.0
 11
111.8687833375774
 21
-0.5593734902307901
 31
0.0
  0
MTEXT
  5
108
330
103
100
AcDbEntity
  8
DIMENSION
 62
     0
100
AcDbMText
 10
111.8687833375774
 20
1.253126509769227
 30
0.0
 40
0.75
 41
0.0
 71
     5
 72
     1
  1
\A1;5.750
 11
1.000000000000000E-16
 21
1.0
 31
0.0
 73
     1
 44
1.0
  0
POINT
  5
109
330
103
100
AcDbEntity
  8
Defpoints
 62
     0
100
AcDbPoint
 10
112.1197833375774
 20
-4.43437349023079
 30
0.0
  0
POINT
  5
10A
330
103
100
AcDbEntity
  8
Defpoints
 62
     0
100
AcDbPoint
 10
111.8687833375774
 20
-0.5593734902307901
 30
0.0
  0
POINT
  5
10B
330
103
100
AcDbEntity
  8
Defpoints
 62
     0
100
AcDbPoint
 10
106.3687833375777
 20
-37.589373490231
 30
0.0
  0
ENDBLK
  5
10C
330
103
100
AcDbEntity
  8
0
100
AcDbBlockEnd
  0
BLOCK
  5
10E
330
10D
100
AcDbEntity
  8
0
100
AcDbBlockBegin
  2
*D17
 70
     1
 10
0.0
 20
0.0
 30
0.0
  3
*D17
  1
*D17
  0
LINE
  5
10F
330
10D
100
AcDbEntity
  8
DIMENSION
 62
     0
370
    -2
100
AcDbLine
 10
112.8687833375774
 20
-3.184373490230676
 30
0.0
 11
112.8687833375774
 21
-0.5593734902307901
 31
0.0
  0
MTEXT
  5
110
330
10D
100
AcDbEntity
  8
DIMENSION
 62
     0
100
AcDbMText
 10
112.8687833375774
 20
1.190626509769227
 30
0.0
 40
0.75
 41
0.0
 71
     5
 72
     1
  1
\A1;6.500
 11
1.000000000000000E-16
 21
1.0
 31
0.0
 73
     1
 44
1.0
  0
POINT
  5
111
330
10D
100
AcDbEntity
  8
Defpoints
 62
     0
100
AcDbPoint
 10
112.8687833375774
 20
-3.559373490230676
 30
0.0
  0
POINT
  5
112
330
10D
100
AcDbEntity
  8
Defpoints
 62
     0
100
AcDbPoint
 10
112.8687833375774
 20
-0.5593734902307901
 30
0.0
  0
POINT
  5
113
330
10D
100
AcDbEntity
  8
Defpoints
 62
     0
100
AcDbPoint
 10
106.3687833375777
 20
-37.589373490231
 30
0.0
  0
ENDBLK
  5
114
330
10D
100
AcDbEntity
  8
0
100
AcDbBlockEnd
  0
BLOCK
  5
116
330
115
100
AcDbEntity
  8
0
100
AcDbBlockBegin
  2
*D18
 70
     1
 10
0.0
 20
0.0
 30
0.0
  3
*D18
  1
*D18
  0
LINE
  5
117
330
115
100
AcDbEntity
  8
DIMENSION
 62
     0
370
    -2
100
AcDbLine
 10
111.3697833375774
 20
-23.93437349023079
 30
0.0
 11
111.3697833375774
 21
-40.58937349023103
 31
0.0
  0
MTEXT
  5
118
330
115
100
AcDbEntity
  8
DIMENSION
 62
     0
100
AcDbMText
 10
111.3697833375774
 20
-42.21437349023104
 30
0.0
 40
0.75
 41
0.0
 71
     5
 72
     1
  1
\A1;5.001
 11
1.000000000000000E-16
 21
1.0
 31
0.0
 73
     1
 44
1.0
  0
POINT
  5
119
330
115
100
AcDbEntity
  8
Defpoints
 62
     0
100
AcDbPoint
 10
111.3697833375774
 20
-23.55937349023079
 30
0.0
  0
POINT
  5
11A
330
115
100
AcDbEntity
  8
Defpoints
 62
     0
100
AcDbPoint
 10
111.3697833375774
 20
-40.58937349023103
 30
0.0
  0
POINT
  5
11B
330
115
100
AcDbEntity
  8
Defpoints
 62
     0
100
AcDbPoint
 10
106.3687833375777
 20
-37.589373490231
 30
0.0
  0
ENDBLK
  5
11C
330
115
100
AcDbEntity
  8
0
100
AcDbBlockEnd
  0
BLOCK
  5
11E
330
11D
100
AcDbEntity
  8
0
100
AcDbBlockBegin
  2
*D19
 70
     1
 10
0.0
 20
0.0
 30
0.0
  3
*D19
  1
*D19
  0
LINE
  5
11F
330
11D
100
AcDbEntity
  8
0
 62
     0
370
    -2
100
AcDbLine
 10
111.7447833375774
 20
-23.55937349023079
 30
0.0
 11
115.80985874069
 21
-23.55937349023079
 31
0.0
  0
MTEXT
  5
120
330
11D
100
AcDbEntity
  8
0
 62
     0
100
AcDbMText
 10
117.80985874069
 20
-23.55937349023079
 30
0.0
 40
0.75
 41
0.0
 71
     5
 72
     1
  1
\A1;14.030
 73
     1
 44
1.0
  0
POINT
  5
121
330
11D
100
AcDbEntity
  8
Defpoints
 62
     0
100
AcDbPoint
 10
111.3697833375774
 20
-23.55937349023079
 30
0.0
  0
POINT
  5
122
330
11D
100
AcDbEntity
  8
Defpoints
 62
     0
100
AcDbPoint
 10
115.80985874069
 20
-23.55937349023079
 30
0.0
  0
POINT
  5
123
330
11D
100
AcDbEntity
  8
Defpoints
 62
     0
100
AcDbPoint
 10
106.3687833375777
 20
-37.589373490231
 30
0.0
  0
ENDBLK
  5
124
330
11D
100
AcDbEntity
  8
0
100
AcDbBlockEnd
  0
BLOCK
  5
40F
330
409
100
AcDbEntity
  8
0
100
AcDbBlockBegin
  2
*D20
 70
     1
 10
0.0
 20
0.0
 30
0.0
  3
*D20
  1
*D20
  0
LINE
  5
8FA
330
409
100
AcDbEntity
  8
DIMENSION
 62
     0
370
    -2
100
AcDbLine
 10
106.0048609078125
 20
30.33917163545498
 30
0.0
 11
102.3163609078125
 21
30.33917163545498
 31
0.0
  0
MTEXT
  5
8FB
330
409
100
AcDbEntity
  8
DIMENSION
 62
     0
100
AcDbMText
 10
100.5388609078125
 20
30.33917163545498
 30
0.0
 40
0.75
 41
0.0
 71
     5
 72
     1
  1
\A1;19.406
 73
     1
 44
1.0
  0
POINT
  5
8FC
330
409
100
AcDbEntity
  8
Defpoints
 62
     0
100
AcDbPoint
 10
106.0673609078125
 20
30.33917163545498
 30
0.0
  0
POINT
  5
8FD
330
409
100
AcDbEntity
  8
Defpoints
 62
     0
100
AcDbPoint
 10
102.3163609078125
 20
30.33917163545498
 30
0.0
  0
POINT
  5
8FE
330
409
100
AcDbEntity
  8
Defpoints
 62
     0
100
AcDbPoint
 10
105.3163609078129
 20
10.9336716354549
 30
0.0
  0
ENDBLK
  5
410
330
409
100
AcDbEntity
  8
0
100
AcDbBlockEnd
  0
BLOCK
  5
417
330
411
100
AcDbEntity
  8
0
100
AcDbBlockBegin
  2
*D21
 70
     1
 10
0.0
 20
0.0
 30
0.0
  3
*D21
  1
*D21
  0
LINE
  5
8F5
330
411
100
AcDbEntity
  8
DIMENSION
 62
     0
370
    -2
100
AcDbLine
 10
106.0048609078125
 20
20.33917163545497
 30
0.0
 11
102.3163609078125
 21
20.33917163545497
 31
0.0
  0
MTEXT
  5
8F6
330
411
100
AcDbEntity
  8
DIMENSION
 62
     0
100
AcDbMText
 10
100.7888609078125
 20
20.33917163545497
 30
0.0
 40
0.75
 41
0.0
 71
     5
 72
     1
  1
\A1;9.406
 73
     1
 44
1.0
  0
POINT
  5
8F7
330
411
100
AcDbEntity
  8
Defpoints
 62
     0
100
AcDbPoint
 10
106.0673609078125
 20
20.33917163545497
 30
0.0
  0
POINT
  5
8F8
330
411
100
AcDbEntity
  8
Defpoints
 62
     0
100
AcDbPoint
 10
102.3163609078125
 20
20.33917163545497
 30
0.0
  0
POINT
  5
8F9
330
411
100
AcDbEntity
  8
Defpoints
 62
     0
100
AcDbPoint
 10
105.3163609078129
 20
10.9336716354549
 30
0.0
  0
ENDBLK
  5
418
330
411
100
AcDbEntity
  8
0
100
AcDbBlockEnd
  0
BLOCK
  5
41F
330
419
100
AcDbEntity
  8
0
100
AcDbBlockBegin
  2
*D22
 70
     1
 10
0.0
 20
0.0
 30
0.0
  3
*D22
  1
*D22
  0
LINE
  5
8F0
330
419
100
AcDbEntity
  8
DIMENSION
 62
     0
370
    -2
100
AcDbLine
 10
105.2538609078129
 20
10.9336716354549
 30
0.0
 11
102.3163609078125
 21
10.9336716354549
 31
0.0
  0
MTEXT
  5
8F1
330
419
100
AcDbEntity
  8
DIMENSION
 62
     0
100
AcDbMText
 10
100.9763609078125
 20
10.9336716354549
 30
0.0
 40
0.75
 41
0.0
 71
     5
 72
     1
  1
\A1;0.000
 73
     1
 44
1.0
  0
POINT
  5
8F2
330
419
100
AcDbEntity
  8
Defpoints
 62
     0
100
AcDbPoint
 10
105.3163609078129
 20
10.9336716354549
 30
0.0
  0
POINT
  5
8F3
330
419
100
AcDbEntity
  8
Defpoints
 62
     0
100
AcDbPoint
 10
102.3163609078125
 20
10.9336716354549
 30
0.0
  0
POINT
  5
8F4
330
419
100
AcDbEntity
  8
Defpoints
 62
     0
100
AcDbPoint
 10
105.3163539835141
 20
10.9336716354549
 30
0.0
  0
ENDBLK
  5
420
330
419
100
AcDbEntity
  8
0
100
AcDbBlockEnd
  0
BLOCK
  5
427
330
421
100
AcDbEntity
  8
0
100
AcDbBlockBegin
  2
*D23
 70
     1
 10
0.0
 20
0.0
 30
0.0
  3
*D23
  1
*D23
  0
LINE
  5
8EB
330
421
100
AcDbEntity
  8
DIMENSION
 62
     0
370
    -2
100
AcDbLine
 10
106.0048609078125
 20
44.0886716354551
 30
0.0
 11
102.3163609078125
 21
44.0886716354551
 31
0.0
  0
MTEXT
  5
8EC
330
421
100
AcDbEntity
  8
DIMENSION
 62
     0
100
AcDbMText
 10
100.4763609078125
 20
44.0886716354551
 30
0.0
 40
0.75
 41
0.0
 71
     5
 72
     1
  1
\A1;33.155
 73
     1
 44
1.0
  0
POINT
  5
8ED
330
421
100
AcDbEntity
  8
Defpoints
 62
     0
100
AcDbPoint
 10
106.0673609078125
 20
44.0886716354551
 30
0.0
  0
POINT
  5
8EE
330
421
100
AcDbEntity
  8
Defpoints
 62
     0
100
AcDbPoint
 10
102.3163609078125
 20
44.0886716354551
 30
0.0
  0
POINT
  5
8EF
330
421
100
AcDbEntity
  8
Defpoints
 62
     0
100
AcDbPoint
 10
105.3163609078129
 20
10.9336716354549
 30
0.0
  0
ENDBLK
  5
428
330
421
100
AcDbEntity
  8
0
100
AcDbBlockEnd
  0
BLOCK
  5
42F
330
429
100
AcDbEntity
  8
0
100
AcDbBlockBegin
  2
*D24
 70
     1
 10
0.0
 20
0.0
 30
0.0
  3
*D24
  1
*D24
  0
LINE
  5
8E6
330
429
100
AcDbEntity
  8
DIMENSION
 62
     0
370
    -2
100
AcDbLine
 10
106.0048609078125
 20
38.08917163545498
 30
0.0
 11
102.3163609078125
 21
38.08917163545498
 31
0.0
  0
MTEXT
  5
8E7
330
429
100
AcDbEntity
  8
DIMENSION
 62
     0
100
AcDbMText
 10
100.4763609078125
 20
38.08917163545498
 30
0.0
 40
0.75
 41
0.0
 71
     5
 72
     1
  1
\A1;27.156
 73
     1
 44
1.0
  0
POINT
  5
8E8
330
429
100
AcDbEntity
  8
Defpoints
 62
     0
100
AcDbPoint
 10
106.0673609078125
 20
38.08917163545498
 30
0.0
  0
POINT
  5
8E9
330
429
100
AcDbEntity
  8
Defpoints
 62
     0
100
AcDbPoint
 10
102.3163609078125
 20
38.08917163545498
 30
0.0
  0
POINT
  5
8EA
330
429
100
AcDbEntity
  8
Defpoints
 62
     0
100
AcDbPoint
 10
105.3163609078129
 20
10.9336716354549
 30
0.0
  0
ENDBLK
  5
430
330
429
100
AcDbEntity
  8
0
100
AcDbBlockEnd
  0
BLOCK
  5
437
330
431
100
AcDbEntity
  8
0
100
AcDbBlockBegin
  2
*D25
 70
     1
 10
0.0
 20
0.0
 30
0.0
  3
*D25
  1
*D25
  0
LINE
  5
8E1
330
431
100
AcDbEntity
  8
DIMENSION
 62
     0
370
    -2
100
AcDbLine
 10
111.8163609078125
 20
45.0261716354552
 30
0.0
 11
111.8163609078125
 21
47.9636716354551
 31
0.0
  0
MTEXT
  5
8E2
330
431
100
AcDbEntity
  8
DIMENSION
 62
     0
100
AcDbMText
 10
111.8163609078125
 20
49.42867163545511
 30
0.0
 40
0.75
 41
0.0
 71
     5
 72
     1
  1
\A1;6.500
 11
1.000000000000000E-16
 21
1.0
 31
0.0
 73
     1
 44
1.0
  0
POINT
  5
8E3
330
431
100
AcDbEntity
  8
Defpoints
 62
     0
100
AcDbPoint
 10
111.8163609078125
 20
44.9636716354552
 30
0.0
  0
POINT
  5
8E4
330
431
100
AcDbEntity
  8
Defpoints
 62
     0
100
AcDbPoint
 10
111.8163609078125
 20
47.9636716354551
 30
0.0
  0
POINT
  5
8E5
330
431
100
AcDbEntity
  8
Defpoints
 62
     0
100
AcDbPoint
 10
105.3163609078129
 20
10.9336716354549
 30
0.0
  0
ENDBLK
  5
438
330
431
100
AcDbEntity
  8
0
100
AcDbBlockEnd
  0
BLOCK
  5
441
330
439
100
AcDbEntity
  8
0
100
AcDbBlockBegin
  2
*D26
 70
     1
 10
0.0
 20
0.0
 30
0.0
  3
*D26
  1
*D26
  0
LINE
  5
8DA
330
439
100
AcDbEntity
  8
DIMENSION
 62
     0
370
    -2
100
AcDbLine
 10
111.0673609078125
 20
44.15117163545509
 30
0.0
 11
111.0673609078125
 21
45.58867163545509
 31
0.0
  0
LINE
  5
8DB
330
439
100
AcDbEntity
  8
DIMENSION
 62
     0
370
    -2
100
AcDbLine
 10
111.0673609078125
 20
45.58867163545509
 30
0.0
 11
110.8163609078125
 21
46.4636716354551
 31
0.0
  0
LINE
  5
8DC
330
439
100
AcDbEntity
  8
DIMENSION
 62
     0
370
    -2
100
AcDbLine
 10
110.8163609078125
 20
46.4636716354551
 30
0.0
 11
110.8163609078125
 21
47.9636716354551
 31
0.0
  0
MTEXT
  5
8DD
330
439
100
AcDbEntity
  8
DIMENSION
 62
     0
100
AcDbMText
 10
110.8163609078125
 20
49.49117163545511
 30
0.0
 40
0.75
 41
0.0
 71
     5
 72
     1
  1
\A1;5.750
 11
1.000000000000000E-16
 21
1.0
 31
0.0
 73
     1
 44
1.0
  0
POINT
  5
8DE
330
439
100
AcDbEntity
  8
Defpoints
 62
     0
100
AcDbPoint
 10
111.0673609078125
 20
44.0886716354551
 30
0.0
  0
POINT
  5
8DF
330
439
100
AcDbEntity
  8
Defpoints
 62
     0
100
AcDbPoint
 10
110.8163609078125
 20
47.9636716354551
 30
0.0
  0
POINT
  5
8E0
330
439
100
AcDbEntity
  8
Defpoints
 62
     0
100
AcDbPoint
 10
105.3163609078129
 20
10.9336716354549
 30
0.0
  0
ENDBLK
  5
442
330
439
100
AcDbEntity
  8
0
100
AcDbBlockEnd
  0
BLOCK
  5
449
330
443
100
AcDbEntity
  8
0
100
AcDbBlockBegin
  2
*D27
 70
     1
 10
0.0
 20
0.0
 30
0.0
  3
*D27
  1
*D27
  0
LINE
  5
8D5
330
443
100
AcDbEntity
  8
DIMENSION
 62
     0
370
    -2
100
AcDbLine
 10
108.5673609078125
 20
41.29617163545508
 30
0.0
 11
108.5673609078125
 21
47.9636716354551
 31
0.0
  0
MTEXT
  5
8D6
330
443
100
AcDbEntity
  8
DIMENSION
 62
     0
100
AcDbMText
 10
108.5673609078125
 20
49.49117163545511
 30
0.0
 40
0.75
 41
0.0
 71
     5
 72
     1
  1
\A1;3.250
 11
1.000000000000000E-16
 21
1.0
 31
0.0
 73
     1
 44
1.0
  0
POINT
  5
8D7
330
443
100
AcDbEntity
  8
Defpoints
 62
     0
100
AcDbPoint
 10
108.5673609078125
 20
41.23367163545508
 30
0.0
  0
POINT
  5
8D8
330
443
100
AcDbEntity
  8
Defpoints
 62
     0
100
AcDbPoint
 10
108.5673609078125
 20
47.9636716354551
 30
0.0
  0
POINT
  5
8D9
330
443
100
AcDbEntity
  8
Defpoints
 62
     0
100
AcDbPoint
 10
105.3163609078129
 20
10.9336716354549
 30
0.0
  0
ENDBLK
  5
44A
330
443
100
AcDbEntity
  8
0
100
AcDbBlockEnd
  0
BLOCK
  5
451
330
44B
100
AcDbEntity
  8
0
100
AcDbBlockBegin
  2
*D28
 70
     1
 10
0.0
 20
0.0
 30
0.0
  3
*D28
  1
*D28
  0
LINE
  5
8D0
330
44B
100
AcDbEntity
  8
DIMENSION
 62
     0
370
    -2
100
AcDbLine
 10
106.0673609078125
 20
44.15117163545509
 30
0.0
 11
106.0673609078125
 21
47.9636716354551
 31
0.0
  0
MTEXT
  5
8D1
330
44B
100
AcDbEntity
  8
DIMENSION
 62
     0
100
AcDbMText
 10
106.0673609078125
 20
49.42867163545511
 30
0.0
 40
0.75
 41
0.0
 71
     5
 72
     1
  1
\A1;0.750
 11
1.000000000000000E-16
 21
1.0
 31
0.0
 73
     1
 44
1.0
  0
POINT
  5
8D2
330
44B
100
AcDbEntity
  8
Defpoints
 62
     0
100
AcDbPoint
 10
106.0673609078125
 20
44.0886716354551
 30
0.0
  0
POINT
  5
8D3
330
44B
100
AcDbEntity
  8
Defpoints
 62
     0
100
AcDbPoint
 10
106.0673609078125
 20
47.9636716354551
 30
0.0
  0
POINT
  5
8D4
330
44B
100
AcDbEntity
  8
Defpoints
 62
     0
100
AcDbPoint
 10
105.3163609078129
 20
10.9336716354549
 30
0.0
  0
ENDBLK
  5
452
330
44B
100
AcDbEntity
  8
0
100
AcDbBlockEnd
  0
BLOCK
  5
459
330
453
100
AcDbEntity
  8
0
100
AcDbBlockBegin
  2
*D29
 70
     1
 10
0.0
 20
0.0
 30
0.0
  3
*D29
  1
*D29
  0
LINE
  5
8CB
330
453
100
AcDbEntity
  8
DIMENSION
 62
     0
370
    -2
100
AcDbLine
 10
111.8788609078125
 20
44.9636716354552
 30
0.0
 11
114.8163609078124
 21
44.9636716354552
 31
0.0
  0
MTEXT
  5
8CC
330
453
100
AcDbEntity
  8
DIMENSION
 62
     0
100
AcDbMText
 10
116.6563609078124
 20
44.9636716354552
 30
0.0
 40
0.75
 41
0.0
 71
     5
 72
     1
  1
\A1;34.030
 73
     1
 44
1.0
  0
POINT
  5
8CD
330
453
100
AcDbEntity
  8
Defpoints
 62
     0
100
AcDbPoint
 10
111.8163609078125
 20
44.9636716354552
 30
0.0
  0
POINT
  5
8CE
330
453
100
AcDbEntity
  8
Defpoints
 62
     0
100
AcDbPoint
 10
114.8163609078124
 20
44.9636716354552
 30
0.0
  0
POINT
  5
8CF
330
453
100
AcDbEntity
  8
Defpoints
 62
     0
100
AcDbPoint
 10
105.3163609078129
 20
10.9336716354549
 30
0.0
  0
ENDBLK
  5
45A
330
453
100
AcDbEntity
  8
0
100
AcDbBlockEnd
  0
BLOCK
  5
461
330
45B
100
AcDbEntity
  8
0
100
AcDbBlockBegin
  2
*D30
 70
     1
 10
0.0
 20
0.0
 30
0.0
  3
*D30
  1
*D30
  0
LINE
  5
8C6
330
45B
100
AcDbEntity
  8
DIMENSION
 62
     0
370
    -2
100
AcDbLine
 10
108.6298609078125
 20
41.23367163545508
 30
0.0
 11
114.8163609078124
 21
41.23367163545508
 31
0.0
  0
MTEXT
  5
8C7
330
45B
100
AcDbEntity
  8
DIMENSION
 62
     0
100
AcDbMText
 10
116.5938609078124
 20
41.23367163545508
 30
0.0
 40
0.75
 41
0.0
 71
     5
 72
     1
  1
\A1;30.300
 73
     1
 44
1.0
  0
POINT
  5
8C8
330
45B
100
AcDbEntity
  8
Defpoints
 62
     0
100
AcDbPoint
 10
108.5673609078125
 20
41.23367163545508
 30
0.0
  0
POINT
  5
8C9
330
45B
100
AcDbEntity
  8
Defpoints
 62
     0
100
AcDbPoint
 10
114.8163609078124
 20
41.23367163545508
 30
0.0
  0
POINT
  5
8CA
330
45B
100
AcDbEntity
  8
Defpoints
 62
     0
100
AcDbPoint
 10
105.3163609078129
 20
10.9336716354549
 30
0.0
  0
ENDBLK
  5
462
330
45B
100
AcDbEntity
  8
0
100
AcDbBlockEnd
  0
BLOCK
  5
469
330
463
100
AcDbEntity
  8
0
100
AcDbBlockBegin
  2
*D31
 70
     1
 10
0.0
 20
0.0
 30
0.0
  3
*D31
  1
*D31
  0
LINE
  5
8C1
330
463
100
AcDbEntity
  8
DIMENSION
 62
     0
370
    -2
100
AcDbLine
 10
111.4118609078125
 20
37.02867163545481
 30
0.0
 11
114.8163609078124
 21
37.02867163545481
 31
0.0
  0
MTEXT
  5
8C2
330
463
100
AcDbEntity
  8
DIMENSION
 62
     0
100
AcDbMText
 10
116.7188609078124
 20
37.02867163545481
 30
0.0
 40
0.75
 41
0.0
 71
     5
 72
     1
  1
\A1;26.095
 73
     1
 44
1.0
  0
POINT
  5
8C3
330
463
100
AcDbEntity
  8
Defpoints
 62
     0
100
AcDbPoint
 10
111.3493609078125
 20
37.02867163545481
 30
0.0
  0
POINT
  5
8C4
330
463
100
AcDbEntity
  8
Defpoints
 62
     0
100
AcDbPoint
 10
114.8163609078124
 20
37.02867163545481
 30
0.0
  0
POINT
  5
8C5
330
463
100
AcDbEntity
  8
Defpoints
 62
     0
100
AcDbPoint
 10
105.3163609078129
 20
10.9336716354549
 30
0.0
  0
ENDBLK
  5
46A
330
463
100
AcDbEntity
  8
0
100
AcDbBlockEnd
  0
BLOCK
  5
471
330
46B
100
AcDbEntity
  8
0
100
AcDbBlockBegin
  2
*D32
 70
     1
 10
0.0
 20
0.0
 30
0.0
  3
*D32
  1
*D32
  0
LINE
  5
8BC
330
46B
100
AcDbEntity
  8
DIMENSION
 62
     0
370
    -2
100
AcDbLine
 10
110.3798609078125
 20
24.96367163545511
 30
0.0
 11
114.7574363109251
 21
24.96367163545511
 31
0.0
  0
MTEXT
  5
8BD
330
46B
100
AcDbEntity
  8
DIMENSION
 62
     0
100
AcDbMText
 10
116.4724363109251
 20
24.96367163545511
 30
0.0
 40
0.75
 41
0.0
 71
     5
 72
     1
  1
\A1;14.030
 73
     1
 44
1.0
  0
POINT
  5
8BE
330
46B
100
AcDbEntity
  8
Defpoints
 62
     0
100
AcDbPoint
 10
110.3173609078125
 20
24.96367163545511
 30
0.0
  0
POINT
  5
8BF
330
46B
100
AcDbEntity
  8
Defpoints
 62
     0
100
AcDbPoint
 10
114.7574363109251
 20
24.96367163545511
 30
0.0
  0
POINT
  5
8C0
330
46B
100
AcDbEntity
  8
Defpoints
 62
     0
100
AcDbPoint
 10
105.3163609078129
 20
10.9336716354549
 30
0.0
  0
ENDBLK
  5
472
330
46B
100
AcDbEntity
  8
0
100
AcDbBlockEnd
  0
BLOCK
  5
479
330
473
100
AcDbEntity
  8
0
100
AcDbBlockBegin
  2
*D33
 70
     1
 10
0.0
 20
0.0
 30
0.0
  3
*D33
  1
*D33
  0
LINE
  5
8B7
330
473
100
AcDbEntity
  8
DIMENSION
 62
     0
370
    -2
100
AcDbLine
 10
111.4118609078126
 20
31.50367163545507
 30
0.0
 11
114.8163609078124
 21
31.50367163545507
 31
0.0
  0
MTEXT
  5
8B8
330
473
100
AcDbEntity
  8
DIMENSION
 62
     0
100
AcDbMText
 10
116.6563609078124
 20
31.50367163545507
 30
0.0
 40
0.75
 41
0.0
 71
     5
 72
     1
  1
\A1;20.570
 73
     1
 44
1.0
  0
POINT
  5
8B9
330
473
100
AcDbEntity
  8
Defpoints
 62
     0
100
AcDbPoint
 10
111.3493609078126
 20
31.50367163545507
 30
0.0
  0
POINT
  5
8BA
330
473
100
AcDbEntity
  8
Defpoints
 62
     0
100
AcDbPoint
 10
114.8163609078124
 20
31.50367163545507
 30
0.0
  0
POINT
  5
8BB
330
473
100
AcDbEntity
  8
Defpoints
 62
     0
100
AcDbPoint
 10
105.3163609078129
 20
10.9336716354549
 30
0.0
  0
ENDBLK
  5
47A
330
473
100
AcDbEntity
  8
0
100
AcDbBlockEnd
  0
BLOCK
  5
481
330
47B
100
AcDbEntity
  8
0
100
AcDbBlockBegin
  2
*D34
 70
     1
 10
0.0
 20
0.0
 30
0.0
  3
*D34
  1
*D34
  0
LINE
  5
8B2
330
47B
100
AcDbEntity
  8
DIMENSION
 62
     0
370
    -2
100
AcDbLine
 10
110.3798609078125
 20
26.46367163545511
 30
0.0
 11
114.8163609078124
 21
26.46367163545511
 31
0.0
  0
MTEXT
  5
8B3
330
47B
100
AcDbEntity
  8
DIMENSION
 62
     0
100
AcDbMText
 10
116.5938609078124
 20
26.46367163545511
 30
0.0
 40
0.75
 41
0.0
 71
     5
 72
     1
  1
\A1;15.530
 73
     1
 44
1.0
  0
POINT
  5
8B4
330
47B
100
AcDbEntity
  8
Defpoints
 62
     0
100
AcDbPoint
 10
110.3173609078125
 20
26.46367163545511
 30
0.0
  0
POINT
  5
8B5
330
47B
100
AcDbEntity
  8
Defpoints
 62
     0
100
AcDbPoint
 10
114.8163609078124
 20
26.46367163545511
 30
0.0
  0
POINT
  5
8B6
330
47B
100
AcDbEntity
  8
Defpoints
 62
     0
100
AcDbPoint
 10
105.3163609078129
 20
10.9336716354549
 30
0.0
  0
ENDBLK
  5
482
330
47B
100
AcDbEntity
  8
0
100
AcDbBlockEnd
  0
BLOCK
  5
48B
330
483
100
AcDbEntity
  8
0
100
AcDbBlockBegin
  2
*D35
 70
     1
 10
0.0
 20
0.0
 30
0.0
  3
*D35
  1
*D35
  0
LINE
  5
8AB
330
483
100
AcDbEntity
  8
DIMENSION
 62
     0
370
    -2
100
AcDbLine
 10
105.3163539835141
 20
10.8711716354549
 30
0.0
 11
105.3163539835141
 21
9.4336716354549
 31
0.0
  0
LINE
  5
8AC
330
483
100
AcDbEntity
  8
DIMENSION
 62
     0
370
    -2
100
AcDbLine
 10
105.3163539835141
 20
9.4336716354549
 30
0.0
 11
105.3163609078126
 21
9.433671635454834
 31
0.0
  0
LINE
  5
8AD
330
483
100
AcDbEntity
  8
DIMENSION
 62
     0
370
    -2
100
AcDbLine
 10
105.3163609078126
 20
9.433671635454834
 30
0.0
 11
105.3163609078126
 21
7.933671635454833
 31
0.0
  0
MTEXT
  5
8AE
330
483
100
AcDbEntity
  8
DIMENSION
 62
     0
100
AcDbMText
 10
105.3163609078126
 20
6.593671635454851
 30
0.0
 40
0.75
 41
0.0
 71
     5
 72
     1
  1
\A1;0.000
 11
1.000000000000000E-16
 21
1.0
 31
0.0
 73
     1
 44
1.0
  0
POINT
  5
8AF
330
483
100
AcDbEntity
  8
Defpoints
 62
     0
100
AcDbPoint
 10
105.3163539835141
 20
10.9336716354549
 30
0.0
  0
POINT
  5
8B0
330
483
100
AcDbEntity
  8
Defpoints
 62
     0
100
AcDbPoint
 10
105.3163609078126
 20
7.933671635454833
 30
0.0
  0
POINT
  5
8B1
330
483
100
AcDbEntity
  8
Defpoints
 62
     0
100
AcDbPoint
 10
105.3163539835141
 20
10.9336716354549
 30
0.0
  0
ENDBLK
  5
48C
330
483
100
AcDbEntity
  8
0
100
AcDbBlockEnd
  0
BLOCK
  5
493
330
48D
100
AcDbEntity
  8
0
100
AcDbBlockBegin
  2
*D36
 70
     1
 10
0.0
 20
0.0
 30
0.0
  3
*D36
  1
*D36
  0
LINE
  5
8A6
330
48D
100
AcDbEntity
  8
DIMENSION
 62
     0
370
    -2
100
AcDbLine
 10
106.8993609078125
 20
31.44117163545507
 30
0.0
 11
106.8993609078125
 21
7.933671635454833
 31
0.0
  0
MTEXT
  5
8A7
330
48D
100
AcDbEntity
  8
DIMENSION
 62
     0
100
AcDbMText
 10
106.8993609078125
 20
6.468671635454852
 30
0.0
 40
0.75
 41
0.0
 71
     5
 72
     1
  1
\A1;1.583
 11
1.000000000000000E-16
 21
1.0
 31
0.0
 73
     1
 44
1.0
  0
POINT
  5
8A8
330
48D
100
AcDbEntity
  8
Defpoints
 62
     0
100
AcDbPoint
 10
106.8993609078125
 20
31.50367163545507
 30
0.0
  0
POINT
  5
8A9
330
48D
100
AcDbEntity
  8
Defpoints
 62
     0
100
AcDbPoint
 10
106.8993609078125
 20
7.933671635454833
 30
0.0
  0
POINT
  5
8AA
330
48D
100
AcDbEntity
  8
Defpoints
 62
     0
100
AcDbPoint
 10
105.3163609078129
 20
10.9336716354549
 30
0.0
  0
ENDBLK
  5
494
330
48D
100
AcDbEntity
  8
0
100
AcDbBlockEnd
  0
BLOCK
  5
49B
330
495
100
AcDbEntity
  8
0
100
AcDbBlockBegin
  2
*D37
 70
     1
 10
0.0
 20
0.0
 30
0.0
  3
*D37
  1
*D37
  0
LINE
  5
8A1
330
495
100
AcDbEntity
  8
DIMENSION
 62
     0
370
    -2
100
AcDbLine
 10
110.3173609078125
 20
24.90117163545511
 30
0.0
 11
110.3173609078125
 21
7.933671635454833
 31
0.0
  0
MTEXT
  5
8A2
330
495
100
AcDbEntity
  8
DIMENSION
 62
     0
100
AcDbMText
 10
110.3173609078125
 20
6.593671635454852
 30
0.0
 40
0.75
 41
0.0
 71
     5
 72
     1
  1
\A1;5.001
 11
1.000000000000000E-16
 21
1.0
 31
0.0
 73
     1
 44
1.0
  0
POINT
  5
8A3
330
495
100
AcDbEntity
  8
Defpoints
 62
     0
100
AcDbPoint
 10
110.3173609078125
 20
24.96367163545511
 30
0.0
  0
POINT
  5
8A4
330
495
100
AcDbEntity
  8
Defpoints
 62
     0
100
AcDbPoint
 10
110.3173609078125
 20
7.933671635454833
 30
0.0
  0
POINT
  5
8A5
330
495
100
AcDbEntity
  8
Defpoints
 62
     0
100
AcDbPoint
 10
105.3163609078129
 20
10.9336716354549
 30
0.0
  0
ENDBLK
  5
49C
330
495
100
AcDbEntity
  8
0
100
AcDbBlockEnd
  0
BLOCK
  5
4A3
330
49D
100
AcDbEntity
  8
0
100
AcDbBlockBegin
  2
*D38
 70
     1
 10
0.0
 20
0.0
 30
0.0
  3
*D38
  1
*D38
  0
LINE
  5
89C
330
49D
100
AcDbEntity
  8
DIMENSION
 62
     0
370
    -2
100
AcDbLine
 10
111.3493609078126
 20
31.44117163545507
 30
0.0
 11
111.3493609078126
 21
7.933671635454833
 31
0.0
  0
MTEXT
  5
89D
330
49D
100
AcDbEntity
  8
DIMENSION
 62
     0
100
AcDbMText
 10
111.3493609078126
 20
6.406171635454852
 30
0.0
 40
0.75
 41
0.0
 71
     5
 72
     1
  1
\A1;6.033
 11
1.000000000000000E-16
 21
1.0
 31
0.0
 73
     1
 44
1.0
  0
POINT
  5
89E
330
49D
100
AcDbEntity
  8
Defpoints
 62
     0
100
AcDbPoint
 10
111.3493609078126
 20
31.50367163545507
 30
0.0
  0
POINT
  5
89F
330
49D
100
AcDbEntity
  8
Defpoints
 62
     0
100
AcDbPoint
 10
111.3493609078126
 20
7.933671635454833
 30
0.0
  0
POINT
  5
8A0
330
49D
100
AcDbEntity
  8
Defpoints
 62
     0
100
AcDbPoint
 10
105.3163609078129
 20
10.9336716354549
 30
0.0
  0
ENDBLK
  5
4A4
330
49D
100
AcDbEntity
  8
0
100
AcDbBlockEnd
  0
BLOCK
  5
590
330
58F
100
AcDbEntity
  8
0
100
AcDbBlockBegin
  2
*D39
 70
     1
 10
0.0
 20
0.0
 30
0.0
  3
*D39
  1
*D39
  0
LINE
  5
591
330
58F
100
AcDbEntity
  8
DIMENSION
 62
     0
370
    -2
100
AcDbLine
 10
-38.24102248216507
 20
-33.12857875897364
 30
0.0
 11
-40.86602248216546
 21
-33.12857875897364
 31
0.0
  0
MTEXT
  5
592
330
58F
100
AcDbEntity
  8
DIMENSION
 62
     0
100
AcDbMText
 10
-42.49102248216543
 20
-33.12857875897364
 30
0.0
 40
0.75
 41
0.0
 71
     5
 72
     1
  1
\A1;0.000
 73
     1
 44
1.0
  0
POINT
  5
593
330
58F
100
AcDbEntity
  8
Defpoints
 62
     0
100
AcDbPoint
 10
-37.86602248216507
 20
-33.12857875897364
 30
0.0
  0
POINT
  5
594
330
58F
100
AcDbEntity
  8
Defpoints
 62
     0
100
AcDbPoint
 10
-40.86602248216546
 20
-33.12857875897364
 30
0.0
  0
POINT
  5
595
330
58F
100
AcDbEntity
  8
Defpoints
 62
     0
100
AcDbPoint
 10
-37.86602940646385
 20
-33.12857875897364
 30
0.0
  0
ENDBLK
  5
596
330
58F
100
AcDbEntity
  8
0
100
AcDbBlockEnd
  0
BLOCK
  5
598
330
597
100
AcDbEntity
  8
0
100
AcDbBlockBegin
  2
*D40
 70
     1
 10
0.0
 20
0.0
 30
0.0
  3
*D40
  1
*D40
  0
LINE
  5
599
330
597
100
AcDbEntity
  8
DIMENSION
 62
     0
370
    -2
100
AcDbLine
 10
-37.86602940646385
 20
-33.50357875897364
 30
0.0
 11
-37.86602940646385
 21
-34.62857875897364
 31
0.0
  0
LINE
  5
59A
330
597
100
AcDbEntity
  8
DIMENSION
 62
     0
370
    -2
100
AcDbLine
 10
-37.86602940646385
 20
-34.62857875897364
 30
0.0
 11
-37.86602248216541
 21
-34.6285787589737
 31
0.0
  0
LINE
  5
59B
330
597
100
AcDbEntity
  8
DIMENSION
 62
     0
370
    -2
100
AcDbLine
 10
-37.86602248216541
 20
-34.6285787589737
 30
0.0
 11
-37.86602248216541
 21
-36.12857875897371
 31
0.0
  0
MTEXT
  5
59C
330
597
100
AcDbEntity
  8
DIMENSION
 62
     0
100
AcDbMText
 10
-37.86602248216541
 20
-37.7535787589737
 30
0.0
 40
0.75
 41
0.0
 71
     5
 72
     1
  1
\A1;0.000
 11
1.000000000000000E-16
 21
1.0
 31
0.0
 73
     1
 44
1.0
  0
POINT
  5
59D
330
597
100
AcDbEntity
  8
Defpoints
 62
     0
100
AcDbPoint
 10
-37.86602940646385
 20
-33.12857875897364
 30
0.0
  0
POINT
  5
59E
330
597
100
AcDbEntity
  8
Defpoints
 62
     0
100
AcDbPoint
 10
-37.86602248216541
 20
-36.12857875897371
 30
0.0
  0
POINT
  5
59F
330
597
100
AcDbEntity
  8
Defpoints
 62
     0
100
AcDbPoint
 10
-37.86602940646385
 20
-33.12857875897364
 30
0.0
  0
ENDBLK
  5
5A0
330
597
100
AcDbEntity
  8
0
100
AcDbBlockEnd
  0
BLOCK
  5
5A2
330
5A1
100
AcDbEntity
  8
0
100
AcDbBlockBegin
  2
*D41
 70
     1
 10
0.0
 20
0.0
 30
0.0
  3
*D41
  1
*D41
  0
LINE
  5
5A3
330
5A1
100
AcDbEntity
  8
DIMENSION
 62
     0
370
    -2
100
AcDbLine
 10
-37.49002248216544
 20
-23.72307875897357
 30
0.0
 11
-40.86602248216546
 21
-23.72307875897357
 31
0.0
  0
MTEXT
  5
5A4
330
5A1
100
AcDbEntity
  8
DIMENSION
 62
     0
100
AcDbMText
 10
-42.67852248216547
 20
-23.72307875897357
 30
0.0
 40
0.75
 41
0.0
 71
     5
 72
     1
  1
\A1;9.406
 73
     1
 44
1.0
  0
POINT
  5
5A5
330
5A1
100
AcDbEntity
  8
Defpoints
 62
     0
100
AcDbPoint
 10
-37.11502248216544
 20
-23.72307875897357
 30
0.0
  0
POINT
  5
5A6
330
5A1
100
AcDbEntity
  8
Defpoints
 62
     0
100
AcDbPoint
 10
-40.86602248216546
 20
-23.72307875897357
 30
0.0
  0
POINT
  5
5A7
330
5A1
100
AcDbEntity
  8
Defpoints
 62
     0
100
AcDbPoint
 10
-37.86602248216507
 20
-33.12857875897364
 30
0.0
  0
ENDBLK
  5
5A8
330
5A1
100
AcDbEntity
  8
0
100
AcDbBlockEnd
  0
BLOCK
  5
5AA
330
5A9
100
AcDbEntity
  8
0
100
AcDbBlockBegin
  2
*D42
 70
     1
 10
0.0
 20
0.0
 30
0.0
  3
*D42
  1
*D42
  0
LINE
  5
5AB
330
5A9
100
AcDbEntity
  8
DIMENSION
 62
     0
370
    -2
100
AcDbLine
 10
-32.49002248216545
 20
-17.59857875897344
 30
0.0
 11
-28.36602248216554
 21
-17.59857875897344
 31
0.0
  0
MTEXT
  5
5AC
330
5A9
100
AcDbEntity
  8
DIMENSION
 62
     0
100
AcDbMText
 10
-26.30352248216553
 20
-17.59857875897344
 30
0.0
 40
0.75
 41
0.0
 71
     5
 72
     1
  1
\A1;15.530
 73
     1
 44
1.0
  0
POINT
  5
5AD
330
5A9
100
AcDbEntity
  8
Defpoints
 62
     0
100
AcDbPoint
 10
-32.86502248216545
 20
-17.59857875897344
 30
0.0
  0
POINT
  5
5AE
330
5A9
100
AcDbEntity
  8
Defpoints
 62
     0
100
AcDbPoint
 10
-28.36602248216554
 20
-17.59857875897344
 30
0.0
  0
POINT
  5
5AF
330
5A9
100
AcDbEntity
  8
Defpoints
 62
     0
100
AcDbPoint
 10
-37.86602248216507
 20
-33.12857875897364
 30
0.0
  0
ENDBLK
  5
5B0
330
5A9
100
AcDbEntity
  8
0
100
AcDbBlockEnd
  0
BLOCK
  5
5B2
330
5B1
100
AcDbEntity
  8
0
100
AcDbBlockBegin
  2
*D43
 70
     1
 10
0.0
 20
0.0
 30
0.0
  3
*D43
  1
*D43
  0
LINE
  5
5B3
330
5B1
100
AcDbEntity
  8
DIMENSION
 62
     0
370
    -2
100
AcDbLine
 10
-37.49002248216544
 20
-13.72307875897356
 30
0.0
 11
-40.86602248216546
 21
-13.72307875897356
 31
0.0
  0
MTEXT
  5
5B4
330
5B1
100
AcDbEntity
  8
DIMENSION
 62
     0
100
AcDbMText
 10
-42.92852248216546
 20
-13.72307875897356
 30
0.0
 40
0.75
 41
0.0
 71
     5
 72
     1
  1
\A1;19.406
 73
     1
 44
1.0
  0
POINT
  5
5B5
330
5B1
100
AcDbEntity
  8
Defpoints
 62
     0
100
AcDbPoint
 10
-37.11502248216544
 20
-13.72307875897356
 30
0.0
  0
POINT
  5
5B6
330
5B1
100
AcDbEntity
  8
Defpoints
 62
     0
100
AcDbPoint
 10
-40.86602248216546
 20
-13.72307875897356
 30
0.0
  0
POINT
  5
5B7
330
5B1
100
AcDbEntity
  8
Defpoints
 62
     0
100
AcDbPoint
 10
-37.86602248216507
 20
-33.12857875897364
 30
0.0
  0
ENDBLK
  5
5B8
330
5B1
100
AcDbEntity
  8
0
100
AcDbBlockEnd
  0
BLOCK
  5
5BA
330
5B9
100
AcDbEntity
  8
0
100
AcDbBlockBegin
  2
*D44
 70
     1
 10
0.0
 20
0.0
 30
0.0
  3
*D44
  1
*D44
  0
LINE
  5
5BB
330
5B9
100
AcDbEntity
  8
DIMENSION
 62
     0
370
    -2
100
AcDbLine
 10
-36.28302248216544
 20
-12.93357875897347
 30
0.0
 11
-36.28302248216545
 21
-24.55107875897356
 31
0.0
  0
MTEXT
  5
5BC
330
5B9
100
AcDbEntity
  8
DIMENSION
 62
     0
100
AcDbMText
 10
-36.28302248216544
 20
-26.30107875897357
 30
0.0
 40
0.75
 41
0.0
 71
     5
 72
     1
  1
\A1;1.583
 11
1.000000000000000E-16
 21
1.0
 31
0.0
 73
     1
 44
1.0
  0
POINT
  5
5BD
330
5B9
100
AcDbEntity
  8
Defpoints
 62
     0
100
AcDbPoint
 10
-36.28302248216544
 20
-12.55857875897347
 30
0.0
  0
POINT
  5
5BE
330
5B9
100
AcDbEntity
  8
Defpoints
 62
     0
100
AcDbPoint
 10
-36.28302248216545
 20
-24.55107875897356
 30
0.0
  0
POINT
  5
5BF
330
5B9
100
AcDbEntity
  8
Defpoints
 62
     0
100
AcDbPoint
 10
-37.86602248216507
 20
-33.12857875897364
 30
0.0
  0
ENDBLK
  5
5C0
330
5B9
100
AcDbEntity
  8
0
100
AcDbBlockEnd
  0
BLOCK
  5
5C2
330
5C1
100
AcDbEntity
  8
0
100
AcDbBlockBegin
  2
*D45
 70
     1
 10
0.0
 20
0.0
 30
0.0
  3
*D45
  1
*D45
  0
LINE
  5
5C3
330
5C1
100
AcDbEntity
  8
DIMENSION
 62
     0
370
    -2
100
AcDbLine
 10
-31.8330224821654
 20
-12.93357875897347
 30
0.0
 11
-31.8330224821654
 21
-33.1285787589737
 31
0.0
  0
LINE
  5
5C4
330
5C1
100
AcDbEntity
  8
DIMENSION
 62
     0
370
    -2
100
AcDbLine
 10
-31.8330224821654
 20
-33.1285787589737
 30
0.0
 11
-30.68292621545039
 21
-34.6285787589737
 31
0.0
  0
LINE
  5
5C5
330
5C1
100
AcDbEntity
  8
DIMENSION
 62
     0
370
    -2
100
AcDbLine
 10
-30.68292621545039
 20
-34.6285787589737
 30
0.0
 11
-30.68292621545039
 21
-36.12857875897371
 31
0.0
  0
MTEXT
  5
5C6
330
5C1
100
AcDbEntity
  8
DIMENSION
 62
     0
100
AcDbMText
 10
-30.68292621545038
 20
-37.9410787589737
 30
0.0
 40
0.75
 41
0.0
 71
     5
 72
     1
  1
\A1;6.033
 11
1.000000000000000E-16
 21
1.0
 31
0.0
 73
     1
 44
1.0
  0
POINT
  5
5C7
330
5C1
100
AcDbEntity
  8
Defpoints
 62
     0
100
AcDbPoint
 10
-31.8330224821654
 20
-12.55857875897347
 30
0.0
  0
POINT
  5
5C8
330
5C1
100
AcDbEntity
  8
Defpoints
 62
     0
100
AcDbPoint
 10
-30.68292621545039
 20
-36.12857875897371
 30
0.0
  0
POINT
  5
5C9
330
5C1
100
AcDbEntity
  8
Defpoints
 62
     0
100
AcDbPoint
 10
-37.86602248216507
 20
-33.12857875897364
 30
0.0
  0
ENDBLK
  5
5CA
330
5C1
100
AcDbEntity
  8
0
100
AcDbBlockEnd
  0
BLOCK
  5
5CC
330
5CB
100
AcDbEntity
  8
0
100
AcDbBlockBegin
  2
*D46
 70
     1
 10
0.0
 20
0.0
 30
0.0
  3
*D46
  1
*D46
  0
LINE
  5
5CD
330
5CB
100
AcDbEntity
  8
DIMENSION
 62
     0
370
    -2
100
AcDbLine
 10
-31.4580224821654
 20
-12.55857875897347
 30
0.0
 11
-28.36602248216554
 21
-12.55857875897347
 31
0.0
  0
MTEXT
  5
5CE
330
5CB
100
AcDbEntity
  8
DIMENSION
 62
     0
100
AcDbMText
 10
-26.24102248216554
 20
-12.55857875897347
 30
0.0
 40
0.75
 41
0.0
 71
     5
 72
     1
  1
\A1;20.570
 73
     1
 44
1.0
  0
POINT
  5
5CF
330
5CB
100
AcDbEntity
  8
Defpoints
 62
     0
100
AcDbPoint
 10
-31.8330224821654
 20
-12.55857875897347
 30
0.0
  0
POINT
  5
5D0
330
5CB
100
AcDbEntity
  8
Defpoints
 62
     0
100
AcDbPoint
 10
-28.36602248216554
 20
-12.55857875897347
 30
0.0
  0
POINT
  5
5D1
330
5CB
100
AcDbEntity
  8
Defpoints
 62
     0
100
AcDbPoint
 10
-37.86602248216507
 20
-33.12857875897364
 30
0.0
  0
ENDBLK
  5
5D2
330
5CB
100
AcDbEntity
  8
0
100
AcDbBlockEnd
  0
BLOCK
  5
5D4
330
5D3
100
AcDbEntity
  8
0
100
AcDbBlockBegin
  2
*D47
 70
     1
 10
0.0
 20
0.0
 30
0.0
  3
*D47
  1
*D47
  0
LINE
  5
5D5
330
5D3
100
AcDbEntity
  8
DIMENSION
 62
     0
370
    -2
100
AcDbLine
 10
-31.45802248216546
 20
-7.033578758973725
 30
0.0
 11
-28.36602248216554
 21
-7.033578758973725
 31
0.0
  0
MTEXT
  5
5D6
330
5D3
100
AcDbEntity
  8
DIMENSION
 62
     0
100
AcDbMText
 10
-26.17852248216554
 20
-7.033578758973725
 30
0.0
 40
0.75
 41
0.0
 71
     5
 72
     1
  1
\A1;26.095
 73
     1
 44
1.0
  0
POINT
  5
5D7
330
5D3
100
AcDbEntity
  8
Defpoints
 62
     0
100
AcDbPoint
 10
-31.83302248216545
 20
-7.033578758973725
 30
0.0
  0
POINT
  5
5D8
330
5D3
100
AcDbEntity
  8
Defpoints
 62
     0
100
AcDbPoint
 10
-28.36602248216554
 20
-7.033578758973725
 30
0.0
  0
POINT
  5
5D9
330
5D3
100
AcDbEntity
  8
Defpoints
 62
     0
100
AcDbPoint
 10
-37.86602248216507
 20
-33.12857875897364
 30
0.0
  0
ENDBLK
  5
5DA
330
5D3
100
AcDbEntity
  8
0
100
AcDbBlockEnd
  0
BLOCK
  5
5DC
330
5DB
100
AcDbEntity
  8
0
100
AcDbBlockBegin
  2
*D48
 70
     1
 10
0.0
 20
0.0
 30
0.0
  3
*D48
  1
*D48
  0
LINE
  5
5DD
330
5DB
100
AcDbEntity
  8
DIMENSION
 62
     0
370
    -2
100
AcDbLine
 10
-37.49002248216544
 20
-5.973078758973564
 30
0.0
 11
-40.86602248216546
 21
-5.973078758973564
 31
0.0
  0
MTEXT
  5
5DE
330
5DB
100
AcDbEntity
  8
DIMENSION
 62
     0
100
AcDbMText
 10
-42.99102248216547
 20
-5.973078758973564
 30
0.0
 40
0.75
 41
0.0
 71
     5
 72
     1
  1
\A1;27.156
 73
     1
 44
1.0
  0
POINT
  5
5DF
330
5DB
100
AcDbEntity
  8
Defpoints
 62
     0
100
AcDbPoint
 10
-37.11502248216544
 20
-5.973078758973564
 30
0.0
  0
POINT
  5
5E0
330
5DB
100
AcDbEntity
  8
Defpoints
 62
     0
100
AcDbPoint
 10
-40.86602248216546
 20
-5.973078758973564
 30
0.0
  0
POINT
  5
5E1
330
5DB
100
AcDbEntity
  8
Defpoints
 62
     0
100
AcDbPoint
 10
-37.86602248216507
 20
-33.12857875897364
 30
0.0
  0
ENDBLK
  5
5E2
330
5DB
100
AcDbEntity
  8
0
100
AcDbBlockEnd
  0
BLOCK
  5
5E4
330
5E3
100
AcDbEntity
  8
0
100
AcDbBlockBegin
  2
*D49
 70
     1
 10
0.0
 20
0.0
 30
0.0
  3
*D49
  1
*D49
  0
LINE
  5
5E5
330
5E3
100
AcDbEntity
  8
DIMENSION
 62
     0
370
    -2
100
AcDbLine
 10
-34.24002248216544
 20
-2.828578758973455
 30
0.0
 11
-28.36602248216554
 21
-2.828578758973455
 31
0.0
  0
MTEXT
  5
5E6
330
5E3
100
AcDbEntity
  8
DIMENSION
 62
     0
100
AcDbMText
 10
-26.30352248216553
 20
-2.828578758973455
 30
0.0
 40
0.75
 41
0.0
 71
     5
 72
     1
  1
\A1;30.300
 73
     1
 44
1.0
  0
POINT
  5
5E7
330
5E3
100
AcDbEntity
  8
Defpoints
 62
     0
100
AcDbPoint
 10
-34.61502248216544
 20
-2.828578758973455
 30
0.0
  0
POINT
  5
5E8
330
5E3
100
AcDbEntity
  8
Defpoints
 62
     0
100
AcDbPoint
 10
-28.36602248216554
 20
-2.828578758973455
 30
0.0
  0
POINT
  5
5E9
330
5E3
100
AcDbEntity
  8
Defpoints
 62
     0
100
AcDbPoint
 10
-37.86602248216507
 20
-33.12857875897364
 30
0.0
  0
ENDBLK
  5
5EA
330
5E3
100
AcDbEntity
  8
0
100
AcDbBlockEnd
  0
BLOCK
  5
5EC
330
5EB
100
AcDbEntity
  8
0
100
AcDbBlockBegin
  2
*D50
 70
     1
 10
0.0
 20
0.0
 30
0.0
  3
*D50
  1
*D50
  0
LINE
  5
5ED
330
5EB
100
AcDbEntity
  8
DIMENSION
 62
     0
370
    -2
100
AcDbLine
 10
-37.49002248216544
 20
0.0264212410265613
 30
0.0
 11
-40.86602248216546
 21
0.0264212410265613
 31
0.0
  0
MTEXT
  5
5EE
330
5EB
100
AcDbEntity
  8
DIMENSION
 62
     0
100
AcDbMText
 10
-42.99102248216547
 20
0.0264212410265613
 30
0.0
 40
0.75
 41
0.0
 71
     5
 72
     1
  1
\A1;33.155
 73
     1
 44
1.0
  0
POINT
  5
5EF
330
5EB
100
AcDbEntity
  8
Defpoints
 62
     0
100
AcDbPoint
 10
-37.11502248216544
 20
0.0264212410265613
 30
0.0
  0
POINT
  5
5F0
330
5EB
100
AcDbEntity
  8
Defpoints
 62
     0
100
AcDbPoint
 10
-40.86602248216546
 20
0.0264212410265613
 30
0.0
  0
POINT
  5
5F1
330
5EB
100
AcDbEntity
  8
Defpoints
 62
     0
100
AcDbPoint
 10
-37.86602248216507
 20
-33.12857875897364
 30
0.0
  0
ENDBLK
  5
5F2
330
5EB
100
AcDbEntity
  8
0
100
AcDbBlockEnd
  0
BLOCK
  5
5F4
330
5F3
100
AcDbEntity
  8
0
100
AcDbBlockBegin
  2
*D51
 70
     1
 10
0.0
 20
0.0
 30
0.0
  3
*D51
  1
*D51
  0
LINE
  5
5F5
330
5F3
100
AcDbEntity
  8
DIMENSION
 62
     0
370
    -2
100
AcDbLine
 10
-30.99102248216547
 20
0.9014212410266746
 30
0.0
 11
-28.36602248216554
 21
0.9014212410266746
 31
0.0
  0
MTEXT
  5
5F6
330
5F3
100
AcDbEntity
  8
DIMENSION
 62
     0
100
AcDbMText
 10
-26.24102248216554
 20
0.9014212410266746
 30
0.0
 40
0.75
 41
0.0
 71
     5
 72
     1
  1
\A1;34.030
 73
     1
 44
1.0
  0
POINT
  5
5F7
330
5F3
100
AcDbEntity
  8
Defpoints
 62
     0
100
AcDbPoint
 10
-31.36602248216547
 20
0.9014212410266746
 30
0.0
  0
POINT
  5
5F8
330
5F3
100
AcDbEntity
  8
Defpoints
 62
     0
100
AcDbPoint
 10
-28.36602248216554
 20
0.9014212410266746
 30
0.0
  0
POINT
  5
5F9
330
5F3
100
AcDbEntity
  8
Defpoints
 62
     0
100
AcDbPoint
 10
-37.86602248216507
 20
-33.12857875897364
 30
0.0
  0
ENDBLK
  5
5FA
330
5F3
100
AcDbEntity
  8
0
100
AcDbBlockEnd
  0
BLOCK
  5
5FC
330
5FB
100
AcDbEntity
  8
0
100
AcDbBlockBegin
  2
*D52
 70
     1
 10
0.0
 20
0.0
 30
0.0
  3
*D52
  1
*D52
  0
LINE
  5
5FD
330
5FB
100
AcDbEntity
  8
DIMENSION
 62
     0
370
    -2
100
AcDbLine
 10
-37.11502248216544
 20
0.4014212410265614
 30
0.0
 11
-37.11502248216544
 21
3.901421241026568
 31
0.0
  0
MTEXT
  5
5FE
330
5FB
100
AcDbEntity
  8
DIMENSION
 62
     0
100
AcDbMText
 10
-37.11502248216544
 20
5.651421241026562
 30
0.0
 40
0.75
 41
0.0
 71
     5
 72
     1
  1
\A1;0.750
 11
1.000000000000000E-16
 21
1.0
 31
0.0
 73
     1
 44
1.0
  0
POINT
  5
5FF
330
5FB
100
AcDbEntity
  8
Defpoints
 62
     0
100
AcDbPoint
 10
-37.11502248216544
 20
0.0264212410265613
 30
0.0
  0
POINT
  5
600
330
5FB
100
AcDbEntity
  8
Defpoints
 62
     0
100
AcDbPoint
 10
-37.11502248216544
 20
3.901421241026568
 30
0.0
  0
POINT
  5
601
330
5FB
100
AcDbEntity
  8
Defpoints
 62
     0
100
AcDbPoint
 10
-37.86602248216507
 20
-33.12857875897364
 30
0.0
  0
ENDBLK
  5
602
330
5FB
100
AcDbEntity
  8
0
100
AcDbBlockEnd
  0
BLOCK
  5
604
330
603
100
AcDbEntity
  8
0
100
AcDbBlockBegin
  2
*D53
 70
     1
 10
0.0
 20
0.0
 30
0.0
  3
*D53
  1
*D53
  0
LINE
  5
605
330
603
100
AcDbEntity
  8
DIMENSION
 62
     0
370
    -2
100
AcDbLine
 10
-34.61502248216544
 20
-2.453578758973455
 30
0.0
 11
-34.61502248216544
 21
3.901421241026561
 31
0.0
  0
MTEXT
  5
606
330
603
100
AcDbEntity
  8
DIMENSION
 62
     0
100
AcDbMText
 10
-34.61502248216544
 20
5.713921241026556
 30
0.0
 40
0.75
 41
0.0
 71
     5
 72
     1
  1
\A1;3.250
 11
1.000000000000000E-16
 21
1.0
 31
0.0
 73
     1
 44
1.0
  0
POINT
  5
607
330
603
100
AcDbEntity
  8
Defpoints
 62
     0
100
AcDbPoint
 10
-34.61502248216544
 20
-2.828578758973455
 30
0.0
  0
POINT
  5
608
330
603
100
AcDbEntity
  8
Defpoints
 62
     0
100
AcDbPoint
 10
-34.61502248216544
 20
3.901421241026561
 30
0.0
  0
POINT
  5
609
330
603
100
AcDbEntity
  8
Defpoints
 62
     0
100
AcDbPoint
 10
-37.86602248216507
 20
-33.12857875897364
 30
0.0
  0
ENDBLK
  5
60A
330
603
100
AcDbEntity
  8
0
100
AcDbBlockEnd
  0
BLOCK
  5
60C
330
60B
100
AcDbEntity
  8
0
100
AcDbBlockBegin
  2
*D54
 70
     1
 10
0.0
 20
0.0
 30
0.0
  3
*D54
  1
*D54
  0
LINE
  5
60D
330
60B
100
AcDbEntity
  8
DIMENSION
 62
     0
370
    -2
100
AcDbLine
 10
-32.11502248216544
 20
0.4014212410265614
 30
0.0
 11
-32.11502248216544
 21
1.52642124102656
 31
0.0
  0
LINE
  5
60E
330
60B
100
AcDbEntity
  8
DIMENSION
 62
     0
370
    -2
100
AcDbLine
 10
-32.11502248216544
 20
1.52642124102656
 30
0.0
 11
-32.36602248216547
 21
2.40142124102656
 31
0.0
  0
LINE
  5
60F
330
60B
100
AcDbEntity
  8
DIMENSION
 62
     0
370
    -2
100
AcDbLine
 10
-32.36602248216547
 20
2.40142124102656
 30
0.0
 11
-32.36602248216547
 21
3.901421241026561
 31
0.0
  0
MTEXT
  5
610
330
60B
100
AcDbEntity
  8
DIMENSION
 62
     0
100
AcDbMText
 10
-32.36602248216547
 20
5.713921241026556
 30
0.0
 40
0.75
 41
0.0
 71
     5
 72
     1
  1
\A1;5.750
 11
1.000000000000000E-16
 21
1.0
 31
0.0
 73
     1
 44
1.0
  0
POINT
  5
611
330
60B
100
AcDbEntity
  8
Defpoints
 62
     0
100
AcDbPoint
 10
-32.11502248216544
 20
0.0264212410265613
 30
0.0
  0
POINT
  5
612
330
60B
100
AcDbEntity
  8
Defpoints
 62
     0
100
AcDbPoint
 10
-32.36602248216547
 20
3.901421241026561
 30
0.0
  0
POINT
  5
613
330
60B
100
AcDbEntity
  8
Defpoints
 62
     0
100
AcDbPoint
 10
-37.86602248216507
 20
-33.12857875897364
 30
0.0
  0
ENDBLK
  5
614
330
60B
100
AcDbEntity
  8
0
100
AcDbBlockEnd
  0
BLOCK
  5
616
330
615
100
AcDbEntity
  8
0
100
AcDbBlockBegin
  2
*D55
 70
     1
 10
0.0
 20
0.0
 30
0.0
  3
*D55
  1
*D55
  0
LINE
  5
617
330
615
100
AcDbEntity
  8
DIMENSION
 62
     0
370
    -2
100
AcDbLine
 10
-31.36602248216547
 20
1.276421241026672
 30
0.0
 11
-31.36602248216547
 21
3.901421241026561
 31
0.0
  0
MTEXT
  5
618
330
615
100
AcDbEntity
  8
DIMENSION
 62
     0
100
AcDbMText
 10
-31.36602248216547
 20
5.651421241026556
 30
0.0
 40
0.75
 41
0.0
 71
     5
 72
     1
  1
\A1;6.500
 11
1.000000000000000E-16
 21
1.0
 31
0.0
 73
     1
 44
1.0
  0
POINT
  5
619
330
615
100
AcDbEntity
  8
Defpoints
 62
     0
100
AcDbPoint
 10
-31.36602248216547
 20
0.9014212410266746
 30
0.0
  0
POINT
  5
61A
330
615
100
AcDbEntity
  8
Defpoints
 62
     0
100
AcDbPoint
 10
-31.36602248216547
 20
3.901421241026561
 30
0.0
  0
POINT
  5
61B
330
615
100
AcDbEntity
  8
Defpoints
 62
     0
100
AcDbPoint
 10
-37.86602248216507
 20
-33.12857875897364
 30
0.0
  0
ENDBLK
  5
61C
330
615
100
AcDbEntity
  8
0
100
AcDbBlockEnd
  0
BLOCK
  5
61E
330
61D
100
AcDbEntity
  8
0
100
AcDbBlockBegin
  2
*D56
 70
     1
 10
0.0
 20
0.0
 30
0.0
  3
*D56
  1
*D56
  0
LINE
  5
61F
330
61D
100
AcDbEntity
  8
DIMENSION
 62
     0
370
    -2
100
AcDbLine
 10
-32.86502248216545
 20
-19.47357875897344
 30
0.0
 11
-32.86502248216545
 21
-24.55107875897356
 31
0.0
  0
MTEXT
  5
620
330
61D
100
AcDbEntity
  8
DIMENSION
 62
     0
100
AcDbMText
 10
-32.86502248216545
 20
-26.17607875897356
 30
0.0
 40
0.75
 41
0.0
 71
     5
 72
     1
  1
\A1;5.001
 11
1.000000000000000E-16
 21
1.0
 31
0.0
 73
     1
 44
1.0
  0
POINT
  5
621
330
61D
100
AcDbEntity
  8
Defpoints
 62
     0
100
AcDbPoint
 10
-32.86502248216545
 20
-19.09857875897344
 30
0.0
  0
POINT
  5
622
330
61D
100
AcDbEntity
  8
Defpoints
 62
     0
100
AcDbPoint
 10
-32.86502248216545
 20
-24.55107875897356
 30
0.0
  0
POINT
  5
623
330
61D
100
AcDbEntity
  8
Defpoints
 62
     0
100
AcDbPoint
 10
-37.86602248216507
 20
-33.12857875897364
 30
0.0
  0
ENDBLK
  5
624
330
61D
100
AcDbEntity
  8
0
100
AcDbBlockEnd
  0
BLOCK
  5
626
330
625
100
AcDbEntity
  8
0
100
AcDbBlockBegin
  2
*D57
 70
     1
 10
0.0
 20
0.0
 30
0.0
  3
*D57
  1
*D57
  0
LINE
  5
627
330
625
100
AcDbEntity
  8
0
 62
     0
370
    -2
100
AcDbLine
 10
-32.49002248216545
 20
-19.09857875897344
 30
0.0
 11
-28.42494707905288
 21
-19.09857875897344
 31
0.0
  0
MTEXT
  5
628
330
625
100
AcDbEntity
  8
0
 62
     0
100
AcDbMText
 10
-26.42494707905287
 20
-19.09857875897344
 30
0.0
 40
0.75
 41
0.0
 71
     5
 72
     1
  1
\A1;14.030
 73
     1
 44
1.0
  0
POINT
  5
629
330
625
100
AcDbEntity
  8
Defpoints
 62
     0
100
AcDbPoint
 10
-32.86502248216545
 20
-19.09857875897344
 30
0.0
  0
POINT
  5
62A
330
625
100
AcDbEntity
  8
Defpoints
 62
     0
100
AcDbPoint
 10
-28.42494707905288
 20
-19.09857875897344
 30
0.0
  0
POINT
  5
62B
330
625
100
AcDbEntity
  8
Defpoints
 62
     0
100
AcDbPoint
 10
-37.86602248216507
 20
-33.12857875897364
 30
0.0
  0
ENDBLK
  5
62C
330
625
100
AcDbEntity
  8
0
100
AcDbBlockEnd
  0
BLOCK
  5
62E
330
62D
100
AcDbEntity
  8
0
100
AcDbBlockBegin
  2
*D58
 70
     1
 10
0.0
 20
0.0
 30
0.0
  3
*D58
  1
*D58
  0
LINE
  5
62F
330
62D
100
AcDbEntity
  8
0
 62
     0
370
    -2
100
AcDbLine
 10
-34.30086563821205
 20
-32.80098907415951
 30
0.0
 11
-34.30086563821205
 21
-36.04142890565305
 31
0.0
  0
MTEXT
  5
630
330
62D
100
AcDbEntity
  8
0
 62
     0
100
AcDbMText
 10
-34.30086563821204
 20
-37.91642890565306
 30
0.0
 40
0.75
 41
0.0
 71
     5
 72
     1
  1
\A1;3.565
 11
1.000000000000000E-16
 21
1.0
 31
0.0
 73
     1
 44
1.0
  0
POINT
  5
631
330
62D
100
AcDbEntity
  8
Defpoints
 62
     0
100
AcDbPoint
 10
-34.30086563821205
 20
-32.4259890741595
 30
0.0
  0
POINT
  5
632
330
62D
100
AcDbEntity
  8
Defpoints
 62
     0
100
AcDbPoint
 10
-34.30086563821205
 20
-36.04142890565305
 30
0.0
  0
POINT
  5
633
330
62D
100
AcDbEntity
  8
Defpoints
 62
     0
100
AcDbPoint
 10
-37.86602940646385
 20
-33.12857875897364
 30
0.0
  0
ENDBLK
  5
634
330
62D
100
AcDbEntity
  8
0
100
AcDbBlockEnd
  0
BLOCK
  5
636
330
635
100
AcDbEntity
  8
0
100
AcDbBlockBegin
  2
*D59
 70
     1
 10
0.0
 20
0.0
 30
0.0
  3
*D59
  1
*D59
  0
LINE
  5
637
330
635
100
AcDbEntity
  8
0
 62
     0
370
    -2
100
AcDbLine
 10
-32.02086563821185
 20
-32.80098907415951
 30
0.0
 11
-32.02086563821185
 21
-36.07160000031598
 31
0.0
  0
MTEXT
  5
638
330
635
100
AcDbEntity
  8
0
 62
     0
100
AcDbMText
 10
-32.02086563821185
 20
-37.94660000031599
 30
0.0
 40
0.75
 41
0.0
 71
     5
 72
     1
  1
\A1;5.845
 11
1.000000000000000E-16
 21
1.0
 31
0.0
 73
     1
 44
1.0
  0
POINT
  5
639
330
635
100
AcDbEntity
  8
Defpoints
 62
     0
100
AcDbPoint
 10
-32.02086563821185
 20
-32.4259890741595
 30
0.0
  0
POINT
  5
63A
330
635
100
AcDbEntity
  8
Defpoints
 62
     0
100
AcDbPoint
 10
-32.02086563821185
 20
-36.07160000031598
 30
0.0
  0
POINT
  5
63B
330
635
100
AcDbEntity
  8
Defpoints
 62
     0
100
AcDbPoint
 10
-37.86602940646385
 20
-33.12857875897364
 30
0.0
  0
ENDBLK
  5
63C
330
635
100
AcDbEntity
  8
0
100
AcDbBlockEnd
  0
BLOCK
  5
63E
330
63D
100
AcDbEntity
  8
0
100
AcDbBlockBegin
  2
*D60
 70
     1
 10
0.0
 20
0.0
 30
0.0
  3
*D60
  1
*D60
  0
LINE
  5
63F
330
63D
100
AcDbEntity
  8
0
 62
     0
370
    -2
100
AcDbLine
 10
-34.67586563821206
 20
-29.30098907415949
 30
0.0
 11
-40.67899402058581
 21
-29.30098907415949
 31
0.0
  0
MTEXT
  5
640
330
63D
100
AcDbEntity
  8
0
 62
     0
100
AcDbMText
 10
-42.55399402058581
 20
-29.30098907415949
 30
0.0
 40
0.75
 41
0.0
 71
     5
 72
     1
  1
\A1;3.828
 73
     1
 44
1.0
  0
POINT
  5
641
330
63D
100
AcDbEntity
  8
Defpoints
 62
     0
100
AcDbPoint
 10
-34.30086563821205
 20
-29.30098907415949
 30
0.0
  0
POINT
  5
642
330
63D
100
AcDbEntity
  8
Defpoints
 62
     0
100
AcDbPoint
 10
-40.67899402058581
 20
-29.30098907415949
 30
0.0
  0
POINT
  5
643
330
63D
100
AcDbEntity
  8
Defpoints
 62
     0
100
AcDbPoint
 10
-37.86602940646385
 20
-33.12857875897364
 30
0.0
  0
ENDBLK
  5
644
330
63D
100
AcDbEntity
  8
0
100
AcDbBlockEnd
  0
BLOCK
  5
646
330
645
100
AcDbEntity
  8
0
100
AcDbBlockBegin
  2
*D61
 70
     1
 10
0.0
 20
0.0
 30
0.0
  3
*D61
  1
*D61
  0
LINE
  5
647
330
645
100
AcDbEntity
  8
0
 62
     0
370
    -2
100
AcDbLine
 10
-34.67586563821206
 20
-32.4259890741595
 30
0.0
 11
-37.64879418598161
 21
-32.4259890741595
 31
0.0
  0
LINE
  5
648
330
645
100
AcDbEntity
  8
0
 62
     0
370
    -2
100
AcDbLine
 10
-37.64879418598161
 20
-32.4259890741595
 30
0.0
 11
-39.14879418598161
 21
-31.93816199992182
 31
0.0
  0
LINE
  5
649
330
645
100
AcDbEntity
  8
0
 62
     0
370
    -2
100
AcDbLine
 10
-39.14879418598161
 20
-31.93816199992182
 30
0.0
 11
-40.6487941859816
 21
-31.93816199992182
 31
0.0
  0
MTEXT
  5
64A
330
645
100
AcDbEntity
  8
0
 62
     0
100
AcDbMText
 10
-42.39879418598159
 20
-31.93816199992182
 30
0.0
 40
0.75
 41
0.0
 71
     5
 72
     1
  1
\A1;0.703
 73
     1
 44
1.0
  0
POINT
  5
64B
330
645
100
AcDbEntity
  8
Defpoints
 62
     0
100
AcDbPoint
 10
-34.30086563821205
 20
-32.4259890741595
 30
0.0
  0
POINT
  5
64C
330
645
100
AcDbEntity
  8
Defpoints
 62
     0
100
AcDbPoint
 10
-40.6487941859816
 20
-31.93816199992182
 30
0.0
  0
POINT
  5
64D
330
645
100
AcDbEntity
  8
Defpoints
 62
     0
100
AcDbPoint
 10
-37.86602940646385
 20
-33.12857875897364
 30
0.0
  0
ENDBLK
  5
64E
330
645
100
AcDbEntity
  8
0
100
AcDbBlockEnd
  0
BLOCK
  5
650
330
64F
100
AcDbEntity
  8
0
100
AcDbBlockBegin
  2
*D62
 70
     1
 10
0.0
 20
0.0
 30
0.0
  3
*D62
  1
*D62
  0
LINE
  5
651
330
64F
100
AcDbEntity
  8
0
 62
     0
370
    -2
100
AcDbLine
 10
-28.73034274100156
 20
-23.42246624616377
 30
0.0
 11
-29.48034274100156
 21
-23.42246624616377
 31
0.0
  0
LINE
  5
652
330
64F
100
AcDbEntity
  8
0
 62
     0
370
    -2
100
AcDbLine
 10
-29.48034274100156
 20
-23.42246624616377
 30
0.0
 11
-32.01747939466989
 21
-20.18130481612663
 31
0.0
  0
MTEXT
  5
653
330
64F
100
AcDbEntity
  8
0
 62
     0
100
AcDbMText
 10
-28.35534274100155
 20
-20.54746624616377
 30
0.0
 40
0.75
 41
0.0
 71
     1
 72
     1
  1
\A1;\U+22051.250 (1)\POPTIONAL:\PEXTERNAL \PHEAT \POUTPUT
 73
     1
 44
1.0
  0
SOLID
  5
654
330
64F
100
AcDbEntity
  8
0
 62
     0
100
AcDbTrace
 10
-31.9190497531105
 20
-20.10425544453613
 30
0.0
 11
-32.11590903622926
 21
-20.25835418771714
 31
0.0
 12
-32.4797756242129
 22
-19.59072696677034
 32
0.0
 13
-32.4797756242129
 23
-19.59072696677034
 33
0.0
  0
LINE
  5
655
330
64F
100
AcDbEntity
  8
0
 62
     0
370
    -2
100
AcDbLine
 10
-32.95502248216543
 20
-19.09857875897344
 30
0.0
 11
-32.77502248216543
 21
-19.09857875897342
 31
0.0
  0
LINE
  5
656
330
64F
100
AcDbEntity
  8
0
 62
     0
370
    -2
100
AcDbLine
 10
-32.86502248216543
 20
-19.18857875897343
 30
0.0
 11
-32.86502248216543
 21
-19.00857875897343
 31
0.0
  0
POINT
  5
657
330
64F
100
AcDbEntity
  8
Defpoints
 62
     0
100
AcDbPoint
 10
-32.4797756242129
 20
-19.59072696677034
 30
0.0
  0
POINT
  5
658
330
64F
100
AcDbEntity
  8
Defpoints
 62
     0
100
AcDbPoint
 10
-33.25026934011796
 20
-18.60643055117652
 30
0.0
  0
ENDBLK
  5
659
330
64F
100
AcDbEntity
  8
0
100
AcDbBlockEnd
  0
BLOCK
  5
65B
330
65A
100
AcDbEntity
  8
0
100
AcDbBlockBegin
  2
*D63
 70
     1
 10
0.0
 20
0.0
 30
0.0
  3
*D63
  1
*D63
  0
LINE
  5
65C
330
65A
100
AcDbEntity
  8
0
 62
     0
370
    -2
100
AcDbLine
 10
-28.69023572794046
 20
-14.27096892720703
 30
0.0
 11
-29.44023572794046
 21
-14.27096892720703
 31
0.0
  0
LINE
  5
65D
330
65A
100
AcDbEntity
  8
0
 62
     0
370
    -2
100
AcDbLine
 10
-29.44023572794046
 20
-14.27096892720703
 30
0.0
 11
-31.87886035479387
 21
-16.6403985783508
 31
0.0
  0
MTEXT
  5
65E
330
65A
100
AcDbEntity
  8
0
 62
     0
100
AcDbMText
 10
-28.31523572794046
 20
-13.27096892720703
 30
0.0
 40
0.75
 41
0.0
 71
     1
 72
     1
  1
\A1;\U+22051.250\PPOWER SUPPLY
 73
     1
 44
1.0
  0
SOLID
  5
65F
330
65A
100
AcDbEntity
  8
0
 62
     0
100
AcDbTrace
 10
-31.96596764394139
 20
-16.55074747586248
 30
0.0
 11
-31.79175306564636
 21
-16.73004968083913
 31
0.0
 12
-32.41676696972382
 22
-17.16304231323587
 32
0.0
 13
-32.41676696972382
 23
-17.16304231323587
 33
0.0
  0
LINE
  5
660
330
65A
100
AcDbEntity
  8
0
 62
     0
370
    -2
100
AcDbLine
 10
-32.95502248216543
 20
-17.59857875897342
 30
0.0
 11
-32.77502248216543
 21
-17.59857875897343
 31
0.0
  0
LINE
  5
661
330
65A
100
AcDbEntity
  8
0
 62
     0
370
    -2
100
AcDbLine
 10
-32.86502248216543
 20
-17.68857875897342
 30
0.0
 11
-32.86502248216545
 21
-17.50857875897343
 31
0.0
  0
POINT
  5
662
330
65A
100
AcDbEntity
  8
Defpoints
 62
     0
100
AcDbPoint
 10
-32.41676696972382
 20
-17.16304231323587
 30
0.0
  0
POINT
  5
663
330
65A
100
AcDbEntity
  8
Defpoints
 62
     0
100
AcDbPoint
 10
-33.31327799460706
 20
-18.034115204711
 30
0.0
  0
ENDBLK
  5
664
330
65A
100
AcDbEntity
  8
0
100
AcDbBlockEnd
  0
BLOCK
  5
666
330
665
100
AcDbEntity
  8
0
100
AcDbBlockBegin
  2
*D64
 70
     1
 10
0.0
 20
0.0
 30
0.0
  3
*D64
  1
*D64
  0
LINE
  5
667
330
665
100
AcDbEntity
  8
0
 62
     0
370
    -2
100
AcDbLine
 10
-39.41368071893314
 20
-18.11166808010563
 30
0.0
 11
-38.66368071893314
 21
-18.11166808010563
 31
0.0
  0
LINE
  5
668
330
665
100
AcDbEntity
  8
0
 62
     0
370
    -2
100
AcDbLine
 10
-38.66368071893314
 20
-18.11166808010563
 30
0.0
 11
-36.64910497457344
 21
-17.3402668233916
 31
0.0
  0
MTEXT
  5
669
330
665
100
AcDbEntity
  8
0
 62
     0
100
AcDbMText
 10
-39.78868071893314
 20
-15.23666808010563
 30
0.0
 40
0.75
 41
0.0
 71
     3
 72
     1
  1
\A1;\U+22051.250\POPTIONAL:\PETHERNET \PCONNECTION \PPORT
 73
     1
 44
1.0
  0
SOLID
  5
66A
330
665
100
AcDbEntity
  8
0
 62
     0
100
AcDbTrace
 10
-36.69380388952054
 20
-17.22353205135451
 30
0.0
 11
-36.60440605962633
 21
-17.45700159542869
 31
0.0
 12
-35.94869634235088
 22
-17.07207333370897
 32
0.0
 13
-35.94869634235088
 23
-17.07207333370897
 33
0.0
  0
LINE
  5
66B
330
665
100
AcDbEntity
  8
0
 62
     0
370
    -2
100
AcDbLine
 10
-35.45502248216545
 20
-16.84857875897344
 30
0.0
 11
-35.27502248216546
 21
-16.84857875897344
 31
0.0
  0
LINE
  5
66C
330
665
100
AcDbEntity
  8
0
 62
     0
370
    -2
100
AcDbLine
 10
-35.36502248216545
 20
-16.93857875897344
 30
0.0
 11
-35.36502248216545
 21
-16.75857875897342
 31
0.0
  0
POINT
  5
66D
330
665
100
AcDbEntity
  8
Defpoints
 62
     0
100
AcDbPoint
 10
-35.94869634235088
 20
-17.07207333370897
 30
0.0
  0
POINT
  5
66E
330
665
100
AcDbEntity
  8
Defpoints
 62
     0
100
AcDbPoint
 10
-34.78134862197999
 20
-16.62508418423791
 30
0.0
  0
ENDBLK
  5
66F
330
665
100
AcDbEntity
  8
0
100
AcDbBlockEnd
  0
BLOCK
  5
671
330
670
100
AcDbEntity
  8
0
100
AcDbBlockBegin
  2
*D65
 70
     1
 10
0.0
 20
0.0
 30
0.0
  3
*D65
  1
*D65
  0
LINE
  5
672
330
670
100
AcDbEntity
  8
0
 62
     0
370
    -2
100
AcDbLine
 10
-35.36502248216545
 20
-17.22357875897344
 30
0.0
 11
-35.36502248216545
 21
-21.78557228820239
 31
0.0
  0
LINE
  5
673
330
670
100
AcDbEntity
  8
0
 62
     0
370
    -2
100
AcDbLine
 10
-35.36502248216545
 20
-21.78557228820239
 30
0.0
 11
-34.86244621921719
 21
-23.28557228820239
 31
0.0
  0
LINE
  5
674
330
670
100
AcDbEntity
  8
0
 62
     0
370
    -2
100
AcDbLine
 10
-34.86244621921719
 20
-23.28557228820239
 30
0.0
 11
-34.86244621921719
 21
-24.78557228820239
 31
0.0
  0
MTEXT
  5
675
330
670
100
AcDbEntity
  8
0
 62
     0
100
AcDbMText
 10
-34.86244621921719
 20
-26.47307228820239
 30
0.0
 40
0.75
 41
0.0
 71
     5
 72
     1
  1
\A1;2.501
 11
1.000000000000000E-16
 21
1.0
 31
0.0
 73
     1
 44
1.0
  0
POINT
  5
676
330
670
100
AcDbEntity
  8
Defpoints
 62
     0
100
AcDbPoint
 10
-35.36502248216545
 20
-16.84857875897344
 30
0.0
  0
POINT
  5
677
330
670
100
AcDbEntity
  8
Defpoints
 62
     0
100
AcDbPoint
 10
-34.86244621921719
 20
-24.78557228820239
 30
0.0
  0
POINT
  5
678
330
670
100
AcDbEntity
  8
Defpoints
 62
     0
100
AcDbPoint
 10
-37.86602940646385
 20
-33.12857875897364
 30
0.0
  0
ENDBLK
  5
679
330
670
100
AcDbEntity
  8
0
100
AcDbBlockEnd
  0
BLOCK
  5
67B
330
67A
100
AcDbEntity
  8
0
100
AcDbBlockBegin
  2
*D66
 70
     1
 10
0.0
 20
0.0
 30
0.0
  3
*D66
  1
*D66
  0
LINE
  5
67C
330
67A
100
AcDbEntity
  8
0
 62
     0
370
    -2
100
AcDbLine
 10
-34.99002248216545
 20
-16.84857875897344
 30
0.0
 11
-31.44172275602682
 21
-16.84857875897344
 31
0.0
  0
LINE
  5
67D
330
67A
100
AcDbEntity
  8
0
 62
     0
370
    -2
100
AcDbLine
 10
-31.44172275602682
 20
-16.84857875897344
 30
0.0
 11
-29.94172275602682
 21
-16.60682088287745
 31
0.0
  0
LINE
  5
67E
330
67A
100
AcDbEntity
  8
0
 62
     0
370
    -2
100
AcDbLine
 10
-29.94172275602682
 20
-16.60682088287745
 30
0.0
 11
-28.44172275602682
 21
-16.60682088287745
 31
0.0
  0
MTEXT
  5
67F
330
67A
100
AcDbEntity
  8
0
 62
     0
100
AcDbMText
 10
-26.37922275602682
 20
-16.60682088287745
 30
0.0
 40
0.75
 41
0.0
 71
     5
 72
     1
  1
\A1;16.280
 73
     1
 44
1.0
  0
POINT
  5
680
330
67A
100
AcDbEntity
  8
Defpoints
 62
     0
100
AcDbPoint
 10
-35.36502248216545
 20
-16.84857875897344
 30
0.0
  0
POINT
  5
681
330
67A
100
AcDbEntity
  8
Defpoints
 62
     0
100
AcDbPoint
 10
-28.44172275602682
 20
-16.60682088287745
 30
0.0
  0
POINT
  5
682
330
67A
100
AcDbEntity
  8
Defpoints
 62
     0
100
AcDbPoint
 10
-37.86602940646385
 20
-33.12857875897364
 30
0.0
  0
ENDBLK
  5
683
330
67A
100
AcDbEntity
  8
0
100
AcDbBlockEnd
  0
BLOCK
  5
70D
330
705
100
AcDbEntity
  8
0
100
AcDbBlockBegin
  2
*D67
 70
     1
 10
0.0
 20
0.0
 30
0.0
  3
*D67
  1
*D67
  0
LINE
  5
DC1
330
705
100
AcDbEntity
  8
DIMENSION
 62
     0
370
    -2
100
AcDbLine
 10
98.60534366656081
 20
10.87117163545489
 30
0.0
 11
98.60534366656081
 21
9.43367163545489
 31
0.0
  0
LINE
  5
DC2
330
705
100
AcDbEntity
  8
DIMENSION
 62
     0
370
    -2
100
AcDbLine
 10
98.60534366656081
 20
9.43367163545489
 30
0.0
 11
98.60535059085927
 21
9.433671635454829
 31
0.0
  0
LINE
  5
DC3
330
705
100
AcDbEntity
  8
DIMENSION
 62
     0
370
    -2
100
AcDbLine
 10
98.60535059085927
 20
9.433671635454829
 30
0.0
 11
98.60535059085927
 21
7.933671635454827
 31
0.0
  0
MTEXT
  5
DC4
330
705
100
AcDbEntity
  8
DIMENSION
 62
     0
100
AcDbMText
 10
98.60535059085927
 20
6.593671635454843
 30
0.0
 40
0.75
 41
0.0
 71
     5
 72
     1
  1
\A1;0.000
 11
1.000000000000000E-16
 21
1.0
 31
0.0
 73
     1
 44
1.0
  0
POINT
  5
DC5
330
705
100
AcDbEntity
  8
Defpoints
 62
     0
100
AcDbPoint
 10
98.60534366656081
 20
10.93367163545489
 30
0.0
  0
POINT
  5
DC6
330
705
100
AcDbEntity
  8
Defpoints
 62
     0
100
AcDbPoint
 10
98.60535059085927
 20
7.933671635454827
 30
0.0
  0
POINT
  5
DC7
330
705
100
AcDbEntity
  8
Defpoints
 62
     0
100
AcDbPoint
 10
98.60534366656081
 20
10.93367163545489
 30
0.0
  0
ENDBLK
  5
70E
330
705
100
AcDbEntity
  8
0
100
AcDbBlockEnd
  0
BLOCK
  5
715
330
70F
100
AcDbEntity
  8
0
100
AcDbBlockBegin
  2
*D68
 70
     1
 10
0.0
 20
0.0
 30
0.0
  3
*D68
  1
*D68
  0
LINE
  5
DBC
330
70F
100
AcDbEntity
  8
DIMENSION
 62
     0
370
    -2
100
AcDbLine
 10
99.29385059085925
 20
20.33917163545496
 30
0.0
 11
95.6053505908592
 21
20.33917163545496
 31
0.0
  0
MTEXT
  5
DBD
330
70F
100
AcDbEntity
  8
DIMENSION
 62
     0
100
AcDbMText
 10
94.07785059085921
 20
20.33917163545496
 30
0.0
 40
0.75
 41
0.0
 71
     5
 72
     1
  1
\A1;9.406
 73
     1
 44
1.0
  0
POINT
  5
DBE
330
70F
100
AcDbEntity
  8
Defpoints
 62
     0
100
AcDbPoint
 10
99.35635059085925
 20
20.33917163545496
 30
0.0
  0
POINT
  5
DBF
330
70F
100
AcDbEntity
  8
Defpoints
 62
     0
100
AcDbPoint
 10
95.6053505908592
 20
20.33917163545496
 30
0.0
  0
POINT
  5
DC0
330
70F
100
AcDbEntity
  8
Defpoints
 62
     0
100
AcDbPoint
 10
98.60535059085962
 20
10.93367163545489
 30
0.0
  0
ENDBLK
  5
716
330
70F
100
AcDbEntity
  8
0
100
AcDbBlockEnd
  0
BLOCK
  5
71D
330
717
100
AcDbEntity
  8
0
100
AcDbBlockBegin
  2
*D69
 70
     1
 10
0.0
 20
0.0
 30
0.0
  3
*D69
  1
*D69
  0
LINE
  5
DB7
330
717
100
AcDbEntity
  8
DIMENSION
 62
     0
370
    -2
100
AcDbLine
 10
103.7588505908592
 20
26.46367163545511
 30
0.0
 11
108.1053505908591
 21
26.46367163545509
 31
0.0
  0
MTEXT
  5
DB8
330
717
100
AcDbEntity
  8
DIMENSION
 62
     0
100
AcDbMText
 10
109.8828505908591
 20
26.46367163545509
 30
0.0
 40
0.75
 41
0.0
 71
     5
 72
     1
  1
\A1;15.530
 73
     1
 44
1.0
  0
POINT
  5
DB9
330
717
100
AcDbEntity
  8
Defpoints
 62
     0
100
AcDbPoint
 10
103.6963505908592
 20
26.46367163545511
 30
0.0
  0
POINT
  5
DBA
330
717
100
AcDbEntity
  8
Defpoints
 62
     0
100
AcDbPoint
 10
108.1053505908591
 20
26.46367163545509
 30
0.0
  0
POINT
  5
DBB
330
717
100
AcDbEntity
  8
Defpoints
 62
     0
100
AcDbPoint
 10
98.60535059085962
 20
10.93367163545489
 30
0.0
  0
ENDBLK
  5
71E
330
717
100
AcDbEntity
  8
0
100
AcDbBlockEnd
  0
BLOCK
  5
725
330
71F
100
AcDbEntity
  8
0
100
AcDbBlockBegin
  2
*D70
 70
     1
 10
0.0
 20
0.0
 30
0.0
  3
*D70
  1
*D70
  0
LINE
  5
DB2
330
71F
100
AcDbEntity
  8
DIMENSION
 62
     0
370
    -2
100
AcDbLine
 10
99.29385059085925
 20
30.33917163545497
 30
0.0
 11
95.6053505908592
 21
30.33917163545497
 31
0.0
  0
MTEXT
  5
DB3
330
71F
100
AcDbEntity
  8
DIMENSION
 62
     0
100
AcDbMText
 10
93.82785059085921
 20
30.33917163545497
 30
0.0
 40
0.75
 41
0.0
 71
     5
 72
     1
  1
\A1;19.406
 73
     1
 44
1.0
  0
POINT
  5
DB4
330
71F
100
AcDbEntity
  8
Defpoints
 62
     0
100
AcDbPoint
 10
99.35635059085925
 20
30.33917163545497
 30
0.0
  0
POINT
  5
DB5
330
71F
100
AcDbEntity
  8
Defpoints
 62
     0
100
AcDbPoint
 10
95.6053505908592
 20
30.33917163545497
 30
0.0
  0
POINT
  5
DB6
330
71F
100
AcDbEntity
  8
Defpoints
 62
     0
100
AcDbPoint
 10
98.60535059085962
 20
10.93367163545489
 30
0.0
  0
ENDBLK
  5
726
330
71F
100
AcDbEntity
  8
0
100
AcDbBlockEnd
  0
BLOCK
  5
72D
330
727
100
AcDbEntity
  8
0
100
AcDbBlockBegin
  2
*D71
 70
     1
 10
0.0
 20
0.0
 30
0.0
  3
*D71
  1
*D71
  0
LINE
  5
DAD
330
727
100
AcDbEntity
  8
DIMENSION
 62
     0
370
    -2
100
AcDbLine
 10
100.1883505908592
 20
31.44117163545507
 30
0.0
 11
100.1883505908592
 21
19.51117163545497
 31
0.0
  0
MTEXT
  5
DAE
330
727
100
AcDbEntity
  8
DIMENSION
 62
     0
100
AcDbMText
 10
100.1883505908592
 20
18.04617163545498
 30
0.0
 40
0.75
 41
0.0
 71
     5
 72
     1
  1
\A1;1.583
 11
1.000000000000000E-16
 21
1.0
 31
0.0
 73
     1
 44
1.0
  0
POINT
  5
DAF
330
727
100
AcDbEntity
  8
Defpoints
 62
     0
100
AcDbPoint
 10
100.1883505908592
 20
31.50367163545507
 30
0.0
  0
POINT
  5
DB0
330
727
100
AcDbEntity
  8
Defpoints
 62
     0
100
AcDbPoint
 10
100.1883505908592
 20
19.51117163545497
 30
0.0
  0
POINT
  5
DB1
330
727
100
AcDbEntity
  8
Defpoints
 62
     0
100
AcDbPoint
 10
98.60535059085962
 20
10.93367163545489
 30
0.0
  0
ENDBLK
  5
72E
330
727
100
AcDbEntity
  8
0
100
AcDbBlockEnd
  0
BLOCK
  5
737
330
72F
100
AcDbEntity
  8
0
100
AcDbBlockBegin
  2
*D72
 70
     1
 10
0.0
 20
0.0
 30
0.0
  3
*D72
  1
*D72
  0
LINE
  5
DA6
330
72F
100
AcDbEntity
  8
DIMENSION
 62
     0
370
    -2
100
AcDbLine
 10
104.6383505908593
 20
31.44117163545507
 30
0.0
 11
104.6383505908593
 21
10.64867163545481
 31
0.0
  0
LINE
  5
DA7
330
72F
100
AcDbEntity
  8
DIMENSION
 62
     0
370
    -2
100
AcDbLine
 10
104.6383505908593
 20
10.64867163545481
 30
0.0
 11
105.7884468575743
 21
9.14867163545481
 31
0.0
  0
LINE
  5
DA8
330
72F
100
AcDbEntity
  8
DIMENSION
 62
     0
370
    -2
100
AcDbLine
 10
105.7884468575743
 20
9.14867163545481
 30
0.0
 11
105.7884468575743
 21
7.64867163545481
 31
0.0
  0
MTEXT
  5
DA9
330
72F
100
AcDbEntity
  8
DIMENSION
 62
     0
100
AcDbMText
 10
105.7884468575743
 20
6.121171635454827
 30
0.0
 40
0.75
 41
0.0
 71
     5
 72
     1
  1
\A1;6.033
 11
1.000000000000000E-16
 21
1.0
 31
0.0
 73
     1
 44
1.0
  0
POINT
  5
DAA
330
72F
100
AcDbEntity
  8
Defpoints
 62
     0
100
AcDbPoint
 10
104.6383505908593
 20
31.50367163545507
 30
0.0
  0
POINT
  5
DAB
330
72F
100
AcDbEntity
  8
Defpoints
 62
     0
100
AcDbPoint
 10
105.7884468575743
 20
7.64867163545481
 30
0.0
  0
POINT
  5
DAC
330
72F
100
AcDbEntity
  8
Defpoints
 62
     0
100
AcDbPoint
 10
98.60535059085962
 20
10.93367163545489
 30
0.0
  0
ENDBLK
  5
738
330
72F
100
AcDbEntity
  8
0
100
AcDbBlockEnd
  0
BLOCK
  5
73F
330
739
100
AcDbEntity
  8
0
100
AcDbBlockBegin
  2
*D73
 70
     1
 10
0.0
 20
0.0
 30
0.0
  3
*D73
  1
*D73
  0
LINE
  5
DA1
330
739
100
AcDbEntity
  8
DIMENSION
 62
     0
370
    -2
100
AcDbLine
 10
104.7008505908593
 20
31.50367163545507
 30
0.0
 11
108.1053505908591
 21
31.50367163545507
 31
0.0
  0
MTEXT
  5
DA2
330
739
100
AcDbEntity
  8
DIMENSION
 62
     0
100
AcDbMText
 10
109.9453505908591
 20
31.50367163545507
 30
0.0
 40
0.75
 41
0.0
 71
     5
 72
     1
  1
\A1;20.570
 73
     1
 44
1.0
  0
POINT
  5
DA3
330
739
100
AcDbEntity
  8
Defpoints
 62
     0
100
AcDbPoint
 10
104.6383505908593
 20
31.50367163545507
 30
0.0
  0
POINT
  5
DA4
330
739
100
AcDbEntity
  8
Defpoints
 62
     0
100
AcDbPoint
 10
108.1053505908591
 20
31.50367163545507
 30
0.0
  0
POINT
  5
DA5
330
739
100
AcDbEntity
  8
Defpoints
 62
     0
100
AcDbPoint
 10
98.60535059085962
 20
10.93367163545489
 30
0.0
  0
ENDBLK
  5
740
330
739
100
AcDbEntity
  8
0
100
AcDbBlockEnd
  0
BLOCK
  5
747
330
741
100
AcDbEntity
  8
0
100
AcDbBlockBegin
  2
*D74
 70
     1
 10
0.0
 20
0.0
 30
0.0
  3
*D74
  1
*D74
  0
LINE
  5
D9C
330
741
100
AcDbEntity
  8
DIMENSION
 62
     0
370
    -2
100
AcDbLine
 10
104.7008505908592
 20
37.02867163545481
 30
0.0
 11
108.1053505908591
 21
37.02867163545481
 31
0.0
  0
MTEXT
  5
D9D
330
741
100
AcDbEntity
  8
DIMENSION
 62
     0
100
AcDbMText
 10
110.0078505908591
 20
37.02867163545481
 30
0.0
 40
0.75
 41
0.0
 71
     5
 72
     1
  1
\A1;26.095
 73
     1
 44
1.0
  0
POINT
  5
D9E
330
741
100
AcDbEntity
  8
Defpoints
 62
     0
100
AcDbPoint
 10
104.6383505908592
 20
37.02867163545481
 30
0.0
  0
POINT
  5
D9F
330
741
100
AcDbEntity
  8
Defpoints
 62
     0
100
AcDbPoint
 10
108.1053505908591
 20
37.02867163545481
 30
0.0
  0
POINT
  5
DA0
330
741
100
AcDbEntity
  8
Defpoints
 62
     0
100
AcDbPoint
 10
98.60535059085962
 20
10.93367163545489
 30
0.0
  0
ENDBLK
  5
748
330
741
100
AcDbEntity
  8
0
100
AcDbBlockEnd
  0
BLOCK
  5
74F
330
749
100
AcDbEntity
  8
0
100
AcDbBlockBegin
  2
*D75
 70
     1
 10
0.0
 20
0.0
 30
0.0
  3
*D75
  1
*D75
  0
LINE
  5
D97
330
749
100
AcDbEntity
  8
DIMENSION
 62
     0
370
    -2
100
AcDbLine
 10
99.29385059085925
 20
38.08917163545497
 30
0.0
 11
95.6053505908592
 21
38.08917163545497
 31
0.0
  0
MTEXT
  5
D98
330
749
100
AcDbEntity
  8
DIMENSION
 62
     0
100
AcDbMText
 10
93.76535059085921
 20
38.08917163545497
 30
0.0
 40
0.75
 41
0.0
 71
     5
 72
     1
  1
\A1;27.156
 73
     1
 44
1.0
  0
POINT
  5
D99
330
749
100
AcDbEntity
  8
Defpoints
 62
     0
100
AcDbPoint
 10
99.35635059085925
 20
38.08917163545497
 30
0.0
  0
POINT
  5
D9A
330
749
100
AcDbEntity
  8
Defpoints
 62
     0
100
AcDbPoint
 10
95.6053505908592
 20
38.08917163545497
 30
0.0
  0
POINT
  5
D9B
330
749
100
AcDbEntity
  8
Defpoints
 62
     0
100
AcDbPoint
 10
98.60535059085962
 20
10.93367163545489
 30
0.0
  0
ENDBLK
  5
750
330
749
100
AcDbEntity
  8
0
100
AcDbBlockEnd
  0
BLOCK
  5
757
330
751
100
AcDbEntity
  8
0
100
AcDbBlockBegin
  2
*D76
 70
     1
 10
0.0
 20
0.0
 30
0.0
  3
*D76
  1
*D76
  0
LINE
  5
D92
330
751
100
AcDbEntity
  8
DIMENSION
 62
     0
370
    -2
100
AcDbLine
 10
101.9188505908592
 20
41.23367163545506
 30
0.0
 11
108.1053505908591
 21
41.23367163545506
 31
0.0
  0
MTEXT
  5
D93
330
751
100
AcDbEntity
  8
DIMENSION
 62
     0
100
AcDbMText
 10
109.8828505908591
 20
41.23367163545506
 30
0.0
 40
0.75
 41
0.0
 71
     5
 72
     1
  1
\A1;30.300
 73
     1
 44
1.0
  0
POINT
  5
D94
330
751
100
AcDbEntity
  8
Defpoints
 62
     0
100
AcDbPoint
 10
101.8563505908592
 20
41.23367163545506
 30
0.0
  0
POINT
  5
D95
330
751
100
AcDbEntity
  8
Defpoints
 62
     0
100
AcDbPoint
 10
108.1053505908591
 20
41.23367163545506
 30
0.0
  0
POINT
  5
D96
330
751
100
AcDbEntity
  8
Defpoints
 62
     0
100
AcDbPoint
 10
98.60535059085962
 20
10.93367163545489
 30
0.0
  0
ENDBLK
  5
758
330
751
100
AcDbEntity
  8
0
100
AcDbBlockEnd
  0
BLOCK
  5
75F
330
759
100
AcDbEntity
  8
0
100
AcDbBlockBegin
  2
*D77
 70
     1
 10
0.0
 20
0.0
 30
0.0
  3
*D77
  1
*D77
  0
LINE
  5
D8D
330
759
100
AcDbEntity
  8
DIMENSION
 62
     0
370
    -2
100
AcDbLine
 10
99.29385059085925
 20
44.08867163545509
 30
0.0
 11
95.6053505908592
 21
44.08867163545509
 31
0.0
  0
MTEXT
  5
D8E
330
759
100
AcDbEntity
  8
DIMENSION
 62
     0
100
AcDbMText
 10
93.76535059085921
 20
44.08867163545509
 30
0.0
 40
0.75
 41
0.0
 71
     5
 72
     1
  1
\A1;33.155
 73
     1
 44
1.0
  0
POINT
  5
D8F
330
759
100
AcDbEntity
  8
Defpoints
 62
     0
100
AcDbPoint
 10
99.35635059085925
 20
44.08867163545509
 30
0.0
  0
POINT
  5
D90
330
759
100
AcDbEntity
  8
Defpoints
 62
     0
100
AcDbPoint
 10
95.6053505908592
 20
44.08867163545509
 30
0.0
  0
POINT
  5
D91
330
759
100
AcDbEntity
  8
Defpoints
 62
     0
100
AcDbPoint
 10
98.60535059085962
 20
10.93367163545489
 30
0.0
  0
ENDBLK
  5
760
330
759
100
AcDbEntity
  8
0
100
AcDbBlockEnd
  0
BLOCK
  5
767
330
761
100
AcDbEntity
  8
0
100
AcDbBlockBegin
  2
*D78
 70
     1
 10
0.0
 20
0.0
 30
0.0
  3
*D78
  1
*D78
  0
LINE
  5
D88
330
761
100
AcDbEntity
  8
DIMENSION
 62
     0
370
    -2
100
AcDbLine
 10
105.1678505908592
 20
44.9636716354552
 30
0.0
 11
108.1053505908591
 21
44.9636716354552
 31
0.0
  0
MTEXT
  5
D89
330
761
100
AcDbEntity
  8
DIMENSION
 62
     0
100
AcDbMText
 10
109.9453505908591
 20
44.9636716354552
 30
0.0
 40
0.75
 41
0.0
 71
     5
 72
     1
  1
\A1;34.030
 73
     1
 44
1.0
  0
POINT
  5
D8A
330
761
100
AcDbEntity
  8
Defpoints
 62
     0
100
AcDbPoint
 10
105.1053505908592
 20
44.9636716354552
 30
0.0
  0
POINT
  5
D8B
330
761
100
AcDbEntity
  8
Defpoints
 62
     0
100
AcDbPoint
 10
108.1053505908591
 20
44.9636716354552
 30
0.0
  0
POINT
  5
D8C
330
761
100
AcDbEntity
  8
Defpoints
 62
     0
100
AcDbPoint
 10
98.60535059085962
 20
10.93367163545489
 30
0.0
  0
ENDBLK
  5
768
330
761
100
AcDbEntity
  8
0
100
AcDbBlockEnd
  0
BLOCK
  5
76F
330
769
100
AcDbEntity
  8
0
100
AcDbBlockBegin
  2
*D79
 70
     1
 10
0.0
 20
0.0
 30
0.0
  3
*D79
  1
*D79
  0
LINE
  5
D83
330
769
100
AcDbEntity
  8
DIMENSION
 62
     0
370
    -2
100
AcDbLine
 10
99.35635059085925
 20
44.15117163545509
 30
0.0
 11
99.35635059085925
 21
47.96367163545509
 31
0.0
  0
MTEXT
  5
D84
330
769
100
AcDbEntity
  8
DIMENSION
 62
     0
100
AcDbMText
 10
99.35635059085925
 20
49.42867163545511
 30
0.0
 40
0.75
 41
0.0
 71
     5
 72
     1
  1
\A1;0.750
 11
1.000000000000000E-16
 21
1.0
 31
0.0
 73
     1
 44
1.0
  0
POINT
  5
D85
330
769
100
AcDbEntity
  8
Defpoints
 62
     0
100
AcDbPoint
 10
99.35635059085925
 20
44.08867163545509
 30
0.0
  0
POINT
  5
D86
330
769
100
AcDbEntity
  8
Defpoints
 62
     0
100
AcDbPoint
 10
99.35635059085925
 20
47.96367163545509
 30
0.0
  0
POINT
  5
D87
330
769
100
AcDbEntity
  8
Defpoints
 62
     0
100
AcDbPoint
 10
98.60535059085962
 20
10.93367163545489
 30
0.0
  0
ENDBLK
  5
770
330
769
100
AcDbEntity
  8
0
100
AcDbBlockEnd
  0
BLOCK
  5
777
330
771
100
AcDbEntity
  8
0
100
AcDbBlockBegin
  2
*D80
 70
     1
 10
0.0
 20
0.0
 30
0.0
  3
*D80
  1
*D80
  0
LINE
  5
D7E
330
771
100
AcDbEntity
  8
DIMENSION
 62
     0
370
    -2
100
AcDbLine
 10
101.8563505908592
 20
41.29617163545506
 30
0.0
 11
101.8563505908592
 21
47.96367163545509
 31
0.0
  0
MTEXT
  5
D7F
330
771
100
AcDbEntity
  8
DIMENSION
 62
     0
100
AcDbMText
 10
101.8563505908592
 20
49.49117163545511
 30
0.0
 40
0.75
 41
0.0
 71
     5
 72
     1
  1
\A1;3.250
 11
1.000000000000000E-16
 21
1.0
 31
0.0
 73
     1
 44
1.0
  0
POINT
  5
D80
330
771
100
AcDbEntity
  8
Defpoints
 62
     0
100
AcDbPoint
 10
101.8563505908592
 20
41.23367163545506
 30
0.0
  0
POINT
  5
D81
330
771
100
AcDbEntity
  8
Defpoints
 62
     0
100
AcDbPoint
 10
101.8563505908592
 20
47.96367163545509
 30
0.0
  0
POINT
  5
D82
330
771
100
AcDbEntity
  8
Defpoints
 62
     0
100
AcDbPoint
 10
98.60535059085962
 20
10.93367163545489
 30
0.0
  0
ENDBLK
  5
778
330
771
100
AcDbEntity
  8
0
100
AcDbBlockEnd
  0
BLOCK
  5
781
330
779
100
AcDbEntity
  8
0
100
AcDbBlockBegin
  2
*D81
 70
     1
 10
0.0
 20
0.0
 30
0.0
  3
*D81
  1
*D81
  0
LINE
  5
D77
330
779
100
AcDbEntity
  8
DIMENSION
 62
     0
370
    -2
100
AcDbLine
 10
104.3563505908592
 20
44.15117163545509
 30
0.0
 11
104.3563505908592
 21
45.58867163545509
 31
0.0
  0
LINE
  5
D78
330
779
100
AcDbEntity
  8
DIMENSION
 62
     0
370
    -2
100
AcDbLine
 10
104.3563505908592
 20
45.58867163545509
 30
0.0
 11
104.1053505908592
 21
46.46367163545509
 31
0.0
  0
LINE
  5
D79
330
779
100
AcDbEntity
  8
DIMENSION
 62
     0
370
    -2
100
AcDbLine
 10
104.1053505908592
 20
46.46367163545509
 30
0.0
 11
104.1053505908592
 21
47.96367163545509
 31
0.0
  0
MTEXT
  5
D7A
330
779
100
AcDbEntity
  8
DIMENSION
 62
     0
100
AcDbMText
 10
104.1053505908592
 20
49.49117163545511
 30
0.0
 40
0.75
 41
0.0
 71
     5
 72
     1
  1
\A1;5.750
 11
1.000000000000000E-16
 21
1.0
 31
0.0
 73
     1
 44
1.0
  0
POINT
  5
D7B
330
779
100
AcDbEntity
  8
Defpoints
 62
     0
100
AcDbPoint
 10
104.3563505908592
 20
44.08867163545509
 30
0.0
  0
POINT
  5
D7C
330
779
100
AcDbEntity
  8
Defpoints
 62
     0
100
AcDbPoint
 10
104.1053505908592
 20
47.96367163545509
 30
0.0
  0
POINT
  5
D7D
330
779
100
AcDbEntity
  8
Defpoints
 62
     0
100
AcDbPoint
 10
98.60535059085962
 20
10.93367163545489
 30
0.0
  0
ENDBLK
  5
782
330
779
100
AcDbEntity
  8
0
100
AcDbBlockEnd
  0
BLOCK
  5
789
330
783
100
AcDbEntity
  8
0
100
AcDbBlockBegin
  2
*D82
 70
     1
 10
0.0
 20
0.0
 30
0.0
  3
*D82
  1
*D82
  0
LINE
  5
D72
330
783
100
AcDbEntity
  8
DIMENSION
 62
     0
370
    -2
100
AcDbLine
 10
105.1053505908592
 20
45.0261716354552
 30
0.0
 11
105.1053505908592
 21
47.96367163545509
 31
0.0
  0
MTEXT
  5
D73
330
783
100
AcDbEntity
  8
DIMENSION
 62
     0
100
AcDbMText
 10
105.1053505908592
 20
49.42867163545511
 30
0.0
 40
0.75
 41
0.0
 71
     5
 72
     1
  1
\A1;6.500
 11
1.000000000000000E-16
 21
1.0
 31
0.0
 73
     1
 44
1.0
  0
POINT
  5
D74
330
783
100
AcDbEntity
  8
Defpoints
 62
     0
100
AcDbPoint
 10
105.1053505908592
 20
44.9636716354552
 30
0.0
  0
POINT
  5
D75
330
783
100
AcDbEntity
  8
Defpoints
 62
     0
100
AcDbPoint
 10
105.1053505908592
 20
47.96367163545509
 30
0.0
  0
POINT
  5
D76
330
783
100
AcDbEntity
  8
Defpoints
 62
     0
100
AcDbPoint
 10
98.60535059085962
 20
10.93367163545489
 30
0.0
  0
ENDBLK
  5
78A
330
783
100
AcDbEntity
  8
0
100
AcDbBlockEnd
  0
BLOCK
  5
791
330
78B
100
AcDbEntity
  8
0
100
AcDbBlockBegin
  2
*D83
 70
     1
 10
0.0
 20
0.0
 30
0.0
  3
*D83
  1
*D83
  0
LINE
  5
D6D
330
78B
100
AcDbEntity
  8
DIMENSION
 62
     0
370
    -2
100
AcDbLine
 10
103.6063505908592
 20
24.81117163545511
 30
0.0
 11
103.6063505908592
 21
19.22617163545495
 31
0.0
  0
MTEXT
  5
D6E
330
78B
100
AcDbEntity
  8
DIMENSION
 62
     0
100
AcDbMText
 10
103.6063505908592
 20
17.88617163545497
 30
0.0
 40
0.75
 41
0.0
 71
     5
 72
     1
  1
\A1;5.001
 11
1.000000000000000E-16
 21
1.0
 31
0.0
 73
     1
 44
1.0
  0
POINT
  5
D6F
330
78B
100
AcDbEntity
  8
Defpoints
 62
     0
100
AcDbPoint
 10
103.6063505908592
 20
24.8736716354551
 30
0.0
  0
POINT
  5
D70
330
78B
100
AcDbEntity
  8
Defpoints
 62
     0
100
AcDbPoint
 10
103.6063505908592
 20
19.22617163545495
 30
0.0
  0
POINT
  5
D71
330
78B
100
AcDbEntity
  8
Defpoints
 62
     0
100
AcDbPoint
 10
98.60535059085962
 20
10.93367163545489
 30
0.0
  0
ENDBLK
  5
792
330
78B
100
AcDbEntity
  8
0
100
AcDbBlockEnd
  0
BLOCK
  5
799
330
793
100
AcDbEntity
  8
0
100
AcDbBlockBegin
  2
*D84
 70
     1
 10
0.0
 20
0.0
 30
0.0
  3
*D84
  1
*D84
  0
LINE
  5
D68
330
793
100
AcDbEntity
  8
0
 62
     0
370
    -2
100
AcDbLine
 10
103.7588505908592
 20
24.96367163545509
 30
0.0
 11
108.0464259939718
 21
24.96367163545509
 31
0.0
  0
MTEXT
  5
D69
330
793
100
AcDbEntity
  8
0
 62
     0
100
AcDbMText
 10
109.7614259939718
 20
24.96367163545509
 30
0.0
 40
0.75
 41
0.0
 71
     5
 72
     1
  1
\A1;14.030
 73
     1
 44
1.0
  0
POINT
  5
D6A
330
793
100
AcDbEntity
  8
Defpoints
 62
     0
100
AcDbPoint
 10
103.6963505908592
 20
24.96367163545509
 30
0.0
  0
POINT
  5
D6B
330
793
100
AcDbEntity
  8
Defpoints
 62
     0
100
AcDbPoint
 10
108.0464259939718
 20
24.96367163545509
 30
0.0
  0
POINT
  5
D6C
330
793
100
AcDbEntity
  8
Defpoints
 62
     0
100
AcDbPoint
 10
98.60535059085962
 20
10.93367163545489
 30
0.0
  0
ENDBLK
  5
79A
330
793
100
AcDbEntity
  8
0
100
AcDbBlockEnd
  0
BLOCK
  5
7A1
330
79B
100
AcDbEntity
  8
0
100
AcDbBlockBegin
  2
*D85
 70
     1
 10
0.0
 20
0.0
 30
0.0
  3
*D85
  1
*D85
  0
LINE
  5
D63
330
79B
100
AcDbEntity
  8
0
 62
     0
370
    -2
100
AcDbLine
 10
102.1705074348126
 20
11.57376132026903
 30
0.0
 11
102.1705074348126
 21
8.020821488775482
 31
0.0
  0
MTEXT
  5
D64
330
79B
100
AcDbEntity
  8
0
 62
     0
100
AcDbMText
 10
102.1705074348126
 20
6.430821488775499
 30
0.0
 40
0.75
 41
0.0
 71
     5
 72
     1
  1
\A1;3.565
 11
1.000000000000000E-16
 21
1.0
 31
0.0
 73
     1
 44
1.0
  0
POINT
  5
D65
330
79B
100
AcDbEntity
  8
Defpoints
 62
     0
100
AcDbPoint
 10
102.1705074348126
 20
11.63626132026903
 30
0.0
  0
POINT
  5
D66
330
79B
100
AcDbEntity
  8
Defpoints
 62
     0
100
AcDbPoint
 10
102.1705074348126
 20
8.020821488775482
 30
0.0
  0
POINT
  5
D67
330
79B
100
AcDbEntity
  8
Defpoints
 62
     0
100
AcDbPoint
 10
98.60534366656081
 20
10.93367163545489
 30
0.0
  0
ENDBLK
  5
7A2
330
79B
100
AcDbEntity
  8
0
100
AcDbBlockEnd
  0
BLOCK
  5
7A9
330
7A3
100
AcDbEntity
  8
0
100
AcDbBlockBegin
  2
*D86
 70
     1
 10
0.0
 20
0.0
 30
0.0
  3
*D86
  1
*D86
  0
LINE
  5
D5E
330
7A3
100
AcDbEntity
  8
0
 62
     0
370
    -2
100
AcDbLine
 10
104.4505074348128
 20
11.57376132026903
 30
0.0
 11
104.4505074348128
 21
7.990650394112557
 31
0.0
  0
MTEXT
  5
D5F
330
7A3
100
AcDbEntity
  8
0
 62
     0
100
AcDbMText
 10
104.4505074348128
 20
6.400650394112574
 30
0.0
 40
0.75
 41
0.0
 71
     5
 72
     1
  1
\A1;5.845
 11
1.000000000000000E-16
 21
1.0
 31
0.0
 73
     1
 44
1.0
  0
POINT
  5
D60
330
7A3
100
AcDbEntity
  8
Defpoints
 62
     0
100
AcDbPoint
 10
104.4505074348128
 20
11.63626132026903
 30
0.0
  0
POINT
  5
D61
330
7A3
100
AcDbEntity
  8
Defpoints
 62
     0
100
AcDbPoint
 10
104.4505074348128
 20
7.990650394112557
 30
0.0
  0
POINT
  5
D62
330
7A3
100
AcDbEntity
  8
Defpoints
 62
     0
100
AcDbPoint
 10
98.60534366656081
 20
10.93367163545489
 30
0.0
  0
ENDBLK
  5
7AA
330
7A3
100
AcDbEntity
  8
0
100
AcDbBlockEnd
  0
BLOCK
  5
7B1
330
7AB
100
AcDbEntity
  8
0
100
AcDbBlockBegin
  2
*D87
 70
     1
 10
0.0
 20
0.0
 30
0.0
  3
*D87
  1
*D87
  0
LINE
  5
D59
330
7AB
100
AcDbEntity
  8
0
 62
     0
370
    -2
100
AcDbLine
 10
102.1080074348126
 20
14.76126132026904
 30
0.0
 11
95.79237905243886
 21
14.76126132026904
 31
0.0
  0
MTEXT
  5
D5A
330
7AB
100
AcDbEntity
  8
0
 62
     0
100
AcDbMText
 10
94.20237905243884
 20
14.76126132026904
 30
0.0
 40
0.75
 41
0.0
 71
     5
 72
     1
  1
\A1;3.828
 73
     1
 44
1.0
  0
POINT
  5
D5B
330
7AB
100
AcDbEntity
  8
Defpoints
 62
     0
100
AcDbPoint
 10
102.1705074348126
 20
14.76126132026904
 30
0.0
  0
POINT
  5
D5C
330
7AB
100
AcDbEntity
  8
Defpoints
 62
     0
100
AcDbPoint
 10
95.79237905243886
 20
14.76126132026904
 30
0.0
  0
POINT
  5
D5D
330
7AB
100
AcDbEntity
  8
Defpoints
 62
     0
100
AcDbPoint
 10
98.60534366656081
 20
10.93367163545489
 30
0.0
  0
ENDBLK
  5
7B2
330
7AB
100
AcDbEntity
  8
0
100
AcDbBlockEnd
  0
BLOCK
  5
7BB
330
7B3
100
AcDbEntity
  8
0
100
AcDbBlockBegin
  2
*D88
 70
     1
 10
0.0
 20
0.0
 30
0.0
  3
*D88
  1
*D88
  0
LINE
  5
D52
330
7B3
100
AcDbEntity
  8
0
 62
     0
370
    -2
100
AcDbLine
 10
102.1080074348126
 20
11.63626132026903
 30
0.0
 11
98.8225788870431
 21
11.63626132026903
 31
0.0
  0
LINE
  5
D53
330
7B3
100
AcDbEntity
  8
0
 62
     0
370
    -2
100
AcDbLine
 10
98.8225788870431
 20
11.63626132026903
 30
0.0
 11
97.32257888704308
 21
12.1240883945067
 31
0.0
  0
LINE
  5
D54
330
7B3
100
AcDbEntity
  8
0
 62
     0
370
    -2
100
AcDbLine
 10
97.32257888704308
 20
12.1240883945067
 30
0.0
 11
95.82257888704308
 21
12.1240883945067
 31
0.0
  0
MTEXT
  5
D55
330
7B3
100
AcDbEntity
  8
0
 62
     0
100
AcDbMText
 10
94.35757888704308
 20
12.1240883945067
 30
0.0
 40
0.75
 41
0.0
 71
     5
 72
     1
  1
\A1;0.703
 73
     1
 44
1.0
  0
POINT
  5
D56
330
7B3
100
AcDbEntity
  8
Defpoints
 62
     0
100
AcDbPoint
 10
102.1705074348126
 20
11.63626132026903
 30
0.0
  0
POINT
  5
D57
330
7B3
100
AcDbEntity
  8
Defpoints
 62
     0
100
AcDbPoint
 10
95.82257888704308
 20
12.1240883945067
 30
0.0
  0
POINT
  5
D58
330
7B3
100
AcDbEntity
  8
Defpoints
 62
     0
100
AcDbPoint
 10
98.60534366656081
 20
10.93367163545489
 30
0.0
  0
ENDBLK
  5
7BC
330
7B3
100
AcDbEntity
  8
0
100
AcDbBlockEnd
  0
BLOCK
  5
7C6
330
7BD
100
AcDbEntity
  8
0
100
AcDbBlockBegin
  2
*D89
 70
     1
 10
0.0
 20
0.0
 30
0.0
  3
*D89
  1
*D89
  0
LINE
  5
D4A
330
7BD
100
AcDbEntity
  8
0
 62
     0
370
    -2
100
AcDbLine
 10
108.0260303320231
 20
20.63978414826476
 30
0.0
 11
106.9910303320232
 21
20.63978414826475
 31
0.0
  0
LINE
  5
D4B
330
7BD
100
AcDbEntity
  8
0
 62
     0
370
    -2
100
AcDbLine
 10
106.9910303320232
 20
20.63978414826475
 30
0.0
 11
104.4538936783548
 21
23.88094557830193
 31
0.0
  0
MTEXT
  5
D4C
330
7BD
100
AcDbEntity
  8
0
 62
     0
100
AcDbMText
 10
110.9910303320231
 20
20.63978414826475
 30
0.0
 40
0.75
 41
0.0
 71
     5
 72
     1
  1
\A1;\U+22051.250 (1)\POPTIONAL:\PEXTERNAL \PHEAT \POUTPUT
 73
     1
 44
1.0
  0
SOLID
  5
D4D
330
7BD
100
AcDbEntity
  8
0
 62
     0
100
AcDbTrace
 10
104.5523233199142
 20
23.95799494989243
 30
0.0
 11
104.3554640367954
 21
23.80389620671142
 31
0.0
 12
103.9915974488118
 22
24.47152342765821
 32
0.0
 13
103.9915974488118
 23
24.47152342765821
 33
0.0
  0
LINE
  5
D4E
330
7BD
100
AcDbEntity
  8
0
 62
     0
370
    -2
100
AcDbLine
 10
103.5163505908592
 20
24.96367163545511
 30
0.0
 11
103.6963505908593
 21
24.96367163545511
 31
0.0
  0
LINE
  5
D4F
330
7BD
100
AcDbEntity
  8
0
 62
     0
370
    -2
100
AcDbLine
 10
103.6063505908592
 20
24.87367163545511
 30
0.0
 11
103.6063505908592
 21
25.05367163545512
 31
0.0
  0
POINT
  5
D50
330
7BD
100
AcDbEntity
  8
Defpoints
 62
     0
100
AcDbPoint
 10
103.9915974488118
 20
24.47152342765821
 30
0.0
  0
POINT
  5
D51
330
7BD
100
AcDbEntity
  8
Defpoints
 62
     0
100
AcDbPoint
 10
103.2211037329067
 20
25.45581984325201
 30
0.0
  0
ENDBLK
  5
7C7
330
7BD
100
AcDbEntity
  8
0
100
AcDbBlockEnd
  0
BLOCK
  5
7D1
330
7C8
100
AcDbEntity
  8
0
100
AcDbBlockBegin
  2
*D90
 70
     1
 10
0.0
 20
0.0
 30
0.0
  3
*D90
  1
*D90
  0
LINE
  5
D42
330
7C8
100
AcDbEntity
  8
0
 62
     0
370
    -2
100
AcDbLine
 10
108.0661373450842
 20
29.7912814672215
 30
0.0
 11
107.0311373450842
 21
29.7912814672215
 31
0.0
  0
LINE
  5
D43
330
7C8
100
AcDbEntity
  8
0
 62
     0
370
    -2
100
AcDbLine
 10
107.0311373450842
 20
29.7912814672215
 30
0.0
 11
104.5925127182308
 21
27.42185181607774
 31
0.0
  0
MTEXT
  5
D44
330
7C8
100
AcDbEntity
  8
0
 62
     0
100
AcDbMText
 10
112.6561373450842
 20
29.7912814672215
 30
0.0
 40
0.75
 41
0.0
 71
     5
 72
     1
  1
\A1;\U+22051.250\PPOWER SUPPLY
 73
     1
 44
1.0
  0
SOLID
  5
D45
330
7C8
100
AcDbEntity
  8
0
 62
     0
100
AcDbTrace
 10
104.5054054290833
 20
27.51150291856606
 30
0.0
 11
104.6796200073783
 21
27.33220071358942
 31
0.0
 12
104.0546061033008
 22
26.89920808119268
 32
0.0
 13
104.0546061033008
 23
26.89920808119268
 33
0.0
  0
LINE
  5
D46
330
7C8
100
AcDbEntity
  8
0
 62
     0
370
    -2
100
AcDbLine
 10
103.5163505908592
 20
26.4636716354551
 30
0.0
 11
103.6963505908592
 21
26.46367163545512
 31
0.0
  0
LINE
  5
D47
330
7C8
100
AcDbEntity
  8
0
 62
     0
370
    -2
100
AcDbLine
 10
103.6063505908592
 20
26.37367163545511
 30
0.0
 11
103.6063505908592
 21
26.5536716354551
 31
0.0
  0
POINT
  5
D48
330
7C8
100
AcDbEntity
  8
Defpoints
 62
     0
100
AcDbPoint
 10
104.0546061033008
 20
26.89920808119268
 30
0.0
  0
POINT
  5
D49
330
7C8
100
AcDbEntity
  8
Defpoints
 62
     0
100
AcDbPoint
 10
103.1580950784176
 20
26.02813518971756
 30
0.0
  0
ENDBLK
  5
7D2
330
7C8
100
AcDbEntity
  8
0
100
AcDbBlockEnd
  0
BLOCK
  5
7DC
330
7D3
100
AcDbEntity
  8
0
100
AcDbBlockBegin
  2
*D91
 70
     1
 10
0.0
 20
0.0
 30
0.0
  3
*D91
  1
*D91
  0
LINE
  5
D3A
330
7D3
100
AcDbEntity
  8
0
 62
     0
370
    -2
100
AcDbLine
 10
96.77269235409152
 20
25.95058231432288
 30
0.0
 11
97.80769235409159
 21
25.9505823143229
 31
0.0
  0
LINE
  5
D3B
330
7D3
100
AcDbEntity
  8
0
 62
     0
370
    -2
100
AcDbLine
 10
97.80769235409159
 20
25.9505823143229
 30
0.0
 11
99.82226809845126
 21
26.72198357103693
 31
0.0
  0
MTEXT
  5
D3C
330
7D3
100
AcDbEntity
  8
0
 62
     0
100
AcDbMText
 10
96.68269235409151
 20
28.8255823143229
 30
0.0
 40
0.75
 41
0.0
 71
     3
 72
     1
  1
\A1;\U+22051.250\POPTIONAL:\PETHERNET \PCONNECTION \PPORT
 73
     1
 44
1.0
  0
SOLID
  5
D3D
330
7D3
100
AcDbEntity
  8
0
 62
     0
100
AcDbTrace
 10
99.77756918350416
 20
26.83871834307402
 30
0.0
 11
99.86696701339838
 21
26.60524879899984
 31
0.0
 12
100.5226767306738
 22
26.99017706071957
 32
0.0
 13
100.5226767306738
 23
26.99017706071957
 33
0.0
  0
LINE
  5
D3E
330
7D3
100
AcDbEntity
  8
0
 62
     0
370
    -2
100
AcDbLine
 10
101.0163505908592
 20
27.2136716354551
 30
0.0
 11
101.1963505908592
 21
27.21367163545509
 31
0.0
  0
LINE
  5
D3F
330
7D3
100
AcDbEntity
  8
0
 62
     0
370
    -2
100
AcDbLine
 10
101.1063505908592
 20
27.1236716354551
 30
0.0
 11
101.1063505908592
 21
27.3036716354551
 31
0.0
  0
POINT
  5
D40
330
7D3
100
AcDbEntity
  8
Defpoints
 62
     0
100
AcDbPoint
 10
100.5226767306738
 20
26.99017706071957
 30
0.0
  0
POINT
  5
D41
330
7D3
100
AcDbEntity
  8
Defpoints
 62
     0
100
AcDbPoint
 10
101.6900244510446
 20
27.43716621019063
 30
0.0
  0
ENDBLK
  5
7DD
330
7D3
100
AcDbEntity
  8
0
100
AcDbBlockEnd
  0
BLOCK
  5
7E6
330
7DE
100
AcDbEntity
  8
0
100
AcDbBlockBegin
  2
*D92
 70
     1
 10
0.0
 20
0.0
 30
0.0
  3
*D92
  1
*D92
  0
LINE
  5
D33
330
7DE
100
AcDbEntity
  8
0
 62
     0
370
    -2
100
AcDbLine
 10
101.1063505908592
 20
27.0611716354551
 30
0.0
 11
101.1063505908592
 21
22.27667810622613
 31
0.0
  0
LINE
  5
D34
330
7DE
100
AcDbEntity
  8
0
 62
     0
370
    -2
100
AcDbLine
 10
101.1063505908592
 20
22.27667810622613
 30
0.0
 11
101.6089268538075
 21
20.77667810622613
 31
0.0
  0
LINE
  5
D35
330
7DE
100
AcDbEntity
  8
0
 62
     0
370
    -2
100
AcDbLine
 10
101.6089268538075
 20
20.77667810622613
 30
0.0
 11
101.6089268538075
 21
19.27667810622613
 31
0.0
  0
MTEXT
  5
D36
330
7DE
100
AcDbEntity
  8
0
 62
     0
100
AcDbMText
 10
101.6089268538075
 20
17.87417810622614
 30
0.0
 40
0.75
 41
0.0
 71
     5
 72
     1
  1
\A1;2.501
 11
1.000000000000000E-16
 21
1.0
 31
0.0
 73
     1
 44
1.0
  0
POINT
  5
D37
330
7DE
100
AcDbEntity
  8
Defpoints
 62
     0
100
AcDbPoint
 10
101.1063505908592
 20
27.1236716354551
 30
0.0
  0
POINT
  5
D38
330
7DE
100
AcDbEntity
  8
Defpoints
 62
     0
100
AcDbPoint
 10
101.6089268538075
 20
19.27667810622613
 30
0.0
  0
POINT
  5
D39
330
7DE
100
AcDbEntity
  8
Defpoints
 62
     0
100
AcDbPoint
 10
98.60534366656081
 20
10.93367163545489
 30
0.0
  0
ENDBLK
  5
7E7
330
7DE
100
AcDbEntity
  8
0
100
AcDbBlockEnd
  0
BLOCK
  5
7F0
330
7E8
100
AcDbEntity
  8
0
100
AcDbBlockBegin
  2
*D93
 70
     1
 10
0.0
 20
0.0
 30
0.0
  3
*D93
  1
*D93
  0
LINE
  5
D2C
330
7E8
100
AcDbEntity
  8
0
 62
     0
370
    -2
100
AcDbLine
 10
101.2588505908592
 20
27.21367163545509
 30
0.0
 11
105.0296503169978
 21
27.21367163545509
 31
0.0
  0
LINE
  5
D2D
330
7E8
100
AcDbEntity
  8
0
 62
     0
370
    -2
100
AcDbLine
 10
105.0296503169978
 20
27.21367163545509
 30
0.0
 11
106.5296503169978
 21
27.45542951155108
 31
0.0
  0
LINE
  5
D2E
330
7E8
100
AcDbEntity
  8
0
 62
     0
370
    -2
100
AcDbLine
 10
106.5296503169978
 20
27.45542951155108
 30
0.0
 11
108.0296503169978
 21
27.45542951155108
 31
0.0
  0
MTEXT
  5
D2F
330
7E8
100
AcDbEntity
  8
0
 62
     0
100
AcDbMText
 10
109.8071503169978
 20
27.45542951155108
 30
0.0
 40
0.75
 41
0.0
 71
     5
 72
     1
  1
\A1;16.280
 73
     1
 44
1.0
  0
POINT
  5
D30
330
7E8
100
AcDbEntity
  8
Defpoints
 62
     0
100
AcDbPoint
 10
101.1963505908592
 20
27.21367163545509
 30
0.0
  0
POINT
  5
D31
330
7E8
100
AcDbEntity
  8
Defpoints
 62
     0
100
AcDbPoint
 10
108.0296503169978
 20
27.45542951155108
 30
0.0
  0
POINT
  5
D32
330
7E8
100
AcDbEntity
  8
Defpoints
 62
     0
100
AcDbPoint
 10
98.60534366656081
 20
10.93367163545489
 30
0.0
  0
ENDBLK
  5
7F1
330
7E8
100
AcDbEntity
  8
0
100
AcDbBlockEnd
  0
BLOCK
  5
7F8
330
7F2
100
AcDbEntity
  8
0
100
AcDbBlockBegin
  2
*D94
 70
     1
 10
0.0
 20
0.0
 30
0.0
  3
*D94
  1
*D94
  0
LINE
  5
DC8
330
7F2
100
AcDbEntity
  8
DIMENSION
 62
     0
370
    -2
100
AcDbLine
 10
98.54285059085962
 20
10.93367163545489
 30
0.0
 11
95.6053505908592
 21
10.93367163545489
 31
0.0
  0
MTEXT
  5
DC9
330
7F2
100
AcDbEntity
  8
DIMENSION
 62
     0
100
AcDbMText
 10
94.26535059085921
 20
10.93367163545489
 30
0.0
 40
0.75
 41
0.0
 71
     5
 72
     1
  1
\A1;0.000
 73
     1
 44
1.0
  0
POINT
  5
DCA
330
7F2
100
AcDbEntity
  8
Defpoints
 62
     0
100
AcDbPoint
 10
98.60535059085962
 20
10.93367163545489
 30
0.0
  0
POINT
  5
DCB
330
7F2
100
AcDbEntity
  8
Defpoints
 62
     0
100
AcDbPoint
 10
95.6053505908592
 20
10.93367163545489
 30
0.0
  0
POINT
  5
DCC
330
7F2
100
AcDbEntity
  8
Defpoints
 62
     0
100
AcDbPoint
 10
98.60534366656081
 20
10.93367163545489
 30
0.0
  0
ENDBLK
  5
7F9
330
7F2
100
AcDbEntity
  8
0
100
AcDbBlockEnd
  0
BLOCK
  5
A18
330
A17
100
AcDbEntity
  8
0
100
AcDbBlockBegin
  2
*D95
 70
     1
 10
0.0
 20
0.0
 30
0.0
  3
*D95
  1
*D95
  0
LINE
  5
A19
330
A17
100
AcDbEntity
  8
DIMENSION
 62
     0
370
    -2
100
AcDbLine
 10
-39.75960178983058
 20
-33.12857875897364
 30
0.0
 11
-42.38460178983095
 21
-33.12857875897364
 31
0.0
  0
MTEXT
  5
A1A
330
A17
100
AcDbEntity
  8
DIMENSION
 62
     0
100
AcDbMText
 10
-44.00960178983095
 20
-33.12857875897364
 30
0.0
 40
0.75
 41
0.0
 71
     5
 72
     1
  1
\A1;0.000
 73
     1
 44
1.0
  0
POINT
  5
A1B
330
A17
100
AcDbEntity
  8
Defpoints
 62
     0
100
AcDbPoint
 10
-39.38460178983059
 20
-33.12857875897364
 30
0.0
  0
POINT
  5
A1C
330
A17
100
AcDbEntity
  8
Defpoints
 62
     0
100
AcDbPoint
 10
-42.38460178983095
 20
-33.12857875897364
 30
0.0
  0
POINT
  5
A1D
330
A17
100
AcDbEntity
  8
Defpoints
 62
     0
100
AcDbPoint
 10
-39.38460871412936
 20
-33.12857875897364
 30
0.0
  0
ENDBLK
  5
A1E
330
A17
100
AcDbEntity
  8
0
100
AcDbBlockEnd
  0
BLOCK
  5
A20
330
A1F
100
AcDbEntity
  8
0
100
AcDbBlockBegin
  2
*D96
 70
     1
 10
0.0
 20
0.0
 30
0.0
  3
*D96
  1
*D96
  0
LINE
  5
A21
330
A1F
100
AcDbEntity
  8
DIMENSION
 62
     0
370
    -2
100
AcDbLine
 10
-39.38460871412936
 20
-33.50357875897364
 30
0.0
 11
-39.38460871412936
 21
-34.62857875897364
 31
0.0
  0
LINE
  5
A22
330
A1F
100
AcDbEntity
  8
DIMENSION
 62
     0
370
    -2
100
AcDbLine
 10
-39.38460871412936
 20
-34.62857875897364
 30
0.0
 11
-39.38460178983092
 21
-34.6285787589737
 31
0.0
  0
LINE
  5
A23
330
A1F
100
AcDbEntity
  8
DIMENSION
 62
     0
370
    -2
100
AcDbLine
 10
-39.38460178983092
 20
-34.6285787589737
 30
0.0
 11
-39.38460178983092
 21
-36.1285787589737
 31
0.0
  0
MTEXT
  5
A24
330
A1F
100
AcDbEntity
  8
DIMENSION
 62
     0
100
AcDbMText
 10
-39.38460178983092
 20
-37.7535787589737
 30
0.0
 40
0.75
 41
0.0
 71
     5
 72
     1
  1
\A1;0.000
 11
1.000000000000000E-16
 21
1.0
 31
0.0
 73
     1
 44
1.0
  0
POINT
  5
A25
330
A1F
100
AcDbEntity
  8
Defpoints
 62
     0
100
AcDbPoint
 10
-39.38460871412936
 20
-33.12857875897364
 30
0.0
  0
POINT
  5
A26
330
A1F
100
AcDbEntity
  8
Defpoints
 62
     0
100
AcDbPoint
 10
-39.38460178983092
 20
-36.1285787589737
 30
0.0
  0
POINT
  5
A27
330
A1F
100
AcDbEntity
  8
Defpoints
 62
     0
100
AcDbPoint
 10
-39.38460871412936
 20
-33.12857875897364
 30
0.0
  0
ENDBLK
  5
A28
330
A1F
100
AcDbEntity
  8
0
100
AcDbBlockEnd
  0
BLOCK
  5
A2A
330
A29
100
AcDbEntity
  8
0
100
AcDbBlockBegin
  2
*D97
 70
     1
 10
0.0
 20
0.0
 30
0.0
  3
*D97
  1
*D97
  0
LINE
  5
A2B
330
A29
100
AcDbEntity
  8
DIMENSION
 62
     0
370
    -2
100
AcDbLine
 10
-39.00860178983095
 20
-23.72307875897357
 30
0.0
 11
-42.38460178983098
 21
-23.72307875897357
 31
0.0
  0
MTEXT
  5
A2C
330
A29
100
AcDbEntity
  8
DIMENSION
 62
     0
100
AcDbMText
 10
-44.19710178983097
 20
-23.72307875897357
 30
0.0
 40
0.75
 41
0.0
 71
     5
 72
     1
  1
\A1;9.406
 73
     1
 44
1.0
  0
POINT
  5
A2D
330
A29
100
AcDbEntity
  8
Defpoints
 62
     0
100
AcDbPoint
 10
-38.63360178983095
 20
-23.72307875897357
 30
0.0
  0
POINT
  5
A2E
330
A29
100
AcDbEntity
  8
Defpoints
 62
     0
100
AcDbPoint
 10
-42.38460178983098
 20
-23.72307875897357
 30
0.0
  0
POINT
  5
A2F
330
A29
100
AcDbEntity
  8
Defpoints
 62
     0
100
AcDbPoint
 10
-39.38460178983059
 20
-33.12857875897364
 30
0.0
  0
ENDBLK
  5
A30
330
A29
100
AcDbEntity
  8
0
100
AcDbBlockEnd
  0
BLOCK
  5
A32
330
A31
100
AcDbEntity
  8
0
100
AcDbBlockBegin
  2
*D98
 70
     1
 10
0.0
 20
0.0
 30
0.0
  3
*D98
  1
*D98
  0
LINE
  5
A33
330
A31
100
AcDbEntity
  8
DIMENSION
 62
     0
370
    -2
100
AcDbLine
 10
-34.00860178983095
 20
-17.59857875897344
 30
0.0
 11
-29.88460178983104
 21
-17.59857875897344
 31
0.0
  0
MTEXT
  5
A34
330
A31
100
AcDbEntity
  8
DIMENSION
 62
     0
100
AcDbMText
 10
-27.82210178983104
 20
-17.59857875897344
 30
0.0
 40
0.75
 41
0.0
 71
     5
 72
     1
  1
\A1;15.530
 73
     1
 44
1.0
  0
POINT
  5
A35
330
A31
100
AcDbEntity
  8
Defpoints
 62
     0
100
AcDbPoint
 10
-34.38360178983095
 20
-17.59857875897344
 30
0.0
  0
POINT
  5
A36
330
A31
100
AcDbEntity
  8
Defpoints
 62
     0
100
AcDbPoint
 10
-29.88460178983104
 20
-17.59857875897344
 30
0.0
  0
POINT
  5
A37
330
A31
100
AcDbEntity
  8
Defpoints
 62
     0
100
AcDbPoint
 10
-39.38460178983059
 20
-33.12857875897364
 30
0.0
  0
ENDBLK
  5
A38
330
A31
100
AcDbEntity
  8
0
100
AcDbBlockEnd
  0
BLOCK
  5
A3A
330
A39
100
AcDbEntity
  8
0
100
AcDbBlockBegin
  2
*D99
 70
     1
 10
0.0
 20
0.0
 30
0.0
  3
*D99
  1
*D99
  0
LINE
  5
A3B
330
A39
100
AcDbEntity
  8
DIMENSION
 62
     0
370
    -2
100
AcDbLine
 10
-39.00860178983095
 20
-13.72307875897356
 30
0.0
 11
-42.38460178983098
 21
-13.72307875897356
 31
0.0
  0
MTEXT
  5
A3C
330
A39
100
AcDbEntity
  8
DIMENSION
 62
     0
100
AcDbMText
 10
-44.44710178983098
 20
-13.72307875897356
 30
0.0
 40
0.75
 41
0.0
 71
     5
 72
     1
  1
\A1;19.406
 73
     1
 44
1.0
  0
POINT
  5
A3D
330
A39
100
AcDbEntity
  8
Defpoints
 62
     0
100
AcDbPoint
 10
-38.63360178983095
 20
-13.72307875897356
 30
0.0
  0
POINT
  5
A3E
330
A39
100
AcDbEntity
  8
Defpoints
 62
     0
100
AcDbPoint
 10
-42.38460178983098
 20
-13.72307875897356
 30
0.0
  0
POINT
  5
A3F
330
A39
100
AcDbEntity
  8
Defpoints
 62
     0
100
AcDbPoint
 10
-39.38460178983059
 20
-33.12857875897364
 30
0.0
  0
ENDBLK
  5
A40
330
A39
100
AcDbEntity
  8
0
100
AcDbBlockEnd
  0
BLOCK
  5
A42
330
A41
100
AcDbEntity
  8
0
100
AcDbBlockBegin
  2
*D100
 70
     1
 10
0.0
 20
0.0
 30
0.0
  3
*D100
  1
*D100
  0
LINE
  5
A43
330
A41
100
AcDbEntity
  8
DIMENSION
 62
     0
370
    -2
100
AcDbLine
 10
-37.80160178983095
 20
-12.93357875897347
 30
0.0
 11
-37.80160178983095
 21
-24.55107875897356
 31
0.0
  0
MTEXT
  5
A44
330
A41
100
AcDbEntity
  8
DIMENSION
 62
     0
100
AcDbMText
 10
-37.80160178983095
 20
-26.30107875897357
 30
0.0
 40
0.75
 41
0.0
 71
     5
 72
     1
  1
\A1;1.583
 11
1.000000000000000E-16
 21
1.0
 31
0.0
 73
     1
 44
1.0
  0
POINT
  5
A45
330
A41
100
AcDbEntity
  8
Defpoints
 62
     0
100
AcDbPoint
 10
-37.80160178983095
 20
-12.55857875897347
 30
0.0
  0
POINT
  5
A46
330
A41
100
AcDbEntity
  8
Defpoints
 62
     0
100
AcDbPoint
 10
-37.80160178983095
 20
-24.55107875897356
 30
0.0
  0
POINT
  5
A47
330
A41
100
AcDbEntity
  8
Defpoints
 62
     0
100
AcDbPoint
 10
-39.38460178983059
 20
-33.12857875897364
 30
0.0
  0
ENDBLK
  5
A48
330
A41
100
AcDbEntity
  8
0
100
AcDbBlockEnd
  0
BLOCK
  5
A4A
330
A49
100
AcDbEntity
  8
0
100
AcDbBlockBegin
  2
*D101
 70
     1
 10
0.0
 20
0.0
 30
0.0
  3
*D101
  1
*D101
  0
LINE
  5
A4B
330
A49
100
AcDbEntity
  8
DIMENSION
 62
     0
370
    -2
100
AcDbLine
 10
-33.35160178983091
 20
-12.93357875897347
 30
0.0
 11
-33.35160178983092
 21
-33.1285787589737
 31
0.0
  0
LINE
  5
A4C
330
A49
100
AcDbEntity
  8
DIMENSION
 62
     0
370
    -2
100
AcDbLine
 10
-33.35160178983092
 20
-33.1285787589737
 30
0.0
 11
-32.20150552311589
 21
-34.6285787589737
 31
0.0
  0
LINE
  5
A4D
330
A49
100
AcDbEntity
  8
DIMENSION
 62
     0
370
    -2
100
AcDbLine
 10
-32.20150552311589
 20
-34.6285787589737
 30
0.0
 11
-32.20150552311589
 21
-36.1285787589737
 31
0.0
  0
MTEXT
  5
A4E
330
A49
100
AcDbEntity
  8
DIMENSION
 62
     0
100
AcDbMText
 10
-32.20150552311589
 20
-37.9410787589737
 30
0.0
 40
0.75
 41
0.0
 71
     5
 72
     1
  1
\A1;6.033
 11
1.000000000000000E-16
 21
1.0
 31
0.0
 73
     1
 44
1.0
  0
POINT
  5
A4F
330
A49
100
AcDbEntity
  8
Defpoints
 62
     0
100
AcDbPoint
 10
-33.35160178983091
 20
-12.55857875897347
 30
0.0
  0
POINT
  5
A50
330
A49
100
AcDbEntity
  8
Defpoints
 62
     0
100
AcDbPoint
 10
-32.20150552311589
 20
-36.1285787589737
 30
0.0
  0
POINT
  5
A51
330
A49
100
AcDbEntity
  8
Defpoints
 62
     0
100
AcDbPoint
 10
-39.38460178983059
 20
-33.12857875897364
 30
0.0
  0
ENDBLK
  5
A52
330
A49
100
AcDbEntity
  8
0
100
AcDbBlockEnd
  0
BLOCK
  5
A54
330
A53
100
AcDbEntity
  8
0
100
AcDbBlockBegin
  2
*D102
 70
     1
 10
0.0
 20
0.0
 30
0.0
  3
*D102
  1
*D102
  0
LINE
  5
A55
330
A53
100
AcDbEntity
  8
DIMENSION
 62
     0
370
    -2
100
AcDbLine
 10
-32.97660178983091
 20
-12.55857875897347
 30
0.0
 11
-29.88460178983104
 21
-12.55857875897347
 31
0.0
  0
MTEXT
  5
A56
330
A53
100
AcDbEntity
  8
DIMENSION
 62
     0
100
AcDbMText
 10
-27.75960178983104
 20
-12.55857875897347
 30
0.0
 40
0.75
 41
0.0
 71
     5
 72
     1
  1
\A1;20.570
 73
     1
 44
1.0
  0
POINT
  5
A57
330
A53
100
AcDbEntity
  8
Defpoints
 62
     0
100
AcDbPoint
 10
-33.35160178983091
 20
-12.55857875897347
 30
0.0
  0
POINT
  5
A58
330
A53
100
AcDbEntity
  8
Defpoints
 62
     0
100
AcDbPoint
 10
-29.88460178983104
 20
-12.55857875897347
 30
0.0
  0
POINT
  5
A59
330
A53
100
AcDbEntity
  8
Defpoints
 62
     0
100
AcDbPoint
 10
-39.38460178983059
 20
-33.12857875897364
 30
0.0
  0
ENDBLK
  5
A5A
330
A53
100
AcDbEntity
  8
0
100
AcDbBlockEnd
  0
BLOCK
  5
A5C
330
A5B
100
AcDbEntity
  8
0
100
AcDbBlockBegin
  2
*D103
 70
     1
 10
0.0
 20
0.0
 30
0.0
  3
*D103
  1
*D103
  0
LINE
  5
A5D
330
A5B
100
AcDbEntity
  8
DIMENSION
 62
     0
370
    -2
100
AcDbLine
 10
-32.97660178983097
 20
-7.033578758973725
 30
0.0
 11
-29.88460178983104
 21
-7.033578758973725
 31
0.0
  0
MTEXT
  5
A5E
330
A5B
100
AcDbEntity
  8
DIMENSION
 62
     0
100
AcDbMText
 10
-27.69710178983104
 20
-7.033578758973725
 30
0.0
 40
0.75
 41
0.0
 71
     5
 72
     1
  1
\A1;26.095
 73
     1
 44
1.0
  0
POINT
  5
A5F
330
A5B
100
AcDbEntity
  8
Defpoints
 62
     0
100
AcDbPoint
 10
-33.35160178983097
 20
-7.033578758973725
 30
0.0
  0
POINT
  5
A60
330
A5B
100
AcDbEntity
  8
Defpoints
 62
     0
100
AcDbPoint
 10
-29.88460178983104
 20
-7.033578758973725
 30
0.0
  0
POINT
  5
A61
330
A5B
100
AcDbEntity
  8
Defpoints
 62
     0
100
AcDbPoint
 10
-39.38460178983059
 20
-33.12857875897364
 30
0.0
  0
ENDBLK
  5
A62
330
A5B
100
AcDbEntity
  8
0
100
AcDbBlockEnd
  0
BLOCK
  5
A64
330
A63
100
AcDbEntity
  8
0
100
AcDbBlockBegin
  2
*D104
 70
     1
 10
0.0
 20
0.0
 30
0.0
  3
*D104
  1
*D104
  0
LINE
  5
A65
330
A63
100
AcDbEntity
  8
DIMENSION
 62
     0
370
    -2
100
AcDbLine
 10
-39.00860178983095
 20
-5.973078758973564
 30
0.0
 11
-42.38460178983098
 21
-5.973078758973564
 31
0.0
  0
MTEXT
  5
A66
330
A63
100
AcDbEntity
  8
DIMENSION
 62
     0
100
AcDbMText
 10
-44.50960178983097
 20
-5.973078758973564
 30
0.0
 40
0.75
 41
0.0
 71
     5
 72
     1
  1
\A1;27.156
 73
     1
 44
1.0
  0
POINT
  5
A67
330
A63
100
AcDbEntity
  8
Defpoints
 62
     0
100
AcDbPoint
 10
-38.63360178983095
 20
-5.973078758973564
 30
0.0
  0
POINT
  5
A68
330
A63
100
AcDbEntity
  8
Defpoints
 62
     0
100
AcDbPoint
 10
-42.38460178983098
 20
-5.973078758973564
 30
0.0
  0
POINT
  5
A69
330
A63
100
AcDbEntity
  8
Defpoints
 62
     0
100
AcDbPoint
 10
-39.38460178983059
 20
-33.12857875897364
 30
0.0
  0
ENDBLK
  5
A6A
330
A63
100
AcDbEntity
  8
0
100
AcDbBlockEnd
  0
BLOCK
  5
A6C
330
A6B
100
AcDbEntity
  8
0
100
AcDbBlockBegin
  2
*D105
 70
     1
 10
0.0
 20
0.0
 30
0.0
  3
*D105
  1
*D105
  0
LINE
  5
A6D
330
A6B
100
AcDbEntity
  8
DIMENSION
 62
     0
370
    -2
100
AcDbLine
 10
-35.75860178983095
 20
-2.828578758973456
 30
0.0
 11
-29.88460178983104
 21
-2.828578758973456
 31
0.0
  0
MTEXT
  5
A6E
330
A6B
100
AcDbEntity
  8
DIMENSION
 62
     0
100
AcDbMText
 10
-27.82210178983104
 20
-2.828578758973456
 30
0.0
 40
0.75
 41
0.0
 71
     5
 72
     1
  1
\A1;30.300
 73
     1
 44
1.0
  0
POINT
  5
A6F
330
A6B
100
AcDbEntity
  8
Defpoints
 62
     0
100
AcDbPoint
 10
-36.13360178983095
 20
-2.828578758973456
 30
0.0
  0
POINT
  5
A70
330
A6B
100
AcDbEntity
  8
Defpoints
 62
     0
100
AcDbPoint
 10
-29.88460178983104
 20
-2.828578758973456
 30
0.0
  0
POINT
  5
A71
330
A6B
100
AcDbEntity
  8
Defpoints
 62
     0
100
AcDbPoint
 10
-39.38460178983059
 20
-33.12857875897364
 30
0.0
  0
ENDBLK
  5
A72
330
A6B
100
AcDbEntity
  8
0
100
AcDbBlockEnd
  0
BLOCK
  5
A74
330
A73
100
AcDbEntity
  8
0
100
AcDbBlockBegin
  2
*D106
 70
     1
 10
0.0
 20
0.0
 30
0.0
  3
*D106
  1
*D106
  0
LINE
  5
A75
330
A73
100
AcDbEntity
  8
DIMENSION
 62
     0
370
    -2
100
AcDbLine
 10
-39.00860178983095
 20
0.0264212410265613
 30
0.0
 11
-42.38460178983098
 21
0.0264212410265613
 31
0.0
  0
MTEXT
  5
A76
330
A73
100
AcDbEntity
  8
DIMENSION
 62
     0
100
AcDbMText
 10
-44.50960178983097
 20
0.0264212410265613
 30
0.0
 40
0.75
 41
0.0
 71
     5
 72
     1
  1
\A1;33.155
 73
     1
 44
1.0
  0
POINT
  5
A77
330
A73
100
AcDbEntity
  8
Defpoints
 62
     0
100
AcDbPoint
 10
-38.63360178983095
 20
0.0264212410265613
 30
0.0
  0
POINT
  5
A78
330
A73
100
AcDbEntity
  8
Defpoints
 62
     0
100
AcDbPoint
 10
-42.38460178983098
 20
0.0264212410265613
 30
0.0
  0
POINT
  5
A79
330
A73
100
AcDbEntity
  8
Defpoints
 62
     0
100
AcDbPoint
 10
-39.38460178983059
 20
-33.12857875897364
 30
0.0
  0
ENDBLK
  5
A7A
330
A73
100
AcDbEntity
  8
0
100
AcDbBlockEnd
  0
BLOCK
  5
A7C
330
A7B
100
AcDbEntity
  8
0
100
AcDbBlockBegin
  2
*D107
 70
     1
 10
0.0
 20
0.0
 30
0.0
  3
*D107
  1
*D107
  0
LINE
  5
A7D
330
A7B
100
AcDbEntity
  8
DIMENSION
 62
     0
370
    -2
100
AcDbLine
 10
-32.50960178983098
 20
0.9014212410266749
 30
0.0
 11
-29.88460178983104
 21
0.9014212410266749
 31
0.0
  0
MTEXT
  5
A7E
330
A7B
100
AcDbEntity
  8
DIMENSION
 62
     0
100
AcDbMText
 10
-27.75960178983104
 20
0.9014212410266749
 30
0.0
 40
0.75
 41
0.0
 71
     5
 72
     1
  1
\A1;34.030
 73
     1
 44
1.0
  0
POINT
  5
A7F
330
A7B
100
AcDbEntity
  8
Defpoints
 62
     0
100
AcDbPoint
 10
-32.88460178983098
 20
0.9014212410266749
 30
0.0
  0
POINT
  5
A80
330
A7B
100
AcDbEntity
  8
Defpoints
 62
     0
100
AcDbPoint
 10
-29.88460178983104
 20
0.9014212410266749
 30
0.0
  0
POINT
  5
A81
330
A7B
100
AcDbEntity
  8
Defpoints
 62
     0
100
AcDbPoint
 10
-39.38460178983059
 20
-33.12857875897364
 30
0.0
  0
ENDBLK
  5
A82
330
A7B
100
AcDbEntity
  8
0
100
AcDbBlockEnd
  0
BLOCK
  5
A84
330
A83
100
AcDbEntity
  8
0
100
AcDbBlockBegin
  2
*D108
 70
     1
 10
0.0
 20
0.0
 30
0.0
  3
*D108
  1
*D108
  0
LINE
  5
A85
330
A83
100
AcDbEntity
  8
DIMENSION
 62
     0
370
    -2
100
AcDbLine
 10
-38.63360178983095
 20
0.4014212410265614
 30
0.0
 11
-38.63360178983095
 21
3.901421241026568
 31
0.0
  0
MTEXT
  5
A86
330
A83
100
AcDbEntity
  8
DIMENSION
 62
     0
100
AcDbMText
 10
-38.63360178983095
 20
5.651421241026562
 30
0.0
 40
0.75
 41
0.0
 71
     5
 72
     1
  1
\A1;0.750
 11
1.000000000000000E-16
 21
1.0
 31
0.0
 73
     1
 44
1.0
  0
POINT
  5
A87
330
A83
100
AcDbEntity
  8
Defpoints
 62
     0
100
AcDbPoint
 10
-38.63360178983095
 20
0.0264212410265613
 30
0.0
  0
POINT
  5
A88
330
A83
100
AcDbEntity
  8
Defpoints
 62
     0
100
AcDbPoint
 10
-38.63360178983095
 20
3.901421241026568
 30
0.0
  0
POINT
  5
A89
330
A83
100
AcDbEntity
  8
Defpoints
 62
     0
100
AcDbPoint
 10
-39.38460178983059
 20
-33.12857875897364
 30
0.0
  0
ENDBLK
  5
A8A
330
A83
100
AcDbEntity
  8
0
100
AcDbBlockEnd
  0
BLOCK
  5
A8C
330
A8B
100
AcDbEntity
  8
0
100
AcDbBlockBegin
  2
*D109
 70
     1
 10
0.0
 20
0.0
 30
0.0
  3
*D109
  1
*D109
  0
LINE
  5
A8D
330
A8B
100
AcDbEntity
  8
DIMENSION
 62
     0
370
    -2
100
AcDbLine
 10
-36.13360178983095
 20
-2.453578758973456
 30
0.0
 11
-36.13360178983095
 21
3.901421241026561
 31
0.0
  0
MTEXT
  5
A8E
330
A8B
100
AcDbEntity
  8
DIMENSION
 62
     0
100
AcDbMText
 10
-36.13360178983095
 20
5.713921241026555
 30
0.0
 40
0.75
 41
0.0
 71
     5
 72
     1
  1
\A1;3.250
 11
1.000000000000000E-16
 21
1.0
 31
0.0
 73
     1
 44
1.0
  0
POINT
  5
A8F
330
A8B
100
AcDbEntity
  8
Defpoints
 62
     0
100
AcDbPoint
 10
-36.13360178983095
 20
-2.828578758973456
 30
0.0
  0
POINT
  5
A90
330
A8B
100
AcDbEntity
  8
Defpoints
 62
     0
100
AcDbPoint
 10
-36.13360178983095
 20
3.901421241026561
 30
0.0
  0
POINT
  5
A91
330
A8B
100
AcDbEntity
  8
Defpoints
 62
     0
100
AcDbPoint
 10
-39.38460178983059
 20
-33.12857875897364
 30
0.0
  0
ENDBLK
  5
A92
330
A8B
100
AcDbEntity
  8
0
100
AcDbBlockEnd
  0
BLOCK
  5
A94
330
A93
100
AcDbEntity
  8
0
100
AcDbBlockBegin
  2
*D110
 70
     1
 10
0.0
 20
0.0
 30
0.0
  3
*D110
  1
*D110
  0
LINE
  5
A95
330
A93
100
AcDbEntity
  8
DIMENSION
 62
     0
370
    -2
100
AcDbLine
 10
-33.63360178983095
 20
0.4014212410265614
 30
0.0
 11
-33.63360178983095
 21
1.526421241026561
 31
0.0
  0
LINE
  5
A96
330
A93
100
AcDbEntity
  8
DIMENSION
 62
     0
370
    -2
100
AcDbLine
 10
-33.63360178983095
 20
1.526421241026561
 30
0.0
 11
-33.88460178983098
 21
2.401421241026561
 31
0.0
  0
LINE
  5
A97
330
A93
100
AcDbEntity
  8
DIMENSION
 62
     0
370
    -2
100
AcDbLine
 10
-33.88460178983098
 20
2.401421241026561
 30
0.0
 11
-33.88460178983098
 21
3.901421241026561
 31
0.0
  0
MTEXT
  5
A98
330
A93
100
AcDbEntity
  8
DIMENSION
 62
     0
100
AcDbMText
 10
-33.88460178983098
 20
5.713921241026555
 30
0.0
 40
0.75
 41
0.0
 71
     5
 72
     1
  1
\A1;5.750
 11
1.000000000000000E-16
 21
1.0
 31
0.0
 73
     1
 44
1.0
  0
POINT
  5
A99
330
A93
100
AcDbEntity
  8
Defpoints
 62
     0
100
AcDbPoint
 10
-33.63360178983095
 20
0.0264212410265613
 30
0.0
  0
POINT
  5
A9A
330
A93
100
AcDbEntity
  8
Defpoints
 62
     0
100
AcDbPoint
 10
-33.88460178983098
 20
3.901421241026561
 30
0.0
  0
POINT
  5
A9B
330
A93
100
AcDbEntity
  8
Defpoints
 62
     0
100
AcDbPoint
 10
-39.38460178983059
 20
-33.12857875897364
 30
0.0
  0
ENDBLK
  5
A9C
330
A93
100
AcDbEntity
  8
0
100
AcDbBlockEnd
  0
BLOCK
  5
A9E
330
A9D
100
AcDbEntity
  8
0
100
AcDbBlockBegin
  2
*D111
 70
     1
 10
0.0
 20
0.0
 30
0.0
  3
*D111
  1
*D111
  0
LINE
  5
A9F
330
A9D
100
AcDbEntity
  8
DIMENSION
 62
     0
370
    -2
100
AcDbLine
 10
-32.88460178983098
 20
1.276421241026674
 30
0.0
 11
-32.88460178983098
 21
3.901421241026561
 31
0.0
  0
MTEXT
  5
AA0
330
A9D
100
AcDbEntity
  8
DIMENSION
 62
     0
100
AcDbMText
 10
-32.88460178983098
 20
5.651421241026556
 30
0.0
 40
0.75
 41
0.0
 71
     5
 72
     1
  1
\A1;6.500
 11
1.000000000000000E-16
 21
1.0
 31
0.0
 73
     1
 44
1.0
  0
POINT
  5
AA1
330
A9D
100
AcDbEntity
  8
Defpoints
 62
     0
100
AcDbPoint
 10
-32.88460178983098
 20
0.9014212410266749
 30
0.0
  0
POINT
  5
AA2
330
A9D
100
AcDbEntity
  8
Defpoints
 62
     0
100
AcDbPoint
 10
-32.88460178983098
 20
3.901421241026561
 30
0.0
  0
POINT
  5
AA3
330
A9D
100
AcDbEntity
  8
Defpoints
 62
     0
100
AcDbPoint
 10
-39.38460178983059
 20
-33.12857875897364
 30
0.0
  0
ENDBLK
  5
AA4
330
A9D
100
AcDbEntity
  8
0
100
AcDbBlockEnd
  0
BLOCK
  5
AA6
330
AA5
100
AcDbEntity
  8
0
100
AcDbBlockBegin
  2
*D112
 70
     1
 10
0.0
 20
0.0
 30
0.0
  3
*D112
  1
*D112
  0
LINE
  5
AA7
330
AA5
100
AcDbEntity
  8
DIMENSION
 62
     0
370
    -2
100
AcDbLine
 10
-34.38360178983095
 20
-19.47357875897344
 30
0.0
 11
-34.38360178983096
 21
-24.55107875897356
 31
0.0
  0
MTEXT
  5
AA8
330
AA5
100
AcDbEntity
  8
DIMENSION
 62
     0
100
AcDbMText
 10
-34.38360178983095
 20
-26.17607875897356
 30
0.0
 40
0.75
 41
0.0
 71
     5
 72
     1
  1
\A1;5.001
 11
1.000000000000000E-16
 21
1.0
 31
0.0
 73
     1
 44
1.0
  0
POINT
  5
AA9
330
AA5
100
AcDbEntity
  8
Defpoints
 62
     0
100
AcDbPoint
 10
-34.38360178983095
 20
-19.09857875897344
 30
0.0
  0
POINT
  5
AAA
330
AA5
100
AcDbEntity
  8
Defpoints
 62
     0
100
AcDbPoint
 10
-34.38360178983096
 20
-24.55107875897356
 30
0.0
  0
POINT
  5
AAB
330
AA5
100
AcDbEntity
  8
Defpoints
 62
     0
100
AcDbPoint
 10
-39.38460178983059
 20
-33.12857875897364
 30
0.0
  0
ENDBLK
  5
AAC
330
AA5
100
AcDbEntity
  8
0
100
AcDbBlockEnd
  0
BLOCK
  5
AAE
330
AAD
100
AcDbEntity
  8
0
100
AcDbBlockBegin
  2
*D113
 70
     1
 10
0.0
 20
0.0
 30
0.0
  3
*D113
  1
*D113
  0
LINE
  5
AAF
330
AAD
100
AcDbEntity
  8
0
 62
     0
370
    -2
100
AcDbLine
 10
-34.00860178983095
 20
-19.09857875897344
 30
0.0
 11
-29.94352638671838
 21
-19.09857875897344
 31
0.0
  0
MTEXT
  5
AB0
330
AAD
100
AcDbEntity
  8
0
 62
     0
100
AcDbMText
 10
-27.94352638671838
 20
-19.09857875897344
 30
0.0
 40
0.75
 41
0.0
 71
     5
 72
     1
  1
\A1;14.030
 73
     1
 44
1.0
  0
POINT
  5
AB1
330
AAD
100
AcDbEntity
  8
Defpoints
 62
     0
100
AcDbPoint
 10
-34.38360178983095
 20
-19.09857875897344
 30
0.0
  0
POINT
  5
AB2
330
AAD
100
AcDbEntity
  8
Defpoints
 62
     0
100
AcDbPoint
 10
-29.94352638671838
 20
-19.09857875897344
 30
0.0
  0
POINT
  5
AB3
330
AAD
100
AcDbEntity
  8
Defpoints
 62
     0
100
AcDbPoint
 10
-39.38460178983059
 20
-33.12857875897364
 30
0.0
  0
ENDBLK
  5
AB4
330
AAD
100
AcDbEntity
  8
0
100
AcDbBlockEnd
  0
BLOCK
  5
AB6
330
AB5
100
AcDbEntity
  8
0
100
AcDbBlockBegin
  2
*D114
 70
     1
 10
0.0
 20
0.0
 30
0.0
  3
*D114
  1
*D114
  0
LINE
  5
AB7
330
AB5
100
AcDbEntity
  8
0
 62
     0
370
    -2
100
AcDbLine
 10
-39.10475863378406
 20
-29.30098907415949
 30
0.0
 11
-42.19757332825134
 21
-29.30098907415949
 31
0.0
  0
MTEXT
  5
AB8
330
AB5
100
AcDbEntity
  8
0
 62
     0
100
AcDbMText
 10
-44.07257332825134
 20
-29.30098907415949
 30
0.0
 40
0.75
 41
0.0
 71
     5
 72
     1
  1
\A1;3.828
 73
     1
 44
1.0
  0
POINT
  5
AB9
330
AB5
100
AcDbEntity
  8
Defpoints
 62
     0
100
AcDbPoint
 10
-38.72975863378406
 20
-29.30098907415949
 30
0.0
  0
POINT
  5
ABA
330
AB5
100
AcDbEntity
  8
Defpoints
 62
     0
100
AcDbPoint
 10
-42.19757332825134
 20
-29.30098907415949
 30
0.0
  0
POINT
  5
ABB
330
AB5
100
AcDbEntity
  8
Defpoints
 62
     0
100
AcDbPoint
 10
-39.38460871412936
 20
-33.12857875897364
 30
0.0
  0
ENDBLK
  5
ABC
330
AB5
100
AcDbEntity
  8
0
100
AcDbBlockEnd
  0
BLOCK
  5
ABE
330
ABD
100
AcDbEntity
  8
0
100
AcDbBlockBegin
  2
*D115
 70
     1
 10
0.0
 20
0.0
 30
0.0
  3
*D115
  1
*D115
  0
LINE
  5
ABF
330
ABD
100
AcDbEntity
  8
0
 62
     0
370
    -2
100
AcDbLine
 10
-39.10475863378406
 20
-32.4259890741595
 30
0.0
 11
-40.22975863378405
 21
-32.4259890741595
 31
0.0
  0
LINE
  5
AC0
330
ABD
100
AcDbEntity
  8
0
 62
     0
370
    -2
100
AcDbLine
 10
-40.22975863378405
 20
-32.4259890741595
 30
0.0
 11
-40.66737349364712
 21
-31.93816199992182
 31
0.0
  0
LINE
  5
AC1
330
ABD
100
AcDbEntity
  8
0
 62
     0
370
    -2
100
AcDbLine
 10
-40.66737349364712
 20
-31.93816199992182
 30
0.0
 11
-42.16737349364712
 21
-31.93816199992182
 31
0.0
  0
MTEXT
  5
AC2
330
ABD
100
AcDbEntity
  8
0
 62
     0
100
AcDbMText
 10
-43.91737349364712
 20
-31.93816199992182
 30
0.0
 40
0.75
 41
0.0
 71
     5
 72
     1
  1
\A1;0.703
 73
     1
 44
1.0
  0
POINT
  5
AC3
330
ABD
100
AcDbEntity
  8
Defpoints
 62
     0
100
AcDbPoint
 10
-38.72975863378406
 20
-32.4259890741595
 30
0.0
  0
POINT
  5
AC4
330
ABD
100
AcDbEntity
  8
Defpoints
 62
     0
100
AcDbPoint
 10
-42.16737349364712
 20
-31.93816199992182
 30
0.0
  0
POINT
  5
AC5
330
ABD
100
AcDbEntity
  8
Defpoints
 62
     0
100
AcDbPoint
 10
-39.38460871412936
 20
-33.12857875897364
 30
0.0
  0
ENDBLK
  5
AC6
330
ABD
100
AcDbEntity
  8
0
100
AcDbBlockEnd
  0
BLOCK
  5
AC8
330
AC7
100
AcDbEntity
  8
0
100
AcDbBlockBegin
  2
*D116
 70
     1
 10
0.0
 20
0.0
 30
0.0
  3
*D116
  1
*D116
  0
LINE
  5
AC9
330
AC7
100
AcDbEntity
  8
0
 62
     0
370
    -2
100
AcDbLine
 10
-30.24892204866699
 20
-23.42246624616375
 30
0.0
 11
-30.99892204866704
 21
-23.42246624616376
 31
0.0
  0
LINE
  5
ACA
330
AC7
100
AcDbEntity
  8
0
 62
     0
370
    -2
100
AcDbLine
 10
-30.99892204866704
 20
-23.42246624616376
 30
0.0
 11
-33.53605870233539
 21
-20.18130481612662
 31
0.0
  0
MTEXT
  5
ACB
330
AC7
100
AcDbEntity
  8
0
 62
     0
100
AcDbMText
 10
-29.87392204866699
 20
-20.54746624616376
 30
0.0
 40
0.75
 41
0.0
 71
     1
 72
     1
  1
\A1;\U+22051.250 (1)\POPTIONAL:\PEXTERNAL \PHEAT \POUTPUT
 73
     1
 44
1.0
  0
SOLID
  5
ACC
330
AC7
100
AcDbEntity
  8
0
 62
     0
100
AcDbTrace
 10
-33.43762906077601
 20
-20.10425544453612
 30
0.0
 11
-33.63448834389477
 21
-20.25835418771713
 31
0.0
 12
-33.99835493187842
 22
-19.59072696677034
 32
0.0
 13
-33.99835493187842
 23
-19.59072696677034
 33
0.0
  0
LINE
  5
ACD
330
AC7
100
AcDbEntity
  8
0
 62
     0
370
    -2
100
AcDbLine
 10
-34.47360178983095
 20
-19.09857875897344
 30
0.0
 11
-34.29360178983095
 21
-19.09857875897344
 31
0.0
  0
LINE
  5
ACE
330
AC7
100
AcDbEntity
  8
0
 62
     0
370
    -2
100
AcDbLine
 10
-34.38360178983095
 20
-19.18857875897344
 30
0.0
 11
-34.38360178983096
 21
-19.00857875897344
 31
0.0
  0
POINT
  5
ACF
330
AC7
100
AcDbEntity
  8
Defpoints
 62
     0
100
AcDbPoint
 10
-33.99835493187842
 20
-19.59072696677034
 30
0.0
  0
POINT
  5
AD0
330
AC7
100
AcDbEntity
  8
Defpoints
 62
     0
100
AcDbPoint
 10
-34.76884864778348
 20
-18.60643055117654
 30
0.0
  0
ENDBLK
  5
AD1
330
AC7
100
AcDbEntity
  8
0
100
AcDbBlockEnd
  0
BLOCK
  5
AD3
330
AD2
100
AcDbEntity
  8
0
100
AcDbBlockBegin
  2
*D117
 70
     1
 10
0.0
 20
0.0
 30
0.0
  3
*D117
  1
*D117
  0
LINE
  5
AD4
330
AD2
100
AcDbEntity
  8
0
 62
     0
370
    -2
100
AcDbLine
 10
-30.20881503560597
 20
-14.27096892720704
 30
0.0
 11
-30.9588150356061
 21
-14.27096892720704
 31
0.0
  0
LINE
  5
AD5
330
AD2
100
AcDbEntity
  8
0
 62
     0
370
    -2
100
AcDbLine
 10
-30.9588150356061
 20
-14.27096892720704
 30
0.0
 11
-33.3974396624594
 21
-16.64039857835078
 31
0.0
  0
MTEXT
  5
AD6
330
AD2
100
AcDbEntity
  8
0
 62
     0
100
AcDbMText
 10
-29.83381503560597
 20
-13.27096892720703
 30
0.0
 40
0.75
 41
0.0
 71
     1
 72
     1
  1
\A1;\U+22051.250\PPOWER SUPPLY
 73
     1
 44
1.0
  0
SOLID
  5
AD7
330
AD2
100
AcDbEntity
  8
0
 62
     0
100
AcDbTrace
 10
-33.48454695160692
 20
-16.55074747586246
 30
0.0
 11
-33.31033237331189
 21
-16.7300496808391
 31
0.0
 12
-33.93534627738933
 22
-17.16304231323586
 32
0.0
 13
-33.93534627738933
 23
-17.16304231323586
 33
0.0
  0
LINE
  5
AD8
330
AD2
100
AcDbEntity
  8
0
 62
     0
370
    -2
100
AcDbLine
 10
-34.47360178983095
 20
-17.59857875897343
 30
0.0
 11
-34.29360178983094
 21
-17.59857875897343
 31
0.0
  0
LINE
  5
AD9
330
AD2
100
AcDbEntity
  8
0
 62
     0
370
    -2
100
AcDbLine
 10
-34.38360178983095
 20
-17.68857875897342
 30
0.0
 11
-34.38360178983096
 21
-17.50857875897343
 31
0.0
  0
POINT
  5
ADA
330
AD2
100
AcDbEntity
  8
Defpoints
 62
     0
100
AcDbPoint
 10
-33.93534627738933
 20
-17.16304231323586
 30
0.0
  0
POINT
  5
ADB
330
AD2
100
AcDbEntity
  8
Defpoints
 62
     0
100
AcDbPoint
 10
-34.83185730227256
 20
-18.034115204711
 30
0.0
  0
ENDBLK
  5
ADC
330
AD2
100
AcDbEntity
  8
0
100
AcDbBlockEnd
  0
BLOCK
  5
ADE
330
ADD
100
AcDbEntity
  8
0
100
AcDbBlockBegin
  2
*D118
 70
     1
 10
0.0
 20
0.0
 30
0.0
  3
*D118
  1
*D118
  0
LINE
  5
ADF
330
ADD
100
AcDbEntity
  8
0
 62
     0
370
    -2
100
AcDbLine
 10
-40.93226002659871
 20
-18.11166808010563
 30
0.0
 11
-40.18226002659869
 21
-18.11166808010562
 31
0.0
  0
LINE
  5
AE0
330
ADD
100
AcDbEntity
  8
0
 62
     0
370
    -2
100
AcDbLine
 10
-40.18226002659869
 20
-18.11166808010562
 30
0.0
 11
-38.16768428223895
 21
-17.3402668233916
 31
0.0
  0
MTEXT
  5
AE1
330
ADD
100
AcDbEntity
  8
0
 62
     0
100
AcDbMText
 10
-41.30726002659869
 20
-15.23666808010562
 30
0.0
 40
0.75
 41
0.0
 71
     3
 72
     1
  1
\A1;\U+22051.250\POPTIONAL:\PETHERNET/ALARM \PCONNECTION \PPORT
 73
     1
 44
1.0
  0
SOLID
  5
AE2
330
ADD
100
AcDbEntity
  8
0
 62
     0
100
AcDbTrace
 10
-38.21238319718606
 20
-17.22353205135451
 30
0.0
 11
-38.12298536729185
 21
-17.45700159542869
 31
0.0
 12
-37.4672756500164
 22
-17.07207333370897
 32
0.0
 13
-37.4672756500164
 23
-17.07207333370897
 33
0.0
  0
LINE
  5
AE3
330
ADD
100
AcDbEntity
  8
0
 62
     0
370
    -2
100
AcDbLine
 10
-36.97360178983095
 20
-16.84857875897344
 30
0.0
 11
-36.79360178983094
 21
-16.84857875897344
 31
0.0
  0
LINE
  5
AE4
330
ADD
100
AcDbEntity
  8
0
 62
     0
370
    -2
100
AcDbLine
 10
-36.88360178983094
 20
-16.93857875897344
 30
0.0
 11
-36.88360178983094
 21
-16.75857875897344
 31
0.0
  0
POINT
  5
AE5
330
ADD
100
AcDbEntity
  8
Defpoints
 62
     0
100
AcDbPoint
 10
-37.4672756500164
 20
-17.07207333370897
 30
0.0
  0
POINT
  5
AE6
330
ADD
100
AcDbEntity
  8
Defpoints
 62
     0
100
AcDbPoint
 10
-36.29992792964548
 20
-16.62508418423791
 30
0.0
  0
ENDBLK
  5
AE7
330
ADD
100
AcDbEntity
  8
0
100
AcDbBlockEnd
  0
BLOCK
  5
AE9
330
AE8
100
AcDbEntity
  8
0
100
AcDbBlockBegin
  2
*D119
 70
     1
 10
0.0
 20
0.0
 30
0.0
  3
*D119
  1
*D119
  0
LINE
  5
AEA
330
AE8
100
AcDbEntity
  8
0
 62
     0
370
    -2
100
AcDbLine
 10
-36.88360178983095
 20
-17.22357875897344
 30
0.0
 11
-36.88360178983095
 21
-21.78557228820239
 31
0.0
  0
LINE
  5
AEB
330
AE8
100
AcDbEntity
  8
0
 62
     0
370
    -2
100
AcDbLine
 10
-36.88360178983095
 20
-21.78557228820239
 30
0.0
 11
-36.3810255268827
 21
-23.28557228820239
 31
0.0
  0
LINE
  5
AEC
330
AE8
100
AcDbEntity
  8
0
 62
     0
370
    -2
100
AcDbLine
 10
-36.3810255268827
 20
-23.28557228820239
 30
0.0
 11
-36.3810255268827
 21
-24.78557228820239
 31
0.0
  0
MTEXT
  5
AED
330
AE8
100
AcDbEntity
  8
0
 62
     0
100
AcDbMText
 10
-36.38102552688269
 20
-26.47307228820239
 30
0.0
 40
0.75
 41
0.0
 71
     5
 72
     1
  1
\A1;2.501
 11
1.000000000000000E-16
 21
1.0
 31
0.0
 73
     1
 44
1.0
  0
POINT
  5
AEE
330
AE8
100
AcDbEntity
  8
Defpoints
 62
     0
100
AcDbPoint
 10
-36.88360178983095
 20
-16.84857875897344
 30
0.0
  0
POINT
  5
AEF
330
AE8
100
AcDbEntity
  8
Defpoints
 62
     0
100
AcDbPoint
 10
-36.3810255268827
 20
-24.78557228820239
 30
0.0
  0
POINT
  5
AF0
330
AE8
100
AcDbEntity
  8
Defpoints
 62
     0
100
AcDbPoint
 10
-39.38460871412936
 20
-33.12857875897364
 30
0.0
  0
ENDBLK
  5
AF1
330
AE8
100
AcDbEntity
  8
0
100
AcDbBlockEnd
  0
BLOCK
  5
AF3
330
AF2
100
AcDbEntity
  8
0
100
AcDbBlockBegin
  2
*D120
 70
     1
 10
0.0
 20
0.0
 30
0.0
  3
*D120
  1
*D120
  0
LINE
  5
AF4
330
AF2
100
AcDbEntity
  8
0
 62
     0
370
    -2
100
AcDbLine
 10
-36.50860178983095
 20
-16.84857875897344
 30
0.0
 11
-32.96030206369233
 21
-16.84857875897344
 31
0.0
  0
LINE
  5
AF5
330
AF2
100
AcDbEntity
  8
0
 62
     0
370
    -2
100
AcDbLine
 10
-32.96030206369233
 20
-16.84857875897344
 30
0.0
 11
-31.46030206369232
 21
-16.60682088287745
 31
0.0
  0
LINE
  5
AF6
330
AF2
100
AcDbEntity
  8
0
 62
     0
370
    -2
100
AcDbLine
 10
-31.46030206369232
 20
-16.60682088287745
 30
0.0
 11
-29.96030206369233
 21
-16.60682088287745
 31
0.0
  0
MTEXT
  5
AF7
330
AF2
100
AcDbEntity
  8
0
 62
     0
100
AcDbMText
 10
-27.89780206369233
 20
-16.60682088287745
 30
0.0
 40
0.75
 41
0.0
 71
     5
 72
     1
  1
\A1;16.280
 73
     1
 44
1.0
  0
POINT
  5
AF8
330
AF2
100
AcDbEntity
  8
Defpoints
 62
     0
100
AcDbPoint
 10
-36.88360178983095
 20
-16.84857875897344
 30
0.0
  0
POINT
  5
AF9
330
AF2
100
AcDbEntity
  8
Defpoints
 62
     0
100
AcDbPoint
 10
-29.96030206369233
 20
-16.60682088287745
 30
0.0
  0
POINT
  5
AFA
330
AF2
100
AcDbEntity
  8
Defpoints
 62
     0
100
AcDbPoint
 10
-39.38460871412936
 20
-33.12857875897364
 30
0.0
  0
ENDBLK
  5
AFB
330
AF2
100
AcDbEntity
  8
0
100
AcDbBlockEnd
  0
BLOCK
  5
AFD
330
AFC
100
AcDbEntity
  8
0
100
AcDbBlockBegin
  2
*D121
 70
     1
 10
0.0
 20
0.0
 30
0.0
  3
*D121
  1
*D121
  0
LINE
  5
AFE
330
AFC
100
AcDbEntity
  8
DIMENSION
 62
     0
370
    -2
100
AcDbLine
 10
-38.72975863378406
 20
-32.80098907415951
 30
0.0
 11
-38.72975863378406
 21
-33.9259890741595
 31
0.0
  0
LINE
  5
AFF
330
AFC
100
AcDbEntity
  8
DIMENSION
 62
     0
370
    -2
100
AcDbLine
 10
-38.72975863378406
 20
-33.9259890741595
 30
0.0
 11
-38.52398063154669
 21
-34.33542571110275
 31
0.0
  0
LINE
  5
B00
330
AFC
100
AcDbEntity
  8
DIMENSION
 62
     0
370
    -2
100
AcDbLine
 10
-38.52398063154669
 20
-34.33542571110275
 30
0.0
 11
-38.52398063154669
 21
-35.83542571110275
 31
0.0
  0
MTEXT
  5
B01
330
AFC
100
AcDbEntity
  8
DIMENSION
 62
     0
100
AcDbMText
 10
-38.52398063154669
 20
-37.64792571110275
 30
0.0
 40
0.75
 41
0.0
 71
     5
 72
     1
  1
\A1;0.655
 11
1.000000000000000E-16
 21
1.0
 31
0.0
 73
     1
 44
1.0
  0
POINT
  5
B02
330
AFC
100
AcDbEntity
  8
Defpoints
 62
     0
100
AcDbPoint
 10
-38.72975863378406
 20
-32.4259890741595
 30
0.0
  0
POINT
  5
B03
330
AFC
100
AcDbEntity
  8
Defpoints
 62
     0
100
AcDbPoint
 10
-38.52398063154669
 20
-35.83542571110275
 30
0.0
  0
POINT
  5
B04
330
AFC
100
AcDbEntity
  8
Defpoints
 62
     0
100
AcDbPoint
 10
-39.38460871412936
 20
-33.12857875897364
 30
0.0
  0
ENDBLK
  5
B05
330
AFC
100
AcDbEntity
  8
0
100
AcDbBlockEnd
  0
BLOCK
  5
B07
330
B06
100
AcDbEntity
  8
0
100
AcDbBlockBegin
  2
*D122
 70
     1
 10
0.0
 20
0.0
 30
0.0
  3
*D122
  1
*D122
  0
LINE
  5
B08
330
B06
100
AcDbEntity
  8
DIMENSION
 62
     0
370
    -2
100
AcDbLine
 10
-36.44975863378386
 20
-32.80098907415951
 30
0.0
 11
-36.44975863378386
 21
-35.83542571110275
 31
0.0
  0
MTEXT
  5
B09
330
B06
100
AcDbEntity
  8
DIMENSION
 62
     0
100
AcDbMText
 10
-36.44975863378385
 20
-37.71042571110275
 30
0.0
 40
0.75
 41
0.0
 71
     5
 72
     1
  1
\A1;2.935
 11
1.000000000000000E-16
 21
1.0
 31
0.0
 73
     1
 44
1.0
  0
POINT
  5
B0A
330
B06
100
AcDbEntity
  8
Defpoints
 62
     0
100
AcDbPoint
 10
-36.44975863378386
 20
-32.4259890741595
 30
0.0
  0
POINT
  5
B0B
330
B06
100
AcDbEntity
  8
Defpoints
 62
     0
100
AcDbPoint
 10
-36.44975863378386
 20
-35.83542571110275
 30
0.0
  0
POINT
  5
B0C
330
B06
100
AcDbEntity
  8
Defpoints
 62
     0
100
AcDbPoint
 10
-39.38460871412936
 20
-33.12857875897364
 30
0.0
  0
ENDBLK
  5
B0D
330
B06
100
AcDbEntity
  8
0
100
AcDbBlockEnd
  0
BLOCK
  5
B98
330
B92
100
AcDbEntity
  8
0
100
AcDbBlockBegin
  2
*D123
 70
     1
 10
0.0
 20
0.0
 30
0.0
  3
*D123
  1
*D123
  0
LINE
  5
F14
330
B92
100
AcDbEntity
  8
DIMENSION
 62
     0
370
    -2
100
AcDbLine
 10
49.50857783139077
 20
10.63677501034568
 30
0.0
 11
46.57107783139039
 21
10.63677501034568
 31
0.0
  0
MTEXT
  5
F15
330
B92
100
AcDbEntity
  8
DIMENSION
 62
     0
100
AcDbMText
 10
45.23107783139039
 20
10.63677501034568
 30
0.0
 40
0.75
 41
0.0
 71
     5
 72
     1
  1
\A1;0.000
 73
     1
 44
1.0
  0
POINT
  5
F16
330
B92
100
AcDbEntity
  8
Defpoints
 62
     0
100
AcDbPoint
 10
49.57107783139076
 20
10.63677501034568
 30
0.0
  0
POINT
  5
F17
330
B92
100
AcDbEntity
  8
Defpoints
 62
     0
100
AcDbPoint
 10
46.57107783139039
 20
10.63677501034568
 30
0.0
  0
POINT
  5
F18
330
B92
100
AcDbEntity
  8
Defpoints
 62
     0
100
AcDbPoint
 10
49.57107090709199
 20
10.63677501034568
 30
0.0
  0
ENDBLK
  5
B99
330
B92
100
AcDbEntity
  8
0
100
AcDbBlockEnd
  0
BLOCK
  5
BA2
330
B9A
100
AcDbEntity
  8
0
100
AcDbBlockBegin
  2
*D124
 70
     1
 10
0.0
 20
0.0
 30
0.0
  3
*D124
  1
*D124
  0
LINE
  5
F0D
330
B9A
100
AcDbEntity
  8
DIMENSION
 62
     0
370
    -2
100
AcDbLine
 10
49.57107090709199
 20
10.57427501034569
 30
0.0
 11
49.57107090709199
 21
9.136775010345687
 31
0.0
  0
LINE
  5
F0E
330
B9A
100
AcDbEntity
  8
DIMENSION
 62
     0
370
    -2
100
AcDbLine
 10
49.57107090709199
 20
9.136775010345687
 30
0.0
 11
49.57107783139043
 21
9.13677501034563
 31
0.0
  0
LINE
  5
F0F
330
B9A
100
AcDbEntity
  8
DIMENSION
 62
     0
370
    -2
100
AcDbLine
 10
49.57107783139043
 20
9.13677501034563
 30
0.0
 11
49.57107783139043
 21
7.63677501034563
 31
0.0
  0
MTEXT
  5
F10
330
B9A
100
AcDbEntity
  8
DIMENSION
 62
     0
100
AcDbMText
 10
49.57107783139043
 20
6.296775010345638
 30
0.0
 40
0.75
 41
0.0
 71
     5
 72
     1
  1
\A1;0.000
 11
1.000000000000000E-16
 21
1.0
 31
0.0
 73
     1
 44
1.0
  0
POINT
  5
F11
330
B9A
100
AcDbEntity
  8
Defpoints
 62
     0
100
AcDbPoint
 10
49.57107090709199
 20
10.63677501034568
 30
0.0
  0
POINT
  5
F12
330
B9A
100
AcDbEntity
  8
Defpoints
 62
     0
100
AcDbPoint
 10
49.57107783139043
 20
7.63677501034563
 30
0.0
  0
POINT
  5
F13
330
B9A
100
AcDbEntity
  8
Defpoints
 62
     0
100
AcDbPoint
 10
49.57107090709199
 20
10.63677501034568
 30
0.0
  0
ENDBLK
  5
BA3
330
B9A
100
AcDbEntity
  8
0
100
AcDbBlockEnd
  0
BLOCK
  5
BAA
330
BA4
100
AcDbEntity
  8
0
100
AcDbBlockBegin
  2
*D125
 70
     1
 10
0.0
 20
0.0
 30
0.0
  3
*D125
  1
*D125
  0
LINE
  5
F08
330
BA4
100
AcDbEntity
  8
DIMENSION
 62
     0
370
    -2
100
AcDbLine
 10
50.2595778313904
 20
20.04227501034576
 30
0.0
 11
46.57107783139037
 21
20.04227501034576
 31
0.0
  0
MTEXT
  5
F09
330
BA4
100
AcDbEntity
  8
DIMENSION
 62
     0
100
AcDbMText
 10
45.04357783139036
 20
20.04227501034576
 30
0.0
 40
0.75
 41
0.0
 71
     5
 72
     1
  1
\A1;9.406
 73
     1
 44
1.0
  0
POINT
  5
F0A
330
BA4
100
AcDbEntity
  8
Defpoints
 62
     0
100
AcDbPoint
 10
50.3220778313904
 20
20.04227501034576
 30
0.0
  0
POINT
  5
F0B
330
BA4
100
AcDbEntity
  8
Defpoints
 62
     0
100
AcDbPoint
 10
46.57107783139037
 20
20.04227501034576
 30
0.0
  0
POINT
  5
F0C
330
BA4
100
AcDbEntity
  8
Defpoints
 62
     0
100
AcDbPoint
 10
49.57107783139076
 20
10.63677501034568
 30
0.0
  0
ENDBLK
  5
BAB
330
BA4
100
AcDbEntity
  8
0
100
AcDbBlockEnd
  0
BLOCK
  5
BB2
330
BAC
100
AcDbEntity
  8
0
100
AcDbBlockBegin
  2
*D126
 70
     1
 10
0.0
 20
0.0
 30
0.0
  3
*D126
  1
*D126
  0
LINE
  5
F03
330
BAC
100
AcDbEntity
  8
DIMENSION
 62
     0
370
    -2
100
AcDbLine
 10
54.6345778313904
 20
26.16677501034589
 30
0.0
 11
59.07107783139031
 21
26.16677501034589
 31
0.0
  0
MTEXT
  5
F04
330
BAC
100
AcDbEntity
  8
DIMENSION
 62
     0
100
AcDbMText
 10
60.84857783139032
 20
26.16677501034589
 30
0.0
 40
0.75
 41
0.0
 71
     5
 72
     1
  1
\A1;15.530
 73
     1
 44
1.0
  0
POINT
  5
F05
330
BAC
100
AcDbEntity
  8
Defpoints
 62
     0
100
AcDbPoint
 10
54.5720778313904
 20
26.16677501034589
 30
0.0
  0
POINT
  5
F06
330
BAC
100
AcDbEntity
  8
Defpoints
 62
     0
100
AcDbPoint
 10
59.07107783139031
 20
26.16677501034589
 30
0.0
  0
POINT
  5
F07
330
BAC
100
AcDbEntity
  8
Defpoints
 62
     0
100
AcDbPoint
 10
49.57107783139076
 20
10.63677501034568
 30
0.0
  0
ENDBLK
  5
BB3
330
BAC
100
AcDbEntity
  8
0
100
AcDbBlockEnd
  0
BLOCK
  5
BBA
330
BB4
100
AcDbEntity
  8
0
100
AcDbBlockBegin
  2
*D127
 70
     1
 10
0.0
 20
0.0
 30
0.0
  3
*D127
  1
*D127
  0
LINE
  5
EFE
330
BB4
100
AcDbEntity
  8
DIMENSION
 62
     0
370
    -2
100
AcDbLine
 10
50.2595778313904
 20
30.04227501034576
 30
0.0
 11
46.57107783139037
 21
30.04227501034576
 31
0.0
  0
MTEXT
  5
EFF
330
BB4
100
AcDbEntity
  8
DIMENSION
 62
     0
100
AcDbMText
 10
44.79357783139036
 20
30.04227501034576
 30
0.0
 40
0.75
 41
0.0
 71
     5
 72
     1
  1
\A1;19.406
 73
     1
 44
1.0
  0
POINT
  5
F00
330
BB4
100
AcDbEntity
  8
Defpoints
 62
     0
100
AcDbPoint
 10
50.3220778313904
 20
30.04227501034576
 30
0.0
  0
POINT
  5
F01
330
BB4
100
AcDbEntity
  8
Defpoints
 62
     0
100
AcDbPoint
 10
46.57107783139037
 20
30.04227501034576
 30
0.0
  0
POINT
  5
F02
330
BB4
100
AcDbEntity
  8
Defpoints
 62
     0
100
AcDbPoint
 10
49.57107783139076
 20
10.63677501034568
 30
0.0
  0
ENDBLK
  5
BBB
330
BB4
100
AcDbEntity
  8
0
100
AcDbBlockEnd
  0
BLOCK
  5
BC2
330
BBC
100
AcDbEntity
  8
0
100
AcDbBlockBegin
  2
*D128
 70
     1
 10
0.0
 20
0.0
 30
0.0
  3
*D128
  1
*D128
  0
LINE
  5
EF9
330
BBC
100
AcDbEntity
  8
DIMENSION
 62
     0
370
    -2
100
AcDbLine
 10
51.1540778313904
 20
31.14427501034585
 30
0.0
 11
51.1540778313904
 21
19.21427501034576
 31
0.0
  0
MTEXT
  5
EFA
330
BBC
100
AcDbEntity
  8
DIMENSION
 62
     0
100
AcDbMText
 10
51.15407783139039
 20
17.74927501034576
 30
0.0
 40
0.75
 41
0.0
 71
     5
 72
     1
  1
\A1;1.583
 11
1.000000000000000E-16
 21
1.0
 31
0.0
 73
     1
 44
1.0
  0
POINT
  5
EFB
330
BBC
100
AcDbEntity
  8
Defpoints
 62
     0
100
AcDbPoint
 10
51.1540778313904
 20
31.20677501034585
 30
0.0
  0
POINT
  5
EFC
330
BBC
100
AcDbEntity
  8
Defpoints
 62
     0
100
AcDbPoint
 10
51.1540778313904
 20
19.21427501034576
 30
0.0
  0
POINT
  5
EFD
330
BBC
100
AcDbEntity
  8
Defpoints
 62
     0
100
AcDbPoint
 10
49.57107783139076
 20
10.63677501034568
 30
0.0
  0
ENDBLK
  5
BC3
330
BBC
100
AcDbEntity
  8
0
100
AcDbBlockEnd
  0
BLOCK
  5
BCC
330
BC4
100
AcDbEntity
  8
0
100
AcDbBlockBegin
  2
*D129
 70
     1
 10
0.0
 20
0.0
 30
0.0
  3
*D129
  1
*D129
  0
LINE
  5
EF2
330
BC4
100
AcDbEntity
  8
DIMENSION
 62
     0
370
    -2
100
AcDbLine
 10
55.60407783139044
 20
31.14427501034585
 30
0.0
 11
55.60407783139043
 21
10.35177501034561
 31
0.0
  0
LINE
  5
EF3
330
BC4
100
AcDbEntity
  8
DIMENSION
 62
     0
370
    -2
100
AcDbLine
 10
55.60407783139043
 20
10.35177501034561
 30
0.0
 11
56.75417409810546
 21
8.851775010345614
 31
0.0
  0
LINE
  5
EF4
330
BC4
100
AcDbEntity
  8
DIMENSION
 62
     0
370
    -2
100
AcDbLine
 10
56.75417409810546
 20
8.851775010345614
 30
0.0
 11
56.75417409810546
 21
7.351775010345614
 31
0.0
  0
MTEXT
  5
EF5
330
BC4
100
AcDbEntity
  8
DIMENSION
 62
     0
100
AcDbMText
 10
56.75417409810546
 20
5.824275010345623
 30
0.0
 40
0.75
 41
0.0
 71
     5
 72
     1
  1
\A1;6.033
 11
1.000000000000000E-16
 21
1.0
 31
0.0
 73
     1
 44
1.0
  0
POINT
  5
EF6
330
BC4
100
AcDbEntity
  8
Defpoints
 62
     0
100
AcDbPoint
 10
55.60407783139044
 20
31.20677501034585
 30
0.0
  0
POINT
  5
EF7
330
BC4
100
AcDbEntity
  8
Defpoints
 62
     0
100
AcDbPoint
 10
56.75417409810546
 20
7.351775010345614
 30
0.0
  0
POINT
  5
EF8
330
BC4
100
AcDbEntity
  8
Defpoints
 62
     0
100
AcDbPoint
 10
49.57107783139076
 20
10.63677501034568
 30
0.0
  0
ENDBLK
  5
BCD
330
BC4
100
AcDbEntity
  8
0
100
AcDbBlockEnd
  0
BLOCK
  5
BD4
330
BCE
100
AcDbEntity
  8
0
100
AcDbBlockBegin
  2
*D130
 70
     1
 10
0.0
 20
0.0
 30
0.0
  3
*D130
  1
*D130
  0
LINE
  5
EED
330
BCE
100
AcDbEntity
  8
DIMENSION
 62
     0
370
    -2
100
AcDbLine
 10
55.66657783139044
 20
31.20677501034585
 30
0.0
 11
59.07107783139031
 21
31.20677501034585
 31
0.0
  0
MTEXT
  5
EEE
330
BCE
100
AcDbEntity
  8
DIMENSION
 62
     0
100
AcDbMText
 10
60.91107783139031
 20
31.20677501034585
 30
0.0
 40
0.75
 41
0.0
 71
     5
 72
     1
  1
\A1;20.570
 73
     1
 44
1.0
  0
POINT
  5
EEF
330
BCE
100
AcDbEntity
  8
Defpoints
 62
     0
100
AcDbPoint
 10
55.60407783139044
 20
31.20677501034585
 30
0.0
  0
POINT
  5
EF0
330
BCE
100
AcDbEntity
  8
Defpoints
 62
     0
100
AcDbPoint
 10
59.07107783139031
 20
31.20677501034585
 30
0.0
  0
POINT
  5
EF1
330
BCE
100
AcDbEntity
  8
Defpoints
 62
     0
100
AcDbPoint
 10
49.57107783139076
 20
10.63677501034568
 30
0.0
  0
ENDBLK
  5
BD5
330
BCE
100
AcDbEntity
  8
0
100
AcDbBlockEnd
  0
BLOCK
  5
BDC
330
BD6
100
AcDbEntity
  8
0
100
AcDbBlockBegin
  2
*D131
 70
     1
 10
0.0
 20
0.0
 30
0.0
  3
*D131
  1
*D131
  0
LINE
  5
EE8
330
BD6
100
AcDbEntity
  8
DIMENSION
 62
     0
370
    -2
100
AcDbLine
 10
55.66657783139039
 20
36.7317750103456
 30
0.0
 11
59.07107783139031
 21
36.7317750103456
 31
0.0
  0
MTEXT
  5
EE9
330
BD6
100
AcDbEntity
  8
DIMENSION
 62
     0
100
AcDbMText
 10
60.97357783139031
 20
36.7317750103456
 30
0.0
 40
0.75
 41
0.0
 71
     5
 72
     1
  1
\A1;26.095
 73
     1
 44
1.0
  0
POINT
  5
EEA
330
BD6
100
AcDbEntity
  8
Defpoints
 62
     0
100
AcDbPoint
 10
55.60407783139038
 20
36.7317750103456
 30
0.0
  0
POINT
  5
EEB
330
BD6
100
AcDbEntity
  8
Defpoints
 62
     0
100
AcDbPoint
 10
59.07107783139031
 20
36.7317750103456
 30
0.0
  0
POINT
  5
EEC
330
BD6
100
AcDbEntity
  8
Defpoints
 62
     0
100
AcDbPoint
 10
49.57107783139076
 20
10.63677501034568
 30
0.0
  0
ENDBLK
  5
BDD
330
BD6
100
AcDbEntity
  8
0
100
AcDbBlockEnd
  0
BLOCK
  5
BE4
330
BDE
100
AcDbEntity
  8
0
100
AcDbBlockBegin
  2
*D132
 70
     1
 10
0.0
 20
0.0
 30
0.0
  3
*D132
  1
*D132
  0
LINE
  5
EE3
330
BDE
100
AcDbEntity
  8
DIMENSION
 62
     0
370
    -2
100
AcDbLine
 10
50.2595778313904
 20
37.79227501034576
 30
0.0
 11
46.57107783139037
 21
37.79227501034576
 31
0.0
  0
MTEXT
  5
EE4
330
BDE
100
AcDbEntity
  8
DIMENSION
 62
     0
100
AcDbMText
 10
44.73107783139036
 20
37.79227501034576
 30
0.0
 40
0.75
 41
0.0
 71
     5
 72
     1
  1
\A1;27.156
 73
     1
 44
1.0
  0
POINT
  5
EE5
330
BDE
100
AcDbEntity
  8
Defpoints
 62
     0
100
AcDbPoint
 10
50.3220778313904
 20
37.79227501034576
 30
0.0
  0
POINT
  5
EE6
330
BDE
100
AcDbEntity
  8
Defpoints
 62
     0
100
AcDbPoint
 10
46.57107783139037
 20
37.79227501034576
 30
0.0
  0
POINT
  5
EE7
330
BDE
100
AcDbEntity
  8
Defpoints
 62
     0
100
AcDbPoint
 10
49.57107783139076
 20
10.63677501034568
 30
0.0
  0
ENDBLK
  5
BE5
330
BDE
100
AcDbEntity
  8
0
100
AcDbBlockEnd
  0
BLOCK
  5
BEC
330
BE6
100
AcDbEntity
  8
0
100
AcDbBlockBegin
  2
*D133
 70
     1
 10
0.0
 20
0.0
 30
0.0
  3
*D133
  1
*D133
  0
LINE
  5
EDE
330
BE6
100
AcDbEntity
  8
DIMENSION
 62
     0
370
    -2
100
AcDbLine
 10
52.8845778313904
 20
40.93677501034586
 30
0.0
 11
59.07107783139031
 21
40.93677501034586
 31
0.0
  0
MTEXT
  5
EDF
330
BE6
100
AcDbEntity
  8
DIMENSION
 62
     0
100
AcDbMText
 10
60.84857783139032
 20
40.93677501034586
 30
0.0
 40
0.75
 41
0.0
 71
     5
 72
     1
  1
\A1;30.300
 73
     1
 44
1.0
  0
POINT
  5
EE0
330
BE6
100
AcDbEntity
  8
Defpoints
 62
     0
100
AcDbPoint
 10
52.8220778313904
 20
40.93677501034586
 30
0.0
  0
POINT
  5
EE1
330
BE6
100
AcDbEntity
  8
Defpoints
 62
     0
100
AcDbPoint
 10
59.07107783139031
 20
40.93677501034586
 30
0.0
  0
POINT
  5
EE2
330
BE6
100
AcDbEntity
  8
Defpoints
 62
     0
100
AcDbPoint
 10
49.57107783139076
 20
10.63677501034568
 30
0.0
  0
ENDBLK
  5
BED
330
BE6
100
AcDbEntity
  8
0
100
AcDbBlockEnd
  0
BLOCK
  5
BF4
330
BEE
100
AcDbEntity
  8
0
100
AcDbBlockBegin
  2
*D134
 70
     1
 10
0.0
 20
0.0
 30
0.0
  3
*D134
  1
*D134
  0
LINE
  5
ED9
330
BEE
100
AcDbEntity
  8
DIMENSION
 62
     0
370
    -2
100
AcDbLine
 10
50.2595778313904
 20
43.79177501034589
 30
0.0
 11
46.57107783139037
 21
43.79177501034589
 31
0.0
  0
MTEXT
  5
EDA
330
BEE
100
AcDbEntity
  8
DIMENSION
 62
     0
100
AcDbMText
 10
44.73107783139036
 20
43.79177501034589
 30
0.0
 40
0.75
 41
0.0
 71
     5
 72
     1
  1
\A1;33.155
 73
     1
 44
1.0
  0
POINT
  5
EDB
330
BEE
100
AcDbEntity
  8
Defpoints
 62
     0
100
AcDbPoint
 10
50.3220778313904
 20
43.79177501034589
 30
0.0
  0
POINT
  5
EDC
330
BEE
100
AcDbEntity
  8
Defpoints
 62
     0
100
AcDbPoint
 10
46.57107783139037
 20
43.79177501034589
 30
0.0
  0
POINT
  5
EDD
330
BEE
100
AcDbEntity
  8
Defpoints
 62
     0
100
AcDbPoint
 10
49.57107783139076
 20
10.63677501034568
 30
0.0
  0
ENDBLK
  5
BF5
330
BEE
100
AcDbEntity
  8
0
100
AcDbBlockEnd
  0
BLOCK
  5
BFC
330
BF6
100
AcDbEntity
  8
0
100
AcDbBlockBegin
  2
*D135
 70
     1
 10
0.0
 20
0.0
 30
0.0
  3
*D135
  1
*D135
  0
LINE
  5
ED4
330
BF6
100
AcDbEntity
  8
DIMENSION
 62
     0
370
    -2
100
AcDbLine
 10
56.13357783139036
 20
44.666775010346
 30
0.0
 11
59.07107783139031
 21
44.666775010346
 31
0.0
  0
MTEXT
  5
ED5
330
BF6
100
AcDbEntity
  8
DIMENSION
 62
     0
100
AcDbMText
 10
60.91107783139031
 20
44.666775010346
 30
0.0
 40
0.75
 41
0.0
 71
     5
 72
     1
  1
\A1;34.030
 73
     1
 44
1.0
  0
POINT
  5
ED6
330
BF6
100
AcDbEntity
  8
Defpoints
 62
     0
100
AcDbPoint
 10
56.07107783139037
 20
44.666775010346
 30
0.0
  0
POINT
  5
ED7
330
BF6
100
AcDbEntity
  8
Defpoints
 62
     0
100
AcDbPoint
 10
59.07107783139031
 20
44.666775010346
 30
0.0
  0
POINT
  5
ED8
330
BF6
100
AcDbEntity
  8
Defpoints
 62
     0
100
AcDbPoint
 10
49.57107783139076
 20
10.63677501034568
 30
0.0
  0
ENDBLK
  5
BFD
330
BF6
100
AcDbEntity
  8
0
100
AcDbBlockEnd
  0
BLOCK
  5
C04
330
BFE
100
AcDbEntity
  8
0
100
AcDbBlockBegin
  2
*D136
 70
     1
 10
0.0
 20
0.0
 30
0.0
  3
*D136
  1
*D136
  0
LINE
  5
ECF
330
BFE
100
AcDbEntity
  8
DIMENSION
 62
     0
370
    -2
100
AcDbLine
 10
50.3220778313904
 20
43.85427501034588
 30
0.0
 11
50.3220778313904
 21
47.66677501034588
 31
0.0
  0
MTEXT
  5
ED0
330
BFE
100
AcDbEntity
  8
DIMENSION
 62
     0
100
AcDbMText
 10
50.32207783139039
 20
49.1317750103459
 30
0.0
 40
0.75
 41
0.0
 71
     5
 72
     1
  1
\A1;0.750
 11
1.000000000000000E-16
 21
1.0
 31
0.0
 73
     1
 44
1.0
  0
POINT
  5
ED1
330
BFE
100
AcDbEntity
  8
Defpoints
 62
     0
100
AcDbPoint
 10
50.3220778313904
 20
43.79177501034589
 30
0.0
  0
POINT
  5
ED2
330
BFE
100
AcDbEntity
  8
Defpoints
 62
     0
100
AcDbPoint
 10
50.3220778313904
 20
47.66677501034588
 30
0.0
  0
POINT
  5
ED3
330
BFE
100
AcDbEntity
  8
Defpoints
 62
     0
100
AcDbPoint
 10
49.57107783139076
 20
10.63677501034568
 30
0.0
  0
ENDBLK
  5
C05
330
BFE
100
AcDbEntity
  8
0
100
AcDbBlockEnd
  0
BLOCK
  5
C0C
330
C06
100
AcDbEntity
  8
0
100
AcDbBlockBegin
  2
*D137
 70
     1
 10
0.0
 20
0.0
 30
0.0
  3
*D137
  1
*D137
  0
LINE
  5
ECA
330
C06
100
AcDbEntity
  8
DIMENSION
 62
     0
370
    -2
100
AcDbLine
 10
52.8220778313904
 20
40.99927501034587
 30
0.0
 11
52.8220778313904
 21
47.66677501034588
 31
0.0
  0
MTEXT
  5
ECB
330
C06
100
AcDbEntity
  8
DIMENSION
 62
     0
100
AcDbMText
 10
52.82207783139039
 20
49.1942750103459
 30
0.0
 40
0.75
 41
0.0
 71
     5
 72
     1
  1
\A1;3.250
 11
1.000000000000000E-16
 21
1.0
 31
0.0
 73
     1
 44
1.0
  0
POINT
  5
ECC
330
C06
100
AcDbEntity
  8
Defpoints
 62
     0
100
AcDbPoint
 10
52.8220778313904
 20
40.93677501034586
 30
0.0
  0
POINT
  5
ECD
330
C06
100
AcDbEntity
  8
Defpoints
 62
     0
100
AcDbPoint
 10
52.8220778313904
 20
47.66677501034588
 30
0.0
  0
POINT
  5
ECE
330
C06
100
AcDbEntity
  8
Defpoints
 62
     0
100
AcDbPoint
 10
49.57107783139076
 20
10.63677501034568
 30
0.0
  0
ENDBLK
  5
C0D
330
C06
100
AcDbEntity
  8
0
100
AcDbBlockEnd
  0
BLOCK
  5
C16
330
C0E
100
AcDbEntity
  8
0
100
AcDbBlockBegin
  2
*D138
 70
     1
 10
0.0
 20
0.0
 30
0.0
  3
*D138
  1
*D138
  0
LINE
  5
EC3
330
C0E
100
AcDbEntity
  8
DIMENSION
 62
     0
370
    -2
100
AcDbLine
 10
55.3220778313904
 20
43.85427501034588
 30
0.0
 11
55.3220778313904
 21
45.29177501034588
 31
0.0
  0
LINE
  5
EC4
330
C0E
100
AcDbEntity
  8
DIMENSION
 62
     0
370
    -2
100
AcDbLine
 10
55.3220778313904
 20
45.29177501034588
 30
0.0
 11
55.07107783139037
 21
46.16677501034589
 31
0.0
  0
LINE
  5
EC5
330
C0E
100
AcDbEntity
  8
DIMENSION
 62
     0
370
    -2
100
AcDbLine
 10
55.07107783139037
 20
46.16677501034589
 30
0.0
 11
55.07107783139037
 21
47.66677501034588
 31
0.0
  0
MTEXT
  5
EC6
330
C0E
100
AcDbEntity
  8
DIMENSION
 62
     0
100
AcDbMText
 10
55.07107783139036
 20
49.1942750103459
 30
0.0
 40
0.75
 41
0.0
 71
     5
 72
     1
  1
\A1;5.750
 11
1.000000000000000E-16
 21
1.0
 31
0.0
 73
     1
 44
1.0
  0
POINT
  5
EC7
330
C0E
100
AcDbEntity
  8
Defpoints
 62
     0
100
AcDbPoint
 10
55.3220778313904
 20
43.79177501034589
 30
0.0
  0
POINT
  5
EC8
330
C0E
100
AcDbEntity
  8
Defpoints
 62
     0
100
AcDbPoint
 10
55.07107783139037
 20
47.66677501034588
 30
0.0
  0
POINT
  5
EC9
330
C0E
100
AcDbEntity
  8
Defpoints
 62
     0
100
AcDbPoint
 10
49.57107783139076
 20
10.63677501034568
 30
0.0
  0
ENDBLK
  5
C17
330
C0E
100
AcDbEntity
  8
0
100
AcDbBlockEnd
  0
BLOCK
  5
C1E
330
C18
100
AcDbEntity
  8
0
100
AcDbBlockBegin
  2
*D139
 70
     1
 10
0.0
 20
0.0
 30
0.0
  3
*D139
  1
*D139
  0
LINE
  5
EBE
330
C18
100
AcDbEntity
  8
DIMENSION
 62
     0
370
    -2
100
AcDbLine
 10
56.07107783139037
 20
44.72927501034599
 30
0.0
 11
56.07107783139037
 21
47.66677501034588
 31
0.0
  0
MTEXT
  5
EBF
330
C18
100
AcDbEntity
  8
DIMENSION
 62
     0
100
AcDbMText
 10
56.07107783139036
 20
49.1317750103459
 30
0.0
 40
0.75
 41
0.0
 71
     5
 72
     1
  1
\A1;6.500
 11
1.000000000000000E-16
 21
1.0
 31
0.0
 73
     1
 44
1.0
  0
POINT
  5
EC0
330
C18
100
AcDbEntity
  8
Defpoints
 62
     0
100
AcDbPoint
 10
56.07107783139037
 20
44.666775010346
 30
0.0
  0
POINT
  5
EC1
330
C18
100
AcDbEntity
  8
Defpoints
 62
     0
100
AcDbPoint
 10
56.07107783139037
 20
47.66677501034588
 30
0.0
  0
POINT
  5
EC2
330
C18
100
AcDbEntity
  8
Defpoints
 62
     0
100
AcDbPoint
 10
49.57107783139076
 20
10.63677501034568
 30
0.0
  0
ENDBLK
  5
C1F
330
C18
100
AcDbEntity
  8
0
100
AcDbBlockEnd
  0
BLOCK
  5
C26
330
C20
100
AcDbEntity
  8
0
100
AcDbBlockBegin
  2
*D140
 70
     1
 10
0.0
 20
0.0
 30
0.0
  3
*D140
  1
*D140
  0
LINE
  5
EB9
330
C20
100
AcDbEntity
  8
DIMENSION
 62
     0
370
    -2
100
AcDbLine
 10
54.5720778313904
 20
24.60427501034589
 30
0.0
 11
54.57207783139041
 21
18.92927501034575
 31
0.0
  0
MTEXT
  5
EBA
330
C20
100
AcDbEntity
  8
DIMENSION
 62
     0
100
AcDbMText
 10
54.5720778313904
 20
17.58927501034576
 30
0.0
 40
0.75
 41
0.0
 71
     5
 72
     1
  1
\A1;5.001
 11
1.000000000000000E-16
 21
1.0
 31
0.0
 73
     1
 44
1.0
  0
POINT
  5
EBB
330
C20
100
AcDbEntity
  8
Defpoints
 62
     0
100
AcDbPoint
 10
54.5720778313904
 20
24.66677501034589
 30
0.0
  0
POINT
  5
EBC
330
C20
100
AcDbEntity
  8
Defpoints
 62
     0
100
AcDbPoint
 10
54.57207783139041
 20
18.92927501034575
 30
0.0
  0
POINT
  5
EBD
330
C20
100
AcDbEntity
  8
Defpoints
 62
     0
100
AcDbPoint
 10
49.57107783139076
 20
10.63677501034568
 30
0.0
  0
ENDBLK
  5
C27
330
C20
100
AcDbEntity
  8
0
100
AcDbBlockEnd
  0
BLOCK
  5
C2E
330
C28
100
AcDbEntity
  8
0
100
AcDbBlockBegin
  2
*D141
 70
     1
 10
0.0
 20
0.0
 30
0.0
  3
*D141
  1
*D141
  0
LINE
  5
EB4
330
C28
100
AcDbEntity
  8
0
 62
     0
370
    -2
100
AcDbLine
 10
54.6345778313904
 20
24.66677501034589
 30
0.0
 11
59.01215323450298
 21
24.66677501034589
 31
0.0
  0
MTEXT
  5
EB5
330
C28
100
AcDbEntity
  8
0
 62
     0
100
AcDbMText
 10
60.72715323450298
 20
24.66677501034589
 30
0.0
 40
0.75
 41
0.0
 71
     5
 72
     1
  1
\A1;14.030
 73
     1
 44
1.0
  0
POINT
  5
EB6
330
C28
100
AcDbEntity
  8
Defpoints
 62
     0
100
AcDbPoint
 10
54.5720778313904
 20
24.66677501034589
 30
0.0
  0
POINT
  5
EB7
330
C28
100
AcDbEntity
  8
Defpoints
 62
     0
100
AcDbPoint
 10
59.01215323450298
 20
24.66677501034589
 30
0.0
  0
POINT
  5
EB8
330
C28
100
AcDbEntity
  8
Defpoints
 62
     0
100
AcDbPoint
 10
49.57107783139076
 20
10.63677501034568
 30
0.0
  0
ENDBLK
  5
C2F
330
C28
100
AcDbEntity
  8
0
100
AcDbBlockEnd
  0
BLOCK
  5
C36
330
C30
100
AcDbEntity
  8
0
100
AcDbBlockBegin
  2
*D142
 70
     1
 10
0.0
 20
0.0
 30
0.0
  3
*D142
  1
*D142
  0
LINE
  5
EAF
330
C30
100
AcDbEntity
  8
0
 62
     0
370
    -2
100
AcDbLine
 10
53.07373467534448
 20
14.46436469515983
 30
0.0
 11
46.75810629297001
 21
14.46436469515983
 31
0.0
  0
MTEXT
  5
EB0
330
C30
100
AcDbEntity
  8
0
 62
     0
100
AcDbMText
 10
45.16810629297001
 20
14.46436469515983
 30
0.0
 40
0.75
 41
0.0
 71
     5
 72
     1
  1
\A1;3.828
 73
     1
 44
1.0
  0
POINT
  5
EB1
330
C30
100
AcDbEntity
  8
Defpoints
 62
     0
100
AcDbPoint
 10
53.13623467534448
 20
14.46436469515983
 30
0.0
  0
POINT
  5
EB2
330
C30
100
AcDbEntity
  8
Defpoints
 62
     0
100
AcDbPoint
 10
46.75810629297001
 20
14.46436469515983
 30
0.0
  0
POINT
  5
EB3
330
C30
100
AcDbEntity
  8
Defpoints
 62
     0
100
AcDbPoint
 10
49.57107090709199
 20
10.63677501034568
 30
0.0
  0
ENDBLK
  5
C37
330
C30
100
AcDbEntity
  8
0
100
AcDbBlockEnd
  0
BLOCK
  5
C40
330
C38
100
AcDbEntity
  8
0
100
AcDbBlockBegin
  2
*D143
 70
     1
 10
0.0
 20
0.0
 30
0.0
  3
*D143
  1
*D143
  0
LINE
  5
EA8
330
C38
100
AcDbEntity
  8
0
 62
     0
370
    -2
100
AcDbLine
 10
53.07373467534448
 20
11.33936469515982
 30
0.0
 11
49.78830612757423
 21
11.33936469515982
 31
0.0
  0
LINE
  5
EA9
330
C38
100
AcDbEntity
  8
0
 62
     0
370
    -2
100
AcDbLine
 10
49.78830612757423
 20
11.33936469515982
 30
0.0
 11
48.28830612757423
 21
11.82719176939751
 31
0.0
  0
LINE
  5
EAA
330
C38
100
AcDbEntity
  8
0
 62
     0
370
    -2
100
AcDbLine
 10
48.28830612757423
 20
11.82719176939751
 30
0.0
 11
46.78830612757423
 21
11.82719176939751
 31
0.0
  0
MTEXT
  5
EAB
330
C38
100
AcDbEntity
  8
0
 62
     0
100
AcDbMText
 10
45.32330612757423
 20
11.82719176939751
 30
0.0
 40
0.75
 41
0.0
 71
     5
 72
     1
  1
\A1;0.703
 73
     1
 44
1.0
  0
POINT
  5
EAC
330
C38
100
AcDbEntity
  8
Defpoints
 62
     0
100
AcDbPoint
 10
53.13623467534448
 20
11.33936469515982
 30
0.0
  0
POINT
  5
EAD
330
C38
100
AcDbEntity
  8
Defpoints
 62
     0
100
AcDbPoint
 10
46.78830612757423
 20
11.82719176939751
 30
0.0
  0
POINT
  5
EAE
330
C38
100
AcDbEntity
  8
Defpoints
 62
     0
100
AcDbPoint
 10
49.57107090709199
 20
10.63677501034568
 30
0.0
  0
ENDBLK
  5
C41
330
C38
100
AcDbEntity
  8
0
100
AcDbBlockEnd
  0
BLOCK
  5
C4B
330
C42
100
AcDbEntity
  8
0
100
AcDbBlockBegin
  2
*D144
 70
     1
 10
0.0
 20
0.0
 30
0.0
  3
*D144
  1
*D144
  0
LINE
  5
EA0
330
C42
100
AcDbEntity
  8
0
 62
     0
370
    -2
100
AcDbLine
 10
58.99175757255439
 20
20.34288752315559
 30
0.0
 11
57.95675757255429
 21
20.34288752315559
 31
0.0
  0
LINE
  5
EA1
330
C42
100
AcDbEntity
  8
0
 62
     0
370
    -2
100
AcDbLine
 10
57.95675757255429
 20
20.34288752315559
 30
0.0
 11
55.41962091888594
 21
23.5840489531927
 31
0.0
  0
MTEXT
  5
EA2
330
C42
100
AcDbEntity
  8
0
 62
     0
100
AcDbMText
 10
59.08175757255439
 20
23.21788752315558
 30
0.0
 40
0.75
 41
0.0
 71
     1
 72
     1
  1
\A1;\U+22051.250 (1)\POPTIONAL:\PEXTERNAL \PHEAT \POUTPUT
 73
     1
 44
1.0
  0
SOLID
  5
EA3
330
C42
100
AcDbEntity
  8
0
 62
     0
100
AcDbTrace
 10
55.51805056044532
 20
23.6610983247832
 30
0.0
 11
55.32119127732656
 21
23.50699958160219
 31
0.0
 12
54.95732468934291
 22
24.17462680254898
 32
0.0
 13
54.95732468934291
 23
24.17462680254898
 33
0.0
  0
LINE
  5
EA4
330
C42
100
AcDbEntity
  8
0
 62
     0
370
    -2
100
AcDbLine
 10
54.48207783139038
 20
24.66677501034589
 30
0.0
 11
54.66207783139039
 21
24.66677501034589
 31
0.0
  0
LINE
  5
EA5
330
C42
100
AcDbEntity
  8
0
 62
     0
370
    -2
100
AcDbLine
 10
54.57207783139039
 20
24.57677501034588
 30
0.0
 11
54.57207783139038
 21
24.75677501034589
 31
0.0
  0
POINT
  5
EA6
330
C42
100
AcDbEntity
  8
Defpoints
 62
     0
100
AcDbPoint
 10
54.95732468934291
 20
24.17462680254898
 30
0.0
  0
POINT
  5
EA7
330
C42
100
AcDbEntity
  8
Defpoints
 62
     0
100
AcDbPoint
 10
54.18683097343787
 20
25.15892321814279
 30
0.0
  0
ENDBLK
  5
C4C
330
C42
100
AcDbEntity
  8
0
100
AcDbBlockEnd
  0
BLOCK
  5
C56
330
C4D
100
AcDbEntity
  8
0
100
AcDbBlockBegin
  2
*D145
 70
     1
 10
0.0
 20
0.0
 30
0.0
  3
*D145
  1
*D145
  0
LINE
  5
E98
330
C4D
100
AcDbEntity
  8
0
 62
     0
370
    -2
100
AcDbLine
 10
59.03186458561539
 20
29.49438484211232
 30
0.0
 11
57.99686458561531
 21
29.49438484211232
 31
0.0
  0
LINE
  5
E99
330
C4D
100
AcDbEntity
  8
0
 62
     0
370
    -2
100
AcDbLine
 10
57.99686458561531
 20
29.49438484211232
 30
0.0
 11
55.55823995876197
 21
27.12495519096856
 31
0.0
  0
MTEXT
  5
E9A
330
C4D
100
AcDbEntity
  8
0
 62
     0
100
AcDbMText
 10
59.1218645856154
 20
30.49438484211231
 30
0.0
 40
0.75
 41
0.0
 71
     1
 72
     1
  1
\A1;\U+22051.250\PPOWER SUPPLY
 73
     1
 44
1.0
  0
SOLID
  5
E9B
330
C4D
100
AcDbEntity
  8
0
 62
     0
100
AcDbTrace
 10
55.47113266961446
 20
27.21460629345687
 30
0.0
 11
55.64534724790949
 21
27.03530408848023
 31
0.0
 12
55.02033334383204
 22
26.60231145608348
 32
0.0
 13
55.02033334383204
 23
26.60231145608348
 33
0.0
  0
LINE
  5
E9C
330
C4D
100
AcDbEntity
  8
0
 62
     0
370
    -2
100
AcDbLine
 10
54.48207783139043
 20
26.16677501034593
 30
0.0
 11
54.66207783139044
 21
26.16677501034592
 31
0.0
  0
LINE
  5
E9D
330
C4D
100
AcDbEntity
  8
0
 62
     0
370
    -2
100
AcDbLine
 10
54.57207783139043
 20
26.07677501034592
 30
0.0
 11
54.57207783139043
 21
26.25677501034592
 31
0.0
  0
POINT
  5
E9E
330
C4D
100
AcDbEntity
  8
Defpoints
 62
     0
100
AcDbPoint
 10
55.02033334383204
 20
26.60231145608348
 30
0.0
  0
POINT
  5
E9F
330
C4D
100
AcDbEntity
  8
Defpoints
 62
     0
100
AcDbPoint
 10
54.12382231894881
 20
25.73123856460835
 30
0.0
  0
ENDBLK
  5
C57
330
C4D
100
AcDbEntity
  8
0
100
AcDbBlockEnd
  0
BLOCK
  5
C61
330
C58
100
AcDbEntity
  8
0
100
AcDbBlockBegin
  2
*D146
 70
     1
 10
0.0
 20
0.0
 30
0.0
  3
*D146
  1
*D146
  0
LINE
  5
E90
330
C58
100
AcDbEntity
  8
0
 62
     0
370
    -2
100
AcDbLine
 10
47.73841959462268
 20
25.6536856892137
 30
0.0
 11
48.77341959462261
 21
25.6536856892137
 31
0.0
  0
LINE
  5
E91
330
C58
100
AcDbEntity
  8
0
 62
     0
370
    -2
100
AcDbLine
 10
48.77341959462261
 20
25.6536856892137
 30
0.0
 11
50.78799533898239
 21
26.42508694592774
 31
0.0
  0
MTEXT
  5
E92
330
C58
100
AcDbEntity
  8
0
 62
     0
100
AcDbMText
 10
47.64841959462268
 20
28.5286856892137
 30
0.0
 40
0.75
 41
0.0
 71
     3
 72
     1
  1
\A1;\U+22051.250\POPTIONAL:\PETHERNET/ALARM \PCONNECTION \PPORT
 73
     1
 44
1.0
  0
SOLID
  5
E93
330
C58
100
AcDbEntity
  8
0
 62
     0
100
AcDbTrace
 10
50.7432964240353
 20
26.54182171796483
 30
0.0
 11
50.83269425392949
 21
26.30835217389064
 31
0.0
 12
51.48840397120494
 22
26.69328043561036
 32
0.0
 13
51.48840397120494
 23
26.69328043561036
 33
0.0
  0
LINE
  5
E94
330
C58
100
AcDbEntity
  8
0
 62
     0
370
    -2
100
AcDbLine
 10
51.98207783139041
 20
26.9167750103459
 30
0.0
 11
52.16207783139042
 21
26.9167750103459
 31
0.0
  0
LINE
  5
E95
330
C58
100
AcDbEntity
  8
0
 62
     0
370
    -2
100
AcDbLine
 10
52.07207783139041
 20
26.82677501034589
 30
0.0
 11
52.07207783139041
 21
27.0067750103459
 31
0.0
  0
POINT
  5
E96
330
C58
100
AcDbEntity
  8
Defpoints
 62
     0
100
AcDbPoint
 10
51.48840397120494
 20
26.69328043561036
 30
0.0
  0
POINT
  5
E97
330
C58
100
AcDbEntity
  8
Defpoints
 62
     0
100
AcDbPoint
 10
52.65575169157587
 20
27.14026958508142
 30
0.0
  0
ENDBLK
  5
C62
330
C58
100
AcDbEntity
  8
0
100
AcDbBlockEnd
  0
BLOCK
  5
C6B
330
C63
100
AcDbEntity
  8
0
100
AcDbBlockBegin
  2
*D147
 70
     1
 10
0.0
 20
0.0
 30
0.0
  3
*D147
  1
*D147
  0
LINE
  5
E89
330
C63
100
AcDbEntity
  8
0
 62
     0
370
    -2
100
AcDbLine
 10
52.0720778313904
 20
26.85427501034589
 30
0.0
 11
52.0720778313904
 21
21.97978148111694
 31
0.0
  0
LINE
  5
E8A
330
C63
100
AcDbEntity
  8
0
 62
     0
370
    -2
100
AcDbLine
 10
52.0720778313904
 20
21.97978148111694
 30
0.0
 11
52.57465409433866
 21
20.47978148111694
 31
0.0
  0
LINE
  5
E8B
330
C63
100
AcDbEntity
  8
0
 62
     0
370
    -2
100
AcDbLine
 10
52.57465409433866
 20
20.47978148111694
 30
0.0
 11
52.57465409433866
 21
18.97978148111693
 31
0.0
  0
MTEXT
  5
E8C
330
C63
100
AcDbEntity
  8
0
 62
     0
100
AcDbMText
 10
52.57465409433865
 20
17.57728148111694
 30
0.0
 40
0.75
 41
0.0
 71
     5
 72
     1
  1
\A1;2.501
 11
1.000000000000000E-16
 21
1.0
 31
0.0
 73
     1
 44
1.0
  0
POINT
  5
E8D
330
C63
100
AcDbEntity
  8
Defpoints
 62
     0
100
AcDbPoint
 10
52.0720778313904
 20
26.91677501034589
 30
0.0
  0
POINT
  5
E8E
330
C63
100
AcDbEntity
  8
Defpoints
 62
     0
100
AcDbPoint
 10
52.57465409433866
 20
18.97978148111693
 30
0.0
  0
POINT
  5
E8F
330
C63
100
AcDbEntity
  8
Defpoints
 62
     0
100
AcDbPoint
 10
49.57107090709199
 20
10.63677501034568
 30
0.0
  0
ENDBLK
  5
C6C
330
C63
100
AcDbEntity
  8
0
100
AcDbBlockEnd
  0
BLOCK
  5
C75
330
C6D
100
AcDbEntity
  8
0
100
AcDbBlockBegin
  2
*D148
 70
     1
 10
0.0
 20
0.0
 30
0.0
  3
*D148
  1
*D148
  0
LINE
  5
E82
330
C6D
100
AcDbEntity
  8
0
 62
     0
370
    -2
100
AcDbLine
 10
52.1345778313904
 20
26.91677501034589
 30
0.0
 11
55.99537755752902
 21
26.91677501034589
 31
0.0
  0
LINE
  5
E83
330
C6D
100
AcDbEntity
  8
0
 62
     0
370
    -2
100
AcDbLine
 10
55.99537755752902
 20
26.91677501034589
 30
0.0
 11
57.49537755752903
 21
27.15853288644187
 31
0.0
  0
LINE
  5
E84
330
C6D
100
AcDbEntity
  8
0
 62
     0
370
    -2
100
AcDbLine
 10
57.49537755752903
 20
27.15853288644187
 30
0.0
 11
58.99537755752902
 21
27.15853288644187
 31
0.0
  0
MTEXT
  5
E85
330
C6D
100
AcDbEntity
  8
0
 62
     0
100
AcDbMText
 10
60.77287755752903
 20
27.15853288644187
 30
0.0
 40
0.75
 41
0.0
 71
     5
 72
     1
  1
\A1;16.280
 73
     1
 44
1.0
  0
POINT
  5
E86
330
C6D
100
AcDbEntity
  8
Defpoints
 62
     0
100
AcDbPoint
 10
52.0720778313904
 20
26.91677501034589
 30
0.0
  0
POINT
  5
E87
330
C6D
100
AcDbEntity
  8
Defpoints
 62
     0
100
AcDbPoint
 10
58.99537755752902
 20
27.15853288644187
 30
0.0
  0
POINT
  5
E88
330
C6D
100
AcDbEntity
  8
Defpoints
 62
     0
100
AcDbPoint
 10
49.57107090709199
 20
10.63677501034568
 30
0.0
  0
ENDBLK
  5
C76
330
C6D
100
AcDbEntity
  8
0
100
AcDbBlockEnd
  0
BLOCK
  5
C7F
330
C77
100
AcDbEntity
  8
0
100
AcDbBlockBegin
  2
*D149
 70
     1
 10
0.0
 20
0.0
 30
0.0
  3
*D149
  1
*D149
  0
LINE
  5
E7B
330
C77
100
AcDbEntity
  8
DIMENSION
 62
     0
370
    -2
100
AcDbLine
 10
53.13623467534448
 20
11.27686469515982
 30
0.0
 11
53.13623467534448
 21
9.839364695159816
 31
0.0
  0
LINE
  5
E7C
330
C77
100
AcDbEntity
  8
DIMENSION
 62
     0
370
    -2
100
AcDbLine
 10
53.13623467534448
 20
9.839364695159816
 30
0.0
 11
53.13714651862384
 21
9.429928058216582
 31
0.0
  0
LINE
  5
E7D
330
C77
100
AcDbEntity
  8
DIMENSION
 62
     0
370
    -2
100
AcDbLine
 10
53.13714651862384
 20
9.429928058216582
 30
0.0
 11
53.13714651862384
 21
7.929928058216582
 31
0.0
  0
MTEXT
  5
E7E
330
C77
100
AcDbEntity
  8
DIMENSION
 62
     0
100
AcDbMText
 10
53.13714651862384
 20
6.339928058216586
 30
0.0
 40
0.75
 41
0.0
 71
     5
 72
     1
  1
\A1;3.565
 11
0.0
 21
1.0
 31
0.0
 73
     1
 44
1.0
  0
POINT
  5
E7F
330
C77
100
AcDbEntity
  8
Defpoints
 62
     0
100
AcDbPoint
 10
53.13623467534448
 20
11.33936469515982
 30
0.0
  0
POINT
  5
E80
330
C77
100
AcDbEntity
  8
Defpoints
 62
     0
100
AcDbPoint
 10
53.13714651862384
 20
7.929928058216582
 30
0.0
  0
POINT
  5
E81
330
C77
100
AcDbEntity
  8
Defpoints
 62
     0
100
AcDbPoint
 10
49.57107090709199
 20
10.63677501034568
 30
0.0
  0
ENDBLK
  5
C80
330
C77
100
AcDbEntity
  8
0
100
AcDbBlockEnd
  0
BLOCK
  5
C87
330
C81
100
AcDbEntity
  8
0
100
AcDbBlockBegin
  2
*D150
 70
     1
 10
0.0
 20
0.0
 30
0.0
  3
*D150
  1
*D150
  0
LINE
  5
E76
330
C81
100
AcDbEntity
  8
DIMENSION
 62
     0
370
    -2
100
AcDbLine
 10
55.41623467534468
 20
11.27686469515982
 30
0.0
 11
55.41623467534468
 21
9.839364695159816
 31
0.0
  0
LINE
  5
E77
330
C81
100
AcDbEntity
  8
DIMENSION
 62
     0
370
    -2
100
AcDbLine
 10
55.41623467534468
 20
9.839364695159816
 30
0.0
 11
55.16046662723015
 21
9.429928058216582
 31
0.0
  0
LINE
  5
E78
330
C81
100
AcDbEntity
  8
DIMENSION
 62
     0
370
    -2
100
AcDbLine
 10
55.16046662723015
 20
9.429928058216582
 30
0.0
 11
55.16046662723015
 21
7.929928058216582
 31
0.0
  0
MTEXT
  5
E79
330
C81
100
AcDbEntity
  8
DIMENSION
 62
     0
100
AcDbMText
 10
55.16046662723015
 20
6.339928058216579
 30
0.0
 40
0.75
 41
0.0
 71
     5
 72
     1
  1
\A1;5.845
 11
0.0
 21
1.0
 31
0.0
 73
     1
 44
1.0
  0
POINT
  5
E7A
330
C81
100
AcDbEntity
  8
Defpoints
 62
     0
100
AcDbPoint
 10
55.41623467534468
 20
11.33936469515982
 30
0.0
  0
POINT
  5
F74
330
C81
100
AcDbEntity
  8
Defpoints
 62
     0
100
AcDbPoint
 10
55.16046662723015
 20
7.929928058216582
 30
0.0
  0
POINT
  5
F75
330
C81
100
AcDbEntity
  8
Defpoints
 62
     0
100
AcDbPoint
 10
49.57107090709199
 20
10.63677501034568
 30
0.0
  0
ENDBLK
  5
C88
330
C81
100
AcDbEntity
  8
0
100
AcDbBlockEnd
  0
ENDSEC
  0
SECTION
  2
ENTITIES
  0
TEXT
  5
29D
330
1F
100
AcDbEntity
  8
TEXT
100
AcDbText
 10
69.54904195164337
 20
1.382847465889234
 30
0.0
 40
0.625
  1
IQ300444
 72
     1
 11
71.73654195164337
 21
1.695347465889234
 31
0.0
100
AcDbText
 73
     2
  0
LWPOLYLINE
  5
29F
330
1F
100
AcDbEntity
  8
BORDER
100
AcDbPolyline
 90
        4
 70
     1
 43
0.0
 10
29.14014213270879
 20
63.65946636671241
 10
76.6384204181564
 20
63.65946636671241
 10
76.6384204181564
 20
1.159466366712399
 10
29.14014213270879
 20
1.159466366712399
  0
LINE
  5
2A0
330
1F
100
AcDbEntity
  8
BORDER
100
AcDbLine
 10
68.54816560392673
 20
2.465603565066054
 30
0.0
 11
76.6384204181564
 21
2.465603565066054
 31
0.0
  0
LINE
  5
2A1
330
1F
100
AcDbEntity
  8
BORDER
100
AcDbLine
 10
68.54816560392673
 20
3.715603565066068
 30
0.0
 11
76.6384204181564
 21
3.715603565066068
 31
0.0
  0
TEXT
  5
2A2
330
1F
100
AcDbEntity
  8
TEXT
100
AcDbText
 10
68.9471092213466
 20
3.036565454916873
 30
0.0
 40
0.625
  1
IQ12/15/18VXS
 72
     1
 11
72.59294255467992
 21
3.349065454916873
 31
0.0
100
AcDbText
 73
     2
  0
ARC
  5
2A3
330
1F
100
AcDbEntity
  8
TEXT
100
AcDbCircle
 10
70.1152391365162
 20
4.161172593896118
 30
0.0
 40
0.139751110854478
100
AcDbArc
 50
260.0995263030863
 51
313.0673878832468
  0
ARC
  5
2A4
330
1F
100
AcDbEntity
  8
TEXT
100
AcDbCircle
 10
70.14108299291796
 20
4.156156610764803
 30
0.0
 40
0.0994083459973538
100
AcDbArc
 50
257.573093086619
 51
314.4273867462268
  0
LINE
  5
2A5
330
1F
100
AcDbEntity
  8
BORDER
100
AcDbLine
 10
68.54816560392673
 20
5.278103565066096
 30
0.0
 11
76.6384204181564
 21
5.278103565066068
 31
0.0
  0
TEXT
  5
2A6
330
1F
100
AcDbEntity
  8
DIMENSION
100
AcDbText
 10
45.34329696934012
 20
52.0767370425954
 30
0.0
 40
1.0
  1
CUTOUT TEMPLATE
 72
     1
 11
52.67663030267346
 21
52.5767370425954
 31
0.0
100
AcDbText
 73
     2
  0
TEXT
  5
2AC
330
1F
100
AcDbEntity
  8
TEXT
100
AcDbText
 10
34.42035046604222
 20
1.284466366712315
 30
0.0
 40
0.25
  1
REVISIONS
 72
     1
 11
35.46201713270888
 21
1.409466366712315
 31
0.0
100
AcDbText
 73
     2
  0
TEXT
  5
2AD
330
1F
100
AcDbEntity
  8
TEXT
100
AcDbText
 10
34.21201713270888
 20
1.784466366712343
 30
0.0
 40
0.25
  1
DESCRIPTION
 72
     1
 11
35.46201713270888
 21
1.909466366712343
 31
0.0
100
AcDbText
 73
     2
  0
TEXT
  5
2AE
330
1F
100
AcDbEntity
  8
TEXT
100
AcDbText
 10
33.75368379937554
 20
2.2844663667124
 30
0.0
 40
0.25
  1
INITIAL RELEASE
 72
     1
 11
35.46201713270888
 21
2.4094663667124
 31
0.0
100
AcDbText
 73
     2
  0
LINE
  5
2AF
330
1F
100
AcDbEntity
  8
BORDER
100
AcDbLine
 10
45.38564537863339
 20
2.659466366712456
 30
0.0
 11
29.14014213270879
 21
2.659466366712456
 31
0.0
  0
LINE
  5
2B0
330
1F
100
AcDbEntity
  8
BORDER
100
AcDbLine
 10
45.38564537863339
 20
1.159466366712386
 30
0.0
 11
29.14014213270879
 21
1.159466366712386
 31
0.0
  0
LINE
  5
2B1
330
1F
100
AcDbEntity
  8
BORDER
100
AcDbLine
 10
29.14014213270879
 20
1.65946636671237
 30
0.0
 11
45.38564537863339
 21
1.65946636671237
 31
0.0
  0
LINE
  5
2B2
330
1F
100
AcDbEntity
  8
BORDER
100
AcDbLine
 10
45.38564537863339
 20
2.159466366712413
 30
0.0
 11
29.14014213270879
 21
2.159466366712413
 31
0.0
  0
LINE
  5
2B3
330
1F
100
AcDbEntity
  8
BORDER
100
AcDbLine
 10
45.38564537863339
 20
1.65946636671237
 30
0.0
 11
29.14014213270879
 21
1.65946636671237
 31
0.0
  0
LINE
  5
2B4
330
1F
100
AcDbEntity
  8
BORDER
100
AcDbLine
 10
29.14014213270879
 20
1.159466366712386
 30
0.0
 11
29.14014213270879
 21
4.159466366712613
 31
0.0
  0
TEXT
  5
2B5
330
1F
100
AcDbEntity
  8
TEXT
100
AcDbText
 10
29.31201713270879
 20
1.784466366712343
 30
0.0
 40
0.25
  1
REV
 72
     1
 11
29.68701713270879
 21
1.909466366712343
 31
0.0
100
AcDbText
 73
     2
  0
TEXT
  5
2B6
330
1F
100
AcDbEntity
  8
TEXT
100
AcDbText
 10
29.62451713270879
 20
2.2844663667124
 30
0.0
 40
0.25
  1
0
 72
     1
 11
29.68701713270879
 21
2.4094663667124
 31
0.0
100
AcDbText
 73
     2
  0
LINE
  5
2B7
330
1F
100
AcDbEntity
  8
BORDER
100
AcDbLine
 10
30.23389213270879
 20
1.65946636671237
 30
0.0
 11
30.23389213270879
 21
2.159466366712413
 31
0.0
  0
LINE
  5
2B8
330
1F
100
AcDbEntity
  8
BORDER
100
AcDbLine
 10
30.23389213270879
 20
2.159466366712413
 30
0.0
 11
30.23389213270879
 21
4.659466366712625
 31
0.0
  0
TEXT
  5
2B9
330
1F
100
AcDbEntity
  8
TEXT
100
AcDbText
 10
43.30456042233777
 20
1.784466366712343
 30
0.0
 40
0.25
  1
CHECKED
 72
     1
 11
44.1378937556711
 21
1.909466366712343
 31
0.0
100
AcDbText
 73
     2
  0
TEXT
  5
2BA
330
1F
100
AcDbEntity
  8
TEXT
100
AcDbText
 10
41.06097546604211
 20
2.2844663667124
 30
0.0
 40
0.25
  1
4-15-10
 72
     1
 11
41.79014213270877
 21
2.4094663667124
 31
0.0
100
AcDbText
 73
     2
  0
TEXT
  5
2BB
330
1F
100
AcDbEntity
  8
TEXT
100
AcDbText
 10
41.33180879937544
 20
1.784466366712343
 30
0.0
 40
0.25
  1
DATE
 72
     1
 11
41.79014213270877
 21
1.909466366712343
 31
0.0
100
AcDbText
 73
     2
  0
LINE
  5
2BC
330
1F
100
AcDbEntity
  8
BORDER
100
AcDbLine
 10
40.6901421327088
 20
1.65946636671237
 30
0.0
 11
40.6901421327088
 21
2.159466366712413
 31
0.0
  0
LINE
  5
2BD
330
1F
100
AcDbEntity
  8
BORDER
100
AcDbLine
 10
40.6901421327088
 20
2.159466366712413
 30
0.0
 11
40.6901421327088
 21
4.659466366712625
 31
0.0
  0
LINE
  5
2BE
330
1F
100
AcDbEntity
  8
BORDER
100
AcDbLine
 10
42.89014213270879
 20
2.159466366712413
 30
0.0
 11
42.89014213270879
 21
4.659466366712625
 31
0.0
  0
LINE
  5
2BF
330
1F
100
AcDbEntity
  8
BORDER
100
AcDbLine
 10
42.89014213270879
 20
1.65946636671237
 30
0.0
 11
42.89014213270879
 21
2.159466366712413
 31
0.0
  0
TEXT
  5
2C0
330
1F
100
AcDbEntity
  8
TEXT
100
AcDbText
 10
43.80456042233777
 20
2.2844663667124
 30
0.0
 40
0.25
  1
JJH
 72
     1
 11
44.1378937556711
 21
2.4094663667124
 31
0.0
100
AcDbText
 73
     2
  0
LINE
  5
2C1
330
1F
100
AcDbEntity
  8
BORDER
100
AcDbLine
 10
45.38564537863339
 20
4.659466366712625
 30
0.0
 11
45.38564537863339
 21
1.159466366712386
 31
0.0
  0
LINE
  5
2D4
330
1F
100
AcDbEntity
  8
BORDER
100
AcDbLine
 10
64.17316560392673
 20
3.090603565066068
 30
0.0
 11
57.88554030102138
 21
3.090603565066068
 31
0.0
  0
LINE
  5
2D5
330
1F
100
AcDbEntity
  8
BORDER
100
AcDbLine
 10
64.17316560392673
 20
1.159466366712399
 30
0.0
 11
57.82617256405393
 21
1.159466366712399
 31
0.0
  0
TEXT
  5
2D6
330
1F
100
AcDbEntity
  8
TEXT
100
AcDbText
 10
58.13508575065696
 20
2.4094663667124
 30
0.0
 40
0.3125
  1
PROPRIETARY DRAWING
 72
     1
 11
60.99966908399029
 21
2.5657163667124
 31
0.0
100
AcDbText
 73
     2
  0
TEXT
  5
2D7
330
1F
100
AcDbEntity
  8
TEXT
100
AcDbText
 10
58.22623158399038
 20
1.862591366712386
 30
0.0
 40
0.15625
  1
QUBE, INC. AND IS NOT TO BE DUPLICATED
 72
     1
 11
60.99966908399038
 21
1.940716366712386
 31
0.0
100
AcDbText
 73
     2
  0
LINE
  5
2DC
330
1F
100
AcDbEntity
  8
BORDER
100
AcDbLine
 10
57.88554030102138
 20
3.090603565066068
 30
0.0
 11
57.88554030102138
 21
1.159466366712386
 31
0.0
  0
LINE
  5
2E7
330
1F
100
AcDbEntity
  8
BORDER
100
AcDbLine
 10
68.54816560392673
 20
1.159466366712329
 30
0.0
 11
68.54816560392673
 21
5.278103565066068
 31
0.0
  0
ARC
  5
2E8
330
1F
100
AcDbEntity
  8
TEXT
100
AcDbCircle
 10
69.13442892132734
 20
5.234131815516327
 30
0.0
 40
0.0204415862877363
100
AcDbArc
 50
32.9363546715885
 51
189.5430854165191
  0
ARC
  5
2E9
330
1F
100
AcDbEntity
  8
TEXT
100
AcDbCircle
 10
69.27987339785079
 20
5.243926332163161
 30
0.0
 40
0.0120830312488348
100
AcDbArc
 50
340.2175703033623
 51
119.511112702139
  0
ARC
  5
2EA
330
1F
100
AcDbEntity
  8
TEXT
100
AcDbCircle
 10
69.19207796398811
 20
5.248907865892924
 30
0.0
 40
0.0114922508353156
100
AcDbArc
 50
3.320051391017456
 51
168.5145862198266
  0
ARC
  5
2EB
330
1F
100
AcDbEntity
  8
TEXT
100
AcDbCircle
 10
69.16670226197628
 20
5.245755840687998
 30
0.0
 40
0.0151258206016299
100
AcDbArc
 50
181.931421762249
 51
21.08009584438978
  0
LINE
  5
2EC
330
1F
100
AcDbEntity
  8
BORDER
100
AcDbLine
 10
64.17316560392673
 20
2.465603565066054
 30
0.0
 11
68.54816560392673
 21
2.465603565066054
 31
0.0
  0
LINE
  5
2ED
330
1F
100
AcDbEntity
  8
BORDER
100
AcDbLine
 10
64.17316560392673
 20
3.090603565066068
 30
0.0
 11
68.54816560392673
 21
3.090603565066068
 31
0.0
  0
LINE
  5
2EE
330
1F
100
AcDbEntity
  8
BORDER
100
AcDbLine
 10
64.17316560392673
 20
1.840603565066068
 30
0.0
 11
68.54816560392673
 21
1.840603565066068
 31
0.0
  0
TEXT
  5
2EF
330
1F
100
AcDbEntity
  8
TEXT
100
AcDbText
 10
58.36946075065705
 20
2.0969663667124
 30
0.0
 40
0.15625
  1
THIS DRAWING IS THE PROPERTY OF ICE
 72
     1
 11
60.99966908399038
 21
2.1750913667124
 31
0.0
100
AcDbText
 73
     2
  0
TEXT
  5
2F0
330
1F
100
AcDbEntity
  8
TEXT
100
AcDbText
 10
58.34341908399038
 20
1.6282163667124
 30
0.0
 40
0.15625
  1
OR ALTERED WITHOUT AUTHORIZATION OF
 72
     1
 11
60.99966908399038
 21
1.7063413667124
 31
0.0
100
AcDbText
 73
     2
  0
TEXT
  5
2F1
330
1F
100
AcDbEntity
  8
TEXT
100
AcDbText
 10
60.07518991732372
 20
1.3938413667124
 30
0.0
 40
0.15625
  1
ICE QUBE, INC.
 72
     1
 11
60.99966908399038
 21
1.4719663667124
 31
0.0
100
AcDbText
 73
     2
  0
LINE
  5
2F2
330
1F
100
AcDbEntity
  8
BORDER
100
AcDbLine
 10
64.17316560392673
 20
1.159466366712399
 30
0.0
 11
64.17316560392673
 21
3.090603565066068
 31
0.0
  0
TEXT
  5
2F3
330
1F
100
AcDbEntity
  8
TEXT
100
AcDbText
 10
64.65796717554883
 20
1.346284011037544
 30
0.0
 40
0.3125
  1
SHEET 1 OF 1
 72
     1
 11
66.37671717554883
 21
1.502534011037544
 31
0.0
100
AcDbText
 73
     2
  0
TEXT
  5
2F4
330
1F
100
AcDbEntity
  8
TEXT
100
AcDbText
 10
65.4492072705934
 20
2.001888601763688
 30
0.0
 40
0.3125
  1
4-15-10
 72
     1
 11
66.36066560392673
 21
2.158138601763688
 31
0.0
100
AcDbText
 73
     2
  0
TEXT
  5
2F5
330
1F
100
AcDbEntity
  8
TEXT
100
AcDbText
 10
67.05754060392677
 20
2.521228565066029
 30
0.0
 40
0.234375
  1
NONE
 72
     1
 11
67.48722810392677
 21
2.638416065066029
 31
0.0
100
AcDbText
 73
     2
  0
TEXT
  5
2F6
330
1F
100
AcDbEntity
  8
TEXT
100
AcDbText
 10
66.51691560392673
 20
2.856228565066053
 30
0.0
 40
0.15625
  1
SCALE
100
AcDbText
  0
TEXT
  5
2F7
330
1F
100
AcDbEntity
  8
TEXT
100
AcDbText
 10
64.92160310392676
 20
2.521228565066029
 30
0.0
 40
0.234375
  1
JJH
 72
     1
 11
65.23410310392676
 21
2.638416065066029
 31
0.0
100
AcDbText
 73
     2
  0
TEXT
  5
2F8
330
1F
100
AcDbEntity
  8
TEXT
100
AcDbText
 10
64.26379060392675
 20
2.856228565066053
 30
0.0
 40
0.15625
  1
DRAWN
100
AcDbText
  0
TEXT
  5
2F9
330
1F
100
AcDbEntity
  8
TEXT
100
AcDbText
 10
64.32941560392673
 20
2.231228565066068
 30
0.0
 40
0.15625
  1
DATE
100
AcDbText
  0
ARC
  5
2FA
330
1F
100
AcDbEntity
  8
TEXT
100
AcDbCircle
 10
69.41466363366222
 20
4.486259428950454
 30
0.0
 40
0.0215976139899841
100
AcDbArc
 50
182.4450201076249
 51
0.7349407504797698
  0
ARC
  5
2FB
330
1F
100
AcDbEntity
  8
TEXT
100
AcDbCircle
 10
69.39814518470517
 20
4.047579389568587
 30
0.0
 40
0.0117351997935574
100
AcDbArc
 50
1.658272028068479
 51
160.4091839300749
  0
ARC
  5
2FC
330
1F
100
AcDbEntity
  8
TEXT
100
AcDbCircle
 10
69.4033603338551
 20
4.589017027381636
 30
0.0
 40
0.0543991327960405
100
AcDbArc
 50
81.18509483549695
 51
120.0392913824104
  0
ARC
  5
2FD
330
1F
100
AcDbEntity
  8
TEXT
100
AcDbCircle
 10
69.40331723104639
 20
3.871962212041146
 30
0.0
 40
0.0183790483469612
100
AcDbArc
 50
167.7181143692778
 51
23.98551077365442
  0
ARC
  5
2FE
330
1F
100
AcDbEntity
  8
TEXT
100
AcDbCircle
 10
69.40260184005301
 20
5.234428606445226
 30
0.0
 40
0.0140637895856828
100
AcDbArc
 50
13.3384122638158
 51
197.9246330182944
  0
LINE
  5
2FF
330
1F
100
AcDbEntity
  8
TEXT
100
AcDbLine
 10
69.40811905214919
 20
5.19853760291668
 30
0.0
 11
69.36463750525759
 21
5.175364150045858
 31
0.0
  0
LINE
  5
300
330
1F
100
AcDbEntity
  8
TEXT
100
AcDbLine
 10
69.36463750525759
 20
5.175364150045858
 30
0.0
 11
69.36463750525759
 21
4.665548125023013
 31
0.0
  0
LINE
  5
301
330
1F
100
AcDbEntity
  8
TEXT
100
AcDbLine
 10
69.2168002353945
 20
5.175364150045858
 30
0.0
 11
69.2168002353945
 21
4.665548125023013
 31
0.0
  0
ARC
  5
302
330
1F
100
AcDbEntity
  8
TEXT
100
AcDbCircle
 10
69.11007083180121
 20
4.114618842887344
 30
0.0
 40
0.0353661901713158
100
AcDbArc
 50
15.17145974978963
 51
87.54918714297627
  0
ARC
  5
303
330
1F
100
AcDbEntity
  8
TEXT
100
AcDbCircle
 10
69.1292910956359
 20
4.584911602475408
 30
0.0
 40
0.0075708934653655
100
AcDbArc
 50
124.2167745950175
 51
319.7988197133695
  0
ARC
  5
304
330
1F
100
AcDbEntity
  8
TEXT
100
AcDbCircle
 10
69.11308226286322
 20
4.591852350252203
 30
0.0
 40
0.0119708699890584
100
AcDbArc
 50
356.7423630506752
 51
136.5172760690068
  0
ARC
  5
305
330
1F
100
AcDbEntity
  8
TEXT
100
AcDbCircle
 10
69.1090207726124
 20
4.6220275201398
 30
0.0
 40
0.0118036776942274
100
AcDbArc
 50
348.1206509806764
 51
136.2651890953771
  0
ARC
  5
306
330
1F
100
AcDbEntity
  8
TEXT
100
AcDbCircle
 10
69.12822180247592
 20
4.616626109620731
 30
0.0
 40
0.0082070223616514
100
AcDbArc
 50
158.7719549350961
 51
25.46716058583973
  0
ARC
  5
307
330
1F
100
AcDbEntity
  8
TEXT
100
AcDbCircle
 10
69.28024003221101
 20
4.367970339634728
 30
0.0
 40
0.1825298605922834
100
AcDbArc
 50
117.322218089242
 51
179.3383492613259
  0
ARC
  5
308
330
1F
100
AcDbEntity
  8
TEXT
100
AcDbCircle
 10
69.86929555558181
 20
4.308163263175622
 30
0.0
 40
0.774053406525892
100
AcDbArc
 50
175.4121316267021
 51
191.7939289657072
  0
ARC
  5
309
330
1F
100
AcDbEntity
  8
TEXT
100
AcDbCircle
 10
69.10760362187081
 20
4.615808085223284
 30
0.0
 40
0.0160420204804056
100
AcDbArc
 50
116.3151684036785
 51
258.4674100382151
  0
ARC
  5
30A
330
1F
100
AcDbEntity
  8
TEXT
100
AcDbCircle
 10
69.15858682750267
 20
3.934827543649325
 30
0.0
 40
0.0211999344698838
100
AcDbArc
 50
225.9317407159997
 51
327.3216812937231
  0
LINE
  5
30B
330
1F
100
AcDbEntity
  8
TEXT
100
AcDbLine
 10
69.34871259968729
 20
4.514099857178839
 30
0.0
 11
69.33911841273276
 21
4.492528505132971
 31
0.0
  0
ARC
  5
30C
330
1F
100
AcDbEntity
  8
TEXT
100
AcDbCircle
 10
69.36250423365478
 20
4.514828592604025
 30
0.0
 40
0.0138108733544406
100
AcDbArc
 50
183.0246359049376
 51
356.9753640950624
  0
LINE
  5
30D
330
1F
100
AcDbEntity
  8
TEXT
100
AcDbLine
 10
69.3810929350205
 20
4.551250513020938
 30
0.0
 11
69.37629586762218
 21
4.514099857178839
 31
0.0
  0
ARC
  5
30E
330
1F
100
AcDbEntity
  8
TEXT
100
AcDbCircle
 10
69.39149776051691
 20
4.555646606541436
 30
0.0
 40
0.0112953987026185
100
AcDbArc
 50
8.122642540875267
 51
202.9043136183469
  0
LINE
  5
30F
330
1F
100
AcDbEntity
  8
TEXT
100
AcDbLine
 10
69.3930856817531
 20
4.485338059606467
 30
0.0
 11
69.40267984262864
 21
4.557242561270591
 31
0.0
  0
ARC
  5
310
330
1F
100
AcDbEntity
  8
TEXT
100
AcDbCircle
 10
69.37774316044757
 20
4.050073646055031
 30
0.0
 40
0.0094565292621038
100
AcDbArc
 50
156.0593073728623
 51
8.762281217120787
  0
ARC
  5
311
330
1F
100
AcDbEntity
  8
TEXT
100
AcDbCircle
 10
69.30108950482423
 20
4.031486052701787
 30
0.0
 40
0.0716123991500209
100
AcDbArc
 50
18.24878221232071
 51
92.19784172829085
  0
ARC
  5
312
330
1F
100
AcDbEntity
  8
TEXT
100
AcDbCircle
 10
69.26177150223782
 20
4.11255426018031
 30
0.0
 40
0.0377875286239628
100
AcDbArc
 50
345.4259909574673
 51
72.46181126870013
  0
ARC
  5
313
330
1F
100
AcDbEntity
  8
TEXT
100
AcDbCircle
 10
69.19279450010505
 20
4.167160613063209
 30
0.0
 40
0.0824827685733273
100
AcDbArc
 50
346.9852122362361
 51
34.01252680042678
  0
ARC
  5
314
330
1F
100
AcDbEntity
  8
TEXT
100
AcDbCircle
 10
69.60605646243235
 20
4.295036331252468
 30
0.0
 40
0.3544440067106097
100
AcDbArc
 50
153.5374647244104
 51
193.3327646348718
  0
ARC
  5
315
330
1F
100
AcDbEntity
  8
TEXT
100
AcDbCircle
 10
69.3067192607875
 20
4.462144959518146
 30
0.0
 40
0.020171963693018
100
AcDbArc
 50
103.7022990326946
 51
207.0193065629244
  0
ARC
  5
316
330
1F
100
AcDbEntity
  8
TEXT
100
AcDbCircle
 10
69.31829456132223
 20
4.494840009940551
 30
0.0
 40
0.0209517503337112
100
AcDbArc
 50
218.6904014524229
 51
353.6659411500751
  0
ARC
  5
317
330
1F
100
AcDbEntity
  8
TEXT
100
AcDbCircle
 10
69.35972638579916
 20
4.463614578468842
 30
0.0
 40
0.1126100916963402
100
AcDbArc
 50
120.6947626763568
 51
155.9971516553453
  0
LINE
  5
318
330
1F
100
AcDbEntity
  8
TEXT
100
AcDbLine
 10
69.25766473301846
 20
4.570167029367018
 30
0.0
 11
69.25685422515916
 21
4.509422343281419
 31
0.0
  0
LINE
  5
319
330
1F
100
AcDbEntity
  8
TEXT
100
AcDbLine
 10
69.3038639678672
 20
4.583935822817585
 30
0.0
 11
69.3022429521486
 21
4.560447876500042
 31
0.0
  0
ARC
  5
31A
330
1F
100
AcDbEntity
  8
TEXT
100
AcDbCircle
 10
69.2831363335532
 20
4.569092572967868
 30
0.0
 40
0.0254942521042418
100
AcDbArc
 50
35.60679995345951
 51
177.5845513854531
  0
ARC
  5
31B
330
1F
100
AcDbEntity
  8
TEXT
100
AcDbCircle
 10
69.36289605080253
 20
4.647906348361336
 30
0.0
 40
0.0177275194936825
100
AcDbArc
 50
318.2823815987275
 51
84.36248438139953
  0
ARC
  5
31C
330
1F
100
AcDbEntity
  8
TEXT
100
AcDbCircle
 10
69.35846868795691
 20
3.983760420816258
 30
0.0
 40
0.0190383821988919
100
AcDbArc
 50
7.606980527161355
 51
103.0413594591621
  0
ARC
  5
31D
330
1F
100
AcDbEntity
  8
TEXT
100
AcDbCircle
 10
69.34615327618775
 20
3.984958389552636
 30
0.0
 40
0.0191130822490872
100
AcDbArc
 50
65.19241843010742
 51
139.0508106988789
  0
LINE
  5
31E
330
1F
100
AcDbEntity
  8
TEXT
100
AcDbLine
 10
69.33171733554464
 20
3.973417044291771
 30
0.0
 11
69.33171733554464
 21
3.997484902667201
 31
0.0
  0
ARC
  5
31F
330
1F
100
AcDbEntity
  8
TEXT
100
AcDbCircle
 10
69.32101762026097
 20
3.970540063819646
 30
0.0
 40
0.0110797528757836
100
AcDbArc
 50
168.316985756431
 51
15.04995211451758
  0
LINE
  5
320
330
1F
100
AcDbEntity
  8
TEXT
100
AcDbLine
 10
69.30699831929691
 20
4.001918449827718
 30
0.0
 11
69.31016740789549
 21
3.972783680411716
 31
0.0
  0
ARC
  5
321
330
1F
100
AcDbEntity
  8
TEXT
100
AcDbCircle
 10
69.30263294902677
 20
4.00576012986783
 30
0.0
 40
0.0058150634670569
100
AcDbArc
 50
318.6510821797595
 51
186.6644145786481
  0
LINE
  5
322
330
1F
100
AcDbEntity
  8
TEXT
100
AcDbLine
 10
69.29432188666586
 20
3.982917502492858
 30
0.0
 11
69.29685717840788
 21
4.005085269228068
 31
0.0
  0
ARC
  5
323
330
1F
100
AcDbEntity
  8
TEXT
100
AcDbCircle
 10
69.27866766421961
 20
3.978776623155873
 30
0.0
 40
0.0161926391326401
100
AcDbArc
 50
172.045705651638
 51
14.81661014794029
  0
LINE
  5
324
330
1F
100
AcDbEntity
  8
TEXT
100
AcDbLine
 10
69.25882790659357
 20
4.034220054110413
 30
0.0
 11
69.26263081812762
 21
3.981017410852635
 31
0.0
  0
ARC
  5
325
330
1F
100
AcDbEntity
  8
TEXT
100
AcDbCircle
 10
69.26300986615648
 20
4.072980894941203
 30
0.0
 40
0.0389857867394515
100
AcDbArc
 50
209.3802246625985
 51
263.8421008682747
  0
ARC
  5
326
330
1F
100
AcDbEntity
  8
TEXT
100
AcDbCircle
 10
69.21419081998555
 20
4.049124602652518
 30
0.0
 40
0.0155826305602638
100
AcDbArc
 50
17.66955929970687
 51
146.8111142491889
  0
ARC
  5
327
330
1F
100
AcDbEntity
  8
TEXT
100
AcDbCircle
 10
69.19500771464133
 20
4.053607320191551
 30
0.0
 40
0.0073559424006224
100
AcDbArc
 50
192.9866902548915
 51
33.38063139741147
  0
LINE
  5
328
330
1F
100
AcDbEntity
  8
TEXT
100
AcDbLine
 10
69.18783992037004
 20
4.07475538883407
 30
0.0
 11
69.18783992037004
 21
4.051954258218763
 31
0.0
  0
ARC
  5
329
330
1F
100
AcDbEntity
  8
TEXT
100
AcDbCircle
 10
69.18298981355211
 20
4.077153735506193
 30
0.0
 40
0.0054106933848193
100
AcDbArc
 50
333.6879001367237
 51
192.0722457553363
  0
LINE
  5
32A
330
1F
100
AcDbEntity
  8
TEXT
100
AcDbLine
 10
69.17769877948093
 20
4.076022116594193
 30
0.0
 11
69.17643113361
 21
3.923381235900711
 31
0.0
  0
ARC
  5
32B
330
1F
100
AcDbEntity
  8
TEXT
100
AcDbCircle
 10
72.30299556065911
 20
4.01612995929441
 30
0.0
 40
3.160628174278595
100
AcDbArc
 50
178.0464319449979
 51
181.7502526685598
  0
ARC
  5
32C
330
1F
100
AcDbEntity
  8
TEXT
100
AcDbCircle
 10
69.18070018488822
 20
4.547045091306136
 30
0.0
 40
0.0231138652678936
100
AcDbArc
 50
312.9867785858861
 51
66.99118422926642
  0
ARC
  5
32D
330
1F
100
AcDbEntity
  8
TEXT
100
AcDbCircle
 10
69.17827405033665
 20
4.574339132538405
 30
0.0
 40
0.0129451309621158
100
AcDbArc
 50
332.2921775479048
 51
119.5678571759903
  0
ARC
  5
32E
330
1F
100
AcDbEntity
  8
TEXT
100
AcDbCircle
 10
69.18380694358393
 20
4.565947847471186
 30
0.0
 40
0.0229836788276261
100
AcDbArc
 50
121.2424246402128
 51
213.473239708375
  0
ARC
  5
32F
330
1F
100
AcDbEntity
  8
TEXT
100
AcDbCircle
 10
69.15943223353996
 20
4.548591922945526
 30
0.0
 40
0.0069976873342193
100
AcDbArc
 50
201.5154657473986
 51
41.96660508022721
  0
ARC
  5
330
330
1F
100
AcDbEntity
  8
TEXT
100
AcDbCircle
 10
69.15961055996793
 20
4.571221305177495
 30
0.0
 40
0.0260684316724221
100
AcDbArc
 50
160.2627782819648
 51
255.1333022011724
  0
ARC
  5
331
330
1F
100
AcDbEntity
  8
TEXT
100
AcDbCircle
 10
69.1576823058284
 20
4.618302620095709
 30
0.0
 40
0.0221286157777855
100
AcDbArc
 50
32.48569494743497
 51
175.1979664789355
  0
ARC
  5
332
330
1F
100
AcDbEntity
  8
TEXT
100
AcDbCircle
 10
69.18548169772566
 20
4.626106880195386
 30
0.0
 40
0.0100035300295991
100
AcDbArc
 50
155.9249042338173
 51
10.66497725508708
  0
ARC
  5
333
330
1F
100
AcDbEntity
  8
TEXT
100
AcDbCircle
 10
69.22783967521075
 20
4.634300987089693
 30
0.0
 40
0.0331398983173351
100
AcDbArc
 50
109.4580308571273
 51
191.0341765876999
  0
LINE
  5
334
330
1F
100
AcDbEntity
  8
TEXT
100
AcDbLine
 10
69.37733952134407
 20
3.986280667634622
 30
0.0
 11
69.3853588262523
 21
3.875871830358939
 31
0.0
  0
LINE
  5
335
330
1F
100
AcDbEntity
  8
TEXT
100
AcDbLine
 10
69.14683136259559
 20
5.190070701274655
 30
0.0
 11
69.14886643389136
 21
4.897231506399883
 31
0.0
  0
LINE
  5
336
330
1F
100
AcDbEntity
  8
TEXT
100
AcDbLine
 10
69.11427022186363
 20
5.230742820695971
 30
0.0
 11
69.11834036445515
 21
4.897231506399883
 31
0.0
  0
ARC
  5
337
330
1F
100
AcDbEntity
  8
TEXT
100
AcDbCircle
 10
69.13360339917323
 20
4.89667169827765
 30
0.0
 40
0.0152732974154362
100
AcDbArc
 50
177.899482485688
 51
2.100517514311817
  0
ARC
  5
338
330
1F
100
AcDbEntity
  8
TEXT
100
AcDbCircle
 10
69.38204662448398
 20
5.246121169861131
 30
0.0
 40
0.0175538244621736
100
AcDbArc
 50
191.7667831442125
 51
294.1224948725133
  0
ARC
  5
339
330
1F
100
AcDbEntity
  8
TEXT
100
AcDbCircle
 10
69.3485352044775
 20
5.221817208600405
 30
0.0
 40
0.026382716840622
100
AcDbArc
 50
51.7690922577
 51
154.0890012254441
  0
ARC
  5
33A
330
1F
100
AcDbEntity
  8
TEXT
100
AcDbCircle
 10
69.30863929922806
 20
5.239772691010136
 30
0.0
 40
0.0173960732958633
100
AcDbArc
 50
179.7887253899368
 51
338.3185482084491
  0
ARC
  5
33B
330
1F
100
AcDbEntity
  8
TEXT
100
AcDbCircle
 10
69.2637621105067
 20
5.251383135948948
 30
0.0
 40
0.0106097046542174
100
AcDbArc
 50
208.4553291170978
 51
16.75507449313807
  0
ARC
  5
33C
330
1F
100
AcDbEntity
  8
TEXT
100
AcDbCircle
 10
69.24283862166787
 20
5.244787387382636
 30
0.0
 40
0.0116974376118937
100
AcDbArc
 50
7.567610287756183
 51
183.0538693842452
  0
ARC
  5
33D
330
1F
100
AcDbEntity
  8
TEXT
100
AcDbCircle
 10
69.21651180460263
 20
5.242568679899655
 30
0.0
 40
0.0147326429050978
100
AcDbArc
 50
151.6108765070438
 51
6.217261201770589
  0
LINE
  5
33E
330
1F
100
AcDbEntity
  8
TEXT
100
AcDbLine
 10
69.17331868850286
 20
5.19853760291668
 30
0.0
 11
69.2168002353945
 21
5.175364150045858
 31
0.0
  0
ARC
  5
33F
330
1F
100
AcDbEntity
  8
TEXT
100
AcDbCircle
 10
69.16165590219192
 20
5.189358636412997
 30
0.0
 40
0.0148416309955998
100
AcDbArc
 50
38.20381851856319
 51
177.2500340797979
  0
ARC
  5
340
330
1F
100
AcDbEntity
  8
TEXT
100
AcDbCircle
 10
69.56098378394334
 20
3.980400719981181
 30
0.0
 40
0.0504403035036899
100
AcDbArc
 50
33.67851647490049
 51
106.5775508010124
  0
ARC
  5
341
330
1F
100
AcDbEntity
  8
TEXT
100
AcDbCircle
 10
69.57119748952626
 20
4.627573715775604
 30
0.0
 40
0.0208202889485251
100
AcDbArc
 50
20.89289471578088
 51
159.1071052842191
  0
ARC
  5
342
330
1F
100
AcDbEntity
  8
TEXT
100
AcDbCircle
 10
69.57556387759146
 20
4.391241691599184
 30
0.0
 40
0.1914957959123389
100
AcDbArc
 50
60.82353397560647
 51
101.6183182656855
  0
ARC
  5
343
330
1F
100
AcDbEntity
  8
TEXT
100
AcDbCircle
 10
69.58256285756579
 20
4.825843434458214
 30
0.0
 40
0.1274495304475066
100
AcDbArc
 50
251.6347706403311
 51
316.4182924463649
  0
ARC
  5
344
330
1F
100
AcDbEntity
  8
TEXT
100
AcDbCircle
 10
69.57897028718153
 20
3.881692984756419
 30
0.0
 40
0.0111664729730421
100
AcDbArc
 50
168.677217813047
 51
20.84321825743721
  0
LINE
  5
345
330
1F
100
AcDbEntity
  8
TEXT
100
AcDbLine
 10
69.43625947089036
 20
4.544060067494449
 30
0.0
 11
69.43625947089036
 21
4.486536456883306
 31
0.0
  0
ARC
  5
346
330
1F
100
AcDbEntity
  8
TEXT
100
AcDbCircle
 10
69.4524940268521
 20
4.543809669854248
 30
0.0
 40
0.0162364868814825
100
AcDbArc
 50
179.1163546128549
 51
32.14670843865842
  0
LINE
  5
347
330
1F
100
AcDbEntity
  8
TEXT
100
AcDbLine
 10
69.46624127252447
 20
4.568028229560361
 30
0.0
 11
69.46624127252447
 21
4.552448925764172
 31
0.0
  0
ARC
  5
348
330
1F
100
AcDbEntity
  8
TEXT
100
AcDbCircle
 10
69.48309547396495
 20
4.563845340488447
 30
0.0
 40
0.0173655022151764
100
AcDbArc
 50
26.60941129939703
 51
166.0619000058112
  0
LINE
  5
349
330
1F
100
AcDbEntity
  8
TEXT
100
AcDbLine
 10
69.50102016763579
 20
4.536869621967959
 30
0.0
 11
69.49862163393665
 21
4.571623452323628
 31
0.0
  0
ARC
  5
34A
330
1F
100
AcDbEntity
  8
TEXT
100
AcDbCircle
 10
69.51813435402526
 20
4.532409236545624
 30
0.0
 40
0.0176858817674158
100
AcDbArc
 50
165.3922446503685
 51
2.803879044206385
  0
LINE
  5
34B
330
1F
100
AcDbEntity
  8
TEXT
100
AcDbLine
 10
69.5369983295966
 20
4.578813913316471
 30
0.0
 11
69.5357990627471
 21
4.533274383738294
 31
0.0
  0
ARC
  5
34C
330
1F
100
AcDbEntity
  8
TEXT
100
AcDbCircle
 10
69.52898199817146
 20
4.038727846666183
 30
0.0
 40
0.0202434850951048
100
AcDbArc
 50
194.8546182240444
 51
330.4510994340797
  0
ARC
  5
34D
330
1F
100
AcDbEntity
  8
TEXT
100
AcDbCircle
 10
69.48666588551096
 20
4.059479676474929
 30
0.0
 40
0.0345034994608953
100
AcDbArc
 50
223.0305625061276
 51
311.2487591160723
  0
ARC
  5
34E
330
1F
100
AcDbEntity
  8
TEXT
100
AcDbCircle
 10
69.44228583196566
 20
4.070439279513712
 30
0.0
 40
0.0394663806242486
100
AcDbArc
 50
214.7934494581957
 51
299.0409507876109
  0
ARC
  5
34F
330
1F
100
AcDbEntity
  8
TEXT
100
AcDbCircle
 10
69.42957509028038
 20
4.543640226035811
 30
0.0
 40
0.1007326717255064
100
AcDbArc
 50
70.05468846035582
 51
100.2232656721042
  0
ARC
  5
350
330
1F
100
AcDbEntity
  8
TEXT
100
AcDbCircle
 10
69.475608116184
 20
4.634846202387597
 30
0.0
 40
0.0121798952203543
100
AcDbArc
 50
163.3756550464644
 51
16.62434495352968
  0
ARC
  5
351
330
1F
100
AcDbEntity
  8
TEXT
100
AcDbCircle
 10
69.50833852958438
 20
4.613784686123316
 30
0.0
 40
0.0323422366599906
100
AcDbArc
 50
46.43616582623984
 51
130.6283095026663
  0
ARC
  5
352
330
1F
100
AcDbEntity
  8
TEXT
100
AcDbCircle
 10
69.5413740421724
 20
4.637888807262704
 30
0.0
 40
0.0107672478568685
100
AcDbArc
 50
183.5606974541693
 51
344.4298925613464
  0
ARC
  5
353
330
1F
100
AcDbEntity
  8
TEXT
100
AcDbCircle
 10
69.54534004528922
 20
3.939341839939308
 30
0.0
 40
0.0165367822276326
100
AcDbArc
 50
177.787775166229
 51
326.3805826419352
  0
ARC
  5
354
330
1F
100
AcDbEntity
  8
TEXT
100
AcDbCircle
 10
69.51953122830507
 20
3.940870576221873
 30
0.0
 40
0.0093269579312538
100
AcDbArc
 50
354.5219056877808
 51
214.9448543763837
  0
ARC
  5
355
330
1F
100
AcDbEntity
  8
TEXT
100
AcDbCircle
 10
69.43242961435173
 20
3.969320980720958
 30
0.0
 40
0.0099990764344
100
AcDbArc
 50
5.351678383090992
 51
195.2435488026406
  0
ARC
  5
356
330
1F
100
AcDbEntity
  8
TEXT
100
AcDbCircle
 10
69.56370375601028
 20
4.821040256392668
 30
0.0
 40
0.1180912454887081
100
AcDbArc
 50
194.9511061487655
 51
259.6103135862126
  0
LINE
  5
357
330
1F
100
AcDbEntity
  8
TEXT
100
AcDbLine
 10
69.44238510459981
 20
3.970253581096692
 30
0.0
 11
69.46911619050442
 21
3.953336094847521
 31
0.0
  0
LINE
  5
358
330
1F
100
AcDbEntity
  8
TEXT
100
AcDbLine
 10
69.5591107803168
 20
3.930185857018706
 30
0.0
 11
69.56802115097805
 21
3.883885365894705
 31
0.0
  0
LINE
  5
359
330
1F
100
AcDbEntity
  8
TEXT
100
AcDbLine
 10
69.51366796557365
 20
3.902583636100025
 30
0.0
 11
69.5118858862256
 21
3.935528208887113
 31
0.0
  0
ARC
  5
35A
330
1F
100
AcDbEntity
  8
TEXT
100
AcDbCircle
 10
69.49288854375472
 20
3.894541372886955
 30
0.0
 40
0.0222814355173959
100
AcDbArc
 50
170.7272794785978
 51
21.15794103948669
  0
LINE
  5
35B
330
1F
100
AcDbEntity
  8
TEXT
100
AcDbLine
 10
69.46911619050442
 20
3.953336094847521
 30
0.0
 11
69.47089826985253
 21
3.89813166847653
 31
0.0
  0
LINE
  5
35C
330
1F
100
AcDbEntity
  8
TEXT
100
AcDbLine
 10
69.42010921706525
 20
3.87943339827121
 30
0.0
 11
69.42278233608722
 21
3.966691997718077
 31
0.0
  0
ARC
  5
35D
330
1F
100
AcDbEntity
  8
TEXT
100
AcDbCircle
 10
70.0911771992097
 20
4.084390463127441
 30
0.0
 40
0.0608878024473341
100
AcDbArc
 50
180.7587023263156
 51
270.031539090741
  0
LINE
  5
35E
330
1F
100
AcDbEntity
  8
TEXT
100
AcDbLine
 10
69.98757445882124
 20
4.268572159999671
 30
0.0
 11
70.08883737413913
 21
4.272524888222839
 31
0.0
  0
ARC
  5
35F
330
1F
100
AcDbEntity
  8
TEXT
100
AcDbCircle
 10
69.79796694207455
 20
3.944885085707177
 30
0.0
 40
0.0237893523154895
100
AcDbArc
 50
218.2556843178665
 51
317.6564247238851
  0
ARC
  5
360
330
1F
100
AcDbEntity
  8
TEXT
100
AcDbCircle
 10
69.82839393732736
 20
3.919459312790571
 30
0.0
 40
0.0159172569840616
100
AcDbArc
 50
48.87596376793604
 51
143.7953529790059
  0
ARC
  5
361
330
1F
100
AcDbEntity
  8
TEXT
100
AcDbCircle
 10
69.85067756560757
 20
3.934380480577451
 30
0.0
 40
0.0121730875667031
100
AcDbArc
 50
193.9319034609807
 51
333.0378283509296
  0
LINE
  5
362
330
1F
100
AcDbEntity
  8
TEXT
100
AcDbLine
 10
70.00497900609217
 20
4.255132862388073
 30
0.0
 11
69.98836556393759
 21
4.257504493135407
 31
0.0
  0
LINE
  5
363
330
1F
100
AcDbEntity
  8
TEXT
100
AcDbLine
 10
69.98757445882124
 20
4.268572159999671
 30
0.0
 11
69.98836556393759
 21
4.257504493135407
 31
0.0
  0
ARC
  5
364
330
1F
100
AcDbEntity
  8
TEXT
100
AcDbCircle
 10
70.01020683371455
 20
4.237375875689656
 30
0.0
 40
0.0185105580212536
100
AcDbArc
 50
358.6825606331185
 51
106.404935772954
  0
LINE
  5
365
330
1F
100
AcDbEntity
  8
TEXT
100
AcDbLine
 10
70.02871249860992
 20
4.236950287815453
 30
0.0
 11
70.03029473492165
 21
4.083584219321712
 31
0.0
  0
ARC
  5
366
330
1F
100
AcDbEntity
  8
TEXT
100
AcDbCircle
 10
69.63270853835726
 20
4.531604260587478
 30
0.0
 40
0.0450705442028974
100
AcDbArc
 50
335.4827230531628
 51
36.54383594003184
  0
ARC
  5
367
330
1F
100
AcDbEntity
  8
TEXT
100
AcDbCircle
 10
69.68387385416538
 20
4.498175370548487
 30
0.0
 40
0.0178900098840057
100
AcDbArc
 50
124.5991194751616
 51
24.91162951380479
  0
ARC
  5
368
330
1F
100
AcDbEntity
  8
TEXT
100
AcDbCircle
 10
69.7065941331471
 20
4.515713463910563
 30
0.0
 40
0.0119260847182272
100
AcDbArc
 50
15.46471151433542
 51
237.003605808355
  0
ARC
  5
369
330
1F
100
AcDbEntity
  8
TEXT
100
AcDbCircle
 10
69.67492044484955
 20
4.490510367357707
 30
0.0
 40
0.0516631101119713
100
AcDbArc
 50
331.8837666959819
 51
33.32508059324493
  0
ARC
  5
36A
330
1F
100
AcDbEntity
  8
TEXT
100
AcDbCircle
 10
69.73188005325757
 20
4.453295653843618
 30
0.0
 40
0.0171867493656786
100
AcDbArc
 50
131.5213803610224
 51
48.47861963898632
  0
ARC
  5
36B
330
1F
100
AcDbEntity
  8
TEXT
100
AcDbCircle
 10
69.75156466375911
 20
4.468086132957656
 30
0.0
 40
0.0085115103283491
100
AcDbArc
 50
3.193725348484568
 51
193.0548754998607
  0
ARC
  5
36C
330
1F
100
AcDbEntity
  8
TEXT
100
AcDbCircle
 10
69.81238375810737
 20
4.4452553549472
 30
0.0
 40
0.0572764194780507
100
AcDbArc
 50
155.9906329013505
 51
206.8057304576939
  0
ARC
  5
36D
330
1F
100
AcDbEntity
  8
TEXT
100
AcDbCircle
 10
69.52769229245943
 20
4.312601169550339
 30
0.0
 40
0.2568391883961405
100
AcDbArc
 50
344.8914411173241
 51
24.57723374822012
  0
ARC
  5
36E
330
1F
100
AcDbEntity
  8
TEXT
100
AcDbCircle
 10
69.69360801924712
 20
4.221068913336701
 30
0.0
 40
0.0856504748170368
100
AcDbArc
 50
300.6537348898141
 51
16.68245916376097
  0
ARC
  5
36F
330
1F
100
AcDbEntity
  8
TEXT
100
AcDbCircle
 10
69.6450201614931
 20
4.614728194184785
 30
0.0
 40
0.019923999934833
100
AcDbArc
 50
47.61705801860729
 51
152.6179806585999
  0
ARC
  5
370
330
1F
100
AcDbEntity
  8
TEXT
100
AcDbCircle
 10
69.67043033410125
 20
4.61813212809027
 30
0.0
 40
0.0164772438173263
100
AcDbArc
 50
136.6395135700787
 51
16.38775991618311
  0
ARC
  5
371
330
1F
100
AcDbEntity
  8
TEXT
100
AcDbCircle
 10
69.6902189524251
 20
4.573518760833088
 30
0.0
 40
0.0494227766538583
100
AcDbArc
 50
41.27304036069129
 51
94.61991284103848
  0
ARC
  5
372
330
1F
100
AcDbEntity
  8
TEXT
100
AcDbCircle
 10
69.74726473366334
 20
4.604098338179163
 30
0.0
 40
0.0200033413087927
100
AcDbArc
 50
174.1982733486926
 51
308.0634596483615
  0
ARC
  5
373
330
1F
100
AcDbEntity
  8
TEXT
100
AcDbCircle
 10
69.77424337513288
 20
4.580051898404498
 30
0.0
 40
0.0168329057250599
100
AcDbArc
 50
296.7794474250819
 51
150.4674482996601
  0
ARC
  5
374
330
1F
100
AcDbEntity
  8
TEXT
100
AcDbCircle
 10
69.78794083651297
 20
4.443784532649921
 30
0.0
 40
0.1213938581589665
100
AcDbArc
 50
78.6467194011529
 51
92.88657863164819
  0
ARC
  5
375
330
1F
100
AcDbEntity
  8
TEXT
100
AcDbCircle
 10
69.7721684133676
 20
4.514114431530025
 30
0.0
 40
0.0628033698317426
100
AcDbArc
 50
356.7791343814141
 51
50.82801334298991
  0
ARC
  5
376
330
1F
100
AcDbEntity
  8
TEXT
100
AcDbCircle
 10
69.84826691118427
 20
4.468305067131375
 30
0.0
 40
0.0443516632740007
100
AcDbArc
 50
51.01090143870955
 51
107.577946053111
  0
ARC
  5
377
330
1F
100
AcDbEntity
  8
TEXT
100
AcDbCircle
 10
69.65439580926967
 20
4.312565847861298
 30
0.0
 40
0.2921733560609443
100
AcDbArc
 50
317.9732863042371
 51
40.61894937560239
  0
ARC
  5
378
330
1F
100
AcDbEntity
  8
TEXT
100
AcDbCircle
 10
70.15584221488537
 20
4.057588324120265
 30
0.0
 40
0.2893295131371159
100
AcDbArc
 50
179.4662202071271
 51
190.5890997840365
  0
ARC
  5
379
330
1F
100
AcDbEntity
  8
TEXT
100
AcDbCircle
 10
69.84691936642993
 20
3.992800573395392
 30
0.0
 40
0.0271341882191743
100
AcDbArc
 50
282.9712622283037
 51
25.35441378639507
  0
ARC
  5
37A
330
1F
100
AcDbEntity
  8
TEXT
100
AcDbCircle
 10
69.88660809615068
 20
3.997845401413576
 30
0.0
 40
0.0460460836471324
100
AcDbArc
 50
169.4684867573181
 51
223.1418439421428
  0
ARC
  5
37B
330
1F
100
AcDbEntity
  8
TEXT
100
AcDbCircle
 10
69.78248843565414
 20
4.030817086230134
 30
0.0
 40
0.0637668312167232
100
AcDbArc
 50
337.3510782224615
 51
22.64892177753845
  0
ARC
  5
37C
330
1F
100
AcDbEntity
  8
TEXT
100
AcDbCircle
 10
69.61692295269945
 20
4.222175347960861
 30
0.0
 40
0.2509979489351848
100
AcDbArc
 50
311.6071689301104
 51
318.3515702307968
  0
ARC
  5
37D
330
1F
100
AcDbEntity
  8
TEXT
100
AcDbCircle
 10
69.78345360048581
 20
4.026163817777264
 30
0.0
 40
0.0083377203270588
100
AcDbArc
 50
89.05883162362072
 51
223.9137905963003
  0
ARC
  5
37E
330
1F
100
AcDbEntity
  8
TEXT
100
AcDbCircle
 10
69.71174925220167
 20
4.010890048059826
 30
0.0
 40
0.0663799911478199
100
AcDbArc
 50
322.6907301981532
 51
8.220255073941804
  0
ARC
  5
37F
330
1F
100
AcDbEntity
  8
TEXT
100
AcDbCircle
 10
69.77501071810752
 20
3.957803685009061
 30
0.0
 40
0.0165736773362276
100
AcDbArc
 50
129.1527393458024
 51
254.8870408388505
  0
ARC
  5
380
330
1F
100
AcDbEntity
  8
TEXT
100
AcDbCircle
 10
69.7743376456778
 20
3.935499390397018
 30
0.0
 40
0.0072833212418134
100
AcDbArc
 50
312.7998628402738
 51
120.0581864533374
  0
ARC
  5
381
330
1F
100
AcDbEntity
  8
TEXT
100
AcDbCircle
 10
69.90178616356249
 20
3.876951671500568
 30
0.0
 40
0.0656913671942501
100
AcDbArc
 50
99.17143729878524
 51
127.7955283290937
  0
ARC
  5
382
330
1F
100
AcDbEntity
  8
TEXT
100
AcDbCircle
 10
69.7509009697288
 20
3.988853035371383
 30
0.0
 40
0.0487032855846518
100
AcDbArc
 50
156.2885975497965
 51
210.2571046136428
  0
ARC
  5
383
330
1F
100
AcDbEntity
  8
TEXT
100
AcDbCircle
 10
69.7162229071549
 20
4.004865365642636
 30
0.0
 40
0.0105379370460883
100
AcDbArc
 50
31.23099864076773
 51
160.181952938184
  0
LINE
  5
384
330
1F
100
AcDbEntity
  8
TEXT
100
AcDbLine
 10
69.72460290326622
 20
3.96242126517908
 30
0.0
 11
69.72523372712179
 21
4.010329177563995
 31
0.0
  0
ARC
  5
385
330
1F
100
AcDbEntity
  8
TEXT
100
AcDbCircle
 10
69.7162023062835
 20
3.959069254994068
 30
0.0
 40
0.0090446670445143
100
AcDbArc
 50
144.5711585108377
 51
21.7530114788701
  0
ARC
  5
386
330
1F
100
AcDbEntity
  8
TEXT
100
AcDbCircle
 10
69.88306604869875
 20
4.839632145299438
 30
0.0
 40
0.1382279414268217
100
AcDbArc
 50
296.3233923707219
 51
339.8348331475795
  0
ARC
  5
387
330
1F
100
AcDbEntity
  8
TEXT
100
AcDbCircle
 10
69.86791739806434
 20
4.885977026603391
 30
0.0
 40
0.1866149158157418
100
AcDbArc
 50
254.2847830849396
 51
294.1819270465994
  0
ARC
  5
388
330
1F
100
AcDbEntity
  8
TEXT
100
AcDbCircle
 10
69.86416468666944
 20
4.82610055577728
 30
0.0
 40
0.1285795811377622
100
AcDbArc
 50
194.184739356817
 51
248.6586767321129
  0
ARC
  5
389
330
1F
100
AcDbEntity
  8
TEXT
100
AcDbCircle
 10
69.71779767924832
 20
4.131807568602743
 30
0.0
 40
0.0249429364567843
100
AcDbArc
 50
253.9290889125597
 51
38.65267477511393
  0
ARC
  5
38A
330
1F
100
AcDbEntity
  8
TEXT
100
AcDbCircle
 10
69.80781689401655
 20
4.093917681203087
 30
0.0
 40
0.0676602827344026
100
AcDbArc
 50
330.1916644163827
 51
19.91318758188032
  0
ARC
  5
38B
330
1F
100
AcDbEntity
  8
TEXT
100
AcDbCircle
 10
69.8229077478543
 20
4.011157332456541
 30
0.0
 40
0.047902564587344
100
AcDbArc
 50
67.37252950712535
 51
112.6274704928676
  0
ARC
  5
38C
330
1F
100
AcDbEntity
  8
TEXT
100
AcDbCircle
 10
69.61689489294915
 20
4.149887196050777
 30
0.0
 40
0.1029739000996109
100
AcDbArc
 50
287.1920036507392
 51
335.899750405153
  0
ARC
  5
38D
330
1F
100
AcDbEntity
  8
TEXT
100
AcDbCircle
 10
69.60365609972956
 20
3.915425297748278
 30
0.0
 40
0.0143191616917265
100
AcDbArc
 50
354.9255052590735
 51
174.3705062402905
  0
ARC
  5
38E
330
1F
100
AcDbEntity
  8
TEXT
100
AcDbCircle
 10
69.61734956058383
 20
4.037960442081931
 30
0.0
 40
0.0329030971158398
100
AcDbArc
 50
244.0629515517945
 51
24.32612031264121
  0
ARC
  5
38F
330
1F
100
AcDbEntity
  8
TEXT
100
AcDbCircle
 10
69.60405718307469
 20
4.613159649528888
 30
0.0
 40
0.0256267055491746
100
AcDbArc
 50
24.75773987532819
 51
121.5483884163392
  0
ARC
  5
390
330
1F
100
AcDbEntity
  8
TEXT
100
AcDbCircle
 10
69.83091901811353
 20
3.749972577145832
 30
0.0
 40
0.0192770428186735
100
AcDbArc
 50
177.2189023070876
 51
10.53261226457935
  0
ARC
  5
391
330
1F
100
AcDbEntity
  8
TEXT
100
AcDbCircle
 10
69.8899866907149
 20
3.909966057123448
 30
0.0
 40
0.0282821218467122
100
AcDbArc
 50
222.9877626572325
 51
344.3358851615576
  0
ARC
  5
392
330
1F
100
AcDbEntity
  8
TEXT
100
AcDbCircle
 10
69.86071117816881
 20
3.885117397146906
 30
0.0
 40
0.0102325645886126
100
AcDbArc
 50
32.94435831946167
 51
185.0814072168599
  0
LINE
  5
393
330
1F
100
AcDbEntity
  8
TEXT
100
AcDbLine
 10
69.8498712624502
 20
3.753496327198398
 30
0.0
 11
69.85051882899529
 21
3.884211087936042
 31
0.0
  0
LINE
  5
394
330
1F
100
AcDbEntity
  8
TEXT
100
AcDbLine
 10
69.80713168792273
 20
3.879681370801513
 30
0.0
 11
69.81166467981721
 21
3.750907904150373
 31
0.0
  0
ARC
  5
395
330
1F
100
AcDbEntity
  8
TEXT
100
AcDbCircle
 10
69.79574425069077
 20
3.887034023632272
 30
0.0
 40
0.0135548969144405
100
AcDbArc
 50
327.1504341221703
 51
80.13862259361689
  0
LINE
  5
396
330
1F
100
AcDbEntity
  8
TEXT
100
AcDbLine
 10
69.76749879505324
 20
3.905057824437853
 30
0.0
 11
69.79806573021277
 21
3.900388646921236
 31
0.0
  0
LINE
  5
397
330
1F
100
AcDbEntity
  8
TEXT
100
AcDbLine
 10
69.76137587355514
 20
3.82690015556755
 30
0.0
 11
69.7586672871535
 21
3.89308085794142
 31
0.0
  0
ARC
  5
398
330
1F
100
AcDbEntity
  8
TEXT
100
AcDbCircle
 10
69.74490266582724
 20
3.819778449527723
 30
0.0
 40
0.0179467342367279
100
AcDbArc
 50
165.6416373020933
 51
23.37981978602075
  0
LINE
  5
399
330
1F
100
AcDbEntity
  8
TEXT
100
AcDbLine
 10
69.71860617783396
 20
3.89813166847653
 30
0.0
 11
69.72751652241625
 21
3.824228987366574
 31
0.0
  0
LINE
  5
39A
330
1F
100
AcDbEntity
  8
TEXT
100
AcDbLine
 10
69.68296474734704
 20
3.887446949273359
 30
0.0
 11
69.68207370767307
 21
3.90080285214389
 31
0.0
  0
ARC
  5
39B
330
1F
100
AcDbEntity
  8
TEXT
100
AcDbCircle
 10
69.66974158064137
 20
3.889416505577194
 30
0.0
 40
0.0133690422155094
100
AcDbArc
 50
208.7068196476634
 51
351.5282258973481
  0
LINE
  5
39C
330
1F
100
AcDbEntity
  8
TEXT
100
AcDbLine
 10
69.64999643588217
 20
3.901693251855141
 30
0.0
 11
69.6580157407904
 21
3.882994981649821
 31
0.0
  0
LINE
  5
39D
330
1F
100
AcDbEntity
  8
TEXT
100
AcDbLine
 10
69.65712470111644
 20
3.829571339234938
 30
0.0
 11
69.64999643588217
 21
3.901693251855141
 31
0.0
  0
ARC
  5
39E
330
1F
100
AcDbEntity
  8
TEXT
100
AcDbCircle
 10
69.63926721012531
 20
3.828726443817238
 30
0.0
 40
0.0178774671797511
100
AcDbArc
 50
185.8633287467241
 51
2.70882780951028
  0
ARC
  5
39F
330
1F
100
AcDbEntity
  8
TEXT
100
AcDbCircle
 10
69.76375755454787
 20
3.898571972276137
 30
0.0
 40
0.0074875335580206
100
AcDbArc
 50
60.02231951668154
 51
227.1694577924202
  0
ARC
  5
3A0
330
1F
100
AcDbEntity
  8
TEXT
100
AcDbCircle
 10
69.70006447170645
 20
3.895699777778068
 30
0.0
 40
0.0187005069045984
100
AcDbArc
 50
7.472141028409396
 51
164.1640293291662
  0
LINE
  5
3A1
330
1F
100
AcDbEntity
  8
TEXT
100
AcDbLine
 10
69.6179191380124
 20
3.914158755014403
 30
0.0
 11
69.62148327062953
 21
3.82690015556755
 31
0.0
  0
LINE
  5
3A2
330
1F
100
AcDbEntity
  8
TEXT
100
AcDbLine
 10
69.58940599883864
 20
3.885666149850841
 30
0.0
 11
69.58940599883864
 21
3.916829938681806
 31
0.0
  0
ARC
  5
3A3
330
1F
100
AcDbEntity
  8
TEXT
100
AcDbCircle
 10
69.88869430961574
 20
3.911847594540423
 30
0.0
 40
0.0300701126135258
100
AcDbArc
 50
341.5477100758347
 51
84.99888070834155
  0
LINE
  5
3A4
330
1F
100
AcDbEntity
  8
TEXT
100
AcDbLine
 10
70.08883737413913
 20
4.272524888222839
 30
0.0
 11
70.0904196104509
 21
4.098604598942721
 31
0.0
  0
ARC
  5
3A5
330
1F
100
AcDbEntity
  8
TEXT
100
AcDbCircle
 10
70.14171677433514
 20
4.105990007262368
 30
0.0
 40
0.0518260868541633
100
AcDbArc
 50
188.1927496775747
 51
244.8496170020148
  0
ARC
  5
3A6
330
1F
100
AcDbEntity
  8
TEXT
100
AcDbCircle
 10
69.60352635960182
 20
4.836232120278088
 30
0.0
 40
0.0905784598489114
100
AcDbArc
 50
213.1462108998124
 51
285.6537258536394
  0
ARC
  5
3A7
330
1F
100
AcDbEntity
  8
TEXT
100
AcDbCircle
 10
69.59108477616742
 20
4.552302400935848
 30
0.0
 40
0.3856090945596675
100
AcDbArc
 50
86.31431733544655
 51
93.90381943516557
  0
ARC
  5
3A8
330
1F
100
AcDbEntity
  8
TEXT
100
AcDbCircle
 10
69.59985147760936
 20
4.565420000293051
 30
0.0
 40
0.3987988710058952
100
AcDbArc
 50
84.62122141578794
 51
95.37877858421206
  0
ARC
  5
3A9
330
1F
100
AcDbEntity
  8
TEXT
100
AcDbCircle
 10
69.62911142663818
 20
4.850405620952249
 30
0.0
 40
0.1197688266097961
100
AcDbArc
 50
167.0430028911428
 51
212.130937130944
  0
ARC
  5
3AA
330
1F
100
AcDbEntity
  8
TEXT
100
AcDbCircle
 10
69.61501337789774
 20
4.840092003611893
 30
0.0
 40
0.1091448673447349
100
AcDbArc
 50
117.3722826858102
 51
160.0902491401804
  0
ARC
  5
3AB
330
1F
100
AcDbEntity
  8
TEXT
100
AcDbCircle
 10
69.57610331252756
 20
4.82501592161683
 30
0.0
 40
0.1310983043162969
100
AcDbArc
 50
135.7093780000635
 51
195.2317137751539
  0
ARC
  5
3AC
330
1F
100
AcDbEntity
  8
TEXT
100
AcDbCircle
 10
69.57718614149213
 20
4.843720341646651
 30
0.0
 40
0.1196511698431431
100
AcDbArc
 50
97.06566064011506
 51
142.4986334312254
  0
ARC
  5
3AD
330
1F
100
AcDbEntity
  8
TEXT
100
AcDbCircle
 10
69.70130440411668
 20
4.784840538070218
 30
0.0
 40
0.0124561803706211
100
AcDbArc
 50
3.288025410275718
 51
105.9275278804377
  0
ARC
  5
3AE
330
1F
100
AcDbEntity
  8
TEXT
100
AcDbCircle
 10
69.60434958372927
 20
4.858589764761127
 30
0.0
 40
0.1120927222252192
100
AcDbArc
 50
282.1628426667851
 51
326.5593609179329
  0
ARC
  5
3AF
330
1F
100
AcDbEntity
  8
TEXT
100
AcDbCircle
 10
69.5665432118793
 20
4.866118688647993
 30
0.0
 40
0.1678017612198071
100
AcDbArc
 50
310.2152586008202
 51
331.3072507285889
  0
ARC
  5
3B0
330
1F
100
AcDbEntity
  8
TEXT
100
AcDbCircle
 10
69.58292013456986
 20
4.903017565910338
 30
0.0
 40
0.0474177752828994
100
AcDbArc
 50
16.71684440730609
 51
45.97719400399784
  0
ARC
  5
3B1
330
1F
100
AcDbEntity
  8
TEXT
100
AcDbCircle
 10
69.67451928351393
 20
4.916665518764566
 30
0.0
 40
0.046185345798517
100
AcDbArc
 50
180.010674400693
 51
201.8251852718029
  0
ARC
  5
3B2
330
1F
100
AcDbEntity
  8
TEXT
100
AcDbCircle
 10
69.66648066896428
 20
4.915840097907738
 30
0.0
 40
0.0384802722134761
100
AcDbArc
 50
205.1359642898999
 51
307.6679722285764
  0
ARC
  5
3B3
330
1F
100
AcDbEntity
  8
TEXT
100
AcDbCircle
 10
69.65889790479511
 20
4.910422959401365
 30
0.0
 40
0.0399271801820827
100
AcDbArc
 50
321.1558234807586
 51
36.94217904230053
  0
ARC
  5
3B4
330
1F
100
AcDbEntity
  8
TEXT
100
AcDbCircle
 10
69.62376383255393
 20
4.871530832433457
 30
0.0
 40
0.091924416877587
100
AcDbArc
 50
43.16761867319057
 51
81.57335966331341
  0
ARC
  5
3B5
330
1F
100
AcDbEntity
  8
TEXT
100
AcDbCircle
 10
70.0034696124428
 20
4.79374893626791
 30
0.0
 40
0.0095170105473448
100
AcDbArc
 50
349.2952029716974
 51
131.662690546936
  0
ARC
  5
3B6
330
1F
100
AcDbEntity
  8
TEXT
100
AcDbCircle
 10
69.90149693177277
 20
4.862125577659106
 30
0.0
 40
0.1135862276716573
100
AcDbArc
 50
272.3792098458871
 51
327.3581874363214
  0
ARC
  5
3B7
330
1F
100
AcDbEntity
  8
TEXT
100
AcDbCircle
 10
69.8896703446366
 20
4.837606042812146
 30
0.0
 40
0.0904935239504756
100
AcDbArc
 50
230.8416488637727
 51
280.5326941523482
  0
ARC
  5
3B8
330
1F
100
AcDbEntity
  8
TEXT
100
AcDbCircle
 10
69.91697949129704
 20
4.859897158248621
 30
0.0
 40
0.1252243447630968
100
AcDbArc
 50
179.2959701761241
 51
227.5915484940839
  0
ARC
  5
3B9
330
1F
100
AcDbEntity
  8
TEXT
100
AcDbCircle
 10
69.86660551983232
 20
4.830031968300693
 30
0.0
 40
0.1319485192661753
100
AcDbArc
 50
148.4692011102813
 51
195.5802361373364
  0
ARC
  5
3BA
330
1F
100
AcDbEntity
  8
TEXT
100
AcDbCircle
 10
69.86577850115258
 20
4.833968296087966
 30
0.0
 40
0.1292181297135794
100
AcDbArc
 50
108.54166133208
 51
149.7652339536166
  0
ARC
  5
3BB
330
1F
100
AcDbEntity
  8
TEXT
100
AcDbCircle
 10
69.86727913615458
 20
4.73021936062225
 30
0.0
 40
0.2079657856617219
100
AcDbArc
 50
82.99970676551479
 51
97.00029323448523
  0
ARC
  5
3BC
330
1F
100
AcDbEntity
  8
TEXT
100
AcDbCircle
 10
69.87379965873079
 20
4.885608130653158
 30
0.0
 40
0.0543885643533876
100
AcDbArc
 50
358.1908821763628
 51
69.7495758340293
  0
ARC
  5
3BD
330
1F
100
AcDbEntity
  8
TEXT
100
AcDbCircle
 10
69.85822016462184
 20
4.870911570581347
 30
0.0
 40
0.0677112257424498
100
AcDbArc
 50
103.9179608005984
 51
168.9486088950479
  0
LINE
  5
3BE
330
1F
100
AcDbEntity
  8
TEXT
100
AcDbLine
 10
69.79176459998014
 20
4.883891093673218
 30
0.0
 11
69.92816111305676
 21
4.883891093673218
 31
0.0
  0
ARC
  5
3BF
330
1F
100
AcDbEntity
  8
TEXT
100
AcDbCircle
 10
69.87579401769095
 20
4.785180659574031
 30
0.0
 40
0.1787595523837168
100
AcDbArc
 50
78.15621523985547
 51
106.6122408520358
  0
ARC
  5
3C0
330
1F
100
AcDbEntity
  8
TEXT
100
AcDbCircle
 10
69.90527800428988
 20
4.865829134049667
 30
0.0
 40
0.0945802945625412
100
AcDbArc
 50
357.337623744369
 51
85.63084243886235
  0
LINE
  5
3C1
330
1F
100
AcDbEntity
  8
TEXT
100
AcDbLine
 10
69.79176459998014
 20
4.861435831002943
 30
0.0
 11
69.99975620816717
 21
4.861435831002943
 31
0.0
  0
ARC
  5
3C2
330
1F
100
AcDbEntity
  8
TEXT
100
AcDbCircle
 10
69.45941975854315
 20
5.241805069224703
 30
0.0
 40
0.0135055962967152
100
AcDbArc
 50
305.0065695458966
 51
188.3798152009864
  0
ARC
  5
3C3
330
1F
100
AcDbEntity
  8
TEXT
100
AcDbCircle
 10
69.43119273491892
 20
5.238473829052033
 30
0.0
 40
0.0149279721050864
100
AcDbArc
 50
183.0745908828774
 51
5.238726745824512
  0
ARC
  5
3C4
330
1F
100
AcDbEntity
  8
TEXT
100
AcDbCircle
 10
69.45040773865216
 20
5.155396227692655
 30
0.0
 40
0.019139394018822
100
AcDbArc
 50
146.5485285753443
 51
33.45147142465563
  0
ARC
  5
3C5
330
1F
100
AcDbEntity
  8
TEXT
100
AcDbCircle
 10
69.41978183846017
 20
5.189358636412997
 30
0.0
 40
0.0148416309955998
100
AcDbArc
 50
2.749965920202087
 51
141.7961814814368
  0
LINE
  5
3C6
330
1F
100
AcDbEntity
  8
TEXT
100
AcDbLine
 10
69.46716751878843
 20
5.230742820695971
 30
0.0
 11
69.46637674955373
 21
5.165946445426461
 31
0.0
  0
LINE
  5
3C7
330
1F
100
AcDbEntity
  8
TEXT
100
AcDbLine
 10
69.43460637805647
 20
5.190070701274655
 30
0.0
 11
69.43443872775053
 21
5.165946445426461
 31
0.0
  0
TEXT
  5
3C8
330
1F
100
AcDbEntity
  8
DIMENSION
100
AcDbText
 10
47.92663030267346
 20
53.46216936263208
 30
0.0
 40
1.0
  1
480-400VAC
 72
     1
 11
52.67663030267346
 21
53.96216936263208
 31
0.0
100
AcDbText
 73
     2
  0
TEXT
  5
3C9
330
1F
100
AcDbEntity
  8
DIMENSION
100
AcDbText
 10
48.75995052893042
 20
58.25951853250344
 30
0.0
 40
1.0
  1
IQ1200VXS
 72
     1
 11
52.75995052893042
 21
58.25951853250344
 31
0.0
100
AcDbText
  0
TEXT
  5
3CA
330
1F
100
AcDbEntity
  8
DIMENSION
100
AcDbText
 10
48.75995052893042
 20
54.92618519917011
 30
0.0
 40
1.0
  1
IQ1800VXS
 72
     1
 11
52.75995052893042
 21
54.92618519917011
 31
0.0
100
AcDbText
  0
TEXT
  5
3CB
330
1F
100
AcDbEntity
  8
DIMENSION
100
AcDbText
 10
48.75995052893042
 20
56.59285186583678
 30
0.0
 40
1.0
  1
IQ1500VXS
 72
     1
 11
52.75995052893042
 21
56.59285186583678
 31
0.0
100
AcDbText
  0
TEXT
  5
3D4
330
1F
100
AcDbEntity
  8
TEXT
100
AcDbText
 10
71.72089717770827
 20
4.082791065066054
 30
0.0
 40
0.15625
  1
724-837-2204  *  1-888-867-8234
 72
     1
 11
74.0776680110416
 21
4.160916065066054
 31
0.0
100
AcDbText
 73
     2
  0
TEXT
  5
3D5
330
1F
100
AcDbEntity
  8
TEXT
100
AcDbText
 10
72.02037634437492
 20
5.004666065066068
 30
0.0
 40
0.15625
  1
INDUSTRIAL COOLING EQUIPMENT
 72
     1
 11
74.0776680110416
 21
5.082791065066068
 31
0.0
100
AcDbText
 73
     2
  0
TEXT
  5
3D6
330
1F
100
AcDbEntity
  8
TEXT
100
AcDbText
 10
72.77558467770827
 20
3.770291065066038
 30
0.0
 40
0.15625
  1
FAX  724-837-3386
 72
     1
 11
74.0776680110416
 21
3.848416065066038
 31
0.0
100
AcDbText
 73
     2
  0
TEXT
  5
3D7
330
1F
100
AcDbEntity
  8
TEXT
100
AcDbText
 10
72.80162634437492
 20
4.707791065066054
 30
0.0
 40
0.15625
  1
141 WILSON AVENUE
 72
     1
 11
74.0776680110416
 21
4.785916065066054
 31
0.0
100
AcDbText
 73
     2
  0
TEXT
  5
3D8
330
1F
100
AcDbEntity
  8
TEXT
100
AcDbText
 10
72.56725134437492
 20
4.395291065066054
 30
0.0
 40
0.15625
  1
GREENSBURG, PA  15601
 72
     1
 11
74.0776680110416
 21
4.473416065066054
 31
0.0
100
AcDbText
 73
     2
  0
TEXT
  5
3D9
330
1F
100
AcDbEntity
  8
TEXT
100
AcDbText
 10
71.4800117610416
 20
2.624672356758658
 30
0.0
 40
0.234375
  1
480-400VAC
 72
     1
 11
72.5932930110416
 21
2.741859856758658
 31
0.0
100
AcDbText
 73
     2
  0
LINE
  5
3DA
330
1F
100
AcDbEntity
  8
TEXT
100
AcDbLine
 10
70.74296026171976
 20
4.181156887585038
 30
0.0
 11
70.9509518699068
 21
4.181156887585038
 31
0.0
  0
ARC
  5
3DB
330
1F
100
AcDbEntity
  8
TEXT
100
AcDbCircle
 10
70.85647366602954
 20
4.185550190631808
 30
0.0
 40
0.0945802945625412
100
AcDbArc
 50
357.337623744369
 51
85.63084243886235
  0
ARC
  5
3DC
330
1F
100
AcDbEntity
  8
TEXT
100
AcDbCircle
 10
70.8526925935124
 20
4.181846634241217
 30
0.0
 40
0.1135862276716573
100
AcDbArc
 50
272.3792098458871
 51
327.3581874363214
  0
ARC
  5
3DD
330
1F
100
AcDbEntity
  8
TEXT
100
AcDbCircle
 10
70.81911305980397
 20
4.205698083185545
 30
0.0
 40
0.1866149158157418
100
AcDbArc
 50
254.2847830849396
 51
294.1819270465994
  0
ARC
  5
3DE
330
1F
100
AcDbEntity
  8
TEXT
100
AcDbCircle
 10
70.48339436696095
 20
4.204934994760741
 30
0.0
 40
0.1836856613538935
100
AcDbArc
 50
264.6664639047647
 51
308.6423664458133
  0
ARC
  5
3DF
330
1F
100
AcDbEntity
  8
TEXT
100
AcDbCircle
 10
70.50162808469726
 20
4.173317487924855
 30
0.0
 40
0.0721518704931053
100
AcDbArc
 50
21.58325850317272
 51
95.38396011116694
  0
ARC
  5
3E0
330
1F
100
AcDbEntity
  8
TEXT
100
AcDbCircle
 10
70.52904669672759
 20
4.118742250093383
 30
0.0
 40
0.1637746448834882
100
AcDbArc
 50
71.07988584761956
 51
127.1124618564865
  0
ARC
  5
3E1
330
1F
100
AcDbEntity
  8
TEXT
100
AcDbCircle
 10
70.50345314178988
 20
4.11733569641172
 30
0.0
 40
0.0725374442393223
100
AcDbArc
 50
261.8576121462839
 51
331.2394802847376
  0
ARC
  5
3E2
330
1F
100
AcDbEntity
  8
TEXT
100
AcDbCircle
 10
70.46723788118629
 20
4.17788768999569
 30
0.0
 40
0.1558457845586532
100
AcDbArc
 50
231.6935697703406
 51
269.6626044169122
  0
ARC
  5
3E3
330
1F
100
AcDbEntity
  8
TEXT
100
AcDbCircle
 10
70.4828975506499
 20
4.184351859544371
 30
0.0
 40
0.0619644708011938
100
AcDbArc
 50
78.87075864991586
 51
146.7670066549792
  0
LINE
  5
3E4
330
1F
100
AcDbEntity
  8
TEXT
100
AcDbLine
 10
70.43106743940474
 20
4.218311176527897
 30
0.0
 11
70.43190679058884
 21
4.074046858329088
 31
0.0
  0
LINE
  5
3E5
330
1F
100
AcDbEntity
  8
TEXT
100
AcDbLine
 10
70.32950602436163
 20
4.362575494726748
 30
0.0
 11
70.36475874801629
 21
4.360059253291558
 31
0.0
  0
LINE
  5
3E6
330
1F
100
AcDbEntity
  8
TEXT
100
AcDbLine
 10
70.32782732199341
 20
4.381027895829923
 30
0.0
 11
70.32950602436163
 21
4.362575494726748
 31
0.0
  0
ARC
  5
3E7
330
1F
100
AcDbEntity
  8
TEXT
100
AcDbCircle
 10
70.30436472899173
 20
4.76025418161516
 30
0.0
 40
0.3799514036042447
100
AcDbArc
 50
273.5403564160214
 51
289.0758016785419
  0
LINE
  5
3E8
330
1F
100
AcDbEntity
  8
TEXT
100
AcDbLine
 10
70.42853998307156
 20
4.401167039858369
 30
0.0
 11
70.43022811429954
 21
4.249344784807012
 31
0.0
  0
LINE
  5
3E9
330
1F
100
AcDbEntity
  8
TEXT
100
AcDbLine
 10
70.36475874801629
 20
4.360059253291558
 30
0.0
 11
70.37063420630516
 21
4.055594441759502
 31
0.0
  0
ARC
  5
3EA
330
1F
100
AcDbEntity
  8
TEXT
100
AcDbCircle
 10
70.30807155647669
 20
3.848411754060883
 30
0.0
 40
0.1973247184719365
100
AcDbArc
 50
88.1895659998752
 51
113.1652090520224
  0
ARC
  5
3EB
330
1F
100
AcDbEntity
  8
TEXT
100
AcDbCircle
 10
70.22081528244526
 20
4.032759353338015
 30
0.0
 40
0.0100684028850535
100
AcDbArc
 50
201.7006027724375
 51
343.0678677067628
  0
LINE
  5
3EC
330
1F
100
AcDbEntity
  8
TEXT
100
AcDbLine
 10
70.21066930935139
 20
4.059077270312206
 30
0.0
 11
70.21146044054672
 21
4.029036495603795
 31
0.0
  0
ARC
  5
3ED
330
1F
100
AcDbEntity
  8
TEXT
100
AcDbCircle
 10
70.19857218529668
 20
4.240913670318072
 30
0.0
 40
0.0122648247632313
100
AcDbArc
 50
337.1943218370272
 51
115.6412778855146
  0
LINE
  5
3EE
330
1F
100
AcDbEntity
  8
TEXT
100
AcDbLine
 10
70.21066930935139
 20
4.085165316797521
 30
0.0
 11
70.20987820423504
 21
4.236159739077542
 31
0.0
  0
LINE
  5
3EF
330
1F
100
AcDbEntity
  8
TEXT
100
AcDbLine
 10
70.16478456062761
 20
4.253551764912264
 30
0.0
 11
70.19326476208049
 21
4.251970667436473
 31
0.0
  0
LINE
  5
3F0
330
1F
100
AcDbEntity
  8
TEXT
100
AcDbLine
 10
70.16557566574394
 20
4.268572159999671
 30
0.0
 11
70.16478456062761
 21
4.253551764912264
 31
0.0
  0
LINE
  5
3F1
330
1F
100
AcDbEntity
  8
TEXT
100
AcDbLine
 10
70.26683858106186
 20
4.272524888222839
 30
0.0
 11
70.26842081737361
 21
4.093070773243788
 31
0.0
  0
LINE
  5
3F2
330
1F
100
AcDbEntity
  8
TEXT
100
AcDbLine
 10
70.16557566574394
 20
4.268572159999671
 30
0.0
 11
70.26683858106186
 21
4.272524888222839
 31
0.0
  0
ARC
  5
3F3
330
1F
100
AcDbEntity
  8
TEXT
100
AcDbCircle
 10
70.47887184184009
 20
4.094872230918658
 30
0.0
 40
0.0513752098052219
100
AcDbArc
 50
203.9135879631563
 51
286.1701931802543
  0
ARC
  5
3F4
330
1F
100
AcDbEntity
  8
TEXT
100
AcDbCircle
 10
70.28844594572404
 20
4.084153533811296
 30
0.0
 40
0.0219208331170951
100
AcDbArc
 50
155.9964711746289
 51
271.4218156194853
  0
LINE
  5
3F5
330
1F
100
AcDbEntity
  8
TEXT
100
AcDbLine
 10
70.31588780240914
 20
4.063820547273245
 30
0.0
 11
70.28898986334686
 21
4.062239449797437
 31
0.0
  0
LINE
  5
3F6
330
1F
100
AcDbEntity
  8
TEXT
100
AcDbLine
 10
70.31430559217628
 20
4.045637972700625
 30
0.0
 11
70.31588780240914
 21
4.063820547273245
 31
0.0
  0
ARC
  5
3F7
330
1F
100
AcDbEntity
  8
TEXT
100
AcDbCircle
 10
70.82698967943058
 20
4.104901716156142
 30
0.0
 40
0.1787595523837168
100
AcDbArc
 50
78.15621523985547
 51
106.6122408520358
  0
LINE
  5
3F8
330
1F
100
AcDbEntity
  8
TEXT
100
AcDbLine
 10
70.74296026171976
 20
4.203612150255374
 30
0.0
 11
70.87935677479639
 21
4.203612150255374
 31
0.0
  0
ARC
  5
3F9
330
1F
100
AcDbEntity
  8
TEXT
100
AcDbCircle
 10
70.80941582636146
 20
4.190632627163502
 30
0.0
 40
0.0677112257424498
100
AcDbArc
 50
103.9179608005984
 51
168.9486088950479
  0
ARC
  5
3FA
330
1F
100
AcDbEntity
  8
TEXT
100
AcDbCircle
 10
70.82499532047042
 20
4.205329187235314
 30
0.0
 40
0.0543885643533876
100
AcDbArc
 50
358.1908821763628
 51
69.7495758340293
  0
ARC
  5
3FB
330
1F
100
AcDbEntity
  8
TEXT
100
AcDbCircle
 10
70.8184747978942
 20
4.049940417204388
 30
0.0
 40
0.2079657856617219
100
AcDbArc
 50
82.99970676551479
 51
97.00029323448523
  0
ARC
  5
3FC
330
1F
100
AcDbEntity
  8
TEXT
100
AcDbCircle
 10
70.8169741628922
 20
4.153689352670118
 30
0.0
 40
0.1292181297135794
100
AcDbArc
 50
108.54166133208
 51
149.7652339536166
  0
ARC
  5
3FD
330
1F
100
AcDbEntity
  8
TEXT
100
AcDbCircle
 10
70.81780118157202
 20
4.149753024882834
 30
0.0
 40
0.1319485192661753
100
AcDbArc
 50
148.4692011102813
 51
195.5802361373364
  0
ARC
  5
3FE
330
1F
100
AcDbEntity
  8
TEXT
100
AcDbCircle
 10
70.81536034840904
 20
4.145821612359377
 30
0.0
 40
0.1285795811377622
100
AcDbArc
 50
194.184739356817
 51
248.6586767321129
  0
ARC
  5
3FF
330
1F
100
AcDbEntity
  8
TEXT
100
AcDbCircle
 10
70.86817515303667
 20
4.179618214830718
 30
0.0
 40
0.1252243447630968
100
AcDbArc
 50
179.2959701761241
 51
227.5915484940839
  0
ARC
  5
400
330
1F
100
AcDbEntity
  8
TEXT
100
AcDbCircle
 10
70.84086600637623
 20
4.157327099394301
 30
0.0
 40
0.0904935239504756
100
AcDbArc
 50
230.8416488637727
 51
280.5326941523482
  0
ARC
  5
401
330
1F
100
AcDbEntity
  8
TEXT
100
AcDbCircle
 10
70.50484667207276
 20
4.164276429068967
 30
0.0
 40
0.138801672189514
100
AcDbArc
 50
312.2086974257852
 51
3.264333629957774
  0
ARC
  5
402
330
1F
100
AcDbEntity
  8
TEXT
100
AcDbCircle
 10
70.49597212043541
 20
4.148657222488417
 30
0.0
 40
0.088960611637759
100
AcDbArc
 50
343.5952529167626
 51
35.13836089167874
  0
ARC
  5
403
330
1F
100
AcDbEntity
  8
TEXT
100
AcDbCircle
 10
70.52916714715654
 20
4.172439675944736
 30
0.0
 40
0.1142562801072371
100
AcDbArc
 50
359.86985641929
 51
62.37231490188333
  0
ARC
  5
404
330
1F
100
AcDbEntity
  8
TEXT
100
AcDbCircle
 10
70.50037704340055
 20
4.128605999555084
 30
0.0
 40
0.0810929943736197
100
AcDbArc
 50
325.2939034707337
 51
356.4132772462207
  0
ARC
  5
405
330
1F
100
AcDbEntity
  8
TEXT
100
AcDbCircle
 10
70.83426171043844
 20
4.159353201881549
 30
0.0
 40
0.1382279414268217
100
AcDbArc
 50
296.3233923707219
 51
339.8348331475795
  0
ARC
  5
406
330
1F
100
AcDbEntity
  8
TEXT
100
AcDbCircle
 10
70.95466527418243
 20
4.113469992850048
 30
0.0
 40
0.0095170105473448
100
AcDbArc
 50
349.2952029716974
 51
131.662690546936
  0
LINE
  5
407
330
1F
100
AcDbEntity
  8
BORDER
100
AcDbLine
 10
74.92491829935992
 20
2.465603565066054
 30
0.0
 11
74.92491829935992
 21
1.159466366712386
 31
0.0
  0
TEXT
  5
408
330
1F
100
AcDbEntity
  8
TEXT
100
AcDbText
 10
75.57333602542487
 20
1.382847465889234
 30
0.0
 40
0.625
  1
3
 72
     1
 11
75.7816693587582
 21
1.695347465889234
 31
0.0
100
AcDbText
 73
     2
  0
TEXT
  5
9A0
330
1F
100
AcDbEntity
  8
TEXT
100
AcDbText
 10
43.80456042233777
 20
2.784466366712441
 30
0.0
 40
0.25
  1
JJH
 72
     1
 11
44.1378937556711
 21
2.909466366712441
 31
0.0
100
AcDbText
 73
     2
  0
TEXT
  5
9A1
330
1F
100
AcDbEntity
  8
TEXT
100
AcDbText
 10
41.04014213270877
 20
2.784466366712441
 30
0.0
 40
0.25
  1
6-23-11
 72
     1
 11
41.79014213270877
 21
2.909466366712441
 31
0.0
100
AcDbText
 73
     2
  0
TEXT
  5
9A2
330
1F
100
AcDbEntity
  8
TEXT
100
AcDbText
 10
30.62868379937555
 20
2.784466366712441
 30
0.0
 40
0.25
  1
ADDED FUSE BLOCK CUTOUT & ETHERNET PORT
 72
     1
 11
35.46201713270888
 21
2.909466366712441
 31
0.0
100
AcDbText
 73
     2
  0
TEXT
  5
9A3
330
1F
100
AcDbEntity
  8
TEXT
100
AcDbText
 10
29.64535046604212
 20
2.784466366712441
 30
0.0
 40
0.25
  1
1
 72
     1
 11
29.68701713270879
 21
2.909466366712441
 31
0.0
100
AcDbText
 73
     2
  0
LINE
  5
9A4
330
1F
100
AcDbEntity
  8
BORDER
100
AcDbLine
 10
45.38564537863339
 20
3.159466366712498
 30
0.0
 11
29.14014213270879
 21
3.159466366712498
 31
0.0
  0
LINE
  5
B54
330
1F
100
AcDbEntity
  8
TEMPLATE
  6
DASHDOT
100
AcDbLine
 10
56.07107783139032
 20
10.63677501034568
 30
0.0
 11
56.07107783139037
 21
44.666775010346
 31
0.0
  0
LINE
  5
B55
330
1F
100
AcDbEntity
  8
TEMPLATE
  6
DASHDOT
100
AcDbLine
 10
49.57107783139036
 20
44.66677501034588
 30
0.0
 11
49.57107783139043
 21
10.63677501034568
 31
0.0
  0
CIRCLE
  5
B56
330
1F
100
AcDbEntity
  8
TEMPLATE
100
AcDbCircle
 10
50.3220778313904
 20
30.04227501034576
 30
0.0
 40
0.1875
  0
CIRCLE
  5
B57
330
1F
100
AcDbEntity
  8
TEMPLATE
100
AcDbCircle
 10
55.3220778313904
 20
30.04227501034576
 30
0.0
 40
0.1875
  0
CIRCLE
  5
B58
330
1F
100
AcDbEntity
  8
TEMPLATE
100
AcDbCircle
 10
50.3220778313904
 20
20.04227501034576
 30
0.0
 40
0.1875
  0
CIRCLE
  5
B59
330
1F
100
AcDbEntity
  8
TEMPLATE
100
AcDbCircle
 10
55.3220778313904
 20
20.04227501034576
 30
0.0
 40
0.1875
  0
LINE
  5
B5A
330
1F
100
AcDbEntity
  8
TEMPLATE
  6
DASHDOT
100
AcDbLine
 10
56.07107783139037
 20
44.666775010346
 30
0.0
 11
49.57107783139036
 21
44.66677501034588
 31
0.0
  0
CIRCLE
  5
B5B
330
1F
100
AcDbEntity
  8
TEMPLATE
100
AcDbCircle
 10
50.3220778313904
 20
43.79177501034589
 30
0.0
 40
0.1875
  0
CIRCLE
  5
B5C
330
1F
100
AcDbEntity
  8
TEMPLATE
100
AcDbCircle
 10
55.3220778313904
 20
43.79177501034589
 30
0.0
 40
0.1875
  0
CIRCLE
  5
B5D
330
1F
100
AcDbEntity
  8
TEMPLATE
100
AcDbCircle
 10
50.3220778313904
 20
37.79227501034576
 30
0.0
 40
0.1875
  0
CIRCLE
  5
B5E
330
1F
100
AcDbEntity
  8
TEMPLATE
100
AcDbCircle
 10
55.3220778313904
 20
37.79227501034576
 30
0.0
 40
0.1875
  0
CIRCLE
  5
B5F
330
1F
100
AcDbEntity
  8
TEMPLATE
100
AcDbCircle
 10
52.8220778313904
 20
40.93677501034586
 30
0.0
 40
3.0
  0
LINE
  5
B60
330
1F
100
AcDbEntity
  8
TEMPLATE
100
AcDbLine
 10
51.1540778313904
 20
36.7317750103456
 30
0.0
 11
51.1540778313904
 21
31.20677501034585
 31
0.0
  0
LINE
  5
B61
330
1F
100
AcDbEntity
  8
TEMPLATE
100
AcDbLine
 10
51.1540778313904
 20
36.7317750103456
 30
0.0
 11
55.60407783139038
 21
36.7317750103456
 31
0.0
  0
LINE
  5
B62
330
1F
100
AcDbEntity
  8
TEMPLATE
100
AcDbLine
 10
55.60407783139038
 20
36.7317750103456
 30
0.0
 11
55.60407783139044
 21
31.20677501034585
 31
0.0
  0
LINE
  5
B63
330
1F
100
AcDbEntity
  8
TEMPLATE
100
AcDbLine
 10
55.60407783139044
 20
31.20677501034585
 30
0.0
 11
51.1540778313904
 21
31.20677501034585
 31
0.0
  0
DIMENSION
  5
B64
330
1F
100
AcDbEntity
  8
DIMENSION
100
AcDbDimension
  2
*D123
 10
49.57107090709199
 20
10.63677501034568
 30
0.0
 11
45.23107783139039
 21
10.63677501034568
 31
0.0
 70
    38
 71
     5
 42
0.0
  3
Standard
100
AcDbOrdinateDimension
 13
49.57107783139076
 23
10.63677501034568
 33
0.0
 14
46.57107783139039
 24
10.63677501034568
 34
0.0
  0
DIMENSION
  5
B65
330
1F
100
AcDbEntity
  8
DIMENSION
100
AcDbDimension
  2
*D124
 10
49.57107090709199
 20
10.63677501034568
 30
0.0
 11
49.57107783139043
 21
6.296775010345638
 31
0.0
 70
   102
 71
     5
 42
0.0
  3
Standard
100
AcDbOrdinateDimension
 13
49.57107090709199
 23
10.63677501034568
 33
0.0
 14
49.57107783139043
 24
7.63677501034563
 34
0.0
  0
DIMENSION
  5
B66
330
1F
100
AcDbEntity
  8
DIMENSION
100
AcDbDimension
  2
*D125
 10
49.57107783139076
 20
10.63677501034568
 30
0.0
 11
45.04357783139036
 21
20.04227501034576
 31
0.0
 70
    38
 71
     5
 42
9.405500000000075
  3
Standard
100
AcDbOrdinateDimension
 13
50.3220778313904
 23
20.04227501034576
 33
0.0
 14
46.57107783139037
 24
20.04227501034576
 34
0.0
  0
DIMENSION
  5
B67
330
1F
100
AcDbEntity
  8
DIMENSION
100
AcDbDimension
  2
*D126
 10
49.57107783139076
 20
10.63677501034568
 30
0.0
 11
60.84857783139032
 21
26.16677501034589
 31
0.0
 70
    38
 71
     5
 42
15.5300000000002
  3
Standard
100
AcDbOrdinateDimension
 13
54.5720778313904
 23
26.16677501034589
 33
0.0
 14
59.07107783139031
 24
26.16677501034589
 34
0.0
  0
DIMENSION
  5
B68
330
1F
100
AcDbEntity
  8
DIMENSION
100
AcDbDimension
  2
*D127
 10
49.57107783139076
 20
10.63677501034568
 30
0.0
 11
44.79357783139036
 21
30.04227501034576
 31
0.0
 70
    38
 71
     5
 42
19.40550000000007
  3
Standard
100
AcDbOrdinateDimension
 13
50.3220778313904
 23
30.04227501034576
 33
0.0
 14
46.57107783139037
 24
30.04227501034576
 34
0.0
  0
DIMENSION
  5
B69
330
1F
100
AcDbEntity
  8
DIMENSION
100
AcDbDimension
  2
*D128
 10
49.57107783139076
 20
10.63677501034568
 30
0.0
 11
51.15407783139039
 21
17.74927501034576
 31
0.0
 70
   102
 71
     5
 42
1.582999999999621
  3
Standard
100
AcDbOrdinateDimension
 13
51.1540778313904
 23
31.20677501034585
 33
0.0
 14
51.1540778313904
 24
19.21427501034576
 34
0.0
  0
DIMENSION
  5
B6A
330
1F
100
AcDbEntity
  8
DIMENSION
100
AcDbDimension
  2
*D129
 10
49.57107783139076
 20
10.63677501034568
 30
0.0
 11
56.75417409810546
 21
5.824275010345623
 31
0.0
 70
   230
 71
     5
 42
6.032999999999667
  3
Standard
100
AcDbOrdinateDimension
 13
55.60407783139044
 23
31.20677501034585
 33
0.0
 14
56.75417409810546
 24
7.351775010345614
 34
0.0
  0
DIMENSION
  5
B6B
330
1F
100
AcDbEntity
  8
DIMENSION
100
AcDbDimension
  2
*D130
 10
49.57107783139076
 20
10.63677501034568
 30
0.0
 11
60.91107783139031
 21
31.20677501034585
 31
0.0
 70
    38
 71
     5
 42
20.57000000000016
  3
Standard
100
AcDbOrdinateDimension
 13
55.60407783139044
 23
31.20677501034585
 33
0.0
 14
59.07107783139031
 24
31.20677501034585
 34
0.0
  0
DIMENSION
  5
B6C
330
1F
100
AcDbEntity
  8
DIMENSION
100
AcDbDimension
  2
*D131
 10
49.57107783139076
 20
10.63677501034568
 30
0.0
 11
60.97357783139031
 21
36.7317750103456
 31
0.0
 70
    38
 71
     5
 42
26.09499999999992
  3
Standard
100
AcDbOrdinateDimension
 13
55.60407783139038
 23
36.7317750103456
 33
0.0
 14
59.07107783139031
 24
36.7317750103456
 34
0.0
  0
DIMENSION
  5
B6D
330
1F
100
AcDbEntity
  8
DIMENSION
100
AcDbDimension
  2
*D132
 10
49.57107783139076
 20
10.63677501034568
 30
0.0
 11
44.73107783139036
 21
37.79227501034576
 31
0.0
 70
    38
 71
     5
 42
27.15550000000007
  3
Standard
100
AcDbOrdinateDimension
 13
50.3220778313904
 23
37.79227501034576
 33
0.0
 14
46.57107783139037
 24
37.79227501034576
 34
0.0
  0
DIMENSION
  5
B6E
330
1F
100
AcDbEntity
  8
DIMENSION
100
AcDbDimension
  2
*D133
 10
49.57107783139076
 20
10.63677501034568
 30
0.0
 11
60.84857783139032
 21
40.93677501034586
 31
0.0
 70
    38
 71
     5
 42
30.30000000000018
  3
Standard
100
AcDbOrdinateDimension
 13
52.8220778313904
 23
40.93677501034586
 33
0.0
 14
59.07107783139031
 24
40.93677501034586
 34
0.0
  0
DIMENSION
  5
B6F
330
1F
100
AcDbEntity
  8
DIMENSION
100
AcDbDimension
  2
*D134
 10
49.57107783139076
 20
10.63677501034568
 30
0.0
 11
44.73107783139036
 21
43.79177501034589
 31
0.0
 70
    38
 71
     5
 42
33.1550000000002
  3
Standard
100
AcDbOrdinateDimension
 13
50.3220778313904
 23
43.79177501034589
 33
0.0
 14
46.57107783139037
 24
43.79177501034589
 34
0.0
  0
DIMENSION
  5
B70
330
1F
100
AcDbEntity
  8
DIMENSION
100
AcDbDimension
  2
*D135
 10
49.57107783139076
 20
10.63677501034568
 30
0.0
 11
60.91107783139031
 21
44.666775010346
 31
0.0
 70
    38
 71
     5
 42
34.03000000000031
  3
Standard
100
AcDbOrdinateDimension
 13
56.07107783139037
 23
44.666775010346
 33
0.0
 14
59.07107783139031
 24
44.666775010346
 34
0.0
  0
DIMENSION
  5
B71
330
1F
100
AcDbEntity
  8
DIMENSION
100
AcDbDimension
  2
*D136
 10
49.57107783139076
 20
10.63677501034568
 30
0.0
 11
50.32207783139039
 21
49.1317750103459
 31
0.0
 70
   102
  1
0.750
 71
     5
 42
0.7509999999996282
  3
Standard
100
AcDbOrdinateDimension
 13
50.3220778313904
 23
43.79177501034589
 33
0.0
 14
50.3220778313904
 24
47.66677501034588
 34
0.0
  0
DIMENSION
  5
B72
330
1F
100
AcDbEntity
  8
DIMENSION
100
AcDbDimension
  2
*D137
 10
49.57107783139076
 20
10.63677501034568
 30
0.0
 11
52.82207783139039
 21
49.1942750103459
 31
0.0
 70
   102
  1
3.250
 71
     5
 42
3.250999999999628
  3
Standard
100
AcDbOrdinateDimension
 13
52.8220778313904
 23
40.93677501034586
 33
0.0
 14
52.8220778313904
 24
47.66677501034588
 34
0.0
  0
DIMENSION
  5
B73
330
1F
100
AcDbEntity
  8
DIMENSION
100
AcDbDimension
  2
*D138
 10
49.57107783139076
 20
10.63677501034568
 30
0.0
 11
55.07107783139036
 21
49.1942750103459
 31
0.0
 70
   102
  1
5.750
 71
     5
 42
5.750999999999628
  3
Standard
100
AcDbOrdinateDimension
 13
55.3220778313904
 23
43.79177501034589
 33
0.0
 14
55.07107783139037
 24
47.66677501034588
 34
0.0
  0
DIMENSION
  5
B74
330
1F
100
AcDbEntity
  8
DIMENSION
100
AcDbDimension
  2
*D139
 10
49.57107783139076
 20
10.63677501034568
 30
0.0
 11
56.07107783139036
 21
49.1317750103459
 31
0.0
 70
   102
 71
     5
 42
6.499999999999594
  3
Standard
100
AcDbOrdinateDimension
 13
56.07107783139037
 23
44.666775010346
 33
0.0
 14
56.07107783139037
 24
47.66677501034588
 34
0.0
  0
LEADER
  5
B75
330
1F
100
AcDbEntity
  8
DIMENSION
100
AcDbLeader
  3
Standard
 73
     0
 40
0.75
 41
5.624999999999998
 76
     3
 10
51.98767707510764
 20
40.6733354956281
 30
0.0
 10
48.07107783139037
 20
39.43677501034587
 30
0.0
 10
46.57107783139037
 20
39.43677501034587
 30
0.0
213
0.0
223
0.375
233
0.0
1001
ACAD
1000
DSTYLE
1002
{
1070
   147
1040
0.375
1070
    77
1070
     0
1002
}
  0
MTEXT
  5
B76
102
{ACAD_REACTORS
330
B75
102
}
330
1F
100
AcDbEntity
  8
DIMENSION
100
AcDbMText
 10
46.19607783139037
 20
39.06177501034587
 30
0.0
 40
0.75
 41
0.0
 71
     9
 72
     1
  1
%%C6.000 (1)
 73
     1
 44
1.0
  0
LEADER
  5
B77
330
1F
100
AcDbEntity
  8
DIMENSION
100
AcDbLeader
  3
Standard
 73
     0
 40
0.7500000000000002
 41
6.125
 76
     3
 10
50.01001632145417
 20
20.25022359537658
 30
0.0
 10
48.07107783139037
 20
21.54227501034576
 30
0.0
 10
46.57107783139037
 20
21.54227501034576
 30
0.0
213
0.0
223
0.375
233
0.0
1001
ACAD
1000
DSTYLE
1002
{
1070
   147
1040
0.375
1070
    77
1070
     0
1002
}
  0
MTEXT
  5
B78
102
{ACAD_REACTORS
330
B77
102
}
330
1F
100
AcDbEntity
  8
DIMENSION
100
AcDbMText
 10
46.19607783139037
 20
21.16727501034576
 30
0.0
 40
0.75
 41
0.0
 71
     9
 72
     1
  1
%%C0.375 (8)
 73
     1
 44
1.0
  0
DIMENSION
  5
B79
330
1F
100
AcDbEntity
  8
DIMENSION
100
AcDbDimension
  2
*D140
 10
49.57107783139076
 20
10.63677501034568
 30
0.0
 11
54.5720778313904
 21
17.58927501034576
 31
0.0
 70
   230
 71
     5
 42
5.000999999999628
  3
Standard
100
AcDbOrdinateDimension
 13
54.5720778313904
 23
24.66677501034589
 33
0.0
 14
54.57207783139041
 24
18.92927501034575
 34
0.0
  0
DIMENSION
  5
B7A
330
1F
100
AcDbEntity
  8
0
100
AcDbDimension
  2
*D141
 10
49.57107783139076
 20
10.63677501034568
 30
0.0
 11
60.72715323450298
 21
24.66677501034589
 31
0.0
 70
    38
 71
     5
 42
14.0300000000002
  3
Standard
100
AcDbOrdinateDimension
 13
54.5720778313904
 23
24.66677501034589
 33
0.0
 14
59.01215323450298
 24
24.66677501034589
 34
0.0
  0
LINE
  5
B7E
330
1F
100
AcDbEntity
  8
TEMPLATE
  6
DASHDOT
100
AcDbLine
 10
56.07107783139054
 20
10.63677501034568
 30
0.0
 11
49.57107783139076
 21
10.63677501034568
 31
0.0
  0
DIMENSION
  5
B80
330
1F
100
AcDbEntity
  8
0
100
AcDbDimension
  2
*D142
 10
49.57107090709199
 20
10.63677501034568
 30
0.0
 11
45.16810629297001
 21
14.46436469515983
 31
0.0
 70
    38
 71
     5
 42
3.82758968481415
  3
Standard
100
AcDbOrdinateDimension
 13
53.13623467534448
 23
14.46436469515983
 33
0.0
 14
46.75810629297001
 24
14.46436469515983
 34
0.0
  0
DIMENSION
  5
B81
330
1F
100
AcDbEntity
  8
0
100
AcDbDimension
  2
*D143
 10
49.57107090709199
 20
10.63677501034568
 30
0.0
 11
45.32330612757423
 21
11.82719176939751
 31
0.0
 70
    38
 71
     5
 42
0.7025896848141393
  3
Standard
100
AcDbOrdinateDimension
 13
53.13623467534448
 23
11.33936469515982
 33
0.0
 14
46.78830612757423
 24
11.82719176939751
 34
0.0
  0
CIRCLE
  5
B82
330
1F
100
AcDbEntity
  8
0
100
AcDbCircle
 10
52.0720778313904
 20
26.91677501034589
 30
0.0
 40
0.625
  0
CIRCLE
  5
B83
330
1F
100
AcDbEntity
  8
0
100
AcDbCircle
 10
54.5720778313904
 20
26.16677501034589
 30
0.0
 40
0.625
  0
CIRCLE
  5
B84
330
1F
100
AcDbEntity
  8
0
100
AcDbCircle
 10
54.5720778313904
 20
24.66677501034589
 30
0.0
 40
0.625
  0
DIMENSION
  5
B85
330
1F
100
AcDbEntity
  8
0
100
AcDbDimension
  2
*D144
 10
54.18683097343787
 20
25.15892321814279
 30
0.0
 11
61.9567575725544
 21
20.34288752315558
 31
0.0
 70
   163
  1
<> (1)\POPTIONAL:\PEXTERNAL \PHEAT \POUTPUT
 71
     5
 42
1.249999999999985
  3
Standard
100
AcDbDiametricDimension
 15
54.95732468934291
 25
24.17462680254898
 35
0.0
 40
0.0
  0
DIMENSION
  5
B86
330
1F
100
AcDbEntity
  8
0
100
AcDbDimension
  2
*D145
 10
54.12382231894881
 20
25.73123856460835
 30
0.0
 11
63.6218645856154
 21
29.49438484211231
 31
0.0
 70
   163
  1
<>\PPOWER SUPPLY
 71
     5
 42
1.250000000000014
  3
Standard
100
AcDbDiametricDimension
 15
55.02033334383204
 25
26.60231145608348
 35
0.0
 40
0.0
  0
DIMENSION
  5
B87
330
1F
100
AcDbEntity
  8
0
100
AcDbDimension
  2
*D146
 10
52.65575169157587
 20
27.14026958508142
 30
0.0
 11
42.52341959462268
 21
25.6536856892137
 31
0.0
 70
   163
  1
<>\POPTIONAL:\PETHERNET/ALARM \PCONNECTION \PPORT
 71
     3
 42
1.250000000000035
  3
Standard
100
AcDbDiametricDimension
 15
51.48840397120494
 25
26.69328043561036
 35
0.0
 40
0.0
  0
DIMENSION
  5
B88
330
1F
100
AcDbEntity
  8
0
100
AcDbDimension
  2
*D147
 10
49.57107090709199
 20
10.63677501034568
 30
0.0
 11
52.57465409433865
 21
17.57728148111694
 31
0.0
 70
   102
 71
     5
 42
2.501006924298401
  3
Standard
100
AcDbOrdinateDimension
 13
52.0720778313904
 23
26.91677501034589
 33
0.0
 14
52.57465409433866
 24
18.97978148111693
 34
0.0
  0
DIMENSION
  5
B89
330
1F
100
AcDbEntity
  8
0
100
AcDbDimension
  2
*D148
 10
49.57107090709199
 20
10.63677501034568
 30
0.0
 11
60.77287755752903
 21
27.15853288644187
 31
0.0
 70
    38
 71
     5
 42
16.2800000000002
  3
Standard
100
AcDbOrdinateDimension
 13
52.0720778313904
 23
26.91677501034589
 33
0.0
 14
58.99537755752902
 24
27.15853288644187
 34
0.0
  0
LINE
  5
B8E
330
1F
100
AcDbEntity
  8
0
100
AcDbLine
 39
0.4375
 10
49.57107783139122
 20
14.66677501034588
 30
0.0
 11
49.57107783139076
 21
10.63677501034568
 31
0.0
  0
LINE
  5
B8F
330
1F
100
AcDbEntity
  8
DIMENSION
100
AcDbLine
 10
56.07107783139099
 20
10.63677501034569
 30
0.0
 11
49.57107783139099
 21
10.63677501034569
 31
0.0
  0
DIMENSION
  5
B90
330
1F
100
AcDbEntity
  8
DIMENSION
100
AcDbDimension
  2
*D149
 10
49.57107090709199
 20
10.63677501034568
 30
0.0
 11
53.13714651862384
 21
6.339928058216586
 31
0.0
 70
   230
 71
     5
 42
3.565163768252489
  3
Standard
100
AcDbOrdinateDimension
 13
53.13623467534448
 23
11.33936469515982
 33
0.0
 14
53.13714651862384
 24
7.929928058216582
 34
0.0
  0
DIMENSION
  5
B91
330
1F
100
AcDbEntity
  8
DIMENSION
100
AcDbDimension
  2
*D150
 10
49.57107090709199
 20
10.63677501034568
 30
0.0
 11
55.16046662723015
 21
6.339928058216579
 31
0.0
 70
   230
 71
     5
 42
5.845163768252689
  3
Standard
100
AcDbOrdinateDimension
 13
55.41623467534468
 23
11.33936469515982
 33
0.0
 14
55.16046662723015
 24
7.929928058216582
 34
0.0
  0
LINE
  5
DCD
330
1F
100
AcDbEntity
  8
BORDER
100
AcDbLine
 10
45.38564537863339
 20
4.159466366712583
 30
0.0
 11
29.14014213270879
 21
4.159466366712583
 31
0.0
  0
TEXT
  5
DCE
330
1F
100
AcDbEntity
  8
TEXT
100
AcDbText
 10
29.60368379937546
 20
3.784466366712526
 30
0.0
 40
0.25
  1
2
 72
     1
 11
29.68701713270879
 21
3.909466366712526
 31
0.0
100
AcDbText
 73
     2
  0
TEXT
  5
DCF
330
1F
100
AcDbEntity
  8
TEXT
100
AcDbText
 10
30.67035046604221
 20
3.784466366712526
 30
0.0
 40
0.25
  1
ADDED ALARM TO ETHERNET CONNECTION PORT
 72
     1
 11
35.46201713270888
 21
3.909466366712526
 31
0.0
100
AcDbText
 73
     2
  0
TEXT
  5
DD0
330
1F
100
AcDbEntity
  8
TEXT
100
AcDbText
 10
43.80456042233777
 20
3.784466366712526
 30
0.0
 40
0.25
  1
JJH
 72
     1
 11
44.1378937556711
 21
3.909466366712526
 31
0.0
100
AcDbText
 73
     2
  0
TEXT
  5
DD1
330
1F
100
AcDbEntity
  8
TEXT
100
AcDbText
 10
41.12347546604211
 20
3.784466366712526
 30
0.0
 40
0.25
  1
4-5-12
 72
     1
 11
41.79014213270877
 21
3.909466366712526
 31
0.0
100
AcDbText
 73
     2
  0
TEXT
  5
DD2
330
1F
100
AcDbEntity
  8
TEXT
100
AcDbText
 10
32.58701713270888
 20
3.284466366712484
 30
0.0
 40
0.25
  1
MOVED FUSE BLOCK CUTOUT
 72
     1
 11
35.46201713270888
 21
3.409466366712484
 31
0.0
100
AcDbText
 73
     2
  0
LINE
  5
F70
330
1F
100
AcDbEntity
  8
Washer
100
AcDbLine
 10
53.13623467534448
 20
14.46436469515983
 30
0.0
 11
55.41623467534468
 21
14.46436469515983
 31
0.0
  0
LINE
  5
F71
330
1F
100
AcDbEntity
  8
Washer
100
AcDbLine
 10
53.13623467534448
 20
11.33936469515982
 30
0.0
 11
53.13623467534448
 21
14.46436469515983
 31
0.0
  0
LINE
  5
F72
330
1F
100
AcDbEntity
  8
Washer
100
AcDbLine
 10
53.13623467534448
 20
11.33936469515982
 30
0.0
 11
55.41623467534468
 21
11.33936469515982
 31
0.0
  0
LINE
  5
F73
330
1F
100
AcDbEntity
  8
Washer
100
AcDbLine
 10
55.41623467534468
 20
11.33936469515982
 30
0.0
 11
55.41623467534468
 21
14.46436469515983
 31
0.0
  0
TEXT
  5
F77
330
1F
100
AcDbEntity
  8
TEXT
100
AcDbText
 10
29.60368379937546
 20
4.284466366712568
 30
0.0
 40
0.25
  1
3
 72
     1
 11
29.68701713270879
 21
4.409466366712568
 31
0.0
100
AcDbText
 73
     2
  0
TEXT
  5
F78
330
1F
100
AcDbEntity
  8
TEXT
100
AcDbText
 10
31.58701713270888
 20
4.284466366712568
 30
0.0
 40
0.25
  1
FIXED FUSE BLOCK CUTOUT LOCATION
 72
     1
 11
35.46201713270888
 21
4.409466366712568
 31
0.0
100
AcDbText
 73
     2
  0
TEXT
  5
F79
330
1F
100
AcDbEntity
  8
TEXT
100
AcDbText
 10
40.91514213270877
 20
4.284466366712568
 30
0.0
 40
0.25
  1
08-07-15
 72
     1
 11
41.79014213270877
 21
4.409466366712568
 31
0.0
100
AcDbText
 73
     2
  0
TEXT
  5
F7A
330
1F
100
AcDbEntity
  8
TEXT
100
AcDbText
 10
43.80456042233777
 20
4.284466366712568
 30
0.0
 40
0.25
  1
EAD
 72
     1
 11
44.1378937556711
 21
4.409466366712568
 31
0.0
100
AcDbText
 73
     2
  0
LINE
  5
F7B
330
1F
100
AcDbEntity
  8
BORDER
100
AcDbLine
 10
45.38564537863339
 20
4.659466366712625
 30
0.0
 11
29.14014213270879
 21
4.659466366712625
 31
0.0
  0
ENDSEC
  0
SECTION
  2
OBJECTS
  0
DICTIONARY
  5
C
330
0
100
AcDbDictionary
281
     1
  3
ACAD_COLOR
350
73
  3
ACAD_DETAILVIEWSTYLE
350
F84
  3
ACAD_GROUP
350
D
  3
ACAD_IMAGE_VARS
350
F6F
  3
ACAD_LAYOUT
350
1A
  3
ACAD_MATERIAL
350
72
  3
ACAD_MLEADERSTYLE
350
F82
  3
ACAD_MLINESTYLE
350
17
  3
ACAD_PLOTSETTINGS
350
19
  3
ACAD_PLOTSTYLENAME
350
E
  3
ACAD_SCALELIST
350
F2D
  3
ACAD_SECTIONVIEWSTYLE
350
F85
  3
ACAD_TABLESTYLE
350
F6B
  3
ACDB_RECOMPOSE_DATA
350
F80
  3
AcDbVariableDictionary
350
66
  3
APPDATA
350
F6D
  0
DICTIONARY
  5
12B
330
2
100
AcDbDictionary
280
     1
281
     1
  3
ACAD_LAYERSTATES
360
12C
  0
DICTIONARY
  5
73
102
{ACAD_REACTORS
330
C
102
}
330
C
100
AcDbDictionary
281
     1
  0
DICTIONARY
  5
F84
102
{ACAD_REACTORS
330
C
102
}
330
C
100
AcDbDictionary
281
     1
  0
DICTIONARY
  5
D
102
{ACAD_REACTORS
330
C
102
}
330
C
100
AcDbDictionary
281
     1
  0
RASTERVARIABLES
  5
F6F
102
{ACAD_REACTORS
330
C
102
}
330
C
100
AcDbRasterVariables
 90
        0
 70
     1
 71
     1
 72
     5
  0
DICTIONARY
  5
1A
102
{ACAD_REACTORS
330
C
102
}
330
C
100
AcDbDictionary
281
     1
  3
Layout1
350
59
  3
Layout2
350
5E
  3
Model
350
22
  0
DICTIONARY
  5
72
102
{ACAD_REACTORS
330
C
102
}
330
C
100
AcDbDictionary
281
     1
  3
ByBlock
350
F69
  3
ByLayer
350
F68
  3
Global
350
F6A
  0
DICTIONARY
  5
F82
102
{ACAD_REACTORS
330
C
102
}
330
C
100
AcDbDictionary
281
     1
  0
DICTIONARY
  5
17
102
{ACAD_REACTORS
330
C
102
}
330
C
100
AcDbDictionary
281
     1
  3
Standard
350
18
  0
DICTIONARY
  5
19
102
{ACAD_REACTORS
330
C
102
}
330
C
100
AcDbDictionary
281
     1
  0
ACDBDICTIONARYWDFLT
  5
E
102
{ACAD_REACTORS
330
C
102
}
330
C
100
AcDbDictionary
281
     1
  3
Normal
350
F
100
AcDbDictionaryWithDefault
340
F
  0
DICTIONARY
  5
F2D
102
{ACAD_REACTORS
330
C
102
}
330
C
100
AcDbDictionary
281
     1
  3
A0
350
F2E
  3
A1
350
F2F
  3
A2
350
F30
  3
A3
350
F31
  3
A4
350
F32
  3
A5
350
F33
  3
A6
350
F34
  3
A7
350
F35
  3
A8
350
F36
  3
A9
350
F37
  3
B0
350
F38
  3
B1
350
F39
  3
B2
350
F3A
  3
B3
350
F3B
  3
B4
350
F3C
  3
B5
350
F3D
  3
B6
350
F3E
  3
B7
350
F3F
  3
B8
350
F40
  3
B9
350
F41
  3
C0
350
F42
  3
C1
350
F43
  3
C2
350
F44
  3
C3
350
F45
  3
C4
350
F46
  3
C5
350
F47
  3
C6
350
F48
  3
C7
350
F49
  3
C8
350
F4A
  3
C9
350
F4B
  3
D0
350
F4C
  3
D1
350
F4D
  3
D2
350
F4E
  0
DICTIONARY
  5
F85
102
{ACAD_REACTORS
330
C
102
}
330
C
100
AcDbDictionary
281
     1
  0
DICTIONARY
  5
F6B
102
{ACAD_REACTORS
330
C
102
}
330
C
100
AcDbDictionary
281
     1
  3
Standard
350
F6C
  0
XRECORD
  5
F80
102
{ACAD_REACTORS
330
C
102
}
330
C
100
AcDbXrecord
280
     1
 90
        1
330
F6C
  0
DICTIONARY
  5
66
102
{ACAD_REACTORS
330
C
102
}
330
C
100
AcDbDictionary
281
     1
  3
CANNOSCALE
350
F7C
  3
CTABLESTYLE
350
F81
  3
DIMASSOC
350
67
  3
HIDETEXT
350
6B
  3
MSLTSCALE
350
F83
  3
PROJECTNAME
350
56B
  0
DICTIONARY
  5
F6D
102
{ACAD_REACTORS
330
C
102
}
330
C
100
AcDbDictionary
281
     1
  0
DICTIONARY
  5
12C
102
{ACAD_REACTORS
330
12B
102
}
330
12B
100
AcDbDictionary
281
     1
  3
ARGON_LAYERP_1
350
F76
  0
LAYOUT
  5
59
102
{ACAD_REACTORS
330
1A
102
}
330
1A
100
AcDbPlotSettings
  1

  2
None
  4

  6

 40
0.0
 41
0.0
 42
0.0
 43
0.0
 44
0.0
 45
0.0
 46
0.0
 47
0.0
 48
0.0
 49
0.0
140
0.0
141
0.0
142
1.0
143
1.0
 70
   688
 72
     0
 73
     0
 74
     5
  7

 75
    16
 76
     0
 77
     2
 78
   300
147
1.0
148
0.0
149
0.0
100
AcDbLayout
  1
Layout1
 70
     1
 71
     1
 10
0.0
 20
0.0
 11
12.0
 21
9.0
 12
0.0
 22
0.0
 32
0.0
 14
0.0
 24
0.0
 34
0.0
 15
0.0
 25
0.0
 35
0.0
146
0.0
 13
0.0
 23
0.0
 33
0.0
 16
1.0
 26
0.0
 36
0.0
 17
0.0
 27
1.0
 37
0.0
 76
     0
330
58
  0
LAYOUT
  5
5E
102
{ACAD_REACTORS
330
1A
102
}
330
1A
100
AcDbPlotSettings
  1

  2
None
  4

  6

 40
0.0
 41
0.0
 42
0.0
 43
0.0
 44
0.0
 45
0.0
 46
0.0
 47
0.0
 48
0.0
 49
0.0
140
0.0
141
0.0
142
1.0
143
1.0
 70
   688
 72
     0
 73
     0
 74
     5
  7

 75
    16
 76
     0
 77
     2
 78
   300
147
1.0
148
0.0
149
0.0
100
AcDbLayout
  1
Layout2
 70
     1
 71
     2
 10
0.0
 20
0.0
 11
12.0
 21
9.0
 12
0.0
 22
0.0
 32
0.0
 14
0.0
 24
0.0
 34
0.0
 15
0.0
 25
0.0
 35
0.0
146
0.0
 13
0.0
 23
0.0
 33
0.0
 16
1.0
 26
0.0
 36
0.0
 17
0.0
 27
1.0
 37
0.0
 76
     0
330
5D
  0
LAYOUT
  5
22
102
{ACAD_REACTORS
330
1A
102
}
330
1A
100
AcDbPlotSettings
  1

  2
none_device
  4
ANSI_A_(8.50_x_11.00_Inches)
  6

 40
6.349999904632567
 41
19.04999923706055
 42
6.350006103515625
 43
19.04998779296875
 44
215.8999938964844
 45
279.3999938964844
 46
0.0
 47
0.0
 48
0.0
 49
0.0
140
0.0
141
0.0
142
1.0
143
2.584895464708373
 70
 11952
 72
     0
 73
     1
 74
     0
  7

 75
     0
 76
     0
 77
     2
 78
   300
147
0.3868628397755418
148
0.0
149
0.0
100
AcDbLayout
  1
Model
 70
     1
 71
     0
 10
0.0
 20
0.0
 11
12.0
 21
9.0
 12
0.0
 22
0.0
 32
0.0
 14
0.0
 24
0.0
 34
0.0
 15
0.0
 25
0.0
 35
0.0
146
0.0
 13
0.0
 23
0.0
 33
0.0
 16
1.0
 26
0.0
 36
0.0
 17
0.0
 27
1.0
 37
0.0
 76
     0
330
1F
331
F23
  0
MATERIAL
  5
F69
102
{ACAD_REACTORS
330
72
102
}
330
72
100
AcDbMaterial
  1
ByBlock
  0
MATERIAL
  5
F68
102
{ACAD_REACTORS
330
72
102
}
330
72
100
AcDbMaterial
  1
ByLayer
  0
MATERIAL
  5
F6A
102
{ACAD_REACTORS
330
72
102
}
330
72
100
AcDbMaterial
  1
Global
  0
MLINESTYLE
  5
18
102
{ACAD_REACTORS
330
17
102
}
330
17
100
AcDbMlineStyle
  2
STANDARD
 70
     0
  3

 62
   256
 51
90.0
 52
90.0
 71
     2
 49
0.5
 62
   256
  6
BYLAYER
 49
-0.5
 62
   256
  6
BYLAYER
  0
ACDBPLACEHOLDER
  5
F
102
{ACAD_REACTORS
330
E
102
}
330
E
  0
SCALE
  5
F2E
102
{ACAD_REACTORS
330
F2D
102
}
330
F2D
100
AcDbScale
 70
     0
300
1:1
140
1.0
141
1.0
290
     1
  0
SCALE
  5
F2F
102
{ACAD_REACTORS
330
F2D
102
}
330
F2D
100
AcDbScale
 70
     0
300
1:2
140
1.0
141
2.0
290
     0
  0
SCALE
  5
F30
102
{ACAD_REACTORS
330
F2D
102
}
330
F2D
100
AcDbScale
 70
     0
300
1:4
140
1.0
141
4.0
290
     0
  0
SCALE
  5
F31
102
{ACAD_REACTORS
330
F2D
102
}
330
F2D
100
AcDbScale
 70
     0
300
1:5
140
1.0
141
5.0
290
     0
  0
SCALE
  5
F32
102
{ACAD_REACTORS
330
F2D
102
}
330
F2D
100
AcDbScale
 70
     0
300
1:8
140
1.0
141
8.0
290
     0
  0
SCALE
  5
F33
102
{ACAD_REACTORS
330
F2D
102
}
330
F2D
100
AcDbScale
 70
     0
300
1:10
140
1.0
141
10.0
290
     0
  0
SCALE
  5
F34
102
{ACAD_REACTORS
330
F2D
102
}
330
F2D
100
AcDbScale
 70
     0
300
1:16
140
1.0
141
16.0
290
     0
  0
SCALE
  5
F35
102
{ACAD_REACTORS
330
F2D
102
}
330
F2D
100
AcDbScale
 70
     0
300
1:20
140
1.0
141
20.0
290
     0
  0
SCALE
  5
F36
102
{ACAD_REACTORS
330
F2D
102
}
330
F2D
100
AcDbScale
 70
     0
300
1:30
140
1.0
141
30.0
290
     0
  0
SCALE
  5
F37
102
{ACAD_REACTORS
330
F2D
102
}
330
F2D
100
AcDbScale
 70
     0
300
1:40
140
1.0
141
40.0
290
     0
  0
SCALE
  5
F38
102
{ACAD_REACTORS
330
F2D
102
}
330
F2D
100
AcDbScale
 70
     0
300
1:50
140
1.0
141
50.0
290
     0
  0
SCALE
  5
F39
102
{ACAD_REACTORS
330
F2D
102
}
330
F2D
100
AcDbScale
 70
     0
300
1:100
140
1.0
141
100.0
290
     0
  0
SCALE
  5
F3A
102
{ACAD_REACTORS
330
F2D
102
}
330
F2D
100
AcDbScale
 70
     0
300
2:1
140
2.0
141
1.0
290
     0
  0
SCALE
  5
F3B
102
{ACAD_REACTORS
330
F2D
102
}
330
F2D
100
AcDbScale
 70
     0
300
4:1
140
4.0
141
1.0
290
     0
  0
SCALE
  5
F3C
102
{ACAD_REACTORS
330
F2D
102
}
330
F2D
100
AcDbScale
 70
     0
300
8:1
140
8.0
141
1.0
290
     0
  0
SCALE
  5
F3D
102
{ACAD_REACTORS
330
F2D
102
}
330
F2D
100
AcDbScale
 70
     0
300
10:1
140
10.0
141
1.0
290
     0
  0
SCALE
  5
F3E
102
{ACAD_REACTORS
330
F2D
102
}
330
F2D
100
AcDbScale
 70
     0
300
100:1
140
100.0
141
1.0
290
     0
  0
SCALE
  5
F3F
102
{ACAD_REACTORS
330
F2D
102
}
330
F2D
100
AcDbScale
 70
     0
300
1/128" = 1'-0"
140
0.0078125
141
12.0
290
     0
  0
SCALE
  5
F40
102
{ACAD_REACTORS
330
F2D
102
}
330
F2D
100
AcDbScale
 70
     0
300
1/64" = 1'-0"
140
0.015625
141
12.0
290
     0
  0
SCALE
  5
F41
102
{ACAD_REACTORS
330
F2D
102
}
330
F2D
100
AcDbScale
 70
     0
300
1/32" = 1'-0"
140
0.03125
141
12.0
290
     0
  0
SCALE
  5
F42
102
{ACAD_REACTORS
330
F2D
102
}
330
F2D
100
AcDbScale
 70
     0
300
1/16" = 1'-0"
140
0.0625
141
12.0
290
     0
  0
SCALE
  5
F43
102
{ACAD_REACTORS
330
F2D
102
}
330
F2D
100
AcDbScale
 70
     0
300
3/32" = 1'-0"
140
0.09375
141
12.0
290
     0
  0
SCALE
  5
F44
102
{ACAD_REACTORS
330
F2D
102
}
330
F2D
100
AcDbScale
 70
     0
300
1/8" = 1'-0"
140
0.125
141
12.0
290
     0
  0
SCALE
  5
F45
102
{ACAD_REACTORS
330
F2D
102
}
330
F2D
100
AcDbScale
 70
     0
300
3/16" = 1'-0"
140
0.1875
141
12.0
290
     0
  0
SCALE
  5
F46
102
{ACAD_REACTORS
330
F2D
102
}
330
F2D
100
AcDbScale
 70
     0
300
1/4" = 1'-0"
140
0.25
141
12.0
290
     0
  0
SCALE
  5
F47
102
{ACAD_REACTORS
330
F2D
102
}
330
F2D
100
AcDbScale
 70
     0
300
3/8" = 1'-0"
140
0.375
141
12.0
290
     0
  0
SCALE
  5
F48
102
{ACAD_REACTORS
330
F2D
102
}
330
F2D
100
AcDbScale
 70
     0
300
1/2" = 1'-0"
140
0.5
141
12.0
290
     0
  0
SCALE
  5
F49
102
{ACAD_REACTORS
330
F2D
102
}
330
F2D
100
AcDbScale
 70
     0
300
3/4" = 1'-0"
140
0.75
141
12.0
290
     0
  0
SCALE
  5
F4A
102
{ACAD_REACTORS
330
F2D
102
}
330
F2D
100
AcDbScale
 70
     0
300
1" = 1'-0"
140
1.0
141
12.0
290
     0
  0
SCALE
  5
F4B
102
{ACAD_REACTORS
330
F2D
102
}
330
F2D
100
AcDbScale
 70
     0
300
1-1/2" = 1'-0"
140
1.5
141
12.0
290
     0
  0
SCALE
  5
F4C
102
{ACAD_REACTORS
330
F2D
102
}
330
F2D
100
AcDbScale
 70
     0
300
3" = 1'-0"
140
3.0
141
12.0
290
     0
  0
SCALE
  5
F4D
102
{ACAD_REACTORS
330
F2D
102
}
330
F2D
100
AcDbScale
 70
     0
300
6" = 1'-0"
140
6.0
141
12.0
290
     0
  0
SCALE
  5
F4E
102
{ACAD_REACTORS
330
F2D
102
}
330
F2D
100
AcDbScale
 70
     0
300
1'-0" = 1'-0"
140
12.0
141
12.0
290
     0
  0
TABLESTYLE
  5
F6C
102
{ACAD_REACTORS
330
F6B
102
}
102
{ACAD_XDICTIONARY
360
F7D
102
}
330
F6B
100
AcDbTableStyle
  3
Standard
 70
     0
 71
     0
 40
0.06
 41
0.06
280
     0
281
     0
  7
Standard
140
0.18
170
     2
 62
     0
 63
   257
283
     0
274
    -2
284
     1
 64
     0
275
    -2
285
     1
 65
     0
276
    -2
286
     1
 66
     0
277
    -2
287
     1
 67
     0
278
    -2
288
     1
 68
     0
279
    -2
289
     1
 69
     0
  7
Standard
140
0.25
170
     5
 62
     0
 63
   257
283
     0
274
    -2
284
     1
 64
     0
275
    -2
285
     1
 65
     0
276
    -2
286
     1
 66
     0
277
    -2
287
     1
 67
     0
278
    -2
288
     1
 68
     0
279
    -2
289
     1
 69
     0
  7
Standard
140
0.18
170
     5
 62
     0
 63
   257
283
     0
274
    -2
284
     1
 64
     0
275
    -2
285
     1
 65
     0
276
    -2
286
     1
 66
     0
277
    -2
287
     1
 67
     0
278
    -2
288
     1
 68
     0
279
    -2
289
     1
 69
     0
  0
DICTIONARYVAR
  5
F7C
102
{ACAD_REACTORS
330
66
102
}
330
66
100
DictionaryVariables
280
     0
  1
1:1
  0
DICTIONARYVAR
  5
F81
102
{ACAD_REACTORS
330
66
102
}
330
66
100
DictionaryVariables
280
     0
  1
Standard
  0
DICTIONARYVAR
  5
67
102
{ACAD_REACTORS
330
66
102
}
330
66
100
DictionaryVariables
280
     0
  1
2
  0
DICTIONARYVAR
  5
6B
102
{ACAD_REACTORS
330
66
102
}
330
66
100
DictionaryVariables
280
     0
  1
1
  0
DICTIONARYVAR
  5
F83
102
{ACAD_REACTORS
330
66
102
}
330
66
100
DictionaryVariables
280
     0
  1
0
  0
DICTIONARYVAR
  5
56B
102
{ACAD_REACTORS
330
66
102
}
330
66
100
DictionaryVariables
280
     0
  1

  0
XRECORD
  5
F76
102
{ACAD_REACTORS
330
12C
102
}
330
12C
100
AcDbXrecord
280
     1
 91
     1023
301

290
     0
302
0
330
10
 90
        8
 62
     7
370
    -3
331
16
  1
Color_7
330
126
 90
        8
 62
     7
370
    -3
331
16
  1
Color_7
330
127
 90
        9
 62
     7
370
    -3
331
16
  1
Color_7
330
128
 90
        0
 62
     7
370
    -3
331
16
  1
Color_7
330
129
 90
        8
 62
     7
370
    -3
331
16
  1
Color_7
330
12A
 90
        8
 62
     7
370
    -3
331
16
  1
Color_7
330
684
 90
        8
 62
     7
370
    -3
331
16
  1
Color_7
  0
DICTIONARY
  5
F7D
330
F6C
100
AcDbDictionary
280
     1
281
     1
  3
ACAD_ROUNDTRIP_2008_TABLESTYLE_CELLSTYLEMAP
360
F7F
  3
ACAD_XREC_ROUNDTRIP
360
F7E
  0
CELLSTYLEMAP
  5
F7F
102
{ACAD_REACTORS
330
F7D
102
}
330
F7D
100
AcDbCellStyleMap
 90
        3
300
CELLSTYLE
  1
TABLEFORMAT_BEGIN
 90
        5
170
     1
 91
        0
 92
        0
 62
   257
 93
        1
300
CONTENTFORMAT
  1
CONTENTFORMAT_BEGIN
 90
        0
 91
        0
 92
        4
 93
        0
300

 40
0.0
140
1.0
 94
        5
 62
     0
340
11
144
0.25
309
CONTENTFORMAT_END
171
     1
301
MARGIN
  1
CELLMARGIN_BEGIN
 40
0.06
 40
0.06
 40
0.06
 40
0.06
 40
0.06
 40
0.06
309
CELLMARGIN_END
 94
        6
 95
        1
302
GRIDFORMAT
  1
GRIDFORMAT_BEGIN
 90
        0
 91
        1
 62
     0
 92
       -2
340
14
 93
        0
 40
0.045
309
GRIDFORMAT_END
 95
        2
302
GRIDFORMAT
  1
GRIDFORMAT_BEGIN
 90
        0
 91
        1
 62
     0
 92
       -2
340
14
 93
        0
 40
0.045
309
GRIDFORMAT_END
 95
        4
302
GRIDFORMAT
  1
GRIDFORMAT_BEGIN
 90
        0
 91
        1
 62
     0
 92
       -2
340
14
 93
        0
 40
0.045
309
GRIDFORMAT_END
 95
        8
302
GRIDFORMAT
  1
GRIDFORMAT_BEGIN
 90
        0
 91
        1
 62
     0
 92
       -2
340
14
 93
        0
 40
0.045
309
GRIDFORMAT_END
 95
       16
302
GRIDFORMAT
  1
GRIDFORMAT_BEGIN
 90
        0
 91
        1
 62
     0
 92
       -2
340
14
 93
        0
 40
0.045
309
GRIDFORMAT_END
 95
       32
302
GRIDFORMAT
  1
GRIDFORMAT_BEGIN
 90
        0
 91
        1
 62
     0
 92
       -2
340
14
 93
        0
 40
0.045
309
GRIDFORMAT_END
309
TABLEFORMAT_END
  1
CELLSTYLE_BEGIN
 90
        1
 91
        1
300
_TITLE
309
CELLSTYLE_END
300
CELLSTYLE
  1
TABLEFORMAT_BEGIN
 90
        5
170
     1
 91
        0
 92
        0
 62
   257
 93
        1
300
CONTENTFORMAT
  1
CONTENTFORMAT_BEGIN
 90
        0
 91
        0
 92
        4
 93
        0
300

 40
0.0
140
1.0
 94
        5
 62
     0
340
11
144
0.18
309
CONTENTFORMAT_END
171
     1
301
MARGIN
  1
CELLMARGIN_BEGIN
 40
0.06
 40
0.06
 40
0.06
 40
0.06
 40
0.06
 40
0.06
309
CELLMARGIN_END
 94
        6
 95
        1
302
GRIDFORMAT
  1
GRIDFORMAT_BEGIN
 90
        0
 91
        1
 62
     0
 92
       -2
340
14
 93
        0
 40
0.045
309
GRIDFORMAT_END
 95
        2
302
GRIDFORMAT
  1
GRIDFORMAT_BEGIN
 90
        0
 91
        1
 62
     0
 92
       -2
340
14
 93
        0
 40
0.045
309
GRIDFORMAT_END
 95
        4
302
GRIDFORMAT
  1
GRIDFORMAT_BEGIN
 90
        0
 91
        1
 62
     0
 92
       -2
340
14
 93
        0
 40
0.045
309
GRIDFORMAT_END
 95
        8
302
GRIDFORMAT
  1
GRIDFORMAT_BEGIN
 90
        0
 91
        1
 62
     0
 92
       -2
340
14
 93
        0
 40
0.045
309
GRIDFORMAT_END
 95
       16
302
GRIDFORMAT
  1
GRIDFORMAT_BEGIN
 90
        0
 91
        1
 62
     0
 92
       -2
340
14
 93
        0
 40
0.045
309
GRIDFORMAT_END
 95
       32
302
GRIDFORMAT
  1
GRIDFORMAT_BEGIN
 90
        0
 91
        1
 62
     0
 92
       -2
340
14
 93
        0
 40
0.045
309
GRIDFORMAT_END
309
TABLEFORMAT_END
  1
CELLSTYLE_BEGIN
 90
        2
 91
        1
300
_HEADER
309
CELLSTYLE_END
300
CELLSTYLE
  1
TABLEFORMAT_BEGIN
 90
        5
170
     1
 91
        0
 92
        0
 62
   257
 93
        1
300
CONTENTFORMAT
  1
CONTENTFORMAT_BEGIN
 90
        0
 91
        0
 92
        4
 93
        0
300

 40
0.0
140
1.0
 94
        2
 62
     0
340
11
144
0.18
309
CONTENTFORMAT_END
171
     1
301
MARGIN
  1
CELLMARGIN_BEGIN
 40
0.06
 40
0.06
 40
0.06
 40
0.06
 40
0.06
 40
0.06
309
CELLMARGIN_END
 94
        6
 95
        1
302
GRIDFORMAT
  1
GRIDFORMAT_BEGIN
 90
        0
 91
        1
 62
     0
 92
       -2
340
14
 93
        0
 40
0.045
309
GRIDFORMAT_END
 95
        2
302
GRIDFORMAT
  1
GRIDFORMAT_BEGIN
 90
        0
 91
        1
 62
     0
 92
       -2
340
14
 93
        0
 40
0.045
309
GRIDFORMAT_END
 95
        4
302
GRIDFORMAT
  1
GRIDFORMAT_BEGIN
 90
        0
 91
        1
 62
     0
 92
       -2
340
14
 93
        0
 40
0.045
309
GRIDFORMAT_END
 95
        8
302
GRIDFORMAT
  1
GRIDFORMAT_BEGIN
 90
        0
 91
        1
 62
     0
 92
       -2
340
14
 93
        0
 40
0.045
309
GRIDFORMAT_END
 95
       16
302
GRIDFORMAT
  1
GRIDFORMAT_BEGIN
 90
        0
 91
        1
 62
     0
 92
       -2
340
14
 93
        0
 40
0.045
309
GRIDFORMAT_END
 95
       32
302
GRIDFORMAT
  1
GRIDFORMAT_BEGIN
 90
        0
 91
        1
 62
     0
 92
       -2
340
14
 93
        0
 40
0.045
309
GRIDFORMAT_END
309
TABLEFORMAT_END
  1
CELLSTYLE_BEGIN
 90
        3
 91
        2
300
_DATA
309
CELLSTYLE_END
  0
XRECORD
  5
F7E
102
{ACAD_REACTORS
330
F7D
102
}
330
F7D
100
AcDbXrecord
280
     1
102
ACAD_ROUNDTRIP_PRE2007_TABLESTYLE
 90
        4
 91
        0
  1

 92
        4
 93
        0
  2

 94
        4
 95
        0
  3

  0
ENDSEC
  0
EOF
