  0
SECTION
  2
HEADER
  9
$ACADVER
  1
AC1024
  9
$ACADMAINTVER
 70
   155
  9
$DWGCODEPAGE
  3
ANSI_1252
  9
$LASTSAVEDBY
  1
Reid
  9
$INSBASE
 10
0.0
 20
0.0
 30
0.0
  9
$EXTMIN
 10
-382.2542268367033
 20
-155.2867295006523
 30
-0.0015258207003583
  9
$EXTMAX
 10
-334.7305249720133
 20
-85.19535106580788
 30
0.0000000349246037
  9
$LIMMIN
 10
0.0
 20
0.0
  9
$LIMMAX
 10
12.0
 20
9.0
  9
$ORTHOMODE
 70
     1
  9
$REGENMODE
 70
     1
  9
$FILLMODE
 70
     1
  9
$QTEXTMODE
 70
     0
  9
$MIRRTEXT
 70
     0
  9
$LTSCALE
 40
1.0
  9
$ATTMODE
 70
     1
  9
$TEXTSIZE
 40
0.2
  9
$TRACEWID
 40
0.05
  9
$TEXTSTYLE
  7
Standard
  9
$CLAYER
  8
0
  9
$CELTYPE
  6
ByLayer
  9
$CECOLOR
 62
   256
  9
$CELTSCALE
 40
1.0
  9
$DISPSILH
 70
     0
  9
$DIMSCALE
 40
1.0
  9
$DIMASZ
 40
1.0
  9
$DIMEXO
 40
0.2
  9
$DIMDLI
 40
0.38
  9
$DIMRND
 40
0.0
  9
$DIMDLE
 40
0.0
  9
$DIMEXE
 40
0.18
  9
$DIMTP
 40
0.0
  9
$DIMTM
 40
0.0
  9
$DIMTXT
 40
1.0
  9
$DIMCEN
 40
0.09
  9
$DIMTSZ
 40
0.0
  9
$DIMTOL
 70
     0
  9
$DIMLIM
 70
     0
  9
$DIMTIH
 70
     1
  9
$DIMTOH
 70
     1
  9
$DIMSE1
 70
     0
  9
$DIMSE2
 70
     0
  9
$DIMTAD
 70
     0
  9
$DIMZIN
 70
     0
  9
$DIMBLK
  1

  9
$DIMASO
 70
     1
  9
$DIMSHO
 70
     1
  9
$DIMPOST
  1

  9
$DIMAPOST
  1

  9
$DIMALT
 70
     0
  9
$DIMALTD
 70
     2
  9
$DIMALTF
 40
25.4
  9
$DIMLFAC
 40
1.0
  9
$DIMTOFL
 70
     0
  9
$DIMTVP
 40
0.0
  9
$DIMTIX
 70
     0
  9
$DIMSOXD
 70
     0
  9
$DIMSAH
 70
     0
  9
$DIMBLK1
  1

  9
$DIMBLK2
  1

  9
$DIMSTYLE
  2
Standard
  9
$DIMCLRD
 70
     0
  9
$DIMCLRE
 70
     0
  9
$DIMCLRT
 70
     0
  9
$DIMTFAC
 40
1.0
  9
$DIMGAP
 40
0.09
  9
$DIMJUST
 70
     0
  9
$DIMSD1
 70
     0
  9
$DIMSD2
 70
     0
  9
$DIMTOLJ
 70
     1
  9
$DIMTZIN
 70
     0
  9
$DIMALTZ
 70
     0
  9
$DIMALTTZ
 70
     0
  9
$DIMUPT
 70
     0
  9
$DIMDEC
 70
     3
  9
$DIMTDEC
 70
     3
  9
$DIMALTU
 70
     2
  9
$DIMALTTD
 70
     2
  9
$DIMTXSTY
  7
Standard
  9
$DIMAUNIT
 70
     0
  9
$DIMADEC
 70
     0
  9
$DIMALTRND
 40
0.0
  9
$DIMAZIN
 70
     0
  9
$DIMDSEP
 70
    46
  9
$DIMATFIT
 70
     3
  9
$DIMFRAC
 70
     0
  9
$DIMLDRBLK
  1

  9
$DIMLUNIT
 70
     2
  9
$DIMLWD
 70
    -2
  9
$DIMLWE
 70
    -2
  9
$DIMTMOVE
 70
     0
  9
$DIMFXL
 40
1.0
  9
$DIMFXLON
 70
     0
  9
$DIMJOGANG
 40
0.7853981633974483
  9
$DIMTFILL
 70
     0
  9
$DIMTFILLCLR
 70
     0
  9
$DIMARCSYM
 70
     0
  9
$DIMLTYPE
  6

  9
$DIMLTEX1
  6

  9
$DIMLTEX2
  6

  9
$DIMTXTDIRECTION
 70
     0
  9
$LUNITS
 70
     2
  9
$LUPREC
 70
     4
  9
$SKETCHINC
 40
0.1
  9
$FILLETRAD
 40
0.0
  9
$AUNITS
 70
     0
  9
$AUPREC
 70
     0
  9
$MENU
  1
.
  9
$ELEVATION
 40
0.0
  9
$PELEVATION
 40
0.0
  9
$THICKNESS
 40
0.0
  9
$LIMCHECK
 70
     0
  9
$CHAMFERA
 40
0.0
  9
$CHAMFERB
 40
0.0
  9
$CHAMFERC
 40
0.0
  9
$CHAMFERD
 40
0.0
  9
$SKPOLY
 70
     0
  9
$TDCREATE
 40
2455303.358453125
  9
$TDUCREATE
 40
2455303.566786458
  9
$TDUPDATE
 40
2457710.495761412
  9
$TDUUPDATE
 40
2457710.704094745
  9
$TDINDWG
 40
0.0802996296
  9
$TDUSRTIMER
 40
0.0802993519
  9
$USRTIMER
 70
     1
  9
$ANGBASE
 50
0.0
  9
$ANGDIR
 70
     0
  9
$PDMODE
 70
     0
  9
$PDSIZE
 40
0.0
  9
$PLINEWID
 40
0.0
  9
$SPLFRAME
 70
     0
  9
$SPLINETYPE
 70
     6
  9
$SPLINESEGS
 70
     8
  9
$HANDSEED
  5
F36
  9
$SURFTAB1
 70
     6
  9
$SURFTAB2
 70
     6
  9
$SURFTYPE
 70
     6
  9
$SURFU
 70
     6
  9
$SURFV
 70
     6
  9
$UCSBASE
  2

  9
$UCSNAME
  2

  9
$UCSORG
 10
-364.6280501205671
 20
-143.1088032733104
 30
0.0
  9
$UCSXDIR
 10
1.0
 20
0.0
 30
0.0
  9
$UCSYDIR
 10
0.0
 20
1.0
 30
0.0
  9
$UCSORTHOREF
  2

  9
$UCSORTHOVIEW
 70
     0
  9
$UCSORGTOP
 10
0.0
 20
0.0
 30
0.0
  9
$UCSORGBOTTOM
 10
0.0
 20
0.0
 30
0.0
  9
$UCSORGLEFT
 10
0.0
 20
0.0
 30
0.0
  9
$UCSORGRIGHT
 10
0.0
 20
0.0
 30
0.0
  9
$UCSORGFRONT
 10
0.0
 20
0.0
 30
0.0
  9
$UCSORGBACK
 10
0.0
 20
0.0
 30
0.0
  9
$PUCSBASE
  2

  9
$PUCSNAME
  2

  9
$PUCSORG
 10
0.0
 20
0.0
 30
0.0
  9
$PUCSXDIR
 10
1.0
 20
0.0
 30
0.0
  9
$PUCSYDIR
 10
0.0
 20
1.0
 30
0.0
  9
$PUCSORTHOREF
  2

  9
$PUCSORTHOVIEW
 70
     0
  9
$PUCSORGTOP
 10
0.0
 20
0.0
 30
0.0
  9
$PUCSORGBOTTOM
 10
0.0
 20
0.0
 30
0.0
  9
$PUCSORGLEFT
 10
0.0
 20
0.0
 30
0.0
  9
$PUCSORGRIGHT
 10
0.0
 20
0.0
 30
0.0
  9
$PUCSORGFRONT
 10
0.0
 20
0.0
 30
0.0
  9
$PUCSORGBACK
 10
0.0
 20
0.0
 30
0.0
  9
$USERI1
 70
     0
  9
$USERI2
 70
     0
  9
$USERI3
 70
     0
  9
$USERI4
 70
     0
  9
$USERI5
 70
     0
  9
$USERR1
 40
0.0
  9
$USERR2
 40
0.0
  9
$USERR3
 40
0.0
  9
$USERR4
 40
0.0
  9
$USERR5
 40
0.0
  9
$WORLDVIEW
 70
     1
  9
$SHADEDGE
 70
     3
  9
$SHADEDIF
 70
    70
  9
$TILEMODE
 70
     1
  9
$MAXACTVP
 70
    64
  9
$PINSBASE
 10
0.0
 20
0.0
 30
0.0
  9
$PLIMCHECK
 70
     0
  9
$PEXTMIN
 10
0.0
 20
0.0
 30
0.0
  9
$PEXTMAX
 10
0.0
 20
0.0
 30
0.0
  9
$PLIMMIN
 10
0.0
 20
0.0
  9
$PLIMMAX
 10
12.0
 20
9.0
  9
$UNITMODE
 70
     0
  9
$VISRETAIN
 70
     1
  9
$PLINEGEN
 70
     0
  9
$PSLTSCALE
 70
     1
  9
$TREEDEPTH
 70
  3020
  9
$CMLSTYLE
  2
Standard
  9
$CMLJUST
 70
     0
  9
$CMLSCALE
 40
1.0
  9
$PROXYGRAPHICS
 70
     1
  9
$MEASUREMENT
 70
     0
  9
$CELWEIGHT
370
    -1
  9
$ENDCAPS
280
     0
  9
$JOINSTYLE
280
     0
  9
$LWDISPLAY
290
     0
  9
$INSUNITS
 70
     1
  9
$HYPERLINKBASE
  1

  9
$STYLESHEET
  1

  9
$XEDIT
290
     1
  9
$CEPSNTYPE
380
     0
  9
$PSTYLEMODE
290
     1
  9
$FINGERPRINTGUID
  2
{FDEAD576-A652-11D2-9A35-0060089B3A3F}
  9
$VERSIONGUID
  2
{F8071F29-0A9C-418C-9C2A-8E652B3ED9E2}
  9
$EXTNAMES
290
     1
  9
$PSVPSCALE
 40
0.0
  9
$OLESTARTUP
290
     0
  9
$SORTENTS
280
   127
  9
$INDEXCTL
280
     0
  9
$HIDETEXT
280
     1
  9
$XCLIPFRAME
280
     2
  9
$HALOGAP
280
     0
  9
$OBSCOLOR
 70
   257
  9
$OBSLTYPE
280
     0
  9
$INTERSECTIONDISPLAY
280
     0
  9
$INTERSECTIONCOLOR
 70
   257
  9
$DIMASSOC
280
     2
  9
$PROJECTNAME
  1

  9
$CAMERADISPLAY
290
     0
  9
$LENSLENGTH
 40
50.0
  9
$CAMERAHEIGHT
 40
0.0
  9
$STEPSPERSEC
 40
2.0
  9
$STEPSIZE
 40
6.0
  9
$3DDWFPREC
 40
2.0
  9
$PSOLWIDTH
 40
0.25
  9
$PSOLHEIGHT
 40
4.0
  9
$LOFTANG1
 40
1.570796326794896
  9
$LOFTANG2
 40
1.570796326794896
  9
$LOFTMAG1
 40
0.0
  9
$LOFTMAG2
 40
0.0
  9
$LOFTPARAM
 70
     7
  9
$LOFTNORMALS
280
     1
  9
$LATITUDE
 40
37.795
  9
$LONGITUDE
 40
-122.394
  9
$NORTHDIRECTION
 40
0.0
  9
$TIMEZONE
 70
 -8000
  9
$LIGHTGLYPHDISPLAY
280
     1
  9
$TILEMODELIGHTSYNCH
280
     1
  9
$CMATERIAL
347
B77
  9
$SOLIDHIST
280
     0
  9
$SHOWHIST
280
     1
  9
$DWFFRAME
280
     2
  9
$DGNFRAME
280
     0
  9
$REALWORLDSCALE
290
     1
  9
$INTERFERECOLOR
 62
     1
  9
$INTERFEREOBJVS
345
B99
  9
$INTERFEREVPVS
346
B96
  9
$CSHADOW
280
     0
  9
$SHADOWPLANELOCATION
 40
0.0
  0
ENDSEC
  0
SECTION
  2
CLASSES
  0
CLASS
  1
ACDBDICTIONARYWDFLT
  2
AcDbDictionaryWithDefault
  3
ObjectDBX Classes
 90
        0
 91
        1
280
     0
281
     0
  0
CLASS
  1
DICTIONARYVAR
  2
AcDbDictionaryVar
  3
ObjectDBX Classes
 90
        0
 91
       13
280
     0
281
     0
  0
CLASS
  1
SORTENTSTABLE
  2
AcDbSortentsTable
  3
ObjectDBX Classes
 90
        0
 91
        0
280
     0
281
     0
  0
CLASS
  1
MATERIAL
  2
AcDbMaterial
  3
ObjectDBX Classes
 90
     1153
 91
        3
280
     0
281
     0
  0
CLASS
  1
VISUALSTYLE
  2
AcDbVisualStyle
  3
ObjectDBX Classes
 90
     4095
 91
       24
280
     0
281
     0
  0
CLASS
  1
TABLESTYLE
  2
AcDbTableStyle
  3
ObjectDBX Classes
 90
     4095
 91
        1
280
     0
281
     0
  0
CLASS
  1
SCALE
  2
AcDbScale
  3
ObjectDBX Classes
 90
     1153
 91
       17
280
     0
281
     0
  0
CLASS
  1
MLEADERSTYLE
  2
AcDbMLeaderStyle
  3
ACDB_MLEADERSTYLE_CLASS
 90
     4095
 91
        1
280
     0
281
     0
  0
CLASS
  1
ACDBSECTIONVIEWSTYLE
  2
AcDbSectionViewStyle
  3
ObjectDBX Classes
 90
     1025
 91
        1
280
     0
281
     0
  0
CLASS
  1
ACDBDETAILVIEWSTYLE
  2
AcDbDetailViewStyle
  3
ObjectDBX Classes
 90
     1025
 91
        1
280
     0
281
     0
  0
CLASS
  1
EXACXREFPANELOBJECT
  2
ExAcXREFPanelObject
  3
EXAC_ESW
 90
     1025
 91
        2
280
     0
281
     0
  0
CLASS
  1
NPOCOLLECTION
  2
AcDbImpNonPersistentObjectsCollection
  3
ObjectDBX Classes
 90
     1153
 91
        1
280
     0
281
     0
  0
CLASS
  1
DIMASSOC
  2
AcDbDimAssoc
  3
"AcDbDimAssoc|Product Desc:     AcDim ARX App For Dimension|Company:          Autodesk, Inc.|WEB Address:      www.autodesk.com"
 90
        0
 91
        1
280
     0
281
     0
  0
CLASS
  1
CELLSTYLEMAP
  2
AcDbCellStyleMap
  3
ObjectDBX Classes
 90
     1152
 91
        2
280
     0
281
     0
  0
ENDSEC
  0
SECTION
  2
TABLES
  0
TABLE
  2
VPORT
  5
8
102
{ACAD_XDICTIONARY
360
D00
102
}
330
0
100
AcDbSymbolTable
 70
     1
  0
VPORT
  5
B6A
330
8
100
AcDbSymbolTableRecord
100
AcDbViewportTableRecord
  2
*Active
 70
     0
 10
0.0
 20
0.0
 11
1.0
 21
1.0
 12
-358.4923759043583
 22
-120.2410402832301
 13
0.0
 23
0.0
 14
0.5
 24
0.5
 15
0.5
 25
0.5
 16
0.0
 26
0.0
 36
1.0
 17
0.0
 27
0.0
 37
0.0
 40
70.55504797245091
 41
2.032008830022074
 42
50.0
 43
0.0
 44
0.0
 50
0.0
 51
0.0
 71
     0
 72
  1000
 73
     1
 74
     3
 75
     0
 76
     0
 77
     0
 78
     0
281
     0
 65
     1
110
-364.6280501205671
120
-143.1088032733104
130
0.0
111
1.0
121
0.0
131
0.0
112
0.0
122
1.0
132
0.0
 79
     0
146
0.0
348
B95
 60
     3
 61
     5
292
     1
282
     1
141
0.0
142
0.0
 63
   250
421
  3355443
1001
ACAD_NAV_VCDISPLAY
1070
     3
  0
ENDTAB
  0
TABLE
  2
LTYPE
  5
5
330
0
100
AcDbSymbolTable
 70
     2
  0
LTYPE
  5
14
330
5
100
AcDbSymbolTableRecord
100
AcDbLinetypeTableRecord
  2
ByBlock
 70
     0
  3

 72
    65
 73
     0
 40
0.0
  0
LTYPE
  5
15
330
5
100
AcDbSymbolTableRecord
100
AcDbLinetypeTableRecord
  2
ByLayer
 70
     0
  3

 72
    65
 73
     0
 40
0.0
  0
LTYPE
  5
16
330
5
100
AcDbSymbolTableRecord
100
AcDbLinetypeTableRecord
  2
Continuous
 70
     0
  3
Solid line
 72
    65
 73
     0
 40
0.0
  0
LTYPE
  5
15B
330
5
100
AcDbSymbolTableRecord
100
AcDbLinetypeTableRecord
  2
HIDDEN
 70
     0
  3
__ __ __ __ __ __ __ __ __ __ __ __ __ __ __ __
 72
    65
 73
     2
 40
0.375
 49
0.25
 74
     0
 49
-0.125
 74
     0
  0
ENDTAB
  0
TABLE
  2
LAYER
  5
2
102
{ACAD_XDICTIONARY
360
163
102
}
330
0
100
AcDbSymbolTable
 70
     9
  0
LAYER
  5
10
102
{ACAD_XDICTIONARY
360
CED
102
}
330
2
100
AcDbSymbolTableRecord
100
AcDbLayerTableRecord
  2
0
 70
     0
 62
     7
  6
Continuous
370
    -3
390
F
347
B87
  0
LAYER
  5
15C
330
2
100
AcDbSymbolTableRecord
100
AcDbLayerTableRecord
  2
Defpoints
 70
     0
 62
     7
  6
Continuous
290
     0
370
    -3
390
F
347
B87
  0
LAYER
  5
15D
102
{ACAD_XDICTIONARY
360
CEF
102
}
330
2
100
AcDbSymbolTableRecord
100
AcDbLayerTableRecord
  2
DIM
 70
     0
 62
     7
  6
Continuous
370
    -3
390
F
347
B87
  0
LAYER
  5
15E
102
{ACAD_XDICTIONARY
360
CF1
102
}
330
2
100
AcDbSymbolTableRecord
100
AcDbLayerTableRecord
  2
TEXT
 70
     0
 62
     7
  6
Continuous
370
    -3
390
F
347
B87
  0
LAYER
  5
15F
102
{ACAD_XDICTIONARY
360
CF3
102
}
330
2
100
AcDbSymbolTableRecord
100
AcDbLayerTableRecord
  2
TEMPLATE
 70
     0
 62
     7
  6
Continuous
370
    -3
390
F
347
B87
  0
LAYER
  5
160
102
{ACAD_XDICTIONARY
360
CF5
102
}
330
2
100
AcDbSymbolTableRecord
100
AcDbLayerTableRecord
  2
DIMENSION
 70
     0
 62
     7
  6
Continuous
370
    -3
390
F
347
B87
  0
LAYER
  5
161
102
{ACAD_XDICTIONARY
360
CF7
102
}
330
2
100
AcDbSymbolTableRecord
100
AcDbLayerTableRecord
  2
THERMOSTATCVR
 70
     0
 62
     7
  6
Continuous
370
    -3
390
F
347
B87
  0
LAYER
  5
162
102
{ACAD_XDICTIONARY
360
CF9
102
}
330
2
100
AcDbSymbolTableRecord
100
AcDbLayerTableRecord
  2
BORDER
 70
     0
 62
     7
  6
Continuous
370
    -3
390
F
347
B87
  0
LAYER
  5
750
102
{ACAD_XDICTIONARY
360
CFB
102
}
330
2
100
AcDbSymbolTableRecord
100
AcDbLayerTableRecord
  2
Washer
 70
     0
 62
     7
  6
Continuous
370
    -3
390
F
347
B87
  0
ENDTAB
  0
TABLE
  2
STYLE
  5
3
330
0
100
AcDbSymbolTable
 70
     2
  0
STYLE
  5
11
330
3
100
AcDbSymbolTableRecord
100
AcDbTextStyleTableRecord
  2
Standard
 70
     0
 40
0.0
 41
1.0
 50
0.0
 71
     0
 42
0.2
  3
txt
  4

  0
ENDTAB
  0
TABLE
  2
VIEW
  5
6
330
0
100
AcDbSymbolTable
 70
     0
  0
ENDTAB
  0
TABLE
  2
UCS
  5
7
330
0
100
AcDbSymbolTable
 70
     0
  0
ENDTAB
  0
TABLE
  2
APPID
  5
9
330
0
100
AcDbSymbolTable
 70
     5
  0
APPID
  5
12
330
9
100
AcDbSymbolTableRecord
100
AcDbRegAppTableRecord
  2
ACAD
 70
     0
  0
APPID
  5
BC6
330
9
100
AcDbSymbolTableRecord
100
AcDbRegAppTableRecord
  2
ACAD_EXEMPT_FROM_CAD_STANDARDS
 70
     0
  0
APPID
  5
BCE
330
9
100
AcDbSymbolTableRecord
100
AcDbRegAppTableRecord
  2
ACAD_NAV_VCDISPLAY
 70
     0
  0
APPID
  5
C64
330
9
100
AcDbSymbolTableRecord
100
AcDbRegAppTableRecord
  2
AcadAnnoMonitorAlertIconDisabled
 70
     0
  0
APPID
  5
D3F
330
9
100
AcDbSymbolTableRecord
100
AcDbRegAppTableRecord
  2
ACAD_MLEADERVER
 70
     0
  0
ENDTAB
  0
TABLE
  2
DIMSTYLE
  5
A
330
0
100
AcDbSymbolTable
 70
     2
100
AcDbDimStyleTable
 71
     1
340
27
  0
DIMSTYLE
105
27
102
{ACAD_REACTORS
330
7ED
330
7EE
330
7EF
330
7F0
330
7F1
330
7F2
330
7F3
330
7F4
330
7AB
330
7AC
330
7AD
330
7AE
330
7AF
330
7B0
330
7B1
330
7B2
330
7B4
330
7B5
330
7B6
330
7B7
330
7B8
330
7C1
330
7C2
330
7C3
330
7C4
330
7C5
330
7C6
330
D83
330
C3F
330
7E0
330
7B9
102
}
330
A
100
AcDbSymbolTableRecord
100
AcDbDimStyleTableRecord
  2
Standard
 70
     0
 41
1.0
 42
0.2
140
1.0
271
     3
272
     3
340
11
  0
ENDTAB
  0
TABLE
  2
BLOCK_RECORD
  5
1
330
0
100
AcDbSymbolTable
 70
    33
  0
BLOCK_RECORD
  5
1F
330
1
100
AcDbSymbolTableRecord
100
AcDbBlockTableRecord
  2
*Model_Space
340
22
 70
     0
280
     1
281
     0
  0
BLOCK_RECORD
  5
58
330
1
100
AcDbSymbolTableRecord
100
AcDbBlockTableRecord
  2
*Paper_Space
340
59
 70
     0
280
     1
281
     0
  0
BLOCK_RECORD
  5
5D
330
1
100
AcDbSymbolTableRecord
100
AcDbBlockTableRecord
  2
*Paper_Space0
340
5E
 70
     0
280
     1
281
     0
  0
BLOCK_RECORD
  5
7F7
330
1
100
AcDbSymbolTableRecord
100
AcDbBlockTableRecord
  2
*D1
340
0
 70
     0
280
     1
281
     0
  0
BLOCK_RECORD
  5
7FF
330
1
100
AcDbSymbolTableRecord
100
AcDbBlockTableRecord
  2
*D2
340
0
 70
     0
280
     1
281
     0
  0
BLOCK_RECORD
  5
809
330
1
100
AcDbSymbolTableRecord
100
AcDbBlockTableRecord
  2
*D3
340
0
 70
     0
280
     1
281
     0
  0
BLOCK_RECORD
  5
813
330
1
100
AcDbSymbolTableRecord
100
AcDbBlockTableRecord
  2
*D4
340
0
 70
     0
280
     1
281
     0
  0
BLOCK_RECORD
  5
81D
330
1
100
AcDbSymbolTableRecord
100
AcDbBlockTableRecord
  2
*D5
340
0
 70
     0
280
     1
281
     0
  0
BLOCK_RECORD
  5
827
330
1
100
AcDbSymbolTableRecord
100
AcDbBlockTableRecord
  2
*D6
340
0
 70
     0
280
     1
281
     0
  0
BLOCK_RECORD
  5
831
330
1
100
AcDbSymbolTableRecord
100
AcDbBlockTableRecord
  2
*D7
340
0
 70
     0
280
     1
281
     0
  0
BLOCK_RECORD
  5
839
330
1
100
AcDbSymbolTableRecord
100
AcDbBlockTableRecord
  2
*D8
340
0
 70
     0
280
     1
281
     0
  0
BLOCK_RECORD
  5
843
330
1
100
AcDbSymbolTableRecord
100
AcDbBlockTableRecord
  2
*D9
340
0
 70
     0
280
     1
281
     0
  0
BLOCK_RECORD
  5
858
330
1
100
AcDbSymbolTableRecord
100
AcDbBlockTableRecord
  2
*D10
340
0
 70
     0
280
     1
281
     0
  0
BLOCK_RECORD
  5
862
330
1
100
AcDbSymbolTableRecord
100
AcDbBlockTableRecord
  2
*D11
340
0
 70
     0
280
     1
281
     0
  0
BLOCK_RECORD
  5
86C
330
1
100
AcDbSymbolTableRecord
100
AcDbBlockTableRecord
  2
*D12
340
0
 70
     0
280
     1
281
     0
  0
BLOCK_RECORD
  5
874
330
1
100
AcDbSymbolTableRecord
100
AcDbBlockTableRecord
  2
*D13
340
0
 70
     0
280
     1
281
     0
  0
BLOCK_RECORD
  5
87E
330
1
100
AcDbSymbolTableRecord
100
AcDbBlockTableRecord
  2
*D14
340
0
 70
     0
280
     1
281
     0
  0
BLOCK_RECORD
  5
886
330
1
100
AcDbSymbolTableRecord
100
AcDbBlockTableRecord
  2
*D15
340
0
 70
     0
280
     1
281
     0
  0
BLOCK_RECORD
  5
88E
330
1
100
AcDbSymbolTableRecord
100
AcDbBlockTableRecord
  2
*D16
340
0
 70
     0
280
     1
281
     0
  0
BLOCK_RECORD
  5
896
330
1
100
AcDbSymbolTableRecord
100
AcDbBlockTableRecord
  2
*D17
340
0
 70
     0
280
     1
281
     0
  0
BLOCK_RECORD
  5
8A8
330
1
100
AcDbSymbolTableRecord
100
AcDbBlockTableRecord
  2
*D18
340
0
 70
     0
280
     1
281
     0
  0
BLOCK_RECORD
  5
8B2
330
1
100
AcDbSymbolTableRecord
100
AcDbBlockTableRecord
  2
*D19
340
0
 70
     0
280
     1
281
     0
  0
BLOCK_RECORD
  5
8BC
330
1
100
AcDbSymbolTableRecord
100
AcDbBlockTableRecord
  2
*D20
340
0
 70
     0
280
     1
281
     0
  0
BLOCK_RECORD
  5
8C6
330
1
100
AcDbSymbolTableRecord
100
AcDbBlockTableRecord
  2
*D21
340
0
 70
     0
280
     1
281
     0
  0
BLOCK_RECORD
  5
8CE
330
1
100
AcDbSymbolTableRecord
100
AcDbBlockTableRecord
  2
*D22
340
0
 70
     0
280
     1
281
     0
  0
BLOCK_RECORD
  5
8D8
330
1
100
AcDbSymbolTableRecord
100
AcDbBlockTableRecord
  2
*D23
340
0
 70
     0
280
     1
281
     0
  0
BLOCK_RECORD
  5
8E0
330
1
100
AcDbSymbolTableRecord
100
AcDbBlockTableRecord
  2
*D24
340
0
 70
     0
280
     1
281
     0
  0
BLOCK_RECORD
  5
8E8
330
1
100
AcDbSymbolTableRecord
100
AcDbBlockTableRecord
  2
*D25
340
0
 70
     0
280
     1
281
     0
  0
BLOCK_RECORD
  5
8F0
330
1
100
AcDbSymbolTableRecord
100
AcDbBlockTableRecord
  2
*D26
340
0
 70
     0
280
     1
281
     0
  0
BLOCK_RECORD
  5
8FA
330
1
100
AcDbSymbolTableRecord
100
AcDbBlockTableRecord
  2
*D27
340
0
 70
     0
280
     1
281
     0
  0
BLOCK_RECORD
  5
904
330
1
100
AcDbSymbolTableRecord
100
AcDbBlockTableRecord
  2
*D28
340
0
 70
     0
280
     1
281
     0
  0
BLOCK_RECORD
  5
90C
330
1
100
AcDbSymbolTableRecord
100
AcDbBlockTableRecord
  2
*D29
340
0
 70
     0
280
     1
281
     0
  0
BLOCK_RECORD
  5
C40
330
1
100
AcDbSymbolTableRecord
100
AcDbBlockTableRecord
  2
*D30
340
0
 70
     0
280
     1
281
     0
  0
BLOCK_RECORD
  5
D84
330
1
100
AcDbSymbolTableRecord
100
AcDbBlockTableRecord
  2
*D31
340
0
 70
     0
280
     1
281
     0
  0
ENDTAB
  0
ENDSEC
  0
SECTION
  2
BLOCKS
  0
BLOCK
  5
20
330
1F
100
AcDbEntity
  8
0
100
AcDbBlockBegin
  2
*Model_Space
 70
     0
 10
0.0
 20
0.0
 30
0.0
  3
*Model_Space
  1

  0
ENDBLK
  5
21
330
1F
100
AcDbEntity
  8
0
100
AcDbBlockEnd
  0
BLOCK
  5
5A
330
58
100
AcDbEntity
 67
     1
  8
0
100
AcDbBlockBegin
  2
*Paper_Space
 70
     0
 10
0.0
 20
0.0
 30
0.0
  3
*Paper_Space
  1

  0
ENDBLK
  5
5B
330
58
100
AcDbEntity
 67
     1
  8
0
100
AcDbBlockEnd
  0
BLOCK
  5
5F
330
5D
100
AcDbEntity
 67
     1
  8
0
100
AcDbBlockBegin
  2
*Paper_Space0
 70
     0
 10
0.0
 20
0.0
 30
0.0
  3
*Paper_Space0
  1

  0
ENDBLK
  5
60
330
5D
100
AcDbEntity
 67
     1
  8
0
100
AcDbBlockEnd
  0
BLOCK
  5
7FD
330
7F7
100
AcDbEntity
  8
0
100
AcDbBlockBegin
  2
*D1
 70
     1
 10
0.0
 20
0.0
 30
0.0
  3
*D1
  1

  0
LINE
  5
E1F
330
7F7
100
AcDbEntity
  8
DIMENSION
 62
     0
440
 16777216
370
    -2
100
AcDbLine
 10
-364.8280572948522
 20
-143.108779907645
 30
0.0
 11
-368.6280572948522
 21
-143.108779907645
 31
0.0
  0
MTEXT
  5
E20
330
7F7
100
AcDbEntity
  8
DIMENSION
 62
     0
440
 16777216
100
AcDbMText
 10
-370.3847239615189
 20
-143.108779907645
 30
0.0
 40
1.0
 41
0.0
 46
0.0
 71
     5
 72
     1
  1
\A1;0.000
 73
     1
 44
1.0
  0
POINT
  5
E21
330
7F7
100
AcDbEntity
  8
Defpoints
 62
     0
440
 16777216
100
AcDbPoint
 10
-364.6280572948522
 20
-143.108779907645
 30
0.0
  0
POINT
  5
E22
330
7F7
100
AcDbEntity
  8
Defpoints
 62
     0
440
 16777216
100
AcDbPoint
 10
-368.6280572948522
 20
-143.108779907645
 30
0.0
  0
POINT
  5
E23
330
7F7
100
AcDbEntity
  8
Defpoints
 62
     0
440
 16777216
100
AcDbPoint
 10
-364.6280501205671
 20
-143.1088032733104
 30
0.0
  0
ENDBLK
  5
7FE
330
7F7
100
AcDbEntity
  8
0
100
AcDbBlockEnd
  0
BLOCK
  5
807
330
7FF
100
AcDbEntity
  8
0
100
AcDbBlockBegin
  2
*D2
 70
     1
 10
0.0
 20
0.0
 30
0.0
  3
*D2
  1

  0
LINE
  5
A9E
330
7FF
100
AcDbEntity
  8
DIMENSION
 62
     0
440
 16777216
370
    -2
100
AcDbLine
 10
-364.0775572948518
 20
-142.3912799076453
 30
0.0
 11
-365.877557294852
 21
-142.3912799076453
 31
0.0
  0
LINE
  5
A9F
330
7FF
100
AcDbEntity
  8
DIMENSION
 62
     0
440
 16777216
370
    -2
100
AcDbLine
 10
-365.877557294852
 20
-142.3912799076453
 30
0.0
 11
-366.4652221209719
 21
-141.8848504043221
 31
0.0
  0
LINE
  5
AA0
330
7FF
100
AcDbEntity
  8
DIMENSION
 62
     0
440
 16777216
370
    -2
100
AcDbLine
 10
-366.4652221209719
 20
-141.8848504043221
 30
0.0
 11
-368.4652221209719
 21
-141.8848504043221
 31
0.0
  0
MTEXT
  5
AA1
330
7FF
100
AcDbEntity
  8
DIMENSION
 62
     0
440
 16777216
100
AcDbMText
 10
-370.3052221209719
 20
-141.8848504043221
 30
0.0
 40
1.0
 41
0.0
 46
0.0
 71
     5
 72
     1
  1
\A1;0.718
 73
     1
 44
1.0
  0
POINT
  5
AA2
330
7FF
100
AcDbEntity
  8
Defpoints
 62
     0
440
 16777216
100
AcDbPoint
 10
-363.877557294852
 20
-142.3912799076453
 30
0.0
  0
POINT
  5
AA3
330
7FF
100
AcDbEntity
  8
Defpoints
 62
     0
440
 16777216
100
AcDbPoint
 10
-368.4652221209719
 20
-141.8848504043221
 30
0.0
  0
POINT
  5
AA4
330
7FF
100
AcDbEntity
  8
Defpoints
 62
     0
440
 16777216
100
AcDbPoint
 10
-364.6280501205671
 20
-143.1088032733104
 30
0.0
  0
ENDBLK
  5
808
330
7FF
100
AcDbEntity
  8
0
100
AcDbBlockEnd
  0
BLOCK
  5
811
330
809
100
AcDbEntity
  8
0
100
AcDbBlockBegin
  2
*D3
 70
     1
 10
0.0
 20
0.0
 30
0.0
  3
*D3
  1

  0
LINE
  5
A97
330
809
100
AcDbEntity
  8
DIMENSION
 62
     0
440
 16777216
370
    -2
100
AcDbLine
 10
-364.0775572948518
 20
-139.2662799076453
 30
0.0
 11
-365.877557294852
 21
-139.2662799076453
 31
0.0
  0
LINE
  5
A98
330
809
100
AcDbEntity
  8
DIMENSION
 62
     0
440
 16777216
370
    -2
100
AcDbLine
 10
-365.877557294852
 20
-139.2662799076453
 30
0.0
 11
-366.1235869216608
 21
-139.7779478223898
 31
0.0
  0
LINE
  5
A99
330
809
100
AcDbEntity
  8
DIMENSION
 62
     0
440
 16777216
370
    -2
100
AcDbLine
 10
-366.1235869216608
 20
-139.7779478223898
 30
0.0
 11
-368.1235869216608
 21
-139.7779478223898
 31
0.0
  0
MTEXT
  5
A9A
330
809
100
AcDbEntity
  8
DIMENSION
 62
     0
440
 16777216
100
AcDbMText
 10
-370.2135869216609
 20
-139.7779478223898
 30
0.0
 40
1.0
 41
0.0
 46
0.0
 71
     5
 72
     1
  1
\A1;3.843
 73
     1
 44
1.0
  0
POINT
  5
A9B
330
809
100
AcDbEntity
  8
Defpoints
 62
     0
440
 16777216
100
AcDbPoint
 10
-363.877557294852
 20
-139.2662799076453
 30
0.0
  0
POINT
  5
A9C
330
809
100
AcDbEntity
  8
Defpoints
 62
     0
440
 16777216
100
AcDbPoint
 10
-368.1235869216608
 20
-139.7779478223898
 30
0.0
  0
POINT
  5
A9D
330
809
100
AcDbEntity
  8
Defpoints
 62
     0
440
 16777216
100
AcDbPoint
 10
-364.6280501205671
 20
-143.1088032733104
 30
0.0
  0
ENDBLK
  5
812
330
809
100
AcDbEntity
  8
0
100
AcDbBlockEnd
  0
BLOCK
  5
81B
330
813
100
AcDbEntity
  8
0
100
AcDbBlockBegin
  2
*D4
 70
     1
 10
0.0
 20
0.0
 30
0.0
  3
*D4
  1

  0
LINE
  5
A90
330
813
100
AcDbEntity
  8
DIMENSION
 62
     0
440
 16777216
370
    -2
100
AcDbLine
 10
-363.877557294852
 20
-142.5912799076453
 30
0.0
 11
-363.877557294852
 21
-144.3912799076453
 31
0.0
  0
LINE
  5
A91
330
813
100
AcDbEntity
  8
DIMENSION
 62
     0
440
 16777216
370
    -2
100
AcDbLine
 10
-363.877557294852
 20
-144.3912799076453
 30
0.0
 11
-363.4972692595149
 21
-144.4001001170974
 31
0.0
  0
LINE
  5
A92
330
813
100
AcDbEntity
  8
DIMENSION
 62
     0
440
 16777216
370
    -2
100
AcDbLine
 10
-363.4972692595149
 20
-144.4001001170974
 30
0.0
 11
-363.4972692595149
 21
-146.4001001170974
 31
0.0
  0
MTEXT
  5
A93
330
813
100
AcDbEntity
  8
DIMENSION
 62
     0
440
 16777216
100
AcDbMText
 10
-363.4972692595149
 20
-148.3234334504308
 30
0.0
 40
1.0
 41
0.0
 46
0.0
 71
     5
 72
     1
  1
\A1;0.750
 11
0.0000000000000001
 21
1.0
 31
0.0
 73
     1
 44
1.0
  0
POINT
  5
A94
330
813
100
AcDbEntity
  8
Defpoints
 62
     0
440
 16777216
100
AcDbPoint
 10
-363.877557294852
 20
-142.3912799076453
 30
0.0
  0
POINT
  5
A95
330
813
100
AcDbEntity
  8
Defpoints
 62
     0
440
 16777216
100
AcDbPoint
 10
-363.4972692595149
 20
-146.4001001170974
 30
0.0
  0
POINT
  5
A96
330
813
100
AcDbEntity
  8
Defpoints
 62
     0
440
 16777216
100
AcDbPoint
 10
-364.6280501205671
 20
-143.1088032733104
 30
0.0
  0
ENDBLK
  5
81C
330
813
100
AcDbEntity
  8
0
100
AcDbBlockEnd
  0
BLOCK
  5
825
330
81D
100
AcDbEntity
  8
0
100
AcDbBlockBegin
  2
*D5
 70
     1
 10
0.0
 20
0.0
 30
0.0
  3
*D5
  1

  0
LINE
  5
A89
330
81D
100
AcDbEntity
  8
DIMENSION
 62
     0
440
 16777216
370
    -2
100
AcDbLine
 10
-361.5975572948518
 20
-142.5912799076451
 30
0.0
 11
-361.5975572948518
 21
-144.3912799076452
 31
0.0
  0
LINE
  5
A8A
330
81D
100
AcDbEntity
  8
DIMENSION
 62
     0
440
 16777216
370
    -2
100
AcDbLine
 10
-361.5975572948518
 20
-144.3912799076452
 30
0.0
 11
-360.8672034496461
 21
-145.0357859736723
 31
0.0
  0
LINE
  5
A8B
330
81D
100
AcDbEntity
  8
DIMENSION
 62
     0
440
 16777216
370
    -2
100
AcDbLine
 10
-360.8672034496461
 20
-145.0357859736723
 30
0.0
 11
-360.8672034496461
 21
-147.0357859736723
 31
0.0
  0
MTEXT
  5
A8C
330
81D
100
AcDbEntity
  8
DIMENSION
 62
     0
440
 16777216
100
AcDbMText
 10
-360.867203449646
 20
-148.9591193070057
 30
0.0
 40
1.0
 41
0.0
 46
0.0
 71
     5
 72
     1
  1
\A1;3.030
 11
0.0000000000000001
 21
1.0
 31
0.0
 73
     1
 44
1.0
  0
POINT
  5
A8D
330
81D
100
AcDbEntity
  8
Defpoints
 62
     0
440
 16777216
100
AcDbPoint
 10
-361.5975572948518
 20
-142.3912799076452
 30
0.0
  0
POINT
  5
A8E
330
81D
100
AcDbEntity
  8
Defpoints
 62
     0
440
 16777216
100
AcDbPoint
 10
-360.8672034496461
 20
-147.0357859736723
 30
0.0
  0
POINT
  5
A8F
330
81D
100
AcDbEntity
  8
Defpoints
 62
     0
440
 16777216
100
AcDbPoint
 10
-364.6280501205671
 20
-143.1088032733104
 30
0.0
  0
ENDBLK
  5
826
330
81D
100
AcDbEntity
  8
0
100
AcDbBlockEnd
  0
BLOCK
  5
82F
330
827
100
AcDbEntity
  8
0
100
AcDbBlockBegin
  2
*D6
 70
     1
 10
0.0
 20
0.0
 30
0.0
  3
*D6
  1

  0
LINE
  5
A82
330
827
100
AcDbEntity
  8
DIMENSION
 62
     0
440
 16777216
370
    -2
100
AcDbLine
 10
-363.4275572948518
 20
-118.7687799076451
 30
0.0
 11
-363.4275572948518
 21
-122.4105416513686
 31
0.0
  0
LINE
  5
A83
330
827
100
AcDbEntity
  8
DIMENSION
 62
     0
440
 16777216
370
    -2
100
AcDbLine
 10
-363.4275572948518
 20
-122.4105416513686
 30
0.0
 11
-363.4202923782489
 21
-124.4105416513686
 31
0.0
  0
LINE
  5
A84
330
827
100
AcDbEntity
  8
DIMENSION
 62
     0
440
 16777216
370
    -2
100
AcDbLine
 10
-363.4202923782489
 20
-124.4105416513686
 30
0.0
 11
-363.4202923782489
 21
-126.4105416513686
 31
0.0
  0
MTEXT
  5
A85
330
827
100
AcDbEntity
  8
DIMENSION
 62
     0
440
 16777216
100
AcDbMText
 10
-363.4202923782489
 20
-128.1672083180353
 30
0.0
 40
1.0
 41
0.0
 46
0.0
 71
     5
 72
     1
  1
\A1;1.200
 11
0.0000000000000001
 21
1.0
 31
0.0
 73
     1
 44
1.0
  0
POINT
  5
A86
330
827
100
AcDbEntity
  8
Defpoints
 62
     0
440
 16777216
100
AcDbPoint
 10
-363.4275572948518
 20
-118.568779907645
 30
0.0
  0
POINT
  5
A87
330
827
100
AcDbEntity
  8
Defpoints
 62
     0
440
 16777216
100
AcDbPoint
 10
-363.4202923782489
 20
-126.4105416513686
 30
0.0
  0
POINT
  5
A88
330
827
100
AcDbEntity
  8
Defpoints
 62
     0
440
 16777216
100
AcDbPoint
 10
-364.6280501205671
 20
-143.1088032733104
 30
0.0
  0
ENDBLK
  5
830
330
827
100
AcDbEntity
  8
0
100
AcDbBlockEnd
  0
BLOCK
  5
837
330
831
100
AcDbEntity
  8
0
100
AcDbBlockBegin
  2
*D7
 70
     1
 10
0.0
 20
0.0
 30
0.0
  3
*D7
  1

  0
LINE
  5
DAB
330
831
100
AcDbEntity
  8
DIMENSION
 62
     0
440
 16777216
370
    -2
100
AcDbLine
 10
-362.244057294852
 20
-137.3387799076448
 30
0.0
 11
-362.244057294852
 21
-146.2409892231256
 31
0.0
  0
MTEXT
  5
DAC
330
831
100
AcDbEntity
  8
DIMENSION
 62
     0
440
 16777216
100
AcDbMText
 10
-362.2440572948519
 20
-149.9976558897923
 30
0.0
 40
1.0
 41
0.0
 46
0.0
 71
     5
 72
     1
  1
\A1;(2) 2.384
 11
0.0000000000000001
 21
1.0
 31
0.0
 73
     1
 44
1.0
  0
POINT
  5
DAD
330
831
100
AcDbEntity
  8
Defpoints
 62
     0
440
 16777216
100
AcDbPoint
 10
-362.244057294852
 20
-137.1387799076448
 30
0.0
  0
POINT
  5
DAE
330
831
100
AcDbEntity
  8
Defpoints
 62
     0
440
 16777216
100
AcDbPoint
 10
-362.244057294852
 20
-146.2409892231256
 30
0.0
  0
POINT
  5
DAF
330
831
100
AcDbEntity
  8
Defpoints
 62
     0
440
 16777216
100
AcDbPoint
 10
-364.6280501205671
 20
-143.1088032733104
 30
0.0
  0
ENDBLK
  5
838
330
831
100
AcDbEntity
  8
0
100
AcDbBlockEnd
  0
BLOCK
  5
841
330
839
100
AcDbEntity
  8
0
100
AcDbBlockBegin
  2
*D8
 70
     1
 10
0.0
 20
0.0
 30
0.0
  3
*D8
  1

  0
LINE
  5
A76
330
839
100
AcDbEntity
  8
DIMENSION
 62
     0
440
 16777216
370
    -2
100
AcDbLine
 10
-352.358057294852
 20
-108.7877799076445
 30
0.0
 11
-352.358057294852
 21
-106.9877799076445
 31
0.0
  0
LINE
  5
A77
330
839
100
AcDbEntity
  8
DIMENSION
 62
     0
440
 16777216
370
    -2
100
AcDbLine
 10
-352.358057294852
 20
-106.9877799076445
 30
0.0
 11
-351.1510864828836
 21
-107.2966571435878
 31
0.0
  0
LINE
  5
A78
330
839
100
AcDbEntity
  8
DIMENSION
 62
     0
440
 16777216
370
    -2
100
AcDbLine
 10
-351.1510864828836
 20
-107.2966571435878
 30
0.0
 11
-351.1510864828836
 21
-105.2966571435878
 31
0.0
  0
MTEXT
  5
A79
330
839
100
AcDbEntity
  8
DIMENSION
 62
     0
440
 16777216
100
AcDbMText
 10
-351.1510864828836
 20
-102.9566571435878
 30
0.0
 40
1.0
 41
0.0
 46
0.0
 71
     5
 72
     1
  1
\A1;12.270
 11
0.0000000000000001
 21
1.0
 31
0.0
 73
     1
 44
1.0
  0
POINT
  5
A7A
330
839
100
AcDbEntity
  8
Defpoints
 62
     0
440
 16777216
100
AcDbPoint
 10
-352.358057294852
 20
-108.9877799076445
 30
0.0
  0
POINT
  5
A7B
330
839
100
AcDbEntity
  8
Defpoints
 62
     0
440
 16777216
100
AcDbPoint
 10
-351.1510864828836
 20
-105.2966571435878
 30
0.0
  0
POINT
  5
A7C
330
839
100
AcDbEntity
  8
Defpoints
 62
     0
440
 16777216
100
AcDbPoint
 10
-364.6280501205671
 20
-143.1088032733104
 30
0.0
  0
ENDBLK
  5
842
330
839
100
AcDbEntity
  8
0
100
AcDbBlockEnd
  0
BLOCK
  5
84C
330
843
100
AcDbEntity
  8
0
100
AcDbBlockBegin
  2
*D9
 70
     1
 10
0.0
 20
0.0
 30
0.0
  3
*D9
  1

  0
LINE
  5
C1B
330
843
100
AcDbEntity
  8
DIMENSION
 62
     0
440
 16777216
370
    -2
100
AcDbLine
 10
-348.0699292051963
 20
-141.443910692684
 30
0.0
 11
-349.0699292051963
 21
-141.443910692684
 31
0.0
  0
LINE
  5
C1C
330
843
100
AcDbEntity
  8
DIMENSION
 62
     0
440
 16777216
370
    -2
100
AcDbLine
 10
-349.0699292051963
 20
-141.443910692684
 30
0.0
 11
-357.7248774061877
 21
-123.2856720247713
 31
0.0
  0
MTEXT
  5
C1D
102
{ACAD_XDICTIONARY
360
D44
102
}
330
843
100
AcDbEntity
  8
DIMENSION
 62
     0
440
 16777216
100
AcDbMText
 10
-344.146595871863
 20
-141.443910692684
 30
0.0
 40
1.0
 41
0.0
 46
0.0
 71
     5
 72
     1
  1
\A1;∅1.250 (1) \POPTIONAL:\PEXTERNAL \PHEAT\POUTPUT
 73
     1
 44
1.0
  0
SOLID
  5
C1E
330
843
100
AcDbEntity
  8
DIMENSION
 62
     0
440
 16777216
100
AcDbTrace
 10
-357.5744269326362
 20
-123.2139612669596
 30
0.0
 11
-357.8753278797391
 21
-123.357382782583
 31
0.0
 12
-358.155141953058
 22
-122.3829691834628
 32
0.0
 13
-358.155141953058
 23
-122.3829691834628
 33
0.0
  0
LINE
  5
C1F
330
843
100
AcDbEntity
  8
DIMENSION
 62
     0
440
 16777216
370
    -2
100
AcDbLine
 10
-358.5140572948519
 20
-121.818779907645
 30
0.0
 11
-358.3340572948519
 21
-121.8187799076449
 31
0.0
  0
LINE
  5
C20
330
843
100
AcDbEntity
  8
DIMENSION
 62
     0
440
 16777216
370
    -2
100
AcDbLine
 10
-358.424057294852
 20
-121.908779907645
 30
0.0
 11
-358.424057294852
 21
-121.7287799076449
 31
0.0
  0
POINT
  5
C21
330
843
100
AcDbEntity
  8
Defpoints
 62
     0
440
 16777216
100
AcDbPoint
 10
-358.155141953058
 20
-122.3829691834628
 30
0.0
  0
POINT
  5
C22
330
843
100
AcDbEntity
  8
Defpoints
 62
     0
440
 16777216
100
AcDbPoint
 10
-358.6929726366459
 20
-121.2545906318271
 30
0.0
  0
ENDBLK
  5
84D
330
843
100
AcDbEntity
  8
0
100
AcDbBlockEnd
  0
BLOCK
  5
860
330
858
100
AcDbEntity
  8
0
100
AcDbBlockBegin
  2
*D10
 70
     1
 10
0.0
 20
0.0
 30
0.0
  3
*D10
  1

  0
LINE
  5
C38
330
858
100
AcDbEntity
  8
DIM
 62
     0
440
 16777216
370
    -2
100
AcDbLine
 10
-361.1240572948521
 20
-119.568779907645
 30
0.0
 11
-364.4637599251898
 21
-119.568779907645
 31
0.0
  0
LINE
  5
C39
330
858
100
AcDbEntity
  8
DIM
 62
     0
440
 16777216
370
    -2
100
AcDbLine
 10
-364.4637599251898
 20
-119.568779907645
 30
0.0
 11
-366.4637599251898
 21
-120.6186666716674
 31
0.0
  0
LINE
  5
C3A
330
858
100
AcDbEntity
  8
DIM
 62
     0
440
 16777216
370
    -2
100
AcDbLine
 10
-366.4637599251898
 20
-120.6186666716674
 30
0.0
 11
-368.4637599251898
 21
-120.6186666716674
 31
0.0
  0
MTEXT
  5
C3B
330
858
100
AcDbEntity
  8
DIM
 62
     0
440
 16777216
100
AcDbMText
 10
-370.9704265918565
 20
-120.6186666716674
 30
0.0
 40
0.9999999999999998
 41
0.0
 46
0.0
 71
     5
 72
     1
  1
\A1;23.540
 73
     1
 44
1.0
  0
POINT
  5
C3C
330
858
100
AcDbEntity
  8
Defpoints
 62
     0
440
 16777216
100
AcDbPoint
 10
-360.9240572948522
 20
-119.568779907645
 30
0.0
  0
POINT
  5
C3D
330
858
100
AcDbEntity
  8
Defpoints
 62
     0
440
 16777216
100
AcDbPoint
 10
-368.4637599251898
 20
-120.6186666716674
 30
0.0
  0
POINT
  5
C3E
330
858
100
AcDbEntity
  8
Defpoints
 62
     0
440
 16777216
100
AcDbPoint
 10
-364.6280572948522
 20
-143.108779907645
 30
0.0
  0
ENDBLK
  5
861
330
858
100
AcDbEntity
  8
0
100
AcDbBlockEnd
  0
BLOCK
  5
86A
330
862
100
AcDbEntity
  8
0
100
AcDbBlockBegin
  2
*D11
 70
     1
 10
0.0
 20
0.0
 30
0.0
  3
*D11
  1

  0
LINE
  5
B19
330
862
100
AcDbEntity
  8
DIM
 62
     0
440
 16777216
370
    -2
100
AcDbLine
 10
-360.9240572948522
 20
-119.7687799076451
 30
0.0
 11
-360.9240572948522
 21
-142.5140870714731
 31
0.0
  0
LINE
  5
B1A
330
862
100
AcDbEntity
  8
DIM
 62
     0
440
 16777216
370
    -2
100
AcDbLine
 10
-360.9240572948522
 20
-142.5140870714731
 30
0.0
 11
-359.5698014859398
 21
-144.5140870714731
 31
0.0
  0
LINE
  5
B1B
330
862
100
AcDbEntity
  8
DIM
 62
     0
440
 16777216
370
    -2
100
AcDbLine
 10
-359.5698014859398
 20
-144.5140870714731
 30
0.0
 11
-359.5698014859398
 21
-146.5140870714732
 31
0.0
  0
MTEXT
  5
B1C
330
862
100
AcDbEntity
  8
DIM
 62
     0
440
 16777216
100
AcDbMText
 10
-359.5698014859398
 20
-148.5207537381399
 30
0.0
 40
0.9999999999999998
 41
0.0
 46
0.0
 71
     5
 72
     1
  1
\A1;3.704
 11
0.0000000000000001
 21
1.0
 31
0.0
 73
     1
 44
1.0
  0
POINT
  5
B1D
330
862
100
AcDbEntity
  8
Defpoints
 62
     0
440
 16777216
100
AcDbPoint
 10
-360.9240572948522
 20
-119.568779907645
 30
0.0
  0
POINT
  5
B1E
330
862
100
AcDbEntity
  8
Defpoints
 62
     0
440
 16777216
100
AcDbPoint
 10
-359.5698014859398
 20
-146.5140870714732
 30
0.0
  0
POINT
  5
B1F
330
862
100
AcDbEntity
  8
Defpoints
 62
     0
440
 16777216
100
AcDbPoint
 10
-364.6280572948522
 20
-143.108779907645
 30
0.0
  0
ENDBLK
  5
86B
330
862
100
AcDbEntity
  8
0
100
AcDbBlockEnd
  0
BLOCK
  5
872
330
86C
100
AcDbEntity
  8
0
100
AcDbBlockBegin
  2
*D12
 70
     1
 10
0.0
 20
0.0
 30
0.0
  3
*D12
  1

  0
LINE
  5
B14
330
86C
100
AcDbEntity
  8
DIM
 62
     0
440
 16777216
370
    -2
100
AcDbLine
 10
-352.158057294852
 20
-108.9877799076445
 30
0.0
 11
-348.3250874174457
 21
-108.9877799076445
 31
0.0
  0
MTEXT
  5
B15
330
86C
100
AcDbEntity
  8
DIM
 62
     0
440
 16777216
100
AcDbMText
 10
-346.0684207507791
 20
-108.9877799076445
 30
0.0
 40
0.9999999999999998
 41
0.0
 46
0.0
 71
     5
 72
     1
  1
\A1;34.121
 73
     1
 44
1.0
  0
POINT
  5
B16
330
86C
100
AcDbEntity
  8
Defpoints
 62
     0
440
 16777216
100
AcDbPoint
 10
-352.358057294852
 20
-108.9877799076445
 30
0.0
  0
POINT
  5
B17
330
86C
100
AcDbEntity
  8
Defpoints
 62
     0
440
 16777216
100
AcDbPoint
 10
-348.3250874174457
 20
-108.9877799076445
 30
0.0
  0
POINT
  5
B18
330
86C
100
AcDbEntity
  8
Defpoints
 62
     0
440
 16777216
100
AcDbPoint
 10
-364.6280572948522
 20
-143.108779907645
 30
0.0
  0
ENDBLK
  5
873
330
86C
100
AcDbEntity
  8
0
100
AcDbBlockEnd
  0
BLOCK
  5
87C
330
874
100
AcDbEntity
  8
0
100
AcDbBlockBegin
  2
*D13
 70
     1
 10
0.0
 20
0.0
 30
0.0
  3
*D13
  1

  0
LINE
  5
B0D
330
874
100
AcDbEntity
  8
DIM
 62
     0
440
 16777216
370
    -2
100
AcDbLine
 10
-354.1503072948521
 20
-109.7712799076449
 30
0.0
 11
-352.3405770285005
 21
-109.7712799076449
 31
0.0
  0
LINE
  5
B0E
330
874
100
AcDbEntity
  8
DIM
 62
     0
440
 16777216
370
    -2
100
AcDbLine
 10
-352.3405770285005
 20
-109.7712799076449
 30
0.0
 11
-350.3405770285005
 21
-110.5231845891593
 31
0.0
  0
LINE
  5
B0F
330
874
100
AcDbEntity
  8
DIM
 62
     0
440
 16777216
370
    -2
100
AcDbLine
 10
-350.3405770285005
 20
-110.5231845891593
 30
0.0
 11
-348.3405770285005
 21
-110.5231845891593
 31
0.0
  0
MTEXT
  5
B10
330
874
100
AcDbEntity
  8
DIM
 62
     0
440
 16777216
100
AcDbMText
 10
-345.7505770285006
 20
-110.5231845891593
 30
0.0
 40
0.9999999999999998
 41
0.0
 46
0.0
 71
     5
 72
     1
  1
\A1;33.338
 73
     1
 44
1.0
  0
POINT
  5
B11
330
874
100
AcDbEntity
  8
Defpoints
 62
     0
440
 16777216
100
AcDbPoint
 10
-354.3503072948521
 20
-109.7712799076449
 30
0.0
  0
POINT
  5
B12
330
874
100
AcDbEntity
  8
Defpoints
 62
     0
440
 16777216
100
AcDbPoint
 10
-348.3405770285005
 20
-110.5231845891593
 30
0.0
  0
POINT
  5
B13
330
874
100
AcDbEntity
  8
Defpoints
 62
     0
440
 16777216
100
AcDbPoint
 10
-364.6280572948522
 20
-143.108779907645
 30
0.0
  0
ENDBLK
  5
87D
330
874
100
AcDbEntity
  8
0
100
AcDbBlockEnd
  0
BLOCK
  5
884
330
87E
100
AcDbEntity
  8
0
100
AcDbBlockBegin
  2
*D14
 70
     1
 10
0.0
 20
0.0
 30
0.0
  3
*D14
  1

  0
LINE
  5
B08
330
87E
100
AcDbEntity
  8
DIM
 62
     0
440
 16777216
370
    -2
100
AcDbLine
 10
-354.1503072948521
 20
-114.2212799076447
 30
0.0
 11
-348.3405770285005
 21
-114.2212799076447
 31
0.0
  0
MTEXT
  5
B09
330
87E
100
AcDbEntity
  8
DIM
 62
     0
440
 16777216
100
AcDbMText
 10
-345.7505770285006
 20
-114.2212799076447
 30
0.0
 40
0.9999999999999998
 41
0.0
 46
0.0
 71
     5
 72
     1
  1
\A1;28.888
 73
     1
 44
1.0
  0
POINT
  5
B0A
330
87E
100
AcDbEntity
  8
Defpoints
 62
     0
440
 16777216
100
AcDbPoint
 10
-354.3503072948521
 20
-114.2212799076447
 30
0.0
  0
POINT
  5
B0B
330
87E
100
AcDbEntity
  8
Defpoints
 62
     0
440
 16777216
100
AcDbPoint
 10
-348.3405770285005
 20
-114.2212799076447
 30
0.0
  0
POINT
  5
B0C
330
87E
100
AcDbEntity
  8
Defpoints
 62
     0
440
 16777216
100
AcDbPoint
 10
-364.6280572948522
 20
-143.108779907645
 30
0.0
  0
ENDBLK
  5
885
330
87E
100
AcDbEntity
  8
0
100
AcDbBlockEnd
  0
BLOCK
  5
88C
330
886
100
AcDbEntity
  8
0
100
AcDbBlockBegin
  2
*D15
 70
     1
 10
0.0
 20
0.0
 30
0.0
  3
*D15
  1

  0
LINE
  5
B03
330
886
100
AcDbEntity
  8
DIM
 62
     0
440
 16777216
370
    -2
100
AcDbLine
 10
-364.2313072948521
 20
-109.3297799076448
 30
0.0
 11
-366.6320274724084
 21
-109.3297799076448
 31
0.0
  0
MTEXT
  5
B04
330
886
100
AcDbEntity
  8
DIM
 62
     0
440
 16777216
100
AcDbMText
 10
-369.138694139075
 20
-109.3297799076448
 30
0.0
 40
0.9999999999999998
 41
0.0
 46
0.0
 71
     5
 72
     1
  1
\A1;33.780
 73
     1
 44
1.0
  0
POINT
  5
B05
330
886
100
AcDbEntity
  8
Defpoints
 62
     0
440
 16777216
100
AcDbPoint
 10
-364.0313072948521
 20
-109.3297799076448
 30
0.0
  0
POINT
  5
B06
330
886
100
AcDbEntity
  8
Defpoints
 62
     0
440
 16777216
100
AcDbPoint
 10
-366.6320274724084
 20
-109.3297799076448
 30
0.0
  0
POINT
  5
B07
330
886
100
AcDbEntity
  8
Defpoints
 62
     0
440
 16777216
100
AcDbPoint
 10
-364.6280572948522
 20
-143.108779907645
 30
0.0
  0
ENDBLK
  5
88D
330
886
100
AcDbEntity
  8
0
100
AcDbBlockEnd
  0
BLOCK
  5
894
330
88E
100
AcDbEntity
  8
0
100
AcDbBlockBegin
  2
*D16
 70
     1
 10
0.0
 20
0.0
 30
0.0
  3
*D16
  1

  0
LINE
  5
D78
330
88E
100
AcDbEntity
  8
DIM
 62
     0
440
 16777216
370
    -2
100
AcDbLine
 10
-364.444057294852
 20
-111.1387799076448
 30
0.0
 11
-366.6320274724084
 21
-111.1387799076448
 31
0.0
  0
MTEXT
  5
D79
330
88E
100
AcDbEntity
  8
DIM
 62
     0
440
 16777216
100
AcDbMText
 10
-370.638694139075
 20
-111.1387799076448
 30
0.0
 40
0.9999999999999998
 41
0.0
 46
0.0
 71
     5
 72
     1
  1
\A1;(2) 31.970
 73
     1
 44
1.0
  0
POINT
  5
D7A
330
88E
100
AcDbEntity
  8
Defpoints
 62
     0
440
 16777216
100
AcDbPoint
 10
-364.244057294852
 20
-111.1387799076448
 30
0.0
  0
POINT
  5
D7B
330
88E
100
AcDbEntity
  8
Defpoints
 62
     0
440
 16777216
100
AcDbPoint
 10
-366.6320274724084
 20
-111.1387799076448
 30
0.0
  0
POINT
  5
D7C
330
88E
100
AcDbEntity
  8
Defpoints
 62
     0
440
 16777216
100
AcDbPoint
 10
-364.6280572948522
 20
-143.108779907645
 30
0.0
  0
ENDBLK
  5
895
330
88E
100
AcDbEntity
  8
0
100
AcDbBlockEnd
  0
BLOCK
  5
89E
330
896
100
AcDbEntity
  8
0
100
AcDbBlockBegin
  2
*D17
 70
     1
 10
0.0
 20
0.0
 30
0.0
  3
*D17
  1

  0
LINE
  5
AF7
330
896
100
AcDbEntity
  8
DIM
 62
     0
440
 16777216
370
    -2
100
AcDbLine
 10
-364.2313072948521
 20
-118.0797799076448
 30
0.0
 11
-366.0313072948521
 21
-118.0797799076448
 31
0.0
  0
LINE
  5
AF8
330
896
100
AcDbEntity
  8
DIM
 62
     0
440
 16777216
370
    -2
100
AcDbLine
 10
-366.0313072948521
 20
-118.0797799076448
 30
0.0
 11
-366.6280572948522
 21
-116.5797799076448
 31
0.0
  0
LINE
  5
AF9
330
896
100
AcDbEntity
  8
DIM
 62
     0
440
 16777216
370
    -2
100
AcDbLine
 10
-366.6280572948522
 20
-116.5797799076448
 30
0.0
 11
-368.6280572948522
 21
-116.5797799076448
 31
0.0
  0
MTEXT
  5
AFA
330
896
100
AcDbEntity
  8
DIM
 62
     0
440
 16777216
100
AcDbMText
 10
-371.0513906281855
 20
-116.5797799076448
 30
0.0
 40
0.9999999999999998
 41
0.0
 46
0.0
 71
     5
 72
     1
  1
\A1;25.030
 73
     1
 44
1.0
  0
POINT
  5
AFB
330
896
100
AcDbEntity
  8
Defpoints
 62
     0
440
 16777216
100
AcDbPoint
 10
-364.0313072948521
 20
-118.0797799076448
 30
0.0
  0
POINT
  5
AFC
330
896
100
AcDbEntity
  8
Defpoints
 62
     0
440
 16777216
100
AcDbPoint
 10
-368.6280572948522
 20
-116.5797799076448
 30
0.0
  0
POINT
  5
AFD
330
896
100
AcDbEntity
  8
Defpoints
 62
     0
440
 16777216
100
AcDbPoint
 10
-364.6280572948522
 20
-143.108779907645
 30
0.0
  0
ENDBLK
  5
89F
330
896
100
AcDbEntity
  8
0
100
AcDbBlockEnd
  0
BLOCK
  5
8B0
330
8A8
100
AcDbEntity
  8
0
100
AcDbBlockBegin
  2
*D18
 70
     1
 10
0.0
 20
0.0
 30
0.0
  3
*D18
  1

  0
LINE
  5
AEB
330
8A8
100
AcDbEntity
  8
DIM
 62
     0
440
 16777216
370
    -2
100
AcDbLine
 10
-358.6240572948522
 20
-120.3187799076448
 30
0.0
 11
-364.9570932585232
 21
-120.3187799076448
 31
0.0
  0
LINE
  5
AEC
330
8A8
100
AcDbEntity
  8
DIM
 62
     0
440
 16777216
370
    -2
100
AcDbLine
 10
-364.9570932585232
 20
-120.3187799076448
 30
0.0
 11
-366.9570932585232
 21
-122.6784526875083
 31
0.0
  0
LINE
  5
AED
330
8A8
100
AcDbEntity
  8
DIM
 62
     0
440
 16777216
370
    -2
100
AcDbLine
 10
-366.9570932585232
 20
-122.6784526875083
 30
0.0
 11
-368.9570932585232
 21
-122.6784526875083
 31
0.0
  0
MTEXT
  5
AEE
330
8A8
100
AcDbEntity
  8
DIM
 62
     0
440
 16777216
100
AcDbMText
 10
-371.4637599251898
 20
-122.6784526875083
 30
0.0
 40
0.9999999999999998
 41
0.0
 46
0.0
 71
     5
 72
     1
  1
\A1;22.790
 73
     1
 44
1.0
  0
POINT
  5
AEF
330
8A8
100
AcDbEntity
  8
Defpoints
 62
     0
440
 16777216
100
AcDbPoint
 10
-358.4240572948522
 20
-120.3187799076448
 30
0.0
  0
POINT
  5
AF0
330
8A8
100
AcDbEntity
  8
Defpoints
 62
     0
440
 16777216
100
AcDbPoint
 10
-368.9570932585232
 20
-122.6784526875083
 30
0.0
  0
POINT
  5
AF1
330
8A8
100
AcDbEntity
  8
Defpoints
 62
     0
440
 16777216
100
AcDbPoint
 10
-364.6280572948522
 20
-143.108779907645
 30
0.0
  0
ENDBLK
  5
8B1
330
8A8
100
AcDbEntity
  8
0
100
AcDbBlockEnd
  0
BLOCK
  5
8BA
330
8B2
100
AcDbEntity
  8
0
100
AcDbBlockBegin
  2
*D19
 70
     1
 10
0.0
 20
0.0
 30
0.0
  3
*D19
  1

  0
LINE
  5
AE4
330
8B2
100
AcDbEntity
  8
DIM
 62
     0
440
 16777216
370
    -2
100
AcDbLine
 10
-358.6240572948522
 20
-121.8187799076451
 30
0.0
 11
-365.0380572948522
 21
-121.8187799076451
 31
0.0
  0
LINE
  5
AE5
330
8B2
100
AcDbEntity
  8
DIM
 62
     0
440
 16777216
370
    -2
100
AcDbLine
 10
-365.0380572948522
 20
-121.8187799076451
 30
0.0
 11
-367.0380572948522
 21
-124.5557835144411
 31
0.0
  0
LINE
  5
AE6
330
8B2
100
AcDbEntity
  8
DIM
 62
     0
440
 16777216
370
    -2
100
AcDbLine
 10
-367.0380572948522
 20
-124.5557835144411
 30
0.0
 11
-369.0380572948522
 21
-124.5557835144411
 31
0.0
  0
MTEXT
  5
AE7
330
8B2
100
AcDbEntity
  8
DIM
 62
     0
440
 16777216
100
AcDbMText
 10
-371.3780572948522
 20
-124.5557835144411
 30
0.0
 40
0.9999999999999998
 41
0.0
 46
0.0
 71
     5
 72
     1
  1
\A1;21.290
 73
     1
 44
1.0
  0
POINT
  5
AE8
330
8B2
100
AcDbEntity
  8
Defpoints
 62
     0
440
 16777216
100
AcDbPoint
 10
-358.4240572948522
 20
-121.8187799076451
 30
0.0
  0
POINT
  5
AE9
330
8B2
100
AcDbEntity
  8
Defpoints
 62
     0
440
 16777216
100
AcDbPoint
 10
-369.0380572948522
 20
-124.5557835144411
 30
0.0
  0
POINT
  5
AEA
330
8B2
100
AcDbEntity
  8
Defpoints
 62
     0
440
 16777216
100
AcDbPoint
 10
-364.6280572948522
 20
-143.108779907645
 30
0.0
  0
ENDBLK
  5
8BB
330
8B2
100
AcDbEntity
  8
0
100
AcDbBlockEnd
  0
BLOCK
  5
8C4
330
8BC
100
AcDbEntity
  8
0
100
AcDbBlockBegin
  2
*D20
 70
     1
 10
0.0
 20
0.0
 30
0.0
  3
*D20
  1

  0
LINE
  5
D6C
330
8BC
100
AcDbEntity
  8
DIM
 62
     0
440
 16777216
370
    -2
100
AcDbLine
 10
-362.444057294852
 20
-124.1387799076448
 30
0.0
 11
-365.3564106362468
 21
-124.1387799076448
 31
0.0
  0
LINE
  5
D6D
330
8BC
100
AcDbEntity
  8
DIM
 62
     0
440
 16777216
370
    -2
100
AcDbLine
 10
-365.3564106362468
 20
-124.1387799076448
 30
0.0
 11
-367.3564106362468
 21
-126.7359096742084
 31
0.0
  0
LINE
  5
D6E
330
8BC
100
AcDbEntity
  8
DIM
 62
     0
440
 16777216
370
    -2
100
AcDbLine
 10
-367.3564106362468
 20
-126.7359096742084
 30
0.0
 11
-369.3564106362468
 21
-126.7359096742084
 31
0.0
  0
MTEXT
  5
D6F
330
8BC
100
AcDbEntity
  8
DIM
 62
     0
440
 16777216
100
AcDbMText
 10
-373.3630773029134
 20
-126.7359096742084
 30
0.0
 40
0.9999999999999998
 41
0.0
 46
0.0
 71
     5
 72
     1
  1
\A1;(2) 18.970
 73
     1
 44
1.0
  0
POINT
  5
D70
330
8BC
100
AcDbEntity
  8
Defpoints
 62
     0
440
 16777216
100
AcDbPoint
 10
-362.244057294852
 20
-124.1387799076448
 30
0.0
  0
POINT
  5
D71
330
8BC
100
AcDbEntity
  8
Defpoints
 62
     0
440
 16777216
100
AcDbPoint
 10
-369.3564106362468
 20
-126.7359096742084
 30
0.0
  0
POINT
  5
D72
330
8BC
100
AcDbEntity
  8
Defpoints
 62
     0
440
 16777216
100
AcDbPoint
 10
-364.6280572948522
 20
-143.108779907645
 30
0.0
  0
ENDBLK
  5
8C5
330
8BC
100
AcDbEntity
  8
0
100
AcDbBlockEnd
  0
BLOCK
  5
8CC
330
8C6
100
AcDbEntity
  8
0
100
AcDbBlockBegin
  2
*D21
 70
     1
 10
0.0
 20
0.0
 30
0.0
  3
*D21
  1

  0
LINE
  5
D59
330
8C6
100
AcDbEntity
  8
DIM
 62
     0
440
 16777216
370
    -2
100
AcDbLine
 10
-362.444057294852
 20
-137.1387799076448
 30
0.0
 11
-368.4158412317959
 21
-137.1387799076448
 31
0.0
  0
MTEXT
  5
D5A
330
8C6
100
AcDbEntity
  8
DIM
 62
     0
440
 16777216
100
AcDbMText
 10
-372.0891745651292
 20
-137.1387799076448
 30
0.0
 40
0.9999999999999998
 41
0.0
 46
0.0
 71
     5
 72
     1
  1
\A1;(2) 5.970
 73
     1
 44
1.0
  0
POINT
  5
D5B
330
8C6
100
AcDbEntity
  8
Defpoints
 62
     0
440
 16777216
100
AcDbPoint
 10
-362.244057294852
 20
-137.1387799076448
 30
0.0
  0
POINT
  5
D5C
330
8C6
100
AcDbEntity
  8
Defpoints
 62
     0
440
 16777216
100
AcDbPoint
 10
-368.4158412317959
 20
-137.1387799076448
 30
0.0
  0
POINT
  5
D5D
330
8C6
100
AcDbEntity
  8
Defpoints
 62
     0
440
 16777216
100
AcDbPoint
 10
-364.6280572948522
 20
-143.108779907645
 30
0.0
  0
ENDBLK
  5
8CD
330
8C6
100
AcDbEntity
  8
0
100
AcDbBlockEnd
  0
BLOCK
  5
8D6
330
8CE
100
AcDbEntity
  8
0
100
AcDbBlockBegin
  2
*D22
 70
     1
 10
0.0
 20
0.0
 30
0.0
  3
*D22
  1

  0
LINE
  5
AD1
330
8CE
100
AcDbEntity
  8
DIM
 62
     0
440
 16777216
370
    -2
100
AcDbLine
 10
-353.5590572948521
 20
-118.7687799076451
 30
0.0
 11
-353.5590572948521
 21
-141.1890224651046
 31
0.0
  0
LINE
  5
AD2
330
8CE
100
AcDbEntity
  8
DIM
 62
     0
440
 16777216
370
    -2
100
AcDbLine
 10
-353.5590572948521
 20
-141.1890224651046
 30
0.0
 11
-353.2453834757936
 21
-143.1890224651046
 31
0.0
  0
LINE
  5
AD3
330
8CE
100
AcDbEntity
  8
DIM
 62
     0
440
 16777216
370
    -2
100
AcDbLine
 10
-353.2453834757936
 20
-143.1890224651046
 30
0.0
 11
-353.2453834757936
 21
-145.1890224651046
 31
0.0
  0
MTEXT
  5
AD4
330
8CE
100
AcDbEntity
  8
DIM
 62
     0
440
 16777216
100
AcDbMText
 10
-353.2453834757935
 20
-147.362355798438
 30
0.0
 40
1.0
 41
0.0
 46
0.0
 71
     5
 72
     1
  1
\A1;11.069
 11
0.0000000000000001
 21
1.0
 31
0.0
 73
     1
 44
1.0
  0
POINT
  5
AD5
330
8CE
100
AcDbEntity
  8
Defpoints
 62
     0
440
 16777216
100
AcDbPoint
 10
-353.5590572948521
 20
-118.568779907645
 30
0.0
  0
POINT
  5
AD6
330
8CE
100
AcDbEntity
  8
Defpoints
 62
     0
440
 16777216
100
AcDbPoint
 10
-353.2453834757936
 20
-145.1890224651046
 30
0.0
  0
POINT
  5
AD7
330
8CE
100
AcDbEntity
  8
Defpoints
 62
     0
440
 16777216
100
AcDbPoint
 10
-364.6280572948522
 20
-143.108779907645
 30
0.0
  0
ENDBLK
  5
8D7
330
8CE
100
AcDbEntity
  8
0
100
AcDbBlockEnd
  0
BLOCK
  5
8DE
330
8D8
100
AcDbEntity
  8
0
100
AcDbBlockBegin
  2
*D23
 70
     1
 10
0.0
 20
0.0
 30
0.0
  3
*D23
  1

  0
LINE
  5
E2E
330
8D8
100
AcDbEntity
  8
DIMENSION
 62
     0
440
 16777216
370
    -2
100
AcDbLine
 10
-364.6280572948522
 20
-143.3087799076449
 30
0.0
 11
-364.6280572948522
 21
-147.24605123612
 31
0.0
  0
MTEXT
  5
E2F
330
8D8
100
AcDbEntity
  8
DIMENSION
 62
     0
440
 16777216
100
AcDbMText
 10
-364.6280572948522
 20
-149.0027179027867
 30
0.0
 40
1.0
 41
0.0
 46
0.0
 71
     5
 72
     1
  1
\A1;0.000
 11
0.0000000000000001
 21
1.0
 31
0.0
 73
     1
 44
1.0
  0
POINT
  5
E30
330
8D8
100
AcDbEntity
  8
Defpoints
 62
     0
440
 16777216
100
AcDbPoint
 10
-364.6280572948522
 20
-143.108779907645
 30
0.0
  0
POINT
  5
E31
330
8D8
100
AcDbEntity
  8
Defpoints
 62
     0
440
 16777216
100
AcDbPoint
 10
-364.6280572948522
 20
-147.24605123612
 30
0.0
  0
POINT
  5
E32
330
8D8
100
AcDbEntity
  8
Defpoints
 62
     0
440
 16777216
100
AcDbPoint
 10
-364.6280572948522
 20
-143.108779907645
 30
0.0
  0
ENDBLK
  5
8DF
330
8D8
100
AcDbEntity
  8
0
100
AcDbBlockEnd
  0
BLOCK
  5
8E6
330
8E0
100
AcDbEntity
  8
0
100
AcDbBlockBegin
  2
*D24
 70
     1
 10
0.0
 20
0.0
 30
0.0
  3
*D24
  1

  0
LINE
  5
AC7
330
8E0
100
AcDbEntity
  8
DIM
 62
     0
440
 16777216
370
    -2
100
AcDbLine
 10
-364.0313072948521
 20
-108.9547799076448
 30
0.0
 11
-364.0313072948521
 21
-104.9869430193161
 31
0.0
  0
MTEXT
  5
AC8
330
8E0
100
AcDbEntity
  8
DIM
 62
     0
440
 16777216
100
AcDbMText
 10
-364.0313072948521
 20
-102.5702763526494
 30
0.0
 40
0.9999999999999998
 41
0.0
 46
0.0
 71
     5
 72
     1
  1
\A1;0.597
 11
0.0000000000000001
 21
1.0
 31
0.0
 73
     1
 44
1.0
  0
POINT
  5
AC9
330
8E0
100
AcDbEntity
  8
Defpoints
 62
     0
440
 16777216
100
AcDbPoint
 10
-364.0313072948521
 20
-109.3297799076448
 30
0.0
  0
POINT
  5
ACA
330
8E0
100
AcDbEntity
  8
Defpoints
 62
     0
440
 16777216
100
AcDbPoint
 10
-364.0313072948521
 20
-104.9869430193161
 30
0.0
  0
POINT
  5
ACB
330
8E0
100
AcDbEntity
  8
Defpoints
 62
     0
440
 16777216
100
AcDbPoint
 10
-364.6280560043266
 20
-139.0787379124275
 30
0.0
  0
ENDBLK
  5
8E7
330
8E0
100
AcDbEntity
  8
0
100
AcDbBlockEnd
  0
BLOCK
  5
8EE
330
8E8
100
AcDbEntity
  8
0
100
AcDbBlockBegin
  2
*D25
 70
     1
 10
0.0
 20
0.0
 30
0.0
  3
*D25
  1

  0
LINE
  5
AC2
330
8E8
100
AcDbEntity
  8
DIM
 62
     0
440
 16777216
370
    -2
100
AcDbLine
 10
-357.9688072948521
 20
-108.9547799076446
 30
0.0
 11
-357.9688072948521
 21
-104.9869430193161
 31
0.0
  0
MTEXT
  5
AC3
330
8E8
100
AcDbEntity
  8
DIM
 62
     0
440
 16777216
100
AcDbMText
 10
-357.9688072948521
 20
-102.4869430193161
 30
0.0
 40
0.9999999999999998
 41
0.0
 46
0.0
 71
     5
 72
     1
  1
\A1;6.659
 11
0.0000000000000001
 21
1.0
 31
0.0
 73
     1
 44
1.0
  0
POINT
  5
AC4
330
8E8
100
AcDbEntity
  8
Defpoints
 62
     0
440
 16777216
100
AcDbPoint
 10
-357.9688072948521
 20
-109.3297799076446
 30
0.0
  0
POINT
  5
AC5
330
8E8
100
AcDbEntity
  8
Defpoints
 62
     0
440
 16777216
100
AcDbPoint
 10
-357.9688072948521
 20
-104.9869430193161
 30
0.0
  0
POINT
  5
AC6
330
8E8
100
AcDbEntity
  8
Defpoints
 62
     0
440
 16777216
100
AcDbPoint
 10
-364.6280560043266
 20
-139.0787379124275
 30
0.0
  0
ENDBLK
  5
8EF
330
8E8
100
AcDbEntity
  8
0
100
AcDbBlockEnd
  0
BLOCK
  5
8F8
330
8F0
100
AcDbEntity
  8
0
100
AcDbBlockBegin
  2
*D26
 70
     1
 10
0.0
 20
0.0
 30
0.0
  3
*D26
  1

  0
LINE
  5
ABB
330
8F0
100
AcDbEntity
  8
DIM
 62
     0
440
 16777216
370
    -2
100
AcDbLine
 10
-357.1878072948521
 20
-109.3962799076449
 30
0.0
 11
-357.1878072948521
 21
-107.7712799076449
 31
0.0
  0
LINE
  5
ABC
330
8F0
100
AcDbEntity
  8
DIM
 62
     0
440
 16777216
370
    -2
100
AcDbLine
 10
-357.1878072948521
 20
-107.7712799076449
 30
0.0
 11
-356.4182116738069
 21
-106.9869430193161
 31
0.0
  0
LINE
  5
ABD
330
8F0
100
AcDbEntity
  8
DIM
 62
     0
440
 16777216
370
    -2
100
AcDbLine
 10
-356.4182116738069
 20
-106.9869430193161
 30
0.0
 11
-356.4182116738069
 21
-104.9869430193161
 31
0.0
  0
MTEXT
  5
ABE
330
8F0
100
AcDbEntity
  8
DIM
 62
     0
440
 16777216
100
AcDbMText
 10
-356.4182116738069
 20
-102.5702763526494
 30
0.0
 40
0.9999999999999998
 41
0.0
 46
0.0
 71
     5
 72
     1
  1
\A1;7.440
 11
0.0000000000000001
 21
1.0
 31
0.0
 73
     1
 44
1.0
  0
POINT
  5
ABF
330
8F0
100
AcDbEntity
  8
Defpoints
 62
     0
440
 16777216
100
AcDbPoint
 10
-357.1878072948521
 20
-109.7712799076449
 30
0.0
  0
POINT
  5
AC0
330
8F0
100
AcDbEntity
  8
Defpoints
 62
     0
440
 16777216
100
AcDbPoint
 10
-356.4182116738069
 20
-104.9869430193161
 30
0.0
  0
POINT
  5
AC1
330
8F0
100
AcDbEntity
  8
Defpoints
 62
     0
440
 16777216
100
AcDbPoint
 10
-364.6280560043266
 20
-139.0787379124275
 30
0.0
  0
ENDBLK
  5
8F9
330
8F0
100
AcDbEntity
  8
0
100
AcDbBlockEnd
  0
BLOCK
  5
902
330
8FA
100
AcDbEntity
  8
0
100
AcDbBlockBegin
  2
*D27
 70
     1
 10
0.0
 20
0.0
 30
0.0
  3
*D27
  1

  0
LINE
  5
AB4
330
8FA
100
AcDbEntity
  8
DIM
 62
     0
440
 16777216
370
    -2
100
AcDbLine
 10
-364.244057294852
 20
-110.7637799076448
 30
0.0
 11
-364.244057294852
 21
-109.0194136946744
 31
0.0
  0
LINE
  5
AB5
330
8FA
100
AcDbEntity
  8
DIM
 62
     0
440
 16777216
370
    -2
100
AcDbLine
 10
-364.244057294852
 20
-109.0194136946744
 30
0.0
 11
-365.5197716614317
 21
-107.0194136946744
 31
0.0
  0
LINE
  5
AB6
330
8FA
100
AcDbEntity
  8
DIM
 62
     0
440
 16777216
370
    -2
100
AcDbLine
 10
-365.5197716614317
 20
-107.0194136946744
 30
0.0
 11
-365.5197716614317
 21
-105.0194136946744
 31
0.0
  0
MTEXT
  5
AB7
330
8FA
100
AcDbEntity
  8
DIM
 62
     0
440
 16777216
100
AcDbMText
 10
-365.5197716614317
 20
-102.6027470280078
 30
0.0
 40
0.9999999999999998
 41
0.0
 46
0.0
 71
     5
 72
     1
  1
\A1;0.384
 11
0.0000000000000001
 21
1.0
 31
0.0
 73
     1
 44
1.0
  0
POINT
  5
AB8
330
8FA
100
AcDbEntity
  8
Defpoints
 62
     0
440
 16777216
100
AcDbPoint
 10
-364.244057294852
 20
-111.1387799076448
 30
0.0
  0
POINT
  5
AB9
330
8FA
100
AcDbEntity
  8
Defpoints
 62
     0
440
 16777216
100
AcDbPoint
 10
-365.5197716614317
 20
-105.0194136946744
 30
0.0
  0
POINT
  5
ABA
330
8FA
100
AcDbEntity
  8
Defpoints
 62
     0
440
 16777216
100
AcDbPoint
 10
-364.6280560043266
 20
-139.0787379124275
 30
0.0
  0
ENDBLK
  5
903
330
8FA
100
AcDbEntity
  8
0
100
AcDbBlockEnd
  0
BLOCK
  5
90A
330
904
100
AcDbEntity
  8
0
100
AcDbBlockBegin
  2
*D28
 70
     1
 10
0.0
 20
0.0
 30
0.0
  3
*D28
  1

  0
LINE
  5
AAF
330
904
100
AcDbEntity
  8
DIM
 62
     0
440
 16777216
370
    -2
100
AcDbLine
 10
-354.3503072948537
 20
-109.3962799076449
 30
0.0
 11
-354.3503072948537
 21
-104.9869430193161
 31
0.0
  0
MTEXT
  5
AB0
330
904
100
AcDbEntity
  8
DIM
 62
     0
440
 16777216
100
AcDbMText
 10
-354.3503072948537
 20
-102.2369430193161
 30
0.0
 40
0.9999999999999998
 41
0.0
 46
0.0
 71
     5
 72
     1
  1
\A1;10.278
 11
0.0000000000000001
 21
1.0
 31
0.0
 73
     1
 44
1.0
  0
POINT
  5
AB1
330
904
100
AcDbEntity
  8
Defpoints
 62
     0
440
 16777216
100
AcDbPoint
 10
-354.3503072948537
 20
-109.7712799076449
 30
0.0
  0
POINT
  5
AB2
330
904
100
AcDbEntity
  8
Defpoints
 62
     0
440
 16777216
100
AcDbPoint
 10
-354.3503072948537
 20
-104.9869430193161
 30
0.0
  0
POINT
  5
AB3
330
904
100
AcDbEntity
  8
Defpoints
 62
     0
440
 16777216
100
AcDbPoint
 10
-364.6280560043266
 20
-139.0787379124275
 30
0.0
  0
ENDBLK
  5
90B
330
904
100
AcDbEntity
  8
0
100
AcDbBlockEnd
  0
BLOCK
  5
912
330
90C
100
AcDbEntity
  8
0
100
AcDbBlockBegin
  2
*D29
 70
     1
 10
0.0
 20
0.0
 30
0.0
  3
*D29
  1

  0
LINE
  5
AAA
330
90C
100
AcDbEntity
  8
DIM
 62
     0
440
 16777216
370
    -2
100
AcDbLine
 10
-352.744057294852
 20
-110.7637799076448
 30
0.0
 11
-352.744057294852
 21
-105.0681193177678
 31
0.0
  0
MTEXT
  5
AAB
330
90C
100
AcDbEntity
  8
DIM
 62
     0
440
 16777216
100
AcDbMText
 10
-352.744057294852
 20
-102.4014526511012
 30
0.0
 40
0.9999999999999998
 41
0.0
 46
0.0
 71
     5
 72
     1
  1
\A1;11.884
 11
0.0000000000000001
 21
1.0
 31
0.0
 73
     1
 44
1.0
  0
POINT
  5
AAC
330
90C
100
AcDbEntity
  8
Defpoints
 62
     0
440
 16777216
100
AcDbPoint
 10
-352.744057294852
 20
-111.1387799076448
 30
0.0
  0
POINT
  5
AAD
330
90C
100
AcDbEntity
  8
Defpoints
 62
     0
440
 16777216
100
AcDbPoint
 10
-352.744057294852
 20
-105.0681193177678
 30
0.0
  0
POINT
  5
AAE
330
90C
100
AcDbEntity
  8
Defpoints
 62
     0
440
 16777216
100
AcDbPoint
 10
-364.6280560043266
 20
-139.0787379124275
 30
0.0
  0
ENDBLK
  5
913
330
90C
100
AcDbEntity
  8
0
100
AcDbBlockEnd
  0
BLOCK
  5
C41
330
C40
100
AcDbEntity
  8
0
100
AcDbBlockBegin
  2
*D30
 70
     1
 10
0.0
 20
0.0
 30
0.0
  3
*D30
  1

  0
LINE
  5
E18
330
C40
100
AcDbEntity
  8
DIMENSION
 62
     0
440
 16777216
370
    -2
100
AcDbLine
 10
-353.3590572948522
 20
-118.568779907645
 30
0.0
 11
-351.5590572948521
 21
-118.568779907645
 31
0.0
  0
LINE
  5
E19
330
C40
100
AcDbEntity
  8
DIMENSION
 62
     0
440
 16777216
370
    -2
100
AcDbLine
 10
-351.5590572948521
 20
-118.568779907645
 30
0.0
 11
-351.110886851807
 21
-126.0900603570692
 31
0.0
  0
LINE
  5
E1A
330
C40
100
AcDbEntity
  8
DIMENSION
 62
     0
440
 16777216
370
    -2
100
AcDbLine
 10
-351.110886851807
 20
-126.0900603570692
 30
0.0
 11
-349.110886851807
 21
-126.0900603570692
 31
0.0
  0
MTEXT
  5
E1B
330
C40
100
AcDbEntity
  8
DIMENSION
 62
     0
440
 16777216
100
AcDbMText
 10
-342.6042201851403
 20
-126.0900603570692
 30
0.0
 40
1.0
 41
0.0
 46
0.0
 71
     5
 72
     1
  1
\A1;24.540 (2) OMIT\P FOR IQ2200VS\PAND IQ3000VS
 73
     1
 44
1.0
  0
POINT
  5
E1C
330
C40
100
AcDbEntity
  8
Defpoints
 62
     0
440
 16777216
100
AcDbPoint
 10
-353.5590572948521
 20
-118.568779907645
 30
0.0
  0
POINT
  5
E1D
330
C40
100
AcDbEntity
  8
Defpoints
 62
     0
440
 16777216
100
AcDbPoint
 10
-349.110886851807
 20
-126.0900603570692
 30
0.0
  0
POINT
  5
E1E
330
C40
100
AcDbEntity
  8
Defpoints
 62
     0
440
 16777216
100
AcDbPoint
 10
-364.6280501205671
 20
-143.1088032733104
 30
0.0
  0
ENDBLK
  5
C42
330
C40
100
AcDbEntity
  8
0
100
AcDbBlockEnd
  0
BLOCK
  5
D85
330
D84
100
AcDbEntity
  8
0
100
AcDbBlockBegin
  2
*D31
 70
     1
 10
0.0
 20
0.0
 30
0.0
  3
*D31
  1

  0
LINE
  5
D9F
330
D84
100
AcDbEntity
  8
0
 62
     0
440
 16777216
370
    -2
100
AcDbLine
 10
-358.4240572948519
 20
-122.018779907645
 30
0.0
 11
-358.424057294852
 21
-140.5140870714731
 31
0.0
  0
LINE
  5
DA0
330
D84
100
AcDbEntity
  8
0
 62
     0
440
 16777216
370
    -2
100
AcDbLine
 10
-358.424057294852
 20
-140.5140870714731
 30
0.0
 11
-356.6643673716929
 21
-142.5140870714731
 31
0.0
  0
LINE
  5
DA1
330
D84
100
AcDbEntity
  8
0
 62
     0
440
 16777216
370
    -2
100
AcDbLine
 10
-356.6643673716929
 20
-142.5140870714731
 30
0.0
 11
-356.6643673716929
 21
-144.5140870714731
 31
0.0
  0
MTEXT
  5
DA2
330
D84
100
AcDbEntity
  8
0
 62
     0
440
 16777216
100
AcDbMText
 10
-356.6643673716929
 20
-148.1874204048065
 30
0.0
 40
1.0
 41
0.0
 46
0.0
 71
     5
 72
     1
  1
\A1;(2) 6.204
 11
0.0000000000000001
 21
1.0
 31
0.0
 73
     1
 44
1.0
  0
POINT
  5
DA3
330
D84
100
AcDbEntity
  8
Defpoints
 62
     0
440
 16777216
100
AcDbPoint
 10
-358.4240572948519
 20
-121.8187799076449
 30
0.0
  0
POINT
  5
DA4
330
D84
100
AcDbEntity
  8
Defpoints
 62
     0
440
 16777216
100
AcDbPoint
 10
-356.6643673716929
 20
-144.5140870714731
 30
0.0
  0
POINT
  5
DA5
330
D84
100
AcDbEntity
  8
Defpoints
 62
     0
440
 16777216
100
AcDbPoint
 10
-364.6280501205671
 20
-143.1088032733104
 30
0.0
  0
ENDBLK
  5
D86
330
D84
100
AcDbEntity
  8
0
100
AcDbBlockEnd
  0
ENDSEC
  0
SECTION
  2
ENTITIES
  0
LINE
  5
2C8
330
1F
100
AcDbEntity
  8
BORDER
100
AcDbLine
 10
-365.9966931916512
 20
-153.7832799076447
 30
0.0
 11
-382.2421964375759
 21
-153.7832799076447
 31
0.0
  0
TEXT
  5
2C9
330
1F
100
AcDbEntity
  8
TEXT
100
AcDbText
 10
-381.7578214375759
 20
-154.1582799076448
 30
0.0
 40
0.25
  1
0
 72
     1
 11
-381.6953214375758
 21
-154.0332799076448
 31
0.0
100
AcDbText
 73
     2
  0
LINE
  5
2CA
330
1F
100
AcDbEntity
  8
BORDER
100
AcDbLine
 10
-381.1484464375758
 20
-154.2832799076448
 30
0.0
 11
-381.1484464375758
 21
-152.6999466091742
 31
0.0
  0
TEXT
  5
2CB
330
1F
100
AcDbEntity
  8
TEXT
100
AcDbText
 10
-377.6286547709089
 20
-154.1582799076448
 30
0.0
 40
0.25
  1
INITIAL RELEASE
 72
     1
 11
-375.9203214375756
 21
-154.0332799076448
 31
0.0
100
AcDbText
 73
     2
  0
TEXT
  5
2CC
330
1F
100
AcDbEntity
  8
TEXT
100
AcDbText
 10
-367.5777781479467
 20
-154.1582799076448
 30
0.0
 40
0.25
  1
JJH
 72
     1
 11
-367.2444448146134
 21
-154.0332799076448
 31
0.0
100
AcDbText
 73
     2
  0
LINE
  5
2CD
330
1F
100
AcDbEntity
  8
BORDER
100
AcDbLine
 10
-368.4921964375758
 20
-154.2832799076448
 30
0.0
 11
-368.4921964375758
 21
-152.6999466091742
 31
0.0
  0
TEXT
  5
2CE
330
1F
100
AcDbEntity
  8
TEXT
100
AcDbText
 10
-370.3213631042425
 20
-154.1582799076448
 30
0.0
 40
0.25
  1
4-15-10
 72
     1
 11
-369.5921964375758
 21
-154.0332799076448
 31
0.0
100
AcDbText
 73
     2
  0
LINE
  5
2CF
330
1F
100
AcDbEntity
  8
BORDER
100
AcDbLine
 10
-370.6921964375758
 20
-154.2832799076448
 30
0.0
 11
-370.6921964375758
 21
-152.6999466091742
 31
0.0
  0
LINE
  5
2D0
330
1F
100
AcDbEntity
  8
BORDER
100
AcDbLine
 10
-365.9966931916512
 20
-154.7832799076448
 30
0.0
 11
-382.2421964375759
 21
-154.7832799076448
 31
0.0
  0
LINE
  5
2D1
330
1F
100
AcDbEntity
  8
BORDER
100
AcDbLine
 10
-365.9966931916512
 20
-154.2832799076448
 30
0.0
 11
-382.2421964375759
 21
-154.2832799076448
 31
0.0
  0
TEXT
  5
2D2
330
1F
100
AcDbEntity
  8
TEXT
100
AcDbText
 10
-382.0703214375758
 20
-154.6582799076448
 30
0.0
 40
0.25
  1
REV
 72
     1
 11
-381.6953214375758
 21
-154.5332799076448
 31
0.0
100
AcDbText
 73
     2
  0
LINE
  5
2D3
330
1F
100
AcDbEntity
  8
BORDER
100
AcDbLine
 10
-382.2421964375759
 20
-155.2832799076448
 30
0.0
 11
-382.2421964375759
 21
-152.2832799076446
 31
0.0
  0
LINE
  5
2D4
330
1F
100
AcDbEntity
  8
BORDER
100
AcDbLine
 10
-381.1484464375758
 20
-154.7832799076448
 30
0.0
 11
-381.1484464375758
 21
-154.2832799076448
 31
0.0
  0
TEXT
  5
2D5
330
1F
100
AcDbEntity
  8
TEXT
100
AcDbText
 10
-377.1703214375756
 20
-154.6582799076448
 30
0.0
 40
0.25
  1
DESCRIPTION
 72
     1
 11
-375.9203214375756
 21
-154.5332799076448
 31
0.0
100
AcDbText
 73
     2
  0
TEXT
  5
2D6
330
1F
100
AcDbEntity
  8
TEXT
100
AcDbText
 10
-368.0777781479467
 20
-154.6582799076448
 30
0.0
 40
0.25
  1
CHECKED
 72
     1
 11
-367.2444448146134
 21
-154.5332799076448
 31
0.0
100
AcDbText
 73
     2
  0
LINE
  5
2D7
330
1F
100
AcDbEntity
  8
BORDER
100
AcDbLine
 10
-368.4921964375758
 20
-154.7832799076448
 30
0.0
 11
-368.4921964375758
 21
-154.2832799076448
 31
0.0
  0
TEXT
  5
2D8
330
1F
100
AcDbEntity
  8
TEXT
100
AcDbText
 10
-370.0505297709091
 20
-154.6582799076448
 30
0.0
 40
0.25
  1
DATE
 72
     1
 11
-369.5921964375758
 21
-154.5332799076448
 31
0.0
100
AcDbText
 73
     2
  0
LINE
  5
2D9
330
1F
100
AcDbEntity
  8
BORDER
100
AcDbLine
 10
-370.6921964375758
 20
-154.7832799076448
 30
0.0
 11
-370.6921964375758
 21
-154.2832799076448
 31
0.0
  0
LINE
  5
2DA
330
1F
100
AcDbEntity
  8
BORDER
100
AcDbLine
 10
-382.2421964375759
 20
-154.7832799076448
 30
0.0
 11
-365.9966931916512
 21
-154.7832799076448
 31
0.0
  0
LINE
  5
2DB
330
1F
100
AcDbEntity
  8
BORDER
100
AcDbLine
 10
-365.9966931916512
 20
-152.6999466091742
 30
0.0
 11
-365.9966931916512
 21
-155.2832799076448
 31
0.0
  0
LINE
  5
2DC
330
1F
100
AcDbEntity
  8
BORDER
100
AcDbLine
 10
-365.9966931916512
 20
-155.2832799076448
 30
0.0
 11
-382.2421964375759
 21
-155.2832799076448
 31
0.0
  0
TEXT
  5
2DD
330
1F
100
AcDbEntity
  8
TEXT
100
AcDbText
 10
-335.8090025448597
 20
-155.059898808468
 30
0.0
 40
0.625
  1
2
 72
     1
 11
-335.6006692115264
 21
-154.747398808468
 31
0.0
100
AcDbText
 73
     2
  0
TEXT
  5
2DE
330
1F
100
AcDbEntity
  8
TEXT
100
AcDbText
 10
-341.8332966186412
 20
-155.059898808468
 30
0.0
 40
0.625
  1
IQ300446
 72
     1
 11
-339.6457966186412
 21
-154.747398808468
 31
0.0
100
AcDbText
 73
     2
  0
TEXT
  5
2DF
330
1F
100
AcDbEntity
  8
TEXT
100
AcDbText
 10
-339.6614413925763
 20
-152.3599552092911
 30
0.0
 40
0.15625
  1
724-837-2204  *  1-888-867-8234
 72
     1
 11
-337.304670559243
 21
-152.2818302092911
 31
0.0
100
AcDbText
 73
     2
  0
TEXT
  5
2E0
330
1F
100
AcDbEntity
  8
TEXT
100
AcDbText
 10
-338.8150872259097
 20
-152.0474552092911
 30
0.0
 40
0.15625
  1
GREENSBURG, PA  15601
 72
     1
 11
-337.304670559243
 21
-151.9693302092911
 31
0.0
100
AcDbText
 73
     2
  0
TEXT
  5
2E1
330
1F
100
AcDbEntity
  8
TEXT
100
AcDbText
 10
-338.5807122259097
 20
-151.7349552092911
 30
0.0
 40
0.15625
  1
141 WILSON AVENUE
 72
     1
 11
-337.304670559243
 21
-151.6568302092911
 31
0.0
100
AcDbText
 73
     2
  0
TEXT
  5
2E2
330
1F
100
AcDbEntity
  8
TEXT
100
AcDbText
 10
-339.3619622259097
 20
-151.4380802092911
 30
0.0
 40
0.15625
  1
INDUSTRIAL COOLING EQUIPMENT
 72
     1
 11
-337.304670559243
 21
-151.3599552092911
 31
0.0
100
AcDbText
 73
     2
  0
TEXT
  5
2E3
330
1F
100
AcDbEntity
  8
TEXT
100
AcDbText
 10
-338.6067538925763
 20
-152.6724552092911
 30
0.0
 40
0.15625
  1
FAX  724-837-3386
 72
     1
 11
-337.304670559243
 21
-152.5943302092911
 31
0.0
100
AcDbText
 73
     2
  0
LINE
  5
2E4
330
1F
100
AcDbEntity
  8
BORDER
100
AcDbLine
 10
-342.8341729663577
 20
-151.1646427092911
 30
0.0
 11
-334.7439181521281
 21
-151.1646427092911
 31
0.0
  0
LINE
  5
2E5
330
1F
100
AcDbEntity
  8
BORDER
100
AcDbLine
 10
-342.8341729663577
 20
-152.7271427092911
 30
0.0
 11
-334.7439181521281
 21
-152.7271427092911
 31
0.0
  0
LINE
  5
2E6
330
1F
100
AcDbEntity
  8
BORDER
100
AcDbLine
 10
-342.8341729663577
 20
-153.9771427092911
 30
0.0
 11
-334.7439181521281
 21
-153.9771427092911
 31
0.0
  0
LINE
  5
2E7
330
1F
100
AcDbEntity
  8
BORDER
100
AcDbLine
 10
-336.4574202709246
 20
-153.9771427092911
 30
0.0
 11
-336.4574202709246
 21
-155.2832799076448
 31
0.0
  0
TEXT
  5
2E8
330
1F
100
AcDbEntity
  8
TEXT
100
AcDbText
 10
-346.7243713947358
 20
-155.0964622633195
 30
0.0
 40
0.3125
  1
SHEET 1 OF 1
 72
     1
 11
-345.0056213947358
 21
-154.9402122633195
 31
0.0
100
AcDbText
 73
     2
  0
LINE
  5
2E9
330
1F
100
AcDbEntity
  8
BORDER
100
AcDbLine
 10
-347.2091729663578
 20
-154.6021427092911
 30
0.0
 11
-342.8341729663577
 21
-154.6021427092911
 31
0.0
  0
TEXT
  5
2EA
330
1F
100
AcDbEntity
  8
TEXT
100
AcDbText
 10
-345.9331312996911
 20
-154.4408576725935
 30
0.0
 40
0.3125
  1
4-15-10
 72
     1
 11
-345.0216729663578
 21
-154.2846076725935
 31
0.0
100
AcDbText
 73
     2
  0
TEXT
  5
2EB
330
1F
100
AcDbEntity
  8
TEXT
100
AcDbText
 10
-347.0529229663577
 20
-154.2115177092911
 30
0.0
 40
0.15625
  1
DATE
100
AcDbText
  0
TEXT
  5
2EC
330
1F
100
AcDbEntity
  8
TEXT
100
AcDbText
 10
-346.4607354663577
 20
-153.9215177092912
 30
0.0
 40
0.234375
  1
JJH
 72
     1
 11
-346.1482354663577
 21
-153.8043302092912
 31
0.0
100
AcDbText
 73
     2
  0
TEXT
  5
2ED
330
1F
100
AcDbEntity
  8
TEXT
100
AcDbText
 10
-347.1185479663577
 20
-153.5865177092911
 30
0.0
 40
0.15625
  1
DRAWN
100
AcDbText
  0
TEXT
  5
2EE
330
1F
100
AcDbEntity
  8
TEXT
100
AcDbText
 10
-344.8654229663576
 20
-153.5865177092911
 30
0.0
 40
0.15625
  1
SCALE
100
AcDbText
  0
TEXT
  5
2EF
330
1F
100
AcDbEntity
  8
TEXT
100
AcDbText
 10
-344.3247979663579
 20
-153.9215177092912
 30
0.0
 40
0.234375
  1
NONE
 72
     1
 11
-343.8951104663579
 21
-153.8043302092912
 31
0.0
100
AcDbText
 73
     2
  0
LINE
  5
2F0
330
1F
100
AcDbEntity
  8
BORDER
100
AcDbLine
 10
-347.2091729663578
 20
-153.3521427092911
 30
0.0
 11
-342.8341729663577
 21
-153.3521427092911
 31
0.0
  0
LINE
  5
2F1
330
1F
100
AcDbEntity
  8
BORDER
100
AcDbLine
 10
-347.2091729663578
 20
-153.9771427092911
 30
0.0
 11
-342.8341729663577
 21
-153.9771427092911
 31
0.0
  0
LINE
  5
2F2
330
1F
100
AcDbEntity
  8
BORDER
100
AcDbLine
 10
-342.8341729663577
 20
-155.2832799076448
 30
0.0
 11
-342.8341729663577
 21
-151.1646427092911
 31
0.0
  0
LINE
  5
2F3
330
1F
100
AcDbEntity
  8
TEXT
100
AcDbLine
 10
-341.9399534656847
 20
-152.4724926932605
 30
0.0
 11
-341.9132223797803
 21
-152.4894101795097
 31
0.0
  0
ARC
  5
2F4
330
1F
100
AcDbEntity
  8
TEXT
100
AcDbCircle
 10
-341.7654436773355
 20
-152.2928590783064
 30
0.0
 40
0.1029739000996109
100
AcDbArc
 50
287.1920036507392
 51
335.8997504051534
  0
ARC
  5
2F5
330
1F
100
AcDbEntity
  8
TEXT
100
AcDbCircle
 10
-341.5594308224302
 20
-152.4315889419007
 30
0.0
 40
0.047902564587344
100
AcDbArc
 50
67.37252950712522
 51
112.6274704928675
  0
ARC
  5
2F6
330
1F
100
AcDbEntity
  8
TEXT
100
AcDbCircle
 10
-341.5745216762679
 20
-152.3488285931541
 30
0.0
 40
0.0676602827344026
100
AcDbArc
 50
330.1916644163833
 51
19.91318758187979
  0
ARC
  5
2F7
330
1F
100
AcDbEntity
  8
TEXT
100
AcDbCircle
 10
-341.6645408910362
 20
-152.3109387057544
 30
0.0
 40
0.0249429364567843
100
AcDbArc
 50
253.9290889125599
 51
38.65267477511397
  0
ARC
  5
2F8
330
1F
100
AcDbEntity
  8
TEXT
100
AcDbCircle
 10
-341.2406217959494
 20
-152.3367562670948
 30
0.0
 40
0.0518260868541633
100
AcDbArc
 50
188.1927496775748
 51
244.8496170020145
  0
ARC
  5
2F9
330
1F
100
AcDbEntity
  8
TEXT
100
AcDbCircle
 10
-341.2412555773666
 20
-152.2865896635924
 30
0.0
 40
0.0994083459973538
100
AcDbArc
 50
257.5730930866192
 51
314.4273867462272
  0
LINE
  5
2FA
330
1F
100
AcDbEntity
  8
TEXT
100
AcDbLine
 10
-341.0680329781083
 20
-152.3971083016565
 30
0.0
 11
-341.0664507678754
 21
-152.3789257270839
 31
0.0
  0
LINE
  5
2FB
330
1F
100
AcDbEntity
  8
TEXT
100
AcDbLine
 10
-341.0664507678754
 20
-152.3789257270839
 30
0.0
 11
-341.0933487069377
 21
-152.3805068245598
 31
0.0
  0
ARC
  5
2FC
330
1F
100
AcDbEntity
  8
TEXT
100
AcDbCircle
 10
-341.0938926245605
 20
-152.3585927405459
 30
0.0
 40
0.0219208331170951
100
AcDbArc
 50
155.9964711746257
 51
271.4218156194853
  0
ARC
  5
2FD
330
1F
100
AcDbEntity
  8
TEXT
100
AcDbCircle
 10
-340.9034667284446
 20
-152.3478740434384
 30
0.0
 40
0.0513752098052219
100
AcDbArc
 50
203.9135879631547
 51
286.1701931802542
  0
ARC
  5
2FE
330
1F
100
AcDbEntity
  8
TEXT
100
AcDbCircle
 10
-340.8788854284946
 20
-152.3254105779455
 30
0.0
 40
0.0725374442393223
100
AcDbArc
 50
261.8576121462839
 51
331.2394802847383
  0
ARC
  5
2FF
330
1F
100
AcDbEntity
  8
TEXT
100
AcDbCircle
 10
-340.8819615268839
 20
-152.3141402748021
 30
0.0
 40
0.0810929943736197
100
AcDbArc
 50
325.2939034707323
 51
356.4132772462207
  0
ARC
  5
300
330
1F
100
AcDbEntity
  8
TEXT
100
AcDbCircle
 10
-341.5157330504521
 20
-151.6127143060565
 30
0.0
 40
0.1319485192661753
100
AcDbArc
 50
148.4692011102826
 51
195.5802361373378
  0
ARC
  5
301
330
1F
100
AcDbEntity
  8
TEXT
100
AcDbCircle
 10
-341.5181738836151
 20
-151.6166457185799
 30
0.0
 40
0.1285795811377622
100
AcDbArc
 50
194.1847393568157
 51
248.6586767321129
  0
ARC
  5
302
330
1F
100
AcDbEntity
  8
TEXT
100
AcDbCircle
 10
-341.4653590789876
 20
-151.5828491161085
 30
0.0
 40
0.1252243447630968
100
AcDbArc
 50
179.2959701761241
 51
227.5915484940839
  0
ARC
  5
303
330
1F
100
AcDbEntity
  8
TEXT
100
AcDbCircle
 10
-341.492668225648
 20
-151.605140231545
 30
0.0
 40
0.0904935239504756
100
AcDbArc
 50
230.8416488637728
 51
280.5326941523482
  0
ARC
  5
304
330
1F
100
AcDbEntity
  8
TEXT
100
AcDbCircle
 10
-341.4808416385118
 20
-151.580620696698
 30
0.0
 40
0.1135862276716573
100
AcDbArc
 50
272.3792098458871
 51
327.3581874363218
  0
ARC
  5
305
330
1F
100
AcDbEntity
  8
TEXT
100
AcDbCircle
 10
-341.5144211722201
 20
-151.5567692477538
 30
0.0
 40
0.1866149158157418
100
AcDbArc
 50
254.28478308494
 51
294.1819270465997
  0
ARC
  5
306
330
1F
100
AcDbEntity
  8
TEXT
100
AcDbCircle
 10
-341.4992725215857
 20
-151.6031141290577
 30
0.0
 40
0.1382279414268217
100
AcDbArc
 50
296.3233923707221
 51
339.834833147579
  0
ARC
  5
307
330
1F
100
AcDbEntity
  8
TEXT
100
AcDbCircle
 10
-341.3788689578417
 20
-151.6489973380893
 30
0.0
 40
0.0095170105473448
100
AcDbArc
 50
349.2952029716972
 51
131.6626905469363
  0
ARC
  5
308
330
1F
100
AcDbEntity
  8
TEXT
100
AcDbCircle
 10
-341.806235257757
 20
-151.6177303527403
 30
0.0
 40
0.1310983043162969
100
AcDbArc
 50
135.7093780000635
 51
195.2317137751531
  0
ARC
  5
309
330
1F
100
AcDbEntity
  8
TEXT
100
AcDbCircle
 10
-341.8186348142742
 20
-151.6217060179645
 30
0.0
 40
0.1180912454887081
100
AcDbArc
 50
194.9511061487668
 51
259.6103135862126
  0
ARC
  5
30A
330
1F
100
AcDbEntity
  8
TEXT
100
AcDbCircle
 10
-341.7997757127187
 20
-151.6169028398989
 30
0.0
 40
0.1274495304475066
100
AcDbArc
 50
251.6347706403313
 51
316.4182924463649
  0
ARC
  5
30B
330
1F
100
AcDbEntity
  8
TEXT
100
AcDbCircle
 10
-341.8157953584053
 20
-151.5766275857092
 30
0.0
 40
0.1678017612198071
100
AcDbArc
 50
310.2152586008207
 51
331.3072507285895
  0
ARC
  5
30C
330
1F
100
AcDbEntity
  8
TEXT
100
AcDbCircle
 10
-341.7532271436465
 20
-151.5923406534049
 30
0.0
 40
0.1197688266097961
100
AcDbArc
 50
167.0430028911414
 51
212.1309371309446
  0
ARC
  5
30D
330
1F
100
AcDbEntity
  8
TEXT
100
AcDbCircle
 10
-341.7788122106827
 20
-151.6065141540791
 30
0.0
 40
0.0905784598489114
100
AcDbArc
 50
213.1462108998125
 51
285.6537258536393
  0
ARC
  5
30E
330
1F
100
AcDbEntity
  8
TEXT
100
AcDbCircle
 10
-341.7779889865552
 20
-151.584156509596
 30
0.0
 40
0.1120927222252192
100
AcDbArc
 50
282.162842666785
 51
326.5593609179315
  0
ARC
  5
30F
330
1F
100
AcDbEntity
  8
TEXT
100
AcDbCircle
 10
-341.6810341661679
 20
-151.6579057362869
 30
0.0
 40
0.0124561803706211
100
AcDbArc
 50
3.288025410275707
 51
105.9275278804377
  0
LINE
  5
310
330
1F
100
AcDbEntity
  8
TEXT
100
AcDbLine
 10
-342.16553833489
 20
-151.2673821243114
 30
0.0
 11
-342.16553833489
 21
-151.7771981493342
 31
0.0
  0
LINE
  5
311
330
1F
100
AcDbEntity
  8
TEXT
100
AcDbLine
 10
-342.017701065027
 20
-151.2673821243114
 30
0.0
 11
-342.017701065027
 21
-151.7771981493342
 31
0.0
  0
ARC
  5
312
330
1F
100
AcDbEntity
  8
TEXT
100
AcDbCircle
 10
-340.4276732961022
 20
-152.3292762815071
 30
0.0
 40
0.0095170105473448
100
AcDbArc
 50
349.2952029716972
 51
131.6626905469363
  0
ARC
  5
313
330
1F
100
AcDbEntity
  8
TEXT
100
AcDbCircle
 10
-340.5480768598461
 20
-152.2833930724756
 30
0.0
 40
0.1382279414268217
100
AcDbArc
 50
296.3233923707221
 51
339.834833147579
  0
ARC
  5
314
330
1F
100
AcDbEntity
  8
TEXT
100
AcDbCircle
 10
-340.5632255104805
 20
-152.2370481911716
 30
0.0
 40
0.1866149158157418
100
AcDbArc
 50
254.28478308494
 51
294.1819270465997
  0
ARC
  5
315
330
1F
100
AcDbEntity
  8
TEXT
100
AcDbCircle
 10
-340.5296459767723
 20
-152.260899640116
 30
0.0
 40
0.1135862276716573
100
AcDbArc
 50
272.3792098458871
 51
327.3581874363218
  0
ARC
  5
316
330
1F
100
AcDbEntity
  8
TEXT
100
AcDbCircle
 10
-340.5414725639082
 20
-152.2854191749629
 30
0.0
 40
0.0904935239504756
100
AcDbArc
 50
230.8416488637728
 51
280.5326941523482
  0
ARC
  5
317
330
1F
100
AcDbEntity
  8
TEXT
100
AcDbCircle
 10
-340.5141634172478
 20
-152.2631280595265
 30
0.0
 40
0.1252243447630968
100
AcDbArc
 50
179.2959701761241
 51
227.5915484940839
  0
ARC
  5
318
330
1F
100
AcDbEntity
  8
TEXT
100
AcDbCircle
 10
-340.5669782218755
 20
-152.2969246619978
 30
0.0
 40
0.1285795811377622
100
AcDbArc
 50
194.1847393568157
 51
248.6586767321129
  0
ARC
  5
319
330
1F
100
AcDbEntity
  8
TEXT
100
AcDbCircle
 10
-340.5645373887125
 20
-152.2929932494743
 30
0.0
 40
0.1319485192661753
100
AcDbArc
 50
148.4692011102826
 51
195.5802361373378
  0
ARC
  5
31A
330
1F
100
AcDbEntity
  8
TEXT
100
AcDbCircle
 10
-340.5653644073924
 20
-152.289056921687
 30
0.0
 40
0.1292181297135794
100
AcDbArc
 50
108.5416613320802
 51
149.7652339536173
  0
ARC
  5
31B
330
1F
100
AcDbEntity
  8
TEXT
100
AcDbCircle
 10
-340.5638637723904
 20
-152.3928058571528
 30
0.0
 40
0.2079657856617219
100
AcDbArc
 50
82.99970676551486
 51
97.00029323448513
  0
ARC
  5
31C
330
1F
100
AcDbEntity
  8
TEXT
100
AcDbCircle
 10
-340.5573432498141
 20
-152.2374170871218
 30
0.0
 40
0.0543885643533876
100
AcDbArc
 50
358.1908821763629
 51
69.7495758340291
  0
ARC
  5
31D
330
1F
100
AcDbEntity
  8
TEXT
100
AcDbCircle
 10
-340.572922743923
 20
-152.2521136471937
 30
0.0
 40
0.0677112257424498
100
AcDbArc
 50
103.9179608005984
 51
168.9486088950471
  0
LINE
  5
31E
330
1F
100
AcDbEntity
  8
TEXT
100
AcDbLine
 10
-340.6393783085649
 20
-152.2391341241018
 30
0.0
 11
-340.5029817954882
 21
-152.2391341241018
 31
0.0
  0
ARC
  5
31F
330
1F
100
AcDbEntity
  8
TEXT
100
AcDbCircle
 10
-340.555348890854
 20
-152.337844558201
 30
0.0
 40
0.1787595523837168
100
AcDbArc
 50
78.15621523985548
 51
106.6122408520356
  0
ARC
  5
320
330
1F
100
AcDbEntity
  8
TEXT
100
AcDbCircle
 10
-340.5258649042549
 20
-152.2571960837254
 30
0.0
 40
0.0945802945625412
100
AcDbArc
 50
357.337623744369
 51
85.63084243886233
  0
LINE
  5
321
330
1F
100
AcDbEntity
  8
TEXT
100
AcDbLine
 10
-340.6393783085649
 20
-152.2615893867721
 30
0.0
 11
-340.4313867003777
 21
-152.2615893867721
 31
0.0
  0
ARC
  5
322
330
1F
100
AcDbEntity
  8
TEXT
100
AcDbCircle
 10
-342.1544988950738
 20
-151.8084452872675
 30
0.0
 40
0.0331398983173351
100
AcDbArc
 50
109.4580308571273
 51
191.0341765877005
  0
ARC
  5
323
330
1F
100
AcDbEntity
  8
TEXT
100
AcDbCircle
 10
-342.1968568725588
 20
-151.8166393941618
 30
0.0
 40
0.0100035300295991
100
AcDbArc
 50
155.9249042338181
 51
10.66497725508788
  0
ARC
  5
324
330
1F
100
AcDbEntity
  8
TEXT
100
AcDbCircle
 10
-342.2246562644561
 20
-151.8244436542614
 30
0.0
 40
0.0221286157777855
100
AcDbArc
 50
32.48569494743564
 51
175.1979664789355
  0
ARC
  5
325
330
1F
100
AcDbEntity
  8
TEXT
100
AcDbCircle
 10
-342.2541167678086
 20
-151.8261201647365
 30
0.0
 40
0.0082070223616514
100
AcDbArc
 50
158.7719549350953
 51
25.46716058584042
  0
ARC
  5
326
330
1F
100
AcDbEntity
  8
TEXT
100
AcDbCircle
 10
-342.273317797672
 20
-151.8207187542174
 30
0.0
 40
0.0118036776942274
100
AcDbArc
 50
348.1206509806769
 51
136.2651890953771
  0
ARC
  5
327
330
1F
100
AcDbEntity
  8
TEXT
100
AcDbCircle
 10
-342.2747349484137
 20
-151.8269381891339
 30
0.0
 40
0.0160420204804056
100
AcDbArc
 50
116.3151684036786
 51
258.4674100382152
  0
ARC
  5
328
330
1F
100
AcDbEntity
  8
TEXT
100
AcDbCircle
 10
-342.2692563074213
 20
-151.850893924105
 30
0.0
 40
0.0119708699890584
100
AcDbArc
 50
356.7423630506751
 51
136.5172760690074
  0
ARC
  5
329
330
1F
100
AcDbEntity
  8
TEXT
100
AcDbCircle
 10
-342.2530474746486
 20
-151.8578346718818
 30
0.0
 40
0.0075708934653655
100
AcDbArc
 50
124.216774595017
 51
319.7988197133694
  0
ARC
  5
32A
330
1F
100
AcDbEntity
  8
TEXT
100
AcDbCircle
 10
-342.2227280103165
 20
-151.8715249691797
 30
0.0
 40
0.0260684316724221
100
AcDbArc
 50
160.2627782819643
 51
255.1333022011723
  0
ARC
  5
32B
330
1F
100
AcDbEntity
  8
TEXT
100
AcDbCircle
 10
-342.2229063367447
 20
-151.8941543514117
 30
0.0
 40
0.0069976873342193
100
AcDbArc
 50
201.5154657473981
 51
41.96660508022778
  0
ARC
  5
32C
330
1F
100
AcDbEntity
  8
TEXT
100
AcDbCircle
 10
-342.1985316267006
 20
-151.876798426886
 30
0.0
 40
0.0229836788276261
100
AcDbArc
 50
121.2424246402126
 51
213.473239708375
  0
ARC
  5
32D
330
1F
100
AcDbEntity
  8
TEXT
100
AcDbCircle
 10
-342.2040645199479
 20
-151.8684071418188
 30
0.0
 40
0.0129451309621158
100
AcDbArc
 50
332.2921775479048
 51
119.5678571759899
  0
ARC
  5
32E
330
1F
100
AcDbEntity
  8
TEXT
100
AcDbCircle
 10
-342.2016383853963
 20
-151.895701183051
 30
0.0
 40
0.0231138652678936
100
AcDbArc
 50
312.9867785858866
 51
66.99118422926675
  0
ARC
  5
32F
330
1F
100
AcDbEntity
  8
TEXT
100
AcDbCircle
 10
-342.1020985380737
 20
-152.0747759347224
 30
0.0
 40
0.1825298605922834
100
AcDbArc
 50
117.3222180892419
 51
179.3383492613259
  0
ARC
  5
330
330
1F
100
AcDbEntity
  8
TEXT
100
AcDbCircle
 10
-341.5130430147028
 20
-152.1345830111816
 30
0.0
 40
0.7740534065258907
100
AcDbArc
 50
175.4121316267021
 51
191.7939289657056
  0
ARC
  5
331
330
1F
100
AcDbEntity
  8
TEXT
100
AcDbCircle
 10
-342.2722677384832
 20
-152.3281274314698
 30
0.0
 40
0.0353661901713158
100
AcDbArc
 50
15.17145974978884
 51
87.54918714297627
  0
ARC
  5
332
330
1F
100
AcDbEntity
  8
TEXT
100
AcDbCircle
 10
-339.0793430096254
 20
-152.4266163150628
 30
0.0
 40
3.160628174278595
100
AcDbArc
 50
178.0464319449978
 51
181.7502526685598
  0
LINE
  5
333
330
1F
100
AcDbEntity
  8
TEXT
100
AcDbLine
 10
-342.2046397908037
 20
-152.366724157763
 30
0.0
 11
-342.2059074366745
 21
-152.5193650384564
 31
0.0
  0
ARC
  5
334
330
1F
100
AcDbEntity
  8
TEXT
100
AcDbCircle
 10
-342.1993487567324
 20
-152.365592538851
 30
0.0
 40
0.0054106933848193
100
AcDbArc
 50
333.6879001367203
 51
192.0722457553379
  0
LINE
  5
335
330
1F
100
AcDbEntity
  8
TEXT
100
AcDbLine
 10
-342.1944986499146
 20
-152.3679908855231
 30
0.0
 11
-342.1944986499146
 21
-152.3907920161384
 31
0.0
  0
ARC
  5
336
330
1F
100
AcDbEntity
  8
TEXT
100
AcDbCircle
 10
-342.1873308556433
 20
-152.3891389541656
 30
0.0
 40
0.0073559424006224
100
AcDbArc
 50
192.9866902548921
 51
33.3806313974108
  0
ARC
  5
337
330
1F
100
AcDbEntity
  8
TEXT
100
AcDbCircle
 10
-342.168147750299
 20
-152.3936216717047
 30
0.0
 40
0.0155826305602638
100
AcDbArc
 50
17.66955929970819
 51
146.8111142491876
  0
ARC
  5
338
330
1F
100
AcDbEntity
  8
TEXT
100
AcDbCircle
 10
-342.1193287041281
 20
-152.369765379416
 30
0.0
 40
0.0389857867394515
100
AcDbArc
 50
209.3802246625986
 51
263.8421008682745
  0
LINE
  5
339
330
1F
100
AcDbEntity
  8
TEXT
100
AcDbLine
 10
-342.1235106636909
 20
-152.4085262202468
 30
0.0
 11
-342.1197077521568
 21
-152.4617288635045
 31
0.0
  0
ARC
  5
33A
330
1F
100
AcDbEntity
  8
TEXT
100
AcDbCircle
 10
-342.103670906065
 20
-152.4639696512013
 30
0.0
 40
0.0161926391326401
100
AcDbArc
 50
172.0457056516397
 51
14.81661014794183
  0
LINE
  5
33B
330
1F
100
AcDbEntity
  8
TEXT
100
AcDbLine
 10
-342.0880166836186
 20
-152.4598287718644
 30
0.0
 11
-342.0854813918767
 21
-152.4376610051291
 31
0.0
  0
ARC
  5
33C
330
1F
100
AcDbEntity
  8
TEXT
100
AcDbCircle
 10
-342.0797056212577
 20
-152.4369861444893
 30
0.0
 40
0.0058150634670569
100
AcDbArc
 50
318.6510821797588
 51
186.6644145786489
  0
LINE
  5
33D
330
1F
100
AcDbEntity
  8
TEXT
100
AcDbLine
 10
-342.0753402509876
 20
-152.4408278245295
 30
0.0
 11
-342.072171162389
 21
-152.4699625939455
 31
0.0
  0
ARC
  5
33E
330
1F
100
AcDbEntity
  8
TEXT
100
AcDbCircle
 10
-342.0613209500236
 20
-152.4722062105374
 30
0.0
 40
0.0110797528757836
100
AcDbArc
 50
168.3169857564316
 51
15.0499521145162
  0
LINE
  5
33F
330
1F
100
AcDbEntity
  8
TEXT
100
AcDbLine
 10
-342.0506212347399
 20
-152.4693292300654
 30
0.0
 11
-342.0506212347399
 21
-152.44526137169
 31
0.0
  0
ARC
  5
340
330
1F
100
AcDbEntity
  8
TEXT
100
AcDbCircle
 10
-342.0361852940968
 20
-152.4577878848045
 30
0.0
 40
0.0191130822490872
100
AcDbArc
 50
65.19241843010752
 51
139.0508106988795
  0
ARC
  5
341
330
1F
100
AcDbEntity
  8
TEXT
100
AcDbCircle
 10
-342.0238698823276
 20
-152.458985853541
 30
0.0
 40
0.0190383821988919
100
AcDbArc
 50
7.606980527162049
 51
103.0413594591622
  0
LINE
  5
342
330
1F
100
AcDbEntity
  8
TEXT
100
AcDbLine
 10
-342.0049990489404
 20
-152.4564656067225
 30
0.0
 11
-341.9969797440322
 21
-152.5668744439982
 31
0.0
  0
LINE
  5
343
330
1F
100
AcDbEntity
  8
TEXT
100
AcDbLine
 10
-341.9622293532193
 20
-152.563312876086
 30
0.0
 11
-341.9595562341974
 21
-152.4760542766391
 31
0.0
  0
ARC
  5
344
330
1F
100
AcDbEntity
  8
TEXT
100
AcDbCircle
 10
-341.9499089559327
 20
-152.4734252936362
 30
0.0
 40
0.0099990764344
100
AcDbArc
 50
5.351678383090853
 51
195.24354880264
  0
LINE
  5
345
330
1F
100
AcDbEntity
  8
TEXT
100
AcDbLine
 10
-341.9132223797803
 20
-152.4894101795097
 30
0.0
 11
-341.9114403004321
 21
-152.5446146058806
 31
0.0
  0
ARC
  5
346
330
1F
100
AcDbEntity
  8
TEXT
100
AcDbCircle
 10
-341.8628073419795
 20
-152.5018756981353
 30
0.0
 40
0.0093269579312538
100
AcDbArc
 50
354.5219056877808
 51
214.944854376383
  0
ARC
  5
347
330
1F
100
AcDbEntity
  8
TEXT
100
AcDbCircle
 10
-341.8369985249953
 20
-152.5034044344179
 30
0.0
 40
0.0165367822276326
100
AcDbArc
 50
177.787775166229
 51
326.380582641936
  0
ARC
  5
348
330
1F
100
AcDbEntity
  8
TEXT
100
AcDbCircle
 10
-341.6661362640012
 20
-152.4836770193631
 30
0.0
 40
0.0090446670445143
100
AcDbArc
 50
144.5711585108376
 51
21.75301147886977
  0
LINE
  5
349
330
1F
100
AcDbEntity
  8
TEXT
100
AcDbLine
 10
-341.6577356670184
 20
-152.480325009178
 30
0.0
 11
-341.6571048431627
 21
-152.4324170967932
 31
0.0
  0
ARC
  5
34A
330
1F
100
AcDbEntity
  8
TEXT
100
AcDbCircle
 10
-341.6661156631296
 20
-152.4378809087145
 30
0.0
 40
0.0105379370460883
100
AcDbArc
 50
31.23099864076698
 51
160.1819529381847
  0
ARC
  5
34B
330
1F
100
AcDbEntity
  8
TEXT
100
AcDbCircle
 10
-341.6314376005557
 20
-152.4538932389858
 30
0.0
 40
0.0487032855846518
100
AcDbArc
 50
156.288597549796
 51
210.2571046136435
  0
ARC
  5
34C
330
1F
100
AcDbEntity
  8
TEXT
100
AcDbCircle
 10
-341.4936442606689
 20
-152.5308986798167
 30
0.0
 40
0.0300701126135258
100
AcDbArc
 50
341.5477100758352
 51
84.99888070834156
  0
ARC
  5
34D
330
1F
100
AcDbEntity
  8
TEXT
100
AcDbCircle
 10
-341.4805524067221
 20
-152.5657946028566
 30
0.0
 40
0.0656913671942501
100
AcDbArc
 50
99.17143729878524
 51
127.795528329094
  0
ARC
  5
34E
330
1F
100
AcDbEntity
  8
TEXT
100
AcDbCircle
 10
-341.6080009246067
 20
-152.5072468839602
 30
0.0
 40
0.0072833212418134
100
AcDbArc
 50
312.7998628402736
 51
120.058186453337
  0
ARC
  5
34F
330
1F
100
AcDbEntity
  8
TEXT
100
AcDbCircle
 10
-341.607327852177
 20
-152.4849425893481
 30
0.0
 40
0.0165736773362276
100
AcDbArc
 50
129.1527393458019
 51
254.8870408388506
  0
ARC
  5
350
330
1F
100
AcDbEntity
  8
TEXT
100
AcDbCircle
 10
-341.6705893180828
 20
-152.4318562262974
 30
0.0
 40
0.0663799911478199
100
AcDbArc
 50
322.6907301981539
 51
8.220255073940986
  0
ARC
  5
351
330
1F
100
AcDbEntity
  8
TEXT
100
AcDbCircle
 10
-341.5988849697987
 20
-152.4165824565799
 30
0.0
 40
0.0083377203270588
100
AcDbArc
 50
89.05883162362073
 51
223.9137905963003
  0
ARC
  5
352
330
1F
100
AcDbEntity
  8
TEXT
100
AcDbCircle
 10
-341.7654156175852
 20
-152.2205709263963
 30
0.0
 40
0.2509979489351848
100
AcDbArc
 50
311.6071689301099
 51
318.3515702307968
  0
ARC
  5
353
330
1F
100
AcDbEntity
  8
TEXT
100
AcDbCircle
 10
-341.5998501346304
 20
-152.411929188127
 30
0.0
 40
0.0637668312167232
100
AcDbArc
 50
337.3510782224612
 51
22.64892177753878
  0
ARC
  5
354
330
1F
100
AcDbEntity
  8
TEXT
100
AcDbCircle
 10
-341.4957304741339
 20
-152.4449008729436
 30
0.0
 40
0.0460460836471324
100
AcDbArc
 50
169.4684867573188
 51
223.1418439421423
  0
ARC
  5
355
330
1F
100
AcDbEntity
  8
TEXT
100
AcDbCircle
 10
-341.5354192038547
 20
-152.4499457009618
 30
0.0
 40
0.0271341882191743
100
AcDbArc
 50
282.9712622283036
 51
25.35441378639515
  0
ARC
  5
356
330
1F
100
AcDbEntity
  8
TEXT
100
AcDbCircle
 10
-341.2264963553992
 20
-152.3851579502369
 30
0.0
 40
0.2893295131371159
100
AcDbArc
 50
179.466220207127
 51
190.5890997840382
  0
ARC
  5
357
330
1F
100
AcDbEntity
  8
TEXT
100
AcDbCircle
 10
-341.7279427610148
 20
-152.1301804264959
 30
0.0
 40
0.2921733560609443
100
AcDbArc
 50
317.9732863042378
 51
40.61894937560235
  0
ARC
  5
358
330
1F
100
AcDbEntity
  8
TEXT
100
AcDbCircle
 10
-341.5340716591002
 20
-151.9744412072258
 30
0.0
 40
0.0443516632740007
100
AcDbArc
 50
51.01090143870909
 51
107.577946053111
  0
ARC
  5
359
330
1F
100
AcDbEntity
  8
TEXT
100
AcDbCircle
 10
-341.6101701569171
 20
-151.9286318428271
 30
0.0
 40
0.0628033698317426
100
AcDbArc
 50
356.7791343814141
 51
50.82801334298927
  0
ARC
  5
35A
330
1F
100
AcDbEntity
  8
TEXT
100
AcDbCircle
 10
-341.5943977337717
 20
-151.9989617417072
 30
0.0
 40
0.1213938581589665
100
AcDbArc
 50
78.6467194011529
 51
92.8865786316482
  0
ARC
  5
35B
330
1F
100
AcDbEntity
  8
TEXT
100
AcDbCircle
 10
-341.6080951951518
 20
-151.8626943759526
 30
0.0
 40
0.0168329057250599
100
AcDbArc
 50
296.7794474250815
 51
150.4674482996605
  0
ARC
  5
35C
330
1F
100
AcDbEntity
  8
TEXT
100
AcDbCircle
 10
-341.6350738366213
 20
-151.838647936178
 30
0.0
 40
0.0200033413087927
100
AcDbArc
 50
174.1982733486935
 51
308.0634596483613
  0
ARC
  5
35D
330
1F
100
AcDbEntity
  8
TEXT
100
AcDbCircle
 10
-341.6921196178594
 20
-151.8692275135241
 30
0.0
 40
0.0494227766538583
100
AcDbArc
 50
41.27304036069129
 51
94.61991284103847
  0
ARC
  5
35E
330
1F
100
AcDbEntity
  8
TEXT
100
AcDbCircle
 10
-341.7119082361833
 20
-151.8246141462669
 30
0.0
 40
0.0164772438173263
100
AcDbArc
 50
136.6395135700794
 51
16.38775991618466
  0
ARC
  5
35F
330
1F
100
AcDbEntity
  8
TEXT
100
AcDbCircle
 10
-341.7373184087914
 20
-151.8280180801724
 30
0.0
 40
0.019923999934833
100
AcDbArc
 50
47.61705801860774
 51
152.6179806586006
  0
ARC
  5
360
330
1F
100
AcDbEntity
  8
TEXT
100
AcDbCircle
 10
-341.7782813872098
 20
-151.8295866248283
 30
0.0
 40
0.0256267055491746
100
AcDbArc
 50
24.75773987532673
 51
121.5483884163395
  0
ARC
  5
361
330
1F
100
AcDbEntity
  8
TEXT
100
AcDbCircle
 10
-341.8111410807581
 20
-151.8151725585816
 30
0.0
 40
0.0208202889485251
100
AcDbArc
 50
20.89289471578113
 51
159.1071052842188
  0
ARC
  5
362
330
1F
100
AcDbEntity
  8
TEXT
100
AcDbCircle
 10
-341.8409645281121
 20
-151.8048574670945
 30
0.0
 40
0.0107672478568685
100
AcDbArc
 50
183.5606974541693
 51
344.4298925613469
  0
ARC
  5
363
330
1F
100
AcDbEntity
  8
TEXT
100
AcDbCircle
 10
-341.8740000407002
 20
-151.8289615882339
 30
0.0
 40
0.0323422366599906
100
AcDbArc
 50
46.43616582623978
 51
130.6283095026658
  0
ARC
  5
364
330
1F
100
AcDbEntity
  8
TEXT
100
AcDbCircle
 10
-341.9067304541004
 20
-151.8079000719696
 30
0.0
 40
0.0121798952203543
100
AcDbArc
 50
163.3756550464656
 51
16.62434495353019
  0
ARC
  5
365
330
1F
100
AcDbEntity
  8
TEXT
100
AcDbCircle
 10
-341.9527634800043
 20
-151.8991060483214
 30
0.0
 40
0.1007326717255064
100
AcDbArc
 50
70.05468846035606
 51
100.2232656721042
  0
ARC
  5
366
330
1F
100
AcDbEntity
  8
TEXT
100
AcDbCircle
 10
-341.9789782364297
 20
-151.8537292469755
 30
0.0
 40
0.0543991327960405
100
AcDbArc
 50
81.18509483549694
 51
120.0392913824101
  0
ARC
  5
367
330
1F
100
AcDbEntity
  8
TEXT
100
AcDbCircle
 10
-342.019442519482
 20
-151.7948399259958
 30
0.0
 40
0.0177275194936825
100
AcDbArc
 50
318.2823815987274
 51
84.36248438139953
  0
ARC
  5
368
330
1F
100
AcDbEntity
  8
TEXT
100
AcDbCircle
 10
-342.0992022367315
 20
-151.8736537013893
 30
0.0
 40
0.0254942521042418
100
AcDbArc
 50
35.60679995345886
 51
177.5845513854531
  0
LINE
  5
369
330
1F
100
AcDbEntity
  8
TEXT
100
AcDbLine
 10
-342.0784746024174
 20
-151.8588104515396
 30
0.0
 11
-342.0800956181359
 21
-151.8822983978571
 31
0.0
  0
LINE
  5
36A
330
1F
100
AcDbEntity
  8
TEXT
100
AcDbLine
 10
-342.124673837266
 20
-151.8725792449901
 30
0.0
 11
-342.1254843451255
 21
-151.9333239310757
 31
0.0
  0
ARC
  5
36B
330
1F
100
AcDbEntity
  8
TEXT
100
AcDbCircle
 10
-342.0226121844854
 20
-151.9791316958883
 30
0.0
 40
0.1126100916963402
100
AcDbArc
 50
120.6947626763563
 51
155.9971516553444
  0
ARC
  5
36C
330
1F
100
AcDbEntity
  8
TEXT
100
AcDbCircle
 10
-342.0640440089623
 20
-151.9479062644166
 30
0.0
 40
0.0209517503337112
100
AcDbArc
 50
218.6904014524236
 51
353.6659411500762
  0
ARC
  5
36D
330
1F
100
AcDbEntity
  8
TEXT
100
AcDbCircle
 10
-342.0756193094972
 20
-151.980601314839
 30
0.0
 40
0.020171963693018
100
AcDbArc
 50
103.7022990326948
 51
207.0193065629252
  0
ARC
  5
36E
330
1F
100
AcDbEntity
  8
TEXT
100
AcDbCircle
 10
-341.7762821078522
 20
-152.1477099431048
 30
0.0
 40
0.3544440067106097
100
AcDbArc
 50
153.5374647244112
 51
193.3327646348703
  0
ARC
  5
36F
330
1F
100
AcDbEntity
  8
TEXT
100
AcDbCircle
 10
-342.1895440701793
 20
-152.275585661294
 30
0.0
 40
0.0824827685733273
100
AcDbArc
 50
346.9852122362368
 51
34.01252680042808
  0
ARC
  5
370
330
1F
100
AcDbEntity
  8
TEXT
100
AcDbCircle
 10
-342.1205670680468
 20
-152.3301920141769
 30
0.0
 40
0.0377875286239628
100
AcDbArc
 50
345.4259909574667
 51
72.46181126870036
  0
ARC
  5
371
330
1F
100
AcDbEntity
  8
TEXT
100
AcDbCircle
 10
-342.0812490654605
 20
-152.4112602216554
 30
0.0
 40
0.0716123991500209
100
AcDbArc
 50
18.24878221232194
 51
92.19784172829085
  0
ARC
  5
372
330
1F
100
AcDbEntity
  8
TEXT
100
AcDbCircle
 10
-342.004595409837
 20
-152.3926726283022
 30
0.0
 40
0.0094565292621038
100
AcDbArc
 50
156.0593073728625
 51
8.762281217120062
  0
ARC
  5
373
330
1F
100
AcDbEntity
  8
TEXT
100
AcDbCircle
 10
-341.9841933855793
 20
-152.3951668847885
 30
0.0
 40
0.0117351997935574
100
AcDbArc
 50
1.65827202806849
 51
160.4091839300748
  0
ARC
  5
374
330
1F
100
AcDbEntity
  8
TEXT
100
AcDbCircle
 10
-341.9400527383188
 20
-152.3723069948435
 30
0.0
 40
0.0394663806242486
100
AcDbArc
 50
214.7934494581964
 51
299.0409507876108
  0
ARC
  5
375
330
1F
100
AcDbEntity
  8
TEXT
100
AcDbCircle
 10
-341.8956726847737
 20
-152.3832665978822
 30
0.0
 40
0.0345034994608953
100
AcDbArc
 50
223.0305625061282
 51
311.2487591160725
  0
ARC
  5
376
330
1F
100
AcDbEntity
  8
TEXT
100
AcDbCircle
 10
-341.8533565721131
 20
-152.404018427691
 30
0.0
 40
0.0202434850951048
100
AcDbArc
 50
194.854618224045
 51
330.4510994340791
  0
ARC
  5
377
330
1F
100
AcDbEntity
  8
TEXT
100
AcDbCircle
 10
-341.8213547863412
 20
-152.462345554376
 30
0.0
 40
0.0504403035036899
100
AcDbArc
 50
33.67851647490058
 51
106.5775508010122
  0
ARC
  5
378
330
1F
100
AcDbEntity
  8
TEXT
100
AcDbCircle
 10
-341.7649890097006
 20
-152.4047858322752
 30
0.0
 40
0.0329030971158398
100
AcDbArc
 50
244.0629515517946
 51
24.32612031264369
  0
ARC
  5
379
330
1F
100
AcDbEntity
  8
TEXT
100
AcDbCircle
 10
-341.6887305510375
 20
-152.2216773610205
 30
0.0
 40
0.0856504748170368
100
AcDbArc
 50
300.6537348898137
 51
16.68245916375939
  0
ARC
  5
37A
330
1F
100
AcDbEntity
  8
TEXT
100
AcDbCircle
 10
-341.854646277825
 20
-152.1301451048069
 30
0.0
 40
0.2568391883961405
100
AcDbArc
 50
344.8914411173261
 51
24.57723374822052
  0
ARC
  5
37B
330
1F
100
AcDbEntity
  8
TEXT
100
AcDbCircle
 10
-341.5699548121772
 20
-151.99749091941
 30
0.0
 40
0.0572764194780507
100
AcDbArc
 50
155.990632901348
 51
206.8057304576943
  0
ARC
  5
37C
330
1F
100
AcDbEntity
  8
TEXT
100
AcDbCircle
 10
-341.6307739065254
 20
-151.9746601413995
 30
0.0
 40
0.0085115103283491
100
AcDbArc
 50
3.193725348484568
 51
193.0548754998599
  0
ARC
  5
37D
330
1F
100
AcDbEntity
  8
TEXT
100
AcDbCircle
 10
-341.6504585170271
 20
-151.9894506205135
 30
0.0
 40
0.0171867493656786
100
AcDbArc
 50
131.5213803610228
 51
48.47861963898633
  0
ARC
  5
37E
330
1F
100
AcDbEntity
  8
TEXT
100
AcDbCircle
 10
-341.7074181254349
 20
-151.9522359069995
 30
0.0
 40
0.0516631101119713
100
AcDbArc
 50
331.8837666959812
 51
33.32508059324512
  0
ARC
  5
37F
330
1F
100
AcDbEntity
  8
TEXT
100
AcDbCircle
 10
-341.6757444371374
 20
-151.9270328104465
 30
0.0
 40
0.0119260847182272
100
AcDbArc
 50
15.46471151433622
 51
237.0036058083551
  0
ARC
  5
380
330
1F
100
AcDbEntity
  8
TEXT
100
AcDbCircle
 10
-341.6984647161191
 20
-151.9445709038087
 30
0.0
 40
0.0178900098840057
100
AcDbArc
 50
124.5991194751618
 51
24.91162951380403
  0
ARC
  5
381
330
1F
100
AcDbEntity
  8
TEXT
100
AcDbCircle
 10
-341.7496300319272
 20
-151.9111420137696
 30
0.0
 40
0.0450705442028974
100
AcDbArc
 50
335.4827230531633
 51
36.54383594003244
  0
ARC
  5
382
330
1F
100
AcDbEntity
  8
TEXT
100
AcDbCircle
 10
-341.8067746926931
 20
-152.051504582758
 30
0.0
 40
0.1914957959123389
100
AcDbArc
 50
60.82353397560614
 51
101.6183182656855
  0
LINE
  5
383
330
1F
100
AcDbEntity
  8
TEXT
100
AcDbLine
 10
-341.845340240688
 20
-151.8639323610407
 30
0.0
 11
-341.8465395075374
 21
-151.9094718906188
 31
0.0
  0
ARC
  5
384
330
1F
100
AcDbEntity
  8
TEXT
100
AcDbCircle
 10
-341.8642042162594
 20
-151.9103370378116
 30
0.0
 40
0.0176858817674158
100
AcDbArc
 50
165.392244650368
 51
2.803879044206379
  0
LINE
  5
385
330
1F
100
AcDbEntity
  8
TEXT
100
AcDbLine
 10
-341.8813184026487
 20
-151.9058766523892
 30
0.0
 11
-341.8837169363479
 21
-151.8711228220335
 31
0.0
  0
ARC
  5
386
330
1F
100
AcDbEntity
  8
TEXT
100
AcDbCircle
 10
-341.8992430963195
 20
-151.8789009338687
 30
0.0
 40
0.0173655022151764
100
AcDbArc
 50
26.60941129939663
 51
166.0619000058105
  0
LINE
  5
387
330
1F
100
AcDbEntity
  8
TEXT
100
AcDbLine
 10
-341.91609729776
 20
-151.8747180447968
 30
0.0
 11
-341.91609729776
 21
-151.890297348593
 31
0.0
  0
ARC
  5
388
330
1F
100
AcDbEntity
  8
TEXT
100
AcDbCircle
 10
-341.9298445434324
 20
-151.8989366045029
 30
0.0
 40
0.0162364868814825
100
AcDbArc
 50
179.1163546128549
 51
32.1467084386587
  0
LINE
  5
389
330
1F
100
AcDbEntity
  8
TEXT
100
AcDbLine
 10
-341.9460790993941
 20
-151.8986862068627
 30
0.0
 11
-341.9460790993941
 21
-151.9562098174739
 31
0.0
  0
ARC
  5
38A
330
1F
100
AcDbEntity
  8
TEXT
100
AcDbCircle
 10
-341.9676749366224
 20
-151.9564868454066
 30
0.0
 40
0.0215976139899841
100
AcDbArc
 50
182.4450201076249
 51
0.7349407504797699
  0
LINE
  5
38B
330
1F
100
AcDbEntity
  8
TEXT
100
AcDbLine
 10
-341.9892528885315
 20
-151.9574082147507
 30
0.0
 11
-341.9796587276559
 21
-151.8855037130866
 31
0.0
  0
ARC
  5
38C
330
1F
100
AcDbEntity
  8
TEXT
100
AcDbCircle
 10
-341.9908408097678
 20
-151.8870996678157
 30
0.0
 40
0.0112953987026185
100
AcDbArc
 50
8.122642540875142
 51
202.9043136183461
  0
LINE
  5
38D
330
1F
100
AcDbEntity
  8
TEXT
100
AcDbLine
 10
-342.0012456352639
 20
-151.8914957613362
 30
0.0
 11
-342.0060427026623
 21
-151.9286464171783
 31
0.0
  0
ARC
  5
38E
330
1F
100
AcDbEntity
  8
TEXT
100
AcDbCircle
 10
-342.0198343366297
 20
-151.9279176817532
 30
0.0
 40
0.0138108733544406
100
AcDbArc
 50
183.0246359049376
 51
356.9753640950624
  0
LINE
  5
38F
330
1F
100
AcDbEntity
  8
TEXT
100
AcDbLine
 10
-342.0336259705972
 20
-151.9286464171783
 30
0.0
 11
-342.043220157552
 21
-151.9502177692242
 31
0.0
  0
LINE
  5
390
330
1F
100
AcDbEntity
  8
TEXT
100
AcDbLine
 10
-341.3947641114633
 20
-152.1741741143575
 30
0.0
 11
-341.2935011961453
 21
-152.1702213861343
 31
0.0
  0
LINE
  5
391
330
1F
100
AcDbEntity
  8
TEXT
100
AcDbLine
 10
-341.2167629045405
 20
-152.1741741143575
 30
0.0
 11
-341.1154999892227
 21
-152.1702213861343
 31
0.0
  0
LINE
  5
392
330
1F
100
AcDbEntity
  8
TEXT
100
AcDbLine
 10
-341.3536260716746
 20
-152.2057959865417
 30
0.0
 11
-341.3520438353629
 21
-152.3591620550354
 31
0.0
  0
LINE
  5
393
330
1F
100
AcDbEntity
  8
TEXT
100
AcDbLine
 10
-341.2935011961453
 20
-152.1702213861343
 30
0.0
 11
-341.2919189598337
 21
-152.3441416754144
 31
0.0
  0
LINE
  5
394
330
1F
100
AcDbEntity
  8
TEXT
100
AcDbLine
 10
-341.1154999892227
 20
-152.1702213861343
 30
0.0
 11
-341.113917752911
 21
-152.3496755011134
 31
0.0
  0
ARC
  5
395
330
1F
100
AcDbEntity
  8
TEXT
100
AcDbCircle
 10
-341.37213173657
 20
-152.2053703986675
 30
0.0
 40
0.0185105580212536
100
AcDbArc
 50
358.6825606331185
 51
106.4049357729542
  0
LINE
  5
396
330
1F
100
AcDbEntity
  8
TEXT
100
AcDbLine
 10
-341.3947641114633
 20
-152.1741741143575
 30
0.0
 11
-341.3939730063469
 21
-152.1852417812218
 31
0.0
  0
LINE
  5
397
330
1F
100
AcDbEntity
  8
TEXT
100
AcDbLine
 10
-341.3773595641923
 20
-152.1876134119691
 30
0.0
 11
-341.3939730063469
 21
-152.1852417812218
 31
0.0
  0
LINE
  5
398
330
1F
100
AcDbEntity
  8
TEXT
100
AcDbLine
 10
-341.2167629045405
 20
-152.1741741143575
 30
0.0
 11
-341.217554009657
 21
-152.1891945094449
 31
0.0
  0
LINE
  5
399
330
1F
100
AcDbEntity
  8
TEXT
100
AcDbLine
 10
-341.217554009657
 20
-152.1891945094449
 30
0.0
 11
-341.189073808204
 21
-152.1907756069207
 31
0.0
  0
LINE
  5
39A
330
1F
100
AcDbEntity
  8
TEXT
100
AcDbLine
 10
-341.1716692609331
 20
-152.3575809575597
 30
0.0
 11
-341.1724603660495
 21
-152.2065865352796
 31
0.0
  0
ARC
  5
39B
330
1F
100
AcDbEntity
  8
TEXT
100
AcDbCircle
 10
-341.1837663849878
 20
-152.2018326040391
 30
0.0
 40
0.0122648247632313
100
AcDbArc
 50
337.1943218370273
 51
115.6412778855142
  0
ARC
  5
39C
330
1F
100
AcDbEntity
  8
TEXT
100
AcDbCircle
 10
-341.291161371075
 20
-152.3583558112297
 30
0.0
 40
0.0608878024473341
100
AcDbArc
 50
180.7587023263156
 51
270.031539090741
  0
ARC
  5
39D
330
1F
100
AcDbEntity
  8
TEXT
100
AcDbCircle
 10
-341.2670994337684
 20
-152.281573680461
 30
0.0
 40
0.139751110854478
100
AcDbArc
 50
260.0995263030863
 51
313.0673878832468
  0
LINE
  5
39E
330
1F
100
AcDbEntity
  8
TEXT
100
AcDbLine
 10
-341.1716692609331
 20
-152.383669004045
 30
0.0
 11
-341.1708781297379
 21
-152.4137097787533
 31
0.0
  0
ARC
  5
39F
330
1F
100
AcDbEntity
  8
TEXT
100
AcDbCircle
 10
-341.1615232878392
 20
-152.4099869210192
 30
0.0
 40
0.0100684028850535
100
AcDbArc
 50
201.7006027724343
 51
343.0678677067634
  0
ARC
  5
3A0
330
1F
100
AcDbEntity
  8
TEXT
100
AcDbCircle
 10
-341.0742670138079
 20
-152.5943345202963
 30
0.0
 40
0.1973247184719365
100
AcDbArc
 50
88.18956599987521
 51
113.1652090520224
  0
LINE
  5
3A1
330
1F
100
AcDbEntity
  8
TEXT
100
AcDbLine
 10
-341.0175798222683
 20
-152.0826870210656
 30
0.0
 11
-341.0117043639793
 21
-152.3871518325977
 31
0.0
  0
LINE
  5
3A2
330
1F
100
AcDbEntity
  8
TEXT
100
AcDbLine
 10
-340.9537985872129
 20
-152.0415792344989
 30
0.0
 11
-340.9521104559849
 21
-152.1934014895502
 31
0.0
  0
ARC
  5
3A3
330
1F
100
AcDbEntity
  8
TEXT
100
AcDbCircle
 10
-341.0779738412928
 20
-151.682492092742
 30
0.0
 40
0.3799514036042447
100
AcDbArc
 50
273.5403564160214
 51
289.0758016785421
  0
LINE
  5
3A4
330
1F
100
AcDbEntity
  8
TEXT
100
AcDbLine
 10
-341.0545112482913
 20
-152.0617183785272
 30
0.0
 11
-341.0528325459229
 21
-152.0801707796304
 31
0.0
  0
LINE
  5
3A5
330
1F
100
AcDbEntity
  8
TEXT
100
AcDbLine
 10
-341.0528325459229
 20
-152.0801707796304
 30
0.0
 11
-341.0175798222683
 21
-152.0826870210656
 31
0.0
  0
LINE
  5
3A6
330
1F
100
AcDbEntity
  8
TEXT
100
AcDbLine
 10
-340.9512711308798
 20
-152.2244350978293
 30
0.0
 11
-340.9504317796956
 21
-152.3686994160281
 31
0.0
  0
ARC
  5
3A7
330
1F
100
AcDbEntity
  8
TEXT
100
AcDbCircle
 10
-340.8532918735569
 20
-152.3240040242638
 30
0.0
 40
0.1637746448834882
100
AcDbArc
 50
71.0798858476198
 51
127.1124618564865
  0
ARC
  5
3A8
330
1F
100
AcDbEntity
  8
TEXT
100
AcDbCircle
 10
-340.8531714231281
 20
-152.2703065984125
 30
0.0
 40
0.1142562801072371
100
AcDbArc
 50
359.8698564192901
 51
62.37231490188348
  0
ARC
  5
3A9
330
1F
100
AcDbEntity
  8
TEXT
100
AcDbCircle
 10
-340.8994410196346
 20
-152.2583944148129
 30
0.0
 40
0.0619644708011938
100
AcDbArc
 50
78.87075864991584
 51
146.7670066549806
  0
ARC
  5
3AA
330
1F
100
AcDbEntity
  8
TEXT
100
AcDbCircle
 10
-340.8807104855873
 20
-152.2694287864323
 30
0.0
 40
0.0721518704931053
100
AcDbArc
 50
21.58325850317301
 51
95.38396011116695
  0
ARC
  5
3AB
330
1F
100
AcDbEntity
  8
TEXT
100
AcDbCircle
 10
-340.8863664498493
 20
-152.2940890518688
 30
0.0
 40
0.088960611637759
100
AcDbArc
 50
343.5952529167622
 51
35.13836089167873
  0
ARC
  5
3AC
330
1F
100
AcDbEntity
  8
TEXT
100
AcDbCircle
 10
-340.9151006890983
 20
-152.2648585843615
 30
0.0
 40
0.1558457845586532
100
AcDbArc
 50
231.6935697703411
 51
269.6626044169122
  0
ARC
  5
3AD
330
1F
100
AcDbEntity
  8
TEXT
100
AcDbCircle
 10
-340.8989442033235
 20
-152.2378112795964
 30
0.0
 40
0.1836856613538935
100
AcDbArc
 50
264.6664639047648
 51
308.6423664458128
  0
ARC
  5
3AE
330
1F
100
AcDbEntity
  8
TEXT
100
AcDbCircle
 10
-340.8774918982118
 20
-152.2784698452882
 30
0.0
 40
0.138801672189514
100
AcDbArc
 50
312.2086974257856
 51
3.264333629957668
  0
ARC
  5
3AF
330
1F
100
AcDbEntity
  8
TEXT
100
AcDbCircle
 10
-342.223751742782
 20
-152.5079187307079
 30
0.0
 40
0.0211999344698838
100
AcDbArc
 50
225.9317407160003
 51
327.3216812937225
  0
ARC
  5
3B0
330
1F
100
AcDbEntity
  8
TEXT
100
AcDbCircle
 10
-341.9790213392382
 20
-152.570784062316
 30
0.0
 40
0.0183790483469612
100
AcDbArc
 50
167.7181143692786
 51
23.98551077365519
  0
ARC
  5
3B1
330
1F
100
AcDbEntity
  8
TEXT
100
AcDbCircle
 10
-341.8894500265298
 20
-152.5482049014702
 30
0.0
 40
0.0222814355173959
100
AcDbArc
 50
170.7272794785989
 51
21.15794103948644
  0
LINE
  5
3B2
330
1F
100
AcDbEntity
  8
TEXT
100
AcDbLine
 10
-341.8686706047108
 20
-152.5401626382572
 30
0.0
 11
-341.870452684059
 21
-152.50721806547
 31
0.0
  0
LINE
  5
3B3
330
1F
100
AcDbEntity
  8
TEXT
100
AcDbLine
 10
-341.8232277899677
 20
-152.5125604173385
 30
0.0
 11
-341.8143174193064
 21
-152.5588609084625
 31
0.0
  0
ARC
  5
3B4
330
1F
100
AcDbEntity
  8
TEXT
100
AcDbCircle
 10
-341.8033682831032
 20
-152.5610532896007
 30
0.0
 40
0.0111664729730421
100
AcDbArc
 50
168.6772178130463
 51
20.84321825743645
  0
LINE
  5
3B5
330
1F
100
AcDbEntity
  8
TEXT
100
AcDbLine
 10
-341.7929325714459
 20
-152.5570801245063
 30
0.0
 11
-341.7929325714459
 21
-152.5259163356754
 31
0.0
  0
ARC
  5
3B6
330
1F
100
AcDbEntity
  8
TEXT
100
AcDbCircle
 10
-341.7786824705549
 20
-152.5273209766089
 30
0.0
 40
0.0143191616917265
100
AcDbArc
 50
354.9255052590734
 51
174.3705062402905
  0
LINE
  5
3B7
330
1F
100
AcDbEntity
  8
TEXT
100
AcDbLine
 10
-341.7644194322722
 20
-152.5285875193428
 30
0.0
 11
-341.760855299655
 21
-152.6158461187896
 31
0.0
  0
ARC
  5
3B8
330
1F
100
AcDbEntity
  8
TEXT
100
AcDbCircle
 10
-341.7430713601593
 20
-152.6140198305399
 30
0.0
 40
0.0178774671797511
100
AcDbArc
 50
185.8633287467241
 51
2.70882780951028
  0
LINE
  5
3B9
330
1F
100
AcDbEntity
  8
TEXT
100
AcDbLine
 10
-341.725213869168
 20
-152.6131749351222
 30
0.0
 11
-341.7323421344026
 21
-152.541053022502
 31
0.0
  0
LINE
  5
3BA
330
1F
100
AcDbEntity
  8
TEXT
100
AcDbLine
 10
-341.7323421344026
 20
-152.541053022502
 30
0.0
 11
-341.7243228294943
 21
-152.5597512927073
 31
0.0
  0
ARC
  5
3BB
330
1F
100
AcDbEntity
  8
TEXT
100
AcDbCircle
 10
-341.7125969896432
 20
-152.55332976878
 30
0.0
 40
0.0133690422155094
100
AcDbArc
 50
208.706819647663
 51
351.5282258973498
  0
LINE
  5
3BC
330
1F
100
AcDbEntity
  8
TEXT
100
AcDbLine
 10
-341.6993738229375
 20
-152.5552993250838
 30
0.0
 11
-341.7002648626114
 21
-152.5419434222133
 31
0.0
  0
ARC
  5
3BD
330
1F
100
AcDbEntity
  8
TEXT
100
AcDbCircle
 10
-341.6822740985781
 20
-152.5470464965791
 30
0.0
 40
0.0187005069045984
100
AcDbArc
 50
7.472141028409524
 51
164.1640293291675
  0
LINE
  5
3BE
330
1F
100
AcDbEntity
  8
TEXT
100
AcDbLine
 10
-341.6637323924505
 20
-152.5446146058806
 30
0.0
 11
-341.6548220478683
 21
-152.6185172869906
 31
0.0
  0
ARC
  5
3BF
330
1F
100
AcDbEntity
  8
TEXT
100
AcDbCircle
 10
-341.6374359044573
 20
-152.6229678248294
 30
0.0
 40
0.0179467342367279
100
AcDbArc
 50
165.6416373020919
 51
23.37981978602108
  0
LINE
  5
3C0
330
1F
100
AcDbEntity
  8
TEXT
100
AcDbLine
 10
-341.6209626967295
 20
-152.6158461187896
 30
0.0
 11
-341.6236712831312
 21
-152.5496654164157
 31
0.0
  0
ARC
  5
3C1
330
1F
100
AcDbEntity
  8
TEXT
100
AcDbCircle
 10
-341.6185810157366
 20
-152.544174302081
 30
0.0
 40
0.0074875335580206
100
AcDbArc
 50
60.02231951668123
 51
227.1694577924197
  0
LINE
  5
3C2
330
1F
100
AcDbEntity
  8
TEXT
100
AcDbLine
 10
-341.6148397752313
 20
-152.5376884499193
 30
0.0
 11
-341.5842728400717
 21
-152.542357627436
 31
0.0
  0
ARC
  5
3C3
330
1F
100
AcDbEntity
  8
TEXT
100
AcDbCircle
 10
-341.5865943195937
 20
-152.5557122507249
 30
0.0
 40
0.0135548969144405
100
AcDbArc
 50
327.1504341221703
 51
80.13862259361699
  0
LINE
  5
3C4
330
1F
100
AcDbEntity
  8
TEXT
100
AcDbLine
 10
-341.5752068823617
 20
-152.5630649035556
 30
0.0
 11
-341.5706738904673
 21
-152.6918383702068
 31
0.0
  0
LINE
  5
3C5
330
1F
100
AcDbEntity
  8
TEXT
100
AcDbLine
 10
-341.5324673078343
 20
-152.6892499471588
 30
0.0
 11
-341.5318197412891
 21
-152.5585351864211
 31
0.0
  0
ARC
  5
3C6
330
1F
100
AcDbEntity
  8
TEXT
100
AcDbCircle
 10
-341.5216273921158
 20
-152.5576288772102
 30
0.0
 40
0.0102325645886126
100
AcDbArc
 50
32.94435831946172
 51
185.0814072168598
  0
ARC
  5
3C7
330
1F
100
AcDbEntity
  8
TEXT
100
AcDbCircle
 10
-341.4923518795695
 20
-152.5327802172337
 30
0.0
 40
0.0282821218467122
100
AcDbArc
 50
222.9877626572331
 51
344.3358851615581
  0
ARC
  5
3C8
330
1F
100
AcDbEntity
  8
TEXT
100
AcDbCircle
 10
-341.531661004677
 20
-152.5083657937797
 30
0.0
 40
0.0121730875667031
100
AcDbArc
 50
193.9319034609793
 51
333.0378283509304
  0
ARC
  5
3C9
330
1F
100
AcDbEntity
  8
TEXT
100
AcDbCircle
 10
-341.5539446329571
 20
-152.5232869615666
 30
0.0
 40
0.0159172569840616
100
AcDbArc
 50
48.87596376793556
 51
143.7953529790059
  0
ARC
  5
3CA
330
1F
100
AcDbEntity
  8
TEXT
100
AcDbCircle
 10
-341.5843716282099
 20
-152.49786118865
 30
0.0
 40
0.0237893523154895
100
AcDbArc
 50
218.2556843178653
 51
317.6564247238852
  0
ARC
  5
3CB
330
1F
100
AcDbEntity
  8
TEXT
100
AcDbCircle
 10
-341.5514195521708
 20
-152.6927736972113
 30
0.0
 40
0.0192770428186735
100
AcDbArc
 50
177.2189023070874
 51
10.53261226457849
  0
LINE
  5
3CC
330
1F
100
AcDbEntity
  8
DIMENSION
100
AcDbLine
 10
-347.2091729663578
 20
-153.3521427092911
 30
0.0
 11
-347.2091729663578
 21
-155.2832799076448
 31
0.0
  0
TEXT
  5
3CD
330
1F
100
AcDbEntity
  8
TEXT
100
AcDbText
 10
-376.9619881042423
 20
-155.1582799076448
 30
0.0
 40
0.25
  1
REVISIONS
 72
     1
 11
-375.9203214375756
 21
-155.0332799076448
 31
0.0
100
AcDbText
 73
     2
  0
LWPOLYLINE
  5
3CE
330
1F
100
AcDbEntity
  8
BORDER
100
AcDbPolyline
 90
        4
 70
     1
 43
0.0
 10
-382.2421964375759
 20
-85.19873367458609
 10
-334.7439181521281
 20
-85.19873367458609
 10
-334.7439181521281
 20
-155.2832799076448
 10
-382.2421964375759
 20
-155.2832799076448
  0
TEXT
  5
3CF
330
1F
100
AcDbEntity
  8
TEXT
100
AcDbText
 10
-351.3071486529608
 20
-155.0489049076448
 30
0.0
 40
0.15625
  1
ICE QUBE, INC.
 72
     1
 11
-350.3826694862941
 21
-154.9707799076448
 31
0.0
100
AcDbText
 73
     2
  0
TEXT
  5
3D0
330
1F
100
AcDbEntity
  8
TEXT
100
AcDbText
 10
-353.0389194862941
 20
-154.8145299076447
 30
0.0
 40
0.15625
  1
OR ALTERED WITHOUT AUTHORIZATION OF
 72
     1
 11
-350.3826694862941
 21
-154.7364049076447
 31
0.0
100
AcDbText
 73
     2
  0
TEXT
  5
3D1
330
1F
100
AcDbEntity
  8
TEXT
100
AcDbText
 10
-353.1561069862941
 20
-154.5801549076448
 30
0.0
 40
0.15625
  1
QUBE, INC. AND IS NOT TO BE DUPLICATED
 72
     1
 11
-350.3826694862941
 21
-154.5020299076448
 31
0.0
100
AcDbText
 73
     2
  0
TEXT
  5
3D2
330
1F
100
AcDbEntity
  8
TEXT
100
AcDbText
 10
-353.0128778196274
 20
-154.3457799076448
 30
0.0
 40
0.15625
  1
THIS DRAWING IS THE PROPERTY OF ICE
 72
     1
 11
-350.3826694862941
 21
-154.2676549076448
 31
0.0
100
AcDbText
 73
     2
  0
TEXT
  5
3D3
330
1F
100
AcDbEntity
  8
TEXT
100
AcDbText
 10
-353.2472528196274
 20
-154.0332799076448
 30
0.0
 40
0.3125
  1
PROPRIETARY DRAWING
 72
     1
 11
-350.3826694862941
 21
-153.8770299076448
 31
0.0
100
AcDbText
 73
     2
  0
LINE
  5
3D4
330
1F
100
AcDbEntity
  8
BORDER
100
AcDbLine
 10
-347.2091729663578
 20
-155.2832799076448
 30
0.0
 11
-353.5561660062305
 21
-155.2832799076448
 31
0.0
  0
LINE
  5
3D5
330
1F
100
AcDbEntity
  8
BORDER
100
AcDbLine
 10
-347.2091729663578
 20
-155.2832799076448
 30
0.0
 11
-347.2091729663578
 21
-153.5645299076447
 31
0.0
  0
LINE
  5
3D6
330
1F
100
AcDbEntity
  8
THERMOSTATCVR
100
AcDbLine
 10
-347.2091729663578
 20
-153.3521427092911
 30
0.0
 11
-353.4967982692631
 21
-153.3521427092911
 31
0.0
  0
LINE
  5
3D7
330
1F
100
AcDbEntity
  8
THERMOSTATCVR
100
AcDbLine
 10
-353.4967982692631
 20
-153.3521427092911
 30
0.0
 11
-353.4967982692631
 21
-155.2832799076448
 31
0.0
  0
TEXT
  5
40B
330
1F
100
AcDbEntity
  8
DIMENSION
100
AcDbText
 10
-362.1942010244087
 20
-97.2464845580454
 30
0.0
 40
1.0
  1
480VAC
 72
     1
 11
-359.277534357742
 21
-97.2464845580454
 31
0.0
100
AcDbText
  0
TEXT
  5
423
330
1F
100
AcDbEntity
  8
TEXT
100
AcDbText
 10
-342.6269581249822
 20
-153.4175158088999
 30
0.0
 40
0.625
  1
IQ4-55-6000VS
 72
     1
 11
-338.8248747916488
 21
-153.1050158088999
 31
0.0
100
AcDbText
 73
     2
  0
TEXT
  5
424
330
1F
100
AcDbEntity
  8
TEXT
100
AcDbText
 10
-340.273420559243
 20
-153.8792608102948
 30
0.0
 40
0.3125
  1
480-400VAC
 72
     1
 11
-338.789045559243
 21
-153.7230108102948
 31
0.0
100
AcDbText
 73
     2
  0
TEXT
  5
581
330
1F
100
AcDbEntity
  8
DIMENSION
100
AcDbText
 10
-366.1108676910753
 20
-98.95282814048066
 30
0.0
 40
1.0
  1
CUTOUT DRAWING
 72
     1
 11
-359.277534357742
 21
-98.95282814048066
 31
0.0
100
AcDbText
  0
LINE
  5
7A7
330
1F
100
AcDbEntity
  8
Washer
100
AcDbLine
 10
-361.5975572948518
 20
-139.2662799076453
 30
0.0
 11
-363.877557294852
 21
-139.2662799076453
 31
0.0
  0
LINE
  5
7A8
330
1F
100
AcDbEntity
  8
Washer
100
AcDbLine
 10
-361.5975572948518
 20
-142.3912799076453
 30
0.0
 11
-361.5975572948518
 21
-139.2662799076453
 31
0.0
  0
LINE
  5
7A9
330
1F
100
AcDbEntity
  8
Washer
100
AcDbLine
 10
-361.5975572948518
 20
-142.3912799076453
 30
0.0
 11
-363.877557294852
 21
-142.3912799076453
 31
0.0
  0
LINE
  5
7AA
330
1F
100
AcDbEntity
  8
Washer
100
AcDbLine
 10
-363.877557294852
 20
-142.3912799076453
 30
0.0
 11
-363.877557294852
 21
-139.2662799076453
 31
0.0
  0
DIMENSION
  5
7AB
330
1F
100
AcDbEntity
  8
DIM
100
AcDbDimension
280
     0
  2
*D10
 10
-364.6280572948522
 20
-143.108779907645
 30
0.0
 11
-370.9704265918565
 21
-120.6186666716674
 31
0.0
 70
    38
 71
     5
 42
23.53999999999999
 73
     0
 74
     0
 75
     0
  3
Standard
100
AcDbOrdinateDimension
 13
-360.9240572948522
 23
-119.568779907645
 33
0.0
 14
-368.4637599251898
 24
-120.6186666716674
 34
0.0
1001
ACAD
1000
DSTYLE
1002
{
1070
    43
1040
2.125
1070
    44
1040
1.0
1070
   140
1040
0.9999999999999998
1070
   141
1040
0.5
1002
}
  0
DIMENSION
  5
7AC
330
1F
100
AcDbEntity
  8
DIM
100
AcDbDimension
280
     0
  2
*D11
 10
-364.6280572948522
 20
-143.108779907645
 30
0.0
 11
-359.5698014859398
 21
-148.5207537381399
 31
0.0
 70
   230
 71
     5
 42
3.703999999999893
 73
     0
 74
     0
 75
     0
  3
Standard
100
AcDbOrdinateDimension
 13
-360.9240572948522
 23
-119.568779907645
 33
0.0
 14
-359.5698014859398
 24
-146.5140870714732
 34
0.0
1001
ACAD
1000
DSTYLE
1002
{
1070
    43
1040
2.125
1070
    44
1040
1.0
1070
   140
1040
0.9999999999999998
1070
   141
1040
0.5
1002
}
  0
DIMENSION
  5
7AD
330
1F
100
AcDbEntity
  8
DIM
100
AcDbDimension
280
     0
  2
*D12
 10
-364.6280572948522
 20
-143.108779907645
 30
0.0
 11
-346.0684207507791
 21
-108.9877799076445
 31
0.0
 70
    38
 71
     5
 42
34.12100000000056
 73
     0
 74
     0
 75
     0
  3
Standard
100
AcDbOrdinateDimension
 13
-352.358057294852
 23
-108.9877799076445
 33
0.0
 14
-348.3250874174457
 24
-108.9877799076445
 34
0.0
1001
ACAD
1000
DSTYLE
1002
{
1070
    43
1040
2.125
1070
    44
1040
1.0
1070
   140
1040
0.9999999999999998
1070
   141
1040
0.5
1002
}
  0
DIMENSION
  5
7AE
330
1F
100
AcDbEntity
  8
DIM
100
AcDbDimension
280
     0
  2
*D13
 10
-364.6280572948522
 20
-143.108779907645
 30
0.0
 11
-345.7505770285006
 21
-110.5231845891593
 31
0.0
 70
    38
 71
     5
 42
33.33750000000009
 73
     0
 74
     0
 75
     0
  3
Standard
100
AcDbOrdinateDimension
 13
-354.3503072948521
 23
-109.7712799076449
 33
0.0
 14
-348.3405770285005
 24
-110.5231845891593
 34
0.0
1001
ACAD
1000
DSTYLE
1002
{
1070
    43
1040
2.125
1070
    44
1040
1.0
1070
   140
1040
0.9999999999999998
1070
   141
1040
0.5
1002
}
  0
DIMENSION
  5
7AF
330
1F
100
AcDbEntity
  8
DIM
100
AcDbDimension
280
     0
  2
*D14
 10
-364.6280572948522
 20
-143.108779907645
 30
0.0
 11
-345.7505770285006
 21
-114.2212799076447
 31
0.0
 70
    38
 71
     5
 42
28.88750000000027
 73
     0
 74
     0
 75
     0
  3
Standard
100
AcDbOrdinateDimension
 13
-354.3503072948521
 23
-114.2212799076447
 33
0.0
 14
-348.3405770285005
 24
-114.2212799076447
 34
0.0
1001
ACAD
1000
DSTYLE
1002
{
1070
    43
1040
2.125
1070
    44
1040
1.0
1070
   140
1040
0.9999999999999998
1070
   141
1040
0.5
1002
}
  0
DIMENSION
  5
7B0
330
1F
100
AcDbEntity
  8
DIM
100
AcDbDimension
280
     0
  2
*D15
 10
-364.6280572948522
 20
-143.108779907645
 30
0.0
 11
-369.138694139075
 21
-109.3297799076448
 31
0.0
 70
    38
  1
33.780
 71
     5
 42
33.77900000000022
 73
     0
 74
     0
 75
     0
  3
Standard
100
AcDbOrdinateDimension
 13
-364.0313072948521
 23
-109.3297799076448
 33
0.0
 14
-366.6320274724084
 24
-109.3297799076448
 34
0.0
1001
ACAD
1000
DSTYLE
1002
{
1070
    43
1040
2.125
1070
    44
1040
1.0
1070
   140
1040
0.9999999999999998
1070
   141
1040
0.5
1002
}
  0
DIMENSION
  5
7B1
330
1F
100
AcDbEntity
  8
DIM
100
AcDbDimension
280
     0
  2
*D16
 10
-364.6280572948522
 20
-143.108779907645
 30
0.0
 11
-370.638694139075
 21
-111.1387799076448
 31
0.0
 70
    38
  1
(2) <>
 71
     5
 42
31.97000000000019
 73
     0
 74
     0
 75
     0
  3
Standard
100
AcDbOrdinateDimension
 13
-364.244057294852
 23
-111.1387799076448
 33
0.0
 14
-366.6320274724084
 24
-111.1387799076448
 34
0.0
1001
ACAD
1000
DSTYLE
1002
{
1070
    43
1040
2.125
1070
    44
1040
1.0
1070
   140
1040
0.9999999999999998
1070
   141
1040
0.5
1002
}
  0
DIMENSION
  5
7B2
330
1F
100
AcDbEntity
  8
DIM
100
AcDbDimension
280
     0
  2
*D17
 10
-364.6280572948522
 20
-143.108779907645
 30
0.0
 11
-371.0513906281855
 21
-116.5797799076448
 31
0.0
 70
    38
  1
25.030
 71
     5
 42
25.02900000000022
 73
     0
 74
     0
 75
     0
  3
Standard
100
AcDbOrdinateDimension
 13
-364.0313072948521
 23
-118.0797799076448
 33
0.0
 14
-368.6280572948522
 24
-116.5797799076448
 34
0.0
1001
ACAD
1000
DSTYLE
1002
{
1070
    43
1040
2.125
1070
    44
1040
1.0
1070
   140
1040
0.9999999999999998
1070
   141
1040
0.5
1002
}
  0
DIMENSION
  5
7B4
330
1F
100
AcDbEntity
  8
DIM
100
AcDbDimension
280
     0
  2
*D18
 10
-364.6280572948522
 20
-143.108779907645
 30
0.0
 11
-371.4637599251898
 21
-122.6784526875083
 31
0.0
 70
   166
 71
     5
 42
22.79000000000019
 73
     0
 74
     0
 75
     0
  3
Standard
100
AcDbOrdinateDimension
 13
-358.4240572948522
 23
-120.3187799076448
 33
0.0
 14
-368.9570932585232
 24
-122.6784526875083
 34
0.0
1001
ACAD
1000
DSTYLE
1002
{
1070
    43
1040
2.125
1070
    44
1040
1.0
1070
   140
1040
0.9999999999999998
1070
   141
1040
0.5
1002
}
  0
DIMENSION
  5
7B5
330
1F
100
AcDbEntity
  8
DIM
100
AcDbDimension
280
     0
  2
*D19
 10
-364.6280572948522
 20
-143.108779907645
 30
0.0
 11
-371.3780572948522
 21
-124.5557835144411
 31
0.0
 70
   166
 71
     5
 42
21.28999999999996
 73
     0
 74
     0
 75
     0
  3
Standard
100
AcDbOrdinateDimension
 13
-358.4240572948522
 23
-121.8187799076451
 33
0.0
 14
-369.0380572948522
 24
-124.5557835144411
 34
0.0
1001
ACAD
1000
DSTYLE
1002
{
1070
    43
1040
2.125
1070
    44
1040
1.0
1070
   140
1040
0.9999999999999998
1070
   141
1040
0.5
1002
}
  0
DIMENSION
  5
7B6
330
1F
100
AcDbEntity
  8
DIM
100
AcDbDimension
280
     0
  2
*D20
 10
-364.6280572948522
 20
-143.108779907645
 30
0.0
 11
-373.3630773029134
 21
-126.7359096742084
 31
0.0
 70
    38
  1
(2) <>
 71
     5
 42
18.97000000000018
 73
     0
 74
     0
 75
     0
  3
Standard
100
AcDbOrdinateDimension
 13
-362.244057294852
 23
-124.1387799076448
 33
0.0
 14
-369.3564106362468
 24
-126.7359096742084
 34
0.0
1001
ACAD
1000
DSTYLE
1002
{
1070
    43
1040
2.125
1070
    44
1040
1.0
1070
   140
1040
0.9999999999999998
1070
   141
1040
0.5
1002
}
  0
DIMENSION
  5
7B7
330
1F
100
AcDbEntity
  8
DIM
100
AcDbDimension
280
     0
  2
*D21
 10
-364.6280572948522
 20
-143.108779907645
 30
0.0
 11
-372.0891745651292
 21
-137.1387799076448
 31
0.0
 70
    38
  1
(2) <>
 71
     5
 42
5.970000000000169
 73
     0
 74
     0
 75
     0
  3
Standard
100
AcDbOrdinateDimension
 13
-362.244057294852
 23
-137.1387799076448
 33
0.0
 14
-368.4158412317959
 24
-137.1387799076448
 34
0.0
1001
ACAD
1000
DSTYLE
1002
{
1070
    43
1040
2.125
1070
    44
1040
1.0
1070
   140
1040
0.9999999999999998
1070
   141
1040
0.5
1002
}
  0
DIMENSION
  5
7B8
330
1F
100
AcDbEntity
  8
DIM
100
AcDbDimension
280
     0
  2
*D22
 10
-364.6280572948522
 20
-143.108779907645
 30
0.0
 11
-353.2453834757935
 21
-147.362355798438
 31
0.0
 70
   102
 71
     5
 42
11.0689999999999
 73
     0
 74
     0
 75
     0
  3
Standard
100
AcDbOrdinateDimension
 13
-353.5590572948521
 23
-118.568779907645
 33
0.0
 14
-353.2453834757936
 24
-145.1890224651046
 34
0.0
  0
DIMENSION
  5
7B9
330
1F
100
AcDbEntity
  8
DIMENSION
100
AcDbDimension
280
     0
  2
*D23
 10
-364.6280572948522
 20
-143.108779907645
 30
0.0
 11
-364.6280572948522
 21
-149.0027179027867
 31
0.0
 70
   230
 71
     5
 42
0.0
 73
     0
 74
     0
 75
     0
  3
Standard
100
AcDbOrdinateDimension
 13
-364.6280572948522
 23
-143.108779907645
 33
0.0
 14
-364.6280572948522
 24
-147.24605123612
 34
0.0
  0
LINE
  5
7BA
330
1F
100
AcDbEntity
  8
TEMPLATE
  6
HIDDEN
100
AcDbLine
 10
-352.358057294852
 20
-139.078779907645
 30
0.0
 11
-352.358057294852
 21
-143.108779907645
 31
0.0
  0
LINE
  5
7BB
330
1F
100
AcDbEntity
  8
TEMPLATE
  6
HIDDEN
100
AcDbLine
 10
-364.6280572948522
 20
-139.078779907645
 30
0.0
 11
-364.6280572948522
 21
-143.108779907645
 31
0.0
  0
LINE
  5
7BC
330
1F
100
AcDbEntity
  8
TEMPLATE
  6
HIDDEN
100
AcDbLine
 10
-352.358057294852
 20
-143.108779907645
 30
0.0
 11
-364.6280572948522
 21
-143.108779907645
 31
0.0
  0
DIMENSION
  5
7C1
330
1F
100
AcDbEntity
  8
DIM
100
AcDbDimension
280
     0
  2
*D24
 10
-364.6280560043266
 20
-139.0787379124275
 30
0.0
 11
-364.0313072948521
 21
-102.5702763526494
 31
0.0
 70
   102
 71
     5
 42
0.5967487094744115
 73
     0
 74
     0
 75
     0
  3
Standard
100
AcDbOrdinateDimension
 13
-364.0313072948521
 23
-109.3297799076448
 33
0.0
 14
-364.0313072948521
 24
-104.9869430193161
 34
0.0
1001
ACAD
1000
DSTYLE
1002
{
1070
    41
1040
1.0
1070
    42
1040
0.375
1070
    43
1040
2.125
1070
    44
1040
1.0
1070
   140
1040
0.9999999999999998
1070
   141
1040
0.5
1070
   147
1040
0.5
1070
   271
1070
     3
1070
   272
1070
     3
1070
   288
1070
     1
1002
}
  0
DIMENSION
  5
7C2
330
1F
100
AcDbEntity
  8
DIM
100
AcDbDimension
280
     0
  2
*D25
 10
-364.6280560043266
 20
-139.0787379124275
 30
0.0
 11
-357.9688072948521
 21
-102.4869430193161
 31
0.0
 70
   102
 71
     5
 42
6.65924870947441
 73
     0
 74
     0
 75
     0
  3
Standard
100
AcDbOrdinateDimension
 13
-357.9688072948521
 23
-109.3297799076446
 33
0.0
 14
-357.9688072948521
 24
-104.9869430193161
 34
0.0
1001
ACAD
1000
DSTYLE
1002
{
1070
    41
1040
1.0
1070
    42
1040
0.375
1070
    43
1040
2.125
1070
    44
1040
1.0
1070
   140
1040
0.9999999999999998
1070
   141
1040
0.5
1070
   147
1040
0.5
1070
   271
1070
     3
1070
   272
1070
     3
1070
   288
1070
     1
1002
}
  0
DIMENSION
  5
7C3
330
1F
100
AcDbEntity
  8
DIM
100
AcDbDimension
280
     0
  2
*D26
 10
-364.6280560043266
 20
-139.0787379124275
 30
0.0
 11
-356.4182116738069
 21
-102.5702763526494
 31
0.0
 70
   102
 71
     5
 42
7.440248709474474
 73
     0
 74
     0
 75
     0
  3
Standard
100
AcDbOrdinateDimension
 13
-357.1878072948521
 23
-109.7712799076449
 33
0.0
 14
-356.4182116738069
 24
-104.9869430193161
 34
0.0
1001
ACAD
1000
DSTYLE
1002
{
1070
    41
1040
1.0
1070
    42
1040
0.375
1070
    43
1040
2.125
1070
    44
1040
1.0
1070
   140
1040
0.9999999999999998
1070
   141
1040
0.5
1070
   147
1040
0.5
1070
   271
1070
     3
1070
   272
1070
     3
1070
   288
1070
     1
1002
}
  0
DIMENSION
  5
7C4
330
1F
100
AcDbEntity
  8
DIM
100
AcDbDimension
280
     0
  2
*D27
 10
-364.6280560043266
 20
-139.0787379124275
 30
0.0
 11
-365.5197716614317
 21
-102.6027470280078
 31
0.0
 70
   102
 71
     5
 42
0.383998709474497
 73
     0
 74
     0
 75
     0
  3
Standard
100
AcDbOrdinateDimension
 13
-364.244057294852
 23
-111.1387799076448
 33
0.0
 14
-365.5197716614317
 24
-105.0194136946744
 34
0.0
1001
ACAD
1000
DSTYLE
1002
{
1070
    41
1040
1.0
1070
    42
1040
0.375
1070
    43
1040
2.125
1070
    44
1040
1.0
1070
   140
1040
0.9999999999999998
1070
   141
1040
0.5
1070
   147
1040
0.5
1070
   271
1070
     3
1070
   272
1070
     3
1070
   288
1070
     1
1002
}
  0
DIMENSION
  5
7C5
330
1F
100
AcDbEntity
  8
DIM
100
AcDbDimension
280
     0
  2
*D28
 10
-364.6280560043266
 20
-139.0787379124275
 30
0.0
 11
-354.3503072948537
 21
-102.2369430193161
 31
0.0
 70
   102
 71
     5
 42
10.27774870947286
 73
     0
 74
     0
 75
     0
  3
Standard
100
AcDbOrdinateDimension
 13
-354.3503072948537
 23
-109.7712799076449
 33
0.0
 14
-354.3503072948537
 24
-104.9869430193161
 34
0.0
1001
ACAD
1000
DSTYLE
1002
{
1070
    41
1040
1.0
1070
    42
1040
0.375
1070
    43
1040
2.125
1070
    44
1040
1.0
1070
   140
1040
0.9999999999999998
1070
   141
1040
0.5
1070
   147
1040
0.5
1070
   271
1070
     3
1070
   272
1070
     3
1070
   288
1070
     1
1002
}
  0
DIMENSION
  5
7C6
330
1F
100
AcDbEntity
  8
DIM
100
AcDbDimension
280
     0
  2
*D29
 10
-364.6280560043266
 20
-139.0787379124275
 30
0.0
 11
-352.744057294852
 21
-102.4014526511012
 31
0.0
 70
   102
 71
     5
 42
11.88399870947449
 73
     0
 74
     0
 75
     0
  3
Standard
100
AcDbOrdinateDimension
 13
-352.744057294852
 23
-111.1387799076448
 33
0.0
 14
-352.744057294852
 24
-105.0681193177678
 34
0.0
1001
ACAD
1000
DSTYLE
1002
{
1070
    41
1040
1.0
1070
    42
1040
0.375
1070
    43
1040
2.125
1070
    44
1040
1.0
1070
   140
1040
0.9999999999999998
1070
   141
1040
0.5
1070
   147
1040
0.5
1070
   271
1070
     3
1070
   272
1070
     3
1070
   288
1070
     1
1002
}
  0
CIRCLE
  5
7C7
330
1F
100
AcDbEntity
  8
TEMPLATE
100
AcDbCircle
 10
-364.244057294852
 20
-111.1387799076448
 30
0.0
 40
0.1875
  0
LINE
  5
7C8
330
1F
100
AcDbEntity
  8
TEMPLATE
100
AcDbLine
 10
-364.0313072948521
 20
-109.3297799076448
 30
0.0
 11
-357.9688072948521
 21
-109.3297799076448
 31
0.0
  0
CIRCLE
  5
7C9
330
1F
100
AcDbEntity
  8
TEMPLATE
100
AcDbCircle
 10
-352.744057294852
 20
-111.1387799076448
 30
0.0
 40
0.1875
  0
LINE
  5
7CA
330
1F
100
AcDbEntity
  8
TEMPLATE
100
AcDbLine
 10
-357.1878072948521
 20
-109.7712799076449
 30
0.0
 11
-354.3503072948522
 21
-109.7712799076449
 31
0.0
  0
LINE
  5
7CB
330
1F
100
AcDbEntity
  8
TEMPLATE
  6
HIDDEN
100
AcDbLine
 10
-364.6280572948522
 20
-108.9877799076445
 30
0.0
 11
-352.358057294852
 21
-108.9877799076445
 31
0.0
  0
CIRCLE
  5
7CC
330
1F
100
AcDbEntity
  8
TEMPLATE
100
AcDbCircle
 10
-363.4275572948518
 20
-118.568779907645
 30
0.0
 40
0.1875
  0
LINE
  5
7CD
330
1F
100
AcDbEntity
  8
TEMPLATE
100
AcDbLine
 10
-357.9688072948518
 20
-118.0797799076448
 30
0.0
 11
-364.0313072948521
 21
-118.0797799076448
 31
0.0
  0
CIRCLE
  5
7CE
330
1F
100
AcDbEntity
  8
TEMPLATE
100
AcDbCircle
 10
-358.4240572948522
 20
-120.3187799076448
 30
0.0
 40
0.625
  0
CIRCLE
  5
7CF
102
{ACAD_REACTORS
330
C4E
102
}
330
1F
100
AcDbEntity
  8
TEMPLATE
100
AcDbCircle
 10
-353.5590572948521
 20
-118.568779907645
 30
0.0
 40
0.1875
  0
LINE
  5
7D0
330
1F
100
AcDbEntity
  8
TEMPLATE
100
AcDbLine
 10
-354.3503072948521
 20
-114.2212799076447
 30
0.0
 11
-357.1878072948521
 21
-114.2212799076447
 31
0.0
  0
LINE
  5
7D1
330
1F
100
AcDbEntity
  8
TEMPLATE
100
AcDbLine
 10
-354.3503072948521
 20
-114.2212799076447
 30
0.0
 11
-354.3503072948522
 21
-109.7712799076449
 31
0.0
  0
LINE
  5
7D2
330
1F
100
AcDbEntity
  8
TEMPLATE
100
AcDbLine
 10
-357.1878072948521
 20
-109.7712799076449
 30
0.0
 11
-357.1878072948521
 21
-114.2212799076447
 31
0.0
  0
LINE
  5
7D3
330
1F
100
AcDbEntity
  8
TEMPLATE
100
AcDbLine
 10
-357.9688072948518
 20
-118.0797799076448
 30
0.0
 11
-357.9688072948521
 21
-109.3297799076448
 31
0.0
  0
LINE
  5
7D4
330
1F
100
AcDbEntity
  8
TEMPLATE
100
AcDbLine
 10
-364.0313072948521
 20
-109.3297799076448
 30
0.0
 11
-364.0313072948521
 21
-118.0797799076448
 31
0.0
  0
CIRCLE
  5
7D5
330
1F
100
AcDbEntity
  8
TEMPLATE
100
AcDbCircle
 10
-362.244057294852
 20
-124.1387799076448
 30
0.0
 40
0.1875
  0
CIRCLE
  5
7D6
330
1F
100
AcDbEntity
  8
TEMPLATE
100
AcDbCircle
 10
-354.744057294852
 20
-124.1387799076448
 30
0.0
 40
0.1875
  0
CIRCLE
  5
7D7
330
1F
100
AcDbEntity
  8
TEMPLATE
100
AcDbCircle
 10
-362.244057294852
 20
-137.1387799076448
 30
0.0
 40
0.1875
  0
CIRCLE
  5
7D8
330
1F
100
AcDbEntity
  8
TEMPLATE
100
AcDbCircle
 10
-354.744057294852
 20
-137.1387799076448
 30
0.0
 40
0.1875
  0
LINE
  5
7DE
330
1F
100
AcDbEntity
  8
TEMPLATE
  6
HIDDEN
100
AcDbLine
 10
-364.6280572948522
 20
-139.078779907645
 30
0.0
 11
-364.6280572948522
 21
-108.9877799076445
 31
0.0
  0
LINE
  5
7DF
330
1F
100
AcDbEntity
  8
TEMPLATE
  6
HIDDEN
100
AcDbLine
 10
-352.358057294852
 20
-139.078779907645
 30
0.0
 11
-352.358057294852
 21
-108.9877799076445
 31
0.0
  0
DIMENSION
  5
7E0
330
1F
100
AcDbEntity
  8
DIMENSION
100
AcDbDimension
280
     0
  2
*D1
 10
-364.6280501205671
 20
-143.1088032733104
 30
0.0
 11
-370.3847239615189
 21
-143.108779907645
 31
0.0
 70
    38
 71
     5
 42
0.0000233656654132
 73
     0
 74
     0
 75
     0
  3
Standard
100
AcDbOrdinateDimension
 13
-364.6280572948522
 23
-143.108779907645
 33
0.0
 14
-368.6280572948522
 24
-143.108779907645
 34
0.0
  0
LINE
  5
7E1
330
1F
100
AcDbEntity
  8
TEMPLATE
  6
HIDDEN
100
AcDbLine
 10
-364.6280572948522
 20
-139.453779907645
 30
0.0
 11
-364.6280572948522
 21
-140.0759547656183
 31
0.0
  0
LINE
  5
7E2
330
1F
100
AcDbEntity
  8
DIM
100
AcDbLine
 10
-354.744057294852
 20
-137.5137799076448
 30
0.0
 11
-354.744057294852
 21
-140.0759547656183
 31
0.0
  0
LINE
  5
7E3
330
1F
100
AcDbEntity
  8
TEMPLATE
  6
HIDDEN
100
AcDbLine
 10
-352.358057294852
 20
-139.453779907645
 30
0.0
 11
-352.358057294852
 21
-140.0759547656183
 31
0.0
  0
LINE
  5
7E4
330
1F
100
AcDbEntity
  8
DIM
100
AcDbLine
 10
-354.7430572948521
 20
-142.0759547656183
 30
0.0
 11
-354.7430572948521
 21
-145.7249914794021
 31
0.0
  0
LINE
  5
7E5
330
1F
100
AcDbEntity
  8
DIM
100
AcDbLine
 10
-354.744057294852
 20
-140.0759547656183
 30
0.0
 11
-354.7430572948521
 21
-142.0759547656183
 31
0.0
  0
TEXT
  5
7E6
330
1F
100
AcDbEntity
  8
DIM
100
AcDbText
 10
-354.2430572948521
 20
-153.6734612236909
 30
0.0
 40
1.0
  1
(2) 9.884
 50
90.0
 72
     2
 11
-354.7430572948521
 21
-146.3401278903576
 31
0.0
100
AcDbText
 73
     2
  0
LEADER
  5
7E7
330
1F
100
AcDbEntity
  8
DIM
100
AcDbLeader
  3
Standard
 73
     0
 74
     0
 75
     1
 40
1.0
 41
8.333333333333332
 76
     4
 10
-354.2323050889894
 20
-124.2616467733013
 30
0.0
 10
-350.3580572948522
 20
-131.4695140386529
 30
0.0
 10
-349.3580572948522
 20
-133.2920857481932
 30
0.0
 10
-348.3580572948522
 20
-133.2920857481932
 30
0.0
340
7E8
213
0.0
223
-0.5
233
0.0
1001
ACAD
1000
DSTYLE
1002
{
1070
    77
1070
     0
1070
    41
1040
1.0
1070
    42
1040
0.375
1070
    43
1040
2.125
1070
    44
1040
1.0
1070
   140
1040
0.9999999999999998
1070
   141
1040
0.5
1070
   147
1040
0.5
1070
   271
1070
     3
1070
   272
1070
     3
1070
   288
1070
     1
1002
}
  0
MTEXT
  5
7E8
102
{ACAD_REACTORS
330
7E7
102
}
330
1F
100
AcDbEntity
  8
DIM
100
AcDbMText
 10
-347.8580572948522
 20
-132.7920857481932
 30
0.0
 40
0.9999999999999998
 41
0.0
 46
0.0
 71
     1
 72
     1
  1
\A1;%%C .375 (8)
 73
     1
 44
1.0
  0
LEADER
  5
7E9
330
1F
100
AcDbEntity
  8
DIM
100
AcDbLeader
  3
Standard
 73
     0
 40
6.0
 41
8.5
 76
     3
 10
-357.970608821635
 20
-119.7009804798932
 30
0.0
 10
-356.3580572948522
 20
-116.5022448431615
 30
0.0
 10
-348.1758016527544
 20
-116.1701853624283
 30
0.0
340
7EA
213
0.0
223
-0.5
233
0.0
1001
ACAD
1000
DSTYLE
1002
{
1070
    77
1070
     0
1070
    41
1040
1.0
1070
    42
1040
0.375
1070
    43
1040
2.125
1070
    44
1040
1.0
1070
   140
1040
0.9999999999999998
1070
   141
1040
0.5
1070
   147
1040
0.5
1070
   271
1070
     3
1070
   272
1070
     3
1070
   288
1070
     1
1002
}
  0
MTEXT
  5
7EA
102
{ACAD_REACTORS
330
7E9
102
}
330
1F
100
AcDbEntity
  8
DIMENSION
100
AcDbMText
 10
-347.6758016527544
 20
-115.6701853624283
 30
0.0
 40
0.9999999999999998
 41
0.0
 46
0.0
 71
     1
 72
     1
  1
%%C 1.250 (1)\PPOWER \PSUPPLY\PCORD
 73
     1
 44
1.0
  0
CIRCLE
  5
7EB
330
1F
100
AcDbEntity
  8
TEMPLATE
100
AcDbCircle
 10
-358.4240572948522
 20
-121.8187799076451
 30
0.0
 40
0.625
  0
DIMENSION
  5
7ED
330
1F
100
AcDbEntity
  8
DIMENSION
100
AcDbDimension
280
     0
  2
*D2
 10
-364.6280501205671
 20
-143.1088032733104
 30
0.0
 11
-370.3052221209719
 21
-141.8848504043221
 31
0.0
 70
    38
 71
     5
 42
0.7175233656651017
 73
     0
 74
     0
 75
     0
  3
Standard
100
AcDbOrdinateDimension
 13
-363.877557294852
 23
-142.3912799076453
 33
0.0
 14
-368.4652221209719
 24
-141.8848504043221
 34
0.0
  0
DIMENSION
  5
7EE
330
1F
100
AcDbEntity
  8
DIMENSION
100
AcDbDimension
280
     0
  2
*D3
 10
-364.6280501205671
 20
-143.1088032733104
 30
0.0
 11
-370.2135869216609
 21
-139.7779478223898
 31
0.0
 70
    38
 71
     5
 42
3.8425233656651
 73
     0
 74
     0
 75
     0
  3
Standard
100
AcDbOrdinateDimension
 13
-363.877557294852
 23
-139.2662799076453
 33
0.0
 14
-368.1235869216608
 24
-139.7779478223898
 34
0.0
  0
DIMENSION
  5
7EF
330
1F
100
AcDbEntity
  8
DIMENSION
100
AcDbDimension
280
     0
  2
*D4
 10
-364.6280501205671
 20
-143.1088032733104
 30
0.0
 11
-363.4972692595149
 21
-148.3234334504308
 31
0.0
 70
   102
 71
     5
 42
0.7504928257151278
 73
     0
 74
     0
 75
     0
  3
Standard
100
AcDbOrdinateDimension
 13
-363.877557294852
 23
-142.3912799076453
 33
0.0
 14
-363.4972692595149
 24
-146.4001001170974
 34
0.0
  0
DIMENSION
  5
7F0
330
1F
100
AcDbEntity
  8
DIMENSION
100
AcDbDimension
280
     0
  2
*D5
 10
-364.6280501205671
 20
-143.1088032733104
 30
0.0
 11
-360.867203449646
 21
-148.9591193070057
 31
0.0
 70
   230
 71
     5
 42
3.030492825715326
 73
     0
 74
     0
 75
     0
  3
Standard
100
AcDbOrdinateDimension
 13
-361.5975572948518
 23
-142.3912799076452
 33
0.0
 14
-360.8672034496461
 24
-147.0357859736723
 34
0.0
  0
DIMENSION
  5
7F1
330
1F
100
AcDbEntity
  8
DIMENSION
100
AcDbDimension
280
     0
  2
*D6
 10
-364.6280501205671
 20
-143.1088032733104
 30
0.0
 11
-363.4202923782489
 21
-128.1672083180353
 31
0.0
 70
   102
 71
     5
 42
1.200492825715115
 73
     0
 74
     0
 75
     0
  3
Standard
100
AcDbOrdinateDimension
 13
-363.4275572948518
 23
-118.568779907645
 33
0.0
 14
-363.4202923782489
 24
-126.4105416513686
 34
0.0
  0
DIMENSION
  5
7F2
330
1F
100
AcDbEntity
  8
DIMENSION
100
AcDbDimension
280
     0
  2
*D7
 10
-364.6280501205671
 20
-143.1088032733104
 30
0.0
 11
-362.2440572948519
 21
-149.9976558897923
 31
0.0
 70
   102
  1
(2) <>
 71
     5
 42
2.383992825715097
 73
     0
 74
     0
 75
     0
  3
Standard
100
AcDbOrdinateDimension
 13
-362.244057294852
 23
-137.1387799076448
 33
0.0
 14
-362.244057294852
 24
-146.2409892231256
 34
0.0
  0
DIMENSION
  5
7F3
330
1F
100
AcDbEntity
  8
DIMENSION
100
AcDbDimension
280
     0
  2
*D8
 10
-364.6280501205671
 20
-143.1088032733104
 30
0.0
 11
-351.1510864828836
 21
-102.9566571435878
 31
0.0
 70
   102
 71
     5
 42
12.26999282571506
 73
     0
 74
     0
 75
     0
  3
Standard
100
AcDbOrdinateDimension
 13
-352.358057294852
 23
-108.9877799076445
 33
0.0
 14
-351.1510864828836
 24
-105.2966571435878
 34
0.0
  0
DIMENSION
  5
7F4
330
1F
100
AcDbEntity
  8
DIMENSION
100
AcDbDimension
280
     0
  2
*D9
 10
-358.6929726366459
 20
-121.2545906318271
 30
0.0
 11
-344.146595871863
 21
-141.443910692684
 31
0.0
 70
   163
  1
<> (1) \POPTIONAL:\PEXTERNAL \PHEAT\POUTPUT
 71
     5
 42
1.249999999999971
 73
     0
 74
     0
 75
     0
  3
Standard
100
AcDbDiametricDimension
 15
-358.155141953058
 25
-122.3829691834628
 35
0.0
 40
0.0
  0
CIRCLE
  5
7F5
330
1F
100
AcDbEntity
  8
TEMPLATE
100
AcDbCircle
 10
-360.9240572948522
 20
-119.568779907645
 30
0.0
 40
0.625
  0
LINE
  5
B37
330
1F
100
AcDbEntity
  8
DIMENSION
100
AcDbLine
 10
-366.5934525048472
 20
-131.9958228319929
 30
0.0
 11
-362.9800258092793
 21
-131.995822831993
 31
0.0
  0
LINE
  5
B38
330
1F
100
AcDbEntity
  8
DIMENSION
100
AcDbLine
 10
-362.9800258092793
 20
-131.995822831993
 30
0.0
 11
-361.1892968472795
 21
-121.1719869996416
 31
0.0
  0
MTEXT
  5
B39
102
{ACAD_XDICTIONARY
360
D09
102
}
330
1F
100
AcDbEntity
  8
DIMENSION
100
AcDbMText
 10
-374.9488321352675
 20
-128.1052984336261
 30
0.0
 40
1.0
 41
0.0
 46
0.0
 71
     1
 72
     1
  1
\A1;∅1.250 (1)\POPTIONAL:\PETHERNET\PCONNECTION \PPORT
 73
     1
 44
1.0
  0
SOLID
  5
B3A
330
1F
100
AcDbEntity
  8
DIMENSION
100
AcDbTrace
 10
-361.3537283438946
 20
-121.1447829429823
 30
0.0
 11
-361.0248653506645
 21
-121.1991910563008
 31
0.0
 12
-361.0260725073242
 22
-120.1853980199514
 32
0.0
 13
-361.0260725073242
 23
-120.1853980199514
 33
0.0
  0
LINE
  5
B3B
330
1F
100
AcDbEntity
  8
DIMENSION
100
AcDbLine
 10
-361.014057294852
 20
-119.568779907645
 30
0.0
 11
-360.834057294852
 21
-119.568779907645
 31
0.0
  0
LINE
  5
B3C
330
1F
100
AcDbEntity
  8
DIMENSION
100
AcDbLine
 10
-360.924057294852
 20
-119.658779907645
 30
0.0
 11
-360.924057294852
 21
-119.478779907645
 31
0.0
  0
TEXT
  5
B47
330
1F
100
AcDbEntity
  8
TEXT
100
AcDbText
 10
-367.5777781479467
 20
-153.6582799076447
 30
0.0
 40
0.25
  1
JJH
 72
     1
 11
-367.2444448146134
 21
-153.5332799076447
 31
0.0
100
AcDbText
 73
     2
  0
TEXT
  5
B48
330
1F
100
AcDbEntity
  8
TEXT
100
AcDbText
 10
-370.2171964375758
 20
-153.6582799076447
 30
0.0
 40
0.25
  1
6-7-11
 72
     1
 11
-369.5921964375758
 21
-153.5332799076447
 31
0.0
100
AcDbText
 73
     2
  0
TEXT
  5
B49
330
1F
100
AcDbEntity
  8
TEXT
100
AcDbText
 10
-380.9619881042423
 20
-153.6582799076447
 30
0.0
 40
0.25
  1
ADDED FUSE BLOCK CUTOUT, %%C1.250 WAS %%C 0.750
 72
     1
 11
-375.9203214375756
 21
-153.5332799076447
 31
0.0
100
AcDbText
 73
     2
  0
TEXT
  5
B4A
330
1F
100
AcDbEntity
  8
TEXT
100
AcDbText
 10
-381.7369881042425
 20
-153.6582799076447
 30
0.0
 40
0.25
  1
1
 72
     1
 11
-381.6953214375758
 21
-153.5332799076447
 31
0.0
100
AcDbText
 73
     2
  0
LINE
  5
B4B
330
1F
100
AcDbEntity
  8
BORDER
100
AcDbLine
 10
-365.9966931916512
 20
-153.2832799076446
 30
0.0
 11
-382.2421964375759
 21
-153.2832799076446
 31
0.0
  0
TEXT
  5
BE6
330
1F
100
AcDbEntity
  8
0
100
AcDbText
 10
-362.5419306051709
 20
-95.59654483400384
 30
0.0
 40
1.0
  1
IQ6000VS
 72
     1
 11
-358.9585972718376
 21
-95.59654483400384
 31
0.0
100
AcDbText
  0
TEXT
  5
BE7
330
1F
100
AcDbEntity
  8
0
100
AcDbText
 10
-362.6252639385043
 20
-93.92987816733722
 30
0.0
 40
1.0
  1
IQ5500VS
 72
     1
 11
-358.9585972718376
 21
-93.92987816733722
 31
0.0
100
AcDbText
  0
TEXT
  5
BE8
330
1F
100
AcDbEntity
  8
0
100
AcDbText
 10
-362.5419306051709
 20
-92.27110996371207
 30
0.0
 40
1.0
  1
IQ4000VS
 72
     1
 11
-358.9585972718376
 21
-92.27110996371207
 31
0.0
100
AcDbText
  0
TEXT
  5
BE9
330
1F
100
AcDbEntity
  8
0
100
AcDbText
 10
-362.5616414960187
 20
-90.74022287080911
 30
0.0
 40
1.0
  1
IQ3000VS
 72
     1
 11
-358.9783081626854
 21
-90.74022287080911
 31
0.0
100
AcDbText
  0
TEXT
  5
BEA
330
1F
100
AcDbEntity
  8
0
100
AcDbText
 10
-362.619194475817
 20
-89.37465579679459
 30
0.0
 40
1.0
  1
IQ2200VS
 72
     1
 11
-358.9525278091503
 21
-89.37465579679459
 31
0.0
100
AcDbText
  0
DIMENSION
  5
C3F
102
{ACAD_XDICTIONARY
360
C48
102
}
102
{ACAD_REACTORS
330
C4E
102
}
330
1F
100
AcDbEntity
  8
DIMENSION
100
AcDbDimension
280
     0
  2
*D30
 10
-364.6280501205671
 20
-143.1088032733104
 30
0.0
 11
-342.6042201851403
 21
-126.0900603570692
 31
0.0
 70
   166
  1
<> (2) OMIT\P FOR IQ2200VS\PAND IQ3000VS
 71
     5
 42
24.54002336566541
 73
     0
 74
     0
 75
     0
  3
Standard
100
AcDbOrdinateDimension
 13
-353.5590572948521
 23
-118.568779907645
 33
0.0
 14
-349.110886851807
 24
-126.0900603570692
 34
0.0
  0
LINE
  5
CB5
330
1F
100
AcDbEntity
  8
BORDER
100
AcDbLine
 10
-365.9966930826838
 20
-153.2832799399179
 30
0.0
 11
-382.2421963286085
 21
-153.2832799399179
 31
0.0
  0
TEXT
  5
CE2
330
1F
100
AcDbEntity
  8
TEXT
100
AcDbText
 10
-367.5777777120773
 20
-153.0749466091743
 30
0.0
 40
0.25
  1
RCC
 72
     1
 11
-367.2444443787439
 21
-152.9499466091743
 31
0.0
100
AcDbText
 73
     2
  0
TEXT
  5
CE3
330
1F
100
AcDbEntity
  8
TEXT
100
AcDbText
 10
-370.321362668373
 20
-153.0749466091743
 30
0.0
 40
0.25
  1
10-5-16
 72
     1
 11
-369.5921960017064
 21
-152.9499466091743
 31
0.0
100
AcDbText
 73
     2
  0
TEXT
  5
CE4
330
1F
100
AcDbEntity
  8
TEXT
100
AcDbText
 10
-380.9828210017061
 20
-153.0749466091743
 30
0.0
 40
0.25
  1
ADDED IQ2200VS, IQ3000VS, IQ5500VS, IQ6000VS
 72
     1
 11
-375.9203210017062
 21
-152.9499466091743
 31
0.0
100
AcDbText
 73
     2
  0
LINE
  5
CE5
330
1F
100
AcDbEntity
  8
BORDER
100
AcDbLine
 10
-365.9966927557817
 20
-152.6999466091742
 30
0.0
 11
-382.2421960017065
 21
-152.6999466091742
 31
0.0
  0
LINE
  5
CE6
330
1F
100
AcDbEntity
  8
BORDER
100
AcDbLine
 10
-365.9966931223389
 20
-153.2832798695419
 30
0.0
 11
-382.2421963682637
 21
-153.2832798695419
 31
0.0
  0
TEXT
  5
CEC
330
1F
100
AcDbEntity
  8
TEXT
100
AcDbText
 10
-381.7767282856056
 20
-153.0978713937592
 30
0.0
 40
0.25
  1
2
 72
     1
 11
-381.6933949522723
 21
-152.9728713937593
 31
0.0
100
AcDbText
 73
     2
  0
DIMENSION
  5
D83
330
1F
100
AcDbEntity
  8
0
100
AcDbDimension
280
     0
  2
*D31
 10
-364.6280501205671
 20
-143.1088032733104
 30
0.0
 11
-356.6643673716929
 21
-148.1874204048065
 31
0.0
 70
   102
  1
(2) <>
 71
     5
 42
6.203992825715147
 73
     0
 74
     0
 75
     0
  3
Standard
100
AcDbOrdinateDimension
 13
-358.4240572948519
 23
-121.8187799076449
 33
0.0
 14
-356.6643673716929
 24
-144.5140870714731
 34
0.0
  0
LEADER
  5
E34
330
1F
100
AcDbEntity
  8
0
100
AcDbLeader
  3
Standard
 76
     3
 10
-363.877557294852
 20
-142.3912799076453
 30
0.0
 10
-367.5235912398357
 20
-146.5576571796845
 30
0.0
 10
-369.5006444349477
 20
-146.5576571796845
 30
0.0
1001
ACAD
1000
DSTYLE
1002
{
1070
   147
1040
0.09
1070
    77
1070
     0
1002
}
  0
MTEXT
  5
E35
330
1F
100
AcDbEntity
  8
DIMENSION
100
AcDbMText
 10
-381.2087707006557
 20
-143.5392389750518
 30
0.0
 40
1.0
 41
11.89296617161216
 46
0.0
 71
     1
 72
     1
  1
OMIT FUSE BLOCK COVER FOR IQ5500VS AND IQ6000VS
 73
     1
 44
1.0
1001
ACAD
1000
ACAD_MTEXT_COLUMN_INFO_BEGIN
1070
    75
1070
     2
1070
    79
1070
     0
1070
    76
1070
     1
1070
    78
1070
     0
1070
    48
1040
11.89296617161216
1070
    49
1040
1.0
1070
    50
1070
     1
1040
0.0
1000
ACAD_MTEXT_COLUMN_INFO_END
  0
ENDSEC
  0
SECTION
  2
OBJECTS
  0
DICTIONARY
  5
C
330
0
100
AcDbDictionary
281
     1
  3
ACAD_CIP_PREVIOUS_PRODUCT_INFO
350
BC3
  3
ACAD_COLOR
350
73
  3
ACAD_DETAILVIEWSTYLE
350
BC0
  3
ACAD_GROUP
350
D
  3
ACAD_LAYOUT
350
1A
  3
ACAD_MATERIAL
350
72
  3
ACAD_MLEADERSTYLE
350
BBC
  3
ACAD_MLINESTYLE
350
17
  3
ACAD_PLOTSETTINGS
350
19
  3
ACAD_PLOTSTYLENAME
350
E
  3
ACAD_SCALELIST
350
BAA
  3
ACAD_SECTIONVIEWSTYLE
350
BBE
  3
ACAD_TABLESTYLE
350
BA8
  3
ACAD_VISUALSTYLE
350
B8F
  3
ACDB_RECOMPOSE_DATA
350
F00
  3
AcDbVariableDictionary
350
66
  0
DICTIONARY
  5
D00
330
8
100
AcDbDictionary
280
     1
281
     1
  0
DICTIONARY
  5
163
330
2
100
AcDbDictionary
280
     1
281
     1
  3
ACAD_LAYERSTATES
360
164
  0
DICTIONARY
  5
CED
330
10
100
AcDbDictionary
280
     1
281
     1
  3
ADSK_XREC_LAYER_RECONCILED
360
CEE
  0
DICTIONARY
  5
CEF
330
15D
100
AcDbDictionary
280
     1
281
     1
  3
ADSK_XREC_LAYER_RECONCILED
360
CF0
  0
DICTIONARY
  5
CF1
330
15E
100
AcDbDictionary
280
     1
281
     1
  3
ADSK_XREC_LAYER_RECONCILED
360
CF2
  0
DICTIONARY
  5
CF3
330
15F
100
AcDbDictionary
280
     1
281
     1
  3
ADSK_XREC_LAYER_RECONCILED
360
CF4
  0
DICTIONARY
  5
CF5
330
160
100
AcDbDictionary
280
     1
281
     1
  3
ADSK_XREC_LAYER_RECONCILED
360
CF6
  0
DICTIONARY
  5
CF7
330
161
100
AcDbDictionary
280
     1
281
     1
  3
ADSK_XREC_LAYER_RECONCILED
360
CF8
  0
DICTIONARY
  5
CF9
330
162
100
AcDbDictionary
280
     1
281
     1
  3
ADSK_XREC_LAYER_RECONCILED
360
CFA
  0
DICTIONARY
  5
CFB
330
750
100
AcDbDictionary
280
     1
281
     1
  3
ADSK_XREC_LAYER_RECONCILED
360
CFC
  0
DICTIONARY
  5
D44
330
C1D
100
AcDbDictionary
280
     1
281
     1
  0
DICTIONARY
  5
D09
330
B39
100
AcDbDictionary
280
     1
281
     1
  0
DICTIONARY
  5
C48
330
C3F
100
AcDbDictionary
280
     1
281
     1
  3
ACAD_DIMASSOC
360
C4E
  0
XRECORD
  5
BC3
102
{ACAD_REACTORS
330
C
102
}
330
C
100
AcDbXrecord
280
     1
300
AMECH_PP
300
2014
300
PDSP_F_S
  0
DICTIONARY
  5
73
102
{ACAD_REACTORS
330
C
102
}
330
C
100
AcDbDictionary
281
     1
  0
DICTIONARY
  5
BC0
102
{ACAD_REACTORS
330
C
102
}
330
C
100
AcDbDictionary
281
     1
  3
Imperial24
350
BC1
  0
DICTIONARY
  5
D
102
{ACAD_REACTORS
330
C
102
}
330
C
100
AcDbDictionary
281
     1
  0
DICTIONARY
  5
1A
102
{ACAD_REACTORS
330
C
102
}
330
C
100
AcDbDictionary
281
     1
  3
Layout1
350
59
  3
Layout2
350
5E
  3
Model
350
22
  0
DICTIONARY
  5
72
102
{ACAD_REACTORS
330
C
102
}
330
C
100
AcDbDictionary
281
     1
  3
ByBlock
350
B7F
  3
ByLayer
350
B77
  3
Global
350
B87
  0
DICTIONARY
  5
BBC
102
{ACAD_REACTORS
330
C
102
}
330
C
100
AcDbDictionary
281
     1
  3
Standard
350
BBD
  0
DICTIONARY
  5
17
102
{ACAD_REACTORS
330
C
102
}
330
C
100
AcDbDictionary
281
     1
  3
Standard
350
18
  0
DICTIONARY
  5
19
102
{ACAD_REACTORS
330
C
102
}
330
C
100
AcDbDictionary
281
     1
  0
ACDBDICTIONARYWDFLT
  5
E
102
{ACAD_REACTORS
330
C
102
}
330
C
100
AcDbDictionary
281
     1
  3
Normal
350
F
100
AcDbDictionaryWithDefault
340
F
  0
DICTIONARY
  5
BAA
102
{ACAD_REACTORS
330
C
102
}
330
C
100
AcDbDictionary
281
     1
  3
A0
350
BAB
  3
A1
350
BAC
  3
A2
350
BAD
  3
A3
350
BAE
  3
A4
350
BAF
  3
A5
350
BB0
  3
A6
350
BB1
  3
A7
350
BB2
  3
A8
350
BB3
  3
A9
350
BB4
  3
B0
350
BB5
  3
B1
350
BB6
  3
B2
350
BB7
  3
B3
350
BB8
  3
B4
350
BB9
  3
B5
350
BBA
  3
B6
350
BBB
  0
DICTIONARY
  5
BBE
102
{ACAD_REACTORS
330
C
102
}
330
C
100
AcDbDictionary
281
     1
  3
Imperial24
350
BBF
  0
DICTIONARY
  5
BA8
102
{ACAD_REACTORS
330
C
102
}
330
C
100
AcDbDictionary
281
     1
  3
Standard
350
BA9
  0
DICTIONARY
  5
B8F
102
{ACAD_REACTORS
330
C
102
}
330
C
100
AcDbDictionary
281
     1
  3
2dWireframe
350
B95
  3
Basic
350
B94
  3
Brighten
350
B9B
  3
ColorChange
350
B9F
  3
Conceptual
350
B98
  3
Dim
350
B9A
  3
EdgeColorOff
350
BA7
  3
Facepattern
350
B9E
  3
Flat
350
B90
  3
FlatWithEdges
350
B91
  3
Gouraud
350
B92
  3
GouraudWithEdges
350
B93
  3
Hidden
350
B97
  3
JitterOff
350
BA5
  3
Linepattern
350
B9D
  3
OverhangOff
350
BA6
  3
Realistic
350
B99
  3
Shaded
350
BA4
  3
Shaded with edges
350
BA3
  3
Shades of Gray
350
BA0
  3
Sketchy
350
BA1
  3
Thicken
350
B9C
  3
Wireframe
350
B96
  3
X-Ray
350
BA2
  0
XRECORD
  5
F00
102
{ACAD_REACTORS
330
C
102
}
330
C
100
AcDbXrecord
280
     1
 90
        1
330
BA9
330
E35
  0
DICTIONARY
  5
66
102
{ACAD_REACTORS
330
C
102
}
330
C
100
AcDbDictionary
281
     1
  3
CANNOSCALE
350
D4A
  3
CMLEADERSTYLE
350
D47
  3
CTABLESTYLE
350
D46
  3
CVIEWDETAILSTYLE
350
D48
  3
CVIEWSECTIONSTYLE
350
D49
  3
DIMASSOC
350
67
  3
HIDETEXT
350
6B
  3
LAYEREVAL
350
EFD
  3
LAYERNOTIFY
350
EFE
  3
LIGHTINGUNITS
350
EFC
  3
MSLTSCALE
350
EFB
  3
PROJECTNAME
350
61A
  0
DICTIONARY
  5
164
102
{ACAD_REACTORS
330
163
102
}
330
163
100
AcDbDictionary
281
     1
  0
XRECORD
  5
CEE
102
{ACAD_REACTORS
330
CED
102
}
330
CED
100
AcDbXrecord
280
     1
290
     1
  0
XRECORD
  5
CF0
102
{ACAD_REACTORS
330
CEF
102
}
330
CEF
100
AcDbXrecord
280
     1
290
     1
  0
XRECORD
  5
CF2
102
{ACAD_REACTORS
330
CF1
102
}
330
CF1
100
AcDbXrecord
280
     1
290
     1
  0
XRECORD
  5
CF4
102
{ACAD_REACTORS
330
CF3
102
}
330
CF3
100
AcDbXrecord
280
     1
290
     1
  0
XRECORD
  5
CF6
102
{ACAD_REACTORS
330
CF5
102
}
330
CF5
100
AcDbXrecord
280
     1
290
     1
  0
XRECORD
  5
CF8
102
{ACAD_REACTORS
330
CF7
102
}
330
CF7
100
AcDbXrecord
280
     1
290
     1
  0
XRECORD
  5
CFA
102
{ACAD_REACTORS
330
CF9
102
}
330
CF9
100
AcDbXrecord
280
     1
290
     1
  0
XRECORD
  5
CFC
102
{ACAD_REACTORS
330
CFB
102
}
330
CFB
100
AcDbXrecord
280
     1
290
     1
  0
DIMASSOC
  5
C4E
102
{ACAD_REACTORS
330
C48
102
}
330
C48
100
AcDbDimAssoc
330
C3F
 90
        2
 70
     0
 71
     0
  1
AcDbOsnapPointRef
 72
     3
331
7CF
 73
     2
 91
        0
 40
0.0
 10
0.0
 20
0.0
 30
0.0
 75
     0
  0
ACDBDETAILVIEWSTYLE
  5
BC1
102
{ACAD_XDICTIONARY
360
F34
102
}
102
{ACAD_REACTORS
330
BC0
102
}
330
BC0
100
AcDbModelDocViewStyle
 70
     0
  3
Imperial24
290
     0
100
AcDbDetailViewStyle
 70
     0
 71
     0
 90
        3
 71
     1
340
11
 62
   256
 40
0.24
340
0
 62
   256
 40
0.24
300

 40
0.36
280
     3
 71
     2
340
16
 90
       25
 62
   256
 71
     3
340
11
 62
   256
 40
0.24
 90
        1
 40
0.75
 90
        1
300
%<\AcVar ViewType \f "%tc1">% %<\AcVar ViewDetailId>%\PSCALE %<\AcVar ViewScale \f "%sn">%
 71
     4
340
16
 90
       25
 62
   256
340
16
 90
       25
 62
   256
280
     0
  0
LAYOUT
  5
59
102
{ACAD_REACTORS
330
1A
102
}
330
1A
100
AcDbPlotSettings
  1

  2
None
  4

  6

 40
0.0
 41
0.0
 42
0.0
 43
0.0
 44
0.0
 45
0.0
 46
0.0
 47
0.0
 48
0.0
 49
0.0
140
0.0
141
0.0
142
1.0
143
1.0
 70
   688
 72
     0
 73
     0
 74
     5
  7

 75
    16
147
1.0
 76
     0
 77
     2
 78
   300
148
0.0
149
0.0
100
AcDbLayout
  1
Layout1
 70
     1
 71
     1
 10
0.0
 20
0.0
 11
12.0
 21
9.0
 12
0.0
 22
0.0
 32
0.0
 14
0.0
 24
0.0
 34
0.0
 15
0.0
 25
0.0
 35
0.0
146
0.0
 13
0.0
 23
0.0
 33
0.0
 16
1.0
 26
0.0
 36
0.0
 17
0.0
 27
1.0
 37
0.0
 76
     0
330
58
  0
LAYOUT
  5
5E
102
{ACAD_REACTORS
330
1A
102
}
330
1A
100
AcDbPlotSettings
  1

  2
None
  4

  6

 40
0.0
 41
0.0
 42
0.0
 43
0.0
 44
0.0
 45
0.0
 46
0.0
 47
0.0
 48
0.0
 49
0.0
140
0.0
141
0.0
142
1.0
143
1.0
 70
   688
 72
     0
 73
     0
 74
     5
  7

 75
    16
147
1.0
 76
     0
 77
     2
 78
   300
148
0.0
149
0.0
100
AcDbLayout
  1
Layout2
 70
     1
 71
     2
 10
0.0
 20
0.0
 11
12.0
 21
9.0
 12
0.0
 22
0.0
 32
0.0
 14
0.0
 24
0.0
 34
0.0
 15
0.0
 25
0.0
 35
0.0
146
0.0
 13
0.0
 23
0.0
 33
0.0
 16
1.0
 26
0.0
 36
0.0
 17
0.0
 27
1.0
 37
0.0
 76
     0
330
5D
  0
LAYOUT
  5
22
102
{ACAD_XDICTIONARY
360
DC2
102
}
102
{ACAD_REACTORS
330
1A
102
}
330
1A
100
AcDbPlotSettings
  1

  2
none_device
  4
ANSI_A_(8.50_x_11.00_Inches)
  6

 40
6.349999904632567
 41
19.04999923706055
 42
6.350006103515625
 43
19.04998779296875
 44
215.8999938964844
 45
279.3999938964844
 46
0.0
 47
0.0
 48
0.0
 49
0.0
140
0.0
141
0.0
142
1.0
143
2.584895464708373
 70
 11952
 72
     0
 73
     1
 74
     0
  7

 75
     0
147
0.3868628397755418
 76
     0
 77
     2
 78
   300
148
0.0
149
0.0
100
AcDbLayout
  1
Model
 70
     1
 71
     0
 10
0.0
 20
0.0
 11
12.0
 21
9.0
 12
0.0
 22
0.0
 32
0.0
 14
0.0
 24
0.0
 34
0.0
 15
0.0
 25
0.0
 35
0.0
146
0.0
 13
0.0
 23
0.0
 33
0.0
 16
1.0
 26
0.0
 36
0.0
 17
0.0
 27
1.0
 37
0.0
 76
     0
330
1F
331
B6A
  0
MATERIAL
  5
B7F
102
{ACAD_XDICTIONARY
360
B80
102
}
102
{ACAD_REACTORS
330
72
102
}
330
72
100
AcDbMaterial
  1
ByBlock
 72
     0
 43
0.0208333333333333
 43
0.0
 43
0.0
 43
0.0
 43
0.0
 43
0.0208333333333333
 43
0.0
 43
0.0
 43
0.0
 43
0.0
 43
1.0
 43
0.0
 43
0.0
 43
0.0
 43
0.0
 43
1.0
 77
     0
 47
0.0208333333333333
 47
0.0
 47
0.0
 47
0.0
 47
0.0
 47
0.0208333333333333
 47
0.0
 47
0.0
 47
0.0
 47
0.0
 47
1.0
 47
0.0
 47
0.0
 47
0.0
 47
0.0
 47
1.0
171
     0
 49
0.0208333333333333
 49
0.0
 49
0.0
 49
0.0
 49
0.0
 49
0.0208333333333333
 49
0.0
 49
0.0
 49
0.0
 49
0.0
 49
1.0
 49
0.0
 49
0.0
 49
0.0
 49
0.0
 49
1.0
175
     0
142
0.0208333333333333
142
0.0
142
0.0
142
0.0
142
0.0
142
0.0208333333333333
142
0.0
142
0.0
142
0.0
142
0.0
142
1.0
142
0.0
142
0.0
142
0.0
142
0.0
142
1.0
179
     0
144
0.0208333333333333
144
0.0
144
0.0
144
0.0
144
0.0
144
0.0208333333333333
144
0.0
144
0.0
144
0.0
144
0.0
144
1.0
144
0.0
144
0.0
144
0.0
144
0.0
144
1.0
147
0.0208333333333333
147
0.0
147
0.0
147
0.0
147
0.0
147
0.0208333333333333
147
0.0
147
0.0
147
0.0
147
0.0
147
1.0
147
0.0
147
0.0
147
0.0
147
0.0
147
1.0
  0
MATERIAL
  5
B77
102
{ACAD_XDICTIONARY
360
B78
102
}
102
{ACAD_REACTORS
330
72
102
}
330
72
100
AcDbMaterial
  1
ByLayer
 72
     0
 43
0.0208333333333333
 43
0.0
 43
0.0
 43
0.0
 43
0.0
 43
0.0208333333333333
 43
0.0
 43
0.0
 43
0.0
 43
0.0
 43
1.0
 43
0.0
 43
0.0
 43
0.0
 43
0.0
 43
1.0
 77
     0
 47
0.0208333333333333
 47
0.0
 47
0.0
 47
0.0
 47
0.0
 47
0.0208333333333333
 47
0.0
 47
0.0
 47
0.0
 47
0.0
 47
1.0
 47
0.0
 47
0.0
 47
0.0
 47
0.0
 47
1.0
171
     0
 49
0.0208333333333333
 49
0.0
 49
0.0
 49
0.0
 49
0.0
 49
0.0208333333333333
 49
0.0
 49
0.0
 49
0.0
 49
0.0
 49
1.0
 49
0.0
 49
0.0
 49
0.0
 49
0.0
 49
1.0
175
     0
142
0.0208333333333333
142
0.0
142
0.0
142
0.0
142
0.0
142
0.0208333333333333
142
0.0
142
0.0
142
0.0
142
0.0
142
1.0
142
0.0
142
0.0
142
0.0
142
0.0
142
1.0
179
     0
144
0.0208333333333333
144
0.0
144
0.0
144
0.0
144
0.0
144
0.0208333333333333
144
0.0
144
0.0
144
0.0
144
0.0
144
1.0
144
0.0
144
0.0
144
0.0
144
0.0
144
1.0
147
0.0208333333333333
147
0.0
147
0.0
147
0.0
147
0.0
147
0.0208333333333333
147
0.0
147
0.0
147
0.0
147
0.0
147
1.0
147
0.0
147
0.0
147
0.0
147
0.0
147
1.0
  0
MATERIAL
  5
B87
102
{ACAD_XDICTIONARY
360
B88
102
}
102
{ACAD_REACTORS
330
72
102
}
330
72
100
AcDbMaterial
  1
Global
 72
     0
 43
0.0208333333333333
 43
0.0
 43
0.0
 43
0.0
 43
0.0
 43
0.0208333333333333
 43
0.0
 43
0.0
 43
0.0
 43
0.0
 43
1.0
 43
0.0
 43
0.0
 43
0.0
 43
0.0
 43
1.0
 77
     0
 47
0.0208333333333333
 47
0.0
 47
0.0
 47
0.0
 47
0.0
 47
0.0208333333333333
 47
0.0
 47
0.0
 47
0.0
 47
0.0
 47
1.0
 47
0.0
 47
0.0
 47
0.0
 47
0.0
 47
1.0
171
     0
 49
0.0208333333333333
 49
0.0
 49
0.0
 49
0.0
 49
0.0
 49
0.0208333333333333
 49
0.0
 49
0.0
 49
0.0
 49
0.0
 49
1.0
 49
0.0
 49
0.0
 49
0.0
 49
0.0
 49
1.0
175
     0
142
0.0208333333333333
142
0.0
142
0.0
142
0.0
142
0.0
142
0.0208333333333333
142
0.0
142
0.0
142
0.0
142
0.0
142
1.0
142
0.0
142
0.0
142
0.0
142
0.0
142
1.0
179
     0
144
0.0208333333333333
144
0.0
144
0.0
144
0.0
144
0.0
144
0.0208333333333333
144
0.0
144
0.0
144
0.0
144
0.0
144
1.0
144
0.0
144
0.0
144
0.0
144
0.0
144
1.0
147
0.0208333333333333
147
0.0
147
0.0
147
0.0
147
0.0
147
0.0208333333333333
147
0.0
147
0.0
147
0.0
147
0.0
147
1.0
147
0.0
147
0.0
147
0.0
147
0.0
147
1.0
  0
MLEADERSTYLE
  5
BBD
102
{ACAD_REACTORS
330
BBC
102
}
330
BBC
100
AcDbMLeaderStyle
179
     2
170
     2
171
     1
172
     0
 90
        2
 40
0.0
 41
0.0
173
     1
 91
-1056964608
340
14
 92
       -2
290
     1
 42
0.09
291
     1
 43
0.36
  3
Standard
 44
0.18
300

342
11
174
     1
178
     6
175
     1
176
     0
 93
-1056964608
 45
0.18
292
     0
297
     0
 46
0.18
 94
-1056964608
 47
1.0
 49
1.0
140
1.0
293
     1
141
0.0
294
     1
177
     0
142
1.0
295
     0
296
     0
143
0.125
271
     0
272
     9
273
     9
  0
MLINESTYLE
  5
18
102
{ACAD_REACTORS
330
17
102
}
330
17
100
AcDbMlineStyle
  2
STANDARD
 70
     0
  3

 62
   256
 51
90.0
 52
90.0
 71
     2
 49
0.5
 62
   256
  6
BYLAYER
 49
-0.5
 62
   256
  6
BYLAYER
  0
ACDBPLACEHOLDER
  5
F
102
{ACAD_REACTORS
330
E
102
}
330
E
  0
SCALE
  5
BAB
102
{ACAD_REACTORS
330
BAA
102
}
330
BAA
100
AcDbScale
 70
     0
300
1:1
140
1.0
141
1.0
290
     1
  0
SCALE
  5
BAC
102
{ACAD_REACTORS
330
BAA
102
}
330
BAA
100
AcDbScale
 70
     0
300
1/128" = 1'-0"
140
0.0078125
141
12.0
290
     0
  0
SCALE
  5
BAD
102
{ACAD_REACTORS
330
BAA
102
}
330
BAA
100
AcDbScale
 70
     0
300
1/64" = 1'-0"
140
0.015625
141
12.0
290
     0
  0
SCALE
  5
BAE
102
{ACAD_REACTORS
330
BAA
102
}
330
BAA
100
AcDbScale
 70
     0
300
1/32" = 1'-0"
140
0.03125
141
12.0
290
     0
  0
SCALE
  5
BAF
102
{ACAD_REACTORS
330
BAA
102
}
330
BAA
100
AcDbScale
 70
     0
300
1/16" = 1'-0"
140
0.0625
141
12.0
290
     0
  0
SCALE
  5
BB0
102
{ACAD_REACTORS
330
BAA
102
}
330
BAA
100
AcDbScale
 70
     0
300
3/32" = 1'-0"
140
0.09375
141
12.0
290
     0
  0
SCALE
  5
BB1
102
{ACAD_REACTORS
330
BAA
102
}
330
BAA
100
AcDbScale
 70
     0
300
1/8" = 1'-0"
140
0.125
141
12.0
290
     0
  0
SCALE
  5
BB2
102
{ACAD_REACTORS
330
BAA
102
}
330
BAA
100
AcDbScale
 70
     0
300
3/16" = 1'-0"
140
0.1875
141
12.0
290
     0
  0
SCALE
  5
BB3
102
{ACAD_REACTORS
330
BAA
102
}
330
BAA
100
AcDbScale
 70
     0
300
1/4" = 1'-0"
140
0.25
141
12.0
290
     0
  0
SCALE
  5
BB4
102
{ACAD_REACTORS
330
BAA
102
}
330
BAA
100
AcDbScale
 70
     0
300
3/8" = 1'-0"
140
0.375
141
12.0
290
     0
  0
SCALE
  5
BB5
102
{ACAD_REACTORS
330
BAA
102
}
330
BAA
100
AcDbScale
 70
     0
300
1/2" = 1'-0"
140
0.5
141
12.0
290
     0
  0
SCALE
  5
BB6
102
{ACAD_REACTORS
330
BAA
102
}
330
BAA
100
AcDbScale
 70
     0
300
3/4" = 1'-0"
140
0.75
141
12.0
290
     0
  0
SCALE
  5
BB7
102
{ACAD_REACTORS
330
BAA
102
}
330
BAA
100
AcDbScale
 70
     0
300
1" = 1'-0"
140
1.0
141
12.0
290
     0
  0
SCALE
  5
BB8
102
{ACAD_REACTORS
330
BAA
102
}
330
BAA
100
AcDbScale
 70
     0
300
1-1/2" = 1'-0"
140
1.5
141
12.0
290
     0
  0
SCALE
  5
BB9
102
{ACAD_REACTORS
330
BAA
102
}
330
BAA
100
AcDbScale
 70
     0
300
3" = 1'-0"
140
3.0
141
12.0
290
     0
  0
SCALE
  5
BBA
102
{ACAD_REACTORS
330
BAA
102
}
330
BAA
100
AcDbScale
 70
     0
300
6" = 1'-0"
140
6.0
141
12.0
290
     0
  0
SCALE
  5
BBB
102
{ACAD_REACTORS
330
BAA
102
}
330
BAA
100
AcDbScale
 70
     0
300
1'-0" = 1'-0"
140
12.0
141
12.0
290
     0
  0
ACDBSECTIONVIEWSTYLE
  5
BBF
102
{ACAD_XDICTIONARY
360
F32
102
}
102
{ACAD_REACTORS
330
BBE
102
}
330
BBE
100
AcDbModelDocViewStyle
 70
     0
  3
Imperial24
290
     0
100
AcDbSectionViewStyle
 70
     0
 71
     0
 90
       78
 71
     1
340
11
 62
   256
 40
0.24
340
0
340
0
 62
   256
 40
0.24
300
I, O, Q, S, X, Z
 40
0.48
 90
        3
 40
0.18
 90
        1
 71
     2
340
16
 90
       25
 62
   256
340
16
 90
       50
 62
   256
 40
0.24
 40
0.0
 40
0.24
 71
     3
340
11
 62
   256
 40
0.24
 90
        1
 40
0.75
 90
        1
300
%<\AcVar ViewType \f "%tc1">% %<\AcVar ViewSectionStartId>%-%<\AcVar ViewSectionEndId>%\PSCALE %<\AcVar ViewScale \f "%sn">%
 71
     4
 62
   256
 62
   257
300
ANSI31
 40
1.0
 90
        0
290
     0
290
     0
 90
        6
 40
0.0
 40
1.570796326794896
 40
0.2617993877991494
 40
1.308996938995747
 40
-0.2617993877991494
 40
1.832595714594046
  0
TABLESTYLE
  5
BA9
102
{ACAD_XDICTIONARY
360
CFD
102
}
102
{ACAD_REACTORS
330
BA8
102
}
330
BA8
100
AcDbTableStyle
280
     0
  3
Standard
 70
     0
 71
     0
 40
0.06
 41
0.06
280
     0
281
     0
  7
Standard
140
0.18
170
     2
 62
     0
 63
     7
283
     0
 90
      512
 91
        0
  1

274
    -2
284
     1
 64
     0
275
    -2
285
     1
 65
     0
276
    -2
286
     1
 66
     0
277
    -2
287
     1
 67
     0
278
    -2
288
     1
 68
     0
279
    -2
289
     1
 69
     0
  7
Standard
140
0.25
170
     5
 62
     0
 63
     7
283
     0
 90
      512
 91
        0
  1

274
    -2
284
     1
 64
     0
275
    -2
285
     1
 65
     0
276
    -2
286
     1
 66
     0
277
    -2
287
     1
 67
     0
278
    -2
288
     1
 68
     0
279
    -2
289
     1
 69
     0
  7
Standard
140
0.18
170
     5
 62
     0
 63
     7
283
     0
 90
      512
 91
        0
  1

274
    -2
284
     1
 64
     0
275
    -2
285
     1
 65
     0
276
    -2
286
     1
 66
     0
277
    -2
287
     1
 67
     0
278
    -2
288
     1
 68
     0
279
    -2
289
     1
 69
     0
  0
VISUALSTYLE
  5
B95
102
{ACAD_XDICTIONARY
360
F0C
102
}
102
{ACAD_REACTORS
330
B8F
102
}
330
B8F
100
AcDbVisualStyle
  2
2dWireframe
 70
     4
177
     2
291
     0
 71
     0
176
     1
 72
     2
176
     1
 73
     0
176
     1
 90
        0
176
     1
 40
0.6
176
     1
 41
30.0
176
     1
 63
     7
421
 16777215
176
     1
 74
     1
176
     1
 91
        4
176
     1
 64
     7
176
     1
 65
   257
176
     1
 75
     1
176
     1
175
     1
176
     1
 42
1.0
176
     1
 92
        0
176
     1
 66
   257
176
     1
 43
1.0
176
     1
 76
     1
176
     1
 77
     6
176
     1
 78
     2
176
     1
 67
     7
176
     1
 79
     5
176
     1
170
     0
176
     1
171
     0
176
     1
290
     0
176
     1
 93
        1
176
     1
 44
0.0
176
     1
173
     0
176
     1
1001
ACAD
1000
AcDbSavedByObjectVersion
1070
     0
  0
VISUALSTYLE
  5
B94
102
{ACAD_XDICTIONARY
360
F0A
102
}
102
{ACAD_REACTORS
330
B8F
102
}
330
B8F
100
AcDbVisualStyle
  2
Basic
 70
     7
177
     2
291
     1
 71
     1
176
     1
 72
     0
176
     1
 73
     1
176
     1
 90
        0
176
     1
 40
0.6
176
     1
 41
30.0
176
     1
 63
     7
421
 16777215
176
     1
 74
     0
176
     1
 91
        4
176
     1
 64
     7
176
     1
 65
   257
176
     1
 75
     1
176
     1
175
     1
176
     1
 42
1.0
176
     1
 92
        8
176
     1
 66
     7
176
     1
 43
1.0
176
     1
 76
     1
176
     1
 77
     6
176
     1
 78
     2
176
     1
 67
     7
176
     1
 79
     5
176
     1
170
     0
176
     1
171
     0
176
     1
290
     0
176
     1
 93
        1
176
     1
 44
0.0
176
     1
173
     0
176
     1
1001
ACAD
1000
AcDbSavedByObjectVersion
1070
     0
  0
VISUALSTYLE
  5
B9B
102
{ACAD_XDICTIONARY
360
F18
102
}
102
{ACAD_REACTORS
330
B8F
102
}
330
B8F
100
AcDbVisualStyle
  2
Brighten
 70
    12
177
     2
291
     1
 71
     2
176
     1
 72
     2
176
     1
 73
     0
176
     1
 90
        0
176
     1
 40
0.6
176
     1
 41
30.0
176
     1
 63
     7
421
 16777215
176
     1
 74
     1
176
     1
 91
        4
176
     1
 64
     7
176
     1
 65
   257
176
     1
 75
     1
176
     1
175
     1
176
     1
 42
1.0
176
     1
 92
        8
176
     1
 66
     7
176
     1
 43
1.0
176
     1
 76
     1
176
     1
 77
     6
176
     1
 78
     2
176
     1
 67
     7
176
     1
 79
     5
176
     1
170
     0
176
     1
171
     0
176
     1
290
     0
176
     1
 93
        1
176
     1
 44
50.0
176
     1
173
     0
176
     1
1001
ACAD
1000
AcDbSavedByObjectVersion
1070
     0
  0
VISUALSTYLE
  5
B9F
102
{ACAD_XDICTIONARY
360
F20
102
}
102
{ACAD_REACTORS
330
B8F
102
}
330
B8F
100
AcDbVisualStyle
  2
ColorChange
 70
    16
177
     2
291
     1
 71
     2
176
     1
 72
     2
176
     1
 73
     3
176
     1
 90
        0
176
     1
 40
0.6
176
     1
 41
30.0
176
     1
 63
     8
421
  8421504
176
     1
 74
     1
176
     1
 91
        4
176
     1
 64
     7
176
     1
 65
   257
176
     1
 75
     1
176
     1
175
     1
176
     1
 42
1.0
176
     1
 92
        8
176
     1
 66
     8
424
  8421504
176
     1
 43
1.0
176
     1
 76
     1
176
     1
 77
     6
176
     1
 78
     2
176
     1
 67
     7
176
     1
 79
     5
176
     1
170
     0
176
     1
171
     0
176
     1
290
     0
176
     1
 93
        1
176
     1
 44
0.0
176
     1
173
     0
176
     1
1001
ACAD
1000
AcDbSavedByObjectVersion
1070
     0
  0
VISUALSTYLE
  5
B98
102
{ACAD_XDICTIONARY
360
F12
102
}
102
{ACAD_REACTORS
330
B8F
102
}
330
B8F
100
AcDbVisualStyle
  2
Conceptual
 70
     9
177
     2
291
     0
 71
     3
176
     1
 72
     2
176
     1
 73
     0
176
     1
 90
        0
176
     1
 40
0.6
176
     1
 41
30.0
176
     1
 63
     7
421
 16777215
176
     1
 74
     2
176
     1
 91
        2
176
     1
 64
     7
176
     1
 65
   257
176
     1
 75
     1
176
     1
175
     1
176
     1
 42
179.0
176
     1
 92
        8
176
     1
 66
     7
176
     1
 43
1.0
176
     1
 76
     1
176
     1
 77
     6
176
     1
 78
     2
176
     1
 67
     7
176
     1
 79
     3
176
     1
170
     0
176
     1
171
     0
176
     1
290
     0
176
     1
 93
        1
176
     1
 44
0.0
176
     1
173
     0
176
     1
1001
ACAD
1000
AcDbSavedByObjectVersion
1070
     0
  0
VISUALSTYLE
  5
B9A
102
{ACAD_XDICTIONARY
360
F16
102
}
102
{ACAD_REACTORS
330
B8F
102
}
330
B8F
100
AcDbVisualStyle
  2
Dim
 70
    11
177
     2
291
     1
 71
     2
176
     1
 72
     2
176
     1
 73
     0
176
     1
 90
        0
176
     1
 40
0.6
176
     1
 41
30.0
176
     1
 63
     7
421
 16777215
176
     1
 74
     1
176
     1
 91
        4
176
     1
 64
     7
176
     1
 65
   257
176
     1
 75
     1
176
     1
175
     1
176
     1
 42
1.0
176
     1
 92
        8
176
     1
 66
     7
176
     1
 43
1.0
176
     1
 76
     1
176
     1
 77
     6
176
     1
 78
     2
176
     1
 67
     7
176
     1
 79
     5
176
     1
170
     0
176
     1
171
     0
176
     1
290
     0
176
     1
 93
        1
176
     1
 44
-50.0
176
     1
173
     0
176
     1
1001
ACAD
1000
AcDbSavedByObjectVersion
1070
     0
  0
VISUALSTYLE
  5
BA7
102
{ACAD_XDICTIONARY
360
F30
102
}
102
{ACAD_REACTORS
330
B8F
102
}
330
B8F
100
AcDbVisualStyle
  2
EdgeColorOff
 70
    22
177
     2
291
     1
 71
     2
176
     0
 72
     2
176
     0
 73
     0
176
     0
 90
        0
176
     0
 40
0.6
176
     0
 41
30.0
176
     0
 63
     7
421
 16777215
176
     0
 74
     1
176
     0
 91
        4
176
     0
 64
     7
176
     0
 65
   257
176
     0
 75
     1
176
     0
175
     1
176
     0
 42
1.0
176
     0
 92
        8
176
     2
 66
     7
176
     0
 43
1.0
176
     0
 76
     1
176
     0
 77
     6
176
     0
 78
     2
176
     0
 67
     7
176
     0
 79
     5
176
     0
170
     0
176
     0
171
     0
176
     0
290
     0
176
     0
 93
        1
176
     0
 44
0.0
176
     0
173
     0
176
     0
1001
ACAD
1000
AcDbSavedByObjectVersion
1070
     0
  0
VISUALSTYLE
  5
B9E
102
{ACAD_XDICTIONARY
360
F1E
102
}
102
{ACAD_REACTORS
330
B8F
102
}
330
B8F
100
AcDbVisualStyle
  2
Facepattern
 70
    15
177
     2
291
     1
 71
     2
176
     1
 72
     2
176
     1
 73
     0
176
     1
 90
        0
176
     1
 40
0.6
176
     1
 41
30.0
176
     1
 63
     7
421
 16777215
176
     1
 74
     1
176
     1
 91
        4
176
     1
 64
     7
176
     1
 65
   257
176
     1
 75
     1
176
     1
175
     1
176
     1
 42
1.0
176
     1
 92
        8
176
     1
 66
     7
176
     1
 43
1.0
176
     1
 76
     1
176
     1
 77
     6
176
     1
 78
     2
176
     1
 67
     7
176
     1
 79
     5
176
     1
170
     0
176
     1
171
     0
176
     1
290
     0
176
     1
 93
        1
176
     1
 44
0.0
176
     1
173
     0
176
     1
1001
ACAD
1000
AcDbSavedByObjectVersion
1070
     0
  0
VISUALSTYLE
  5
B90
102
{ACAD_XDICTIONARY
360
F02
102
}
102
{ACAD_REACTORS
330
B8F
102
}
330
B8F
100
AcDbVisualStyle
  2
Flat
 70
     0
177
     2
291
     1
 71
     2
176
     1
 72
     1
176
     1
 73
     1
176
     1
 90
        2
176
     1
 40
0.6
176
     1
 41
30.0
176
     1
 63
     7
421
 16777215
176
     1
 74
     0
176
     1
 91
        0
176
     1
 64
     7
176
     1
 65
   257
176
     1
 75
     1
176
     1
175
     1
176
     1
 42
1.0
176
     1
 92
        8
176
     1
 66
     7
176
     1
 43
1.0
176
     1
 76
     1
176
     1
 77
     6
176
     1
 78
     2
176
     1
 67
     7
176
     1
 79
     5
176
     1
170
     0
176
     1
171
     0
176
     1
290
     0
176
     1
 93
       13
176
     1
 44
0.0
176
     1
173
     0
176
     1
1001
ACAD
1000
AcDbSavedByObjectVersion
1070
     0
  0
VISUALSTYLE
  5
B91
102
{ACAD_XDICTIONARY
360
F04
102
}
102
{ACAD_REACTORS
330
B8F
102
}
330
B8F
100
AcDbVisualStyle
  2
FlatWithEdges
 70
     1
177
     2
291
     1
 71
     2
176
     1
 72
     1
176
     1
 73
     1
176
     1
 90
        2
176
     1
 40
0.6
176
     1
 41
30.0
176
     1
 63
     7
421
 16777215
176
     1
 74
     1
176
     1
 91
        0
176
     1
 64
     7
176
     1
 65
   257
176
     1
 75
     1
176
     1
175
     1
176
     1
 42
1.0
176
     1
 92
        0
176
     1
 66
   257
176
     1
 43
1.0
176
     1
 76
     1
176
     1
 77
     6
176
     1
 78
     2
176
     1
 67
     7
176
     1
 79
     5
176
     1
170
     0
176
     1
171
     0
176
     1
290
     0
176
     1
 93
       13
176
     1
 44
0.0
176
     1
173
     0
176
     1
1001
ACAD
1000
AcDbSavedByObjectVersion
1070
     0
  0
VISUALSTYLE
  5
B92
102
{ACAD_XDICTIONARY
360
F06
102
}
102
{ACAD_REACTORS
330
B8F
102
}
330
B8F
100
AcDbVisualStyle
  2
Gouraud
 70
     2
177
     2
291
     1
 71
     2
176
     1
 72
     2
176
     1
 73
     1
176
     1
 90
        2
176
     1
 40
0.6
176
     1
 41
30.0
176
     1
 63
     7
421
 16777215
176
     1
 74
     0
176
     1
 91
        0
176
     1
 64
     7
176
     1
 65
   257
176
     1
 75
     1
176
     1
175
     1
176
     1
 42
1.0
176
     1
 92
        0
176
     1
 66
     7
176
     1
 43
1.0
176
     1
 76
     1
176
     1
 77
     6
176
     1
 78
     2
176
     1
 67
     7
176
     1
 79
     5
176
     1
170
     0
176
     1
171
     0
176
     1
290
     0
176
     1
 93
       13
176
     1
 44
0.0
176
     1
173
     0
176
     1
1001
ACAD
1000
AcDbSavedByObjectVersion
1070
     0
  0
VISUALSTYLE
  5
B93
102
{ACAD_XDICTIONARY
360
F08
102
}
102
{ACAD_REACTORS
330
B8F
102
}
330
B8F
100
AcDbVisualStyle
  2
GouraudWithEdges
 70
     3
177
     2
291
     1
 71
     2
176
     1
 72
     2
176
     1
 73
     1
176
     1
 90
        2
176
     1
 40
0.6
176
     1
 41
30.0
176
     1
 63
     7
421
 16777215
176
     1
 74
     1
176
     1
 91
        0
176
     1
 64
     7
176
     1
 65
   257
176
     1
 75
     1
176
     1
175
     1
176
     1
 42
1.0
176
     1
 92
        0
176
     1
 66
   257
176
     1
 43
1.0
176
     1
 76
     1
176
     1
 77
     6
176
     1
 78
     2
176
     1
 67
     7
176
     1
 79
     5
176
     1
170
     0
176
     1
171
     0
176
     1
290
     0
176
     1
 93
       13
176
     1
 44
0.0
176
     1
173
     0
176
     1
1001
ACAD
1000
AcDbSavedByObjectVersion
1070
     0
  0
VISUALSTYLE
  5
B97
102
{ACAD_XDICTIONARY
360
F10
102
}
102
{ACAD_REACTORS
330
B8F
102
}
330
B8F
100
AcDbVisualStyle
  2
Hidden
 70
     6
177
     2
291
     0
 71
     1
176
     1
 72
     2
176
     1
 73
     2
176
     1
 90
        0
176
     1
 40
0.6
176
     1
 41
30.0
176
     1
 63
     7
421
 16777215
176
     1
 74
     2
176
     1
 91
        2
176
     1
 64
     7
176
     1
 65
   257
176
     1
 75
     2
176
     1
175
     1
176
     1
 42
40.0
176
     1
 92
        0
176
     1
 66
   257
176
     1
 43
1.0
176
     1
 76
     1
176
     1
 77
     6
176
     1
 78
     2
176
     1
 67
     7
176
     1
 79
     3
176
     1
170
     0
176
     1
171
     0
176
     1
290
     0
176
     1
 93
        1
176
     1
 44
0.0
176
     1
173
     0
176
     1
1001
ACAD
1000
AcDbSavedByObjectVersion
1070
     0
  0
VISUALSTYLE
  5
BA5
102
{ACAD_XDICTIONARY
360
F2C
102
}
102
{ACAD_REACTORS
330
B8F
102
}
330
B8F
100
AcDbVisualStyle
  2
JitterOff
 70
    20
177
     2
291
     1
 71
     2
176
     0
 72
     2
176
     0
 73
     0
176
     0
 90
        0
176
     0
 40
0.6
176
     0
 41
30.0
176
     0
 63
     7
421
 16777215
176
     0
 74
     1
176
     0
 91
        4
176
     0
 64
     7
176
     0
 65
   257
176
     0
 75
     1
176
     0
175
     1
176
     0
 42
1.0
176
     0
 92
       10
176
     2
 66
     7
176
     0
 43
1.0
176
     0
 76
     1
176
     0
 77
     6
176
     0
 78
     2
176
     0
 67
     7
176
     0
 79
     5
176
     0
170
     0
176
     0
171
     0
176
     0
290
     0
176
     0
 93
        1
176
     0
 44
0.0
176
     0
173
     0
176
     0
1001
ACAD
1000
AcDbSavedByObjectVersion
1070
     0
  0
VISUALSTYLE
  5
B9D
102
{ACAD_XDICTIONARY
360
F1C
102
}
102
{ACAD_REACTORS
330
B8F
102
}
330
B8F
100
AcDbVisualStyle
  2
Linepattern
 70
    14
177
     2
291
     1
 71
     2
176
     1
 72
     2
176
     1
 73
     0
176
     1
 90
        0
176
     1
 40
0.6
176
     1
 41
30.0
176
     1
 63
     7
421
 16777215
176
     1
 74
     1
176
     1
 91
        4
176
     1
 64
     7
176
     1
 65
   257
176
     1
 75
     7
176
     1
175
     7
176
     1
 42
1.0
176
     1
 92
        8
176
     1
 66
     7
176
     1
 43
1.0
176
     1
 76
     1
176
     1
 77
     6
176
     1
 78
     2
176
     1
 67
     7
176
     1
 79
     5
176
     1
170
     0
176
     1
171
     0
176
     1
290
     0
176
     1
 93
        1
176
     1
 44
0.0
176
     1
173
     0
176
     1
1001
ACAD
1000
AcDbSavedByObjectVersion
1070
     0
  0
VISUALSTYLE
  5
BA6
102
{ACAD_XDICTIONARY
360
F2E
102
}
102
{ACAD_REACTORS
330
B8F
102
}
330
B8F
100
AcDbVisualStyle
  2
OverhangOff
 70
    21
177
     2
291
     1
 71
     2
176
     0
 72
     2
176
     0
 73
     0
176
     0
 90
        0
176
     0
 40
0.6
176
     0
 41
30.0
176
     0
 63
     7
421
 16777215
176
     0
 74
     1
176
     0
 91
        4
176
     0
 64
     7
176
     0
 65
   257
176
     0
 75
     1
176
     0
175
     1
176
     0
 42
1.0
176
     0
 92
        9
176
     2
 66
     7
176
     0
 43
1.0
176
     0
 76
     1
176
     0
 77
     6
176
     0
 78
     2
176
     0
 67
     7
176
     0
 79
     5
176
     0
170
     0
176
     0
171
     0
176
     0
290
     0
176
     0
 93
        1
176
     0
 44
0.0
176
     0
173
     0
176
     0
1001
ACAD
1000
AcDbSavedByObjectVersion
1070
     0
  0
VISUALSTYLE
  5
B99
102
{ACAD_XDICTIONARY
360
F14
102
}
102
{ACAD_REACTORS
330
B8F
102
}
330
B8F
100
AcDbVisualStyle
  2
Realistic
 70
     8
177
     2
291
     0
 71
     2
176
     1
 72
     2
176
     1
 73
     0
176
     1
 90
        2
176
     1
 40
0.6
176
     1
 41
30.0
176
     1
 63
     7
421
 16777215
176
     1
 74
     0
176
     1
 91
        0
176
     1
 64
     7
176
     1
 65
   257
176
     1
 75
     1
176
     1
175
     1
176
     1
 42
1.0
176
     1
 92
        8
176
     1
 66
   257
176
     1
 43
1.0
176
     1
 76
     1
176
     1
 77
     6
176
     1
 78
     2
176
     1
 67
     7
176
     1
 79
     3
176
     1
170
     0
176
     1
171
     0
176
     1
290
     0
176
     1
 93
       13
176
     1
 44
0.0
176
     1
173
     0
176
     1
1001
ACAD
1000
AcDbSavedByObjectVersion
1070
     0
  0
VISUALSTYLE
  5
BA4
102
{ACAD_XDICTIONARY
360
F2A
102
}
102
{ACAD_REACTORS
330
B8F
102
}
330
B8F
100
AcDbVisualStyle
  2
Shaded
 70
    27
177
     2
291
     0
 71
     2
176
     1
 72
     2
176
     1
 73
     1
176
     1
 90
        2
176
     1
 40
0.6
176
     1
 41
30.0
176
     1
 63
     7
421
 16777215
176
     1
 74
     0
176
     1
 91
        4
176
     1
 64
     7
176
     1
 65
   257
176
     1
 75
     1
176
     1
175
     1
176
     1
 42
1.0
176
     1
 92
        8
176
     1
 66
   257
176
     1
 43
1.0
176
     1
 76
     1
176
     1
 77
     6
176
     1
 78
     2
176
     1
 67
     8
425
  7895160
176
     1
 79
     3
176
     1
170
     0
176
     1
171
     0
176
     1
290
     0
176
     1
 93
        5
176
     1
 44
0.0
176
     1
173
     0
176
     1
1001
ACAD
1000
AcDbSavedByObjectVersion
1070
     0
  0
VISUALSTYLE
  5
BA3
102
{ACAD_XDICTIONARY
360
F28
102
}
102
{ACAD_REACTORS
330
B8F
102
}
330
B8F
100
AcDbVisualStyle
  2
Shaded with edges
 70
    26
177
     2
291
     0
 71
     2
176
     1
 72
     2
176
     1
 73
     1
176
     1
 90
        2
176
     1
 40
0.6
176
     1
 41
30.0
176
     1
 63
     7
421
 16777215
176
     1
 74
     1
176
     1
 91
       10
176
     1
 64
     7
176
     1
 65
   257
176
     1
 75
     2
176
     1
175
     1
176
     1
 42
1.0
176
     1
 92
        8
176
     1
 66
   257
176
     1
 43
1.0
176
     1
 76
     1
176
     1
 77
     6
176
     1
 78
     2
176
     1
 67
     7
176
     1
 79
     3
176
     1
170
     0
176
     1
171
     0
176
     1
290
     0
176
     1
 93
        5
176
     1
 44
0.0
176
     1
173
     0
176
     1
1001
ACAD
1000
AcDbSavedByObjectVersion
1070
     0
  0
VISUALSTYLE
  5
BA0
102
{ACAD_XDICTIONARY
360
F22
102
}
102
{ACAD_REACTORS
330
B8F
102
}
330
B8F
100
AcDbVisualStyle
  2
Shades of Gray
 70
    23
177
     2
291
     0
 71
     2
176
     1
 72
     2
176
     1
 73
     3
176
     1
 90
        0
176
     1
 40
0.6
176
     1
 41
30.0
176
     1
 63
     7
421
 16777215
176
     1
 74
     2
176
     1
 91
        2
176
     1
 64
     7
176
     1
 65
     7
176
     1
 75
     1
176
     1
175
     1
176
     1
 42
40.0
176
     1
 92
        8
176
     1
 66
     7
176
     1
 43
1.0
176
     1
 76
     1
176
     1
 77
     6
176
     1
 78
     2
176
     1
 67
     7
176
     1
 79
     3
176
     1
170
     0
176
     1
171
     0
176
     1
290
     0
176
     1
 93
        1
176
     1
 44
0.0
176
     1
173
     0
176
     1
1001
ACAD
1000
AcDbSavedByObjectVersion
1070
     0
  0
VISUALSTYLE
  5
BA1
102
{ACAD_XDICTIONARY
360
F24
102
}
102
{ACAD_REACTORS
330
B8F
102
}
330
B8F
100
AcDbVisualStyle
  2
Sketchy
 70
    24
177
     2
291
     0
 71
     1
176
     1
 72
     2
176
     1
 73
     2
176
     1
 90
        0
176
     1
 40
0.6
176
     1
 41
30.0
176
     1
 63
     7
421
 16777215
176
     1
 74
     2
176
     1
 91
        2
176
     1
 64
     7
176
     1
 65
     7
176
     1
 75
     1
176
     1
175
     1
176
     1
 42
40.0
176
     1
 92
       11
176
     1
 66
     7
176
     1
 43
1.0
176
     1
 76
     1
176
     1
 77
     6
176
     1
 78
     2
176
     1
 67
     7
176
     1
 79
     6
176
     1
170
     0
176
     1
171
     0
176
     1
290
     0
176
     1
 93
        1
176
     1
 44
0.0
176
     1
173
     0
176
     1
1001
ACAD
1000
AcDbSavedByObjectVersion
1070
     0
  0
VISUALSTYLE
  5
B9C
102
{ACAD_XDICTIONARY
360
F1A
102
}
102
{ACAD_REACTORS
330
B8F
102
}
330
B8F
100
AcDbVisualStyle
  2
Thicken
 70
    13
177
     2
291
     1
 71
     2
176
     1
 72
     2
176
     1
 73
     0
176
     1
 90
        0
176
     1
 40
0.6
176
     1
 41
30.0
176
     1
 63
     7
421
 16777215
176
     1
 74
     1
176
     1
 91
        4
176
     1
 64
     7
176
     1
 65
   257
176
     1
 75
     1
176
     1
175
     1
176
     1
 42
1.0
176
     1
 92
       12
176
     1
 66
     7
176
     1
 43
1.0
176
     1
 76
     1
176
     1
 77
     6
176
     1
 78
     2
176
     1
 67
     7
176
     1
 79
     5
176
     1
170
     0
176
     1
171
     0
176
     1
290
     0
176
     1
 93
        1
176
     1
 44
0.0
176
     1
173
     0
176
     1
1001
ACAD
1000
AcDbSavedByObjectVersion
1070
     0
  0
VISUALSTYLE
  5
B96
102
{ACAD_XDICTIONARY
360
F0E
102
}
102
{ACAD_REACTORS
330
B8F
102
}
330
B8F
100
AcDbVisualStyle
  2
Wireframe
 70
     5
177
     2
291
     0
 71
     0
176
     1
 72
     2
176
     1
 73
     0
176
     1
 90
        0
176
     1
 40
0.6
176
     1
 41
30.0
176
     1
 63
     7
421
 16777215
176
     1
 74
     1
176
     1
 91
        4
176
     1
 64
     7
176
     1
 65
   257
176
     1
 75
     1
176
     1
175
     1
176
     1
 42
1.0
176
     1
 92
        0
176
     1
 66
   257
176
     1
 43
1.0
176
     1
 76
     1
176
     1
 77
     6
176
     1
 78
     2
176
     1
 67
     7
176
     1
 79
     3
176
     1
170
     0
176
     1
171
     0
176
     1
290
     0
176
     1
 93
        1
176
     1
 44
0.0
176
     1
173
     0
176
     1
1001
ACAD
1000
AcDbSavedByObjectVersion
1070
     0
  0
VISUALSTYLE
  5
BA2
102
{ACAD_XDICTIONARY
360
F26
102
}
102
{ACAD_REACTORS
330
B8F
102
}
330
B8F
100
AcDbVisualStyle
  2
X-Ray
 70
    25
177
     2
291
     0
 71
     2
176
     1
 72
     2
176
     1
 73
     1
176
     1
 90
        1
176
     1
 40
0.5
176
     1
 41
30.0
176
     1
 63
     7
421
 16777215
176
     1
 74
     1
176
     1
 91
        0
176
     1
 64
     7
176
     1
 65
   257
176
     1
 75
     1
176
     1
175
     1
176
     1
 42
1.0
176
     1
 92
        8
176
     1
 66
     7
176
     1
 43
1.0
176
     1
 76
     1
176
     1
 77
     6
176
     1
 78
     2
176
     1
 67
     7
176
     1
 79
     3
176
     1
170
     0
176
     1
171
     0
176
     1
290
     0
176
     1
 93
       13
176
     1
 44
0.0
176
     1
173
     0
176
     1
1001
ACAD
1000
AcDbSavedByObjectVersion
1070
     0
  0
DICTIONARYVAR
  5
D4A
102
{ACAD_REACTORS
330
66
102
}
330
66
100
DictionaryVariables
280
     0
  1
1:1
  0
DICTIONARYVAR
  5
D47
102
{ACAD_REACTORS
330
66
102
}
330
66
100
DictionaryVariables
280
     0
  1
STANDARD
  0
DICTIONARYVAR
  5
D46
102
{ACAD_REACTORS
330
66
102
}
330
66
100
DictionaryVariables
280
     0
  1
STANDARD
  0
DICTIONARYVAR
  5
D48
102
{ACAD_REACTORS
330
66
102
}
330
66
100
DictionaryVariables
280
     0
  1
Imperial24
  0
DICTIONARYVAR
  5
D49
102
{ACAD_REACTORS
330
66
102
}
330
66
100
DictionaryVariables
280
     0
  1
Imperial24
  0
DICTIONARYVAR
  5
67
102
{ACAD_REACTORS
330
66
102
}
330
66
100
DictionaryVariables
280
     0
  1
2
  0
DICTIONARYVAR
  5
6B
102
{ACAD_REACTORS
330
66
102
}
330
66
100
DictionaryVariables
280
     0
  1
1
  0
DICTIONARYVAR
  5
EFD
102
{ACAD_REACTORS
330
66
102
}
330
66
100
DictionaryVariables
280
     0
  1
1
  0
DICTIONARYVAR
  5
EFE
102
{ACAD_REACTORS
330
66
102
}
330
66
100
DictionaryVariables
280
     0
  1
15
  0
DICTIONARYVAR
  5
EFC
102
{ACAD_REACTORS
330
66
102
}
330
66
100
DictionaryVariables
280
     0
  1
0
  0
DICTIONARYVAR
  5
EFB
102
{ACAD_REACTORS
330
66
102
}
330
66
100
DictionaryVariables
280
     0
  1
0
  0
DICTIONARYVAR
  5
61A
102
{ACAD_REACTORS
330
66
102
}
330
66
100
DictionaryVariables
280
     0
  1

  0
DICTIONARY
  5
F34
330
BC1
100
AcDbDictionary
280
     1
281
     1
  3
ACAD_XREC_ROUNDTRIP
360
F35
  0
DICTIONARY
  5
DC2
330
22
100
AcDbDictionary
280
     1
281
     1
  3
ADSK_XREC_LAYOUTTHUMBNAIL
360
DC3
  0
DICTIONARY
  5
B80
330
B7F
100
AcDbDictionary
280
     1
281
     1
  3
BUMPTILE
360
B82
  3
DIFFUSETILE
360
B81
  3
OPACITYTILE
360
B85
  3
REFLECTIONTILE
360
B84
  3
REFRACTIONTILE
360
B86
  3
SPECULARTILE
360
B83
  0
DICTIONARY
  5
B78
330
B77
100
AcDbDictionary
280
     1
281
     1
  3
BUMPTILE
360
B7A
  3
DIFFUSETILE
360
B79
  3
OPACITYTILE
360
B7D
  3
REFLECTIONTILE
360
B7C
  3
REFRACTIONTILE
360
B7E
  3
SPECULARTILE
360
B7B
  0
DICTIONARY
  5
B88
330
B87
100
AcDbDictionary
280
     1
281
     1
  3
BUMPTILE
360
B8A
  3
DIFFUSETILE
360
B89
  3
OPACITYTILE
360
B8D
  3
REFLECTIONTILE
360
B8C
  3
REFRACTIONTILE
360
B8E
  3
SPECULARTILE
360
B8B
  0
DICTIONARY
  5
F32
330
BBF
100
AcDbDictionary
280
     1
281
     1
  3
ACAD_XREC_ROUNDTRIP
360
F33
  0
DICTIONARY
  5
CFD
330
BA9
100
AcDbDictionary
280
     1
281
     1
  3
ACAD_ROUNDTRIP_2008_TABLESTYLE_CELLSTYLEMAP
360
EFF
  0
DICTIONARY
  5
F0C
330
B95
100
AcDbDictionary
280
     1
281
     1
  3
ACAD_XREC_ROUNDTRIP
360
F0D
  0
DICTIONARY
  5
F0A
330
B94
100
AcDbDictionary
280
     1
281
     1
  3
ACAD_XREC_ROUNDTRIP
360
F0B
  0
DICTIONARY
  5
F18
330
B9B
100
AcDbDictionary
280
     1
281
     1
  3
ACAD_XREC_ROUNDTRIP
360
F19
  0
DICTIONARY
  5
F20
330
B9F
100
AcDbDictionary
280
     1
281
     1
  3
ACAD_XREC_ROUNDTRIP
360
F21
  0
DICTIONARY
  5
F12
330
B98
100
AcDbDictionary
280
     1
281
     1
  3
ACAD_XREC_ROUNDTRIP
360
F13
  0
DICTIONARY
  5
F16
330
B9A
100
AcDbDictionary
280
     1
281
     1
  3
ACAD_XREC_ROUNDTRIP
360
F17
  0
DICTIONARY
  5
F30
330
BA7
100
AcDbDictionary
280
     1
281
     1
  3
ACAD_XREC_ROUNDTRIP
360
F31
  0
DICTIONARY
  5
F1E
330
B9E
100
AcDbDictionary
280
     1
281
     1
  3
ACAD_XREC_ROUNDTRIP
360
F1F
  0
DICTIONARY
  5
F02
330
B90
100
AcDbDictionary
280
     1
281
     1
  3
ACAD_XREC_ROUNDTRIP
360
F03
  0
DICTIONARY
  5
F04
330
B91
100
AcDbDictionary
280
     1
281
     1
  3
ACAD_XREC_ROUNDTRIP
360
F05
  0
DICTIONARY
  5
F06
330
B92
100
AcDbDictionary
280
     1
281
     1
  3
ACAD_XREC_ROUNDTRIP
360
F07
  0
DICTIONARY
  5
F08
330
B93
100
AcDbDictionary
280
     1
281
     1
  3
ACAD_XREC_ROUNDTRIP
360
F09
  0
DICTIONARY
  5
F10
330
B97
100
AcDbDictionary
280
     1
281
     1
  3
ACAD_XREC_ROUNDTRIP
360
F11
  0
DICTIONARY
  5
F2C
330
BA5
100
AcDbDictionary
280
     1
281
     1
  3
ACAD_XREC_ROUNDTRIP
360
F2D
  0
DICTIONARY
  5
F1C
330
B9D
100
AcDbDictionary
280
     1
281
     1
  3
ACAD_XREC_ROUNDTRIP
360
F1D
  0
DICTIONARY
  5
F2E
330
BA6
100
AcDbDictionary
280
     1
281
     1
  3
ACAD_XREC_ROUNDTRIP
360
F2F
  0
DICTIONARY
  5
F14
330
B99
100
AcDbDictionary
280
     1
281
     1
  3
ACAD_XREC_ROUNDTRIP
360
F15
  0
DICTIONARY
  5
F2A
330
BA4
100
AcDbDictionary
280
     1
281
     1
  3
ACAD_XREC_ROUNDTRIP
360
F2B
  0
DICTIONARY
  5
F28
330
BA3
100
AcDbDictionary
280
     1
281
     1
  3
ACAD_XREC_ROUNDTRIP
360
F29
  0
DICTIONARY
  5
F22
330
BA0
100
AcDbDictionary
280
     1
281
     1
  3
ACAD_XREC_ROUNDTRIP
360
F23
  0
DICTIONARY
  5
F24
330
BA1
100
AcDbDictionary
280
     1
281
     1
  3
ACAD_XREC_ROUNDTRIP
360
F25
  0
DICTIONARY
  5
F1A
330
B9C
100
AcDbDictionary
280
     1
281
     1
  3
ACAD_XREC_ROUNDTRIP
360
F1B
  0
DICTIONARY
  5
F0E
330
B96
100
AcDbDictionary
280
     1
281
     1
  3
ACAD_XREC_ROUNDTRIP
360
F0F
  0
DICTIONARY
  5
F26
330
BA2
100
AcDbDictionary
280
     1
281
     1
  3
ACAD_XREC_ROUNDTRIP
360
F27
  0
XRECORD
  5
F35
102
{ACAD_REACTORS
330
F34
102
}
330
F34
100
AcDbXrecord
280
     1
102
DISPLAYNAME
  1
Imperial24
102
FLAGS
 90
        0
  0
XRECORD
  5
DC3
102
{ACAD_REACTORS
330
DC2
102
}
330
DC2
100
AcDbXrecord
280
     1
310
280000000001000078000000010008000000000000780000010000000100000000010000000000000000000000000000FFFFFFFF000000FF000000FF000000FF000000FF000000FF000000FF000000FF000000FF330000FF660000FF990000FFCC0000FFFF0000FF003300FF333300FF663300FF993300FFCC3300FFFF3300
310
FF006600FF336600FF666600FF996600FFCC6600FFFF6600FF009900FF339900FF669900FF999900FFCC9900FFFF9900FF00CC00FF33CC00FF66CC00FF99CC00FFCCCC00FFFFCC00FF00FF00FF33FF00FF66FF00FF99FF00FFCCFF00FFFFFF00FF000033FF330033FF660033FF990033FFCC0033FFFF0033FF003333FF3333
310
33FF663333FF993333FFCC3333FFFF3333FF006633FF336633FF666633FF996633FFCC6633FFFF6633FF009933FF339933FF669933FF999933FFCC9933FFFF9933FF00CC33FF33CC33FF66CC33FF99CC33FFCCCC33FFFFCC33FF00FF33FF33FF33FF66FF33FF99FF33FFCCFF33FFFFFF33FF000066FF330066FF660066FF99
310
0066FFCC0066FFFF0066FF003366FF333366FF663366FF993366FFCC3366FFFF3366FF006666FF336666FF666666FF996666FFCC6666FFFF6666FF009966FF339966FF669966FF999966FFCC9966FFFF9966FF00CC66FF33CC66FF66CC66FF99CC66FFCCCC66FFFFCC66FF00FF66FF33FF66FF66FF66FF99FF66FFCCFF66FF
310
FFFF66FF000099FF330099FF660099FF990099FFCC0099FFFF0099FF003399FF333399FF663399FF993399FFCC3399FFFF3399FF006699FF336699FF666699FF996699FFCC6699FFFF6699FF009999FF339999FF669999FF999999FFCC9999FFFF9999FF00CC99FF33CC99FF66CC99FF99CC99FFCCCC99FFFFCC99FF00FF99
310
FF33FF99FF66FF99FF99FF99FFCCFF99FFFFFF99FF0000CCFF3300CCFF6600CCFF9900CCFFCC00CCFFFF00CCFF0033CCFF3333CCFF6633CCFF9933CCFFCC33CCFFFF33CCFF0066CCFF3366CCFF6666CCFF9966CCFFCC66CCFFFF66CCFF0099CCFF3399CCFF6699CCFF9999CCFFCC99CCFFFF99CCFF00CCCCFF33CCCCFF66CC
310
CCFF99CCCCFFCCCCCCFFFFCCCCFF00FFCCFF33FFCCFF66FFCCFF99FFCCFFCCFFCCFFFFFFCCFF0000FFFF3300FFFF6600FFFF9900FFFFCC00FFFFFF00FFFF0033FFFF3333FFFF6633FFFF9933FFFFCC33FFFFFF33FFFF0066FFFF3366FFFF6666FFFF9966FFFFCC66FFFFFF66FFFF0099FFFF3399FFFF6699FFFF9999FFFFCC
310
99FFFFFF99FFFF00CCFFFF33CCFFFF66CCFFFF99CCFFFFCCCCFFFFFFCCFFFF00FFFFFF33FFFFFF66FFFFFF99FFFFFFCCFFFFFFFFFFFFFF000000FF0D0D0DFF1A1A1AFF282828FF353535FF434343FF505050FF5D5D5DFF6B6B6BFF787878FF868686FF939393FFA1A1A1FFAEAEAEFFBBBBBBFFC9C9C9FFD6D6D6FFE4E4E4FF
310
F1F1F1FFFFFFFFFF000000FF000000FF000000FF000000FF000000FF000000FF000000FF000000FF000000FF000000FF0000000000000000000000000000000000000000000000000000000000000000000000000000000000000000000000000000000000000000000000F500000000000000000000000000000000000000
310
000000F500F5F5F5F5F5F5F5F5F5F5F5F5F5F5F5F5F5F5F5F5F5F5F5F5F5F5F5F5F5F5F5F5F5F5F5F5F5F5F5F5F5F5F5F500000000000000000000000000F5F5F5F500F5F500F50000000000000000000000000000000000F50000000000000000000000000000000000000000000000000000000000000000000000000000
310
00000000000000000000000000000000000000000000000000000000000000000000000000000000000000000000000000000000000000000000000000000000000000000000000000000000000000000000000000000000000000000000000000000000000000000000000000F50000000000000000000000000000000000
310
0000000000F5F5F5F5F5F5F5F5F50000000000000000F5F5F5000000F5F500F50000000000000000F500000000F50000F500F500000000000000000000000000F500F5F5F500F5F5F5F500000000000000000000000000000000F5000000000000000000000000000000000000000000000000000000000000000000000000
310
000000000000000000000000000000000000000000000000000000000000000000000000000000000000000000000000000000000000000000000000000000000000000000000000000000000000000000000000000000000000000000000000000000000000000000000000000000F5000000000000000000000000000000
310
00000000000000F5F5F5F500F5F5F5F50000000000F5F5F5F5F5F5F5F5F5F5F500F500000000000000F50000000000F50000F500F5000000000000000000000000000000000000000000000000000000000000000000000000000000F500000000000000000000000000000000000000000000000000000000000000000000
310
0000000000000000000000000000000000000000000000000000000000000000000000000000000000000000000000000000000000000000000000000000000000000000000000000000000000000000000000000000000000000000000000000000000000000000000000000000000000F500000000000000000000000000
310
000000000000000000F500F500F500F5F5F5F5F5F5F5F5000000F500F5000000F5F500F5000000000000F5000000000000F500F50000F5000000000000000000F5F5F500F5F500F5F5F5F5F500F500F5F5F5000000000000000000000000F50000000000000000000000000000000000000000000000000000000000000000
310
00000000000000000000000000000000000000000000000000000000000000000000000000000000000000000000000000000000000000000000000000000000000000000000000000000000000000000000000000000000000000000000000000000000000000000000000000000000000000F50000000000000000000000
310
0000000000000000000000F5F5F5F5F5F5F5F5F50000000000000000F500F5000000F5F500F5000000000000F5000000000000F500F50000F5000000000000F5F5F5F5F500F500F500F500F5F5F5F5F5F5F5F500000000000000000000000000F5000000000000000000000000000000000000000000000000000000000000
310
000000000000000000000000000000000000000000000000000000000000000000000000000000000000000000000000000000000000000000000000000000000000000000000000000000000000000000000000000000000000000000000000000000000000000000000000000000000000000000F5000000000000000000
310
000000000000000000000000000000000000000000000000000000000000F500F5000000F5F500F50000000000F500000000000000F500F50000F5000000000000F50000F5F5F500F5F5F5F5F5F5F5F500F5F500F500000000000000000000000000F500000000000000000000000000000000000000000000000000000000
310
0000000000000000000000000000000000000000000000000000000000000000000000000000000000000000000000000000000000000000000000000000000000000000000000000000000000000000000000000000000000000000000000000000000000000000000000000000000000000000000000F500000000000000
310
000000000000000000000000000000F5F5F5F5F500F500F5F500000000000000F500F5000000F5F500F500000000F50000000000000000F500F50000F50000000000F5000000F5F5F50000F500F5F5F5F500F5F5F5F5F500000000000000000000000000F50000000000000000000000000000000000000000000000000000
310
00000000000000000000000000000000000000000000000000000000000000000000000000000000000000000000000000000000000000000000000000000000000000000000000000000000000000000000000000000000000000000000000000000000000000000000000000000000000000000000000000F50000000000
310
0000000000000000000000000000000000F500F5F500F5F5F5F5F500000000000000F500F5000000F5F500F500000000F50000000000000000F500F50000F50000000000F5000000F5F5F50000F500F5F500F5F5F5F5F5F500F5000000000000000000000000F5000000000000000000000000000000000000000000000000
310
000000000000000000000000000000000000000000000000000000000000000000000000000000000000000000000000000000000000000000000000000000000000000000000000000000000000000000000000000000000000000000000000000000000000000000000000000000000000000000000000000000F5000000
310
00000000000000000000000000000000000000F5F5F5F5F5F5F500F5F5F5F5F5F5F50000F500F5000000F5F500F500000000F50000000000000000F500F50000F500000000F500000000F5F5F5F5F5F500F5F500F5F5F5F5F5F500F5000000000000000000000000F500000000000000000000000000000000000000000000
310
0000000000000000000000000000000000000000000000000000000000000000000000000000000000000000000000000000000000000000000000000000000000000000000000000000000000000000000000000000000000000000000000000000000000000000000000000000000000000000000000000000000000F500
310
000000000000000000000000000000000000000000F5F500F5F500F500F5F500000000F5F5F5F5F5F5F5F5F5F5F500F500000000F50000000000000000F500F50000F500000000F500000000F5F5F5F5F5F5F5F5F5F5F500F5F500F50000000000000000000000000000F50000000000000000000000000000000000000000
310
00000000000000000000000000000000000000000000000000000000000000000000000000000000000000000000000000000000000000000000000000000000000000000000000000000000000000000000000000000000000000000000000000000000000000000000000000000000000000000000000000000000000000
310
F5000000000000000000000000000000000000000000000000000000000000000000000000000000F50000000000F50000F500000000F50000000000000000F500F50000F5000000F50000000000F500F5F5F5F5F5F5F5F5F5000000F5F5F500000000000000000000000000F5000000000000000000000000000000000000
310
00000000000000000000000000000000000000000000000000000000000000000000000000000000000000000000000000000000000000000000000000000000000000000000000000000000000000000000000000000000000000000000000000000000000000000000000000000000000000000000000000000000000000
310
0000F5000000000000000000000000000000000000000000000000000000000000000000000000000000F50000000000F50000F500000000F50000000000000000F500F50000F5000000F50000000000F5F500F5F5F5F5F5F5F5F50000F500F500F5000000000000000000000000F500000000000000000000000000000000
310
00000000000000000000000000000000000000000000000000000000000000000000000000000000000000000000000000000000000000000000000000000000000000000000000000000000000000000000000000000000000000000000000000000000000000000000000000000000000000000000000000000000000000
310
00000000F5000000000000000000000000000000F5F5F5F5000000F5F5F5F5F5F50000F50000000000000000F50000000000F50000F500000000F50000000000000000F500F50000F50000F5000000000000F5F5F5F5F5F5F5F5F5F5F50000F5F5F5F5F5000000000000000000000000F50000000000000000000000000000
310
00000000000000000000000000000000000000000000000000000000000000000000000000000000000000000000000000000000000000000000000000000000000000000000000000000000000000000000000000000000000000000000000000000000000000000000000000000000000000000000000000000000000000
310
000000000000F50000000000000000000000000000F500F50000F50000F5F5F500F500F5F5F50000000000000000F500000000F5F50000F500000000F500000000000000F5F500F50000F50000F5000000000000000000000000000000000000000000000000000000000000000000000000F5000000000000000000000000
310
00000000000000000000000000000000000000000000000000000000000000000000000000000000000000000000000000000000000000000000000000000000000000000000000000000000000000000000000000000000000000000000000000000000000000000000000000000000000000000000000000000000000000
310
0000000000000000F50000000000000000000000000000F500F5F500F50000F5F500F5F500F5F5F5F5F5F5F5F5F5F5F5F5F5F5F5F5F5F50000F500000000F500000000000000F5F500F50000F500F500000000000000000000000000000000000000000000000000000000000000000000000000F500000000000000000000
310
00000000000000000000000000000000000000000000000000000000000000000000000000000000000000000000000000000000000000000000000000000000000000000000000000000000000000000000000000000000000000000000000000000000000000000000000000000000000000000000000000000000000000
310
00000000000000000000F5000000000000000000000000000000F5F5F5F5000000F5F500F5F5F5F5F5F50000000000000000F50000000000000000F500000000F500000000000000000000F50000F500F500000000000000000000000000000000000000000000000000000000000000000000000000F50000000000000000
310
00000000000000000000000000000000000000000000000000000000000000000000000000000000000000000000000000000000000000000000000000000000000000000000000000000000000000000000000000000000000000000000000000000000000000000000000000000000000000000000000000000000000000
310
000000000000000000000000F5000000000000000000000000000000000000000000000000000000000000000000000000000000F50000000000000000F500000000F500000000000000000000F50000F5F50000000000000000000000000000000000000000000000000000000000000000000000000000F5000000000000
310
00000000000000000000000000000000000000000000000000000000000000000000000000000000000000000000000000000000000000000000000000000000000000000000000000000000000000000000000000000000000000000000000000000000000000000000000000000000000000000000000000000000000000
310
0000000000000000000000000000F500000000000000000000000000000000F500F5F5F500F5F5000000000000000000000000000000F50000000000000000F500000000F500000000000000000000F50000F5F50000000000000000000000000000000000000000000000000000000000000000000000000000F500000000
310
00000000000000000000000000000000000000000000000000000000000000000000000000000000000000000000000000000000000000000000000000000000000000000000000000000000000000000000000000000000000000000000000000000000000000000000000000000000000000000000000000000000000000
310
00000000000000000000000000000000F500000000000000000000000000000000F5F5F500F5F5F5F5000000000000000000000000000000F50000000000000000F500000000F500000000000000000000F50000F5F50000000000000000000000000000000000000000000000000000000000000000000000000000F50000
310
00000000000000000000000000000000000000000000000000000000000000000000000000000000000000000000000000000000000000000000000000000000000000000000000000000000000000000000000000000000000000000000000000000000000000000000000000000000000000000000000000000000000000
310
000000000000000000000000000000000000F500000000000000000000000000000000F5F5F5F5F5F5F5F5F50000000000000000000000000000F50000000000000000F500000000F500000000000000000000F50000F5000000000000000000000000000000000000000000000000000000000000000000000000000000F5
310
00000000000000000000000000000000000000000000000000000000000000000000000000000000000000000000000000000000000000000000000000000000000000000000000000000000000000000000000000000000000000000000000000000000000000000000000000000000000000000000000000000000000000
310
0000000000000000000000000000000000000000F500000000000000000000000000000000F5F5F5F5F500F5F5F5F5F500F500F500F5F5F5F500F500F50000000000000000F500000000F500000000000000000000F50000F50000000000000000000000000000000000000000000000000000000000000000000000000000
310
00F50000000000000000000000000000000000000000000000000000000000000000000000000000000000000000000000000000000000000000000000000000000000000000000000000000000000000000000000000000000000000000000000000000000000000000000000000000000000000000000000000000000000
310
00000000000000000000000000000000000000000000F500000000000000000000000000000000F5F5F500F5F5F5F5F5F5F5F500F5F500F5F500F5F5F500F50000000000000000F500000000F500000000000000000000F500F5F5000000000000000000F5F5000000F5F5F5F500F5F5000000F5F5F5F50000000000000000
310
000000F5000000000000000000000000000000000000000000000000000000000000000000000000000000000000000000000000000000000000000000000000000000000000000000000000000000000000000000000000000000000000000000000000000000000000000000000000000000000000000000000000000000
310
000000000000000000000000000000000000000000000000F500000000000000000000000000000000F5F5F500F5F5F5F5F5F500F500F5F500F5F500F5F5F500F50000000000000000F500000000F500000000000000000000F500F5F5000000000000F5F5F5F5F5F5000000F5F500F5F5F50000F500F5F500F50000000000
310
0000000000F500000000000000000000000000000000000000000000000000000000000000000000000000000000000000000000000000000000000000000000000000000000000000000000000000000000000000000000000000000000000000000000000000000000000000000000000000000000000000000000000000
310
0000000000000000000000000000000000000000000000000000F500000000000000000000000000000000F5F5F5F5F500F5F5F5F5F500F5F5F5F5F5F5F5F500F500F50000000000000000F500000000F500000000000000000000F5F500F50000000000F5000000F5F5000000F5F5F5F5F5F5F5000000F5F5F5F500000000
310
00000000000000F50000000000000000000000000000000000000000000000000000000000000000000000000000000000000000000000000000000000000000000000000000000000000000000000000000000000000000000000000000000000000000000000000000000000000000000000000000000000000000000000
310
00000000000000000000000000000000000000000000000000000000F500000000000000000000000000000000F5F500F5F500F5F5F5F5F5F500F5F5F5F5000000000000F50000000000000000F500000000F500000000000000000000F5F500F50000000000F5000000000000000000000000000000000000000000000000
310
000000000000000000F5000000000000000000000000000000000000000000000000000000000000000000000000000000000000000000000000000000000000000000000000000000000000000000000000000000000000000000000000000000000000000000000000000000000000000000000000000000000000000000
310
000000000000000000000000000000000000000000000000000000000000F500000000000000000000000000000000F5F500F5F5F5F5F500F5F5F5F5F5F500F50000F5F5F5F5F5F5F5F5F500000000F500000000F500000000000000000000F50000F500000000F50000000000000000000000000000000000000000000000
310
0000000000000000000000F500000000000000000000000000000000000000000000000000000000000000000000000000000000000000000000000000000000000000000000000000000000000000000000000000000000000000000000000000000000000000000000000000000000000000000000000000000000000000
310
0000000000000000000000000000000000000000000000000000000000000000F500000000000000000000000000000000F5F5F5F5F500F5F5F5F5F5F500F5F5F5F5F50000000000F5000000F500000000F500000000F500000000000000000000F50000F5000000F500000000000000000000000000000000000000000000
310
00000000000000000000000000F50000000000000000000000000000000000000000000000000000000000000000000000000000000000000000000000000000000000000000000000000000000000000000000000000000000000000000000000000000000000000000000000000000000000000000000000000000000000
310
00000000000000000000000000000000000000000000000000000000000000000000F5000000000000000000000000000000000000000000000000000000000000000000000000000000F5000000F500000000F500000000F5000000000000000000F5F50000F5000000F50000000000000000000000000000000000000000
310
000000000000000000000000000000F5000000000000000000000000000000000000000000000000000000000000000000000000000000000000000000000000000000000000000000000000000000000000000000000000000000000000000000000000000000000000000000000000000000000000000000000000000000
310
000000000000000000000000000000000000000000000000000000000000000000000000F500000000000000000000000000000000F5F5F50000F500F5F5F5F500F5F5F5F5F5F50000000000F5000000F500000000F500000000F5000000000000000000F5F50000F50000F500000000000000000000000000000000000000
310
0000000000000000000000000000000000F500000000000000000000000000000000000000000000000000000000000000000000000000000000000000000000000000000000000000000000000000000000000000000000000000000000000000000000000000000000000000000000000000000000000000000000000000
310
0000000000000000000000000000000000000000000000000000000000000000000000000000F500000000000000000000000000000000F5F5F5F5F5F500F5F500F5F5F5F5F5F500F50000000000F500000000F5000000F500000000F50000000000000000F500F50000F50000F50000000000000000000000000000000000
310
00000000000000000000000000000000000000F50000000000000000000000000000000000000000000000000000000000000000000000000000000000000000000000000000000000000000000000000000000000000000000000000000000000000000000000000000000000000000000000000000000000000000000000
310
00000000000000000000000000000000000000000000000000000000000000000000000000000000F500000000000000000000000000000000F5F5F5F5F5F5F5F5F5F5F500F5F500F500000000000000F500F5F5F5F5000000F500000000F50000000000000000F500F50000F500F500000000000000000000000000000000
310
000000000000000000000000000000000000000000F5000000000000000000000000000000000000000000000000000000000000000000000000000000000000000000000000000000000000000000000000000000000000000000000000000000000000000000000000000000000000000000000000000000000000000000
310
000000000000000000000000000000000000000000000000000000000000000000000000000000000000F500000000000000000000000000000000F500F5F5F5F5F5F5F5F5F5000000F5F5F5000000000000F5000000F5F5000000F500000000F500000000000000F50000F50000F500F50000000000000000000000000000
310
0000000000000000000000000000000000000000000000F500000000000000000000000000000000000000000000000000000000000000000000000000000000000000000000000000000000000000000000000000000000000000000000000000000000000000000000000000000000000000000000000000000000000000
310
0000000000000000000000000000000000000000000000000000000000000000000000000000000000000000F500000000000000000000000000000000F5F500F5F50000F5F5F5F50000F500F500F50000000000F500F5F5F5F5000000F500000000F500000000000000F50000F50000F5F500000000000000000000000000
310
00000000000000000000000000000000000000000000000000F50000000000000000000000000000000000000000000000000000000000000000000000000000000000000000000000000000000000000000000000000000000000000000000000000000000000000000000000000000000000000000000000000000000000
310
00000000000000000000000000000000000000000000000000000000000000000000000000000000000000000000F500000000000000000000000000000000F5F5F5F5F5F5F5F5F5F5F50000F500F500F50000000000F500F5F5F5F5000000F500000000F500000000000000F50000F50000F5F500000000000000F500F5F5
310
F5F5F50000F5F5F5F5F5F500F500F5F5F500F500F5F50000000000F5000000000000000000000000000000000000000000000000000000000000000000000000000000000000000000000000000000000000000000000000000000000000000000000000000000000000000000000000000000000000000000000000000000
310
000000000000000000000000000000000000000000000000000000000000000000000000000000000000000000000000F50000000000000000000000000000000000F500F500F5F5F5F5F5F5000000F5F5F5000000000000F500F5F5F5F5000000F500000000F5000000000000F5000000F50000F50000000000000000F5F5
310
F5F5F5F5F5000000F5F5F5F500F5F5F5F5F5F500F500F5F50000000000F500000000000000000000000000000000000000000000000000000000000000000000000000000000000000000000000000000000000000000000000000000000000000000000000000000000000000000000000000000000000000000000000000
310
0000000000000000000000000000000000000000000000000000000000000000000000000000000000000000000000000000F5000000000000000000000000000000000000000000000000000000000000000000000000000000F500F5F5F500F50000F500000000F5000000000000F5000000F50000F50000000000000000
310
00F5F5F5F5F5F5000000F5F5F5F5F5F5F5F5F5F5F5F500F5F5F50000000000F50000000000000000000000000000000000000000000000000000000000000000000000000000000000000000000000000000000000000000000000000000000000000000000000000000000000000000000000000000000000000000000000
310
00000000000000000000000000000000000000000000000000000000000000000000000000000000000000000000000000000000F50000000000000000000000F5F5F5F5F50000F5F5F5F5F5F5F5F500F5F500000000000000000000F500F5F5F500F50000F500000000F50000000000F500000000F500F5F5000000000000
310
000000F500F5F5F5F50000F5F5F5F5F5F500F500F5F5F5F500F5F5F50000000000F5000000000000000000000000000000000000000000000000000000000000000000000000000000000000000000000000000000000000000000000000000000000000000000000000000000000000000000000000000000000000000000
310
000000000000000000000000000000000000000000000000000000000000000000000000000000000000000000000000000000000000F50000000000000000000000F500F5F5F5000000F5F5F500F5F500F5F5F5F5F5F5F5F50000000000F500F5F5F500F50000F500000000F50000000000F500000000F500F5F500000000
310
0000000000F500F5F5F5F5F50000F5F5F5F5F5F5F5F5F5F5F5F5F5F500F5F5F5000000F500000000000000000000000000000000000000000000000000000000000000000000000000000000000000000000000000000000000000000000000000000000000000000000000000000000000000000000000000000000000000
310
0000000000000000000000000000000000000000000000000000000000000000000000000000000000000000000000000000000000000000F50000000000000000000000F5F5F5F5000000F5F5F5F500F5F5F5F5F5F50000000000F500000000F50000F50000F50000F500000000F500000000F50000000000F5F500F50000
310
F5F5F5F5F50000F5F5F500F5F5F5000000F5F5F5F5F5F5F500F5F500F5F5F500F500000000F50000000000000000000000000000000000000000000000000000000000000000000000000000000000000000000000000000000000000000000000000000000000000000000000000000000000000000000000000000000000
310
00000000000000000000000000000000000000000000000000000000000000000000000000000000000000000000000000000000000000000000F50000000000000000000000000000000000000000000000000000000000000000000000F5000000F50000F50000F50000F500000000F500000000F50000000000F5F500F5
310
0000F5000000000000F5F5F5F5F5F5F50000F5F5F5F5F5F5F5F5F5F5F5F5F50000F5F5F5000000F5000000000000000000000000000000000000000000000000000000000000000000000000000000000000000000000000000000000000000000000000000000000000000000000000000000000000000000000000000000
310
000000000000000000000000000000000000000000000000000000000000000000000000000000000000000000000000000000000000000000000000F50000000000000000000000000000000000000000000000000000000000000000000000F5000000F50000F50000F50000F500000000F5000000F50000000000F5F500
310
00F50000F5000000000000000000000000000000000000000000000000000000000000000000000000F500000000000000000000000000000000000000000000000000000000000000000000000000000000000000000000000000000000000000000000000000000000000000000000000000000000000000000000000000
310
0000000000000000000000000000000000000000000000000000000000000000000000000000000000000000000000000000000000000000000000000000F500000000000000000000000000000000000000F5F5F5F5F5F5F5F5F5F5F5000000000000F50000F50000F5000000F500F500000000F5000000F50000000000F5
310
F50000F50000F5000000F5F5F500F5F5F5F500F5F5F5000000F5F5F5F5000000F5F5F500F5F500F5000000F50000000000000000000000000000000000000000000000000000000000000000000000000000000000000000000000000000000000000000000000000000000000000000000000000000000000000000000000
310
00000000000000000000000000000000000000000000000000000000000000000000000000000000000000000000000000000000000000000000000000000000F500000000000000000000000000000000000000F5F5F5F5F5F5F5F5F5F5F5F5F5F5F5F50000F500F50000F500F5F5F500F500000000F50000F500000000F5
310
F5F5F50000F50000F5000000F5F5F5F5F500F5F5F5F5F5F50000F500F5F500F50000F5F5F5F5F5F500F5000000F5000000000000000000000000000000000000000000000000000000000000000000000000000000000000000000000000000000000000000000000000000000000000000000000000000000000000000000
310
000000000000000000000000000000000000000000000000000000000000000000000000000000000000000000000000000000000000000000000000000000000000F500000000000000000000000000000000000000F5F500F500F5F5F5F5F5F50000000000F50000F5F5F5F5F5F5F5F5F500F500000000F50000F5000000
310
00F5F500F50000F50000F5000000F5F5F500F500F5F500F5F5F5000000F5F5F5F5000000F5F5F500F5F5F5F5000000F500000000000000000000000000000000000000000000000000000000000000000000000000000000000000000000000000000000000000000000000000000000000000000000000000000000000000
310
0000000000000000000000000000000000000000000000000000000000000000000000000000000000000000000000000000000000000000000000000000000000000000F50000000000000000000000000000000000000000000000000000000000000000000000F5000000F50000F5000000F500F500000000F5F5F50000
310
000000000000F50000F50000F5000000000000000000000000000000000000000000000000000000000000000000000000F50000000000000000000000000000000000000000000000000000000000000000000000000000000000000000000000000000000000000000000000000000000000000000000000000000000000
310
00000000000000000000000000000000000000000000000000000000000000000000000000000000000000000000000000000000000000000000000000000000000000000000F5000000000000000000000000000000000000F5F5F5F5F5F5F500F5F5F5F5000000000000F50000F50000F5000000F500F500000000F5F5F5
310
0000000000000000F50000F50000F5000000000000000000000000000000000000000000000000000000000000000000000000F5000000000000000000000000000000000000000000000000000000000000000000000000000000000000000000000000000000000000000000000000000000000000000000000000000000
310
000000000000000000000000000000000000000000000000000000000000000000000000000000000000000000000000000000000000000000000000000000000000000000000000F500000000000000000000000000000000000000F5F5F5F50000F5F5F5F5F5F5F5F5F5F50000F500F50000F5000000F500F500000000F5
310
F5F50000000000000000F50000F50000F5000000000000000000000000000000000000000000000000000000000000000000000000F500000000000000000000000000000000000000000000000000000000000000000000000000000000000000000000000000000000000000000000000000000000000000000000000000
310
0000000000000000000000000000000000000000000000000000000000000000000000000000000000000000000000000000000000000000000000000000000000000000000000000000F5000000000000000000000000000000000000F5F5F5F5F500F5F5F5F5F5F50000000000F500F500F50000F500000000F5F5000000
310
F5F5F5F50000000000000000F50000F500F500000000000000000000000000000000000000000000000000000000000000000000000000F50000000000000000000000000000000000000000000000000000000000000000000000000000000000000000000000000000000000000000000000000000000000000000000000
310
00000000000000000000000000000000000000000000000000000000000000000000000000000000000000000000000000000000000000000000000000000000000000000000000000000000F5000000000000000000000000000000000000000000000000000000000000000000000000F500F5F5F5F5F5F5F5F5F5F5F5F5
310
F5F5F5F500F50000000000000000F50000F500F50000000000000000F5F5F5F5F5F5F5F5000000000000000000000000000000000000000000F5000000000000000000000000000000000000000000000000000000000000000000000000000000000000000000000000000000000000000000000000000000000000000000
310
000000000000000000000000000000000000000000000000000000000000000000000000000000000000000000000000000000000000000000000000000000000000000000000000000000000000F500000000000000000000000000000000000000F5F5F5F5F5F5F5F500F500F50000000000F50000F50000F500000000F5
310
F5000000F5F5F5000000000000000000F50000F500F500000000000000F500F5F5F5F5F500F5F50000000000000000000000000000000000000000F500000000000000000000000000000000000000000000000000000000000000000000000000000000000000000000000000000000000000000000000000000000000000
310
0000000000000000000000000000000000000000000000000000000000000000000000000000000000000000000000000000000000000000000000000000000000000000000000000000000000000000F500000000000000000000000000000000000000F5F5F5F5F5F5F5F5F5F5F5F5F5F5F5F5F500F500F50000F5000000
310
00F5F5000000F5F5F5000000000000000000F50000F500F500000000000000F5F5F5F5F5F5F5F5F5F50000000000000000000000000000000000000000F50000000000000000000000000000000000000000000000000000000000000000000000000000000000000000000000000000000000000000000000000000000000
310
00000000000000000000000000000000000000000000000000000000000000000000000000000000000000000000000000000000000000000000000000000000000000000000000000000000000000000000F500000000000000000000000000000000000000F500F5F5F500F5F500F5F5F50000000000F5F5F5F5F5F5F5F5
310
F5F5F5F5F5F5F5F5F5F500F50000000000000000F50000F500F500000000000000000000000000000000000000000000000000000000000000000000000000F5000000000000000000000000000000000000000000000000000000000000000000000000000000000000000000000000000000000000000000000000000000
310
000000000000000000000000000000000000000000000000000000000000000000000000000000000000000000000000000000000000000000000000000000000000000000000000000000000000000000000000F50000000000000000000000000000000000000000F5F5F5F500F5F500F500F500000000000000F5F50000
310
F5000000F5F5F5F50000F5F5F5F50000000000000000F50000F500F500000000000000F5F5F5F5F5F500F500F5F5F5F50000000000000000000000000000000000F500000000000000000000000000000000000000000000000000000000000000000000000000000000000000000000000000000000000000000000000000
310
0000000000000000000000000000000000000000000000000000000000000000000000000000000000000000000000000000000000000000000000000000000000000000000000000000000000000000000000000000F5000000000000000000000000000000000000000000000000000000000000000000000000000000F5
310
F5F5F5F5F5F5F5F5F5F5000000F5F5000000000000000000F50000F500F50000000000000000F500F5F5F5F5F5F5F50000F50000000000000000000000000000000000F50000000000000000000000000000000000000000000000000000000000000000000000000000000000000000000000000000000000000000000000
310
00000000000000000000000000000000000000000000000000000000000000000000000000000000000000000000000000000000000000000000000000000000000000000000000000000000000000000000000000000000F50000000000000000000000000000000000000000000000000000000000000000000000000000
310
00F50000F5000000F5F5F5F50000000000F5F500000000000000F50000F500F500000000000000F5F5F5F5F5F5F5F5F5F50000F5F500000000000000000000000000000000F5000000000000000000000000000000000000000000000000000000000000000000000000000000000000000000000000000000000000000000
310
000000000000000000000000000000000000000000000000000000000000000000000000000000000000000000000000000000000000000000000000000000000000000000000000000000000000000000000000000000000000F5000000000000000000000000000000000000000000000000000000000000000000000000
310
000000F500F5F5000000000000000000000000F50000000000000000F5F5F5F5F5F500000000000000000000000000000000000000000000000000000000000000000000000000F500000000000000000000000000000000000000000000000000000000000000000000000000000000000000000000000000000000000000
310
0000000000000000000000000000000000000000000000000000000000000000000000000000000000000000000000000000000000000000000000000000000000000000000000000000000000000000000000000000000000000000F500000000000000000000000000000000000000000000000000000000000000000000
310
0000F5F5F5F5F5F5F5F5F5F5F5F5F5F5F5F5F5F5F500F500000000000000000000F5000000000000000000F50000F5F500F500F5F5F500F50000000000000000000000000000000000F50000000000000000000000000000000000000000000000000000000000000000000000000000000000000000000000000000000000
310
00000000000000000000000000000000000000000000000000000000000000000000000000000000000000000000000000000000000000000000000000000000000000000000000000000000000000000000000000000000000000000000F50000000000000000000000000000000000000000000000000000000000000000
310
00000000F50000F500F5000000000000000000000000F500F500000000000000000000F5000000000000000000F5F5F5F5F500F5F5F5F5F5F5F50000000000000000000000000000000000F5000000000000000000000000000000000000000000000000000000000000000000000000000000000000000000000000000000
310
000000000000000000000000000000000000000000000000000000000000000000000000000000000000000000000000000000000000000000000000000000000000000000000000000000000000000000000000000000000000000000000000F500000000000000000000000000000000000000F5F5F5F5F5F5F500F5F5F5
310
F50000000000F50000F500F5000000000000000000000000F50000F5000000000000000000F5000000000000000000F5F5F5F5F5F500F5F5F5F5F5000000000000000000000000000000000000F500000000000000000000000000000000000000000000000000000000000000000000000000000000000000000000000000
310
0000000000000000000000000000000000000000000000000000000000000000000000000000000000000000000000000000000000000000000000000000000000000000000000000000000000000000000000000000000000000000000000000000F500000000000000000000000000000000000000F50000F5F5F5F5F5F5
310
F5F5F500000000F5000000F500F5000000000000000000000000F50000F5000000000000000000F500000000000000000000F5000000F5F5F5F5F5F5F5F500000000F5F5F500000000000000000000F50000000000000000000000000000000000000000000000000000000000000000000000000000000000000000000000
310
00000000000000000000000000000000000000000000000000000000000000000000000000000000000000000000000000000000000000000000000000000000000000000000000000000000000000000000000000000000000000000000000000000000F500000000000000000000000000000000000000F5F5F5F5F500F5
310
F5F5F5F5F5F5F5F5F5F5000000F500F5000000000000000000000000F5000000F5F5F5F5F5F5F5F5F5F5F5F5F5F5F5F5F5F5F5F5F5F50000F5F5F5F5F500F5F5F50000F500F500F5000000000000000000F5000000000000000000000000000000000000000000000000000000000000000000000000000000000000000000
310
000000000000000000000000000000000000000000000000000000000000000000000000000000000000000000000000000000000000000000000000000000000000000000000000000000000000000000000000000000000000000000000000000000000000F50000000000000000000000000000000000000000F5F5F5F5
310
00F500F5F5F5F50000000000000000F500F5000000000000000000000000F5000000000000000000000000F5000000000000000000F5F5F50000F500F500F5F5F5F5F50000F5F5F500F5000000000000000000F500000000000000000000000000000000000000000000000000000000000000000000000000000000000000
310
0000000000000000000000000000000000000000000000000000000000000000000000000000000000000000000000000000000000000000000000000000000000000000000000000000000000000000000000000000000000000000000000000000000000000000F500000000000000000000000000000000000000000000
310
0000000000000000000000000000000000F500F5000000000000000000000000F5000000000000000000000000F50000000000000000000000F50000F50000F5F5F5F5F500000000F5F5F500000000000000000000F50000000000000000000000000000000000000000000000000000000000000000000000000000000000
310
00000000000000000000000000000000000000000000000000000000000000000000000000000000000000000000000000000000000000000000000000000000000000000000000000000000000000000000000000000000000000000000000000000000000000000000F50000000000000000000000000000000000000000
310
00000000000000000000000000000000000000F500F5000000000000000000000000F5000000000000000000000000F5000000000000000000000000000000000000000000000000000000000000000000000000000000F5000000000000000000000000000000000000000000000000000000000000000000000000000000
310
000000000000000000000000000000000000000000000000000000000000000000000000000000000000000000000000000000000000000000000000000000000000000000000000000000000000000000000000000000000000000000000000000000000000000000000000F5000000000000000000000000000000000000
310
000000000000000000000000000000000000000000F500F5000000000000000000000000F5000000000000000000000000F50000000000000000F5F5F5F5F5F5F5F5F5F5F5F500000000000000000000000000000000000000F500000000000000000000000000000000000000000000000000000000000000000000000000
310
0000000000000000000000000000000000000000000000000000000000000000000000000000000000000000000000000000000000000000000000000000000000000000000000000000000000000000000000000000000000000000000000000000000000000000000000000000F500000000000000000000000000000000
310
0000000000000000000000000000000000000000000000F500F5000000000000000000000000F500F5F5F5F5F5F5F5F5F5F5F5F5F5F5F5F5F5F5F5F5F5F5F5F5F5F5F5F5F5F5F5F500000000000000000000000000000000000000F50000000000000000000000000000000000000000000000000000000000000000000000
310
00000000000000000000000000000000000000000000000000000000000000000000000000000000000000000000000000000000000000000000000000000000000000000000000000000000000000000000000000000000000000000000000000000000000000000000000000000000F50000000000000000000000000000
310
00000000000000000000000000000000000000000000000000F500F5000000000000000000000000F500F50000000000F500000000F50000000000000000F5F5F5F5F5F5F5F5F5F5F5F500000000000000000000000000000000000000F5000000000000000000000000000000000000000000000000000000000000000000
310
000000000000000000000000000000000000000000000000000000000000000000000000000000000000000000000000000000000000000000000000000000000000000000000000000000000000000000000000000000000000000000000000000000000000000000000000000000000000F5000000000000000000000000
310
000000000000000000000000000000000000000000000000000000F500F5000000000000000000000000F500F50000000000F500000000F5000000000000000000000000000000000000000000000000000000000000000000000000000000F500000000000000000000000000000000000000000000000000000000000000
310
0000000000000000000000000000000000000000000000000000000000000000000000000000000000000000000000000000000000000000000000000000000000000000000000000000000000000000000000000000000000000000000000000000000000000000000000000000000000000000F500000000000000000000
310
0000000000000000000000000000000000000000000000000000000000F500F5000000000000000000000000F500F50000000000F500000000F5000000000000000000000000000000000000000000000000000000000000000000000000000000F50000000000000000000000000000000000000000000000000000000000
310
00000000000000000000000000000000000000000000000000000000000000000000000000000000000000000000000000000000000000000000000000000000000000000000000000000000000000000000000000000000000000000000000000000000000000000000000000000000000000000000F50000000000000000
310
00000000000000000000000000000000000000000000000000000000000000F500F5000000000000000000000000F500F50000000000F500000000F5000000000000000000000000000000000000000000000000000000000000000000000000000000F5000000000000000000000000000000000000000000000000000000
310
000000000000000000000000000000000000000000000000000000000000000000000000000000000000000000000000000000000000000000000000000000000000000000000000000000000000000000000000000000000000000000000000000000000000000000000000000000000000000000000000F5000000000000
310
000000000000000000000000000000000000000000000000000000000000000000F500F5000000000000000000000000F500F50000000000F500000000F5000000000000000000000000000000000000000000000000000000000000000000000000000000F500000000000000000000000000000000000000000000000000
310
0000000000000000000000000000000000000000000000000000000000000000000000000000000000000000000000000000000000000000000000000000000000000000000000000000000000000000000000000000000000000000000000000000000000000000000000000000000000000000000000000000F500000000
310
00000000000000000000000000F5F5F5F5F50000F5F5F5F5F5F5F5F500F5F500000000F5F5F5000000000000000000000000F500F50000000000F5000000F5F5000000000000000000000000000000000000000000000000000000000000000000000000000000F50000000000000000000000000000000000000000000000
310
00000000000000000000000000000000000000000000000000000000000000000000000000000000000000000000000000000000000000000000000000000000000000000000000000000000000000000000000000000000000000000000000000000000000000000000000000000000000000000000000000000000F50000
310
000000000000000000000000000000F5F5F5F5F50000F5F5F5F500F5F500F5F5F5F5F5F5F5F5F5F5000000000000000000000000F500F50000000000F5000000F5F50000000000000000F5F5F5F5F5F5F5F5F5F5F5F500000000000000000000000000000000000000F5000000000000000000000000000000000000000000
310
000000000000000000000000000000000000000000000000000000000000000000000000000000000000000000000000000000000000000000000000000000000000000000000000000000000000000000000000000000000000000000000000000000000000000000000000000000000000000000000000000000000000F5
310
000000000000000000000000000000000000F5F500F5000000F500F500F5F5F5F5F5F500000000F5F5F5000000000000000000000000F500F50000000000F5000000F5F5000000F5F5F5F5F5F5F5F5F5F500F5F5F5F5F5F500000000000000000000000000000000000000F500000000000000000000000000000000000000
310
00000000000000000000000000000000000000000000000000000000000000000000000000000000000000000000000000000000000000000000000000000000000000000000000000000000000000000000000000000000000000000000000000000000000000000000000000000000000000000000000000000000000000
310
00F5000000000000000000000000000000000000000000000000000000000000000000000000000000F5F5F5000000000000000000000000F500F50000000000F5000000F5F500F5F50000000000F5F5F5F5F5F5F5F5F5F5F5F500000000000000000000000000000000000000F50000000000000000000000000000000000
310
00000000000000000000000000000000000000000000000000000000000000000000000000000000000000000000000000000000000000000000000000000000000000000000000000000000000000000000000000000000000000000000000000000000000000000000000000000000000000000000000000000000000000
310
000000F5000000000000000000000000000000000000000000000000F5F5F5F5F5F500F5F5F5F500000000F5F5F5000000000000000000000000F500F5F5F5F5F5F5F5F5F5F5F5F5F50000000000000000F50000F5F5F5F5F5F5F50000000000000000000000000000000000000000F5000000000000000000000000000000
310
00000000000000000000000000000000000000000000000000000000000000000000000000000000000000000000000000000000000000000000000000000000000000000000000000000000000000000000000000000000000000000000000000000000000000000000000000000000000000000000000000000000000000
310
0000000000F5000000000000000000000000000000000000000000000000F5F5F5F50000F5F5F5F5F5F5F5F5F5F5F5F5F5F5F5F5F5F5F5F5F5F5F5F5F500F50000000000F5000000F5F50000000000000000F500F5F5F5F5F5F50000F50000000000000000000000000000000000000000F500000000000000000000000000
310
00000000000000000000000000000000000000000000000000000000000000000000000000000000000000000000000000000000000000000000000000000000000000000000000000000000000000000000000000000000000000000000000000000000000000000000000000000000000000000000000000000000000000
310
00000000000000F5000000000000000000000000000000000000000000000000F5F5F5F500F5F5F5F500F500000000F5F5F5F5F5F5F5F5F5F5F5F5F5F5F5F5F5F5F5F5F5F5F5F5F5F5F5F5F5F5F5F5F5F5F5F5F5F5F5F5F5F5F5F5F5F5F5F50000000000000000000000000000000000000000F50000000000000000000000
310
00000000000000000000000000000000000000000000000000000000000000000000000000000000000000000000000000000000000000000000000000000000000000000000000000000000000000000000000000000000000000000000000000000000000000000000000000000000000000000000000000000000000000
310
000000000000000000F5000000000000000000000000000000000000000000000000000000000000000000000000000000F500F5000000000000000000000000F500F50000000000F5000000F5F5000000000000000000F50000F500F5F5F500F50000000000000000000000000000000000000000F5000000000000000000
310
00000000000000000000000000000000000000000000000000000000000000000000000000000000000000000000000000000000000000000000000000000000000000000000000000000000000000000000000000000000000000000000000000000000000000000000000000000000000000000000000000000000000000
310
0000000000000000000000F50000000000000000000000000000000000000000000000000000000000000000000000000000F50000F5000000000000000000000000F500F50000000000F5000000F5F5000000000000000000000000000000000000000000000000000000000000000000000000000000F500000000000000
310
00000000000000000000000000000000000000000000000000000000000000000000000000000000000000000000000000000000000000000000000000000000000000000000000000000000000000000000000000000000000000000000000000000000000000000000000000000000000000000000000000000000000000
310
00000000000000000000000000F50000000000000000000000000000000000000000000000000000000000000000000000000000F50000F5000000000000000000000000F50000F500000000F5000000F5F500F5F5000000000000000000000000000000000000000000000000000000000000000000000000F50000000000
310
00000000000000000000000000000000000000000000000000000000000000000000000000000000000000000000000000000000000000000000000000000000000000000000000000000000000000000000000000000000000000000000000000000000000000000000000000000000000000000000000000000000000000
310
000000000000000000000000000000F500000000000000000000000000000000000000000000000000000000000000000000000000F5000000F5000000000000000000000000F5000000F5000000F5000000F5F5F500F5000000000000000000000000000000000000000000000000000000000000000000000000F5000000
310
00000000000000000000000000000000000000000000000000000000000000000000000000000000000000000000000000000000000000000000000000000000000000000000000000000000000000000000000000000000000000000000000000000000000000000000000000000000000000000000000000000000000000
310
0000000000000000000000000000000000F500000000000000000000000000000000000000000000000000000000000000000000000000F5000000F5000000000000000000000000F5000000F5000000F5000000F5000000F5000000000000000000000000000000000000000000000000000000000000000000000000F500
310
00000000000000000000000000000000000000000000000000000000000000000000000000000000000000000000000000000000000000000000000000000000000000000000000000000000000000000000000000000000000000000000000000000000000000000000000000000000000000000000000000000000000000
310
00000000000000000000000000000000000000F500000000000000000000000000000000000000000000000000000000000000000000000000F5000000F5000000000000000000000000F5000000F5000000F5000000F5000000F5000000000000000000000000000000000000000000000000000000000000000000000000
310
F5000000000000000000000000000000000000000000000000000000000000000000000000000000000000000000000000000000000000000000000000000000000000000000000000000000000000000000000000000000000000000000000000000000000000000000000000000000000000000000000000000000000000
310
000000000000000000000000000000000000000000F500000000000000000000000000000000000000000000000000000000000000000000000000F5000000F5000000000000000000000000F5000000F5000000F5000000F5000000F500000000000000000000000000000000000000000000000000000000000000000000
310
0000F500000000000000000000000000000000000000000000000000000000000000000000000000000000000000000000000000000000000000000000000000000000000000000000000000000000000000000000000000000000000000000000000000000000000000000000000000000000000000000000000000000000
310
0000000000000000000000000000000000000000000000F500000000000000000000000000000000000000000000000000000000000000000000000000F5000000F5000000000000000000000000F5000000F5000000F5000000F500F5F5F5F500000000000000000000000000000000000000000000000000000000000000
310
00000000F50000000000000000000000000000000000000000000000000000000000000000000000000000000000000000000000000000000000000000000000000000000000000000000000000000000000000000000000000000000000000000000000000000000000000000000000000000000000000000000000000000
310
00000000000000000000000000000000000000000000000000F50000000000000000000000000000000000000000000000000000000000000000000000000000000000000000000000000000000000000000000000000000000000F500F500F5F5F50000000000000000000000000000000000000000000000000000000000
310
000000000000F5000000000000000000000000000000000000000000000000000000000000000000000000000000000000000000000000000000000000000000000000000000000000000000000000000000000000000000000000000000000000000000000000000000000000000000000000000000000000000000000000
310
000000000000000000000000000000000000000000000000000000F5000000000000000000000000000000000000000000000000000000000000000000000000F5F5F5F5F5F5F500000000000000000000F5F5F500F500F500F5F5F5F5F5F5F5F500F5F5000000000000000000000000000000000000000000000000000000
310
0000000000000000F500000000000000000000000000000000000000000000000000000000000000000000000000000000000000000000000000000000000000000000000000000000000000000000000000000000000000000000000000000000000000000000000000000000000000000000000000000000000000000000
310
0000000000000000000000000000000000000000000000000000000000F5000000000000000000000000000000000000000000000000000000000000000000000000F5F5F500F5F5F500000000000000000000F5F5F500F5F50000F5F5F5F5F5F5F5F5F5F5F500000000000000000000000000000000000000000000000000
310
00000000000000000000F50000000000000000000000000000000000000000000000000000000000000000000000000000000000000000000000000000000000000000000000000000000000000000000000000000000000000000000000000000000000000000000000000000000000000000000000000000000000000000
310
00000000000000000000000000000000000000000000000000000000000000F5000000000000000000000000000000000000000000000000000000000000000000000000F500F5F5F5F500000000000000000000000000F50000F5F500F5F5F5F50000F500F5F5F50000000000000000000000000000000000000000000000
310
000000000000000000000000F5000000000000000000000000000000000000000000000000000000000000000000000000000000000000000000000000000000000000000000000000000000000000000000000000000000000000000000000000000000000000000000000000000000000000000000000000000000000000
310
000000000000000000000000000000000000000000000000000000000000000000F5000000000000000000000000000000000000000000000000000000000000000000000000F5F5F5F5F500F500000000000000000000F5F5F50000F500000000F5F5F5F5F5F500F5F5000000000000000000000000000000000000000000
310
0000000000000000000000000000F500000000000000000000000000000000000000000000000000000000000000000000000000000000000000000000000000000000000000000000000000000000000000000000000000000000000000000000000000000000000000000000000000000000000000000000000000000000
310
0000000000000000000000000000000000000000000000000000000000000000000000F5000000000000000000000000000000000000000000000000000000000000000000000000F5F5F5F5F5F50000000000000000000000F5F5F500F5F5F500F5F5F5F5F5F5F5F5F5F5F500000000000000000000000000000000000000
310
00000000000000000000000000000000F50000000000000000000000000000000000000000000000000000000000000000000000000000000000000000000000000000000000000000000000000000000000000000000000000000000000000000000000000000000000000000000000000000000000000000000000000000
310
00000000000000000000000000000000000000000000000000000000000000000000000000F5000000000000000000000000000000000000000000000000000000000000000000000000F5F5F5F500F5F500000000000000000000F5F5F50000F50000F5F500F5F5F5F5F500F5F50000000000000000000000000000000000
310
000000000000000000000000000000000000F5000000000000000000000000000000000000000000000000000000000000000000000000000000000000000000000000000000000000000000000000000000000000000000000000000000000000000000000000000000000000000000000000000000000000000000000000
310
000000000000000000000000000000000000000000000000000000000000000000000000000000F5000000000000000000000000000000000000000000000000000000000000000000000000F5F5F5F5F5F50000000000000000000000F5F5F500F5F5F500F500F5F5F5F5F5F5F50000000000000000000000000000000000
310
0000000000000000000000000000000000000000F500000000000000000000000000000000000000000000000000000000000000000000000000000000000000000000000000000000000000000000000000000000000000000000000000000000000000000000000000000000000000000000000000000000000000000000
310
0000000000000000000000000000000000000000000000000000000000000000000000000000000000F50000000000000000000000000000000000000000000000000000000000000000000000000000F5F500F5F500000000000000000000F5F5F500F5F5F500F5F50000F5F5F5F5F5F5F500000000000000000000000000
310
00000000000000000000000000000000000000000000F50000000000000000000000000000000000000000000000000000000000000000000000000000000000000000000000000000000000000000000000000000000000000000000000000000000000000000000000000000000000000000000000000000000000000000
310
00000000000000000000000000000000000000000000000000000000000000000000000000000000000000F5000000000000000000000000000000000000000000000000000000000000000000000000F5F5F5F5F5000000000000000000000000F5F5F500F5F5F50000F5F50000F500F5F5F5F50000000000000000000000
310
000000000000000000000000000000000000000000000000F5000000000000000000000000000000000000000000000000000000000000000000000000000000000000000000000000000000000000000000000000000000000000000000000000000000000000000000000000000000000000000000000000000000000000
310
000000000000000000000000000000000000000000000000000000000000000000000000000000000000000000F50000000000000000000000000000000000000000000000000000000000000000000000000000000000000000000000000000000000F5F5F50000000000F5F500F5F5F5F500000000000000000000000000
310
0000000000000000000000000000000000000000000000000000F500000000000000000000000000000000000000000000000000000000000000000000000000000000000000000000000000000000000000000000000000000000000000000000000000000000000000000000000000000000000000000000000000000000
310
0000000000000000000000000000000000000000000000000000000000000000000000000000000000000000000000F50000000000000000000000000000000000000000000000000000000000000000000000000000000000000000000000000000000000000000000000000000F5F5000000000000000000000000000000
310
00000000000000000000000000000000000000000000000000000000F50000000000000000000000000000000000000000000000000000000000000000000000000000000000000000000000000000000000000000000000000000000000000000000000000000000000000000000000000000000000000000000000000000
310
00000000000000000000000000000000000000000000000000000000000000000000000000000000000000000000000000F50000000000000000000000000000000000000000000000000000000000000000000000000000000000000000000000000000000000000000000000000000000000000000000000000000000000
310
000000000000000000000000000000000000000000000000000000000000F5000000000000000000000000000000000000000000000000000000000000000000000000000000000000000000000000000000000000000000000000000000000000000000000000000000000000000000000000000000000000000000000000
310
000000000000000000000000000000000000000000000000000000000000000000000000000000000000000000000000000000F5000000000000000000000000000000000000000000000000000000000000000000000000F5F5F5F5F5F500F5F5F5F500F5000000F5F5F5F5F500F5F5F5F5F5F5F5F5F5F500000000000000
310
0000000000000000000000000000000000000000000000000000000000000000F500000000000000000000000000000000000000000000000000000000000000000000000000000000000000000000000000000000000000000000000000000000000000000000000000000000000000000000000000000000000000000000
310
0000000000000000000000000000000000000000000000000000000000000000000000000000000000000000000000000000000000F5000000000000000000000000000000000000000000000000000000000000000000000000F500F500F5F500F5F5F5F500F5000000F5F5F5F5F5F5F5F5F5F5F5F5F5F5F5F50000000000
310
00000000000000000000000000000000000000000000000000000000000000000000F50000000000000000000000000000000000000000000000000000000000000000000000000000000000000000000000000000000000000000000000000000000000000000000000000000000000000000000000000000000000000000
310
00000000000000000000000000000000000000000000000000000000000000000000000000000000000000000000000000000000000000F5000000000000000000000000000000000000000000000000000000000000000000000000F5F5F500F5F5F5F5F5F5F5F5F5F50000F5F5F5F500F5F50000F5F5F5F5F5F5F5000000
310
000000000000000000000000000000000000000000000000000000000000000000000000F5000000000000000000000000000000000000000000000000000000000000000000000000000000000000000000000000000000000000000000000000000000000000000000000000000000000000000000000000000000000000
310
000000000000000000000000000000000000000000000000000000000000000000000000000000000000000000000000000000000000000000F5000000000000000000000000000000000000000000000000000000000000000000000000000000000000000000000000000000000000000000000000000000000000000000
310
0000000000000000000000000000000000000000000000000000000000000000000000000000F500000000000000000000000000000000000000000000000000000000000000000000000000000000000000000000000000000000000000000000000000000000000000000000000000000000000000000000000000000000
310
0000000000000000000000000000000000000000000000000000000000000000000000000000000000000000000000000000000000000000000000F500000000000000000000000000000000000000000000000000000000000000000000000000000000000000000000F5F5F5F5F500F500F500F5F5F50000000000000000
310
00000000000000000000000000000000000000000000000000000000000000000000000000000000F50000000000000000000000000000000000000000000000000000000000000000000000000000000000000000000000000000000000000000000000000000000000000000000000000000000000000000000000000000
310
00000000000000000000000000000000000000000000000000000000000000000000000000000000000000000000000000000000000000000000000000F5000000000000000000000000000000000000000000000000000000000000000000000000000000000000000000F5F5F5F5F5F500F5F5F5F5F50000000000000000
310
000000000000000000000000000000000000000000000000000000000000000000000000000000000000F5000000000000000000000000000000000000000000000000000000000000000000000000000000000000000000000000000000000000000000000000000000000000000000000000000000000000000000000000
310
000000000000000000000000000000000000000000000000000000000000000000000000000000000000000000000000000000000000000000000000000000F500000000000000000000000000000000000000000000000000000000000000000000000000000000000000000000F5F5F5F5F5F500F500F5F5F5F500000000
310
0000000000000000000000000000000000000000000000000000000000000000000000000000000000000000F500000000000000000000000000000000000000000000000000000000000000000000000000000000000000000000000000000000000000000000000000000000000000000000000000000000000000000000
310
0000000000000000000000000000000000000000000000000000000000000000000000000000000000000000000000000000000000000000000000000000000000F50000000000000000000000000000000000000000000000000000000000000000000000000000000000000000F5F5F5F5F5F5F5F5F5F5F50000F500F5F5
310
00000000000000000000000000000000000000000000000000000000000000000000000000000000000000000000F50000000000000000000000000000000000000000000000000000000000000000000000000000000000000000000000000000000000000000000000000000000000000000000000000000000000000000
310
00000000000000000000000000000000000000000000000000000000000000000000000000000000000000000000000000000000000000000000000000000000000000F50000000000000000000000000000000000000000000000000000000000000000000000000000000000000000F5F5F5F5F5F5F5F5F5F5F5F500F500
310
F5F500000000000000000000000000000000000000000000000000000000000000000000000000000000000000000000F5000000000000000000000000000000000000000000000000000000000000000000000000000000000000000000000000000000000000000000000000000000000000000000000000000000000000
310
000000000000000000000000000000000000000000000000000000000000000000000000000000000000000000000000000000000000000000000000000000000000000000F50000000000000000000000000000000000000000000000000000000000000000000000000000000000000000F5F500F5F5F5F5F5F5F5F5F5F5
310
00F5F5F500000000000000000000000000000000000000000000000000000000000000000000000000000000000000000000F500000000000000000000000000000000000000000000000000000000000000000000000000000000000000000000000000000000000000000000000000000000000000000000000000000000
310
0000000000000000000000000000000000000000000000000000000000000000000000000000000000000000000000000000000000000000000000000000000000000000000000F50000000000000000000000000000000000000000000000000000000000000000000000000000000000000000F5F5F5F5F5F5F5F5F5F5F5
310
00F500F5F5F500000000000000000000000000000000000000000000000000000000000000000000000000000000000000000000F50000000000000000000000000000000000000000000000000000000000000000000000000000000000000000000000000000000000000000000000000000000000000000000000000000
310
00000000000000000000000000000000000000000000000000000000000000000000000000000000000000000000000000000000000000000000000000000000000000000000000000F50000000000000000000000000000000000000000000000000000000000000000000000000000000000000000F500F5F5F5F5F5F5F5
310
F5F5F500F500F5F500000000000000000000000000000000000000000000000000000000000000000000000000000000000000000000F5000000000000000000000000000000000000000000000000000000000000000000000000000000000000000000000000000000000000000000000000000000000000000000000000
310
000000000000000000000000000000000000000000000000000000000000000000000000000000000000000000000000000000000000000000000000000000000000000000000000000000F50000000000000000000000000000000000000000000000000000000000000000000000000000000000000000F5F5F5F500F5F5
310
F5F5F5F5F500F5F5F5F500000000000000000000000000000000000000000000000000000000000000000000000000000000000000000000F500000000000000000000000000000000000000000000000000000000000000000000000000000000000000000000000000000000000000000000000000000000000000000000
310
0000000000000000000000000000000000000000000000000000000000000000000000000000000000000000000000000000000000000000000000000000000000000000000000000000000000F50000000000000000000000000000000000000000000000000000000000000000000000000000000000000000F5F5F5F5F5
310
F5F5F5F5F5F5F5F500F5F5F500000000000000000000000000000000000000000000000000000000000000000000000000000000000000000000F50000000000000000000000000000000000000000000000000000000000000000000000000000000000000000000000000000000000000000000000000000000000000000
310
00000000000000000000000000000000000000000000000000000000000000000000000000000000000000000000000000000000000000000000000000000000000000000000000000000000000000F50000000000000000000000000000000000000000000000000000000000000000000000000000000000000000000000
310
000000000000000000000000000000000000000000000000000000000000000000000000000000000000000000000000000000000000000000000000F5000000000000000000000000000000000000000000000000000000000000000000000000000000000000000000000000000000000000000000000000000000000000
310
000000000000000000000000000000000000000000000000000000000000000000000000000000000000000000000000000000000000000000000000000000000000000000000000000000000000000000F50000000000000000000000000000000000000000000000000000000000000000000000000000000000000000F5
310
F5F5F500F5F5F5F5F5F5F500F500F5F500000000000000000000000000000000000000000000000000000000000000000000000000000000000000000000F500000000000000000000000000000000000000000000000000000000000000000000000000000000000000000000000000000000000000000000000000000000
310
0000000000000000000000000000000000000000000000000000000000000000000000000000000000000000000000000000000000000000000000000000000000000000000000000000000000000000000000F500000000000000000000000000000000000000000000000000000000000000000000000000000000000000
310
00F5F5F5F5F5F5F5F5F5F5F5F500F5F500F500000000000000000000000000000000000000000000000000000000000000000000000000000000000000000000F50000000000000000000000000000000000000000000000000000000000000000000000000000000000000000000000000000000000000000000000000000
310
00000000000000000000000000000000000000000000000000000000000000000000000000000000000000000000000000000000000000000000000000000000000000000000000000000000000000000000000000F50000000000000000000000000000000000000000000000000000000000000000000000000000000000
310
000000F5F5F5F500F5F5F5F5F5F5F5F500F5F5F500000000000000000000000000000000000000000000000000000000000000000000000000000000000000000000F5000000000000000000000000000000000000000000000000000000000000000000000000000000000000000000000000000000000000000000000000
310
000000000000000000000000000000000000000000000000000000000000000000000000000000000000000000000000000000000000000000000000000000000000000000000000000000000000000000000000000000F5000000000000000000000000000000000000000000000000000000000000000000000000000000
310
0000000000F5F5F5F5F5F5F5F5F5F5F50000F500F5F500000000000000000000000000000000000000000000000000000000000000000000000000000000000000000000F500000000000000000000000000000000000000000000000000000000000000000000000000000000000000000000000000000000000000000000
310
0000000000000000000000000000000000000000000000000000000000000000000000000000000000000000000000000000000000000000000000000000000000000000000000000000000000000000000000000000000000F500000000000000000000000000000000000000000000000000000000000000000000000000
310
00000000000000F5F5F5F5F5F5F5F5F5F5F5F500F500F5F500000000000000000000000000000000000000000000000000000000000000000000000000000000000000000000F50000000000000000000000000000000000000000000000000000000000000000000000000000000000000000000000000000000000000000
310
00000000000000000000000000000000000000000000000000000000000000000000000000000000000000000000000000000000000000000000000000000000000000000000000000000000000000000000000000000000000000F50000000000000000000000000000000000000000000000000000000000000000000000
310
000000000000000000F5F500F5F5F5F5F5F5F5F5F5F500F5F5F500000000000000000000000000000000000000000000000000000000000000000000000000000000000000000000F5000000000000000000000000000000000000000000000000000000000000000000000000000000000000000000000000000000000000
310
00000000000000000000000000000000000000000000000000000000000000000000
  0
XRECORD
  5
B82
102
{ACAD_REACTORS
330
B80
102
}
330
B80
100
AcDbXrecord
280
     1
270
     1
271
     1
  0
XRECORD
  5
B81
102
{ACAD_REACTORS
330
B80
102
}
330
B80
100
AcDbXrecord
280
     1
270
     1
271
     1
  0
XRECORD
  5
B85
102
{ACAD_REACTORS
330
B80
102
}
330
B80
100
AcDbXrecord
280
     1
270
     1
271
     1
  0
XRECORD
  5
B84
102
{ACAD_REACTORS
330
B80
102
}
330
B80
100
AcDbXrecord
280
     1
270
     1
271
     1
  0
XRECORD
  5
B86
102
{ACAD_REACTORS
330
B80
102
}
330
B80
100
AcDbXrecord
280
     1
270
     1
271
     1
  0
XRECORD
  5
B83
102
{ACAD_REACTORS
330
B80
102
}
330
B80
100
AcDbXrecord
280
     1
270
     1
271
     1
  0
XRECORD
  5
B7A
102
{ACAD_REACTORS
330
B78
102
}
330
B78
100
AcDbXrecord
280
     1
270
     1
271
     1
  0
XRECORD
  5
B79
102
{ACAD_REACTORS
330
B78
102
}
330
B78
100
AcDbXrecord
280
     1
270
     1
271
     1
  0
XRECORD
  5
B7D
102
{ACAD_REACTORS
330
B78
102
}
330
B78
100
AcDbXrecord
280
     1
270
     1
271
     1
  0
XRECORD
  5
B7C
102
{ACAD_REACTORS
330
B78
102
}
330
B78
100
AcDbXrecord
280
     1
270
     1
271
     1
  0
XRECORD
  5
B7E
102
{ACAD_REACTORS
330
B78
102
}
330
B78
100
AcDbXrecord
280
     1
270
     1
271
     1
  0
XRECORD
  5
B7B
102
{ACAD_REACTORS
330
B78
102
}
330
B78
100
AcDbXrecord
280
     1
270
     1
271
     1
  0
XRECORD
  5
B8A
102
{ACAD_REACTORS
330
B88
102
}
330
B88
100
AcDbXrecord
280
     1
270
     1
271
     1
  0
XRECORD
  5
B89
102
{ACAD_REACTORS
330
B88
102
}
330
B88
100
AcDbXrecord
280
     1
270
     1
271
     1
  0
XRECORD
  5
B8D
102
{ACAD_REACTORS
330
B88
102
}
330
B88
100
AcDbXrecord
280
     1
270
     1
271
     1
  0
XRECORD
  5
B8C
102
{ACAD_REACTORS
330
B88
102
}
330
B88
100
AcDbXrecord
280
     1
270
     1
271
     1
  0
XRECORD
  5
B8E
102
{ACAD_REACTORS
330
B88
102
}
330
B88
100
AcDbXrecord
280
     1
270
     1
271
     1
  0
XRECORD
  5
B8B
102
{ACAD_REACTORS
330
B88
102
}
330
B88
100
AcDbXrecord
280
     1
270
     1
271
     1
  0
XRECORD
  5
F33
102
{ACAD_REACTORS
330
F32
102
}
330
F32
100
AcDbXrecord
280
     1
102
DISPLAYNAME
  1
Imperial24
102
FLAGS
 90
        0
  0
CELLSTYLEMAP
  5
EFF
102
{ACAD_REACTORS
330
CFD
102
}
330
CFD
100
AcDbCellStyleMap
 90
        3
300
CELLSTYLE
  1
TABLEFORMAT_BEGIN
 90
        5
170
     1
 91
        0
 92
    32768
 62
   257
 93
        1
300
CONTENTFORMAT
  1
CONTENTFORMAT_BEGIN
 90
        0
 91
        0
 92
      512
 93
        0
300

 40
0.0
140
1.0
 94
        5
 62
     0
340
11
144
0.25
309
CONTENTFORMAT_END
171
     0
 94
        0
309
TABLEFORMAT_END
  1
CELLSTYLE_BEGIN
 90
        1
 91
        1
300
_TITLE
309
CELLSTYLE_END
300
CELLSTYLE
  1
TABLEFORMAT_BEGIN
 90
        5
170
     1
 91
        0
 92
        0
 62
   257
 93
        1
300
CONTENTFORMAT
  1
CONTENTFORMAT_BEGIN
 90
        0
 91
        0
 92
      512
 93
        0
300

 40
0.0
140
1.0
 94
        5
 62
     0
340
11
144
0.18
309
CONTENTFORMAT_END
171
     0
 94
        0
309
TABLEFORMAT_END
  1
CELLSTYLE_BEGIN
 90
        2
 91
        1
300
_HEADER
309
CELLSTYLE_END
300
CELLSTYLE
  1
TABLEFORMAT_BEGIN
 90
        5
170
     1
 91
        0
 92
        0
 62
   257
 93
        1
300
CONTENTFORMAT
  1
CONTENTFORMAT_BEGIN
 90
        0
 91
        0
 92
      512
 93
        0
300

 40
0.0
140
1.0
 94
        2
 62
     0
340
11
144
0.18
309
CONTENTFORMAT_END
171
     0
 94
        0
309
TABLEFORMAT_END
  1
CELLSTYLE_BEGIN
 90
        3
 91
        2
300
_DATA
309
CELLSTYLE_END
  0
XRECORD
  5
F0D
102
{ACAD_REACTORS
330
F0C
102
}
330
F0C
100
AcDbXrecord
280
     1
102
RTVSPost2010Prop28
280
     1
102
RTVSPost2010PropOp28
 70
     1
102
RTVSPost2010Prop29
280
     1
102
RTVSPost2010PropOp29
 70
     1
102
RTVSPost2010Prop30
280
     0
102
RTVSPost2010PropOp30
 70
     1
102
RTVSPost2010Prop31
280
     0
102
RTVSPost2010PropOp31
 70
     1
102
RTVSPost2010Prop32
280
     0
102
RTVSPost2010PropOp32
 70
     1
102
RTVSPost2010Prop33
280
     0
102
RTVSPost2010PropOp33
 70
     1
102
RTVSPost2010Prop34
280
     0
102
RTVSPost2010PropOp34
 70
     1
102
RTVSPost2010Prop35
280
     0
102
RTVSPost2010PropOp35
 70
     1
102
RTVSPost2010Prop36
280
     0
102
RTVSPost2010PropOp36
 70
     1
102
RTVSPost2010Prop37
 90
       50
102
RTVSPost2010PropOp37
 70
     1
102
RTVSPost2010Prop38
140
0.0
102
RTVSPost2010PropOp38
 70
     1
102
RTVSPost2010Prop39
140
1.0
102
RTVSPost2010PropOp39
 70
     1
102
RTVSPost2010Prop40
 90
        0
102
RTVSPost2010PropOp40
 70
     1
102
RTVSPost2010Prop41ColorIndex
 90
       18
102
RTVSPost2010Prop41ColorRGB
 90
        0
102
RTVSPost2010PropOp41
 70
     1
102
RTVSPost2010Prop42
 90
       50
102
RTVSPost2010PropOp42
 70
     1
102
RTVSPost2010Prop43
 90
        3
102
RTVSPost2010PropOp43
 70
     1
102
RTVSPost2010Prop44ColorIndex
 90
        5
102
RTVSPost2010Prop44ColorRGB
 90
      255
102
RTVSPost2010PropOp44
 70
     1
102
RTVSPost2010Prop45
280
     0
102
RTVSPost2010PropOp45
 70
     1
102
RTVSPost2010Prop46
 90
       50
102
RTVSPost2010PropOp46
 70
     1
102
RTVSPost2010Prop47
 90
       50
102
RTVSPost2010PropOp47
 70
     1
102
RTVSPost2010Prop48
 90
       50
102
RTVSPost2010PropOp48
 70
     1
102
RTVSPost2010Prop49
280
     0
102
RTVSPost2010PropOp49
 70
     1
102
RTVSPost2010Prop50
 90
       50
102
RTVSPost2010PropOp50
 70
     1
102
RTVSPost2010Prop51ColorIndex
 90
      256
102
RTVSPost2010Prop51ColorRGB
 90
-16777216
102
RTVSPost2010PropOp51
 70
     0
102
RTVSPost2010Prop52
140
1.0
102
RTVSPost2010PropOp52
 70
     0
102
RTVSPost2010Prop53
 90
        2
102
RTVSPost2010PropOp53
 70
     1
102
RTVSPost2010Prop54
  1
strokes_ogs.tif
102
RTVSPost2010PropOp54
 70
     1
102
RTVSPost2010Prop55
280
     0
102
RTVSPost2010PropOp55
 70
     1
102
RTVSPost2010Prop56
140
1.0
102
RTVSPost2010PropOp56
 70
     1
102
RTVSPost2010Prop57
140
1.0
102
RTVSPost2010PropOp57
 70
     1
  0
XRECORD
  5
F0B
102
{ACAD_REACTORS
330
F0A
102
}
330
F0A
100
AcDbXrecord
280
     1
102
RTVSPost2010Prop28
280
     0
102
RTVSPost2010PropOp28
 70
     1
102
RTVSPost2010Prop29
280
     1
102
RTVSPost2010PropOp29
 70
     1
102
RTVSPost2010Prop30
280
     1
102
RTVSPost2010PropOp30
 70
     1
102
RTVSPost2010Prop31
280
     0
102
RTVSPost2010PropOp31
 70
     1
102
RTVSPost2010Prop32
280
     0
102
RTVSPost2010PropOp32
 70
     1
102
RTVSPost2010Prop33
280
     0
102
RTVSPost2010PropOp33
 70
     1
102
RTVSPost2010Prop34
280
     0
102
RTVSPost2010PropOp34
 70
     1
102
RTVSPost2010Prop35
280
     0
102
RTVSPost2010PropOp35
 70
     1
102
RTVSPost2010Prop36
280
     0
102
RTVSPost2010PropOp36
 70
     1
102
RTVSPost2010Prop37
 90
       50
102
RTVSPost2010PropOp37
 70
     1
102
RTVSPost2010Prop38
140
0.0
102
RTVSPost2010PropOp38
 70
     1
102
RTVSPost2010Prop39
140
1.0
102
RTVSPost2010PropOp39
 70
     1
102
RTVSPost2010Prop40
 90
        0
102
RTVSPost2010PropOp40
 70
     1
102
RTVSPost2010Prop41ColorIndex
 90
       18
102
RTVSPost2010Prop41ColorRGB
 90
        0
102
RTVSPost2010PropOp41
 70
     1
102
RTVSPost2010Prop42
 90
       50
102
RTVSPost2010PropOp42
 70
     1
102
RTVSPost2010Prop43
 90
        3
102
RTVSPost2010PropOp43
 70
     1
102
RTVSPost2010Prop44ColorIndex
 90
        5
102
RTVSPost2010Prop44ColorRGB
 90
      255
102
RTVSPost2010PropOp44
 70
     1
102
RTVSPost2010Prop45
280
     0
102
RTVSPost2010PropOp45
 70
     1
102
RTVSPost2010Prop46
 90
       50
102
RTVSPost2010PropOp46
 70
     1
102
RTVSPost2010Prop47
 90
       50
102
RTVSPost2010PropOp47
 70
     1
102
RTVSPost2010Prop48
 90
       50
102
RTVSPost2010PropOp48
 70
     1
102
RTVSPost2010Prop49
280
     0
102
RTVSPost2010PropOp49
 70
     1
102
RTVSPost2010Prop50
 90
       50
102
RTVSPost2010PropOp50
 70
     1
102
RTVSPost2010Prop51ColorIndex
 90
      256
102
RTVSPost2010Prop51ColorRGB
 90
-16777216
102
RTVSPost2010PropOp51
 70
     0
102
RTVSPost2010Prop52
140
1.0
102
RTVSPost2010PropOp52
 70
     0
102
RTVSPost2010Prop53
 90
        2
102
RTVSPost2010PropOp53
 70
     1
102
RTVSPost2010Prop54
  1
strokes_ogs.tif
102
RTVSPost2010PropOp54
 70
     1
102
RTVSPost2010Prop55
280
     0
102
RTVSPost2010PropOp55
 70
     1
102
RTVSPost2010Prop56
140
1.0
102
RTVSPost2010PropOp56
 70
     1
102
RTVSPost2010Prop57
140
1.0
102
RTVSPost2010PropOp57
 70
     1
  0
XRECORD
  5
F19
102
{ACAD_REACTORS
330
F18
102
}
330
F18
100
AcDbXrecord
280
     1
102
RTVSPost2010Prop28
280
     0
102
RTVSPost2010PropOp28
 70
     1
102
RTVSPost2010Prop29
280
     1
102
RTVSPost2010PropOp29
 70
     1
102
RTVSPost2010Prop30
280
     1
102
RTVSPost2010PropOp30
 70
     1
102
RTVSPost2010Prop31
280
     0
102
RTVSPost2010PropOp31
 70
     1
102
RTVSPost2010Prop32
280
     0
102
RTVSPost2010PropOp32
 70
     1
102
RTVSPost2010Prop33
280
     0
102
RTVSPost2010PropOp33
 70
     1
102
RTVSPost2010Prop34
280
     0
102
RTVSPost2010PropOp34
 70
     1
102
RTVSPost2010Prop35
280
     0
102
RTVSPost2010PropOp35
 70
     1
102
RTVSPost2010Prop36
280
     0
102
RTVSPost2010PropOp36
 70
     1
102
RTVSPost2010Prop37
 90
       50
102
RTVSPost2010PropOp37
 70
     1
102
RTVSPost2010Prop38
140
0.0
102
RTVSPost2010PropOp38
 70
     1
102
RTVSPost2010Prop39
140
1.0
102
RTVSPost2010PropOp39
 70
     1
102
RTVSPost2010Prop40
 90
        0
102
RTVSPost2010PropOp40
 70
     1
102
RTVSPost2010Prop41ColorIndex
 90
       18
102
RTVSPost2010Prop41ColorRGB
 90
        0
102
RTVSPost2010PropOp41
 70
     1
102
RTVSPost2010Prop42
 90
       50
102
RTVSPost2010PropOp42
 70
     1
102
RTVSPost2010Prop43
 90
        3
102
RTVSPost2010PropOp43
 70
     1
102
RTVSPost2010Prop44ColorIndex
 90
        5
102
RTVSPost2010Prop44ColorRGB
 90
      255
102
RTVSPost2010PropOp44
 70
     1
102
RTVSPost2010Prop45
280
     0
102
RTVSPost2010PropOp45
 70
     1
102
RTVSPost2010Prop46
 90
       50
102
RTVSPost2010PropOp46
 70
     1
102
RTVSPost2010Prop47
 90
       50
102
RTVSPost2010PropOp47
 70
     1
102
RTVSPost2010Prop48
 90
       50
102
RTVSPost2010PropOp48
 70
     1
102
RTVSPost2010Prop49
280
     0
102
RTVSPost2010PropOp49
 70
     1
102
RTVSPost2010Prop50
 90
       50
102
RTVSPost2010PropOp50
 70
     1
102
RTVSPost2010Prop51ColorIndex
 90
      256
102
RTVSPost2010Prop51ColorRGB
 90
-16777216
102
RTVSPost2010PropOp51
 70
     0
102
RTVSPost2010Prop52
140
1.0
102
RTVSPost2010PropOp52
 70
     0
102
RTVSPost2010Prop53
 90
        2
102
RTVSPost2010PropOp53
 70
     1
102
RTVSPost2010Prop54
  1
strokes_ogs.tif
102
RTVSPost2010PropOp54
 70
     1
102
RTVSPost2010Prop55
280
     0
102
RTVSPost2010PropOp55
 70
     1
102
RTVSPost2010Prop56
140
1.0
102
RTVSPost2010PropOp56
 70
     1
102
RTVSPost2010Prop57
140
1.0
102
RTVSPost2010PropOp57
 70
     1
  0
XRECORD
  5
F21
102
{ACAD_REACTORS
330
F20
102
}
330
F20
100
AcDbXrecord
280
     1
102
RTVSPost2010Prop28
280
     0
102
RTVSPost2010PropOp28
 70
     1
102
RTVSPost2010Prop29
280
     1
102
RTVSPost2010PropOp29
 70
     1
102
RTVSPost2010Prop30
280
     1
102
RTVSPost2010PropOp30
 70
     1
102
RTVSPost2010Prop31
280
     0
102
RTVSPost2010PropOp31
 70
     1
102
RTVSPost2010Prop32
280
     0
102
RTVSPost2010PropOp32
 70
     1
102
RTVSPost2010Prop33
280
     0
102
RTVSPost2010PropOp33
 70
     1
102
RTVSPost2010Prop34
280
     0
102
RTVSPost2010PropOp34
 70
     1
102
RTVSPost2010Prop35
280
     0
102
RTVSPost2010PropOp35
 70
     1
102
RTVSPost2010Prop36
280
     0
102
RTVSPost2010PropOp36
 70
     1
102
RTVSPost2010Prop37
 90
       50
102
RTVSPost2010PropOp37
 70
     1
102
RTVSPost2010Prop38
140
0.0
102
RTVSPost2010PropOp38
 70
     1
102
RTVSPost2010Prop39
140
1.0
102
RTVSPost2010PropOp39
 70
     1
102
RTVSPost2010Prop40
 90
        0
102
RTVSPost2010PropOp40
 70
     1
102
RTVSPost2010Prop41ColorIndex
 90
       18
102
RTVSPost2010Prop41ColorRGB
 90
        0
102
RTVSPost2010PropOp41
 70
     1
102
RTVSPost2010Prop42
 90
       50
102
RTVSPost2010PropOp42
 70
     1
102
RTVSPost2010Prop43
 90
        3
102
RTVSPost2010PropOp43
 70
     1
102
RTVSPost2010Prop44ColorIndex
 90
        5
102
RTVSPost2010Prop44ColorRGB
 90
      255
102
RTVSPost2010PropOp44
 70
     1
102
RTVSPost2010Prop45
280
     0
102
RTVSPost2010PropOp45
 70
     1
102
RTVSPost2010Prop46
 90
       50
102
RTVSPost2010PropOp46
 70
     1
102
RTVSPost2010Prop47
 90
       50
102
RTVSPost2010PropOp47
 70
     1
102
RTVSPost2010Prop48
 90
       50
102
RTVSPost2010PropOp48
 70
     1
102
RTVSPost2010Prop49
280
     0
102
RTVSPost2010PropOp49
 70
     1
102
RTVSPost2010Prop50
 90
       50
102
RTVSPost2010PropOp50
 70
     1
102
RTVSPost2010Prop51ColorIndex
 90
      256
102
RTVSPost2010Prop51ColorRGB
 90
-16777216
102
RTVSPost2010PropOp51
 70
     0
102
RTVSPost2010Prop52
140
1.0
102
RTVSPost2010PropOp52
 70
     0
102
RTVSPost2010Prop53
 90
        2
102
RTVSPost2010PropOp53
 70
     1
102
RTVSPost2010Prop54
  1
strokes_ogs.tif
102
RTVSPost2010PropOp54
 70
     1
102
RTVSPost2010Prop55
280
     0
102
RTVSPost2010PropOp55
 70
     1
102
RTVSPost2010Prop56
140
1.0
102
RTVSPost2010PropOp56
 70
     1
102
RTVSPost2010Prop57
140
1.0
102
RTVSPost2010PropOp57
 70
     1
  0
XRECORD
  5
F13
102
{ACAD_REACTORS
330
F12
102
}
330
F12
100
AcDbXrecord
280
     1
102
RTVSPost2010Prop28
280
     0
102
RTVSPost2010PropOp28
 70
     1
102
RTVSPost2010Prop29
280
     1
102
RTVSPost2010PropOp29
 70
     1
102
RTVSPost2010Prop30
280
     1
102
RTVSPost2010PropOp30
 70
     1
102
RTVSPost2010Prop31
280
     0
102
RTVSPost2010PropOp31
 70
     1
102
RTVSPost2010Prop32
280
     0
102
RTVSPost2010PropOp32
 70
     1
102
RTVSPost2010Prop33
280
     0
102
RTVSPost2010PropOp33
 70
     1
102
RTVSPost2010Prop34
280
     0
102
RTVSPost2010PropOp34
 70
     1
102
RTVSPost2010Prop35
280
     0
102
RTVSPost2010PropOp35
 70
     1
102
RTVSPost2010Prop36
280
     0
102
RTVSPost2010PropOp36
 70
     1
102
RTVSPost2010Prop37
 90
       50
102
RTVSPost2010PropOp37
 70
     1
102
RTVSPost2010Prop38
140
0.0
102
RTVSPost2010PropOp38
 70
     1
102
RTVSPost2010Prop39
140
1.0
102
RTVSPost2010PropOp39
 70
     1
102
RTVSPost2010Prop40
 90
        0
102
RTVSPost2010PropOp40
 70
     1
102
RTVSPost2010Prop41ColorIndex
 90
       18
102
RTVSPost2010Prop41ColorRGB
 90
        0
102
RTVSPost2010PropOp41
 70
     1
102
RTVSPost2010Prop42
 90
       50
102
RTVSPost2010PropOp42
 70
     1
102
RTVSPost2010Prop43
 90
        3
102
RTVSPost2010PropOp43
 70
     1
102
RTVSPost2010Prop44ColorIndex
 90
        5
102
RTVSPost2010Prop44ColorRGB
 90
      255
102
RTVSPost2010PropOp44
 70
     1
102
RTVSPost2010Prop45
280
     0
102
RTVSPost2010PropOp45
 70
     1
102
RTVSPost2010Prop46
 90
       50
102
RTVSPost2010PropOp46
 70
     1
102
RTVSPost2010Prop47
 90
       50
102
RTVSPost2010PropOp47
 70
     1
102
RTVSPost2010Prop48
 90
       50
102
RTVSPost2010PropOp48
 70
     1
102
RTVSPost2010Prop49
280
     0
102
RTVSPost2010PropOp49
 70
     1
102
RTVSPost2010Prop50
 90
       50
102
RTVSPost2010PropOp50
 70
     1
102
RTVSPost2010Prop51ColorIndex
 90
      256
102
RTVSPost2010Prop51ColorRGB
 90
-16777216
102
RTVSPost2010PropOp51
 70
     0
102
RTVSPost2010Prop52
140
1.0
102
RTVSPost2010PropOp52
 70
     0
102
RTVSPost2010Prop53
 90
        2
102
RTVSPost2010PropOp53
 70
     1
102
RTVSPost2010Prop54
  1
strokes_ogs.tif
102
RTVSPost2010PropOp54
 70
     1
102
RTVSPost2010Prop55
280
     0
102
RTVSPost2010PropOp55
 70
     1
102
RTVSPost2010Prop56
140
1.0
102
RTVSPost2010PropOp56
 70
     1
102
RTVSPost2010Prop57
140
1.0
102
RTVSPost2010PropOp57
 70
     1
  0
XRECORD
  5
F17
102
{ACAD_REACTORS
330
F16
102
}
330
F16
100
AcDbXrecord
280
     1
102
RTVSPost2010Prop28
280
     0
102
RTVSPost2010PropOp28
 70
     1
102
RTVSPost2010Prop29
280
     1
102
RTVSPost2010PropOp29
 70
     1
102
RTVSPost2010Prop30
280
     1
102
RTVSPost2010PropOp30
 70
     1
102
RTVSPost2010Prop31
280
     0
102
RTVSPost2010PropOp31
 70
     1
102
RTVSPost2010Prop32
280
     0
102
RTVSPost2010PropOp32
 70
     1
102
RTVSPost2010Prop33
280
     0
102
RTVSPost2010PropOp33
 70
     1
102
RTVSPost2010Prop34
280
     0
102
RTVSPost2010PropOp34
 70
     1
102
RTVSPost2010Prop35
280
     0
102
RTVSPost2010PropOp35
 70
     1
102
RTVSPost2010Prop36
280
     0
102
RTVSPost2010PropOp36
 70
     1
102
RTVSPost2010Prop37
 90
       50
102
RTVSPost2010PropOp37
 70
     1
102
RTVSPost2010Prop38
140
0.0
102
RTVSPost2010PropOp38
 70
     1
102
RTVSPost2010Prop39
140
1.0
102
RTVSPost2010PropOp39
 70
     1
102
RTVSPost2010Prop40
 90
        0
102
RTVSPost2010PropOp40
 70
     1
102
RTVSPost2010Prop41ColorIndex
 90
       18
102
RTVSPost2010Prop41ColorRGB
 90
        0
102
RTVSPost2010PropOp41
 70
     1
102
RTVSPost2010Prop42
 90
       50
102
RTVSPost2010PropOp42
 70
     1
102
RTVSPost2010Prop43
 90
        3
102
RTVSPost2010PropOp43
 70
     1
102
RTVSPost2010Prop44ColorIndex
 90
        5
102
RTVSPost2010Prop44ColorRGB
 90
      255
102
RTVSPost2010PropOp44
 70
     1
102
RTVSPost2010Prop45
280
     0
102
RTVSPost2010PropOp45
 70
     1
102
RTVSPost2010Prop46
 90
       50
102
RTVSPost2010PropOp46
 70
     1
102
RTVSPost2010Prop47
 90
       50
102
RTVSPost2010PropOp47
 70
     1
102
RTVSPost2010Prop48
 90
       50
102
RTVSPost2010PropOp48
 70
     1
102
RTVSPost2010Prop49
280
     0
102
RTVSPost2010PropOp49
 70
     1
102
RTVSPost2010Prop50
 90
       50
102
RTVSPost2010PropOp50
 70
     1
102
RTVSPost2010Prop51ColorIndex
 90
      256
102
RTVSPost2010Prop51ColorRGB
 90
-16777216
102
RTVSPost2010PropOp51
 70
     0
102
RTVSPost2010Prop52
140
1.0
102
RTVSPost2010PropOp52
 70
     0
102
RTVSPost2010Prop53
 90
        2
102
RTVSPost2010PropOp53
 70
     1
102
RTVSPost2010Prop54
  1
strokes_ogs.tif
102
RTVSPost2010PropOp54
 70
     1
102
RTVSPost2010Prop55
280
     0
102
RTVSPost2010PropOp55
 70
     1
102
RTVSPost2010Prop56
140
1.0
102
RTVSPost2010PropOp56
 70
     1
102
RTVSPost2010Prop57
140
1.0
102
RTVSPost2010PropOp57
 70
     1
  0
XRECORD
  5
F31
102
{ACAD_REACTORS
330
F30
102
}
330
F30
100
AcDbXrecord
280
     1
102
RTVSPost2010Prop28
280
     0
102
RTVSPost2010PropOp28
 70
     1
102
RTVSPost2010Prop29
280
     1
102
RTVSPost2010PropOp29
 70
     1
102
RTVSPost2010Prop30
280
     1
102
RTVSPost2010PropOp30
 70
     1
102
RTVSPost2010Prop31
280
     0
102
RTVSPost2010PropOp31
 70
     1
102
RTVSPost2010Prop32
280
     0
102
RTVSPost2010PropOp32
 70
     1
102
RTVSPost2010Prop33
280
     0
102
RTVSPost2010PropOp33
 70
     1
102
RTVSPost2010Prop34
280
     0
102
RTVSPost2010PropOp34
 70
     1
102
RTVSPost2010Prop35
280
     0
102
RTVSPost2010PropOp35
 70
     1
102
RTVSPost2010Prop36
280
     0
102
RTVSPost2010PropOp36
 70
     1
102
RTVSPost2010Prop37
 90
       50
102
RTVSPost2010PropOp37
 70
     0
102
RTVSPost2010Prop38
140
0.0
102
RTVSPost2010PropOp38
 70
     0
102
RTVSPost2010Prop39
140
1.0
102
RTVSPost2010PropOp39
 70
     0
102
RTVSPost2010Prop40
 90
        0
102
RTVSPost2010PropOp40
 70
     0
102
RTVSPost2010Prop41ColorIndex
 90
       18
102
RTVSPost2010Prop41ColorRGB
 90
        0
102
RTVSPost2010PropOp41
 70
     0
102
RTVSPost2010Prop42
 90
       50
102
RTVSPost2010PropOp42
 70
     0
102
RTVSPost2010Prop43
 90
        3
102
RTVSPost2010PropOp43
 70
     0
102
RTVSPost2010Prop44ColorIndex
 90
        5
102
RTVSPost2010Prop44ColorRGB
 90
      255
102
RTVSPost2010PropOp44
 70
     0
102
RTVSPost2010Prop45
280
     0
102
RTVSPost2010PropOp45
 70
     1
102
RTVSPost2010Prop46
 90
       50
102
RTVSPost2010PropOp46
 70
     0
102
RTVSPost2010Prop47
 90
       50
102
RTVSPost2010PropOp47
 70
     0
102
RTVSPost2010Prop48
 90
       50
102
RTVSPost2010PropOp48
 70
     0
102
RTVSPost2010Prop49
280
     0
102
RTVSPost2010PropOp49
 70
     1
102
RTVSPost2010Prop50
 90
       50
102
RTVSPost2010PropOp50
 70
     0
102
RTVSPost2010Prop51ColorIndex
 90
      256
102
RTVSPost2010Prop51ColorRGB
 90
-16777216
102
RTVSPost2010PropOp51
 70
     0
102
RTVSPost2010Prop52
140
1.0
102
RTVSPost2010PropOp52
 70
     0
102
RTVSPost2010Prop53
 90
        2
102
RTVSPost2010PropOp53
 70
     0
102
RTVSPost2010Prop54
  1
strokes_ogs.tif
102
RTVSPost2010PropOp54
 70
     0
102
RTVSPost2010Prop55
280
     0
102
RTVSPost2010PropOp55
 70
     1
102
RTVSPost2010Prop56
140
1.0
102
RTVSPost2010PropOp56
 70
     0
102
RTVSPost2010Prop57
140
1.0
102
RTVSPost2010PropOp57
 70
     0
  0
XRECORD
  5
F1F
102
{ACAD_REACTORS
330
F1E
102
}
330
F1E
100
AcDbXrecord
280
     1
102
RTVSPost2010Prop28
280
     0
102
RTVSPost2010PropOp28
 70
     1
102
RTVSPost2010Prop29
280
     1
102
RTVSPost2010PropOp29
 70
     1
102
RTVSPost2010Prop30
280
     1
102
RTVSPost2010PropOp30
 70
     1
102
RTVSPost2010Prop31
280
     0
102
RTVSPost2010PropOp31
 70
     1
102
RTVSPost2010Prop32
280
     0
102
RTVSPost2010PropOp32
 70
     1
102
RTVSPost2010Prop33
280
     0
102
RTVSPost2010PropOp33
 70
     1
102
RTVSPost2010Prop34
280
     0
102
RTVSPost2010PropOp34
 70
     1
102
RTVSPost2010Prop35
280
     0
102
RTVSPost2010PropOp35
 70
     1
102
RTVSPost2010Prop36
280
     0
102
RTVSPost2010PropOp36
 70
     1
102
RTVSPost2010Prop37
 90
       50
102
RTVSPost2010PropOp37
 70
     1
102
RTVSPost2010Prop38
140
0.0
102
RTVSPost2010PropOp38
 70
     1
102
RTVSPost2010Prop39
140
1.0
102
RTVSPost2010PropOp39
 70
     1
102
RTVSPost2010Prop40
 90
        0
102
RTVSPost2010PropOp40
 70
     1
102
RTVSPost2010Prop41ColorIndex
 90
       18
102
RTVSPost2010Prop41ColorRGB
 90
        0
102
RTVSPost2010PropOp41
 70
     1
102
RTVSPost2010Prop42
 90
       50
102
RTVSPost2010PropOp42
 70
     1
102
RTVSPost2010Prop43
 90
        3
102
RTVSPost2010PropOp43
 70
     1
102
RTVSPost2010Prop44ColorIndex
 90
        5
102
RTVSPost2010Prop44ColorRGB
 90
      255
102
RTVSPost2010PropOp44
 70
     1
102
RTVSPost2010Prop45
280
     0
102
RTVSPost2010PropOp45
 70
     1
102
RTVSPost2010Prop46
 90
       50
102
RTVSPost2010PropOp46
 70
     1
102
RTVSPost2010Prop47
 90
       50
102
RTVSPost2010PropOp47
 70
     1
102
RTVSPost2010Prop48
 90
       50
102
RTVSPost2010PropOp48
 70
     1
102
RTVSPost2010Prop49
280
     0
102
RTVSPost2010PropOp49
 70
     1
102
RTVSPost2010Prop50
 90
       50
102
RTVSPost2010PropOp50
 70
     1
102
RTVSPost2010Prop51ColorIndex
 90
      256
102
RTVSPost2010Prop51ColorRGB
 90
-16777216
102
RTVSPost2010PropOp51
 70
     0
102
RTVSPost2010Prop52
140
1.0
102
RTVSPost2010PropOp52
 70
     0
102
RTVSPost2010Prop53
 90
        2
102
RTVSPost2010PropOp53
 70
     1
102
RTVSPost2010Prop54
  1
strokes_ogs.tif
102
RTVSPost2010PropOp54
 70
     1
102
RTVSPost2010Prop55
280
     0
102
RTVSPost2010PropOp55
 70
     1
102
RTVSPost2010Prop56
140
1.0
102
RTVSPost2010PropOp56
 70
     1
102
RTVSPost2010Prop57
140
1.0
102
RTVSPost2010PropOp57
 70
     1
  0
XRECORD
  5
F03
102
{ACAD_REACTORS
330
F02
102
}
330
F02
100
AcDbXrecord
280
     1
102
RTVSPost2010Prop28
280
     0
102
RTVSPost2010PropOp28
 70
     1
102
RTVSPost2010Prop29
280
     1
102
RTVSPost2010PropOp29
 70
     1
102
RTVSPost2010Prop30
280
     1
102
RTVSPost2010PropOp30
 70
     1
102
RTVSPost2010Prop31
280
     0
102
RTVSPost2010PropOp31
 70
     1
102
RTVSPost2010Prop32
280
     0
102
RTVSPost2010PropOp32
 70
     1
102
RTVSPost2010Prop33
280
     0
102
RTVSPost2010PropOp33
 70
     1
102
RTVSPost2010Prop34
280
     0
102
RTVSPost2010PropOp34
 70
     1
102
RTVSPost2010Prop35
280
     0
102
RTVSPost2010PropOp35
 70
     1
102
RTVSPost2010Prop36
280
     0
102
RTVSPost2010PropOp36
 70
     1
102
RTVSPost2010Prop37
 90
       50
102
RTVSPost2010PropOp37
 70
     1
102
RTVSPost2010Prop38
140
0.0
102
RTVSPost2010PropOp38
 70
     1
102
RTVSPost2010Prop39
140
1.0
102
RTVSPost2010PropOp39
 70
     1
102
RTVSPost2010Prop40
 90
        0
102
RTVSPost2010PropOp40
 70
     1
102
RTVSPost2010Prop41ColorIndex
 90
       18
102
RTVSPost2010Prop41ColorRGB
 90
        0
102
RTVSPost2010PropOp41
 70
     1
102
RTVSPost2010Prop42
 90
       50
102
RTVSPost2010PropOp42
 70
     1
102
RTVSPost2010Prop43
 90
        3
102
RTVSPost2010PropOp43
 70
     1
102
RTVSPost2010Prop44ColorIndex
 90
        5
102
RTVSPost2010Prop44ColorRGB
 90
      255
102
RTVSPost2010PropOp44
 70
     1
102
RTVSPost2010Prop45
280
     0
102
RTVSPost2010PropOp45
 70
     1
102
RTVSPost2010Prop46
 90
       50
102
RTVSPost2010PropOp46
 70
     1
102
RTVSPost2010Prop47
 90
       50
102
RTVSPost2010PropOp47
 70
     1
102
RTVSPost2010Prop48
 90
       50
102
RTVSPost2010PropOp48
 70
     1
102
RTVSPost2010Prop49
280
     0
102
RTVSPost2010PropOp49
 70
     1
102
RTVSPost2010Prop50
 90
       50
102
RTVSPost2010PropOp50
 70
     1
102
RTVSPost2010Prop51ColorIndex
 90
      256
102
RTVSPost2010Prop51ColorRGB
 90
-16777216
102
RTVSPost2010PropOp51
 70
     0
102
RTVSPost2010Prop52
140
1.0
102
RTVSPost2010PropOp52
 70
     0
102
RTVSPost2010Prop53
 90
        2
102
RTVSPost2010PropOp53
 70
     1
102
RTVSPost2010Prop54
  1
strokes_ogs.tif
102
RTVSPost2010PropOp54
 70
     1
102
RTVSPost2010Prop55
280
     0
102
RTVSPost2010PropOp55
 70
     1
102
RTVSPost2010Prop56
140
1.0
102
RTVSPost2010PropOp56
 70
     1
102
RTVSPost2010Prop57
140
1.0
102
RTVSPost2010PropOp57
 70
     1
  0
XRECORD
  5
F05
102
{ACAD_REACTORS
330
F04
102
}
330
F04
100
AcDbXrecord
280
     1
102
RTVSPost2010Prop28
280
     0
102
RTVSPost2010PropOp28
 70
     1
102
RTVSPost2010Prop29
280
     1
102
RTVSPost2010PropOp29
 70
     1
102
RTVSPost2010Prop30
280
     1
102
RTVSPost2010PropOp30
 70
     1
102
RTVSPost2010Prop31
280
     0
102
RTVSPost2010PropOp31
 70
     1
102
RTVSPost2010Prop32
280
     0
102
RTVSPost2010PropOp32
 70
     1
102
RTVSPost2010Prop33
280
     0
102
RTVSPost2010PropOp33
 70
     1
102
RTVSPost2010Prop34
280
     0
102
RTVSPost2010PropOp34
 70
     1
102
RTVSPost2010Prop35
280
     0
102
RTVSPost2010PropOp35
 70
     1
102
RTVSPost2010Prop36
280
     0
102
RTVSPost2010PropOp36
 70
     1
102
RTVSPost2010Prop37
 90
       50
102
RTVSPost2010PropOp37
 70
     1
102
RTVSPost2010Prop38
140
0.0
102
RTVSPost2010PropOp38
 70
     1
102
RTVSPost2010Prop39
140
1.0
102
RTVSPost2010PropOp39
 70
     1
102
RTVSPost2010Prop40
 90
        0
102
RTVSPost2010PropOp40
 70
     1
102
RTVSPost2010Prop41ColorIndex
 90
       18
102
RTVSPost2010Prop41ColorRGB
 90
        0
102
RTVSPost2010PropOp41
 70
     1
102
RTVSPost2010Prop42
 90
       50
102
RTVSPost2010PropOp42
 70
     1
102
RTVSPost2010Prop43
 90
        3
102
RTVSPost2010PropOp43
 70
     1
102
RTVSPost2010Prop44ColorIndex
 90
        5
102
RTVSPost2010Prop44ColorRGB
 90
      255
102
RTVSPost2010PropOp44
 70
     1
102
RTVSPost2010Prop45
280
     0
102
RTVSPost2010PropOp45
 70
     1
102
RTVSPost2010Prop46
 90
       50
102
RTVSPost2010PropOp46
 70
     1
102
RTVSPost2010Prop47
 90
       50
102
RTVSPost2010PropOp47
 70
     1
102
RTVSPost2010Prop48
 90
       50
102
RTVSPost2010PropOp48
 70
     1
102
RTVSPost2010Prop49
280
     0
102
RTVSPost2010PropOp49
 70
     1
102
RTVSPost2010Prop50
 90
       50
102
RTVSPost2010PropOp50
 70
     1
102
RTVSPost2010Prop51ColorIndex
 90
      256
102
RTVSPost2010Prop51ColorRGB
 90
-16777216
102
RTVSPost2010PropOp51
 70
     0
102
RTVSPost2010Prop52
140
1.0
102
RTVSPost2010PropOp52
 70
     0
102
RTVSPost2010Prop53
 90
        2
102
RTVSPost2010PropOp53
 70
     1
102
RTVSPost2010Prop54
  1
strokes_ogs.tif
102
RTVSPost2010PropOp54
 70
     1
102
RTVSPost2010Prop55
280
     0
102
RTVSPost2010PropOp55
 70
     1
102
RTVSPost2010Prop56
140
1.0
102
RTVSPost2010PropOp56
 70
     1
102
RTVSPost2010Prop57
140
1.0
102
RTVSPost2010PropOp57
 70
     1
  0
XRECORD
  5
F07
102
{ACAD_REACTORS
330
F06
102
}
330
F06
100
AcDbXrecord
280
     1
102
RTVSPost2010Prop28
280
     0
102
RTVSPost2010PropOp28
 70
     1
102
RTVSPost2010Prop29
280
     1
102
RTVSPost2010PropOp29
 70
     1
102
RTVSPost2010Prop30
280
     1
102
RTVSPost2010PropOp30
 70
     1
102
RTVSPost2010Prop31
280
     0
102
RTVSPost2010PropOp31
 70
     1
102
RTVSPost2010Prop32
280
     0
102
RTVSPost2010PropOp32
 70
     1
102
RTVSPost2010Prop33
280
     0
102
RTVSPost2010PropOp33
 70
     1
102
RTVSPost2010Prop34
280
     0
102
RTVSPost2010PropOp34
 70
     1
102
RTVSPost2010Prop35
280
     0
102
RTVSPost2010PropOp35
 70
     1
102
RTVSPost2010Prop36
280
     0
102
RTVSPost2010PropOp36
 70
     1
102
RTVSPost2010Prop37
 90
       50
102
RTVSPost2010PropOp37
 70
     1
102
RTVSPost2010Prop38
140
0.0
102
RTVSPost2010PropOp38
 70
     1
102
RTVSPost2010Prop39
140
1.0
102
RTVSPost2010PropOp39
 70
     1
102
RTVSPost2010Prop40
 90
        0
102
RTVSPost2010PropOp40
 70
     1
102
RTVSPost2010Prop41ColorIndex
 90
       18
102
RTVSPost2010Prop41ColorRGB
 90
        0
102
RTVSPost2010PropOp41
 70
     1
102
RTVSPost2010Prop42
 90
       50
102
RTVSPost2010PropOp42
 70
     1
102
RTVSPost2010Prop43
 90
        3
102
RTVSPost2010PropOp43
 70
     1
102
RTVSPost2010Prop44ColorIndex
 90
        5
102
RTVSPost2010Prop44ColorRGB
 90
      255
102
RTVSPost2010PropOp44
 70
     1
102
RTVSPost2010Prop45
280
     0
102
RTVSPost2010PropOp45
 70
     1
102
RTVSPost2010Prop46
 90
       50
102
RTVSPost2010PropOp46
 70
     1
102
RTVSPost2010Prop47
 90
       50
102
RTVSPost2010PropOp47
 70
     1
102
RTVSPost2010Prop48
 90
       50
102
RTVSPost2010PropOp48
 70
     1
102
RTVSPost2010Prop49
280
     0
102
RTVSPost2010PropOp49
 70
     1
102
RTVSPost2010Prop50
 90
       50
102
RTVSPost2010PropOp50
 70
     1
102
RTVSPost2010Prop51ColorIndex
 90
      256
102
RTVSPost2010Prop51ColorRGB
 90
-16777216
102
RTVSPost2010PropOp51
 70
     0
102
RTVSPost2010Prop52
140
1.0
102
RTVSPost2010PropOp52
 70
     0
102
RTVSPost2010Prop53
 90
        2
102
RTVSPost2010PropOp53
 70
     1
102
RTVSPost2010Prop54
  1
strokes_ogs.tif
102
RTVSPost2010PropOp54
 70
     1
102
RTVSPost2010Prop55
280
     0
102
RTVSPost2010PropOp55
 70
     1
102
RTVSPost2010Prop56
140
1.0
102
RTVSPost2010PropOp56
 70
     1
102
RTVSPost2010Prop57
140
1.0
102
RTVSPost2010PropOp57
 70
     1
  0
XRECORD
  5
F09
102
{ACAD_REACTORS
330
F08
102
}
330
F08
100
AcDbXrecord
280
     1
102
RTVSPost2010Prop28
280
     0
102
RTVSPost2010PropOp28
 70
     1
102
RTVSPost2010Prop29
280
     1
102
RTVSPost2010PropOp29
 70
     1
102
RTVSPost2010Prop30
280
     1
102
RTVSPost2010PropOp30
 70
     1
102
RTVSPost2010Prop31
280
     0
102
RTVSPost2010PropOp31
 70
     1
102
RTVSPost2010Prop32
280
     0
102
RTVSPost2010PropOp32
 70
     1
102
RTVSPost2010Prop33
280
     0
102
RTVSPost2010PropOp33
 70
     1
102
RTVSPost2010Prop34
280
     0
102
RTVSPost2010PropOp34
 70
     1
102
RTVSPost2010Prop35
280
     0
102
RTVSPost2010PropOp35
 70
     1
102
RTVSPost2010Prop36
280
     0
102
RTVSPost2010PropOp36
 70
     1
102
RTVSPost2010Prop37
 90
       50
102
RTVSPost2010PropOp37
 70
     1
102
RTVSPost2010Prop38
140
0.0
102
RTVSPost2010PropOp38
 70
     1
102
RTVSPost2010Prop39
140
1.0
102
RTVSPost2010PropOp39
 70
     1
102
RTVSPost2010Prop40
 90
        0
102
RTVSPost2010PropOp40
 70
     1
102
RTVSPost2010Prop41ColorIndex
 90
       18
102
RTVSPost2010Prop41ColorRGB
 90
        0
102
RTVSPost2010PropOp41
 70
     1
102
RTVSPost2010Prop42
 90
       50
102
RTVSPost2010PropOp42
 70
     1
102
RTVSPost2010Prop43
 90
        3
102
RTVSPost2010PropOp43
 70
     1
102
RTVSPost2010Prop44ColorIndex
 90
        5
102
RTVSPost2010Prop44ColorRGB
 90
      255
102
RTVSPost2010PropOp44
 70
     1
102
RTVSPost2010Prop45
280
     0
102
RTVSPost2010PropOp45
 70
     1
102
RTVSPost2010Prop46
 90
       50
102
RTVSPost2010PropOp46
 70
     1
102
RTVSPost2010Prop47
 90
       50
102
RTVSPost2010PropOp47
 70
     1
102
RTVSPost2010Prop48
 90
       50
102
RTVSPost2010PropOp48
 70
     1
102
RTVSPost2010Prop49
280
     0
102
RTVSPost2010PropOp49
 70
     1
102
RTVSPost2010Prop50
 90
       50
102
RTVSPost2010PropOp50
 70
     1
102
RTVSPost2010Prop51ColorIndex
 90
      256
102
RTVSPost2010Prop51ColorRGB
 90
-16777216
102
RTVSPost2010PropOp51
 70
     0
102
RTVSPost2010Prop52
140
1.0
102
RTVSPost2010PropOp52
 70
     0
102
RTVSPost2010Prop53
 90
        2
102
RTVSPost2010PropOp53
 70
     1
102
RTVSPost2010Prop54
  1
strokes_ogs.tif
102
RTVSPost2010PropOp54
 70
     1
102
RTVSPost2010Prop55
280
     0
102
RTVSPost2010PropOp55
 70
     1
102
RTVSPost2010Prop56
140
1.0
102
RTVSPost2010PropOp56
 70
     1
102
RTVSPost2010Prop57
140
1.0
102
RTVSPost2010PropOp57
 70
     1
  0
XRECORD
  5
F11
102
{ACAD_REACTORS
330
F10
102
}
330
F10
100
AcDbXrecord
280
     1
102
RTVSPost2010Prop28
280
     0
102
RTVSPost2010PropOp28
 70
     1
102
RTVSPost2010Prop29
280
     1
102
RTVSPost2010PropOp29
 70
     1
102
RTVSPost2010Prop30
280
     1
102
RTVSPost2010PropOp30
 70
     1
102
RTVSPost2010Prop31
280
     0
102
RTVSPost2010PropOp31
 70
     1
102
RTVSPost2010Prop32
280
     0
102
RTVSPost2010PropOp32
 70
     1
102
RTVSPost2010Prop33
280
     0
102
RTVSPost2010PropOp33
 70
     1
102
RTVSPost2010Prop34
280
     0
102
RTVSPost2010PropOp34
 70
     1
102
RTVSPost2010Prop35
280
     0
102
RTVSPost2010PropOp35
 70
     1
102
RTVSPost2010Prop36
280
     0
102
RTVSPost2010PropOp36
 70
     1
102
RTVSPost2010Prop37
 90
       50
102
RTVSPost2010PropOp37
 70
     1
102
RTVSPost2010Prop38
140
0.0
102
RTVSPost2010PropOp38
 70
     1
102
RTVSPost2010Prop39
140
1.0
102
RTVSPost2010PropOp39
 70
     1
102
RTVSPost2010Prop40
 90
        0
102
RTVSPost2010PropOp40
 70
     1
102
RTVSPost2010Prop41ColorIndex
 90
       18
102
RTVSPost2010Prop41ColorRGB
 90
        0
102
RTVSPost2010PropOp41
 70
     1
102
RTVSPost2010Prop42
 90
       50
102
RTVSPost2010PropOp42
 70
     1
102
RTVSPost2010Prop43
 90
        3
102
RTVSPost2010PropOp43
 70
     1
102
RTVSPost2010Prop44ColorIndex
 90
        5
102
RTVSPost2010Prop44ColorRGB
 90
      255
102
RTVSPost2010PropOp44
 70
     1
102
RTVSPost2010Prop45
280
     0
102
RTVSPost2010PropOp45
 70
     1
102
RTVSPost2010Prop46
 90
       50
102
RTVSPost2010PropOp46
 70
     1
102
RTVSPost2010Prop47
 90
       50
102
RTVSPost2010PropOp47
 70
     1
102
RTVSPost2010Prop48
 90
       50
102
RTVSPost2010PropOp48
 70
     1
102
RTVSPost2010Prop49
280
     0
102
RTVSPost2010PropOp49
 70
     1
102
RTVSPost2010Prop50
 90
       50
102
RTVSPost2010PropOp50
 70
     1
102
RTVSPost2010Prop51ColorIndex
 90
      256
102
RTVSPost2010Prop51ColorRGB
 90
-16777216
102
RTVSPost2010PropOp51
 70
     0
102
RTVSPost2010Prop52
140
1.0
102
RTVSPost2010PropOp52
 70
     0
102
RTVSPost2010Prop53
 90
        2
102
RTVSPost2010PropOp53
 70
     1
102
RTVSPost2010Prop54
  1
strokes_ogs.tif
102
RTVSPost2010PropOp54
 70
     1
102
RTVSPost2010Prop55
280
     0
102
RTVSPost2010PropOp55
 70
     1
102
RTVSPost2010Prop56
140
1.0
102
RTVSPost2010PropOp56
 70
     1
102
RTVSPost2010Prop57
140
1.0
102
RTVSPost2010PropOp57
 70
     1
  0
XRECORD
  5
F2D
102
{ACAD_REACTORS
330
F2C
102
}
330
F2C
100
AcDbXrecord
280
     1
102
RTVSPost2010Prop28
280
     0
102
RTVSPost2010PropOp28
 70
     1
102
RTVSPost2010Prop29
280
     1
102
RTVSPost2010PropOp29
 70
     1
102
RTVSPost2010Prop30
280
     1
102
RTVSPost2010PropOp30
 70
     1
102
RTVSPost2010Prop31
280
     0
102
RTVSPost2010PropOp31
 70
     1
102
RTVSPost2010Prop32
280
     0
102
RTVSPost2010PropOp32
 70
     1
102
RTVSPost2010Prop33
280
     0
102
RTVSPost2010PropOp33
 70
     1
102
RTVSPost2010Prop34
280
     0
102
RTVSPost2010PropOp34
 70
     1
102
RTVSPost2010Prop35
280
     0
102
RTVSPost2010PropOp35
 70
     1
102
RTVSPost2010Prop36
280
     0
102
RTVSPost2010PropOp36
 70
     1
102
RTVSPost2010Prop37
 90
       50
102
RTVSPost2010PropOp37
 70
     0
102
RTVSPost2010Prop38
140
0.0
102
RTVSPost2010PropOp38
 70
     0
102
RTVSPost2010Prop39
140
1.0
102
RTVSPost2010PropOp39
 70
     0
102
RTVSPost2010Prop40
 90
        0
102
RTVSPost2010PropOp40
 70
     0
102
RTVSPost2010Prop41ColorIndex
 90
       18
102
RTVSPost2010Prop41ColorRGB
 90
        0
102
RTVSPost2010PropOp41
 70
     0
102
RTVSPost2010Prop42
 90
       50
102
RTVSPost2010PropOp42
 70
     0
102
RTVSPost2010Prop43
 90
        3
102
RTVSPost2010PropOp43
 70
     0
102
RTVSPost2010Prop44ColorIndex
 90
        5
102
RTVSPost2010Prop44ColorRGB
 90
      255
102
RTVSPost2010PropOp44
 70
     0
102
RTVSPost2010Prop45
280
     0
102
RTVSPost2010PropOp45
 70
     1
102
RTVSPost2010Prop46
 90
       50
102
RTVSPost2010PropOp46
 70
     0
102
RTVSPost2010Prop47
 90
       50
102
RTVSPost2010PropOp47
 70
     0
102
RTVSPost2010Prop48
 90
       50
102
RTVSPost2010PropOp48
 70
     0
102
RTVSPost2010Prop49
280
     0
102
RTVSPost2010PropOp49
 70
     1
102
RTVSPost2010Prop50
 90
       50
102
RTVSPost2010PropOp50
 70
     0
102
RTVSPost2010Prop51ColorIndex
 90
      256
102
RTVSPost2010Prop51ColorRGB
 90
-16777216
102
RTVSPost2010PropOp51
 70
     0
102
RTVSPost2010Prop52
140
1.0
102
RTVSPost2010PropOp52
 70
     0
102
RTVSPost2010Prop53
 90
        2
102
RTVSPost2010PropOp53
 70
     0
102
RTVSPost2010Prop54
  1
strokes_ogs.tif
102
RTVSPost2010PropOp54
 70
     0
102
RTVSPost2010Prop55
280
     0
102
RTVSPost2010PropOp55
 70
     1
102
RTVSPost2010Prop56
140
1.0
102
RTVSPost2010PropOp56
 70
     0
102
RTVSPost2010Prop57
140
1.0
102
RTVSPost2010PropOp57
 70
     0
  0
XRECORD
  5
F1D
102
{ACAD_REACTORS
330
F1C
102
}
330
F1C
100
AcDbXrecord
280
     1
102
RTVSPost2010Prop28
280
     0
102
RTVSPost2010PropOp28
 70
     1
102
RTVSPost2010Prop29
280
     1
102
RTVSPost2010PropOp29
 70
     1
102
RTVSPost2010Prop30
280
     1
102
RTVSPost2010PropOp30
 70
     1
102
RTVSPost2010Prop31
280
     0
102
RTVSPost2010PropOp31
 70
     1
102
RTVSPost2010Prop32
280
     0
102
RTVSPost2010PropOp32
 70
     1
102
RTVSPost2010Prop33
280
     0
102
RTVSPost2010PropOp33
 70
     1
102
RTVSPost2010Prop34
280
     0
102
RTVSPost2010PropOp34
 70
     1
102
RTVSPost2010Prop35
280
     0
102
RTVSPost2010PropOp35
 70
     1
102
RTVSPost2010Prop36
280
     0
102
RTVSPost2010PropOp36
 70
     1
102
RTVSPost2010Prop37
 90
       50
102
RTVSPost2010PropOp37
 70
     1
102
RTVSPost2010Prop38
140
0.0
102
RTVSPost2010PropOp38
 70
     1
102
RTVSPost2010Prop39
140
1.0
102
RTVSPost2010PropOp39
 70
     1
102
RTVSPost2010Prop40
 90
        0
102
RTVSPost2010PropOp40
 70
     1
102
RTVSPost2010Prop41ColorIndex
 90
       18
102
RTVSPost2010Prop41ColorRGB
 90
        0
102
RTVSPost2010PropOp41
 70
     1
102
RTVSPost2010Prop42
 90
       50
102
RTVSPost2010PropOp42
 70
     1
102
RTVSPost2010Prop43
 90
        3
102
RTVSPost2010PropOp43
 70
     1
102
RTVSPost2010Prop44ColorIndex
 90
        5
102
RTVSPost2010Prop44ColorRGB
 90
      255
102
RTVSPost2010PropOp44
 70
     1
102
RTVSPost2010Prop45
280
     0
102
RTVSPost2010PropOp45
 70
     1
102
RTVSPost2010Prop46
 90
       50
102
RTVSPost2010PropOp46
 70
     1
102
RTVSPost2010Prop47
 90
       50
102
RTVSPost2010PropOp47
 70
     1
102
RTVSPost2010Prop48
 90
       50
102
RTVSPost2010PropOp48
 70
     1
102
RTVSPost2010Prop49
280
     0
102
RTVSPost2010PropOp49
 70
     1
102
RTVSPost2010Prop50
 90
       50
102
RTVSPost2010PropOp50
 70
     1
102
RTVSPost2010Prop51ColorIndex
 90
      256
102
RTVSPost2010Prop51ColorRGB
 90
-16777216
102
RTVSPost2010PropOp51
 70
     0
102
RTVSPost2010Prop52
140
1.0
102
RTVSPost2010PropOp52
 70
     0
102
RTVSPost2010Prop53
 90
        2
102
RTVSPost2010PropOp53
 70
     1
102
RTVSPost2010Prop54
  1
strokes_ogs.tif
102
RTVSPost2010PropOp54
 70
     1
102
RTVSPost2010Prop55
280
     0
102
RTVSPost2010PropOp55
 70
     1
102
RTVSPost2010Prop56
140
1.0
102
RTVSPost2010PropOp56
 70
     1
102
RTVSPost2010Prop57
140
1.0
102
RTVSPost2010PropOp57
 70
     1
  0
XRECORD
  5
F2F
102
{ACAD_REACTORS
330
F2E
102
}
330
F2E
100
AcDbXrecord
280
     1
102
RTVSPost2010Prop28
280
     0
102
RTVSPost2010PropOp28
 70
     1
102
RTVSPost2010Prop29
280
     1
102
RTVSPost2010PropOp29
 70
     1
102
RTVSPost2010Prop30
280
     1
102
RTVSPost2010PropOp30
 70
     1
102
RTVSPost2010Prop31
280
     0
102
RTVSPost2010PropOp31
 70
     1
102
RTVSPost2010Prop32
280
     0
102
RTVSPost2010PropOp32
 70
     1
102
RTVSPost2010Prop33
280
     0
102
RTVSPost2010PropOp33
 70
     1
102
RTVSPost2010Prop34
280
     0
102
RTVSPost2010PropOp34
 70
     1
102
RTVSPost2010Prop35
280
     0
102
RTVSPost2010PropOp35
 70
     1
102
RTVSPost2010Prop36
280
     0
102
RTVSPost2010PropOp36
 70
     1
102
RTVSPost2010Prop37
 90
       50
102
RTVSPost2010PropOp37
 70
     0
102
RTVSPost2010Prop38
140
0.0
102
RTVSPost2010PropOp38
 70
     0
102
RTVSPost2010Prop39
140
1.0
102
RTVSPost2010PropOp39
 70
     0
102
RTVSPost2010Prop40
 90
        0
102
RTVSPost2010PropOp40
 70
     0
102
RTVSPost2010Prop41ColorIndex
 90
       18
102
RTVSPost2010Prop41ColorRGB
 90
        0
102
RTVSPost2010PropOp41
 70
     0
102
RTVSPost2010Prop42
 90
       50
102
RTVSPost2010PropOp42
 70
     0
102
RTVSPost2010Prop43
 90
        3
102
RTVSPost2010PropOp43
 70
     0
102
RTVSPost2010Prop44ColorIndex
 90
        5
102
RTVSPost2010Prop44ColorRGB
 90
      255
102
RTVSPost2010PropOp44
 70
     0
102
RTVSPost2010Prop45
280
     0
102
RTVSPost2010PropOp45
 70
     1
102
RTVSPost2010Prop46
 90
       50
102
RTVSPost2010PropOp46
 70
     0
102
RTVSPost2010Prop47
 90
       50
102
RTVSPost2010PropOp47
 70
     0
102
RTVSPost2010Prop48
 90
       50
102
RTVSPost2010PropOp48
 70
     0
102
RTVSPost2010Prop49
280
     0
102
RTVSPost2010PropOp49
 70
     1
102
RTVSPost2010Prop50
 90
       50
102
RTVSPost2010PropOp50
 70
     0
102
RTVSPost2010Prop51ColorIndex
 90
      256
102
RTVSPost2010Prop51ColorRGB
 90
-16777216
102
RTVSPost2010PropOp51
 70
     0
102
RTVSPost2010Prop52
140
1.0
102
RTVSPost2010PropOp52
 70
     0
102
RTVSPost2010Prop53
 90
        2
102
RTVSPost2010PropOp53
 70
     0
102
RTVSPost2010Prop54
  1
strokes_ogs.tif
102
RTVSPost2010PropOp54
 70
     0
102
RTVSPost2010Prop55
280
     0
102
RTVSPost2010PropOp55
 70
     1
102
RTVSPost2010Prop56
140
1.0
102
RTVSPost2010PropOp56
 70
     0
102
RTVSPost2010Prop57
140
1.0
102
RTVSPost2010PropOp57
 70
     0
  0
XRECORD
  5
F15
102
{ACAD_REACTORS
330
F14
102
}
330
F14
100
AcDbXrecord
280
     1
102
RTVSPost2010Prop28
280
     0
102
RTVSPost2010PropOp28
 70
     1
102
RTVSPost2010Prop29
280
     1
102
RTVSPost2010PropOp29
 70
     1
102
RTVSPost2010Prop30
280
     1
102
RTVSPost2010PropOp30
 70
     1
102
RTVSPost2010Prop31
280
     0
102
RTVSPost2010PropOp31
 70
     1
102
RTVSPost2010Prop32
280
     0
102
RTVSPost2010PropOp32
 70
     1
102
RTVSPost2010Prop33
280
     0
102
RTVSPost2010PropOp33
 70
     1
102
RTVSPost2010Prop34
280
     0
102
RTVSPost2010PropOp34
 70
     1
102
RTVSPost2010Prop35
280
     0
102
RTVSPost2010PropOp35
 70
     1
102
RTVSPost2010Prop36
280
     0
102
RTVSPost2010PropOp36
 70
     1
102
RTVSPost2010Prop37
 90
       50
102
RTVSPost2010PropOp37
 70
     1
102
RTVSPost2010Prop38
140
0.0
102
RTVSPost2010PropOp38
 70
     1
102
RTVSPost2010Prop39
140
1.0
102
RTVSPost2010PropOp39
 70
     1
102
RTVSPost2010Prop40
 90
        0
102
RTVSPost2010PropOp40
 70
     1
102
RTVSPost2010Prop41ColorIndex
 90
       18
102
RTVSPost2010Prop41ColorRGB
 90
        0
102
RTVSPost2010PropOp41
 70
     1
102
RTVSPost2010Prop42
 90
       50
102
RTVSPost2010PropOp42
 70
     1
102
RTVSPost2010Prop43
 90
        3
102
RTVSPost2010PropOp43
 70
     1
102
RTVSPost2010Prop44ColorIndex
 90
        5
102
RTVSPost2010Prop44ColorRGB
 90
      255
102
RTVSPost2010PropOp44
 70
     1
102
RTVSPost2010Prop45
280
     0
102
RTVSPost2010PropOp45
 70
     1
102
RTVSPost2010Prop46
 90
       50
102
RTVSPost2010PropOp46
 70
     1
102
RTVSPost2010Prop47
 90
       50
102
RTVSPost2010PropOp47
 70
     1
102
RTVSPost2010Prop48
 90
       50
102
RTVSPost2010PropOp48
 70
     1
102
RTVSPost2010Prop49
280
     0
102
RTVSPost2010PropOp49
 70
     1
102
RTVSPost2010Prop50
 90
       50
102
RTVSPost2010PropOp50
 70
     1
102
RTVSPost2010Prop51ColorIndex
 90
      256
102
RTVSPost2010Prop51ColorRGB
 90
-16777216
102
RTVSPost2010PropOp51
 70
     0
102
RTVSPost2010Prop52
140
1.0
102
RTVSPost2010PropOp52
 70
     0
102
RTVSPost2010Prop53
 90
        2
102
RTVSPost2010PropOp53
 70
     1
102
RTVSPost2010Prop54
  1
strokes_ogs.tif
102
RTVSPost2010PropOp54
 70
     1
102
RTVSPost2010Prop55
280
     0
102
RTVSPost2010PropOp55
 70
     1
102
RTVSPost2010Prop56
140
1.0
102
RTVSPost2010PropOp56
 70
     1
102
RTVSPost2010Prop57
140
1.0
102
RTVSPost2010PropOp57
 70
     1
  0
XRECORD
  5
F2B
102
{ACAD_REACTORS
330
F2A
102
}
330
F2A
100
AcDbXrecord
280
     1
102
RTVSPost2010Prop28
280
     0
102
RTVSPost2010PropOp28
 70
     1
102
RTVSPost2010Prop29
280
     1
102
RTVSPost2010PropOp29
 70
     1
102
RTVSPost2010Prop30
280
     1
102
RTVSPost2010PropOp30
 70
     1
102
RTVSPost2010Prop31
280
     0
102
RTVSPost2010PropOp31
 70
     1
102
RTVSPost2010Prop32
280
     0
102
RTVSPost2010PropOp32
 70
     1
102
RTVSPost2010Prop33
280
     0
102
RTVSPost2010PropOp33
 70
     1
102
RTVSPost2010Prop34
280
     0
102
RTVSPost2010PropOp34
 70
     1
102
RTVSPost2010Prop35
280
     0
102
RTVSPost2010PropOp35
 70
     1
102
RTVSPost2010Prop36
280
     0
102
RTVSPost2010PropOp36
 70
     1
102
RTVSPost2010Prop37
 90
       50
102
RTVSPost2010PropOp37
 70
     1
102
RTVSPost2010Prop38
140
0.0
102
RTVSPost2010PropOp38
 70
     1
102
RTVSPost2010Prop39
140
1.0
102
RTVSPost2010PropOp39
 70
     1
102
RTVSPost2010Prop40
 90
        0
102
RTVSPost2010PropOp40
 70
     1
102
RTVSPost2010Prop41ColorIndex
 90
       18
102
RTVSPost2010Prop41ColorRGB
 90
        0
102
RTVSPost2010PropOp41
 70
     1
102
RTVSPost2010Prop42
 90
       50
102
RTVSPost2010PropOp42
 70
     1
102
RTVSPost2010Prop43
 90
        3
102
RTVSPost2010PropOp43
 70
     1
102
RTVSPost2010Prop44ColorIndex
 90
        5
102
RTVSPost2010Prop44ColorRGB
 90
      255
102
RTVSPost2010PropOp44
 70
     1
102
RTVSPost2010Prop45
280
     0
102
RTVSPost2010PropOp45
 70
     1
102
RTVSPost2010Prop46
 90
       50
102
RTVSPost2010PropOp46
 70
     1
102
RTVSPost2010Prop47
 90
       50
102
RTVSPost2010PropOp47
 70
     1
102
RTVSPost2010Prop48
 90
       50
102
RTVSPost2010PropOp48
 70
     1
102
RTVSPost2010Prop49
280
     0
102
RTVSPost2010PropOp49
 70
     1
102
RTVSPost2010Prop50
 90
       50
102
RTVSPost2010PropOp50
 70
     1
102
RTVSPost2010Prop51ColorIndex
 90
      256
102
RTVSPost2010Prop51ColorRGB
 90
-16777216
102
RTVSPost2010PropOp51
 70
     0
102
RTVSPost2010Prop52
140
1.0
102
RTVSPost2010PropOp52
 70
     0
102
RTVSPost2010Prop53
 90
        2
102
RTVSPost2010PropOp53
 70
     1
102
RTVSPost2010Prop54
  1
strokes_ogs.tif
102
RTVSPost2010PropOp54
 70
     1
102
RTVSPost2010Prop55
280
     0
102
RTVSPost2010PropOp55
 70
     1
102
RTVSPost2010Prop56
140
1.0
102
RTVSPost2010PropOp56
 70
     1
102
RTVSPost2010Prop57
140
1.0
102
RTVSPost2010PropOp57
 70
     1
  0
XRECORD
  5
F29
102
{ACAD_REACTORS
330
F28
102
}
330
F28
100
AcDbXrecord
280
     1
102
RTVSPost2010Prop28
280
     0
102
RTVSPost2010PropOp28
 70
     1
102
RTVSPost2010Prop29
280
     1
102
RTVSPost2010PropOp29
 70
     1
102
RTVSPost2010Prop30
280
     1
102
RTVSPost2010PropOp30
 70
     1
102
RTVSPost2010Prop31
280
     0
102
RTVSPost2010PropOp31
 70
     1
102
RTVSPost2010Prop32
280
     0
102
RTVSPost2010PropOp32
 70
     1
102
RTVSPost2010Prop33
280
     0
102
RTVSPost2010PropOp33
 70
     1
102
RTVSPost2010Prop34
280
     0
102
RTVSPost2010PropOp34
 70
     1
102
RTVSPost2010Prop35
280
     0
102
RTVSPost2010PropOp35
 70
     1
102
RTVSPost2010Prop36
280
     0
102
RTVSPost2010PropOp36
 70
     1
102
RTVSPost2010Prop37
 90
       50
102
RTVSPost2010PropOp37
 70
     1
102
RTVSPost2010Prop38
140
0.0
102
RTVSPost2010PropOp38
 70
     1
102
RTVSPost2010Prop39
140
1.0
102
RTVSPost2010PropOp39
 70
     1
102
RTVSPost2010Prop40
 90
        0
102
RTVSPost2010PropOp40
 70
     1
102
RTVSPost2010Prop41ColorIndex
 90
       18
102
RTVSPost2010Prop41ColorRGB
 90
        0
102
RTVSPost2010PropOp41
 70
     1
102
RTVSPost2010Prop42
 90
       50
102
RTVSPost2010PropOp42
 70
     1
102
RTVSPost2010Prop43
 90
        3
102
RTVSPost2010PropOp43
 70
     1
102
RTVSPost2010Prop44ColorIndex
 90
        5
102
RTVSPost2010Prop44ColorRGB
 90
      255
102
RTVSPost2010PropOp44
 70
     1
102
RTVSPost2010Prop45
280
     0
102
RTVSPost2010PropOp45
 70
     1
102
RTVSPost2010Prop46
 90
       50
102
RTVSPost2010PropOp46
 70
     1
102
RTVSPost2010Prop47
 90
       50
102
RTVSPost2010PropOp47
 70
     1
102
RTVSPost2010Prop48
 90
       50
102
RTVSPost2010PropOp48
 70
     1
102
RTVSPost2010Prop49
280
     0
102
RTVSPost2010PropOp49
 70
     1
102
RTVSPost2010Prop50
 90
       50
102
RTVSPost2010PropOp50
 70
     1
102
RTVSPost2010Prop51ColorIndex
 90
      256
102
RTVSPost2010Prop51ColorRGB
 90
-16777216
102
RTVSPost2010PropOp51
 70
     0
102
RTVSPost2010Prop52
140
1.0
102
RTVSPost2010PropOp52
 70
     0
102
RTVSPost2010Prop53
 90
        2
102
RTVSPost2010PropOp53
 70
     1
102
RTVSPost2010Prop54
  1
strokes_ogs.tif
102
RTVSPost2010PropOp54
 70
     1
102
RTVSPost2010Prop55
280
     0
102
RTVSPost2010PropOp55
 70
     1
102
RTVSPost2010Prop56
140
1.0
102
RTVSPost2010PropOp56
 70
     1
102
RTVSPost2010Prop57
140
1.0
102
RTVSPost2010PropOp57
 70
     1
  0
XRECORD
  5
F23
102
{ACAD_REACTORS
330
F22
102
}
330
F22
100
AcDbXrecord
280
     1
102
RTVSPost2010Prop28
280
     0
102
RTVSPost2010PropOp28
 70
     1
102
RTVSPost2010Prop29
280
     1
102
RTVSPost2010PropOp29
 70
     1
102
RTVSPost2010Prop30
280
     1
102
RTVSPost2010PropOp30
 70
     1
102
RTVSPost2010Prop31
280
     0
102
RTVSPost2010PropOp31
 70
     1
102
RTVSPost2010Prop32
280
     0
102
RTVSPost2010PropOp32
 70
     1
102
RTVSPost2010Prop33
280
     0
102
RTVSPost2010PropOp33
 70
     1
102
RTVSPost2010Prop34
280
     0
102
RTVSPost2010PropOp34
 70
     1
102
RTVSPost2010Prop35
280
     0
102
RTVSPost2010PropOp35
 70
     1
102
RTVSPost2010Prop36
280
     0
102
RTVSPost2010PropOp36
 70
     1
102
RTVSPost2010Prop37
 90
       50
102
RTVSPost2010PropOp37
 70
     1
102
RTVSPost2010Prop38
140
0.0
102
RTVSPost2010PropOp38
 70
     1
102
RTVSPost2010Prop39
140
1.0
102
RTVSPost2010PropOp39
 70
     1
102
RTVSPost2010Prop40
 90
        0
102
RTVSPost2010PropOp40
 70
     1
102
RTVSPost2010Prop41ColorIndex
 90
       18
102
RTVSPost2010Prop41ColorRGB
 90
        0
102
RTVSPost2010PropOp41
 70
     1
102
RTVSPost2010Prop42
 90
       50
102
RTVSPost2010PropOp42
 70
     1
102
RTVSPost2010Prop43
 90
        3
102
RTVSPost2010PropOp43
 70
     1
102
RTVSPost2010Prop44ColorIndex
 90
        5
102
RTVSPost2010Prop44ColorRGB
 90
      255
102
RTVSPost2010PropOp44
 70
     1
102
RTVSPost2010Prop45
280
     0
102
RTVSPost2010PropOp45
 70
     1
102
RTVSPost2010Prop46
 90
       50
102
RTVSPost2010PropOp46
 70
     1
102
RTVSPost2010Prop47
 90
       50
102
RTVSPost2010PropOp47
 70
     1
102
RTVSPost2010Prop48
 90
       50
102
RTVSPost2010PropOp48
 70
     1
102
RTVSPost2010Prop49
280
     0
102
RTVSPost2010PropOp49
 70
     1
102
RTVSPost2010Prop50
 90
       50
102
RTVSPost2010PropOp50
 70
     1
102
RTVSPost2010Prop51ColorIndex
 90
      256
102
RTVSPost2010Prop51ColorRGB
 90
-16777216
102
RTVSPost2010PropOp51
 70
     0
102
RTVSPost2010Prop52
140
1.0
102
RTVSPost2010PropOp52
 70
     0
102
RTVSPost2010Prop53
 90
        2
102
RTVSPost2010PropOp53
 70
     1
102
RTVSPost2010Prop54
  1
strokes_ogs.tif
102
RTVSPost2010PropOp54
 70
     1
102
RTVSPost2010Prop55
280
     0
102
RTVSPost2010PropOp55
 70
     1
102
RTVSPost2010Prop56
140
1.0
102
RTVSPost2010PropOp56
 70
     1
102
RTVSPost2010Prop57
140
1.0
102
RTVSPost2010PropOp57
 70
     1
  0
XRECORD
  5
F25
102
{ACAD_REACTORS
330
F24
102
}
330
F24
100
AcDbXrecord
280
     1
102
RTVSPost2010Prop28
280
     0
102
RTVSPost2010PropOp28
 70
     1
102
RTVSPost2010Prop29
280
     1
102
RTVSPost2010PropOp29
 70
     1
102
RTVSPost2010Prop30
280
     1
102
RTVSPost2010PropOp30
 70
     1
102
RTVSPost2010Prop31
280
     0
102
RTVSPost2010PropOp31
 70
     1
102
RTVSPost2010Prop32
280
     0
102
RTVSPost2010PropOp32
 70
     1
102
RTVSPost2010Prop33
280
     0
102
RTVSPost2010PropOp33
 70
     1
102
RTVSPost2010Prop34
280
     0
102
RTVSPost2010PropOp34
 70
     1
102
RTVSPost2010Prop35
280
     0
102
RTVSPost2010PropOp35
 70
     1
102
RTVSPost2010Prop36
280
     0
102
RTVSPost2010PropOp36
 70
     1
102
RTVSPost2010Prop37
 90
       50
102
RTVSPost2010PropOp37
 70
     1
102
RTVSPost2010Prop38
140
0.0
102
RTVSPost2010PropOp38
 70
     1
102
RTVSPost2010Prop39
140
1.0
102
RTVSPost2010PropOp39
 70
     1
102
RTVSPost2010Prop40
 90
        0
102
RTVSPost2010PropOp40
 70
     1
102
RTVSPost2010Prop41ColorIndex
 90
       18
102
RTVSPost2010Prop41ColorRGB
 90
        0
102
RTVSPost2010PropOp41
 70
     1
102
RTVSPost2010Prop42
 90
       50
102
RTVSPost2010PropOp42
 70
     1
102
RTVSPost2010Prop43
 90
        3
102
RTVSPost2010PropOp43
 70
     1
102
RTVSPost2010Prop44ColorIndex
 90
        5
102
RTVSPost2010Prop44ColorRGB
 90
      255
102
RTVSPost2010PropOp44
 70
     1
102
RTVSPost2010Prop45
280
     0
102
RTVSPost2010PropOp45
 70
     1
102
RTVSPost2010Prop46
 90
       50
102
RTVSPost2010PropOp46
 70
     1
102
RTVSPost2010Prop47
 90
       50
102
RTVSPost2010PropOp47
 70
     1
102
RTVSPost2010Prop48
 90
       50
102
RTVSPost2010PropOp48
 70
     1
102
RTVSPost2010Prop49
280
     0
102
RTVSPost2010PropOp49
 70
     1
102
RTVSPost2010Prop50
 90
       50
102
RTVSPost2010PropOp50
 70
     1
102
RTVSPost2010Prop51ColorIndex
 90
      256
102
RTVSPost2010Prop51ColorRGB
 90
-16777216
102
RTVSPost2010PropOp51
 70
     0
102
RTVSPost2010Prop52
140
1.0
102
RTVSPost2010PropOp52
 70
     0
102
RTVSPost2010Prop53
 90
        2
102
RTVSPost2010PropOp53
 70
     1
102
RTVSPost2010Prop54
  1
strokes_ogs.tif
102
RTVSPost2010PropOp54
 70
     1
102
RTVSPost2010Prop55
280
     0
102
RTVSPost2010PropOp55
 70
     1
102
RTVSPost2010Prop56
140
1.0
102
RTVSPost2010PropOp56
 70
     1
102
RTVSPost2010Prop57
140
1.0
102
RTVSPost2010PropOp57
 70
     1
  0
XRECORD
  5
F1B
102
{ACAD_REACTORS
330
F1A
102
}
330
F1A
100
AcDbXrecord
280
     1
102
RTVSPost2010Prop28
280
     0
102
RTVSPost2010PropOp28
 70
     1
102
RTVSPost2010Prop29
280
     1
102
RTVSPost2010PropOp29
 70
     1
102
RTVSPost2010Prop30
280
     1
102
RTVSPost2010PropOp30
 70
     1
102
RTVSPost2010Prop31
280
     0
102
RTVSPost2010PropOp31
 70
     1
102
RTVSPost2010Prop32
280
     0
102
RTVSPost2010PropOp32
 70
     1
102
RTVSPost2010Prop33
280
     0
102
RTVSPost2010PropOp33
 70
     1
102
RTVSPost2010Prop34
280
     0
102
RTVSPost2010PropOp34
 70
     1
102
RTVSPost2010Prop35
280
     0
102
RTVSPost2010PropOp35
 70
     1
102
RTVSPost2010Prop36
280
     0
102
RTVSPost2010PropOp36
 70
     1
102
RTVSPost2010Prop37
 90
       50
102
RTVSPost2010PropOp37
 70
     1
102
RTVSPost2010Prop38
140
0.0
102
RTVSPost2010PropOp38
 70
     1
102
RTVSPost2010Prop39
140
1.0
102
RTVSPost2010PropOp39
 70
     1
102
RTVSPost2010Prop40
 90
        0
102
RTVSPost2010PropOp40
 70
     1
102
RTVSPost2010Prop41ColorIndex
 90
       18
102
RTVSPost2010Prop41ColorRGB
 90
        0
102
RTVSPost2010PropOp41
 70
     1
102
RTVSPost2010Prop42
 90
       50
102
RTVSPost2010PropOp42
 70
     1
102
RTVSPost2010Prop43
 90
        3
102
RTVSPost2010PropOp43
 70
     1
102
RTVSPost2010Prop44ColorIndex
 90
        5
102
RTVSPost2010Prop44ColorRGB
 90
      255
102
RTVSPost2010PropOp44
 70
     1
102
RTVSPost2010Prop45
280
     0
102
RTVSPost2010PropOp45
 70
     1
102
RTVSPost2010Prop46
 90
       50
102
RTVSPost2010PropOp46
 70
     1
102
RTVSPost2010Prop47
 90
       50
102
RTVSPost2010PropOp47
 70
     1
102
RTVSPost2010Prop48
 90
       50
102
RTVSPost2010PropOp48
 70
     1
102
RTVSPost2010Prop49
280
     0
102
RTVSPost2010PropOp49
 70
     1
102
RTVSPost2010Prop50
 90
       50
102
RTVSPost2010PropOp50
 70
     1
102
RTVSPost2010Prop51ColorIndex
 90
      256
102
RTVSPost2010Prop51ColorRGB
 90
-16777216
102
RTVSPost2010PropOp51
 70
     0
102
RTVSPost2010Prop52
140
1.0
102
RTVSPost2010PropOp52
 70
     0
102
RTVSPost2010Prop53
 90
        2
102
RTVSPost2010PropOp53
 70
     1
102
RTVSPost2010Prop54
  1
strokes_ogs.tif
102
RTVSPost2010PropOp54
 70
     1
102
RTVSPost2010Prop55
280
     0
102
RTVSPost2010PropOp55
 70
     1
102
RTVSPost2010Prop56
140
1.0
102
RTVSPost2010PropOp56
 70
     1
102
RTVSPost2010Prop57
140
1.0
102
RTVSPost2010PropOp57
 70
     1
  0
XRECORD
  5
F0F
102
{ACAD_REACTORS
330
F0E
102
}
330
F0E
100
AcDbXrecord
280
     1
102
RTVSPost2010Prop28
280
     0
102
RTVSPost2010PropOp28
 70
     1
102
RTVSPost2010Prop29
280
     1
102
RTVSPost2010PropOp29
 70
     1
102
RTVSPost2010Prop30
280
     1
102
RTVSPost2010PropOp30
 70
     1
102
RTVSPost2010Prop31
280
     0
102
RTVSPost2010PropOp31
 70
     1
102
RTVSPost2010Prop32
280
     0
102
RTVSPost2010PropOp32
 70
     1
102
RTVSPost2010Prop33
280
     0
102
RTVSPost2010PropOp33
 70
     1
102
RTVSPost2010Prop34
280
     0
102
RTVSPost2010PropOp34
 70
     1
102
RTVSPost2010Prop35
280
     0
102
RTVSPost2010PropOp35
 70
     1
102
RTVSPost2010Prop36
280
     0
102
RTVSPost2010PropOp36
 70
     1
102
RTVSPost2010Prop37
 90
       50
102
RTVSPost2010PropOp37
 70
     1
102
RTVSPost2010Prop38
140
0.0
102
RTVSPost2010PropOp38
 70
     1
102
RTVSPost2010Prop39
140
1.0
102
RTVSPost2010PropOp39
 70
     1
102
RTVSPost2010Prop40
 90
        0
102
RTVSPost2010PropOp40
 70
     1
102
RTVSPost2010Prop41ColorIndex
 90
       18
102
RTVSPost2010Prop41ColorRGB
 90
        0
102
RTVSPost2010PropOp41
 70
     1
102
RTVSPost2010Prop42
 90
       50
102
RTVSPost2010PropOp42
 70
     1
102
RTVSPost2010Prop43
 90
        3
102
RTVSPost2010PropOp43
 70
     1
102
RTVSPost2010Prop44ColorIndex
 90
        5
102
RTVSPost2010Prop44ColorRGB
 90
      255
102
RTVSPost2010PropOp44
 70
     1
102
RTVSPost2010Prop45
280
     0
102
RTVSPost2010PropOp45
 70
     1
102
RTVSPost2010Prop46
 90
       50
102
RTVSPost2010PropOp46
 70
     1
102
RTVSPost2010Prop47
 90
       50
102
RTVSPost2010PropOp47
 70
     1
102
RTVSPost2010Prop48
 90
       50
102
RTVSPost2010PropOp48
 70
     1
102
RTVSPost2010Prop49
280
     0
102
RTVSPost2010PropOp49
 70
     1
102
RTVSPost2010Prop50
 90
       50
102
RTVSPost2010PropOp50
 70
     1
102
RTVSPost2010Prop51ColorIndex
 90
      256
102
RTVSPost2010Prop51ColorRGB
 90
-16777216
102
RTVSPost2010PropOp51
 70
     0
102
RTVSPost2010Prop52
140
1.0
102
RTVSPost2010PropOp52
 70
     0
102
RTVSPost2010Prop53
 90
        2
102
RTVSPost2010PropOp53
 70
     1
102
RTVSPost2010Prop54
  1
strokes_ogs.tif
102
RTVSPost2010PropOp54
 70
     1
102
RTVSPost2010Prop55
280
     0
102
RTVSPost2010PropOp55
 70
     1
102
RTVSPost2010Prop56
140
1.0
102
RTVSPost2010PropOp56
 70
     1
102
RTVSPost2010Prop57
140
1.0
102
RTVSPost2010PropOp57
 70
     1
  0
XRECORD
  5
F27
102
{ACAD_REACTORS
330
F26
102
}
330
F26
100
AcDbXrecord
280
     1
102
RTVSPost2010Prop28
280
     0
102
RTVSPost2010PropOp28
 70
     1
102
RTVSPost2010Prop29
280
     1
102
RTVSPost2010PropOp29
 70
     1
102
RTVSPost2010Prop30
280
     1
102
RTVSPost2010PropOp30
 70
     1
102
RTVSPost2010Prop31
280
     0
102
RTVSPost2010PropOp31
 70
     1
102
RTVSPost2010Prop32
280
     0
102
RTVSPost2010PropOp32
 70
     1
102
RTVSPost2010Prop33
280
     0
102
RTVSPost2010PropOp33
 70
     1
102
RTVSPost2010Prop34
280
     0
102
RTVSPost2010PropOp34
 70
     1
102
RTVSPost2010Prop35
280
     0
102
RTVSPost2010PropOp35
 70
     1
102
RTVSPost2010Prop36
280
     0
102
RTVSPost2010PropOp36
 70
     1
102
RTVSPost2010Prop37
 90
       50
102
RTVSPost2010PropOp37
 70
     1
102
RTVSPost2010Prop38
140
0.0
102
RTVSPost2010PropOp38
 70
     1
102
RTVSPost2010Prop39
140
1.0
102
RTVSPost2010PropOp39
 70
     1
102
RTVSPost2010Prop40
 90
        0
102
RTVSPost2010PropOp40
 70
     1
102
RTVSPost2010Prop41ColorIndex
 90
       18
102
RTVSPost2010Prop41ColorRGB
 90
        0
102
RTVSPost2010PropOp41
 70
     1
102
RTVSPost2010Prop42
 90
       50
102
RTVSPost2010PropOp42
 70
     1
102
RTVSPost2010Prop43
 90
        3
102
RTVSPost2010PropOp43
 70
     1
102
RTVSPost2010Prop44ColorIndex
 90
        5
102
RTVSPost2010Prop44ColorRGB
 90
      255
102
RTVSPost2010PropOp44
 70
     1
102
RTVSPost2010Prop45
280
     0
102
RTVSPost2010PropOp45
 70
     1
102
RTVSPost2010Prop46
 90
       50
102
RTVSPost2010PropOp46
 70
     1
102
RTVSPost2010Prop47
 90
       50
102
RTVSPost2010PropOp47
 70
     1
102
RTVSPost2010Prop48
 90
       50
102
RTVSPost2010PropOp48
 70
     1
102
RTVSPost2010Prop49
280
     0
102
RTVSPost2010PropOp49
 70
     1
102
RTVSPost2010Prop50
 90
       50
102
RTVSPost2010PropOp50
 70
     1
102
RTVSPost2010Prop51ColorIndex
 90
      256
102
RTVSPost2010Prop51ColorRGB
 90
-16777216
102
RTVSPost2010PropOp51
 70
     0
102
RTVSPost2010Prop52
140
1.0
102
RTVSPost2010PropOp52
 70
     0
102
RTVSPost2010Prop53
 90
        2
102
RTVSPost2010PropOp53
 70
     1
102
RTVSPost2010Prop54
  1
strokes_ogs.tif
102
RTVSPost2010PropOp54
 70
     1
102
RTVSPost2010Prop55
280
     0
102
RTVSPost2010PropOp55
 70
     1
102
RTVSPost2010Prop56
140
1.0
102
RTVSPost2010PropOp56
 70
     1
102
RTVSPost2010Prop57
140
1.0
102
RTVSPost2010PropOp57
 70
     1
  0
ENDSEC
  0
EOF
