  0
SECTION
  2
HEADER
  9
$ACADVER
  1
AC1015
  9
$ACADMAINTVER
 70
    20
  9
$DWGCODEPAGE
  3
ANSI_1252
  9
$INSBASE
 10
0.0
 20
0.0
 30
0.0
  9
$EXTMIN
 10
24.39675137347566
 20
14.76304997932046
 30
0.0
  9
$EXTMAX
 10
55.62279035286205
 20
60.48785028470521
 30
0.0
  9
$LIMMIN
 10
0.0
 20
0.0
  9
$LIMMAX
 10
12.0
 20
9.0
  9
$ORTHOMODE
 70
     1
  9
$REGENMODE
 70
     1
  9
$FILLMODE
 70
     1
  9
$QTEXTMODE
 70
     0
  9
$MIRRTEXT
 70
     0
  9
$LTSCALE
 40
1.0
  9
$ATTMODE
 70
     1
  9
$TEXTSIZE
 40
0.2
  9
$TRACEWID
 40
0.05
  9
$TEXTSTYLE
  7
Standard
  9
$CLAYER
  8
0
  9
$CELTYPE
  6
ByLayer
  9
$CECOLOR
 62
   256
  9
$CELTSCALE
 40
1.0
  9
$DISPSILH
 70
     0
  9
$DIMSCALE
 40
1.0
  9
$DIMASZ
 40
0.41
  9
$DIMEXO
 40
0.25
  9
$DIMDLI
 40
0.38
  9
$DIMRND
 40
0.0
  9
$DIMDLE
 40
0.0
  9
$DIMEXE
 40
0.18
  9
$DIMTP
 40
0.0
  9
$DIMTM
 40
0.0
  9
$DIMTXT
 40
0.41
  9
$DIMCEN
 40
0.09
  9
$DIMTSZ
 40
0.0
  9
$DIMTOL
 70
     0
  9
$DIMLIM
 70
     0
  9
$DIMTIH
 70
     1
  9
$DIMTOH
 70
     1
  9
$DIMSE1
 70
     0
  9
$DIMSE2
 70
     0
  9
$DIMTAD
 70
     0
  9
$DIMZIN
 70
     0
  9
$DIMBLK
  1

  9
$DIMASO
 70
     1
  9
$DIMSHO
 70
     1
  9
$DIMPOST
  1

  9
$DIMAPOST
  1

  9
$DIMALT
 70
     0
  9
$DIMALTD
 70
     2
  9
$DIMALTF
 40
25.4
  9
$DIMLFAC
 40
1.0
  9
$DIMTOFL
 70
     0
  9
$DIMTVP
 40
0.0
  9
$DIMTIX
 70
     0
  9
$DIMSOXD
 70
     0
  9
$DIMSAH
 70
     0
  9
$DIMBLK1
  1

  9
$DIMBLK2
  1

  9
$DIMSTYLE
  2
Standard
  9
$DIMCLRD
 70
     0
  9
$DIMCLRE
 70
     0
  9
$DIMCLRT
 70
     0
  9
$DIMTFAC
 40
1.0
  9
$DIMGAP
 40
0.09
  9
$DIMJUST
 70
     0
  9
$DIMSD1
 70
     0
  9
$DIMSD2
 70
     0
  9
$DIMTOLJ
 70
     1
  9
$DIMTZIN
 70
     0
  9
$DIMALTZ
 70
     0
  9
$DIMALTTZ
 70
     0
  9
$DIMUPT
 70
     0
  9
$DIMDEC
 70
     3
  9
$DIMTDEC
 70
     3
  9
$DIMALTU
 70
     2
  9
$DIMALTTD
 70
     2
  9
$DIMTXSTY
  7
Standard
  9
$DIMAUNIT
 70
     0
  9
$DIMADEC
 70
     0
  9
$DIMALTRND
 40
0.0
  9
$DIMAZIN
 70
     0
  9
$DIMDSEP
 70
    46
  9
$DIMATFIT
 70
     3
  9
$DIMFRAC
 70
     0
  9
$DIMLDRBLK
  1

  9
$DIMLUNIT
 70
     2
  9
$DIMLWD
 70
    -2
  9
$DIMLWE
 70
    -2
  9
$DIMTMOVE
 70
     0
  9
$LUNITS
 70
     2
  9
$LUPREC
 70
     4
  9
$SKETCHINC
 40
0.1
  9
$FILLETRAD
 40
0.0
  9
$AUNITS
 70
     0
  9
$AUPREC
 70
     0
  9
$MENU
  1
.
  9
$ELEVATION
 40
0.0
  9
$PELEVATION
 40
0.0
  9
$THICKNESS
 40
0.0
  9
$LIMCHECK
 70
     0
  9
$CHAMFERA
 40
0.0
  9
$CHAMFERB
 40
0.0
  9
$CHAMFERC
 40
0.0
  9
$CHAMFERD
 40
0.0
  9
$SKPOLY
 70
     0
  9
$TDCREATE
 40
2454712.709029445
  9
$TDUCREATE
 40
2454712.875696111
  9
$TDUPDATE
 40
2455104.590518866
  9
$TDUUPDATE
 40
2455104.757185532
  9
$TDINDWG
 40
0.9756616898
  9
$TDUSRTIMER
 40
0.9756616898
  9
$USRTIMER
 70
     1
  9
$ANGBASE
 50
0.0
  9
$ANGDIR
 70
     0
  9
$PDMODE
 70
     0
  9
$PDSIZE
 40
0.0
  9
$PLINEWID
 40
0.0
  9
$SPLFRAME
 70
     0
  9
$SPLINETYPE
 70
     6
  9
$SPLINESEGS
 70
     8
  9
$HANDSEED
  5
12A8
  9
$SURFTAB1
 70
     6
  9
$SURFTAB2
 70
     6
  9
$SURFTYPE
 70
     6
  9
$SURFU
 70
     6
  9
$SURFV
 70
     6
  9
$UCSBASE
  2

  9
$UCSNAME
  2

  9
$UCSORG
 10
29.04977887590689
 20
20.79565753773976
 30
0.0
  9
$UCSXDIR
 10
1.0
 20
0.0
 30
0.0
  9
$UCSYDIR
 10
0.0
 20
1.0
 30
0.0
  9
$UCSORTHOREF
  2

  9
$UCSORTHOVIEW
 70
     0
  9
$UCSORGTOP
 10
0.0
 20
0.0
 30
0.0
  9
$UCSORGBOTTOM
 10
0.0
 20
0.0
 30
0.0
  9
$UCSORGLEFT
 10
0.0
 20
0.0
 30
0.0
  9
$UCSORGRIGHT
 10
0.0
 20
0.0
 30
0.0
  9
$UCSORGFRONT
 10
0.0
 20
0.0
 30
0.0
  9
$UCSORGBACK
 10
0.0
 20
0.0
 30
0.0
  9
$PUCSBASE
  2

  9
$PUCSNAME
  2

  9
$PUCSORG
 10
0.0
 20
0.0
 30
0.0
  9
$PUCSXDIR
 10
1.0
 20
0.0
 30
0.0
  9
$PUCSYDIR
 10
0.0
 20
1.0
 30
0.0
  9
$PUCSORTHOREF
  2

  9
$PUCSORTHOVIEW
 70
     0
  9
$PUCSORGTOP
 10
0.0
 20
0.0
 30
0.0
  9
$PUCSORGBOTTOM
 10
0.0
 20
0.0
 30
0.0
  9
$PUCSORGLEFT
 10
0.0
 20
0.0
 30
0.0
  9
$PUCSORGRIGHT
 10
0.0
 20
0.0
 30
0.0
  9
$PUCSORGFRONT
 10
0.0
 20
0.0
 30
0.0
  9
$PUCSORGBACK
 10
0.0
 20
0.0
 30
0.0
  9
$USERI1
 70
     0
  9
$USERI2
 70
     0
  9
$USERI3
 70
     0
  9
$USERI4
 70
     0
  9
$USERI5
 70
     0
  9
$USERR1
 40
0.0
  9
$USERR2
 40
0.0
  9
$USERR3
 40
0.0
  9
$USERR4
 40
0.0
  9
$USERR5
 40
0.0
  9
$WORLDVIEW
 70
     1
  9
$SHADEDGE
 70
     3
  9
$SHADEDIF
 70
    70
  9
$TILEMODE
 70
     1
  9
$MAXACTVP
 70
    64
  9
$PINSBASE
 10
0.0
 20
0.0
 30
0.0
  9
$PLIMCHECK
 70
     0
  9
$PEXTMIN
 10
0.0
 20
0.0
 30
0.0
  9
$PEXTMAX
 10
0.0
 20
0.0
 30
0.0
  9
$PLIMMIN
 10
0.0
 20
0.0
  9
$PLIMMAX
 10
12.0
 20
9.0
  9
$UNITMODE
 70
     0
  9
$VISRETAIN
 70
     1
  9
$PLINEGEN
 70
     0
  9
$PSLTSCALE
 70
     1
  9
$TREEDEPTH
 70
  3020
  9
$CMLSTYLE
  2
Standard
  9
$CMLJUST
 70
     0
  9
$CMLSCALE
 40
1.0
  9
$PROXYGRAPHICS
 70
     1
  9
$MEASUREMENT
 70
     0
  9
$CELWEIGHT
370
    -1
  9
$ENDCAPS
280
     0
  9
$JOINSTYLE
280
     0
  9
$LWDISPLAY
290
     0
  9
$INSUNITS
 70
     1
  9
$HYPERLINKBASE
  1

  9
$STYLESHEET
  1
monochrome.ctb
  9
$XEDIT
290
     1
  9
$CEPSNTYPE
380
     0
  9
$PSTYLEMODE
290
     1
  9
$FINGERPRINTGUID
  2
{FDEAD576-A652-11D2-9A35-0060089B3A3F}
  9
$VERSIONGUID
  2
{7D8D6409-C36D-4E23-B4FF-66AFCF6A0F42}
  9
$EXTNAMES
290
     1
  9
$PSVPSCALE
 40
0.0
  9
$OLESTARTUP
290
     0
  0
ENDSEC
  0
SECTION
  2
CLASSES
  0
CLASS
  1
ACDBDICTIONARYWDFLT
  2
AcDbDictionaryWithDefault
  3
ObjectDBX Classes
 90
        0
280
     0
281
     0
  0
CLASS
  1
ACDBPLACEHOLDER
  2
AcDbPlaceHolder
  3
ObjectDBX Classes
 90
        0
280
     0
281
     0
  0
CLASS
  1
LAYOUT
  2
AcDbLayout
  3
ObjectDBX Classes
 90
        0
280
     0
281
     0
  0
CLASS
  1
DICTIONARYVAR
  2
AcDbDictionaryVar
  3
ObjectDBX Classes
 90
        0
280
     0
281
     0
  0
CLASS
  1
DIMASSOC
  2
AcDbDimAssoc
  3
"AcDbDimAssoc|Product Desc:     AcDim ARX App For Dimension|Company:          Autodesk, Inc.|WEB Address:      www.autodesk.com"
 90
        0
280
     0
281
     0
  0
ENDSEC
  0
SECTION
  2
TABLES
  0
TABLE
  2
VPORT
  5
8
330
0
100
AcDbSymbolTable
 70
     5
  0
VPORT
  5
129E
330
8
100
AcDbSymbolTableRecord
100
AcDbViewportTableRecord
  2
*Active
 70
     0
 10
0.0
 20
0.0
 11
1.0
 21
1.0
 12
27.71776452455713
 22
22.0502375767945
 13
0.0
 23
0.0
 14
0.5
 24
0.5
 15
0.5
 25
0.5
 16
0.0
 26
0.0
 36
1.0
 17
0.0
 27
0.0
 37
0.0
 40
29.37269880823296
 41
1.484472049689441
 42
50.0
 43
0.0
 44
0.0
 50
0.0
 51
0.0
 71
     0
 72
  1000
 73
     1
 74
     3
 75
     0
 76
     0
 77
     0
 78
     0
281
     0
 65
     1
110
29.04977887590689
120
20.79565753773976
130
0.0
111
1.0
121
0.0
131
0.0
112
0.0
122
1.0
132
0.0
 79
     0
146
0.0
  0
ENDTAB
  0
TABLE
  2
LTYPE
  5
5
330
0
100
AcDbSymbolTable
 70
     2
  0
LTYPE
  5
14
330
5
100
AcDbSymbolTableRecord
100
AcDbLinetypeTableRecord
  2
ByBlock
 70
     0
  3

 72
    65
 73
     0
 40
0.0
  0
LTYPE
  5
15
330
5
100
AcDbSymbolTableRecord
100
AcDbLinetypeTableRecord
  2
ByLayer
 70
     0
  3

 72
    65
 73
     0
 40
0.0
  0
LTYPE
  5
16
330
5
100
AcDbSymbolTableRecord
100
AcDbLinetypeTableRecord
  2
Continuous
 70
     0
  3
Solid line
 72
    65
 73
     0
 40
0.0
  0
LTYPE
  5
CBD
330
5
100
AcDbSymbolTableRecord
100
AcDbLinetypeTableRecord
  2
HIDDEN
 70
     0
  3
Hidden __ __ __ __ __ __ __ __ __ __ __ __ __ _
 72
    65
 73
     2
 40
0.375
 49
0.25
 74
     0
 49
-0.125
 74
     0
  0
ENDTAB
  0
TABLE
  2
LAYER
  5
2
102
{ACAD_XDICTIONARY
360
158
102
}
330
0
100
AcDbSymbolTable
 70
     7
  0
LAYER
  5
10
330
2
100
AcDbSymbolTableRecord
100
AcDbLayerTableRecord
  2
0
 70
     0
 62
     7
  6
Continuous
370
    -3
390
F
  0
LAYER
  5
156
330
2
100
AcDbSymbolTableRecord
100
AcDbLayerTableRecord
  2
4INFAN
 70
     0
 62
     7
  6
Continuous
370
    -3
390
F
  0
LAYER
  5
157
330
2
100
AcDbSymbolTableRecord
100
AcDbLayerTableRecord
  2
4FNGRGD
 70
     0
 62
     7
  6
Continuous
370
    -3
390
F
  0
LAYER
  5
751
330
2
100
AcDbSymbolTableRecord
100
AcDbLayerTableRecord
  2
Defpoints
 70
     0
 62
     7
  6
Continuous
290
     0
370
    -3
390
F
  0
LAYER
  5
CC0
330
2
100
AcDbSymbolTableRecord
100
AcDbLayerTableRecord
  2
DIMENSION
 70
     0
 62
     7
  6
Continuous
370
    -3
390
F
  0
LAYER
  5
D16
330
2
100
AcDbSymbolTableRecord
100
AcDbLayerTableRecord
  2
TEXT
 70
     0
 62
    -7
  6
Continuous
370
    -3
390
F
  0
LAYER
  5
D17
330
2
100
AcDbSymbolTableRecord
100
AcDbLayerTableRecord
  2
BORDER
 70
     0
 62
     7
  6
Continuous
370
    -3
390
F
  0
ENDTAB
  0
TABLE
  2
STYLE
  5
3
330
0
100
AcDbSymbolTable
 70
     2
  0
STYLE
  5
11
330
3
100
AcDbSymbolTableRecord
100
AcDbTextStyleTableRecord
  2
Standard
 70
     0
 40
0.0
 41
1.0
 50
0.0
 71
     0
 42
0.2
  3
txt
  4

  0
STYLE
  5
CBC
330
3
100
AcDbSymbolTableRecord
100
AcDbTextStyleTableRecord
  2

 70
     1
 40
0.0
 41
1.0
 50
0.0
 71
     0
 42
0.2
  3
ltypeshp.shx
  4

  0
ENDTAB
  0
TABLE
  2
VIEW
  5
6
330
0
100
AcDbSymbolTable
 70
     0
  0
ENDTAB
  0
TABLE
  2
UCS
  5
7
330
0
100
AcDbSymbolTable
 70
     0
  0
ENDTAB
  0
TABLE
  2
APPID
  5
9
330
0
100
AcDbSymbolTable
 70
     1
  0
APPID
  5
12
330
9
100
AcDbSymbolTableRecord
100
AcDbRegAppTableRecord
  2
ACAD
 70
     0
  0
ENDTAB
  0
TABLE
  2
DIMSTYLE
  5
A
330
0
100
AcDbSymbolTable
 70
     1
100
AcDbDimStyleTable
 71
     1
340
27
  0
DIMSTYLE
105
27
102
{ACAD_REACTORS
330
ED8
330
EE8
330
F10
330
F20
330
F30
330
F39
330
F49
330
F52
330
F8F
330
FA3
330
FC5
330
F7B
330
F72
330
F62
330
11D2
102
}
330
A
100
AcDbSymbolTableRecord
100
AcDbDimStyleTableRecord
  2
Standard
 70
     0
 41
0.41
 42
0.25
140
0.41
271
     3
272
     3
340
11
  0
ENDTAB
  0
TABLE
  2
BLOCK_RECORD
  5
1
330
0
100
AcDbSymbolTable
 70
    33
  0
BLOCK_RECORD
  5
1F
330
1
100
AcDbSymbolTableRecord
100
AcDbBlockTableRecord
  2
*Model_Space
340
22
  0
BLOCK_RECORD
  5
58
330
1
100
AcDbSymbolTableRecord
100
AcDbBlockTableRecord
  2
*Paper_Space
340
59
  0
BLOCK_RECORD
  5
5D
330
1
100
AcDbSymbolTableRecord
100
AcDbBlockTableRecord
  2
*Paper_Space0
340
5E
  0
BLOCK_RECORD
  5
89
330
1
100
AcDbSymbolTableRecord
100
AcDbBlockTableRecord
  2
A$C36A11329
340
0
  0
BLOCK_RECORD
  5
C1
330
1
100
AcDbSymbolTableRecord
100
AcDbBlockTableRecord
  2
A$C1A323351
340
0
  0
BLOCK_RECORD
  5
8EE
330
1
100
AcDbSymbolTableRecord
100
AcDbBlockTableRecord
  2
A$C0F1E4080
340
0
102
{BLKREFS
331
B04
102
}
  0
BLOCK_RECORD
  5
91A
330
1
100
AcDbSymbolTableRecord
100
AcDbBlockTableRecord
  2
A$C3A64330D
340
0
102
{BLKREFS
331
B03
102
}
  0
BLOCK_RECORD
  5
A72
330
1
100
AcDbSymbolTableRecord
100
AcDbBlockTableRecord
  2
A$C4ACB365F
340
0
  0
BLOCK_RECORD
  5
CE2
330
1
100
AcDbSymbolTableRecord
100
AcDbBlockTableRecord
  2
*D6
340
0
  0
BLOCK_RECORD
  5
CEF
330
1
100
AcDbSymbolTableRecord
100
AcDbBlockTableRecord
  2
*D7
340
0
  0
BLOCK_RECORD
  5
CFC
330
1
100
AcDbSymbolTableRecord
100
AcDbBlockTableRecord
  2
*D8
340
0
  0
BLOCK_RECORD
  5
D09
330
1
100
AcDbSymbolTableRecord
100
AcDbBlockTableRecord
  2
*D9
340
0
  0
BLOCK_RECORD
  5
D18
330
1
100
AcDbSymbolTableRecord
100
AcDbBlockTableRecord
  2
A$C02277F94
340
0
  0
BLOCK_RECORD
  5
E50
330
1
100
AcDbSymbolTableRecord
100
AcDbBlockTableRecord
  2
*D11
340
0
  0
BLOCK_RECORD
  5
E5D
330
1
100
AcDbSymbolTableRecord
100
AcDbBlockTableRecord
  2
*D12
340
0
  0
BLOCK_RECORD
  5
E6A
330
1
100
AcDbSymbolTableRecord
100
AcDbBlockTableRecord
  2
*D13
340
0
  0
BLOCK_RECORD
  5
E77
330
1
100
AcDbSymbolTableRecord
100
AcDbBlockTableRecord
  2
*D14
340
0
  0
BLOCK_RECORD
  5
ED9
330
1
100
AcDbSymbolTableRecord
100
AcDbBlockTableRecord
  2
*D15
340
0
  0
BLOCK_RECORD
  5
EE9
330
1
100
AcDbSymbolTableRecord
100
AcDbBlockTableRecord
  2
*D16
340
0
  0
BLOCK_RECORD
  5
F11
330
1
100
AcDbSymbolTableRecord
100
AcDbBlockTableRecord
  2
*D17
340
0
  0
BLOCK_RECORD
  5
F21
330
1
100
AcDbSymbolTableRecord
100
AcDbBlockTableRecord
  2
*D18
340
0
  0
BLOCK_RECORD
  5
F31
330
1
100
AcDbSymbolTableRecord
100
AcDbBlockTableRecord
  2
*D19
340
0
  0
BLOCK_RECORD
  5
F3A
330
1
100
AcDbSymbolTableRecord
100
AcDbBlockTableRecord
  2
*D20
340
0
  0
BLOCK_RECORD
  5
F4A
330
1
100
AcDbSymbolTableRecord
100
AcDbBlockTableRecord
  2
*D21
340
0
  0
BLOCK_RECORD
  5
F53
330
1
100
AcDbSymbolTableRecord
100
AcDbBlockTableRecord
  2
*D22
340
0
  0
BLOCK_RECORD
  5
F63
330
1
100
AcDbSymbolTableRecord
100
AcDbBlockTableRecord
  2
*D23
340
0
  0
BLOCK_RECORD
  5
F73
330
1
100
AcDbSymbolTableRecord
100
AcDbBlockTableRecord
  2
*D24
340
0
  0
BLOCK_RECORD
  5
F7C
330
1
100
AcDbSymbolTableRecord
100
AcDbBlockTableRecord
  2
*D25
340
0
  0
BLOCK_RECORD
  5
F90
330
1
100
AcDbSymbolTableRecord
100
AcDbBlockTableRecord
  2
*D26
340
0
  0
BLOCK_RECORD
  5
FA4
330
1
100
AcDbSymbolTableRecord
100
AcDbBlockTableRecord
  2
*D27
340
0
  0
BLOCK_RECORD
  5
FC6
330
1
100
AcDbSymbolTableRecord
100
AcDbBlockTableRecord
  2
*D28
340
0
  0
BLOCK_RECORD
  5
1137
330
1
100
AcDbSymbolTableRecord
100
AcDbBlockTableRecord
  2
A$C78BE44BC
340
0
  0
BLOCK_RECORD
  5
11D3
330
1
100
AcDbSymbolTableRecord
100
AcDbBlockTableRecord
  2
*D30
340
0
  0
ENDTAB
  0
ENDSEC
  0
SECTION
  2
BLOCKS
  0
BLOCK
  5
20
330
1F
100
AcDbEntity
  8
0
100
AcDbBlockBegin
  2
*Model_Space
 70
     0
 10
0.0
 20
0.0
 30
0.0
  3
*Model_Space
  1

  0
ENDBLK
  5
21
330
1F
100
AcDbEntity
  8
0
100
AcDbBlockEnd
  0
BLOCK
  5
5A
330
58
100
AcDbEntity
 67
     1
  8
0
100
AcDbBlockBegin
  2
*Paper_Space
 70
     0
 10
0.0
 20
0.0
 30
0.0
  3
*Paper_Space
  1

  0
ENDBLK
  5
5B
330
58
100
AcDbEntity
 67
     1
  8
0
100
AcDbBlockEnd
  0
BLOCK
  5
5F
330
5D
100
AcDbEntity
  8
0
100
AcDbBlockBegin
  2
*Paper_Space0
 70
     0
 10
0.0
 20
0.0
 30
0.0
  3
*Paper_Space0
  1

  0
ENDBLK
  5
60
330
5D
100
AcDbEntity
  8
0
100
AcDbBlockEnd
  0
BLOCK
  5
8A
330
89
100
AcDbEntity
  8
0
100
AcDbBlockBegin
  2
A$C36A11329
 70
     0
 10
0.0
 20
0.0
 30
0.0
  3
A$C36A11329
  1

  0
HATCH
  5
8B
330
89
100
AcDbEntity
  8
0
100
AcDbHatch
 10
0.0
 20
0.0
 30
0.0
210
0.0
220
0.0
230
1.0
  2
ANSI31
 70
     0
 71
     1
 91
        2
 92
        7
 72
     0
 73
     1
 93
        4
 10
-0.365000000000002
 20
6.721614173000041
 10
-0.365000000000002
 20
-0.3649999999999807
 10
16.17043306999999
 20
-0.3649999999999806
 10
16.17043306999999
 20
6.721614173000019
 97
        4
330
BB
330
BA
330
BD
330
BC
 92
       22
 72
     1
 73
     1
 93
       48
 10
11.64793306999998
 20
6.221614173000026
 42
0.0
 10
11.64793306999998
 20
6.356614173000025
 42
-1.0
 10
12.06293306999999
 20
6.356614173000043
 42
0.0
 10
12.06293307
 20
6.221614173000034
 42
0.0
 10
15.37698375580755
 20
6.221614173000034
 42
0.0
 10
15.65870841290378
 20
6.503338830096247
 42
-1.0
 10
15.95215772709619
 20
6.209889515903828
 42
0.0
 10
15.67043306999999
 20
5.928164858807634
 42
0.0
 10
15.67043306999999
 20
3.385807086500022
 42
0.0
 10
15.80543307000001
 20
3.385807086500022
 42
-1.0
 10
15.80543307000002
 20
2.970807086500016
 42
0.0
 10
15.67043306999998
 20
2.970807086500009
 42
0.0
 10
15.67043306999999
 20
0.4284493141924058
 42
0.0
 10
15.9521577270962
 20
0.1467246570962004
 42
-1.0
 10
15.65870841290379
 20
-0.146724657096213
 42
0.0
 10
15.37698375580754
 20
0.1350000000000193
 42
0.0
 10
12.06293307
 20
0.1350000000000335
 42
0.0
 10
12.06293306999999
 20
0.0000000000000142
 42
-1.0
 10
11.64793306999998
 20
0.0000000000000142
 42
0.0
 10
11.64793306999999
 20
0.1350000000000193
 42
0.0
 10
8.112933069999996
 20
0.1350000000000051
 42
0.0
 10
8.112933069999989
 20
0.0000000000000284
 42
-1.0
 10
7.697933069999983
 20
0.0000000000000284
 42
0.0
 10
7.697933069999982
 20
0.1350000000000193
 42
0.0
 10
4.162933069999993
 20
0.1350000000000051
 42
0.0
 10
4.162933069999986
 20
0.0000000000000284
 42
-1.0
 10
3.74793306999998
 20
0.0000000000000284
 42
0.0
 10
3.747933069999981
 20
0.1350000000000193
 42
0.0
 10
0.4284493141924485
 20
0.1350000000000193
 42
0.0
 10
0.1467246570962146
 20
-0.1467246570962004
 42
-1.0
 10
-0.1467246570962009
 20
0.146724657096207
 42
0.0
 10
0.1350000000000051
 20
0.4284493141924131
 42
0.0
 10
0.1350000000000051
 20
2.970807086500009
 42
0.0
 10
-0.0000000000000142
 20
2.970807086500016
 42
-1.0
 10
-0.0000000000000142
 20
3.385807086500022
 42
0.0
 10
0.1350000000000051
 20
3.385807086500022
 42
0.0
 10
0.134999999999998
 20
5.928164858807633
 42
0.0
 10
-0.1467246570962075
 20
6.209889515903832
 42
-1.0
 10
0.1467246570962098
 20
6.503338830096251
 42
0.0
 10
0.4284493141924198
 20
6.221614173000047
 42
0.0
 10
3.747933069999981
 20
6.221614173000042
 42
0.0
 10
3.74793306999998
 20
6.356614173000018
 42
-1.0
 10
4.162933069999986
 20
6.356614173000036
 42
0.0
 10
4.162933069999994
 20
6.221614173000055
 42
0.0
 10
7.697933069999983
 20
6.221614173000049
 42
0.0
 10
7.697933069999983
 20
6.356614173000018
 42
-1.0
 10
8.112933069999989
 20
6.356614173000036
 42
0.0
 10
8.112933069999995
 20
6.221614173000041
 42
0.0
 97
       48
330
A4
330
A3
330
A2
330
B9
330
AA
330
A8
330
A9
330
B2
330
8C
330
8D
330
8E
330
B6
330
93
330
95
330
94
330
B3
330
98
330
97
330
96
330
B4
330
9B
330
9A
330
99
330
B5
330
9E
330
9D
330
9C
330
B7
330
9F
330
A0
330
A1
330
8F
330
90
330
92
330
91
330
B8
330
AE
330
BE
330
AD
330
AF
330
AC
330
BF
330
AB
330
B0
330
A7
330
A6
330
A5
330
B1
 75
     0
 76
     1
 52
0.0
 41
1.0
 77
     0
 78
     1
 53
45.0
 43
-34.28528331492162
 44
31.08270000388452
 45
-0.0883883476483184
 46
0.0883883476483185
 79
     0
 47
0.0384835058212355
 98
        2
 10
9.6304136694636
 20
6.629378367819029
 10
9.6304136694636
 20
6.629378367819029
  0
LINE
  5
8C
102
{ACAD_REACTORS
330
8B
102
}
330
89
100
AcDbEntity
  8
0
100
AcDbLine
 10
15.80543307000001
 20
3.385807086500022
 30
0.0
 11
15.67043307000004
 21
3.385807086500022
 31
0.0
  0
ARC
  5
8D
102
{ACAD_REACTORS
330
8B
102
}
330
89
100
AcDbEntity
  8
0
100
AcDbCircle
 10
15.80543307000001
 20
3.178307086500012
 30
0.0
 40
0.2075
100
AcDbArc
 50
270.0000000000041
 51
90.0
  0
LINE
  5
8E
102
{ACAD_REACTORS
330
8B
102
}
330
89
100
AcDbEntity
  8
0
100
AcDbLine
 10
15.80543307000001
 20
2.970807086500016
 30
0.0
 11
15.67043307000004
 21
2.970807086500009
 31
0.0
  0
LINE
  5
8F
102
{ACAD_REACTORS
330
8B
102
}
330
89
100
AcDbEntity
  8
0
100
AcDbLine
 10
0.1350000000000051
 20
2.970807086500009
 30
0.0
 11
0.1350000000000051
 21
0.4284493141924202
 31
0.0
  0
LINE
  5
90
102
{ACAD_REACTORS
330
8B
102
}
330
89
100
AcDbEntity
  8
0
100
AcDbLine
 10
-0.0000000000000142
 20
2.970807086500016
 30
0.0
 11
0.1349999999999483
 21
2.970807086500009
 31
0.0
  0
LINE
  5
91
102
{ACAD_REACTORS
330
8B
102
}
330
89
100
AcDbEntity
  8
0
100
AcDbLine
 10
-0.0000000000000142
 20
3.385807086500022
 30
0.0
 11
0.1349999999999483
 21
3.385807086500022
 31
0.0
  0
ARC
  5
92
102
{ACAD_REACTORS
330
8B
102
}
330
89
100
AcDbEntity
  8
0
100
AcDbCircle
 10
-0.0000000000000142
 20
3.178307086500012
 30
0.0
 40
0.2075
100
AcDbArc
 50
90.0
 51
269.9999999999959
  0
LINE
  5
93
102
{ACAD_REACTORS
330
8B
102
}
330
89
100
AcDbEntity
  8
0
100
AcDbLine
 10
15.9521577270962
 20
0.1467246570962004
 30
0.0
 11
15.67043306999999
 21
0.428449314192406
 31
0.0
  0
LINE
  5
94
102
{ACAD_REACTORS
330
8B
102
}
330
89
100
AcDbEntity
  8
0
100
AcDbLine
 10
15.65870841290378
 20
-0.1467246570962004
 30
0.0
 11
15.37698375580757
 21
0.1349999999999909
 31
0.0
  0
ARC
  5
95
102
{ACAD_REACTORS
330
8B
102
}
330
89
100
AcDbEntity
  8
0
100
AcDbCircle
 10
15.80543306999999
 20
0.0
 30
0.0
 40
0.2075
100
AcDbArc
 50
224.9999999999996
 51
44.99999999999956
  0
LINE
  5
96
102
{ACAD_REACTORS
330
8B
102
}
330
89
100
AcDbEntity
  8
0
100
AcDbLine
 10
11.64793306999998
 20
0.0000000000000142
 30
0.0
 11
11.64793306999998
 21
0.1349999999999909
 31
0.0
  0
ARC
  5
97
102
{ACAD_REACTORS
330
8B
102
}
330
89
100
AcDbEntity
  8
0
100
AcDbCircle
 10
11.85543306999999
 20
0.0000000000000142
 30
0.0
 40
0.2075
100
AcDbArc
 50
180.0
 51
359.9999999999959
  0
LINE
  5
98
102
{ACAD_REACTORS
330
8B
102
}
330
89
100
AcDbEntity
  8
0
100
AcDbLine
 10
12.06293306999999
 20
0.0000000000000142
 30
0.0
 11
12.06293307
 21
0.1349999999999909
 31
0.0
  0
LINE
  5
99
102
{ACAD_REACTORS
330
8B
102
}
330
89
100
AcDbEntity
  8
0
100
AcDbLine
 10
7.697933069999983
 20
0.0000000000000284
 30
0.0
 11
7.697933069999983
 21
0.1349999999999909
 31
0.0
  0
ARC
  5
9A
102
{ACAD_REACTORS
330
8B
102
}
330
89
100
AcDbEntity
  8
0
100
AcDbCircle
 10
7.905433069999986
 20
0.0000000000000284
 30
0.0
 40
0.2075
100
AcDbArc
 50
180.0
 51
359.9999999999959
  0
LINE
  5
9B
102
{ACAD_REACTORS
330
8B
102
}
330
89
100
AcDbEntity
  8
0
100
AcDbLine
 10
8.112933069999989
 20
0.0000000000000284
 30
0.0
 11
8.112933069999996
 21
0.1349999999999909
 31
0.0
  0
LINE
  5
9C
102
{ACAD_REACTORS
330
8B
102
}
330
89
100
AcDbEntity
  8
0
100
AcDbLine
 10
3.74793306999998
 20
0.0000000000000284
 30
0.0
 11
3.74793306999998
 21
0.1349999999999909
 31
0.0
  0
ARC
  5
9D
102
{ACAD_REACTORS
330
8B
102
}
330
89
100
AcDbEntity
  8
0
100
AcDbCircle
 10
3.955433069999983
 20
0.0000000000000284
 30
0.0
 40
0.2075
100
AcDbArc
 50
180.0
 51
359.9999999999959
  0
LINE
  5
9E
102
{ACAD_REACTORS
330
8B
102
}
330
89
100
AcDbEntity
  8
0
100
AcDbLine
 10
4.162933069999986
 20
0.0000000000000284
 30
0.0
 11
4.162933069999994
 21
0.1349999999999909
 31
0.0
  0
LINE
  5
9F
102
{ACAD_REACTORS
330
8B
102
}
330
89
100
AcDbEntity
  8
0
100
AcDbLine
 10
0.1467246570962146
 20
-0.1467246570962004
 30
0.0
 11
0.4284493141924202
 21
0.1349999999999909
 31
0.0
  0
ARC
  5
A0
102
{ACAD_REACTORS
330
8B
102
}
330
89
100
AcDbEntity
  8
0
100
AcDbCircle
 10
0.0
 20
0.0
 30
0.0
 40
0.2075
100
AcDbArc
 50
135.0000000000004
 51
315.0000000000005
  0
LINE
  5
A1
102
{ACAD_REACTORS
330
8B
102
}
330
89
100
AcDbEntity
  8
0
100
AcDbLine
 10
-0.1467246570962075
 20
0.1467246570962004
 30
0.0
 11
0.134999999999998
 21
0.428449314192406
 31
0.0
  0
LINE
  5
A2
102
{ACAD_REACTORS
330
8B
102
}
330
89
100
AcDbEntity
  8
0
100
AcDbLine
 10
12.06293306999999
 20
6.356614173000025
 30
0.0
 11
12.06293307
 21
6.221614173000048
 31
0.0
  0
ARC
  5
A3
102
{ACAD_REACTORS
330
8B
102
}
330
89
100
AcDbEntity
  8
0
100
AcDbCircle
 10
11.85543306999999
 20
6.356614173000025
 30
0.0
 40
0.2075
100
AcDbArc
 50
0.0000000000040711
 51
180.0
  0
LINE
  5
A4
102
{ACAD_REACTORS
330
8B
102
}
330
89
100
AcDbEntity
  8
0
100
AcDbLine
 10
11.64793306999998
 20
6.356614173000025
 30
0.0
 11
11.64793306999998
 21
6.221614173000048
 31
0.0
  0
LINE
  5
A5
102
{ACAD_REACTORS
330
8B
102
}
330
89
100
AcDbEntity
  8
0
100
AcDbLine
 10
8.112933069999989
 20
6.356614173000018
 30
0.0
 11
8.112933069999996
 21
6.221614173000041
 31
0.0
  0
ARC
  5
A6
102
{ACAD_REACTORS
330
8B
102
}
330
89
100
AcDbEntity
  8
0
100
AcDbCircle
 10
7.905433069999986
 20
6.356614173000018
 30
0.0
 40
0.2075
100
AcDbArc
 50
0.0000000000040711
 51
180.0
  0
LINE
  5
A7
102
{ACAD_REACTORS
330
8B
102
}
330
89
100
AcDbEntity
  8
0
100
AcDbLine
 10
7.697933069999983
 20
6.356614173000018
 30
0.0
 11
7.697933069999983
 21
6.221614173000041
 31
0.0
  0
ARC
  5
A8
102
{ACAD_REACTORS
330
8B
102
}
330
89
100
AcDbEntity
  8
0
100
AcDbCircle
 10
15.80543306999999
 20
6.356614173000039
 30
0.0
 40
0.2075
100
AcDbArc
 50
315.0000000000005
 51
135.0000000000004
  0
LINE
  5
A9
102
{ACAD_REACTORS
330
8B
102
}
330
89
100
AcDbEntity
  8
0
100
AcDbLine
 10
15.9521577270962
 20
6.209889515903832
 30
0.0
 11
15.67043306999999
 21
5.928164858807633
 31
0.0
  0
LINE
  5
AA
102
{ACAD_REACTORS
330
8B
102
}
330
89
100
AcDbEntity
  8
0
100
AcDbLine
 10
15.65870841290378
 20
6.503338830096247
 30
0.0
 11
15.37698375580757
 21
6.221614173000048
 31
0.0
  0
LINE
  5
AB
102
{ACAD_REACTORS
330
8B
102
}
330
89
100
AcDbEntity
  8
0
100
AcDbLine
 10
4.162933069999986
 20
6.356614173000018
 30
0.0
 11
4.162933069999994
 21
6.221614173000041
 31
0.0
  0
LINE
  5
AC
102
{ACAD_REACTORS
330
8B
102
}
330
89
100
AcDbEntity
  8
0
100
AcDbLine
 10
3.74793306999998
 20
6.356614173000018
 30
0.0
 11
3.74793306999998
 21
6.221614173000041
 31
0.0
  0
LINE
  5
AD
102
{ACAD_REACTORS
330
8B
102
}
330
89
100
AcDbEntity
  8
0
100
AcDbLine
 10
0.1467246570962146
 20
6.503338830096247
 30
0.0
 11
0.4284493141924202
 21
6.221614173000048
 31
0.0
  0
LINE
  5
AE
102
{ACAD_REACTORS
330
8B
102
}
330
89
100
AcDbEntity
  8
0
100
AcDbLine
 10
-0.1467246570962075
 20
6.209889515903832
 30
0.0
 11
0.134999999999998
 21
5.928164858807633
 31
0.0
  0
LINE
  5
AF
102
{ACAD_REACTORS
330
8B
102
}
330
89
100
AcDbEntity
  8
0
100
AcDbLine
 10
3.747933069999987
 20
6.221614173000041
 30
0.0
 11
0.4284493141924202
 21
6.221614173000048
 31
0.0
  0
LINE
  5
B0
102
{ACAD_REACTORS
330
8B
102
}
330
89
100
AcDbEntity
  8
0
100
AcDbLine
 10
7.69793306999999
 20
6.221614173000048
 30
0.0
 11
4.162933070000001
 21
6.221614173000055
 31
0.0
  0
LINE
  5
B1
102
{ACAD_REACTORS
330
8B
102
}
330
89
100
AcDbEntity
  8
0
100
AcDbLine
 10
11.64793306999998
 20
6.221614173000027
 30
0.0
 11
8.112933070000003
 21
6.221614173000041
 31
0.0
  0
LINE
  5
B2
102
{ACAD_REACTORS
330
8B
102
}
330
89
100
AcDbEntity
  8
0
100
AcDbLine
 10
15.67043306999999
 20
3.385807086500022
 30
0.0
 11
15.67043306999999
 21
5.928164858807633
 31
0.0
  0
LINE
  5
B3
102
{ACAD_REACTORS
330
8B
102
}
330
89
100
AcDbEntity
  8
0
100
AcDbLine
 10
12.06293307000001
 20
0.1350000000000335
 30
0.0
 11
15.37698375580754
 21
0.1350000000000193
 31
0.0
  0
LINE
  5
B4
102
{ACAD_REACTORS
330
8B
102
}
330
89
100
AcDbEntity
  8
0
100
AcDbLine
 10
8.112933069999989
 20
0.1350000000000051
 30
0.0
 11
11.64793306999998
 21
0.1350000000000193
 31
0.0
  0
LINE
  5
B5
102
{ACAD_REACTORS
330
8B
102
}
330
89
100
AcDbEntity
  8
0
100
AcDbLine
 10
4.162933069999986
 20
0.1350000000000051
 30
0.0
 11
7.69793306999999
 21
0.1350000000000193
 31
0.0
  0
LINE
  5
B6
102
{ACAD_REACTORS
330
8B
102
}
330
89
100
AcDbEntity
  8
0
100
AcDbLine
 10
15.67043306999999
 20
0.4284493141923989
 30
0.0
 11
15.67043306999998
 21
2.970807086500002
 31
0.0
  0
LINE
  5
B7
102
{ACAD_REACTORS
330
8B
102
}
330
89
100
AcDbEntity
  8
0
100
AcDbLine
 10
0.4284493141924628
 20
0.1350000000000193
 30
0.0
 11
3.74793306999998
 21
0.1350000000000193
 31
0.0
  0
LINE
  5
B8
102
{ACAD_REACTORS
330
8B
102
}
330
89
100
AcDbEntity
  8
0
100
AcDbLine
 10
0.134999999999998
 20
5.928164858807633
 30
0.0
 11
0.1350000000000051
 21
3.385807086500022
 31
0.0
  0
LINE
  5
B9
102
{ACAD_REACTORS
330
8B
102
}
330
89
100
AcDbEntity
  8
0
100
AcDbLine
 10
15.37698375580756
 20
6.221614173000034
 30
0.0
 11
12.06293307000001
 21
6.221614173000034
 31
0.0
  0
LINE
  5
BA
102
{ACAD_REACTORS
330
8B
102
}
330
89
100
AcDbEntity
  8
0
100
AcDbLine
 10
-0.365000000000002
 20
6.721614173000041
 30
0.0
 11
-0.365000000000002
 21
-0.3649999999999807
 31
0.0
  0
LINE
  5
BB
102
{ACAD_REACTORS
330
8B
102
}
330
89
100
AcDbEntity
  8
0
100
AcDbLine
 10
16.17043306999999
 20
6.72161417300002
 30
0.0
 11
-0.365000000000002
 21
6.721614173000041
 31
0.0
  0
LINE
  5
BC
102
{ACAD_REACTORS
330
8B
102
}
330
89
100
AcDbEntity
  8
0
100
AcDbLine
 10
16.17043306999999
 20
-0.3649999999999807
 30
0.0
 11
16.17043306999999
 21
6.72161417300002
 31
0.0
  0
LINE
  5
BD
102
{ACAD_REACTORS
330
8B
102
}
330
89
100
AcDbEntity
  8
0
100
AcDbLine
 10
-0.365000000000002
 20
-0.3649999999999807
 30
0.0
 11
16.17043306999999
 21
-0.3649999999999807
 31
0.0
  0
ARC
  5
BE
102
{ACAD_REACTORS
330
8B
102
}
330
89
100
AcDbEntity
  8
0
100
AcDbCircle
 10
0.0
 20
6.356614173000039
 30
0.0
 40
0.2075
100
AcDbArc
 50
44.99999999999956
 51
224.9999999999996
  0
ARC
  5
BF
102
{ACAD_REACTORS
330
8B
102
}
330
89
100
AcDbEntity
  8
0
100
AcDbCircle
 10
3.955433069999983
 20
6.356614173000018
 30
0.0
 40
0.2075
100
AcDbArc
 50
0.0000000000040711
 51
180.0
  0
ENDBLK
  5
C0
330
89
100
AcDbEntity
  8
0
100
AcDbBlockEnd
  0
BLOCK
  5
C2
330
C1
100
AcDbEntity
  8
0
100
AcDbBlockBegin
  2
A$C1A323351
 70
     0
 10
0.0
 20
0.0
 30
0.0
  3
A$C1A323351
  1

  0
ARC
  5
C3
330
C1
100
AcDbEntity
  8
4INFAN
100
AcDbCircle
 10
2.344999999999991
 20
-2.344999999999998
 30
0.0
 40
2.125
100
AcDbArc
 50
316.2134130922968
 51
0.0
  0
ARC
  5
C4
330
C1
100
AcDbEntity
  8
4INFAN
100
AcDbCircle
 10
2.344999999999991
 20
-2.344999999999998
 30
0.0
 40
1.3125
100
AcDbArc
 50
316.9648117971691
 51
43.03518820283043
  0
ARC
  5
C5
330
C1
100
AcDbEntity
  8
4INFAN
100
AcDbCircle
 10
2.344999999999991
 20
-2.344999999999998
 30
0.0
 40
1.3125
100
AcDbArc
 50
226.9648117971694
 51
313.0351882028307
  0
ARC
  5
C6
330
C1
100
AcDbEntity
  8
4INFAN
100
AcDbCircle
 10
2.344999999999991
 20
-2.344999999999998
 30
0.0
 40
2.125
100
AcDbArc
 50
46.21341309229631
 51
71.99999999999985
  0
ARC
  5
C7
330
C1
100
AcDbEntity
  8
4INFAN
100
AcDbCircle
 10
2.344999999999991
 20
-2.344999999999998
 30
0.0
 40
1.3125
100
AcDbArc
 50
46.96481179716884
 51
133.0351882028311
  0
LINE
  5
C8
330
C1
100
AcDbEntity
  8
4INFAN
100
AcDbLine
 10
2.294395729781365
 20
-0.8958833008223123
 30
0.0
 11
2.287066835473842
 21
-0.686011227148299
 31
0.0
  0
LINE
  5
C9
330
C1
100
AcDbEntity
  8
4INFAN
100
AcDbLine
 10
2.284623870704669
 20
-0.616053869256966
 30
0.0
 11
2.27764397136417
 21
-0.416175703853142
 31
0.0
  0
LINE
  5
CA
330
C1
100
AcDbEntity
  8
4INFAN
100
AcDbLine
 10
2.275201006594995
 20
-0.3462183459618089
 30
0.0
 11
2.270838569507183
 21
-0.2212944925844269
 31
0.0
  0
LINE
  5
CB
330
C1
100
AcDbEntity
  8
4INFAN
100
AcDbLine
 10
2.963033988749893
 20
-0.4428869674096916
 30
0.0
 11
3.001661113046758
 21
-0.3240049028728009
 31
0.0
  0
LINE
  5
CC
330
C1
100
AcDbEntity
  8
4INFAN
100
AcDbLine
 10
2.879599400268654
 20
-0.6996722268093834
 30
0.0
 11
2.941402799143647
 21
-0.5094609235503569
 31
0.0
  0
LINE
  5
CD
330
C1
100
AcDbEntity
  8
4INFAN
100
AcDbLine
 10
2.793074641843668
 20
-0.9659680513720303
 30
0.0
 11
2.857968210662408
 21
-0.7662461829500487
 31
0.0
  0
LINE
  5
CE
330
C1
100
AcDbEntity
  8
4INFAN
100
AcDbLine
 10
4.224385241571807
 20
-1.66095971334866
 30
0.0
 11
4.341846819170044
 21
-1.618207195432951
 31
0.0
  0
LINE
  5
CF
330
C1
100
AcDbEntity
  8
4INFAN
100
AcDbLine
 10
3.97066823395961
 20
-1.753305152046586
 30
0.0
 11
4.158606758116794
 21
-1.684901123381457
 31
0.0
  0
LINE
  5
D0
330
C1
100
AcDbEntity
  8
4INFAN
100
AcDbLine
 10
3.707554300139559
 20
-1.849070792177776
 30
0.0
 11
3.904889750504597
 21
-1.777246562079383
 31
0.0
  0
LINE
  5
D1
330
C1
100
AcDbEntity
  8
4INFAN
100
AcDbLine
 10
4.344999999999991
 20
-2.344999999999998
 30
0.0
 11
4.469999999999991
 21
-2.344999999999998
 31
0.0
  0
LINE
  5
D2
330
C1
100
AcDbEntity
  8
4INFAN
100
AcDbLine
 10
4.074999999999992
 20
-2.344999999999998
 30
0.0
 11
4.274999999999991
 21
-2.344999999999998
 31
0.0
  0
LINE
  5
D3
330
C1
100
AcDbEntity
  8
4INFAN
100
AcDbLine
 10
3.794999999999991
 20
-2.344999999999998
 30
0.0
 11
4.004999999999991
 21
-2.344999999999998
 31
0.0
  0
LINE
  5
D4
330
C1
100
AcDbEntity
  8
4INFAN
100
AcDbLine
 10
3.57632295065132
 20
-3.921021507213431
 30
0.0
 11
3.653280635067027
 21
-4.019522851414272
 31
0.0
  0
LINE
  5
D5
330
C1
100
AcDbEntity
  8
4INFAN
100
AcDbLine
 10
3.410094352313389
 20
-3.708258603739622
 30
0.0
 11
3.533226647378523
 21
-3.86586075446096
 31
0.0
  0
LINE
  5
D6
330
C1
100
AcDbEntity
  8
4INFAN
100
AcDbLine
 10
3.2377091392222
 20
-3.487615592729738
 30
0.0
 11
3.366998049040592
 21
-3.653097850987151
 31
0.0
  0
LINE
  5
D7
330
C1
100
AcDbEntity
  8
4INFAN
100
AcDbLine
 10
2.793074641843661
 20
-3.724031948627974
 30
0.0
 11
2.857968210662402
 21
-3.923753817049956
 31
0.0
  0
LINE
  5
D8
330
C1
100
AcDbEntity
  8
4INFAN
100
AcDbLine
 10
2.879599400268649
 20
-3.990327773190614
 30
0.0
 11
2.94140279914364
 21
-4.180539076449647
 31
0.0
  0
LINE
  5
D9
330
C1
100
AcDbEntity
  8
4INFAN
100
AcDbLine
 10
2.963033988749886
 20
-4.247113032590306
 30
0.0
 11
3.001661113046758
 21
-4.365995097127203
 31
0.0
  0
LINE
  5
DA
330
C1
100
AcDbEntity
  8
4INFAN
100
AcDbLine
 10
1.226614193058505
 20
-4.003075145110088
 30
0.0
 11
1.156715080124662
 21
-4.106704841679466
 31
0.0
  0
LINE
  5
DB
330
C1
100
AcDbEntity
  8
4INFAN
100
AcDbLine
 10
1.377596276995607
 20
-3.779235000520223
 30
0.0
 11
1.265757696301456
 21
-3.945042515031232
 31
0.0
  0
LINE
  5
DC
330
C1
100
AcDbEntity
  8
4INFAN
100
AcDbLine
 10
1.534170289967409
 20
-3.547104480204808
 30
0.0
 11
1.416739780238561
 21
-3.721202370441375
 31
0.0
  0
LINE
  5
DD
330
C1
100
AcDbEntity
  8
4INFAN
100
AcDbLine
 10
1.171925358156322
 20
-3.197288615824085
 30
0.0
 11
1.002031789337582
 21
-3.320723518805507
 31
0.0
  0
LINE
  5
DE
330
C1
100
AcDbEntity
  8
4INFAN
100
AcDbLine
 10
0.9454005997313359
 20
-3.361868486465979
 30
0.0
 11
0.7835972008563452
 21
-3.479425536924473
 31
0.0
  0
LINE
  5
DF
330
C1
100
AcDbEntity
  8
4INFAN
100
AcDbLine
 10
0.7269660112500987
 20
-3.520570504584952
 30
0.0
 11
0.6258388869532326
 21
-3.59404366112151
 31
0.0
  0
LINE
  5
E0
330
C1
100
AcDbEntity
  8
4INFAN
100
AcDbLine
 10
0.422476608123354
 20
-1.793725288365997
 30
0.0
 11
0.3023188961310623
 21
-1.759270618888876
 31
0.0
  0
LINE
  5
E1
330
C1
100
AcDbEntity
  8
4INFAN
100
AcDbLine
 10
0.6820172660267012
 20
-1.868147374436588
 30
0.0
 11
0.4897649268390368
 21
-1.813019903273186
 31
0.0
  0
LINE
  5
E2
330
C1
100
AcDbEntity
  8
4INFAN
100
AcDbLine
 10
0.9511705408894286
 20
-1.94532583406535
 30
0.0
 11
0.749305584742384
 21
-1.887441989343777
 31
0.0
  0
LINE
  5
E3
330
C1
100
AcDbEntity
  8
4INFAN
100
AcDbLine
 10
1.171925358156315
 20
-1.492711384175919
 30
0.0
 11
1.002031789337578
 21
-1.369276481194496
 31
0.0
  0
LINE
  5
E4
330
C1
100
AcDbEntity
  8
4INFAN
100
AcDbLine
 10
0.9454005997313323
 20
-1.328131513534025
 30
0.0
 11
0.7835972008563417
 21
-1.210574463075531
 31
0.0
  0
LINE
  5
E5
330
C1
100
AcDbEntity
  8
4INFAN
100
AcDbLine
 10
0.7269660112500951
 20
-1.169429495415059
 30
0.0
 11
0.6258388869532255
 21
-1.095956338878501
 31
0.0
  0
ARC
  5
E6
330
C1
100
AcDbEntity
  8
4INFAN
100
AcDbCircle
 10
2.344999999999991
 20
-2.344999999999998
 30
0.0
 40
2.125
100
AcDbArc
 50
136.2134130922969
 51
144.0000000000002
  0
ARC
  5
E7
330
C1
100
AcDbEntity
  8
4FNGRGD
100
AcDbCircle
 10
2.344999999999991
 20
-2.344999999999998
 30
0.0
 40
2.281
100
AcDbArc
 50
316.1304153241531
 51
43.86958467584686
  0
ARC
  5
E8
330
C1
100
AcDbEntity
  8
4FNGRGD
100
AcDbCircle
 10
2.344999999999991
 20
-2.344999999999998
 30
0.0
 40
2.210999999999999
100
AcDbArc
 50
316.1662090076729
 51
43.83379099232667
  0
ARC
  5
E9
330
C1
100
AcDbEntity
  8
4FNGRGD
100
AcDbCircle
 10
2.344999999999991
 20
-2.344999999999998
 30
0.0
 40
2.0
100
AcDbArc
 50
316.2892638362879
 51
43.71073616371208
  0
ARC
  5
EA
330
C1
100
AcDbEntity
  8
4FNGRGD
100
AcDbCircle
 10
2.344999999999991
 20
-2.344999999999998
 30
0.0
 40
1.929999999999999
100
AcDbArc
 50
316.336033029432
 51
43.66396697056756
  0
ARC
  5
EB
330
C1
100
AcDbEntity
  8
4FNGRGD
100
AcDbCircle
 10
2.344999999999991
 20
-2.344999999999998
 30
0.0
 40
1.729999999999999
100
AcDbArc
 50
316.490520759905
 51
43.5094792400948
  0
ARC
  5
EC
330
C1
100
AcDbEntity
  8
4FNGRGD
100
AcDbCircle
 10
2.344999999999991
 20
-2.344999999999998
 30
0.0
 40
1.659999999999999
100
AcDbArc
 50
316.5533891376333
 51
43.44661086236678
  0
ARC
  5
ED
330
C1
100
AcDbEntity
  8
4FNGRGD
100
AcDbCircle
 10
2.344999999999991
 20
-2.344999999999998
 30
0.0
 40
1.45
100
AcDbArc
 50
316.7784304387046
 51
43.22156956129523
  0
ARC
  5
EE
330
C1
100
AcDbEntity
  8
4FNGRGD
100
AcDbCircle
 10
2.344999999999991
 20
-2.344999999999998
 30
0.0
 40
1.379999999999999
100
AcDbArc
 50
316.8686719043487
 51
43.13132809565117
  0
ARC
  5
EF
330
C1
100
AcDbEntity
  8
4FNGRGD
100
AcDbCircle
 10
2.344999999999991
 20
-2.344999999999998
 30
0.0
 40
1.177
100
AcDbArc
 50
317.1911118360026
 51
42.80888816399694
  0
ARC
  5
F0
330
C1
100
AcDbEntity
  8
4FNGRGD
100
AcDbCircle
 10
2.344999999999991
 20
-2.344999999999998
 30
0.0
 40
1.106999999999999
100
AcDbArc
 50
317.3297386604346
 51
42.670261339565
  0
ARC
  5
F1
330
C1
100
AcDbEntity
  8
4FNGRGD
100
AcDbCircle
 10
2.344999999999991
 20
-2.344999999999998
 30
0.0
 40
0.9059999999999998
100
AcDbArc
 50
317.8469882677717
 51
42.15301173222738
  0
ARC
  5
F2
330
C1
100
AcDbEntity
  8
4FNGRGD
100
AcDbCircle
 10
2.344999999999991
 20
-2.344999999999998
 30
0.0
 40
0.8359999999999999
100
AcDbArc
 50
318.0855942365202
 51
41.91440576347928
  0
ARC
  5
F3
330
C1
100
AcDbEntity
  8
4FNGRGD
100
AcDbCircle
 10
2.344999999999991
 20
-2.344999999999998
 30
0.0
 40
0.625
100
AcDbArc
 50
319.1288687212372
 51
40.87113127876229
  0
ARC
  5
F4
330
C1
100
AcDbEntity
  8
4FNGRGD
100
AcDbCircle
 10
2.344999999999991
 20
-2.344999999999998
 30
0.0
 40
0.5550000000000001
100
AcDbArc
 50
319.6507090048793
 51
40.34929099511981
  0
ARC
  5
F5
330
C1
100
AcDbEntity
  8
4FNGRGD
100
AcDbCircle
 10
2.344999999999991
 20
-2.344999999999998
 30
0.0
 40
2.281
100
AcDbArc
 50
46.13041532415327
 51
133.8695846758467
  0
ARC
  5
F6
330
C1
100
AcDbEntity
  8
4FNGRGD
100
AcDbCircle
 10
2.344999999999991
 20
-2.344999999999998
 30
0.0
 40
2.210999999999999
100
AcDbArc
 50
46.16620900767275
 51
133.8337909923268
  0
ARC
  5
F7
330
C1
100
AcDbEntity
  8
4FNGRGD
100
AcDbCircle
 10
2.344999999999991
 20
-2.344999999999998
 30
0.0
 40
2.0
100
AcDbArc
 50
46.28926383628805
 51
133.7107361637119
  0
ARC
  5
F8
330
C1
100
AcDbEntity
  8
4FNGRGD
100
AcDbCircle
 10
2.344999999999991
 20
-2.344999999999998
 30
0.0
 40
1.929999999999999
100
AcDbArc
 50
46.33603302943228
 51
133.6639669705677
  0
ARC
  5
F9
330
C1
100
AcDbEntity
  8
4FNGRGD
100
AcDbCircle
 10
2.344999999999991
 20
-2.344999999999998
 30
0.0
 40
1.729999999999999
100
AcDbArc
 50
46.49052075990492
 51
133.5094792400949
  0
ARC
  5
FA
330
C1
100
AcDbEntity
  8
4FNGRGD
100
AcDbCircle
 10
2.344999999999991
 20
-2.344999999999998
 30
0.0
 40
1.659999999999999
100
AcDbArc
 50
46.55338913763293
 51
133.446610862367
  0
ARC
  5
FB
330
C1
100
AcDbEntity
  8
4FNGRGD
100
AcDbCircle
 10
2.344999999999991
 20
-2.344999999999998
 30
0.0
 40
1.45
100
AcDbArc
 50
46.77843043870434
 51
133.2215695612952
  0
ARC
  5
FC
330
C1
100
AcDbEntity
  8
4FNGRGD
100
AcDbCircle
 10
2.344999999999991
 20
-2.344999999999998
 30
0.0
 40
1.379999999999999
100
AcDbArc
 50
46.86867190434839
 51
133.1313280956511
  0
ARC
  5
FD
330
C1
100
AcDbEntity
  8
4FNGRGD
100
AcDbCircle
 10
2.344999999999991
 20
-2.344999999999998
 30
0.0
 40
1.177
100
AcDbArc
 50
47.19111183600277
 51
132.8088881639972
  0
ARC
  5
FE
330
C1
100
AcDbEntity
  8
4FNGRGD
100
AcDbCircle
 10
2.344999999999991
 20
-2.344999999999998
 30
0.0
 40
1.106999999999999
100
AcDbArc
 50
47.32973866043471
 51
132.6702613395653
  0
ARC
  5
FF
330
C1
100
AcDbEntity
  8
4FNGRGD
100
AcDbCircle
 10
2.344999999999991
 20
-2.344999999999998
 30
0.0
 40
0.9059999999999998
100
AcDbArc
 50
47.84698826777189
 51
132.1530117322279
  0
ARC
  5
100
330
C1
100
AcDbEntity
  8
4FNGRGD
100
AcDbCircle
 10
2.344999999999991
 20
-2.344999999999998
 30
0.0
 40
0.8359999999999999
100
AcDbArc
 50
48.08559423652015
 51
131.9144057634798
  0
ARC
  5
101
330
C1
100
AcDbEntity
  8
4FNGRGD
100
AcDbCircle
 10
2.344999999999991
 20
-2.344999999999998
 30
0.0
 40
0.625
100
AcDbArc
 50
49.12886872123743
 51
130.8711312787626
  0
ARC
  5
102
330
C1
100
AcDbEntity
  8
4FNGRGD
100
AcDbCircle
 10
2.344999999999991
 20
-2.344999999999998
 30
0.0
 40
0.5550000000000001
100
AcDbArc
 50
49.6507090048793
 51
130.3492909951201
  0
ARC
  5
103
330
C1
100
AcDbEntity
  8
4FNGRGD
100
AcDbCircle
 10
2.344999999999991
 20
-2.344999999999998
 30
0.0
 40
0.35
100
AcDbArc
 50
322.3982372955831
 51
37.60176270441686
  0
ARC
  5
104
330
C1
100
AcDbEntity
  8
4FNGRGD
100
AcDbCircle
 10
2.344999999999991
 20
-2.344999999999998
 30
0.0
 40
0.28
100
AcDbArc
 50
326.3914436454988
 51
33.60855635450113
  0
ARC
  5
105
330
C1
100
AcDbEntity
  8
4FNGRGD
100
AcDbCircle
 10
2.344999999999991
 20
-2.344999999999998
 30
0.0
 40
0.35
100
AcDbArc
 50
52.38704843630085
 51
127.6215715822861
  0
ARC
  5
106
330
C1
100
AcDbEntity
  8
4FNGRGD
100
AcDbCircle
 10
2.344999999999991
 20
-2.344999999999998
 30
0.0
 40
0.28
100
AcDbArc
 50
52.74198710009698
 51
127.2687370862644
  0
ARC
  5
107
330
C1
100
AcDbEntity
  8
4FNGRGD
100
AcDbCircle
 10
2.344999999999991
 20
-2.344999999999998
 30
0.0
 40
0.28
100
AcDbArc
 50
232.7312629137356
 51
307.258012899903
  0
ARC
  5
108
330
C1
100
AcDbEntity
  8
4FNGRGD
100
AcDbCircle
 10
2.344999999999991
 20
-2.344999999999998
 30
0.0
 40
0.35
100
AcDbArc
 50
232.3784284177139
 51
307.6129515636992
  0
ARC
  5
109
330
C1
100
AcDbEntity
  8
4FNGRGD
100
AcDbCircle
 10
2.344999999999991
 20
-2.344999999999998
 30
0.0
 40
0.5550000000000001
100
AcDbArc
 50
229.6507090048802
 51
310.3492909951207
  0
ARC
  5
10A
330
C1
100
AcDbEntity
  8
4FNGRGD
100
AcDbCircle
 10
2.344999999999991
 20
-2.344999999999998
 30
0.0
 40
0.625
100
AcDbArc
 50
229.128868721238
 51
310.8711312787626
  0
ARC
  5
10B
330
C1
100
AcDbEntity
  8
4FNGRGD
100
AcDbCircle
 10
2.344999999999991
 20
-2.344999999999998
 30
0.0
 40
0.8359999999999999
100
AcDbArc
 50
228.0855942365206
 51
311.9144057634799
  0
ARC
  5
10C
330
C1
100
AcDbEntity
  8
4FNGRGD
100
AcDbCircle
 10
2.344999999999991
 20
-2.344999999999998
 30
0.0
 40
0.9059999999999998
100
AcDbArc
 50
227.8469882677725
 51
312.1530117322281
  0
ARC
  5
10D
330
C1
100
AcDbEntity
  8
4FNGRGD
100
AcDbCircle
 10
2.344999999999991
 20
-2.344999999999998
 30
0.0
 40
1.106999999999999
100
AcDbArc
 50
227.3297386604351
 51
312.6702613395653
  0
ARC
  5
10E
330
C1
100
AcDbEntity
  8
4FNGRGD
100
AcDbCircle
 10
2.344999999999991
 20
-2.344999999999998
 30
0.0
 40
1.177
100
AcDbArc
 50
227.191111836003
 51
312.8088881639973
  0
ARC
  5
10F
330
C1
100
AcDbEntity
  8
4FNGRGD
100
AcDbCircle
 10
2.344999999999991
 20
-2.344999999999998
 30
0.0
 40
1.379999999999999
100
AcDbArc
 50
226.8686719043488
 51
313.1313280956516
  0
ARC
  5
110
330
C1
100
AcDbEntity
  8
4FNGRGD
100
AcDbCircle
 10
2.344999999999991
 20
-2.344999999999998
 30
0.0
 40
1.45
100
AcDbArc
 50
226.7784304387048
 51
313.2215695612956
  0
ARC
  5
111
330
C1
100
AcDbEntity
  8
4FNGRGD
100
AcDbCircle
 10
2.344999999999991
 20
-2.344999999999998
 30
0.0
 40
1.659999999999999
100
AcDbArc
 50
226.5533891376329
 51
313.4466108623671
  0
ARC
  5
112
330
C1
100
AcDbEntity
  8
4FNGRGD
100
AcDbCircle
 10
2.344999999999991
 20
-2.344999999999998
 30
0.0
 40
1.729999999999999
100
AcDbArc
 50
226.4905207599051
 51
313.5094792400951
  0
ARC
  5
113
330
C1
100
AcDbEntity
  8
4FNGRGD
100
AcDbCircle
 10
2.344999999999991
 20
-2.344999999999998
 30
0.0
 40
1.929999999999999
100
AcDbArc
 50
226.3360330294323
 51
313.6639669705679
  0
ARC
  5
114
330
C1
100
AcDbEntity
  8
4FNGRGD
100
AcDbCircle
 10
2.344999999999991
 20
-2.344999999999998
 30
0.0
 40
2.0
100
AcDbArc
 50
226.2892638362881
 51
313.710736163712
  0
ARC
  5
115
330
C1
100
AcDbEntity
  8
4FNGRGD
100
AcDbCircle
 10
2.344999999999991
 20
-2.344999999999998
 30
0.0
 40
2.210999999999999
100
AcDbArc
 50
226.1662090076732
 51
313.8337909923273
  0
ARC
  5
116
330
C1
100
AcDbEntity
  8
4FNGRGD
100
AcDbCircle
 10
2.344999999999991
 20
-2.344999999999998
 30
0.0
 40
2.281
100
AcDbArc
 50
226.1304153241533
 51
313.8695846758467
  0
LINE
  5
117
330
C1
100
AcDbEntity
  8
4FNGRGD
100
AcDbLine
 10
2.126819805153388
 20
-2.626819805153395
 30
0.0
 11
0.4355273224163625
 21
-4.318112287890414
 31
0.0
  0
LINE
  5
118
330
C1
100
AcDbEntity
  8
4FNGRGD
100
AcDbLine
 10
2.063180194846598
 20
-2.563180194846609
 30
0.0
 11
0.3718877121095794
 21
-4.254472677583628
 31
0.0
  0
LINE
  5
119
330
C1
100
AcDbEntity
  8
4FNGRGD
100
AcDbLine
 10
2.626819805153385
 20
-2.563180194846609
 30
0.0
 11
4.318112287890407
 21
-4.254472677583628
 31
0.0
  0
LINE
  5
11A
330
C1
100
AcDbEntity
  8
4FNGRGD
100
AcDbLine
 10
2.558613485172259
 20
-2.622253095479052
 30
0.0
 11
4.254472677583621
 21
-4.318112287890414
 31
0.0
  0
ARC
  5
11B
330
C1
100
AcDbEntity
  8
4FNGRGD
100
AcDbCircle
 10
1.844999999999991
 20
-2.344999999999998
 30
0.0
 40
0.308553390593275
100
AcDbArc
 50
315.0
 51
44.99999999999985
  0
ARC
  5
11C
330
C1
100
AcDbEntity
  8
4FNGRGD
100
AcDbCircle
 10
1.844999999999991
 20
-2.344999999999998
 30
0.0
 40
0.3985533905932713
100
AcDbArc
 50
315.0000000000002
 51
44.99999999999985
  0
ARC
  5
11D
330
C1
100
AcDbEntity
  8
4FNGRGD
100
AcDbCircle
 10
2.844999999999991
 20
-2.344999999999998
 30
0.0
 40
0.308553390593275
100
AcDbArc
 50
135.0
 51
225.0
  0
ARC
  5
11E
330
C1
100
AcDbEntity
  8
4FNGRGD
100
AcDbCircle
 10
2.844999999999991
 20
-2.344999999999998
 30
0.0
 40
0.3986057134912808
100
AcDbArc
 50
134.0716397936339
 51
225.9283602063449
  0
CIRCLE
  5
11F
330
C1
100
AcDbEntity
  8
4FNGRGD
100
AcDbCircle
 10
4.414999999999992
 20
-4.414999999999999
 30
0.0
 40
0.1175
  0
CIRCLE
  5
120
330
C1
100
AcDbEntity
  8
4FNGRGD
100
AcDbCircle
 10
0.2749999999999915
 20
-4.414999999999999
 30
0.0
 40
0.1175
  0
CIRCLE
  5
121
330
C1
100
AcDbEntity
  8
4FNGRGD
100
AcDbCircle
 10
4.414999999999992
 20
-0.2749999999999986
 30
0.0
 40
0.1175
  0
CIRCLE
  5
122
330
C1
100
AcDbEntity
  8
4FNGRGD
100
AcDbCircle
 10
0.2749999999999915
 20
-0.2749999999999986
 30
0.0
 40
0.1175
  0
ARC
  5
123
330
C1
100
AcDbEntity
  8
4FNGRGD
100
AcDbCircle
 10
4.414999999999992
 20
-4.414999999999999
 30
0.0
 40
0.1875
100
AcDbArc
 50
148.8865403626278
 51
121.1134596373709
  0
ARC
  5
124
330
C1
100
AcDbEntity
  8
4FNGRGD
100
AcDbCircle
 10
0.2749999999999915
 20
-4.414999999999999
 30
0.0
 40
0.1875
100
AcDbArc
 50
58.88654036262775
 51
31.1134596373718
  0
ARC
  5
125
330
C1
100
AcDbEntity
  8
4FNGRGD
100
AcDbCircle
 10
4.414999999999992
 20
-0.2749999999999986
 30
0.0
 40
0.1875
100
AcDbArc
 50
238.8865403626288
 51
211.1134596373718
  0
ARC
  5
126
330
C1
100
AcDbEntity
  8
4FNGRGD
100
AcDbCircle
 10
0.2749999999999915
 20
-0.2749999999999986
 30
0.0
 40
0.1875
100
AcDbArc
 50
328.8865403626292
 51
301.1134596373711
  0
LINE
  5
127
330
C1
100
AcDbEntity
  8
4FNGRGD
100
AcDbLine
 10
4.318112287890407
 20
-0.4355273224163767
 30
0.0
 11
2.626819805153388
 21
-2.126819805153395
 31
0.0
  0
LINE
  5
128
330
C1
100
AcDbEntity
  8
4FNGRGD
100
AcDbLine
 10
4.254472677583621
 20
-0.37188771210959
 30
0.0
 11
2.558613485172156
 21
-2.067746904521051
 31
0.0
  0
LINE
  5
129
330
C1
100
AcDbEntity
  8
4FNGRGD
100
AcDbLine
 10
0.4355273224163625
 20
-0.37188771210959
 30
0.0
 11
2.126819805153385
 21
-2.063180194846609
 31
0.0
  0
LINE
  5
12A
330
C1
100
AcDbEntity
  8
4FNGRGD
100
AcDbLine
 10
0.3718877121095758
 20
-0.4355273224163767
 30
0.0
 11
2.063180194846598
 21
-2.126819805153395
 31
0.0
  0
ARC
  5
12B
330
C1
100
AcDbEntity
  8
4FNGRGD
100
AcDbCircle
 10
2.344999999999991
 20
-2.344999999999998
 30
0.0
 40
1.106999999999999
100
AcDbArc
 50
137.3297386604345
 51
222.6702613395654
  0
ARC
  5
12C
330
C1
100
AcDbEntity
  8
4FNGRGD
100
AcDbCircle
 10
2.344999999999991
 20
-2.344999999999998
 30
0.0
 40
1.177
100
AcDbArc
 50
137.1911118360029
 51
222.8088881639975
  0
ARC
  5
12D
330
C1
100
AcDbEntity
  8
4FNGRGD
100
AcDbCircle
 10
2.344999999999991
 20
-2.344999999999998
 30
0.0
 40
0.8359999999999999
100
AcDbArc
 50
138.0855942365201
 51
221.9144057634799
  0
ARC
  5
12E
330
C1
100
AcDbEntity
  8
4FNGRGD
100
AcDbCircle
 10
2.344999999999991
 20
-2.344999999999998
 30
0.0
 40
0.9059999999999998
100
AcDbArc
 50
137.846988267772
 51
222.1530117322283
  0
ARC
  5
12F
330
C1
100
AcDbEntity
  8
4FNGRGD
100
AcDbCircle
 10
2.344999999999991
 20
-2.344999999999998
 30
0.0
 40
0.5550000000000001
100
AcDbArc
 50
139.6507090048793
 51
220.3492909951207
  0
ARC
  5
130
330
C1
100
AcDbEntity
  8
4FNGRGD
100
AcDbCircle
 10
2.344999999999991
 20
-2.344999999999998
 30
0.0
 40
0.625
100
AcDbArc
 50
139.1288687212371
 51
220.871131278763
  0
ARC
  5
131
330
C1
100
AcDbEntity
  8
4FNGRGD
100
AcDbCircle
 10
2.344999999999991
 20
-2.344999999999998
 30
0.0
 40
0.28
100
AcDbArc
 50
146.3914436454988
 51
213.6085563545012
  0
ARC
  5
132
330
C1
100
AcDbEntity
  8
4FNGRGD
100
AcDbCircle
 10
2.344999999999991
 20
-2.344999999999998
 30
0.0
 40
0.35
100
AcDbArc
 50
142.3982372955831
 51
217.6017627044165
  0
ARC
  5
133
330
C1
100
AcDbEntity
  8
4FNGRGD
100
AcDbCircle
 10
2.344999999999991
 20
-2.344999999999998
 30
0.0
 40
1.379999999999999
100
AcDbArc
 50
136.8686719043487
 51
223.1313280956513
  0
ARC
  5
134
330
C1
100
AcDbEntity
  8
4FNGRGD
100
AcDbCircle
 10
2.344999999999991
 20
-2.344999999999998
 30
0.0
 40
1.45
100
AcDbArc
 50
136.7784304387046
 51
223.2215695612953
  0
ARC
  5
135
330
C1
100
AcDbEntity
  8
4FNGRGD
100
AcDbCircle
 10
2.344999999999991
 20
-2.344999999999998
 30
0.0
 40
1.659999999999999
100
AcDbArc
 50
136.5533891376332
 51
223.4466108623673
  0
ARC
  5
136
330
C1
100
AcDbEntity
  8
4FNGRGD
100
AcDbCircle
 10
2.344999999999991
 20
-2.344999999999998
 30
0.0
 40
1.729999999999999
100
AcDbArc
 50
136.490520759905
 51
223.5094792400949
  0
ARC
  5
137
330
C1
100
AcDbEntity
  8
4FNGRGD
100
AcDbCircle
 10
2.344999999999991
 20
-2.344999999999998
 30
0.0
 40
1.929999999999999
100
AcDbArc
 50
136.3360330294324
 51
223.6639669705676
  0
ARC
  5
138
330
C1
100
AcDbEntity
  8
4FNGRGD
100
AcDbCircle
 10
2.344999999999991
 20
-2.344999999999998
 30
0.0
 40
2.0
100
AcDbArc
 50
136.2892638362879
 51
223.7107361637121
  0
ARC
  5
139
330
C1
100
AcDbEntity
  8
4FNGRGD
100
AcDbCircle
 10
2.344999999999991
 20
-2.344999999999998
 30
0.0
 40
2.210999999999999
100
AcDbArc
 50
136.1662090076729
 51
223.8337909923271
  0
ARC
  5
13A
330
C1
100
AcDbEntity
  8
4FNGRGD
100
AcDbCircle
 10
2.344999999999991
 20
-2.344999999999998
 30
0.0
 40
2.281
100
AcDbArc
 50
136.1304153241531
 51
223.869584675847
  0
ARC
  5
13B
330
C1
100
AcDbEntity
  8
4INFAN
100
AcDbCircle
 10
2.344999999999991
 20
-2.344999999999998
 30
0.0
 40
2.125
100
AcDbArc
 50
163.9999999999997
 51
216.0000000000002
  0
ARC
  5
13C
330
C1
100
AcDbEntity
  8
4INFAN
100
AcDbCircle
 10
2.344999999999991
 20
-2.344999999999998
 30
0.0
 40
2.125
100
AcDbArc
 50
308.0000000000003
 51
313.7865869077032
  0
ARC
  5
13D
330
C1
100
AcDbEntity
  8
4INFAN
100
AcDbCircle
 10
2.344999999999991
 20
-2.344999999999998
 30
0.0
 40
1.3125
100
AcDbArc
 50
136.9648117971695
 51
223.0351882028309
  0
LINE
  5
13E
330
C1
100
AcDbEntity
  8
4INFAN
100
AcDbLine
 10
4.68999999999999
 20
0.0
 30
0.0
 11
4.68999999999999
 21
-4.690000000000004
 31
0.0
  0
LINE
  5
13F
330
C1
100
AcDbEntity
  8
4INFAN
100
AcDbLine
 10
0.0
 20
0.0
 30
0.0
 11
-0.0000000000000071
 21
-4.690000000000004
 31
0.0
  0
LINE
  5
140
330
C1
100
AcDbEntity
  8
4INFAN
100
AcDbLine
 10
-0.0000000000000071
 20
-4.690000000000004
 30
0.0
 11
4.68999999999999
 21
-4.690000000000004
 31
0.0
  0
LINE
  5
141
330
C1
100
AcDbEntity
  8
4INFAN
100
AcDbLine
 10
1.283165194882876
 20
-3.116468143633873
 30
0.0
 11
1.228556547762568
 21
-3.156143648163613
 31
0.0
  0
CIRCLE
  5
142
330
C1
100
AcDbEntity
  8
4INFAN
100
AcDbCircle
 10
0.2749999999999915
 20
-4.414999999999999
 30
0.0
 40
0.085
  0
ARC
  5
143
330
C1
100
AcDbEntity
  8
4INFAN
100
AcDbCircle
 10
2.344999999999991
 20
-2.344999999999998
 30
0.0
 40
2.125
100
AcDbArc
 50
236.0000000000002
 51
288.0000000000002
  0
LINE
  5
144
330
C1
100
AcDbEntity
  8
4INFAN
100
AcDbLine
 10
1.611059314194633
 20
-3.433111813978491
 30
0.0
 11
1.57331379321036
 21
-3.489071850125959
 31
0.0
  0
LINE
  5
145
330
C1
100
AcDbEntity
  8
4INFAN
100
AcDbLine
 10
2.750584805117107
 20
-3.593261677637393
 30
0.0
 11
2.771443452237413
 21
-3.657457992487309
 31
0.0
  0
LINE
  5
146
330
C1
100
AcDbEntity
  8
4INFAN
100
AcDbLine
 10
3.153055686364922
 20
-3.379264114108821
 30
0.0
 11
3.194612835949403
 21
-3.432454839977275
 31
0.0
  0
CIRCLE
  5
147
330
C1
100
AcDbEntity
  8
4INFAN
100
AcDbCircle
 10
4.414999999999992
 20
-4.414999999999999
 30
0.0
 40
0.085
  0
ARC
  5
148
330
C1
100
AcDbEntity
  8
4INFAN
100
AcDbCircle
 10
2.344999999999991
 20
-2.344999999999998
 30
0.0
 40
2.125
100
AcDbArc
 50
20.00000000000002
 51
43.78658690770312
  0
LINE
  5
149
330
C1
100
AcDbEntity
  8
4INFAN
100
AcDbLine
 10
0.0
 20
0.0
 30
0.0
 11
4.68999999999999
 21
0.0
 31
0.0
  0
LINE
  5
14A
330
C1
100
AcDbEntity
  8
4INFAN
100
AcDbLine
 10
1.08334402408095
 20
-1.983225970490188
 30
0.0
 11
1.018458859605111
 21
-1.964620448972539
 31
0.0
  0
LINE
  5
14B
330
C1
100
AcDbEntity
  8
4INFAN
100
AcDbLine
 10
1.283165194882876
 20
-1.57353185636613
 30
0.0
 11
1.228556547762561
 21
-1.533856351836391
 31
0.0
  0
ARC
  5
14C
330
C1
100
AcDbEntity
  8
4INFAN
100
AcDbCircle
 10
2.344999999999991
 20
-2.344999999999998
 30
0.0
 40
2.125
100
AcDbArc
 50
91.99999999999997
 51
133.7865869077033
  0
CIRCLE
  5
14D
330
C1
100
AcDbEntity
  8
4INFAN
100
AcDbCircle
 10
0.2749999999999915
 20
-0.2749999999999986
 30
0.0
 40
0.085
  0
LINE
  5
14E
330
C1
100
AcDbEntity
  8
4INFAN
100
AcDbLine
 10
1.844999999999991
 20
-2.344999999999998
 30
0.0
 11
2.844999999999991
 21
-2.344999999999998
 31
0.0
  0
LINE
  5
14F
330
C1
100
AcDbEntity
  8
4INFAN
100
AcDbLine
 10
2.344999999999991
 20
-1.844999999999998
 30
0.0
 11
2.344999999999991
 21
-2.844999999999998
 31
0.0
  0
LINE
  5
150
330
C1
100
AcDbEntity
  8
4INFAN
100
AcDbLine
 10
2.29919441057796
 20
-1.033299539537438
 30
0.0
 11
2.29683869455054
 21
-0.9658406587136454
 31
0.0
  0
LINE
  5
151
330
C1
100
AcDbEntity
  8
4INFAN
100
AcDbLine
 10
2.750584805117114
 20
-1.096738322362611
 30
0.0
 11
2.771443452237422
 21
-1.032542007512688
 31
0.0
  0
LINE
  5
152
330
C1
100
AcDbEntity
  8
4INFAN
100
AcDbLine
 10
3.657499999999991
 20
-2.344999999999998
 30
0.0
 11
3.72499999999999
 21
-2.344999999999998
 31
0.0
  0
LINE
  5
153
330
C1
100
AcDbEntity
  8
4INFAN
100
AcDbLine
 10
3.578346564781497
 20
-1.896098561885061
 30
0.0
 11
3.641775816684544
 21
-1.873012202210574
 31
0.0
  0
CIRCLE
  5
154
330
C1
100
AcDbEntity
  8
4INFAN
100
AcDbCircle
 10
4.414999999999992
 20
-0.2749999999999986
 30
0.0
 40
0.085
  0
ENDBLK
  5
155
330
C1
100
AcDbEntity
  8
0
100
AcDbBlockEnd
  0
BLOCK
  5
8EF
330
8EE
100
AcDbEntity
  8
0
100
AcDbBlockBegin
  2
A$C0F1E4080
 70
     0
 10
0.0
 20
0.0
 30
0.0
  3
A$C0F1E4080
  1

  0
LINE
  5
8F0
330
8EE
100
AcDbEntity
  8
4INFAN
100
AcDbLine
 10
-2.344999999999998
 20
0.0
 30
0.0
 11
2.344999999999998
 21
0.0
 31
0.0
  0
LINE
  5
8F1
330
8EE
100
AcDbEntity
  8
4INFAN
100
AcDbLine
 10
-2.344999999999998
 20
0.2000000000000028
 30
0.0
 11
2.344999999999998
 21
0.2000000000000028
 31
0.0
  0
LINE
  5
8F2
330
8EE
100
AcDbEntity
  8
4INFAN
100
AcDbLine
 10
-2.344999999999998
 20
1.299999999999997
 30
0.0
 11
2.344999999999998
 21
1.299999999999997
 31
0.0
  0
LINE
  5
8F3
330
8EE
100
AcDbEntity
  8
4INFAN
100
AcDbLine
 10
-2.344999999999998
 20
1.5
 30
0.0
 11
2.344999999999998
 21
1.5
 31
0.0
  0
LINE
  5
8F4
330
8EE
100
AcDbEntity
  8
4INFAN
100
AcDbLine
 10
2.344999999999998
 20
1.5
 30
0.0
 11
2.344999999999998
 21
0.0
 31
0.0
  0
LINE
  5
8F5
330
8EE
100
AcDbEntity
  8
4INFAN
100
AcDbLine
 10
-2.344999999999998
 20
1.5
 30
0.0
 11
-2.344999999999998
 21
0.0
 31
0.0
  0
LINE
  5
8F6
330
8EE
100
AcDbEntity
  8
4FNGRGD
100
AcDbLine
 10
0.1013942865087145
 20
1.734999999999999
 30
0.0
 11
1.573260081164974
 21
1.734999999999999
 31
0.0
  0
LINE
  5
8F7
330
8EE
100
AcDbEntity
  8
4FNGRGD
100
AcDbLine
 10
0.1013942865087181
 20
1.734999999999999
 30
0.0
 11
0.1013942865087181
 21
1.664999999999977
 31
0.0
  0
LINE
  5
8F8
330
8EE
100
AcDbEntity
  8
4FNGRGD
100
AcDbLine
 10
-0.1014466094067323
 20
1.734999999999999
 30
0.0
 11
-0.1014466094067359
 21
1.664999999999992
 31
0.0
  0
LINE
  5
8F9
330
8EE
100
AcDbEntity
  8
4FNGRGD
100
AcDbLine
 10
-1.567504794979036
 20
1.664999999999977
 30
0.0
 11
1.567504794979029
 21
1.664999999999977
 31
0.0
  0
LINE
  5
8FA
330
8EE
100
AcDbEntity
  8
4FNGRGD
100
AcDbLine
 10
-2.258000000000002
 20
1.569999999999993
 30
0.0
 11
-2.258000000000002
 21
1.5
 31
0.0
  0
LINE
  5
8FB
330
8EE
100
AcDbEntity
  8
4FNGRGD
100
AcDbLine
 10
2.257999999999995
 20
1.569999999999993
 30
0.0
 11
2.257999999999995
 21
1.499999999999985
 31
0.0
  0
LINE
  5
8FC
330
8EE
100
AcDbEntity
  8
4FNGRGD
100
AcDbLine
 10
-2.281000000000005
 20
1.664999999999992
 30
0.0
 11
-2.281000000000005
 21
1.594999999999984
 31
0.0
  0
LINE
  5
8FD
330
8EE
100
AcDbEntity
  8
4FNGRGD
100
AcDbLine
 10
2.280999999999998
 20
1.664999999999992
 30
0.0
 11
2.280999999999998
 21
1.594999999999984
 31
0.0
  0
LINE
  5
8FE
330
8EE
100
AcDbEntity
  8
4FNGRGD
100
AcDbLine
 10
-2.281000000000005
 20
1.594999999999984
 30
0.0
 11
-1.711343945663898
 21
1.594999999999984
 31
0.0
  0
LINE
  5
8FF
330
8EE
100
AcDbEntity
  8
4FNGRGD
100
AcDbLine
 10
-1.573260081164974
 20
1.734999999999999
 30
0.0
 11
-0.1014466094067288
 21
1.734999999999999
 31
0.0
  0
LINE
  5
900
330
8EE
100
AcDbEntity
  8
4FNGRGD
100
AcDbLine
 10
-2.257999999999995
 20
1.5
 30
0.0
 11
-2.07
 21
1.5
 31
0.0
  0
LINE
  5
901
330
8EE
100
AcDbEntity
  8
4FNGRGD
100
AcDbLine
 10
2.069999999999993
 20
1.499999999999985
 30
0.0
 11
2.257999999999995
 21
1.499999999999985
 31
0.0
  0
LINE
  5
902
330
8EE
100
AcDbEntity
  8
4FNGRGD
100
AcDbLine
 10
2.069999999999993
 20
1.569999999999993
 30
0.0
 11
2.257999999999995
 21
1.569999999999993
 31
0.0
  0
LINE
  5
903
330
8EE
100
AcDbEntity
  8
4FNGRGD
100
AcDbLine
 10
-2.257999999999995
 20
1.569999999999993
 30
0.0
 11
-2.069999999999993
 21
1.569999999999993
 31
0.0
  0
LINE
  5
904
330
8EE
100
AcDbEntity
  8
4FNGRGD
100
AcDbLine
 10
-2.069999999999993
 20
1.569999999999993
 30
0.0
 11
-1.761343945663895
 21
1.569999999999993
 31
0.0
  0
LINE
  5
905
330
8EE
100
AcDbEntity
  8
4FNGRGD
100
AcDbLine
 10
-2.07
 20
1.5
 30
0.0
 11
-1.75558865947795
 21
1.5
 31
0.0
  0
LINE
  5
906
330
8EE
100
AcDbEntity
  8
4FNGRGD
100
AcDbLine
 10
-1.694002621662221
 20
1.642345616616012
 30
0.0
 11
-1.700972675415272
 21
1.616327191691979
 31
0.0
  0
LINE
  5
907
330
8EE
100
AcDbEntity
  8
4FNGRGD
100
AcDbLine
 10
1.694002621662221
 20
1.642345616616012
 30
0.0
 11
1.700972675415272
 21
1.616327191691979
 31
0.0
  0
LINE
  5
908
330
8EE
100
AcDbEntity
  8
4FNGRGD
100
AcDbLine
 10
1.75558865947795
 20
1.5
 30
0.0
 11
2.069999999999993
 21
1.499999999999985
 31
0.0
  0
LINE
  5
909
330
8EE
100
AcDbEntity
  8
4FNGRGD
100
AcDbLine
 10
1.761343945663895
 20
1.569999999999993
 30
0.0
 11
2.069999999999993
 21
1.569999999999993
 31
0.0
  0
LINE
  5
90A
330
8EE
100
AcDbEntity
  8
4FNGRGD
100
AcDbLine
 10
1.627876065227653
 20
1.618672808307991
 30
0.0
 11
1.634846118980703
 21
1.592654383383973
 31
0.0
  0
LINE
  5
90B
330
8EE
100
AcDbEntity
  8
4FNGRGD
100
AcDbLine
 10
-1.62787606522766
 20
1.618672808307991
 30
0.0
 11
-1.634846118980703
 21
1.592654383383973
 31
0.0
  0
ARC
  5
90C
330
8EE
100
AcDbEntity
  8
4FNGRGD
100
AcDbCircle
 10
-1.573260081164981
 20
1.609999999999999
 30
0.0
 40
0.125
100
AcDbArc
 50
90.0
 51
165.0032097453624
  0
ARC
  5
90D
330
8EE
100
AcDbEntity
  8
4FNGRGD
100
AcDbCircle
 10
-1.755588659477957
 20
1.625
 30
0.0
 40
0.125
100
AcDbArc
 50
270.0000000000006
 51
345.0032097453625
  0
ARC
  5
90E
330
8EE
100
AcDbEntity
  8
4FNGRGD
100
AcDbCircle
 10
1.573260081164974
 20
1.609999999999999
 30
0.0
 40
0.125
100
AcDbArc
 50
14.99679025463629
 51
90.0
  0
ARC
  5
90F
330
8EE
100
AcDbEntity
  8
4FNGRGD
100
AcDbCircle
 10
1.75558865947795
 20
1.625
 30
0.0
 40
0.125
100
AcDbArc
 50
194.9967902546363
 51
269.999999999999
  0
ARC
  5
910
330
8EE
100
AcDbEntity
  8
4FNGRGD
100
AcDbCircle
 10
1.761343945663895
 20
1.632499999999993
 30
0.0
 40
0.0625
100
AcDbArc
 50
194.9967902546363
 51
269.9999999999994
  0
ARC
  5
911
330
8EE
100
AcDbEntity
  8
4FNGRGD
100
AcDbCircle
 10
1.567504794979029
 20
1.602499999999977
 30
0.0
 40
0.0625
100
AcDbArc
 50
14.99679025463713
 51
90.0
  0
ARC
  5
912
330
8EE
100
AcDbEntity
  8
4FNGRGD
100
AcDbCircle
 10
-1.567504794979043
 20
1.602499999999977
 30
0.0
 40
0.0625
100
AcDbArc
 50
90.0
 51
165.0032097453624
  0
ARC
  5
913
330
8EE
100
AcDbEntity
  8
4FNGRGD
100
AcDbCircle
 10
-1.761343945663902
 20
1.632499999999993
 30
0.0
 40
0.0625
100
AcDbArc
 50
270.0
 51
345.0032097453625
  0
LINE
  5
914
330
8EE
100
AcDbEntity
  8
4FNGRGD
100
AcDbLine
 10
-2.281000000000005
 20
1.664999999999992
 30
0.0
 11
-1.685509802768201
 21
1.664999999999992
 31
0.0
  0
LINE
  5
915
330
8EE
100
AcDbEntity
  8
4FNGRGD
100
AcDbLine
 10
1.685509802768194
 20
1.664999999999992
 30
0.0
 11
2.280999999999998
 21
1.664999999999992
 31
0.0
  0
LINE
  5
916
330
8EE
100
AcDbEntity
  8
4FNGRGD
100
AcDbLine
 10
1.711343945663898
 20
1.594999999999984
 30
0.0
 11
2.280999999999998
 21
1.594999999999984
 31
0.0
  0
LINE
  5
917
330
8EE
100
AcDbEntity
  8
4FNGRGD
100
AcDbLine
 10
-1.634217753737786
 20
1.594999999999998
 30
0.0
 11
1.634217753737786
 21
1.594999999999984
 31
0.0
  0
LINE
  5
918
330
8EE
100
AcDbEntity
  8
4FNGRGD
100
AcDbLine
 10
-1.567504794979036
 20
1.664999999999992
 30
0.0
 11
1.567504794979029
 21
1.664999999999992
 31
0.0
  0
ENDBLK
  5
919
330
8EE
100
AcDbEntity
  8
0
100
AcDbBlockEnd
  0
BLOCK
  5
91B
330
91A
100
AcDbEntity
  8
0
100
AcDbBlockBegin
  2
A$C3A64330D
 70
     0
 10
0.0
 20
0.0
 30
0.0
  3
A$C3A64330D
  1

  0
LINE
  5
91C
330
91A
100
AcDbEntity
  8
4INFAN
100
AcDbLine
 10
0.0
 20
-2.344999999999998
 30
0.0
 11
0.0
 21
2.344999999999998
 31
0.0
  0
LINE
  5
91D
330
91A
100
AcDbEntity
  8
4FNGRGD
100
AcDbLine
 10
1.735000000000006
 20
0.1013942865087216
 30
0.0
 11
1.664999999999984
 21
0.1013942865087216
 31
0.0
  0
LINE
  5
91E
330
91A
100
AcDbEntity
  8
4FNGRGD
100
AcDbLine
 10
1.734999999999999
 20
0.1013942865087145
 30
0.0
 11
1.734999999999999
 21
1.573260081164974
 31
0.0
  0
LINE
  5
91F
330
91A
100
AcDbEntity
  8
4FNGRGD
100
AcDbLine
 10
1.569999999999993
 20
2.257999999999995
 30
0.0
 11
1.499999999999992
 21
2.257999999999995
 31
0.0
  0
LINE
  5
920
330
91A
100
AcDbEntity
  8
4FNGRGD
100
AcDbLine
 10
1.664999999999992
 20
2.281000000000005
 30
0.0
 11
1.594999999999991
 21
2.281000000000005
 31
0.0
  0
LINE
  5
921
330
91A
100
AcDbEntity
  8
4FNGRGD
100
AcDbLine
 10
1.499999999999992
 20
2.069999999999993
 30
0.0
 11
1.499999999999992
 21
2.257999999999995
 31
0.0
  0
LINE
  5
922
330
91A
100
AcDbEntity
  8
4FNGRGD
100
AcDbLine
 10
1.569999999999993
 20
2.069999999999993
 30
0.0
 11
1.569999999999993
 21
2.257999999999995
 31
0.0
  0
LINE
  5
923
330
91A
100
AcDbEntity
  8
4FNGRGD
100
AcDbLine
 10
1.642345616616019
 20
1.694002621662221
 30
0.0
 11
1.616327191691986
 21
1.700972675415272
 31
0.0
  0
LINE
  5
924
330
91A
100
AcDbEntity
  8
4FNGRGD
100
AcDbLine
 10
1.5
 20
1.75558865947795
 30
0.0
 11
1.499999999999992
 21
2.069999999999993
 31
0.0
  0
LINE
  5
925
330
91A
100
AcDbEntity
  8
4FNGRGD
100
AcDbLine
 10
1.57
 20
1.761343945663895
 30
0.0
 11
1.569999999999993
 21
2.069999999999993
 31
0.0
  0
LINE
  5
926
330
91A
100
AcDbEntity
  8
4FNGRGD
100
AcDbLine
 10
1.618672808307998
 20
1.627876065227653
 30
0.0
 11
1.59265438338398
 21
1.634846118980703
 31
0.0
  0
ARC
  5
927
330
91A
100
AcDbEntity
  8
4FNGRGD
100
AcDbCircle
 10
1.609999999999999
 20
1.573260081164974
 30
0.0
 40
0.125
100
AcDbArc
 50
0.0
 51
75.00320974536371
  0
ARC
  5
928
330
91A
100
AcDbEntity
  8
4FNGRGD
100
AcDbCircle
 10
1.625
 20
1.75558865947795
 30
0.0
 40
0.125
100
AcDbArc
 50
180.0000000000008
 51
255.0032097453637
  0
ARC
  5
929
330
91A
100
AcDbEntity
  8
4FNGRGD
100
AcDbCircle
 10
1.6325
 20
1.761343945663895
 30
0.0
 40
0.0625
100
AcDbArc
 50
180.0000000000004
 51
255.0032097453637
  0
ARC
  5
92A
330
91A
100
AcDbEntity
  8
4FNGRGD
100
AcDbCircle
 10
1.602499999999984
 20
1.567504794979029
 30
0.0
 40
0.0625
100
AcDbArc
 50
0.0
 51
75.00320974536272
  0
LINE
  5
92B
330
91A
100
AcDbEntity
  8
4FNGRGD
100
AcDbLine
 10
1.664999999999999
 20
1.685509802768194
 30
0.0
 11
1.664999999999992
 21
2.281000000000005
 31
0.0
  0
LINE
  5
92C
330
91A
100
AcDbEntity
  8
4FNGRGD
100
AcDbLine
 10
1.594999999999991
 20
1.711343945663898
 30
0.0
 11
1.594999999999991
 21
2.281000000000005
 31
0.0
  0
LINE
  5
92D
330
91A
100
AcDbEntity
  8
4INFAN
100
AcDbLine
 10
0.2000000000000028
 20
-2.344999999999998
 30
0.0
 11
0.2000000000000028
 21
2.344999999999998
 31
0.0
  0
LINE
  5
92E
330
91A
100
AcDbEntity
  8
4INFAN
100
AcDbLine
 10
1.5
 20
2.344999999999998
 30
0.0
 11
0.0
 21
2.344999999999998
 31
0.0
  0
LINE
  5
92F
330
91A
100
AcDbEntity
  8
4INFAN
100
AcDbLine
 10
1.299999999999997
 20
-2.344999999999998
 30
0.0
 11
1.299999999999997
 21
2.344999999999998
 31
0.0
  0
LINE
  5
930
330
91A
100
AcDbEntity
  8
4INFAN
100
AcDbLine
 10
1.5
 20
-2.344999999999998
 30
0.0
 11
1.5
 21
2.344999999999998
 31
0.0
  0
LINE
  5
931
330
91A
100
AcDbEntity
  8
4INFAN
100
AcDbLine
 10
1.5
 20
-2.344999999999998
 30
0.0
 11
0.0
 21
-2.344999999999998
 31
0.0
  0
LINE
  5
932
330
91A
100
AcDbEntity
  8
4FNGRGD
100
AcDbLine
 10
1.664999999999984
 20
-1.567504794979036
 30
0.0
 11
1.664999999999984
 21
1.567504794979029
 31
0.0
  0
LINE
  5
933
330
91A
100
AcDbEntity
  8
4FNGRGD
100
AcDbLine
 10
1.57
 20
-2.258000000000002
 30
0.0
 11
1.500000000000007
 21
-2.258000000000002
 31
0.0
  0
LINE
  5
934
330
91A
100
AcDbEntity
  8
4FNGRGD
100
AcDbLine
 10
1.664999999999992
 20
-2.281000000000005
 30
0.0
 11
1.594999999999991
 21
-2.281000000000005
 31
0.0
  0
LINE
  5
935
330
91A
100
AcDbEntity
  8
4FNGRGD
100
AcDbLine
 10
1.594999999999991
 20
-2.281000000000005
 30
0.0
 11
1.594999999999991
 21
-1.711343945663898
 31
0.0
  0
LINE
  5
936
330
91A
100
AcDbEntity
  8
4FNGRGD
100
AcDbLine
 10
1.734999999999999
 20
-1.573260081164974
 30
0.0
 11
1.734999999999999
 21
-0.1014466094067288
 31
0.0
  0
LINE
  5
937
330
91A
100
AcDbEntity
  8
4FNGRGD
100
AcDbLine
 10
1.500000000000007
 20
-2.257999999999995
 30
0.0
 11
1.5
 21
-2.07
 31
0.0
  0
LINE
  5
938
330
91A
100
AcDbEntity
  8
4FNGRGD
100
AcDbLine
 10
1.57
 20
-2.257999999999995
 30
0.0
 11
1.57
 21
-2.069999999999993
 31
0.0
  0
LINE
  5
939
330
91A
100
AcDbEntity
  8
4FNGRGD
100
AcDbLine
 10
1.57
 20
-2.069999999999993
 30
0.0
 11
1.57
 21
-1.761343945663895
 31
0.0
  0
LINE
  5
93A
330
91A
100
AcDbEntity
  8
4FNGRGD
100
AcDbLine
 10
1.5
 20
-2.07
 30
0.0
 11
1.500000000000007
 21
-1.75558865947795
 31
0.0
  0
LINE
  5
93B
330
91A
100
AcDbEntity
  8
4FNGRGD
100
AcDbLine
 10
1.642345616616019
 20
-1.694002621662221
 30
0.0
 11
1.616327191691986
 21
-1.700972675415272
 31
0.0
  0
LINE
  5
93C
330
91A
100
AcDbEntity
  8
4FNGRGD
100
AcDbLine
 10
1.618672808307998
 20
-1.62787606522766
 30
0.0
 11
1.59265438338398
 21
-1.634846118980703
 31
0.0
  0
ARC
  5
93D
330
91A
100
AcDbEntity
  8
4FNGRGD
100
AcDbCircle
 10
1.609999999999999
 20
-1.573260081164981
 30
0.0
 40
0.125
100
AcDbArc
 50
284.9967902546376
 51
0.0
  0
ARC
  5
93E
330
91A
100
AcDbEntity
  8
4FNGRGD
100
AcDbCircle
 10
1.625000000000007
 20
-1.755588659477957
 30
0.0
 40
0.125
100
AcDbArc
 50
104.9967902546375
 51
179.9999999999992
  0
ARC
  5
93F
330
91A
100
AcDbEntity
  8
4FNGRGD
100
AcDbCircle
 10
1.602499999999984
 20
-1.567504794979043
 30
0.0
 40
0.0625
100
AcDbArc
 50
284.9967902546376
 51
0.0
  0
ARC
  5
940
330
91A
100
AcDbEntity
  8
4FNGRGD
100
AcDbCircle
 10
1.6325
 20
-1.761343945663902
 30
0.0
 40
0.0625
100
AcDbArc
 50
104.9967902546375
 51
180.0
  0
LINE
  5
941
330
91A
100
AcDbEntity
  8
4FNGRGD
100
AcDbLine
 10
1.664999999999992
 20
-2.281000000000005
 30
0.0
 11
1.664999999999992
 21
-1.685509802768201
 31
0.0
  0
LINE
  5
942
330
91A
100
AcDbEntity
  8
4FNGRGD
100
AcDbLine
 10
1.594999999999998
 20
-1.634217753737786
 30
0.0
 11
1.594999999999991
 21
1.634217753737786
 31
0.0
  0
LINE
  5
943
330
91A
100
AcDbEntity
  8
4FNGRGD
100
AcDbLine
 10
1.664999999999992
 20
-1.567504794979036
 30
0.0
 11
1.664999999999992
 21
1.567504794979029
 31
0.0
  0
ENDBLK
  5
944
330
91A
100
AcDbEntity
  8
0
100
AcDbBlockEnd
  0
BLOCK
  5
B05
330
A72
100
AcDbEntity
  8
0
100
AcDbBlockBegin
  2
A$C4ACB365F
 70
     0
 10
0.0
 20
0.0
 30
0.0
  3
A$C4ACB365F
  1

  0
ARC
  5
A73
330
A72
100
AcDbEntity
  8
4FNGRGD
100
AcDbCircle
 10
1.200734913814258
 20
-12.92622595825542
 30
0.0
 40
0.308553390593275
100
AcDbArc
 50
134.9999999999998
 51
225.0000000000001
  0
CIRCLE
  5
A74
330
A72
100
AcDbEntity
  8
4INFAN
100
AcDbCircle
 10
2.770734913814258
 20
-14.99622595825542
 30
0.0
 40
0.085
  0
LINE
  5
A75
330
A72
100
AcDbEntity
  8
4INFAN
100
AcDbLine
 10
-1.64426508618574
 20
-15.27122595825543
 30
0.0
 11
3.045734913814257
 21
-15.27122595825543
 31
0.0
  0
LINE
  5
A76
330
A72
100
AcDbEntity
  8
4INFAN
100
AcDbLine
 10
3.045734913814257
 20
-10.58122595825542
 30
0.0
 11
3.045734913814257
 21
-15.27122595825543
 31
0.0
  0
ARC
  5
A77
330
A72
100
AcDbEntity
  8
4FNGRGD
100
AcDbCircle
 10
2.770734913814258
 20
-14.99622595825542
 30
0.0
 40
0.1875
100
AcDbArc
 50
148.8865403626278
 51
121.1134596373709
  0
CIRCLE
  5
A78
330
A72
100
AcDbEntity
  8
4FNGRGD
100
AcDbCircle
 10
2.770734913814258
 20
-14.99622595825542
 30
0.0
 40
0.1175
  0
LINE
  5
A79
330
A72
100
AcDbEntity
  8
4FNGRGD
100
AcDbLine
 10
0.9143483989865259
 20
-13.20347905373448
 30
0.0
 11
2.610207591397887
 21
-14.89933824614584
 31
0.0
  0
LINE
  5
A7A
330
A72
100
AcDbEntity
  8
4FNGRGD
100
AcDbLine
 10
0.982554718967652
 20
-13.14440615310203
 30
0.0
 11
2.673847201704674
 21
-14.83569863583905
 31
0.0
  0
LINE
  5
A7B
330
A72
100
AcDbEntity
  8
4INFAN
100
AcDbLine
 10
2.013234913814258
 20
-12.92622595825542
 30
0.0
 11
2.080734913814257
 21
-12.92622595825542
 31
0.0
  0
LINE
  5
A7C
330
A72
100
AcDbEntity
  8
4INFAN
100
AcDbLine
 10
1.508790600179189
 20
-13.96049007236424
 30
0.0
 11
1.55034774976367
 21
-14.0136807982327
 31
0.0
  0
LINE
  5
A7D
330
A72
100
AcDbEntity
  8
4INFAN
100
AcDbLine
 10
1.106319718931374
 20
-14.17448763589282
 30
0.0
 11
1.12717836605168
 21
-14.23868395074273
 31
0.0
  0
LINE
  5
A7E
330
A72
100
AcDbEntity
  8
4INFAN
100
AcDbLine
 10
-0.0332057719910992
 20
-14.01433777223392
 30
0.0
 11
-0.0709512929753728
 21
-14.07029780838138
 31
0.0
  0
ARC
  5
A7F
330
A72
100
AcDbEntity
  8
4INFAN
100
AcDbCircle
 10
0.7007349138142587
 20
-12.92622595825542
 30
0.0
 40
2.125
100
AcDbArc
 50
236.0000000000001
 51
288.0000000000002
  0
CIRCLE
  5
A80
330
A72
100
AcDbEntity
  8
4INFAN
100
AcDbCircle
 10
-1.369265086185741
 20
-14.99622595825542
 30
0.0
 40
0.085
  0
LINE
  5
A81
330
A72
100
AcDbEntity
  8
4INFAN
100
AcDbLine
 10
-0.3610998913028567
 20
-13.6976941018893
 30
0.0
 11
-0.4157085384231643
 21
-13.73736960641904
 31
0.0
  0
ARC
  5
A82
330
A72
100
AcDbEntity
  8
4INFAN
100
AcDbCircle
 10
0.7007349138142587
 20
-12.92622595825542
 30
0.0
 40
1.3125
100
AcDbArc
 50
136.9648117971694
 51
223.0351882028309
  0
ARC
  5
A83
330
A72
100
AcDbEntity
  8
4INFAN
100
AcDbCircle
 10
0.7007349138142587
 20
-12.92622595825542
 30
0.0
 40
2.125
100
AcDbArc
 50
308.0000000000003
 51
313.7865869077032
  0
ARC
  5
A84
330
A72
100
AcDbEntity
  8
4INFAN
100
AcDbCircle
 10
0.7007349138142587
 20
-12.92622595825542
 30
0.0
 40
2.125
100
AcDbArc
 50
163.9999999999997
 51
216.0000000000002
  0
ARC
  5
A85
330
A72
100
AcDbEntity
  8
4FNGRGD
100
AcDbCircle
 10
0.7007349138142587
 20
-12.92622595825542
 30
0.0
 40
2.281
100
AcDbArc
 50
136.1304153241532
 51
223.869584675847
  0
ARC
  5
A86
330
A72
100
AcDbEntity
  8
4FNGRGD
100
AcDbCircle
 10
0.7007349138142587
 20
-12.92622595825542
 30
0.0
 40
2.210999999999999
100
AcDbArc
 50
136.1662090076729
 51
223.8337909923271
  0
ARC
  5
A87
330
A72
100
AcDbEntity
  8
4FNGRGD
100
AcDbCircle
 10
0.7007349138142587
 20
-12.92622595825542
 30
0.0
 40
2.0
100
AcDbArc
 50
136.2892638362879
 51
223.7107361637121
  0
ARC
  5
A88
330
A72
100
AcDbEntity
  8
4FNGRGD
100
AcDbCircle
 10
0.7007349138142587
 20
-12.92622595825542
 30
0.0
 40
1.929999999999999
100
AcDbArc
 50
136.3360330294323
 51
223.6639669705677
  0
ARC
  5
A89
330
A72
100
AcDbEntity
  8
4FNGRGD
100
AcDbCircle
 10
0.7007349138142587
 20
-12.92622595825542
 30
0.0
 40
1.729999999999999
100
AcDbArc
 50
136.4905207599049
 51
223.5094792400951
  0
ARC
  5
A8A
330
A72
100
AcDbEntity
  8
4FNGRGD
100
AcDbCircle
 10
0.7007349138142587
 20
-12.92622595825542
 30
0.0
 40
1.659999999999999
100
AcDbArc
 50
136.5533891376331
 51
223.4466108623673
  0
ARC
  5
A8B
330
A72
100
AcDbEntity
  8
4FNGRGD
100
AcDbCircle
 10
0.7007349138142587
 20
-12.92622595825542
 30
0.0
 40
1.45
100
AcDbArc
 50
136.7784304387046
 51
223.2215695612953
  0
ARC
  5
A8C
330
A72
100
AcDbEntity
  8
4FNGRGD
100
AcDbCircle
 10
0.7007349138142587
 20
-12.92622595825542
 30
0.0
 40
1.379999999999999
100
AcDbArc
 50
136.8686719043487
 51
223.1313280956513
  0
ARC
  5
A8D
330
A72
100
AcDbEntity
  8
4FNGRGD
100
AcDbCircle
 10
0.7007349138142587
 20
-12.92622595825542
 30
0.0
 40
0.35
100
AcDbArc
 50
142.3982372955831
 51
217.6017627044164
  0
ARC
  5
A8E
330
A72
100
AcDbEntity
  8
4FNGRGD
100
AcDbCircle
 10
0.7007349138142587
 20
-12.92622595825542
 30
0.0
 40
0.28
100
AcDbArc
 50
146.3914436454987
 51
213.6085563545012
  0
ARC
  5
A8F
330
A72
100
AcDbEntity
  8
4FNGRGD
100
AcDbCircle
 10
0.7007349138142587
 20
-12.92622595825542
 30
0.0
 40
0.625
100
AcDbArc
 50
139.1288687212371
 51
220.871131278763
  0
ARC
  5
A90
330
A72
100
AcDbEntity
  8
4FNGRGD
100
AcDbCircle
 10
0.7007349138142587
 20
-12.92622595825542
 30
0.0
 40
0.5550000000000001
100
AcDbArc
 50
139.6507090048794
 51
220.3492909951206
  0
ARC
  5
A91
330
A72
100
AcDbEntity
  8
4FNGRGD
100
AcDbCircle
 10
0.7007349138142587
 20
-12.92622595825542
 30
0.0
 40
0.9059999999999998
100
AcDbArc
 50
137.8469882677719
 51
222.1530117322284
  0
ARC
  5
A92
330
A72
100
AcDbEntity
  8
4FNGRGD
100
AcDbCircle
 10
0.7007349138142587
 20
-12.92622595825542
 30
0.0
 40
0.8359999999999999
100
AcDbArc
 50
138.08559423652
 51
221.9144057634799
  0
ARC
  5
A93
330
A72
100
AcDbEntity
  8
4FNGRGD
100
AcDbCircle
 10
0.7007349138142587
 20
-12.92622595825542
 30
0.0
 40
1.177
100
AcDbArc
 50
137.1911118360027
 51
222.8088881639975
  0
ARC
  5
A94
330
A72
100
AcDbEntity
  8
4FNGRGD
100
AcDbCircle
 10
0.7007349138142587
 20
-12.92622595825542
 30
0.0
 40
1.106999999999999
100
AcDbArc
 50
137.3297386604347
 51
222.6702613395653
  0
ARC
  5
A95
330
A72
100
AcDbEntity
  8
4FNGRGD
100
AcDbCircle
 10
-1.369265086185741
 20
-14.99622595825542
 30
0.0
 40
0.1875
100
AcDbArc
 50
58.88654036262786
 51
31.11345963737169
  0
CIRCLE
  5
A96
330
A72
100
AcDbEntity
  8
4FNGRGD
100
AcDbCircle
 10
-1.369265086185741
 20
-14.99622595825542
 30
0.0
 40
0.1175
  0
ARC
  5
A97
330
A72
100
AcDbEntity
  8
4FNGRGD
100
AcDbCircle
 10
1.200734913814258
 20
-12.92622595825542
 30
0.0
 40
0.3986057134912808
100
AcDbArc
 50
134.0716397936338
 51
225.9283602063449
  0
ARC
  5
A98
330
A72
100
AcDbEntity
  8
4FNGRGD
100
AcDbCircle
 10
0.2007349138142587
 20
-12.92622595825542
 30
0.0
 40
0.3985533905932713
100
AcDbArc
 50
315.0000000000002
 51
44.99999999999985
  0
ARC
  5
A99
330
A72
100
AcDbEntity
  8
4FNGRGD
100
AcDbCircle
 10
0.2007349138142587
 20
-12.92622595825542
 30
0.0
 40
0.308553390593275
100
AcDbArc
 50
314.9999999999999
 51
44.99999999999985
  0
LINE
  5
A9A
330
A72
100
AcDbEntity
  8
4FNGRGD
100
AcDbLine
 10
0.4189151086608654
 20
-13.14440615310203
 30
0.0
 11
-1.272377374076153
 21
-14.83569863583905
 31
0.0
  0
LINE
  5
A9B
330
A72
100
AcDbEntity
  8
4FNGRGD
100
AcDbLine
 10
0.4825547189676556
 20
-13.20804576340882
 30
0.0
 11
-1.20873776376937
 21
-14.89933824614584
 31
0.0
  0
ARC
  5
A9C
330
A72
100
AcDbEntity
  8
4FNGRGD
100
AcDbCircle
 10
0.7007349138142587
 20
-12.92622595825542
 30
0.0
 40
2.281
100
AcDbArc
 50
226.1304153241533
 51
313.8695846758467
  0
ARC
  5
A9D
330
A72
100
AcDbEntity
  8
4FNGRGD
100
AcDbCircle
 10
0.7007349138142587
 20
-12.92622595825542
 30
0.0
 40
2.210999999999999
100
AcDbArc
 50
226.1662090076732
 51
313.8337909923271
  0
ARC
  5
A9E
330
A72
100
AcDbEntity
  8
4FNGRGD
100
AcDbCircle
 10
0.7007349138142587
 20
-12.92622595825542
 30
0.0
 40
2.0
100
AcDbArc
 50
226.2892638362879
 51
313.7107361637121
  0
ARC
  5
A9F
330
A72
100
AcDbEntity
  8
4FNGRGD
100
AcDbCircle
 10
0.7007349138142587
 20
-12.92622595825542
 30
0.0
 40
1.929999999999999
100
AcDbArc
 50
226.3360330294323
 51
313.663966970568
  0
ARC
  5
AA0
330
A72
100
AcDbEntity
  8
4FNGRGD
100
AcDbCircle
 10
0.7007349138142587
 20
-12.92622595825542
 30
0.0
 40
1.729999999999999
100
AcDbArc
 50
226.4905207599052
 51
313.5094792400951
  0
ARC
  5
AA1
330
A72
100
AcDbEntity
  8
4FNGRGD
100
AcDbCircle
 10
0.7007349138142587
 20
-12.92622595825542
 30
0.0
 40
1.659999999999999
100
AcDbArc
 50
226.5533891376328
 51
313.4466108623669
  0
ARC
  5
AA2
330
A72
100
AcDbEntity
  8
4FNGRGD
100
AcDbCircle
 10
0.7007349138142587
 20
-12.92622595825542
 30
0.0
 40
1.45
100
AcDbArc
 50
226.7784304387048
 51
313.2215695612956
  0
ARC
  5
AA3
330
A72
100
AcDbEntity
  8
4FNGRGD
100
AcDbCircle
 10
0.7007349138142587
 20
-12.92622595825542
 30
0.0
 40
1.379999999999999
100
AcDbArc
 50
226.8686719043488
 51
313.1313280956516
  0
ARC
  5
AA4
330
A72
100
AcDbEntity
  8
4FNGRGD
100
AcDbCircle
 10
0.7007349138142587
 20
-12.92622595825542
 30
0.0
 40
1.177
100
AcDbArc
 50
227.191111836003
 51
312.8088881639973
  0
ARC
  5
AA5
330
A72
100
AcDbEntity
  8
4FNGRGD
100
AcDbCircle
 10
0.7007349138142587
 20
-12.92622595825542
 30
0.0
 40
1.106999999999999
100
AcDbArc
 50
227.329738660435
 51
312.6702613395653
  0
ARC
  5
AA6
330
A72
100
AcDbEntity
  8
4FNGRGD
100
AcDbCircle
 10
0.7007349138142587
 20
-12.92622595825542
 30
0.0
 40
0.9059999999999998
100
AcDbArc
 50
227.8469882677725
 51
312.1530117322281
  0
ARC
  5
AA7
330
A72
100
AcDbEntity
  8
4FNGRGD
100
AcDbCircle
 10
0.7007349138142587
 20
-12.92622595825542
 30
0.0
 40
0.8359999999999999
100
AcDbArc
 50
228.0855942365206
 51
311.9144057634799
  0
ARC
  5
AA8
330
A72
100
AcDbEntity
  8
4FNGRGD
100
AcDbCircle
 10
0.7007349138142587
 20
-12.92622595825542
 30
0.0
 40
0.625
100
AcDbArc
 50
229.1288687212379
 51
310.8711312787626
  0
ARC
  5
AA9
330
A72
100
AcDbEntity
  8
4FNGRGD
100
AcDbCircle
 10
0.7007349138142587
 20
-12.92622595825542
 30
0.0
 40
0.5550000000000001
100
AcDbArc
 50
229.6507090048802
 51
310.3492909951207
  0
ARC
  5
AAA
330
A72
100
AcDbEntity
  8
4FNGRGD
100
AcDbCircle
 10
0.7007349138142587
 20
-12.92622595825542
 30
0.0
 40
0.35
100
AcDbArc
 50
232.3784284177139
 51
307.6129515636992
  0
ARC
  5
AAB
330
A72
100
AcDbEntity
  8
4FNGRGD
100
AcDbCircle
 10
0.7007349138142587
 20
-12.92622595825542
 30
0.0
 40
0.28
100
AcDbArc
 50
232.7312629137356
 51
307.258012899903
  0
ARC
  5
AAC
330
A72
100
AcDbEntity
  8
4FNGRGD
100
AcDbCircle
 10
0.7007349138142587
 20
-12.92622595825542
 30
0.0
 40
0.28
100
AcDbArc
 50
326.3914436454987
 51
33.60855635450131
  0
ARC
  5
AAD
330
A72
100
AcDbEntity
  8
4FNGRGD
100
AcDbCircle
 10
0.7007349138142587
 20
-12.92622595825542
 30
0.0
 40
0.35
100
AcDbArc
 50
322.3982372955831
 51
37.6017627044167
  0
ARC
  5
AAE
330
A72
100
AcDbEntity
  8
4FNGRGD
100
AcDbCircle
 10
0.7007349138142587
 20
-12.92622595825542
 30
0.0
 40
0.5550000000000001
100
AcDbArc
 50
319.6507090048795
 51
40.34929099511997
  0
ARC
  5
AAF
330
A72
100
AcDbEntity
  8
4FNGRGD
100
AcDbCircle
 10
0.7007349138142587
 20
-12.92622595825542
 30
0.0
 40
0.625
100
AcDbArc
 50
319.1288687212372
 51
40.87113127876214
  0
ARC
  5
AB0
330
A72
100
AcDbEntity
  8
4FNGRGD
100
AcDbCircle
 10
0.7007349138142587
 20
-12.92622595825542
 30
0.0
 40
0.8359999999999999
100
AcDbArc
 50
318.08559423652
 51
41.91440576347928
  0
ARC
  5
AB1
330
A72
100
AcDbEntity
  8
4FNGRGD
100
AcDbCircle
 10
0.7007349138142587
 20
-12.92622595825542
 30
0.0
 40
0.9059999999999998
100
AcDbArc
 50
317.8469882677716
 51
42.15301173222754
  0
ARC
  5
AB2
330
A72
100
AcDbEntity
  8
4FNGRGD
100
AcDbCircle
 10
0.7007349138142587
 20
-12.92622595825542
 30
0.0
 40
1.106999999999999
100
AcDbArc
 50
317.3297386604347
 51
42.670261339565
  0
ARC
  5
AB3
330
A72
100
AcDbEntity
  8
4FNGRGD
100
AcDbCircle
 10
0.7007349138142587
 20
-12.92622595825542
 30
0.0
 40
1.177
100
AcDbArc
 50
317.1911118360025
 51
42.80888816399694
  0
ARC
  5
AB4
330
A72
100
AcDbEntity
  8
4FNGRGD
100
AcDbCircle
 10
0.7007349138142587
 20
-12.92622595825542
 30
0.0
 40
1.379999999999999
100
AcDbArc
 50
316.8686719043487
 51
43.13132809565102
  0
ARC
  5
AB5
330
A72
100
AcDbEntity
  8
4FNGRGD
100
AcDbCircle
 10
0.7007349138142587
 20
-12.92622595825542
 30
0.0
 40
1.45
100
AcDbArc
 50
316.7784304387046
 51
43.22156956129523
  0
ARC
  5
AB6
330
A72
100
AcDbEntity
  8
4FNGRGD
100
AcDbCircle
 10
0.7007349138142587
 20
-12.92622595825542
 30
0.0
 40
1.659999999999999
100
AcDbArc
 50
316.5533891376331
 51
43.44661086236692
  0
ARC
  5
AB7
330
A72
100
AcDbEntity
  8
4FNGRGD
100
AcDbCircle
 10
0.7007349138142587
 20
-12.92622595825542
 30
0.0
 40
1.729999999999999
100
AcDbArc
 50
316.490520759905
 51
43.5094792400948
  0
ARC
  5
AB8
330
A72
100
AcDbEntity
  8
4FNGRGD
100
AcDbCircle
 10
0.7007349138142587
 20
-12.92622595825542
 30
0.0
 40
1.929999999999999
100
AcDbArc
 50
316.336033029432
 51
43.66396697056771
  0
ARC
  5
AB9
330
A72
100
AcDbEntity
  8
4FNGRGD
100
AcDbCircle
 10
0.7007349138142587
 20
-12.92622595825542
 30
0.0
 40
2.0
100
AcDbArc
 50
316.2892638362879
 51
43.71073616371208
  0
ARC
  5
ABA
330
A72
100
AcDbEntity
  8
4FNGRGD
100
AcDbCircle
 10
0.7007349138142587
 20
-12.92622595825542
 30
0.0
 40
2.210999999999999
100
AcDbArc
 50
316.1662090076729
 51
43.83379099232682
  0
LINE
  5
ABB
330
A72
100
AcDbEntity
  8
4INFAN
100
AcDbLine
 10
-0.9172990749356344
 20
-14.10179646284038
 30
0.0
 11
-1.0184261992325
 21
-14.17526961937693
 31
0.0
  0
LINE
  5
ABC
330
A72
100
AcDbEntity
  8
4INFAN
100
AcDbLine
 10
-0.6988644864543972
 20
-13.9430944447214
 30
0.0
 11
-0.8606678853293878
 21
-14.0606514951799
 31
0.0
  0
LINE
  5
ABD
330
A72
100
AcDbEntity
  8
4INFAN
100
AcDbLine
 10
-0.4723397280294109
 20
-13.77851457407951
 30
0.0
 11
-0.6422332968481506
 21
-13.90194947706093
 31
0.0
  0
LINE
  5
ABE
330
A72
100
AcDbEntity
  8
4INFAN
100
AcDbLine
 10
-0.1100947962183234
 20
-14.12833043846023
 30
0.0
 11
-0.2275253059471716
 21
-14.3024283286968
 31
0.0
  0
LINE
  5
ABF
330
A72
100
AcDbEntity
  8
4INFAN
100
AcDbLine
 10
-0.2666688091901257
 20
-14.36046095877565
 30
0.0
 11
-0.3785073898842768
 21
-14.52626847328666
 31
0.0
  0
LINE
  5
AC0
330
A72
100
AcDbEntity
  8
4INFAN
100
AcDbLine
 10
-0.4176508931272274
 20
-14.58430110336551
 30
0.0
 11
-0.4875500060610705
 21
-14.68793079993489
 31
0.0
  0
LINE
  5
AC1
330
A72
100
AcDbEntity
  8
4INFAN
100
AcDbLine
 10
1.318768902564151
 20
-14.82833899084573
 30
0.0
 11
1.357396026861025
 21
-14.94722105538263
 31
0.0
  0
LINE
  5
AC2
330
A72
100
AcDbEntity
  8
4INFAN
100
AcDbLine
 10
1.235334314082916
 20
-14.57155373144604
 30
0.0
 11
1.297137712957905
 21
-14.76176503470507
 31
0.0
  0
LINE
  5
AC3
330
A72
100
AcDbEntity
  8
4INFAN
100
AcDbLine
 10
1.148809555657926
 20
-14.3052579068834
 30
0.0
 11
1.213703124476669
 21
-14.50497977530538
 31
0.0
  0
LINE
  5
AC4
330
A72
100
AcDbEntity
  8
4INFAN
100
AcDbLine
 10
1.593444053036467
 20
-14.06884155098516
 30
0.0
 11
1.722732962854859
 21
-14.23432380924257
 31
0.0
  0
LINE
  5
AC5
330
A72
100
AcDbEntity
  8
4INFAN
100
AcDbLine
 10
1.765829266127656
 20
-14.28948456199505
 30
0.0
 11
1.88896156119279
 21
-14.44708671271638
 31
0.0
  0
LINE
  5
AC6
330
A72
100
AcDbEntity
  8
4INFAN
100
AcDbLine
 10
1.932057864465587
 20
-14.50224746546886
 30
0.0
 11
2.009015548881293
 21
-14.6007488096697
 31
0.0
  0
LINE
  5
AC7
330
A72
100
AcDbEntity
  8
4INFAN
100
AcDbLine
 10
2.150734913814257
 20
-12.92622595825542
 30
0.0
 11
2.360734913814258
 21
-12.92622595825542
 31
0.0
  0
ARC
  5
AC8
330
A72
100
AcDbEntity
  8
4INFAN
100
AcDbCircle
 10
0.7007349138142587
 20
-12.92622595825542
 30
0.0
 40
1.3125
100
AcDbArc
 50
226.9648117971694
 51
313.0351882028306
  0
ARC
  5
AC9
330
A72
100
AcDbEntity
  8
4INFAN
100
AcDbCircle
 10
0.7007349138142587
 20
-12.92622595825542
 30
0.0
 40
1.3125
100
AcDbArc
 50
316.9648117971691
 51
43.03518820283058
  0
ARC
  5
ACA
330
A72
100
AcDbEntity
  8
4INFAN
100
AcDbCircle
 10
0.7007349138142587
 20
-12.92622595825542
 30
0.0
 40
2.125
100
AcDbArc
 50
316.2134130922968
 51
0.0
  0
LINE
  5
ACB
330
A72
100
AcDbEntity
  8
4INFAN
100
AcDbLine
 10
-1.644265086185733
 20
-10.58122595825542
 30
0.0
 11
-1.64426508618574
 21
-15.27122595825543
 31
0.0
  0
LINE
  5
ACC
330
A72
100
AcDbEntity
  8
4INFAN
100
AcDbLine
 10
1.934081478595764
 20
-12.47732452014048
 30
0.0
 11
1.99751073049881
 21
-12.454238160466
 31
0.0
  0
LINE
  5
ACD
330
A72
100
AcDbEntity
  8
4INFAN
100
AcDbLine
 10
-0.3610998913028567
 20
-12.15475781462155
 30
0.0
 11
-0.4157085384231714
 21
-12.11508231009182
 31
0.0
  0
LINE
  5
ACE
330
A72
100
AcDbEntity
  8
4INFAN
100
AcDbLine
 10
-0.5609210621047822
 20
-12.56445192874561
 30
0.0
 11
-0.6258062265806217
 21
-12.54584640722796
 31
0.0
  0
ARC
  5
ACF
330
A72
100
AcDbEntity
  8
4INFAN
100
AcDbCircle
 10
0.7007349138142587
 20
-12.92622595825542
 30
0.0
 40
2.125
100
AcDbArc
 50
20.00000000000002
 51
43.78658690770325
  0
LINE
  5
AD0
330
A72
100
AcDbEntity
  8
4FNGRGD
100
AcDbLine
 10
-1.272377374076157
 20
-11.0167532806718
 30
0.0
 11
0.4189151086608654
 21
-12.70804576340882
 31
0.0
  0
LINE
  5
AD1
330
A72
100
AcDbEntity
  8
4FNGRGD
100
AcDbLine
 10
-1.20873776376937
 20
-10.95311367036501
 30
0.0
 11
0.482554718967652
 21
-12.64440615310203
 31
0.0
  0
LINE
  5
AD2
330
A72
100
AcDbEntity
  8
4FNGRGD
100
AcDbLine
 10
2.610207591397887
 20
-10.95311367036501
 30
0.0
 11
0.9143483989864229
 21
-12.64897286277647
 31
0.0
  0
LINE
  5
AD3
330
A72
100
AcDbEntity
  8
4FNGRGD
100
AcDbLine
 10
2.673847201704674
 20
-11.0167532806718
 30
0.0
 11
0.9825547189676555
 21
-12.70804576340882
 31
0.0
  0
ARC
  5
AD4
330
A72
100
AcDbEntity
  8
4FNGRGD
100
AcDbCircle
 10
0.7007349138142587
 20
-12.92622595825542
 30
0.0
 40
0.28
100
AcDbArc
 50
52.74198710009685
 51
127.2687370862644
  0
ARC
  5
AD5
330
A72
100
AcDbEntity
  8
4FNGRGD
100
AcDbCircle
 10
0.7007349138142587
 20
-12.92622595825542
 30
0.0
 40
0.35
100
AcDbArc
 50
52.38704843630085
 51
127.6215715822861
  0
ARC
  5
AD6
330
A72
100
AcDbEntity
  8
4FNGRGD
100
AcDbCircle
 10
0.7007349138142587
 20
-12.92622595825542
 30
0.0
 40
0.5550000000000001
100
AcDbArc
 50
49.65070900487917
 51
130.3492909951199
  0
ARC
  5
AD7
330
A72
100
AcDbEntity
  8
4FNGRGD
100
AcDbCircle
 10
0.7007349138142587
 20
-12.92622595825542
 30
0.0
 40
0.625
100
AcDbArc
 50
49.12886872123729
 51
130.8711312787627
  0
ARC
  5
AD8
330
A72
100
AcDbEntity
  8
4FNGRGD
100
AcDbCircle
 10
0.7007349138142587
 20
-12.92622595825542
 30
0.0
 40
0.8359999999999999
100
AcDbArc
 50
48.08559423652028
 51
131.9144057634797
  0
ARC
  5
AD9
330
A72
100
AcDbEntity
  8
4FNGRGD
100
AcDbCircle
 10
0.7007349138142587
 20
-12.92622595825542
 30
0.0
 40
0.9059999999999998
100
AcDbArc
 50
47.84698826777189
 51
132.1530117322278
  0
ARC
  5
ADA
330
A72
100
AcDbEntity
  8
4FNGRGD
100
AcDbCircle
 10
0.7007349138142587
 20
-12.92622595825542
 30
0.0
 40
2.281
100
AcDbArc
 50
316.1304153241533
 51
43.86958467584672
  0
LINE
  5
ADB
330
A72
100
AcDbEntity
  8
4INFAN
100
AcDbLine
 10
-0.6930945452963045
 20
-12.52655179232077
 30
0.0
 11
-0.8949595014433491
 21
-12.4686679475992
 31
0.0
  0
LINE
  5
ADC
330
A72
100
AcDbEntity
  8
4INFAN
100
AcDbLine
 10
-0.9622478201590318
 20
-12.44937333269201
 30
0.0
 11
-1.154500159346696
 21
-12.39424586152861
 31
0.0
  0
LINE
  5
ADD
330
A72
100
AcDbEntity
  8
4INFAN
100
AcDbLine
 10
-1.221788478062379
 20
-12.37495124662142
 30
0.0
 11
-1.34194619005467
 21
-12.3404965771443
 31
0.0
  0
LINE
  5
ADE
330
A72
100
AcDbEntity
  8
4INFAN
100
AcDbLine
 10
2.430734913814259
 20
-12.92622595825542
 30
0.0
 11
2.630734913814258
 21
-12.92622595825542
 31
0.0
  0
LINE
  5
ADF
330
A72
100
AcDbEntity
  8
4INFAN
100
AcDbLine
 10
2.700734913814258
 20
-12.92622595825542
 30
0.0
 11
2.825734913814258
 21
-12.92622595825542
 31
0.0
  0
LINE
  5
AE0
330
A72
100
AcDbEntity
  8
4INFAN
100
AcDbLine
 10
2.063289213953826
 20
-12.4302967504332
 30
0.0
 11
2.260624664318864
 21
-12.35847252033481
 31
0.0
  0
LINE
  5
AE1
330
A72
100
AcDbEntity
  8
4INFAN
100
AcDbLine
 10
2.326403147773877
 20
-12.33453111030201
 30
0.0
 11
2.514341671931063
 21
-12.26612708163688
 31
0.0
  0
LINE
  5
AE2
330
A72
100
AcDbEntity
  8
4INFAN
100
AcDbLine
 10
2.580120155386076
 20
-12.24218567160408
 30
0.0
 11
2.697581732984311
 21
-12.19943315368837
 31
0.0
  0
CIRCLE
  5
AE3
330
A72
100
AcDbEntity
  8
4INFAN
100
AcDbCircle
 10
-1.369265086185741
 20
-10.85622595825542
 30
0.0
 40
0.085
  0
ARC
  5
AE4
330
A72
100
AcDbEntity
  8
4INFAN
100
AcDbCircle
 10
0.7007349138142587
 20
-12.92622595825542
 30
0.0
 40
2.125
100
AcDbArc
 50
91.99999999999997
 51
133.7865869077033
  0
LINE
  5
AE5
330
A72
100
AcDbEntity
  8
4INFAN
100
AcDbLine
 10
-1.644265086185733
 20
-10.58122595825542
 30
0.0
 11
3.045734913814257
 21
-10.58122595825542
 31
0.0
  0
ARC
  5
AE6
330
A72
100
AcDbEntity
  8
4FNGRGD
100
AcDbCircle
 10
-1.369265086185741
 20
-10.85622595825542
 30
0.0
 40
0.1875
100
AcDbArc
 50
328.886540362629
 51
301.1134596373712
  0
CIRCLE
  5
AE7
330
A72
100
AcDbEntity
  8
4FNGRGD
100
AcDbCircle
 10
-1.369265086185741
 20
-10.85622595825542
 30
0.0
 40
0.1175
  0
ARC
  5
AE8
330
A72
100
AcDbEntity
  8
4FNGRGD
100
AcDbCircle
 10
0.7007349138142587
 20
-12.92622595825542
 30
0.0
 40
1.379999999999999
100
AcDbArc
 50
46.86867190434839
 51
133.1313280956511
  0
ARC
  5
AE9
330
A72
100
AcDbEntity
  8
4FNGRGD
100
AcDbCircle
 10
0.7007349138142587
 20
-12.92622595825542
 30
0.0
 40
1.45
100
AcDbArc
 50
46.77843043870448
 51
133.2215695612952
  0
ARC
  5
AEA
330
A72
100
AcDbEntity
  8
4FNGRGD
100
AcDbCircle
 10
0.7007349138142587
 20
-12.92622595825542
 30
0.0
 40
1.659999999999999
100
AcDbArc
 50
46.55338913763308
 51
133.4466108623669
  0
ARC
  5
AEB
330
A72
100
AcDbEntity
  8
4FNGRGD
100
AcDbCircle
 10
0.7007349138142587
 20
-12.92622595825542
 30
0.0
 40
1.729999999999999
100
AcDbArc
 50
46.49052075990492
 51
133.5094792400948
  0
ARC
  5
AEC
330
A72
100
AcDbEntity
  8
4FNGRGD
100
AcDbCircle
 10
0.7007349138142587
 20
-12.92622595825542
 30
0.0
 40
1.929999999999999
100
AcDbArc
 50
46.33603302943228
 51
133.6639669705677
  0
ARC
  5
AED
330
A72
100
AcDbEntity
  8
4FNGRGD
100
AcDbCircle
 10
0.7007349138142587
 20
-12.92622595825542
 30
0.0
 40
2.0
100
AcDbArc
 50
46.2892638362879
 51
133.7107361637121
  0
ARC
  5
AEE
330
A72
100
AcDbEntity
  8
4FNGRGD
100
AcDbCircle
 10
0.7007349138142587
 20
-12.92622595825542
 30
0.0
 40
2.210999999999999
100
AcDbArc
 50
46.16620900767289
 51
133.8337909923268
  0
ARC
  5
AEF
330
A72
100
AcDbEntity
  8
4FNGRGD
100
AcDbCircle
 10
0.7007349138142587
 20
-12.92622595825542
 30
0.0
 40
2.281
100
AcDbArc
 50
46.13041532415327
 51
133.8695846758467
  0
ARC
  5
AF0
330
A72
100
AcDbEntity
  8
4INFAN
100
AcDbCircle
 10
0.7007349138142587
 20
-12.92622595825542
 30
0.0
 40
2.125
100
AcDbArc
 50
136.2134130922967
 51
144.0000000000002
  0
LINE
  5
AF1
330
A72
100
AcDbEntity
  8
4INFAN
100
AcDbLine
 10
-0.917299074935638
 20
-11.75065545367048
 30
0.0
 11
-1.018426199232507
 21
-11.67718229713393
 31
0.0
  0
LINE
  5
AF2
330
A72
100
AcDbEntity
  8
4INFAN
100
AcDbLine
 10
-0.6988644864544007
 20
-11.90935747178945
 30
0.0
 11
-0.8606678853293914
 21
-11.79180042133095
 31
0.0
  0
LINE
  5
AF3
330
A72
100
AcDbEntity
  8
4INFAN
100
AcDbLine
 10
-0.472339728029418
 20
-12.07393734243134
 30
0.0
 11
-0.6422332968481542
 21
-11.95050243944992
 31
0.0
  0
ARC
  5
AF4
330
A72
100
AcDbEntity
  8
4INFAN
100
AcDbCircle
 10
0.7007349138142587
 20
-12.92622595825542
 30
0.0
 40
1.3125
100
AcDbArc
 50
46.96481179716884
 51
133.0351882028311
  0
LINE
  5
AF5
330
A72
100
AcDbEntity
  8
4INFAN
100
AcDbLine
 10
1.106319718931381
 20
-11.67796428061803
 30
0.0
 11
1.127178366051687
 21
-11.61376796576811
 31
0.0
  0
LINE
  5
AF6
330
A72
100
AcDbEntity
  8
4INFAN
100
AcDbLine
 10
0.6549293243922279
 20
-11.61452549779286
 30
0.0
 11
0.6525736083648078
 21
-11.54706661696907
 31
0.0
  0
LINE
  5
AF7
330
A72
100
AcDbEntity
  8
4INFAN
100
AcDbLine
 10
1.148809555657933
 20
-11.54719400962745
 30
0.0
 11
1.213703124476673
 21
-11.34747214120547
 31
0.0
  0
LINE
  5
AF8
330
A72
100
AcDbEntity
  8
4INFAN
100
AcDbLine
 10
1.235334314082919
 20
-11.28089818506481
 30
0.0
 11
1.297137712957912
 21
-11.09068688180578
 31
0.0
  0
LINE
  5
AF9
330
A72
100
AcDbEntity
  8
4INFAN
100
AcDbLine
 10
1.318768902564158
 20
-11.02411292566511
 30
0.0
 11
1.357396026861025
 21
-10.90523086112822
 31
0.0
  0
LINE
  5
AFA
330
A72
100
AcDbEntity
  8
4INFAN
100
AcDbLine
 10
0.6309359204092644
 20
-10.92744430421723
 30
0.0
 11
0.6265734833214509
 21
-10.80252045083985
 31
0.0
  0
LINE
  5
AFB
330
A72
100
AcDbEntity
  8
4INFAN
100
AcDbLine
 10
0.6403587845189378
 20
-11.19727982751239
 30
0.0
 11
0.6333788851784377
 21
-10.99740166210857
 31
0.0
  0
LINE
  5
AFC
330
A72
100
AcDbEntity
  8
4INFAN
100
AcDbLine
 10
0.6501306435956309
 20
-11.47710925907774
 30
0.0
 11
0.6428017492881111
 21
-11.26723718540372
 31
0.0
  0
ARC
  5
AFD
330
A72
100
AcDbEntity
  8
4INFAN
100
AcDbCircle
 10
0.7007349138142587
 20
-12.92622595825542
 30
0.0
 40
2.125
100
AcDbArc
 50
46.21341309229644
 51
71.99999999999985
  0
CIRCLE
  5
AFE
330
A72
100
AcDbEntity
  8
4INFAN
100
AcDbCircle
 10
2.770734913814258
 20
-10.85622595825542
 30
0.0
 40
0.085
  0
ARC
  5
AFF
330
A72
100
AcDbEntity
  8
4FNGRGD
100
AcDbCircle
 10
2.770734913814258
 20
-10.85622595825542
 30
0.0
 40
0.1875
100
AcDbArc
 50
238.8865403626287
 51
211.1134596373717
  0
CIRCLE
  5
B00
330
A72
100
AcDbEntity
  8
4FNGRGD
100
AcDbCircle
 10
2.770734913814258
 20
-10.85622595825542
 30
0.0
 40
0.1175
  0
ARC
  5
B01
330
A72
100
AcDbEntity
  8
4FNGRGD
100
AcDbCircle
 10
0.7007349138142587
 20
-12.92622595825542
 30
0.0
 40
1.106999999999999
100
AcDbArc
 50
47.32973866043471
 51
132.6702613395653
  0
ARC
  5
B02
330
A72
100
AcDbEntity
  8
4FNGRGD
100
AcDbCircle
 10
0.7007349138142587
 20
-12.92622595825542
 30
0.0
 40
1.177
100
AcDbArc
 50
47.19111183600277
 51
132.8088881639972
  0
INSERT
  5
B03
330
A72
100
AcDbEntity
  8
0
100
AcDbBlockReference
  2
A$C3A64330D
 10
-1.735000000000006
 20
-0.1013942865087216
 30
0.0
  0
INSERT
  5
B04
330
A72
100
AcDbEntity
  8
0
100
AcDbBlockReference
  2
A$C0F1E4080
 10
-11.81389833063034
 20
7.82993409197325
 30
0.0
  0
ENDBLK
  5
B06
330
A72
100
AcDbEntity
  8
0
100
AcDbBlockEnd
  0
BLOCK
  5
CE3
330
CE2
100
AcDbEntity
  8
0
100
AcDbBlockBegin
  2
*D6
 70
     1
 10
0.0
 20
0.0
 30
0.0
  3
*D6
  1

  0
LINE
  5
CE4
330
CE2
100
AcDbEntity
  8
0
 62
     0
370
    -2
100
AcDbLine
 10
13.92626594923269
 20
13.03094961158115
 30
0.0
 11
13.92626594923269
 21
11.76384540445287
 31
0.0
  0
LINE
  5
CE5
330
CE2
100
AcDbEntity
  8
0
 62
     0
370
    -2
100
AcDbLine
 10
16.28626594923269
 20
14.40768953041618
 30
0.0
 11
16.28626594923269
 21
11.76384540445287
 31
0.0
  0
LINE
  5
CE6
330
CE2
100
AcDbEntity
  8
0
 62
     0
370
    -2
100
AcDbLine
 10
13.51546594923269
 20
11.94384540445287
 30
0.0
 11
13.10466594923269
 21
11.94384540445287
 31
0.0
  0
LINE
  5
CE7
330
CE2
100
AcDbEntity
  8
0
 62
     0
370
    -2
100
AcDbLine
 10
16.69706594923269
 20
11.94384540445287
 30
0.0
 11
17.10786594923269
 21
11.94384540445287
 31
0.0
  0
SOLID
  5
CE8
330
CE2
100
AcDbEntity
  8
0
 62
     0
100
AcDbTrace
 10
13.51546594923269
 20
12.01231207111954
 30
0.0
 11
13.51546594923269
 21
11.8753787377862
 31
0.0
 12
13.92626594923269
 22
11.94384540445287
 32
0.0
 13
13.92626594923269
 23
11.94384540445287
 33
0.0
  0
SOLID
  5
CE9
330
CE2
100
AcDbEntity
  8
0
 62
     0
100
AcDbTrace
 10
16.69706594923269
 20
12.01231207111954
 30
0.0
 11
16.69706594923269
 21
11.8753787377862
 31
0.0
 12
16.28626594923269
 22
11.94384540445287
 32
0.0
 13
16.28626594923269
 23
11.94384540445287
 33
0.0
  0
MTEXT
  5
CEA
330
CE2
100
AcDbEntity
  8
0
 62
     0
100
AcDbMText
 10
15.10626594923269
 20
11.94384540445287
 30
0.0
 40
0.4108
 41
0.0
 71
     5
 72
     1
  1
\A1;2.360
 73
     1
 44
1.0
1001
ACAD
1000
MTEXTBEGIN
1070
    73
1070
     1
1070
    44
1040
1.0
1070
    74
1070
     0
1000
MTEXTEND
  0
POINT
  5
CEB
330
CE2
100
AcDbEntity
  8
Defpoints
 62
     0
100
AcDbPoint
 10
13.92626594923269
 20
13.28094961158115
 30
0.0
  0
POINT
  5
CEC
330
CE2
100
AcDbEntity
  8
Defpoints
 62
     0
100
AcDbPoint
 10
16.28626594923269
 20
14.65768953041617
 30
0.0
  0
POINT
  5
CED
330
CE2
100
AcDbEntity
  8
Defpoints
 62
     0
100
AcDbPoint
 10
16.28626594923269
 20
11.94384540445287
 30
0.0
  0
ENDBLK
  5
CEE
330
CE2
100
AcDbEntity
  8
0
100
AcDbBlockEnd
  0
BLOCK
  5
CF0
330
CEF
100
AcDbEntity
  8
0
100
AcDbBlockBegin
  2
*D7
 70
     1
 10
0.0
 20
0.0
 30
0.0
  3
*D7
  1

  0
LINE
  5
CF1
330
CEF
100
AcDbEntity
  8
0
 62
     0
370
    -2
100
AcDbLine
 10
10.40882925192206
 20
18.8998316717467
 30
0.0
 11
10.40882925192206
 21
19.39640546799221
 31
0.0
  0
LINE
  5
CF2
330
CEF
100
AcDbEntity
  8
0
 62
     0
370
    -2
100
AcDbLine
 10
4.483829251922063
 20
18.8998316717467
 30
0.0
 11
4.483829251922063
 21
19.39640546799221
 31
0.0
  0
LINE
  5
CF3
330
CEF
100
AcDbEntity
  8
0
 62
     0
370
    -2
100
AcDbLine
 10
9.998029251922064
 20
19.21640546799222
 30
0.0
 11
8.357929251922064
 21
19.21640546799222
 31
0.0
  0
LINE
  5
CF4
330
CEF
100
AcDbEntity
  8
0
 62
     0
370
    -2
100
AcDbLine
 10
4.894629251922063
 20
19.21640546799222
 30
0.0
 11
6.534729251922064
 21
19.21640546799222
 31
0.0
  0
SOLID
  5
CF5
330
CEF
100
AcDbEntity
  8
0
 62
     0
100
AcDbTrace
 10
9.998029251922064
 20
19.28487213465888
 30
0.0
 11
9.998029251922064
 21
19.14793880132555
 31
0.0
 12
10.40882925192206
 22
19.21640546799222
 32
0.0
 13
10.40882925192206
 23
19.21640546799222
 33
0.0
  0
SOLID
  5
CF6
330
CEF
100
AcDbEntity
  8
0
 62
     0
100
AcDbTrace
 10
4.894629251922063
 20
19.28487213465888
 30
0.0
 11
4.894629251922063
 21
19.14793880132555
 31
0.0
 12
4.483829251922063
 22
19.21640546799222
 32
0.0
 13
4.483829251922063
 23
19.21640546799222
 33
0.0
  0
MTEXT
  5
CF7
330
CEF
100
AcDbEntity
  8
0
 62
     0
100
AcDbMText
 10
7.446329251922064
 20
19.21640546799222
 30
0.0
 40
0.4108
 41
0.0
 71
     5
 72
     1
  1
\A1;5.925
 73
     1
 44
1.0
1001
ACAD
1000
MTEXTBEGIN
1070
    73
1070
     1
1070
    44
1040
1.0
1070
    74
1070
     0
1000
MTEXTEND
  0
POINT
  5
CF8
330
CEF
100
AcDbEntity
  8
Defpoints
 62
     0
100
AcDbPoint
 10
10.40882925192206
 20
18.6498316717467
 30
0.0
  0
POINT
  5
CF9
330
CEF
100
AcDbEntity
  8
Defpoints
 62
     0
100
AcDbPoint
 10
4.483829251922063
 20
18.6498316717467
 30
0.0
  0
POINT
  5
CFA
330
CEF
100
AcDbEntity
  8
Defpoints
 62
     0
100
AcDbPoint
 10
4.483829251922063
 20
19.21640546799222
 30
0.0
  0
ENDBLK
  5
CFB
330
CEF
100
AcDbEntity
  8
0
100
AcDbBlockEnd
  0
BLOCK
  5
CFD
330
CFC
100
AcDbEntity
  8
0
100
AcDbBlockBegin
  2
*D8
 70
     1
 10
0.0
 20
0.0
 30
0.0
  3
*D8
  1

  0
LINE
  5
CFE
330
CFC
100
AcDbEntity
  8
0
 62
     0
370
    -2
100
AcDbLine
 10
10.65882925192206
 20
18.6498316717467
 30
0.0
 11
11.70163061587461
 21
18.6498316717467
 31
0.0
  0
LINE
  5
CFF
330
CFC
100
AcDbEntity
  8
0
 62
     0
370
    -2
100
AcDbLine
 10
10.65882925192206
 20
12.74983167174671
 30
0.0
 11
11.70163061587461
 21
12.74983167174671
 31
0.0
  0
LINE
  5
D00
330
CFC
100
AcDbEntity
  8
0
 62
     0
370
    -2
100
AcDbLine
 10
11.52163061587461
 20
18.2390316717467
 30
0.0
 11
11.52163061587461
 21
15.99523167174671
 31
0.0
  0
LINE
  5
D01
330
CFC
100
AcDbEntity
  8
0
 62
     0
370
    -2
100
AcDbLine
 10
11.52163061587461
 20
13.16063167174671
 30
0.0
 11
11.52163061587461
 21
15.40443167174671
 31
0.0
  0
SOLID
  5
D02
330
CFC
100
AcDbEntity
  8
0
 62
     0
100
AcDbTrace
 10
11.45316394920795
 20
18.2390316717467
 30
0.0
 11
11.59009728254128
 21
18.2390316717467
 31
0.0
 12
11.52163061587461
 22
18.6498316717467
 32
0.0
 13
11.52163061587461
 23
18.6498316717467
 33
0.0
  0
SOLID
  5
D03
330
CFC
100
AcDbEntity
  8
0
 62
     0
100
AcDbTrace
 10
11.45316394920795
 20
13.16063167174671
 30
0.0
 11
11.59009728254128
 21
13.16063167174671
 31
0.0
 12
11.52163061587461
 22
12.74983167174671
 32
0.0
 13
11.52163061587461
 23
12.74983167174671
 33
0.0
  0
MTEXT
  5
D04
330
CFC
100
AcDbEntity
  8
0
 62
     0
100
AcDbMText
 10
11.52163061587461
 20
15.69983167174671
 30
0.0
 40
0.4108
 41
0.0
 71
     5
 72
     1
  1
\A1;5.900
 73
     1
 44
1.0
1001
ACAD
1000
MTEXTBEGIN
1070
    73
1070
     1
1070
    44
1040
1.0
1070
    74
1070
     0
1000
MTEXTEND
  0
POINT
  5
D05
330
CFC
100
AcDbEntity
  8
Defpoints
 62
     0
100
AcDbPoint
 10
10.40882925192206
 20
18.6498316717467
 30
0.0
  0
POINT
  5
D06
330
CFC
100
AcDbEntity
  8
Defpoints
 62
     0
100
AcDbPoint
 10
10.40882925192206
 20
12.74983167174671
 30
0.0
  0
POINT
  5
D07
330
CFC
100
AcDbEntity
  8
Defpoints
 62
     0
100
AcDbPoint
 10
11.52163061587461
 20
12.74983167174671
 30
0.0
  0
ENDBLK
  5
D08
330
CFC
100
AcDbEntity
  8
0
100
AcDbBlockEnd
  0
BLOCK
  5
D0A
330
D09
100
AcDbEntity
  8
0
100
AcDbBlockBegin
  2
*D9
 70
     1
 10
0.0
 20
0.0
 30
0.0
  3
*D9
  1

  0
LINE
  5
D0B
330
D09
100
AcDbEntity
  8
0
 62
     0
370
    -2
100
AcDbLine
 10
16.39123151955239
 20
18.60983167174671
 30
0.0
 11
16.39123151955239
 21
19.74303208905473
 31
0.0
  0
LINE
  5
D0C
330
D09
100
AcDbEntity
  8
0
 62
     0
370
    -2
100
AcDbLine
 10
16.92272758255239
 20
18.8998316717467
 30
0.0
 11
16.92272758255239
 21
19.74303208905473
 31
0.0
  0
LINE
  5
D0D
330
D09
100
AcDbEntity
  8
0
 62
     0
370
    -2
100
AcDbLine
 10
17.33352758255239
 20
19.56303208905473
 30
0.0
 11
17.74432758255239
 21
19.56303208905473
 31
0.0
  0
LINE
  5
D0E
330
D09
100
AcDbEntity
  8
0
 62
     0
370
    -2
100
AcDbLine
 10
15.98043151955239
 20
19.56303208905473
 30
0.0
 11
15.56963151955239
 21
19.56303208905473
 31
0.0
  0
SOLID
  5
D0F
330
D09
100
AcDbEntity
  8
0
 62
     0
100
AcDbTrace
 10
17.33352758255239
 20
19.63149875572139
 30
0.0
 11
17.33352758255239
 21
19.49456542238806
 31
0.0
 12
16.92272758255239
 22
19.56303208905473
 32
0.0
 13
16.92272758255239
 23
19.56303208905473
 33
0.0
  0
SOLID
  5
D10
330
D09
100
AcDbEntity
  8
0
 62
     0
100
AcDbTrace
 10
15.98043151955239
 20
19.63149875572139
 30
0.0
 11
15.98043151955239
 21
19.49456542238806
 31
0.0
 12
16.39123151955239
 22
19.56303208905473
 32
0.0
 13
16.39123151955239
 23
19.56303208905473
 33
0.0
  0
MTEXT
  5
D11
330
D09
100
AcDbEntity
  8
0
 62
     0
100
AcDbMText
 10
14.76073151955239
 20
19.56303208905473
 30
0.0
 40
0.4108
 41
0.0
 71
     5
 72
     1
  1
\A1;0.531
 73
     1
 44
1.0
1001
ACAD
1000
MTEXTBEGIN
1070
    73
1070
     1
1070
    44
1040
1.0
1070
    74
1070
     0
1000
MTEXTEND
  0
POINT
  5
D12
330
D09
100
AcDbEntity
  8
Defpoints
 62
     0
100
AcDbPoint
 10
16.39123151955239
 20
18.35983167174671
 30
0.0
  0
POINT
  5
D13
330
D09
100
AcDbEntity
  8
Defpoints
 62
     0
100
AcDbPoint
 10
16.92272758255239
 20
18.6498316717467
 30
0.0
  0
POINT
  5
D14
330
D09
100
AcDbEntity
  8
Defpoints
 62
     0
100
AcDbPoint
 10
16.92272758255239
 20
19.56303208905473
 30
0.0
  0
ENDBLK
  5
D15
330
D09
100
AcDbEntity
  8
0
100
AcDbBlockEnd
  0
BLOCK
  5
DB3
330
D18
100
AcDbEntity
  8
0
100
AcDbBlockBegin
  2
A$C02277F94
 70
     0
 10
0.0
 20
0.0
 30
0.0
  3
A$C02277F94
  1

  0
LWPOLYLINE
  5
D19
330
D18
100
AcDbEntity
  8
BORDER
100
AcDbPolyline
 90
        4
 70
     1
 43
0.0
 10
-13.11241212990726
 20
33.43598222406978
 10
18.11362684947912
 20
33.43598222406978
 10
18.11362684947912
 20
-7.652400484942724
 10
-13.11241212990726
 20
-7.652400484942724
  0
LINE
  5
D1A
330
D18
100
AcDbEntity
  8
BORDER
100
AcDbLine
 10
5.502075766397277
 20
-6.522582549520954
 30
0.0
 11
9.674262863092787
 21
-6.522582549520954
 31
0.0
  0
TEXT
  5
D1B
330
D18
100
AcDbEntity
  8
TEXT
100
AcDbText
 10
5.705139422375409
 20
-6.830714713726893
 30
0.0
 40
0.2054214428039577
  1
PROPRIETARY DRAWING
 72
     1
 11
7.588169314745021
 21
-6.728003992324914
 31
0.0
100
AcDbText
 73
     2
  0
TEXT
  5
D1C
330
D18
100
AcDbEntity
  8
TEXT
100
AcDbText
 10
5.842087050911404
 20
-7.344268320736788
 30
0.0
 40
0.1027107214019789
  1
OR ALTERED WITHOUT AUTHORIZATION OF
 72
     1
 11
7.588169314745043
 21
-7.292912960035799
 31
0.0
100
AcDbText
 73
     2
  0
TEXT
  5
D1D
330
D18
100
AcDbEntity
  8
TEXT
100
AcDbText
 10
5.76505400985992
 20
-7.190202238633816
 30
0.0
 40
0.1027107214019789
  1
QUBE, INC. AND IS NOT TO BE DUPLICATED
 72
     1
 11
7.588169314745043
 21
-7.138846877932827
 31
0.0
100
AcDbText
 73
     2
  0
TEXT
  5
D1E
330
D18
100
AcDbEntity
  8
TEXT
100
AcDbText
 10
5.859205504478399
 20
-7.036136156530852
 30
0.0
 40
0.1027107214019789
  1
THIS DRAWING IS THE PROPERTY OF ICE
 72
     1
 11
7.588169314745043
 21
-6.984780795829863
 31
0.0
100
AcDbText
 73
     2
  0
LINE
  5
D1F
330
D18
100
AcDbEntity
  8
BORDER
100
AcDbLine
 10
12.63644006832585
 20
-5.009037358941405
 30
0.0
 11
18.11362684947912
 21
-5.009037358941405
 31
0.0
  0
TEXT
  5
D20
330
D18
100
AcDbEntity
  8
TEXT
100
AcDbText
 10
6.980464213116692
 20
-7.498334402839753
 30
0.0
 40
0.1027107214019789
  1
ICE QUBE, INC.
 72
     1
 11
7.588169314745067
 21
-7.446979042138764
 31
0.0
100
AcDbText
 73
     2
  0
LINE
  5
D21
330
D18
100
AcDbEntity
  8
BORDER
100
AcDbLine
 10
5.502075766397274
 20
-6.522582549520954
 30
0.0
 11
5.502075766397277
 21
-7.652400484942724
 31
0.0
  0
TEXT
  5
D22
330
D18
100
AcDbEntity
  8
TEXT
100
AcDbText
 10
13.3572409947347
 20
-7.53859700562931
 30
0.0
 40
0.4108428856079155
  1
IQ280805
 72
     1
 11
14.7951910943624
 21
-7.333175562825353
 31
0.0
100
AcDbText
 73
     2
  0
TEXT
  5
D23
330
D18
100
AcDbEntity
  8
TEXT
100
AcDbText
 10
14.00555717354277
 20
-6.745875657848853
 30
0.0
 40
0.4108428856079155
  1
IQP100FP
 72
     1
 11
15.37503345890249
 21
-6.540454215044896
 31
0.0
100
AcDbText
 73
     2
  0
LINE
  5
D24
330
D18
100
AcDbEntity
  8
BORDER
100
AcDbLine
 10
12.63644006832585
 20
-6.859884558605067
 30
0.0
 11
18.11362684947912
 21
-6.859884558605067
 31
0.0
  0
LINE
  5
D25
330
D18
100
AcDbEntity
  8
BORDER
100
AcDbLine
 10
12.63644006832585
 20
-6.066957789381767
 30
0.0
 11
18.11362684947912
 21
-6.066957789381767
 31
0.0
  0
TEXT
  5
D26
330
D18
100
AcDbEntity
  8
TEXT
100
AcDbText
 10
12.73915078972783
 20
-6.221023871484732
 30
0.0
 40
0.1027107214019789
  1
PART NAME
100
AcDbText
  0
TEXT
  5
D27
330
D18
100
AcDbEntity
  8
TEXT
100
AcDbText
 10
12.73915078972783
 20
-7.013950640708038
 30
0.0
 40
0.1027107214019789
  1
DWG NO
100
AcDbText
  0
LINE
  5
D28
330
D18
100
AcDbEntity
  8
BORDER
100
AcDbLine
 10
12.63644006832585
 20
-7.652400484942724
 30
0.0
 11
12.63644006832585
 21
-5.009037358941384
 31
0.0
  0
TEXT
  5
D29
330
D18
100
AcDbEntity
  8
TEXT
100
AcDbText
 10
11.61344128316214
 20
-6.705407633616458
 30
0.0
 40
0.1540660821029683
  1
NONE
 72
     1
 11
11.89589576701758
 21
-6.628374592564973
 31
0.0
100
AcDbText
 73
     2
  0
TEXT
  5
D2A
330
D18
100
AcDbEntity
  8
TEXT
100
AcDbText
 10
10.59060834405133
 20
-7.094500504673955
 30
0.0
 40
0.2054214428039577
  1
8-6-08
 72
     1
 11
11.15551731176221
 21
-6.991789783271975
 31
0.0
100
AcDbText
 73
     2
  0
TEXT
  5
D2B
330
D18
100
AcDbEntity
  8
TEXT
100
AcDbText
 10
9.776973584494792
 20
-6.925619420302318
 30
0.0
 40
0.1027107214019789
  1
DATE
100
AcDbText
  0
TEXT
  5
D2C
330
D18
100
AcDbEntity
  8
TEXT
100
AcDbText
 10
10.20938572159707
 20
-6.705407633616458
 30
0.0
 40
0.1540660821029683
  1
JMH
 72
     1
 11
10.41480716440103
 21
-6.628374592564973
 31
0.0
100
AcDbText
 73
     2
  0
LINE
  5
D2D
330
D18
100
AcDbEntity
  8
BORDER
100
AcDbLine
 10
9.674262863092812
 20
-7.652400484942724
 30
0.0
 11
9.674262863092787
 21
-6.331129764827664
 31
0.0
  0
TEXT
  5
D2E
330
D18
100
AcDbEntity
  8
TEXT
100
AcDbText
 10
9.776973584494742
 20
-6.485195846930587
 30
0.0
 40
0.1027107214019789
  1
DRAWN
100
AcDbText
  0
LINE
  5
D2F
330
D18
100
AcDbEntity
  8
BORDER
100
AcDbLine
 10
11.15535146570931
 20
-6.331129764827615
 30
0.0
 11
11.15535146570931
 21
-6.771553338199353
 31
0.0
  0
TEXT
  5
D30
330
D18
100
AcDbEntity
  8
TEXT
100
AcDbText
 10
11.25806218711129
 20
-6.485195846930587
 30
0.0
 40
0.1027107214019789
  1
SCALE
100
AcDbText
  0
TEXT
  5
D31
330
D18
100
AcDbEntity
  8
TEXT
100
AcDbText
 10
10.02553353028756
 20
-7.534899419658837
 30
0.0
 40
0.2054214428039577
  1
SHEET 1 OF 1
 72
     1
 11
11.15535146570933
 21
-7.432188698256858
 31
0.0
100
AcDbText
 73
     2
  0
LINE
  5
D32
330
D18
100
AcDbEntity
  8
BORDER
100
AcDbLine
 10
9.674262863092812
 20
-6.771553338199353
 30
0.0
 11
12.63644006832585
 21
-6.771553338199353
 31
0.0
  0
LINE
  5
D33
330
D18
100
AcDbEntity
  8
BORDER
100
AcDbLine
 10
9.674262863092812
 20
-7.211976911571035
 30
0.0
 11
12.63644006832585
 21
-7.211976911571035
 31
0.0
  0
LINE
  5
D34
330
D18
100
AcDbEntity
  8
BORDER
100
AcDbLine
 10
9.674262863092787
 20
-6.331129764827664
 30
0.0
 11
12.63644006832585
 21
-6.331129764827664
 31
0.0
  0
TEXT
  5
D35
330
D18
100
AcDbEntity
  8
TEXT
100
AcDbText
 10
17.43107376353706
 20
-7.53859700562931
 30
0.0
 40
0.4108428856079155
  1
0
 72
     1
 11
17.53378448493904
 21
-7.333175562825353
 31
0.0
100
AcDbText
 73
     2
  0
LINE
  5
D36
330
D18
100
AcDbEntity
  8
BORDER
100
AcDbLine
 10
16.95394212039895
 20
-6.859884558605067
 30
0.0
 11
16.95394212039895
 21
-7.652400484942724
 31
0.0
  0
TEXT
  5
D37
330
D18
100
AcDbEntity
  8
TEXT
100
AcDbText
 10
17.05665284180093
 20
-7.013950640708038
 30
0.0
 40
0.1027107214019789
  1
REV
100
AcDbText
  0
ARC
  5
D38
330
D18
100
AcDbEntity
  8
TEXT
100
AcDbCircle
 10
15.04897637649935
 20
-5.724818270941696
 30
0.0
 40
0.1212093284629624
100
AcDbArc
 50
180.0
 51
0.0000000000004071
  0
ARC
  5
D39
330
D18
100
AcDbEntity
  8
TEXT
100
AcDbCircle
 10
15.04897637649935
 20
-5.531481017023246
 30
0.0
 40
0.1212093284629624
100
AcDbArc
 50
357.1912576066922
 51
182.8087423933078
  0
LINE
  5
D3A
330
D18
100
AcDbEntity
  8
TEXT
100
AcDbLine
 10
15.17009991828506
 20
-5.696182794445427
 30
0.0
 11
15.17009991828506
 21
-5.729377759040673
 31
0.0
  0
LINE
  5
D3B
330
D18
100
AcDbEntity
  8
TEXT
100
AcDbLine
 10
15.01417369802977
 20
-5.65757555893154
 30
0.0
 11
15.0141736980298
 21
-5.756584258128732
 31
0.0
  0
LINE
  5
D3C
330
D18
100
AcDbEntity
  8
TEXT
100
AcDbLine
 10
15.08369326829168
 20
-5.696182794445427
 30
0.0
 11
15.08369326829168
 21
-5.759026358236361
 31
0.0
  0
LINE
  5
D3D
330
D18
100
AcDbEntity
  8
TEXT
100
AcDbLine
 10
15.01417369802976
 20
-5.601149762838744
 30
0.0
 11
15.08369326829165
 21
-5.601149762838744
 31
0.0
  0
LINE
  5
D3E
330
D18
100
AcDbEntity
  8
TEXT
100
AcDbLine
 10
15.08369326829168
 20
-5.696182794445427
 30
0.0
 11
15.17009991828506
 21
-5.696182794445427
 31
0.0
  0
LINE
  5
D3F
330
D18
100
AcDbEntity
  8
TEXT
100
AcDbLine
 10
15.01417369802977
 20
-5.65757555893154
 30
0.0
 11
15.17009991828506
 21
-5.65757555893154
 31
0.0
  0
ARC
  5
D40
330
D18
100
AcDbEntity
  8
TEXT
100
AcDbCircle
 10
15.04897637649935
 20
-5.756584258128732
 30
0.0
 40
0.0348026784695635
100
AcDbArc
 50
179.9999999999984
 51
4.023745172363637
  0
ARC
  5
D41
330
D18
100
AcDbEntity
  8
TEXT
100
AcDbCircle
 10
15.04897637649935
 20
-5.50114064190739
 30
0.0
 40
0.0348026784695635
100
AcDbArc
 50
355.9762548274009
 51
180.0
  0
LINE
  5
D42
330
D18
100
AcDbEntity
  8
TEXT
100
AcDbLine
 10
14.35121287948437
 20
-5.818415077184042
 30
0.0
 11
14.35121287948437
 21
-5.846027599404663
 31
0.0
  0
LINE
  5
D43
330
D18
100
AcDbEntity
  8
TEXT
100
AcDbLine
 10
14.29244688622804
 20
-5.416211208753189
 30
0.0
 11
14.29244688622804
 21
-5.762104682989424
 31
0.0
  0
LINE
  5
D44
330
D18
100
AcDbEntity
  8
TEXT
100
AcDbLine
 10
14.20728385192269
 20
-5.416211208753189
 30
0.0
 11
14.29244688622804
 21
-5.416211208753189
 31
0.0
  0
LINE
  5
D45
330
D18
100
AcDbEntity
  8
TEXT
100
AcDbLine
 10
14.35121287948437
 20
-5.846027599404663
 30
0.0
 11
14.43761952947776
 21
-5.846027599404663
 31
0.0
  0
LINE
  5
D46
330
D18
100
AcDbEntity
  8
TEXT
100
AcDbLine
 10
14.20728385192269
 20
-5.416211208753189
 30
0.0
 11
14.20728385192268
 21
-5.786911457041561
 31
0.0
  0
LINE
  5
D47
330
D18
100
AcDbEntity
  8
TEXT
100
AcDbLine
 10
14.29244688622804
 20
-5.495620217046699
 30
0.0
 11
14.29244688622804
 21
-5.762104682989424
 31
0.0
  0
LINE
  5
D48
330
D18
100
AcDbEntity
  8
TEXT
100
AcDbLine
 10
14.35121287948436
 20
-5.416211208753189
 30
0.0
 11
14.35121287948436
 21
-5.762104682989424
 31
0.0
  0
LINE
  5
D49
330
D18
100
AcDbEntity
  8
TEXT
100
AcDbLine
 10
14.43761952947776
 20
-5.416211208753189
 30
0.0
 11
14.43761952947776
 21
-5.846027599404663
 31
0.0
  0
LINE
  5
D4A
330
D18
100
AcDbEntity
  8
TEXT
100
AcDbLine
 10
14.27852581484023
 20
-5.846027599404671
 30
0.0
 11
14.29428689318235
 21
-5.846027599404671
 31
0.0
  0
LINE
  5
D4B
330
D18
100
AcDbEntity
  8
TEXT
100
AcDbLine
 10
14.35121287948436
 20
-5.416211208753189
 30
0.0
 11
14.43761952947776
 21
-5.416211208753189
 31
0.0
  0
ARC
  5
D4C
330
D18
100
AcDbEntity
  8
TEXT
100
AcDbCircle
 10
14.32172913983691
 20
-5.762104682989424
 30
0.0
 40
0.0292822536088741
100
AcDbArc
 50
180.0000000000016
 51
359.9999999999984
  0
ARC
  5
D4D
330
D18
100
AcDbEntity
  8
TEXT
100
AcDbCircle
 10
14.27852581484023
 20
-5.773542020799091
 30
0.0
 40
0.0724855786055736
100
AcDbArc
 50
180.0
 51
270.0
  0
ARC
  5
D4E
330
D18
100
AcDbEntity
  8
TEXT
100
AcDbCircle
 10
14.29428689318235
 20
-5.773542020799091
 30
0.0
 40
0.0724855786055736
100
AcDbArc
 50
270.0
 51
321.7523418942986
  0
LINE
  5
D4F
330
D18
100
AcDbEntity
  8
TEXT
100
AcDbLine
 10
14.80034771258437
 20
-5.772953251394973
 30
0.0
 11
14.80034771258437
 21
-5.484182879237025
 31
0.0
  0
LINE
  5
D50
330
D18
100
AcDbEntity
  8
TEXT
100
AcDbLine
 10
14.71394106259098
 20
-5.762104682989424
 30
0.0
 11
14.71394106259096
 21
-5.495620217046699
 31
0.0
  0
LINE
  5
D51
330
D18
100
AcDbEntity
  8
TEXT
100
AcDbLine
 10
14.65517506933463
 20
-5.762104682989424
 30
0.0
 11
14.65517506933463
 21
-5.495620217046699
 31
0.0
  0
LINE
  5
D52
330
D18
100
AcDbEntity
  8
TEXT
100
AcDbLine
 10
14.56876841934124
 20
-5.841513691282933
 30
0.0
 11
14.56876841934124
 21
-5.229967548918487
 31
0.0
  0
LINE
  5
D53
330
D18
100
AcDbEntity
  8
TEXT
100
AcDbLine
 10
14.64442149232907
 20
-5.841513691282933
 30
0.0
 11
14.64442149232907
 21
-5.802960249589524
 31
0.0
  0
LINE
  5
D54
330
D18
100
AcDbEntity
  8
TEXT
100
AcDbLine
 10
14.72786213397878
 20
-5.411697300631452
 30
0.0
 11
14.71210105563664
 21
-5.411697300631452
 31
0.0
  0
LINE
  5
D55
330
D18
100
AcDbEntity
  8
TEXT
100
AcDbLine
 10
14.64442149232907
 20
-5.841513691282933
 30
0.0
 11
14.56876841934124
 21
-5.841513691282933
 31
0.0
  0
ARC
  5
D56
330
D18
100
AcDbEntity
  8
TEXT
100
AcDbCircle
 10
14.68465880898209
 20
-5.762104682989424
 30
0.0
 40
0.0292822536088741
100
AcDbArc
 50
180.0
 51
0.0
  0
ARC
  5
D57
330
D18
100
AcDbEntity
  8
TEXT
100
AcDbCircle
 10
14.68465880898209
 20
-5.495620217046699
 30
0.0
 40
0.0292822536088741
100
AcDbArc
 50
0.0000000000016284
 51
179.9999999999984
  0
ARC
  5
D58
330
D18
100
AcDbEntity
  8
TEXT
100
AcDbCircle
 10
14.7223417091181
 20
-5.772953251394973
 30
0.0
 40
0.078006003466263
100
AcDbArc
 50
202.6235962336633
 51
0.0
  0
LINE
  5
D59
330
D18
100
AcDbEntity
  8
TEXT
100
AcDbLine
 10
14.65517506933463
 20
-5.439309822852067
 30
0.0
 11
14.65517506933463
 21
-5.229967548918487
 31
0.0
  0
LINE
  5
D5A
330
D18
100
AcDbEntity
  8
TEXT
100
AcDbLine
 10
14.65033812145657
 20
-5.802960249589524
 30
0.0
 11
14.64442149232907
 21
-5.802960249589524
 31
0.0
  0
ARC
  5
D5B
330
D18
100
AcDbEntity
  8
TEXT
100
AcDbCircle
 10
14.72786213397878
 20
-5.484182879237025
 30
0.0
 40
0.0724855786055736
100
AcDbArc
 50
0.0
 51
90.0
  0
ARC
  5
D5C
330
D18
100
AcDbEntity
  8
TEXT
100
AcDbCircle
 10
14.71210105563664
 20
-5.484182879237025
 30
0.0
 40
0.0724855786055736
100
AcDbArc
 50
90.0
 51
141.7523418942986
  0
LINE
  5
D5D
330
D18
100
AcDbEntity
  8
TEXT
100
AcDbLine
 10
13.38233163711556
 20
-5.662084872490915
 30
0.0
 11
13.38233163711556
 21
-5.723138141636269
 31
0.0
  0
LINE
  5
D5E
330
D18
100
AcDbEntity
  8
TEXT
100
AcDbLine
 10
13.29592498712215
 20
-5.662084872490915
 30
0.0
 11
13.29592498712215
 21
-5.723138141636269
 31
0.0
  0
LINE
  5
D5F
330
D18
100
AcDbEntity
  8
TEXT
100
AcDbLine
 10
13.38233163711556
 20
-5.662084872490915
 30
0.0
 11
13.29592498712215
 21
-5.662084872490915
 31
0.0
  0
LINE
  5
D60
330
D18
100
AcDbEntity
  8
TEXT
100
AcDbLine
 10
13.38233163711556
 20
-5.403168160316376
 30
0.0
 11
13.29592498712214
 21
-5.403168160316376
 31
0.0
  0
ARC
  5
D61
330
D18
100
AcDbEntity
  8
TEXT
100
AcDbCircle
 10
13.9299114759843
 20
-5.773542020799091
 30
0.0
 40
0.0724855786055736
100
AcDbArc
 50
270.0
 51
321.7523418942986
  0
ARC
  5
D62
330
D18
100
AcDbEntity
  8
TEXT
100
AcDbCircle
 10
13.91415039764219
 20
-5.773542020799091
 30
0.0
 40
0.0724855786055736
100
AcDbArc
 50
180.0
 51
270.0
  0
LINE
  5
D63
330
D18
100
AcDbEntity
  8
TEXT
100
AcDbLine
 10
13.99167441016439
 20
-5.454764650446591
 30
0.0
 11
13.99759103929189
 21
-5.454764650446591
 31
0.0
  0
LINE
  5
D64
330
D18
100
AcDbEntity
  8
TEXT
100
AcDbLine
 10
13.98683746228633
 20
-5.818415077184049
 30
0.0
 11
13.98683746228633
 21
-5.988497241260454
 31
0.0
  0
ARC
  5
D65
330
D18
100
AcDbEntity
  8
TEXT
100
AcDbCircle
 10
13.91967082250286
 20
-5.484771648641149
 30
0.0
 40
0.078006003466263
100
AcDbArc
 50
22.62359623366325
 51
180.0
  0
LINE
  5
D66
330
D18
100
AcDbEntity
  8
TEXT
100
AcDbLine
 10
14.56876841934124
 20
-5.229967548918487
 30
0.0
 11
14.65517506933463
 21
-5.229967548918487
 31
0.0
  0
ARC
  5
D67
330
D18
100
AcDbEntity
  8
TEXT
100
AcDbCircle
 10
13.95735372263889
 20
-5.762104682989424
 30
0.0
 40
0.0292822536088741
100
AcDbArc
 50
180.0000000000016
 51
359.9999999999984
  0
ARC
  5
D68
330
D18
100
AcDbEntity
  8
TEXT
100
AcDbCircle
 10
13.95735372263889
 20
-5.495620217046699
 30
0.0
 40
0.0292822536088741
100
AcDbArc
 50
0.0
 51
180.0
  0
LINE
  5
D69
330
D18
100
AcDbEntity
  8
TEXT
100
AcDbLine
 10
13.98683746228633
 20
-5.988497241260454
 30
0.0
 11
14.07324411227975
 21
-5.988497241260454
 31
0.0
  0
LINE
  5
D6A
330
D18
100
AcDbEntity
  8
TEXT
100
AcDbLine
 10
13.99759103929189
 20
-5.416211208753189
 30
0.0
 11
14.07324411227975
 21
-5.416211208753189
 31
0.0
  0
LINE
  5
D6B
330
D18
100
AcDbEntity
  8
TEXT
100
AcDbLine
 10
13.73144162421844
 20
-5.303384105049616
 30
0.0
 11
13.73144162421844
 21
-5.229967548918487
 31
0.0
  0
LINE
  5
D6C
330
D18
100
AcDbEntity
  8
TEXT
100
AcDbLine
 10
13.58664830756992
 20
-5.563960548751737
 30
0.0
 11
13.58664830756992
 21
-5.772581946910271
 31
0.0
  0
LINE
  5
D6D
330
D18
100
AcDbEntity
  8
TEXT
100
AcDbLine
 10
13.72088081144146
 20
-5.563960548751737
 30
0.0
 11
13.72088081144146
 21
-5.490543992620608
 31
0.0
  0
LINE
  5
D6E
330
D18
100
AcDbEntity
  8
TEXT
100
AcDbLine
 10
13.73144162421844
 20
-5.846027599404663
 30
0.0
 11
13.73144162421844
 21
-5.772581946910271
 31
0.0
  0
LINE
  5
D6F
330
D18
100
AcDbEntity
  8
TEXT
100
AcDbLine
 10
13.58664830756992
 20
-5.563960548751737
 30
0.0
 11
13.72088081144146
 21
-5.563960548751737
 31
0.0
  0
LINE
  5
D70
330
D18
100
AcDbEntity
  8
TEXT
100
AcDbLine
 10
13.58664830756994
 20
-5.490543992620608
 30
0.0
 11
13.72088081144146
 21
-5.490543992620608
 31
0.0
  0
ARC
  5
D71
330
D18
100
AcDbEntity
  8
TEXT
100
AcDbCircle
 10
13.24627850118477
 20
-5.723138141636269
 30
0.0
 40
0.1358504552673995
100
AcDbArc
 50
180.0
 51
0.0
  0
ARC
  5
D72
330
D18
100
AcDbEntity
  8
TEXT
100
AcDbCircle
 10
13.24627850118477
 20
-5.352827910323611
 30
0.0
 40
0.1358504552673995
100
AcDbArc
 50
0.0
 51
180.0
  0
LINE
  5
D73
330
D18
100
AcDbEntity
  8
TEXT
100
AcDbLine
 10
13.91415039764219
 20
-5.846027599404671
 30
0.0
 11
13.9299114759843
 21
-5.846027599404671
 31
0.0
  0
LINE
  5
D74
330
D18
100
AcDbEntity
  8
TEXT
100
AcDbLine
 10
13.50024165757651
 20
-5.229967548918487
 30
0.0
 11
13.73144162421844
 21
-5.229967548918487
 31
0.0
  0
LINE
  5
D75
330
D18
100
AcDbEntity
  8
TEXT
100
AcDbLine
 10
13.58664830756992
 20
-5.303384105049616
 30
0.0
 11
13.73144162421844
 21
-5.303384105049616
 31
0.0
  0
LINE
  5
D76
330
D18
100
AcDbEntity
  8
TEXT
100
AcDbLine
 10
13.58664830756992
 20
-5.772581946910271
 30
0.0
 11
13.73144162421844
 21
-5.772581946910271
 31
0.0
  0
LINE
  5
D77
330
D18
100
AcDbEntity
  8
TEXT
100
AcDbLine
 10
13.50024165757651
 20
-5.846027599404663
 30
0.0
 11
13.73144162421844
 21
-5.846027599404663
 31
0.0
  0
ARC
  5
D78
330
D18
100
AcDbEntity
  8
TEXT
100
AcDbCircle
 10
13.24627850118477
 20
-5.723138141636269
 30
0.0
 40
0.0494438052740005
100
AcDbArc
 50
180.0
 51
0.0
  0
ARC
  5
D79
330
D18
100
AcDbEntity
  8
TEXT
100
AcDbCircle
 10
13.24627850118477
 20
-5.352827910323611
 30
0.0
 40
0.0494438052740005
100
AcDbArc
 50
0.0
 51
180.0
  0
LINE
  5
D7A
330
D18
100
AcDbEntity
  8
TEXT
100
AcDbLine
 10
15.17009991828506
 20
-5.526921528924198
 30
0.0
 11
15.17009991828506
 21
-5.65757555893154
 31
0.0
  0
LINE
  5
D7B
330
D18
100
AcDbEntity
  8
TEXT
100
AcDbLine
 10
15.08369326829165
 20
-5.498698541799619
 30
0.0
 11
15.08369326829165
 21
-5.601149762838744
 31
0.0
  0
LINE
  5
D7C
330
D18
100
AcDbEntity
  8
TEXT
100
AcDbLine
 10
15.01417369802977
 20
-5.50114064190739
 30
0.0
 11
15.01417369802976
 21
-5.601149762838744
 31
0.0
  0
LINE
  5
D7D
330
D18
100
AcDbEntity
  8
TEXT
100
AcDbLine
 10
14.92776704803641
 20
-5.531481017023246
 30
0.0
 11
14.9277670480364
 21
-5.724818270941696
 31
0.0
  0
LINE
  5
D7E
330
D18
100
AcDbEntity
  8
TEXT
100
AcDbLine
 10
13.99759103929189
 20
-5.416211208753189
 30
0.0
 11
13.99759103929191
 21
-5.454764650446591
 31
0.0
  0
LINE
  5
D7F
330
D18
100
AcDbEntity
  8
TEXT
100
AcDbLine
 10
14.07324411227975
 20
-5.416211208753189
 30
0.0
 11
14.07324411227975
 21
-5.988497241260454
 31
0.0
  0
LINE
  5
D80
330
D18
100
AcDbEntity
  8
TEXT
100
AcDbLine
 10
13.98683746228633
 20
-5.495620217046699
 30
0.0
 11
13.98683746228633
 21
-5.762104682989424
 31
0.0
  0
LINE
  5
D81
330
D18
100
AcDbEntity
  8
TEXT
100
AcDbLine
 10
13.92807146903
 20
-5.495620217046699
 30
0.0
 11
13.92807146903
 21
-5.762104682989424
 31
0.0
  0
LINE
  5
D82
330
D18
100
AcDbEntity
  8
TEXT
100
AcDbLine
 10
13.8416648190366
 20
-5.484771648641149
 30
0.0
 11
13.8416648190366
 21
-5.773542020799091
 31
0.0
  0
LINE
  5
D83
330
D18
100
AcDbEntity
  8
TEXT
100
AcDbLine
 10
13.58664830756992
 20
-5.303384105049616
 30
0.0
 11
13.58664830756994
 21
-5.490543992620608
 31
0.0
  0
LINE
  5
D84
330
D18
100
AcDbEntity
  8
TEXT
100
AcDbLine
 10
13.50024165757651
 20
-5.229967548918487
 30
0.0
 11
13.50024165757651
 21
-5.846027599404663
 31
0.0
  0
LINE
  5
D85
330
D18
100
AcDbEntity
  8
TEXT
100
AcDbLine
 10
13.29592498712214
 20
-5.352827910323611
 30
0.0
 11
13.29592498712214
 21
-5.403168160316376
 31
0.0
  0
LINE
  5
D86
330
D18
100
AcDbEntity
  8
TEXT
100
AcDbLine
 10
13.38233163711556
 20
-5.352827910323611
 30
0.0
 11
13.38233163711556
 21
-5.403168160316376
 31
0.0
  0
LINE
  5
D87
330
D18
100
AcDbEntity
  8
TEXT
100
AcDbLine
 10
13.19683469591076
 20
-5.352827910323611
 30
0.0
 11
13.19683469591076
 21
-5.723138141636269
 31
0.0
  0
LINE
  5
D88
330
D18
100
AcDbEntity
  8
TEXT
100
AcDbLine
 10
13.11042804591737
 20
-5.352827910323611
 30
0.0
 11
13.11042804591737
 21
-5.723138141636269
 31
0.0
  0
LINE
  5
D89
330
D18
100
AcDbEntity
  8
TEXT
100
AcDbLine
 10
12.97907573103615
 20
-5.229967548918487
 30
0.0
 11
12.97907573103615
 21
-5.846027599404663
 31
0.0
  0
LINE
  5
D8A
330
D18
100
AcDbEntity
  8
TEXT
100
AcDbLine
 10
12.89266908104276
 20
-5.229967548918487
 30
0.0
 11
12.89266908104276
 21
-5.846027599404663
 31
0.0
  0
LINE
  5
D8B
330
D18
100
AcDbEntity
  8
TEXT
100
AcDbLine
 10
12.89266908104276
 20
-5.846027599404663
 30
0.0
 11
12.97907573103615
 21
-5.846027599404663
 31
0.0
  0
LINE
  5
D8C
330
D18
100
AcDbEntity
  8
TEXT
100
AcDbLine
 10
12.89266908104276
 20
-5.229967548918487
 30
0.0
 11
12.97907573103615
 21
-5.229967548918487
 31
0.0
  0
TEXT
  5
D8D
330
D18
100
AcDbEntity
  8
TEXT
100
AcDbText
 10
15.99466260116148
 20
-5.974655880582882
 30
0.0
 40
0.0770330410514842
  1
FAX  724-837-3386
 72
     1
 11
16.63660460992385
 21
-5.93613936005714
 31
0.0
100
AcDbText
 73
     2
  0
TEXT
  5
D8E
330
D18
100
AcDbEntity
  8
TEXT
100
AcDbText
 10
16.00750144133673
 20
-5.358391552171009
 30
0.0
 40
0.0770330410514842
  1
141 WILSON AVENUE
 72
     1
 11
16.63660460992385
 21
-5.319875031645267
 31
0.0
100
AcDbText
 73
     2
  0
TEXT
  5
D8F
330
D18
100
AcDbEntity
  8
TEXT
100
AcDbText
 10
15.8919518797595
 20
-5.563812994974969
 30
0.0
 40
0.0770330410514842
  1
GREENSBURG, PA  15601
 72
     1
 11
16.63660460992385
 21
-5.525296474449227
 31
0.0
100
AcDbText
 73
     2
  0
TEXT
  5
D90
330
D18
100
AcDbEntity
  8
TEXT
100
AcDbText
 10
15.62233623607931
 20
-5.163241181507262
 30
0.0
 40
0.0770330410514842
  1
INDUSTRIAL COOLING EQUIPMENT
 72
     1
 11
16.63660460992385
 21
-5.12472466098152
 31
0.0
100
AcDbText
 73
     2
  0
TEXT
  5
D91
330
D18
100
AcDbEntity
  8
TEXT
100
AcDbText
 10
15.47468957406396
 20
-5.769234437778922
 30
0.0
 40
0.0770330410514842
  1
724-837-2204  *  1-888-867-8234
 72
     1
 11
16.63660460992385
 21
-5.73071791725318
 31
0.0
100
AcDbText
 73
     2
  0
LINE
  5
D92
330
D18
100
AcDbEntity
  8
BORDER
100
AcDbLine
 10
-2.432388855202367
 20
-6.666279299926387
 30
0.0
 11
-13.11241212990726
 21
-6.666279299926387
 31
0.0
  0
TEXT
  5
D93
330
D18
100
AcDbEntity
  8
TEXT
100
AcDbText
 10
-12.79397716391241
 20
-6.9128095961805
 30
0.0
 40
0.16435353083605
  1
0
 72
     1
 11
-12.7528887812034
 21
-6.830632830762475
 31
0.0
100
AcDbText
 73
     2
  0
LINE
  5
D94
330
D18
100
AcDbEntity
  8
BORDER
100
AcDbLine
 10
-12.39336543249954
 20
-6.994986361598513
 30
0.0
 11
-12.39336543249954
 21
-6.666279299926387
 31
0.0
  0
TEXT
  5
D95
330
D18
100
AcDbEntity
  8
TEXT
100
AcDbText
 10
-10.0794046796036
 20
-6.9128095961805
 30
0.0
 40
0.16435353083605
  1
INITIAL RELEASE
 72
     1
 11
-8.956322218890594
 21
-6.830632830762475
 31
0.0
100
AcDbText
 73
     2
  0
TEXT
  5
D96
330
D18
100
AcDbEntity
  8
TEXT
100
AcDbText
 10
-3.47181643567817
 20
-6.9128095961805
 30
0.0
 40
0.16435353083605
  1
JMH
 72
     1
 11
-3.252678394563437
 21
-6.830632830762475
 31
0.0
100
AcDbText
 73
     2
  0
LINE
  5
D97
330
D18
100
AcDbEntity
  8
BORDER
100
AcDbLine
 10
-4.072967933924507
 20
-6.994986361598513
 30
0.0
 11
-4.072967933924507
 21
-6.666279299926387
 31
0.0
  0
TEXT
  5
D98
330
D18
100
AcDbEntity
  8
TEXT
100
AcDbText
 10
-5.248095679402263
 20
-6.9128095961805
 30
0.0
 40
0.16435353083605
  1
8-7-08
 72
     1
 11
-4.796123469603125
 21
-6.830632830762475
 31
0.0
100
AcDbText
 73
     2
  0
LINE
  5
D99
330
D18
100
AcDbEntity
  8
BORDER
100
AcDbLine
 10
-5.519279005281742
 20
-6.994986361598513
 30
0.0
 11
-5.519279005281742
 21
-6.666279299926387
 31
0.0
  0
LINE
  5
D9A
330
D18
100
AcDbEntity
  8
BORDER
100
AcDbLine
 10
-2.432388855202367
 20
-7.32369342327064
 30
0.0
 11
-13.11241212990726
 21
-7.32369342327064
 31
0.0
  0
LINE
  5
D9B
330
D18
100
AcDbEntity
  8
BORDER
100
AcDbLine
 10
-2.432388855202367
 20
-6.994986361598513
 30
0.0
 11
-13.11241212990726
 21
-6.994986361598513
 31
0.0
  0
TEXT
  5
D9C
330
D18
100
AcDbEntity
  8
TEXT
100
AcDbText
 10
-12.99941907745747
 20
-7.241516657852627
 30
0.0
 40
0.16435353083605
  1
REV
 72
     1
 11
-12.7528887812034
 21
-7.159339892434601
 31
0.0
100
AcDbText
 73
     2
  0
LINE
  5
D9D
330
D18
100
AcDbEntity
  8
BORDER
100
AcDbLine
 10
-13.11241212990726
 20
-7.652400484942724
 30
0.0
 11
-13.11241212990726
 21
-5.680158114909978
 31
0.0
  0
LINE
  5
D9E
330
D18
100
AcDbEntity
  8
BORDER
100
AcDbLine
 10
-12.39336543249954
 20
-7.32369342327064
 30
0.0
 11
-12.39336543249954
 21
-6.994986361598513
 31
0.0
  0
TEXT
  5
D9F
330
D18
100
AcDbEntity
  8
TEXT
100
AcDbText
 10
-9.778089873070845
 20
-7.241516657852627
 30
0.0
 40
0.16435353083605
  1
DESCRIPTION
 72
     1
 11
-8.956322218890594
 21
-7.159339892434601
 31
0.0
100
AcDbText
 73
     2
  0
TEXT
  5
DA0
330
D18
100
AcDbEntity
  8
TEXT
100
AcDbText
 10
-3.80052349735027
 20
-7.241516657852627
 30
0.0
 40
0.16435353083605
  1
CHECKED
 72
     1
 11
-3.252678394563437
 21
-7.159339892434601
 31
0.0
100
AcDbText
 73
     2
  0
LINE
  5
DA1
330
D18
100
AcDbEntity
  8
BORDER
100
AcDbLine
 10
-4.072967933924507
 20
-7.32369342327064
 30
0.0
 11
-4.072967933924507
 21
-6.994986361598513
 31
0.0
  0
TEXT
  5
DA2
330
D18
100
AcDbEntity
  8
TEXT
100
AcDbText
 10
-5.097438276135884
 20
-7.241516657852627
 30
0.0
 40
0.16435353083605
  1
DATE
 72
     1
 11
-4.796123469603125
 21
-7.159339892434601
 31
0.0
100
AcDbText
 73
     2
  0
LINE
  5
DA3
330
D18
100
AcDbEntity
  8
BORDER
100
AcDbLine
 10
-5.519279005281742
 20
-7.32369342327064
 30
0.0
 11
-5.519279005281742
 21
-6.994986361598513
 31
0.0
  0
LINE
  5
DA4
330
D18
100
AcDbEntity
  8
BORDER
100
AcDbLine
 10
-13.11241212990726
 20
-7.32369342327064
 30
0.0
 11
-2.432388855202367
 21
-7.32369342327064
 31
0.0
  0
LINE
  5
DA5
330
D18
100
AcDbEntity
  8
BORDER
100
AcDbLine
 10
-2.432388855202367
 20
-6.666279299926387
 30
0.0
 11
-2.432388855202367
 21
-7.652400484942724
 31
0.0
  0
LINE
  5
DA6
330
D18
100
AcDbEntity
  8
BORDER
100
AcDbLine
 10
-2.432388855202367
 20
-7.652400484942724
 30
0.0
 11
-13.11241212990726
 21
-7.652400484942724
 31
0.0
  0
TEXT
  5
DA7
330
D18
100
AcDbEntity
  8
TEXT
100
AcDbText
 10
-9.641128597374136
 20
-7.570223719524753
 30
0.0
 40
0.16435353083605
  1
REVISIONS
 72
     1
 11
-8.956322218890594
 21
-7.488046954106728
 31
0.0
100
AcDbText
 73
     2
  0
DIMENSION
  5
DA8
330
D18
100
AcDbEntity
  8
0
100
AcDbDimension
  2
*D7
 10
-3.934737414744601
 20
18.91640546799221
 30
0.0
 11
-0.9722374147446011
 21
18.91640546799221
 31
0.0
 12
-8.418566666666665
 22
-0.3000000000000025
 32
0.0
 70
    32
 71
     5
 42
5.925
  3
Standard
100
AcDbAlignedDimension
 13
1.990262585255399
 23
18.3498316717467
 33
0.0
 14
-3.934737414744601
 24
18.3498316717467
 34
0.0
100
AcDbRotatedDimension
  0
DIMENSION
  5
DA9
330
D18
100
AcDbEntity
  8
0
100
AcDbDimension
  2
*D8
 10
3.10306394920795
 20
12.4498316717467
 30
0.0
 11
3.103063949207948
 21
15.39983167174671
 31
0.0
 12
-8.418566666666665
 22
-0.3000000000000025
 32
0.0
 70
    32
 71
     5
 42
5.899999999999996
  3
Standard
100
AcDbAlignedDimension
 13
1.990262585255399
 23
18.3498316717467
 33
0.0
 14
1.990262585255399
 24
12.4498316717467
 34
0.0
 50
90.0
100
AcDbRotatedDimension
  0
TEXT
  5
DAA
330
D18
100
AcDbEntity
  8
DIMENSION
100
AcDbText
 10
-1.930770748077934
 20
20.30031753339329
 30
0.0
 40
0.4108
  1
FRONT
 72
     1
 11
-0.9722374147446011
 21
20.50571753339329
 31
0.0
100
AcDbText
 73
     2
  0
TEXT
  5
DAB
330
D18
100
AcDbEntity
  8
DIMENSION
100
AcDbText
 10
7.480560915885742
 20
20.30031753339329
 30
0.0
 40
0.4108
  1
RIGHT SIDE
 72
     1
 11
9.329160915885742
 21
20.50571753339329
 31
0.0
100
AcDbText
 73
     2
  0
DIMENSION
  5
DAC
330
D18
100
AcDbEntity
  8
0
100
AcDbDimension
  2
*D9
 10
8.504160915885728
 20
19.26303208905472
 30
0.0
 11
6.342164852885726
 21
19.26303208905472
 31
0.0
 12
-8.418566666666665
 22
-0.3000000000000025
 32
0.0
 70
   160
 71
     5
 42
0.5314960630000023
  3
Standard
100
AcDbAlignedDimension
 13
7.972664852885726
 23
18.05983167174671
 33
0.0
 14
8.504160915885728
 24
18.3498316717467
 34
0.0
100
AcDbRotatedDimension
  0
TEXT
  5
DAD
330
D18
100
AcDbEntity
  8
DIMENSION
100
AcDbText
 10
-1.519970748077936
 20
26.53659269902996
 30
0.0
 40
0.4108
  1
TOP
 72
     1
 11
-0.9722374147446029
 21
26.74199269902996
 31
0.0
100
AcDbText
 73
     2
  0
DIMENSION
  5
DAE
330
D18
100
AcDbEntity
  8
0
100
AcDbDimension
  2
*D6
 10
10.86416091588574
 20
11.11272746461842
 30
0.0
 11
9.684160915885739
 21
11.11272746461842
 31
0.0
 12
-5.42210503334695
 22
-0.8311179398344492
 32
0.0
 70
   128
 71
     5
 42
2.360000000000002
  3
Standard
100
AcDbAlignedDimension
 13
8.504160915885735
 23
12.4498316717467
 33
0.0
 14
10.86416091588574
 24
13.82657159058173
 34
0.0
100
AcDbRotatedDimension
  0
TEXT
  5
DAF
330
D18
100
AcDbEntity
  8
DIMENSION
100
AcDbText
 10
10.14630963164455
 20
8.443896973374291
 30
0.0
 40
0.4108
  1
IQP100FP
 72
     1
 11
11.51564296497789
 21
8.649296973374291
 31
0.0
100
AcDbText
 73
     2
  0
TEXT
  5
DB0
330
D18
100
AcDbEntity
  8
DIMENSION
100
AcDbText
 10
9.667042964977888
 20
7.760025390074507
 30
0.0
 40
0.4108
  1
REAR VIEW
 72
     1
 11
11.51564296497789
 21
7.965425390074507
 31
0.0
100
AcDbText
 73
     2
  0
TEXT
  5
DB1
330
D18
100
AcDbEntity
  8
DIMENSION
100
AcDbText
 10
-6.8254
 20
11.19331390459887
 30
0.0
 40
0.4108
  1
IQP100FP
 72
     1
 11
-5.456066666666666
 21
11.39871390459887
 31
0.0
100
AcDbText
 73
     2
  0
TEXT
  5
DB2
330
D18
100
AcDbEntity
  8
DIMENSION
100
AcDbText
 10
-8.263199999999999
 20
10.53521459749911
 30
0.0
 40
0.4108
  1
CUTOUT DRAWING
 72
     1
 11
-5.456066666666666
 21
10.74061459749911
 31
0.0
100
AcDbText
 73
     2
  0
ENDBLK
  5
DB4
330
D18
100
AcDbEntity
  8
0
100
AcDbBlockEnd
  0
BLOCK
  5
E5B
330
E50
100
AcDbEntity
  8
0
100
AcDbBlockBegin
  2
*D11
 70
     1
 10
0.0
 20
0.0
 30
0.0
  3
*D11
  1

  0
LINE
  5
10F6
330
E50
100
AcDbEntity
  8
0
 62
     0
370
    -2
100
AcDbLine
 10
39.41442608863832
 20
41.01528213600988
 30
0.0
 11
39.41442608863832
 21
41.5118559322554
 31
0.0
  0
LINE
  5
10F7
330
E50
100
AcDbEntity
  8
0
 62
     0
370
    -2
100
AcDbLine
 10
33.57442608863832
 20
41.01528213600988
 30
0.0
 11
33.57442608863832
 21
41.5118559322554
 31
0.0
  0
LINE
  5
10F8
330
E50
100
AcDbEntity
  8
0
 62
     0
370
    -2
100
AcDbLine
 10
39.00442608863833
 20
41.33185593225539
 30
0.0
 11
37.37025942197166
 21
41.33185593225539
 31
0.0
  0
LINE
  5
10F9
330
E50
100
AcDbEntity
  8
0
 62
     0
370
    -2
100
AcDbLine
 10
33.98442608863831
 20
41.33185593225539
 30
0.0
 11
35.61859275530499
 21
41.33185593225539
 31
0.0
  0
SOLID
  5
10FA
330
E50
100
AcDbEntity
  8
0
 62
     0
100
AcDbTrace
 10
39.00442608863833
 20
41.40018926558873
 30
0.0
 11
39.00442608863833
 21
41.26352259892207
 31
0.0
 12
39.41442608863832
 22
41.33185593225539
 32
0.0
 13
39.41442608863832
 23
41.33185593225539
 33
0.0
  0
SOLID
  5
10FB
330
E50
100
AcDbEntity
  8
0
 62
     0
100
AcDbTrace
 10
33.98442608863831
 20
41.40018926558873
 30
0.0
 11
33.98442608863831
 21
41.26352259892207
 31
0.0
 12
33.57442608863832
 22
41.33185593225539
 32
0.0
 13
33.57442608863832
 23
41.33185593225539
 33
0.0
  0
MTEXT
  5
10FC
330
E50
100
AcDbEntity
  8
0
 62
     0
100
AcDbMText
 10
36.49442608863832
 20
41.33185593225539
 30
0.0
 40
0.41
 41
0.0
 71
     5
 72
     1
  1
\A1;5.840
 73
     1
 44
1.0
1001
ACAD
1000
MTEXTBEGIN
1070
    73
1070
     1
1070
    44
1040
1.0
1070
    74
1070
     0
1000
MTEXTEND
  0
POINT
  5
10FD
330
E50
100
AcDbEntity
  8
Defpoints
 62
     0
100
AcDbPoint
 10
39.41442608863832
 20
40.76528213600989
 30
0.0
  0
POINT
  5
10FE
330
E50
100
AcDbEntity
  8
Defpoints
 62
     0
100
AcDbPoint
 10
33.57442608863832
 20
40.76528213600989
 30
0.0
  0
POINT
  5
10FF
330
E50
100
AcDbEntity
  8
Defpoints
 62
     0
100
AcDbPoint
 10
33.57442608863832
 20
41.33185593225539
 30
0.0
  0
ENDBLK
  5
E5C
330
E50
100
AcDbEntity
  8
0
100
AcDbBlockEnd
  0
BLOCK
  5
E68
330
E5D
100
AcDbEntity
  8
0
100
AcDbBlockBegin
  2
*D12
 70
     1
 10
0.0
 20
0.0
 30
0.0
  3
*D12
  1

  0
LINE
  5
1101
330
E5D
100
AcDbEntity
  8
0
 62
     0
370
    -2
100
AcDbLine
 10
39.66442608863832
 20
40.76528213600989
 30
0.0
 11
40.79222745259087
 21
40.76528213600989
 31
0.0
  0
LINE
  5
1102
330
E5D
100
AcDbEntity
  8
0
 62
     0
370
    -2
100
AcDbLine
 10
39.66442608863832
 20
34.89028213600989
 30
0.0
 11
40.79222745259087
 21
34.89028213600989
 31
0.0
  0
LINE
  5
1103
330
E5D
100
AcDbEntity
  8
0
 62
     0
370
    -2
100
AcDbLine
 10
40.61222745259087
 20
40.35528213600989
 30
0.0
 11
40.61222745259087
 21
38.12278213600989
 31
0.0
  0
LINE
  5
1104
330
E5D
100
AcDbEntity
  8
0
 62
     0
370
    -2
100
AcDbLine
 10
40.61222745259087
 20
35.30028213600989
 30
0.0
 11
40.61222745259087
 21
37.53278213600989
 31
0.0
  0
SOLID
  5
1105
330
E5D
100
AcDbEntity
  8
0
 62
     0
100
AcDbTrace
 10
40.54389411925753
 20
40.35528213600989
 30
0.0
 11
40.6805607859242
 21
40.35528213600989
 31
0.0
 12
40.61222745259087
 22
40.76528213600989
 32
0.0
 13
40.61222745259087
 23
40.76528213600989
 33
0.0
  0
SOLID
  5
1106
330
E5D
100
AcDbEntity
  8
0
 62
     0
100
AcDbTrace
 10
40.54389411925753
 20
35.30028213600989
 30
0.0
 11
40.6805607859242
 21
35.30028213600989
 31
0.0
 12
40.61222745259087
 22
34.89028213600989
 32
0.0
 13
40.61222745259087
 23
34.89028213600989
 33
0.0
  0
MTEXT
  5
1107
330
E5D
100
AcDbEntity
  8
0
 62
     0
100
AcDbMText
 10
40.61222745259086
 20
37.8277821360099
 30
0.0
 40
0.41
 41
0.0
 71
     5
 72
     1
  1
\A1;5.875
 73
     1
 44
1.0
1001
ACAD
1000
MTEXTBEGIN
1070
    73
1070
     1
1070
    44
1040
1.0
1070
    74
1070
     0
1000
MTEXTEND
  0
POINT
  5
1108
330
E5D
100
AcDbEntity
  8
Defpoints
 62
     0
100
AcDbPoint
 10
39.41442608863832
 20
40.76528213600989
 30
0.0
  0
POINT
  5
1109
330
E5D
100
AcDbEntity
  8
Defpoints
 62
     0
100
AcDbPoint
 10
39.41442608863832
 20
34.89028213600989
 30
0.0
  0
POINT
  5
110A
330
E5D
100
AcDbEntity
  8
Defpoints
 62
     0
100
AcDbPoint
 10
40.61222745259087
 20
34.89028213600989
 30
0.0
  0
ENDBLK
  5
E69
330
E5D
100
AcDbEntity
  8
0
100
AcDbBlockEnd
  0
BLOCK
  5
E75
330
E6A
100
AcDbEntity
  8
0
100
AcDbBlockBegin
  2
*D13
 70
     1
 10
0.0
 20
0.0
 30
0.0
  3
*D13
  1

  0
LINE
  5
10E2
330
E6A
100
AcDbEntity
  8
0
 62
     0
370
    -2
100
AcDbLine
 10
45.48832441926837
 20
40.61528213600985
 30
0.0
 11
45.48832441926837
 21
41.85848255331791
 31
0.0
  0
LINE
  5
10E3
330
E6A
100
AcDbEntity
  8
0
 62
     0
370
    -2
100
AcDbLine
 10
46.01332441926865
 20
41.01528213600988
 30
0.0
 11
46.01332441926865
 21
41.85848255331791
 31
0.0
  0
LINE
  5
10E4
330
E6A
100
AcDbEntity
  8
0
 62
     0
370
    -2
100
AcDbLine
 10
46.42332441926864
 20
41.67848255331791
 30
0.0
 11
46.83332441926864
 21
41.67848255331791
 31
0.0
  0
LINE
  5
10E5
330
E6A
100
AcDbEntity
  8
0
 62
     0
370
    -2
100
AcDbLine
 10
45.07832441926837
 20
41.67848255331791
 30
0.0
 11
44.66832441926837
 21
41.67848255331791
 31
0.0
  0
SOLID
  5
10E6
330
E6A
100
AcDbEntity
  8
0
 62
     0
100
AcDbTrace
 10
46.42332441926864
 20
41.74681588665125
 30
0.0
 11
46.42332441926864
 21
41.61014921998457
 31
0.0
 12
46.01332441926865
 22
41.67848255331791
 32
0.0
 13
46.01332441926865
 23
41.67848255331791
 33
0.0
  0
SOLID
  5
10E7
330
E6A
100
AcDbEntity
  8
0
 62
     0
100
AcDbTrace
 10
45.07832441926837
 20
41.74681588665125
 30
0.0
 11
45.07832441926837
 21
41.61014921998457
 31
0.0
 12
45.48832441926837
 22
41.67848255331791
 32
0.0
 13
45.48832441926837
 23
41.67848255331791
 33
0.0
  0
MTEXT
  5
10E8
330
E6A
100
AcDbEntity
  8
0
 62
     0
100
AcDbMText
 10
43.79249108593504
 20
41.67848255331791
 30
0.0
 40
0.41
 41
0.0
 71
     5
 72
     1
  1
\A1;0.525
 73
     1
 44
1.0
1001
ACAD
1000
MTEXTBEGIN
1070
    73
1070
     1
1070
    44
1040
1.0
1070
    74
1070
     0
1000
MTEXTEND
  0
POINT
  5
10E9
330
E6A
100
AcDbEntity
  8
Defpoints
 62
     0
100
AcDbPoint
 10
45.48832441926837
 20
40.36528213600985
 30
0.0
  0
POINT
  5
10EA
330
E6A
100
AcDbEntity
  8
Defpoints
 62
     0
100
AcDbPoint
 10
46.01332441926865
 20
40.76528213600989
 30
0.0
  0
POINT
  5
10EB
330
E6A
100
AcDbEntity
  8
Defpoints
 62
     0
100
AcDbPoint
 10
46.01332441926865
 20
41.67848255331791
 30
0.0
  0
ENDBLK
  5
E76
330
E6A
100
AcDbEntity
  8
0
100
AcDbBlockEnd
  0
BLOCK
  5
E82
330
E77
100
AcDbEntity
  8
0
100
AcDbBlockBegin
  2
*D14
 70
     1
 10
0.0
 20
0.0
 30
0.0
  3
*D14
  1

  0
LINE
  5
10D8
330
E77
100
AcDbEntity
  8
0
 62
     0
370
    -2
100
AcDbLine
 10
46.01332441926865
 20
34.6402821360099
 30
0.0
 11
46.01332441926865
 21
33.34817792888161
 31
0.0
  0
LINE
  5
10D9
330
E77
100
AcDbEntity
  8
0
 62
     0
370
    -2
100
AcDbLine
 10
48.34832441926864
 20
36.00452205484491
 30
0.0
 11
48.34832441926864
 21
33.34817792888161
 31
0.0
  0
LINE
  5
10DA
330
E77
100
AcDbEntity
  8
0
 62
     0
370
    -2
100
AcDbLine
 10
45.60332441926866
 20
33.52817792888161
 30
0.0
 11
45.19332441926866
 21
33.52817792888161
 31
0.0
  0
LINE
  5
10DB
330
E77
100
AcDbEntity
  8
0
 62
     0
370
    -2
100
AcDbLine
 10
48.75832441926863
 20
33.52817792888161
 30
0.0
 11
49.16832441926864
 21
33.52817792888161
 31
0.0
  0
SOLID
  5
10DC
330
E77
100
AcDbEntity
  8
0
 62
     0
100
AcDbTrace
 10
45.60332441926866
 20
33.59651126221495
 30
0.0
 11
45.60332441926866
 21
33.45984459554828
 31
0.0
 12
46.01332441926865
 22
33.52817792888161
 32
0.0
 13
46.01332441926865
 23
33.52817792888161
 33
0.0
  0
SOLID
  5
10DD
330
E77
100
AcDbEntity
  8
0
 62
     0
100
AcDbTrace
 10
48.75832441926863
 20
33.59651126221495
 30
0.0
 11
48.75832441926863
 21
33.45984459554828
 31
0.0
 12
48.34832441926864
 22
33.52817792888161
 32
0.0
 13
48.34832441926864
 23
33.52817792888161
 33
0.0
  0
MTEXT
  5
10DE
330
E77
100
AcDbEntity
  8
0
 62
     0
100
AcDbMText
 10
47.19332441926866
 20
33.52817792888161
 30
0.0
 40
0.41
 41
0.0
 71
     5
 72
     1
  1
\A1;2.335
 73
     1
 44
1.0
1001
ACAD
1000
MTEXTBEGIN
1070
    73
1070
     1
1070
    44
1040
1.0
1070
    74
1070
     0
1000
MTEXTEND
  0
POINT
  5
10DF
330
E77
100
AcDbEntity
  8
Defpoints
 62
     0
100
AcDbPoint
 10
46.01332441926865
 20
34.8902821360099
 30
0.0
  0
POINT
  5
10E0
330
E77
100
AcDbEntity
  8
Defpoints
 62
     0
100
AcDbPoint
 10
48.34832441926864
 20
36.25452205484491
 30
0.0
  0
POINT
  5
10E1
330
E77
100
AcDbEntity
  8
Defpoints
 62
     0
100
AcDbPoint
 10
48.34832441926864
 20
33.52817792888161
 30
0.0
  0
ENDBLK
  5
E83
330
E77
100
AcDbEntity
  8
0
100
AcDbBlockEnd
  0
BLOCK
  5
EDF
330
ED9
100
AcDbEntity
  8
0
100
AcDbBlockBegin
  2
*D15
 70
     1
 10
0.0
 20
0.0
 30
0.0
  3
*D15
  1

  0
LINE
  5
1018
330
ED9
100
AcDbEntity
  8
0
 62
     0
370
    -2
100
AcDbLine
 10
28.7997788759069
 20
20.79565753773976
 30
0.0
 11
28.0497788759069
 21
20.79565753773976
 31
0.0
  0
MTEXT
  5
1019
330
ED9
100
AcDbEntity
  8
0
 62
     0
100
AcDbMText
 10
27.27644554257356
 20
20.79565753773976
 30
0.0
 40
0.41
 41
0.0
 71
     5
 72
     1
  1
\A1;0.000
 73
     1
 44
1.0
1001
ACAD
1000
MTEXTBEGIN
1070
    73
1070
     1
1070
    44
1040
1.0
1070
    74
1070
     0
1000
MTEXTEND
  0
POINT
  5
101A
330
ED9
100
AcDbEntity
  8
Defpoints
 62
     0
100
AcDbPoint
 10
29.04977887590689
 20
20.79565753773976
 30
0.0
  0
POINT
  5
101B
330
ED9
100
AcDbEntity
  8
Defpoints
 62
     0
100
AcDbPoint
 10
28.0497788759069
 20
20.79565753773976
 30
0.0
  0
POINT
  5
101C
330
ED9
100
AcDbEntity
  8
Defpoints
 62
     0
100
AcDbPoint
 10
29.04977887590689
 20
20.79565753773976
 30
0.0
  0
ENDBLK
  5
EE0
330
ED9
100
AcDbEntity
  8
0
100
AcDbBlockEnd
  0
BLOCK
  5
EEF
330
EE9
100
AcDbEntity
  8
0
100
AcDbBlockBegin
  2
*D16
 70
     1
 10
0.0
 20
0.0
 30
0.0
  3
*D16
  1

  0
LINE
  5
101D
330
EE9
100
AcDbEntity
  8
0
 62
     0
370
    -2
100
AcDbLine
 10
29.04977887590689
 20
20.54565753773976
 30
0.0
 11
29.04977887590689
 21
19.79565753773975
 31
0.0
  0
MTEXT
  5
101E
330
EE9
100
AcDbEntity
  8
0
 62
     0
100
AcDbMText
 10
29.04977887590689
 20
19.02232420440643
 30
0.0
 40
0.41
 41
0.0
 71
     5
 72
     1
  1
\A1;0.000
 11
0.0000000000000001
 21
1.0
 31
0.0
 73
     1
 44
1.0
1001
ACAD
1000
MTEXTBEGIN
1070
    73
1070
     1
1070
    44
1040
1.0
1070
    74
1070
     0
1000
MTEXTEND
  0
POINT
  5
101F
330
EE9
100
AcDbEntity
  8
Defpoints
 62
     0
100
AcDbPoint
 10
29.04977887590689
 20
20.79565753773976
 30
0.0
  0
POINT
  5
1020
330
EE9
100
AcDbEntity
  8
Defpoints
 62
     0
100
AcDbPoint
 10
29.04977887590689
 20
19.79565753773975
 30
0.0
  0
POINT
  5
1021
330
EE9
100
AcDbEntity
  8
Defpoints
 62
     0
100
AcDbPoint
 10
29.04977887590689
 20
20.79565753773976
 30
0.0
  0
ENDBLK
  5
EF0
330
EE9
100
AcDbEntity
  8
0
100
AcDbBlockEnd
  0
BLOCK
  5
F17
330
F11
100
AcDbEntity
  8
0
100
AcDbBlockBegin
  2
*D17
 70
     1
 10
0.0
 20
0.0
 30
0.0
  3
*D17
  1

  0
LINE
  5
11CC
330
F11
100
AcDbEntity
  8
0
 62
     0
370
    -2
100
AcDbLine
 10
31.9697788759069
 20
20.90315753773976
 30
0.0
 11
31.9697788759069
 21
19.79565753773975
 31
0.0
  0
MTEXT
  5
11CD
330
F11
100
AcDbEntity
  8
0
 62
     0
100
AcDbMText
 10
31.96977887590689
 20
18.23649087107309
 30
0.0
 40
0.41
 41
0.0
 71
     5
 72
     1
  1
\A1;(2) 2.920
 11
0.0000000000000001
 21
1.0
 31
0.0
 73
     1
 44
1.0
1001
ACAD
1000
MTEXTBEGIN
1070
    73
1070
     1
1070
    44
1040
1.0
1070
    74
1070
     0
1000
MTEXTEND
  0
POINT
  5
11CE
330
F11
100
AcDbEntity
  8
Defpoints
 62
     0
100
AcDbPoint
 10
31.9697788759069
 20
21.15315753773976
 30
0.0
  0
POINT
  5
11CF
330
F11
100
AcDbEntity
  8
Defpoints
 62
     0
100
AcDbPoint
 10
31.9697788759069
 20
19.79565753773975
 30
0.0
  0
POINT
  5
11D0
330
F11
100
AcDbEntity
  8
Defpoints
 62
     0
100
AcDbPoint
 10
29.04977887590689
 20
20.79565753773976
 30
0.0
  0
ENDBLK
  5
F18
330
F11
100
AcDbEntity
  8
0
100
AcDbBlockEnd
  0
BLOCK
  5
F27
330
F21
100
AcDbEntity
  8
0
100
AcDbBlockBegin
  2
*D18
 70
     1
 10
0.0
 20
0.0
 30
0.0
  3
*D18
  1

  0
LINE
  5
11C7
330
F21
100
AcDbEntity
  8
0
 62
     0
370
    -2
100
AcDbLine
 10
34.5497788759069
 20
20.90315753773976
 30
0.0
 11
34.5497788759069
 21
19.79565753773974
 31
0.0
  0
MTEXT
  5
11C8
330
F21
100
AcDbEntity
  8
0
 62
     0
100
AcDbMText
 10
34.54977887590689
 20
18.27065753773975
 30
0.0
 40
0.41
 41
0.0
 71
     5
 72
     1
  1
\A1;(3) 5.500
 11
0.0000000000000001
 21
1.0
 31
0.0
 73
     1
 44
1.0
1001
ACAD
1000
MTEXTBEGIN
1070
    73
1070
     1
1070
    44
1040
1.0
1070
    74
1070
     0
1000
MTEXTEND
  0
POINT
  5
11C9
330
F21
100
AcDbEntity
  8
Defpoints
 62
     0
100
AcDbPoint
 10
34.5497788759069
 20
21.15315753773976
 30
0.0
  0
POINT
  5
11CA
330
F21
100
AcDbEntity
  8
Defpoints
 62
     0
100
AcDbPoint
 10
34.5497788759069
 20
19.79565753773974
 30
0.0
  0
POINT
  5
11CB
330
F21
100
AcDbEntity
  8
Defpoints
 62
     0
100
AcDbPoint
 10
29.04977887590689
 20
20.79565753773976
 30
0.0
  0
ENDBLK
  5
F28
330
F21
100
AcDbEntity
  8
0
100
AcDbBlockEnd
  0
BLOCK
  5
F37
330
F31
100
AcDbEntity
  8
0
100
AcDbBlockBegin
  2
*D19
 70
     1
 10
0.0
 20
0.0
 30
0.0
  3
*D19
  1

  0
LINE
  5
126B
330
F31
100
AcDbEntity
  8
0
 62
     0
370
    -2
100
AcDbLine
 10
34.7997788759069
 20
21.15315753773976
 30
0.0
 11
35.54550946970409
 21
21.15315753773976
 31
0.0
  0
MTEXT
  5
126C
330
F31
100
AcDbEntity
  8
0
 62
     0
100
AcDbMText
 10
37.10467613637076
 20
21.15315753773976
 30
0.0
 40
0.41
 41
0.0
 71
     5
 72
     1
  1
\A1;0.358 (3) 
 73
     1
 44
1.0
1001
ACAD
1000
MTEXTBEGIN
1070
    73
1070
     1
1070
    44
1040
1.0
1070
    74
1070
     0
1000
MTEXTEND
  0
POINT
  5
126D
330
F31
100
AcDbEntity
  8
Defpoints
 62
     0
100
AcDbPoint
 10
34.5497788759069
 20
21.15315753773976
 30
0.0
  0
POINT
  5
126E
330
F31
100
AcDbEntity
  8
Defpoints
 62
     0
100
AcDbPoint
 10
35.54550946970409
 20
21.15315753773976
 30
0.0
  0
POINT
  5
126F
330
F31
100
AcDbEntity
  8
Defpoints
 62
     0
100
AcDbPoint
 10
29.04977887590689
 20
20.79565753773976
 30
0.0
  0
ENDBLK
  5
F38
330
F31
100
AcDbEntity
  8
0
100
AcDbBlockEnd
  0
BLOCK
  5
F40
330
F3A
100
AcDbEntity
  8
0
100
AcDbBlockBegin
  2
*D20
 70
     1
 10
0.0
 20
0.0
 30
0.0
  3
*D20
  1

  0
LINE
  5
1031
330
F3A
100
AcDbEntity
  8
0
 62
     0
370
    -2
100
AcDbLine
 10
34.8897788759069
 20
26.92065753773975
 30
0.0
 11
34.8897788759069
 21
27.67065753773975
 31
0.0
  0
MTEXT
  5
1032
330
F3A
100
AcDbEntity
  8
0
 62
     0
100
AcDbMText
 10
34.88977887590689
 20
28.54649087107309
 30
0.0
 40
0.41
 41
0.0
 71
     5
 72
     1
  1
\A1;5.840
 11
0.0000000000000001
 21
1.0
 31
0.0
 73
     1
 44
1.0
1001
ACAD
1000
MTEXTBEGIN
1070
    73
1070
     1
1070
    44
1040
1.0
1070
    74
1070
     0
1000
MTEXTEND
  0
POINT
  5
1033
330
F3A
100
AcDbEntity
  8
Defpoints
 62
     0
100
AcDbPoint
 10
34.8897788759069
 20
26.67065753773975
 30
0.0
  0
POINT
  5
1034
330
F3A
100
AcDbEntity
  8
Defpoints
 62
     0
100
AcDbPoint
 10
34.8897788759069
 20
27.67065753773975
 30
0.0
  0
POINT
  5
1035
330
F3A
100
AcDbEntity
  8
Defpoints
 62
     0
100
AcDbPoint
 10
29.04977887590689
 20
20.79565753773976
 30
0.0
  0
ENDBLK
  5
F41
330
F3A
100
AcDbEntity
  8
0
100
AcDbBlockEnd
  0
BLOCK
  5
F50
330
F4A
100
AcDbEntity
  8
0
100
AcDbBlockBegin
  2
*D21
 70
     1
 10
0.0
 20
0.0
 30
0.0
  3
*D21
  1

  0
LINE
  5
1036
330
F4A
100
AcDbEntity
  8
0
 62
     0
370
    -2
100
AcDbLine
 10
35.1397788759069
 20
26.67065753773975
 30
0.0
 11
35.8897788759069
 21
26.67065753773975
 31
0.0
  0
MTEXT
  5
1037
330
F4A
100
AcDbEntity
  8
0
 62
     0
100
AcDbMText
 10
36.7997788759069
 20
26.67065753773975
 30
0.0
 40
0.41
 41
0.0
 71
     5
 72
     1
  1
\A1;5.875
 73
     1
 44
1.0
1001
ACAD
1000
MTEXTBEGIN
1070
    73
1070
     1
1070
    44
1040
1.0
1070
    74
1070
     0
1000
MTEXTEND
  0
POINT
  5
1038
330
F4A
100
AcDbEntity
  8
Defpoints
 62
     0
100
AcDbPoint
 10
34.8897788759069
 20
26.67065753773975
 30
0.0
  0
POINT
  5
1039
330
F4A
100
AcDbEntity
  8
Defpoints
 62
     0
100
AcDbPoint
 10
35.8897788759069
 20
26.67065753773975
 30
0.0
  0
POINT
  5
103A
330
F4A
100
AcDbEntity
  8
Defpoints
 62
     0
100
AcDbPoint
 10
29.04977887590689
 20
20.79565753773976
 30
0.0
  0
ENDBLK
  5
F51
330
F4A
100
AcDbEntity
  8
0
100
AcDbBlockEnd
  0
BLOCK
  5
F59
330
F53
100
AcDbEntity
  8
0
100
AcDbBlockBegin
  2
*D22
 70
     1
 10
0.0
 20
0.0
 30
0.0
  3
*D22
  1

  0
LINE
  5
1285
330
F53
100
AcDbEntity
  8
0
 62
     0
370
    -2
100
AcDbLine
 10
29.1397788759069
 20
26.31315753773976
 30
0.0
 11
28.46906689725031
 21
26.31315753773976
 31
0.0
  0
MTEXT
  5
1286
330
F53
100
AcDbEntity
  8
0
 62
     0
100
AcDbMText
 10
26.94406689725031
 20
26.31315753773976
 30
0.0
 40
0.41
 41
0.0
 71
     5
 72
     1
  1
\A1;(3) 5.518
 73
     1
 44
1.0
1001
ACAD
1000
MTEXTBEGIN
1070
    73
1070
     1
1070
    44
1040
1.0
1070
    74
1070
     0
1000
MTEXTEND
  0
POINT
  5
1287
330
F53
100
AcDbEntity
  8
Defpoints
 62
     0
100
AcDbPoint
 10
29.3897788759069
 20
26.31315753773976
 30
0.0
  0
POINT
  5
1288
330
F53
100
AcDbEntity
  8
Defpoints
 62
     0
100
AcDbPoint
 10
28.46906689725031
 20
26.31315753773976
 30
0.0
  0
POINT
  5
1289
330
F53
100
AcDbEntity
  8
Defpoints
 62
     0
100
AcDbPoint
 10
29.04977887590689
 20
20.79565753773976
 30
0.0
  0
ENDBLK
  5
F5A
330
F53
100
AcDbEntity
  8
0
100
AcDbBlockEnd
  0
BLOCK
  5
F69
330
F63
100
AcDbEntity
  8
0
100
AcDbBlockBegin
  2
*D23
 70
     1
 10
0.0
 20
0.0
 30
0.0
  3
*D23
  1

  0
LINE
  5
109D
330
F63
100
AcDbEntity
  8
0
 62
     0
370
    -2
100
AcDbLine
 10
34.34227887590689
 20
26.35565753773975
 30
0.0
 11
34.34227887590689
 21
26.87065753773975
 31
0.0
  0
LINE
  5
109E
330
F63
100
AcDbEntity
  8
0
 62
     0
370
    -2
100
AcDbLine
 10
34.34227887590689
 20
26.87065753773975
 30
0.0
 11
34.11576760987664
 21
27.27065753773975
 31
0.0
  0
LINE
  5
109F
330
F63
100
AcDbEntity
  8
0
 62
     0
370
    -2
100
AcDbLine
 10
34.11576760987664
 20
27.27065753773975
 30
0.0
 11
34.11576760987664
 21
27.67065753773975
 31
0.0
  0
MTEXT
  5
10A0
330
F63
100
AcDbEntity
  8
0
 62
     0
100
AcDbMText
 10
34.11576760987664
 20
28.58065753773976
 30
0.0
 40
0.41
 41
0.0
 71
     5
 72
     1
  1
\A1;5.292
 11
0.0000000000000001
 21
1.0
 31
0.0
 73
     1
 44
1.0
1001
ACAD
1000
MTEXTBEGIN
1070
    73
1070
     1
1070
    44
1040
1.0
1070
    74
1070
     0
1000
MTEXTEND
  0
POINT
  5
10A1
330
F63
100
AcDbEntity
  8
Defpoints
 62
     0
100
AcDbPoint
 10
34.34227887590689
 20
26.10565753773975
 30
0.0
  0
POINT
  5
10A2
330
F63
100
AcDbEntity
  8
Defpoints
 62
     0
100
AcDbPoint
 10
34.11576760987664
 20
27.67065753773975
 30
0.0
  0
POINT
  5
10A3
330
F63
100
AcDbEntity
  8
Defpoints
 62
     0
100
AcDbPoint
 10
29.04977887590689
 20
20.79565753773976
 30
0.0
  0
ENDBLK
  5
F6A
330
F63
100
AcDbEntity
  8
0
100
AcDbBlockEnd
  0
BLOCK
  5
F79
330
F73
100
AcDbEntity
  8
0
100
AcDbBlockBegin
  2
*D24
 70
     1
 10
0.0
 20
0.0
 30
0.0
  3
*D24
  1

  0
LINE
  5
1096
330
F73
100
AcDbEntity
  8
0
 62
     0
370
    -2
100
AcDbLine
 10
34.59227887590689
 20
26.10565753773975
 30
0.0
 11
35.0897788759069
 21
26.10565753773975
 31
0.0
  0
LINE
  5
1097
330
F73
100
AcDbEntity
  8
0
 62
     0
370
    -2
100
AcDbLine
 10
35.0897788759069
 20
26.10565753773975
 30
0.0
 11
35.4897788759069
 21
25.8966462717095
 31
0.0
  0
LINE
  5
1098
330
F73
100
AcDbEntity
  8
0
 62
     0
370
    -2
100
AcDbLine
 10
35.4897788759069
 20
25.8966462717095
 30
0.0
 11
35.8897788759069
 21
25.8966462717095
 31
0.0
  0
MTEXT
  5
1099
330
F73
100
AcDbEntity
  8
0
 62
     0
100
AcDbMText
 10
36.6972788759069
 20
25.8966462717095
 30
0.0
 40
0.41
 41
0.0
 71
     5
 72
     1
  1
\A1;5.310
 73
     1
 44
1.0
1001
ACAD
1000
MTEXTBEGIN
1070
    73
1070
     1
1070
    44
1040
1.0
1070
    74
1070
     0
1000
MTEXTEND
  0
POINT
  5
109A
330
F73
100
AcDbEntity
  8
Defpoints
 62
     0
100
AcDbPoint
 10
34.34227887590689
 20
26.10565753773975
 30
0.0
  0
POINT
  5
109B
330
F73
100
AcDbEntity
  8
Defpoints
 62
     0
100
AcDbPoint
 10
35.8897788759069
 20
25.8966462717095
 30
0.0
  0
POINT
  5
109C
330
F73
100
AcDbEntity
  8
Defpoints
 62
     0
100
AcDbPoint
 10
29.04977887590689
 20
20.79565753773976
 30
0.0
  0
ENDBLK
  5
F7A
330
F73
100
AcDbEntity
  8
0
100
AcDbBlockEnd
  0
BLOCK
  5
F84
330
F7C
100
AcDbEntity
  8
0
100
AcDbBlockBegin
  2
*D25
 70
     1
 10
0.0
 20
0.0
 30
0.0
  3
*D25
  1

  0
LINE
  5
1081
330
F7C
100
AcDbEntity
  8
0
 62
     0
370
    -2
100
AcDbLine
 10
29.5972788759069
 20
21.11065753773975
 30
0.0
 11
29.5972788759069
 21
20.59565753773976
 31
0.0
  0
LINE
  5
1082
330
F7C
100
AcDbEntity
  8
0
 62
     0
370
    -2
100
AcDbLine
 10
29.5972788759069
 20
20.59565753773976
 30
0.0
 11
29.82379014193715
 21
20.19565753773976
 31
0.0
  0
LINE
  5
1083
330
F7C
100
AcDbEntity
  8
0
 62
     0
370
    -2
100
AcDbLine
 10
29.82379014193715
 20
20.19565753773976
 30
0.0
 11
29.82379014193715
 21
19.79565753773975
 31
0.0
  0
MTEXT
  5
1084
330
F7C
100
AcDbEntity
  8
0
 62
     0
100
AcDbMText
 10
29.82379014193714
 20
18.91982420440642
 30
0.0
 40
0.41
 41
0.0
 71
     5
 72
     1
  1
\A1;0.547
 11
0.0000000000000001
 21
1.0
 31
0.0
 73
     1
 44
1.0
1001
ACAD
1000
MTEXTBEGIN
1070
    73
1070
     1
1070
    44
1040
1.0
1070
    74
1070
     0
1000
MTEXTEND
  0
POINT
  5
1085
330
F7C
100
AcDbEntity
  8
Defpoints
 62
     0
100
AcDbPoint
 10
29.5972788759069
 20
21.36065753773975
 30
0.0
  0
POINT
  5
1086
330
F7C
100
AcDbEntity
  8
Defpoints
 62
     0
100
AcDbPoint
 10
29.82379014193715
 20
19.79565753773975
 30
0.0
  0
POINT
  5
1087
330
F7C
100
AcDbEntity
  8
Defpoints
 62
     0
100
AcDbPoint
 10
29.04977887590689
 20
20.79565753773976
 30
0.0
  0
ENDBLK
  5
F85
330
F7C
100
AcDbEntity
  8
0
100
AcDbBlockEnd
  0
BLOCK
  5
F98
330
F90
100
AcDbEntity
  8
0
100
AcDbBlockBegin
  2
*D26
 70
     1
 10
0.0
 20
0.0
 30
0.0
  3
*D26
  1

  0
LINE
  5
1073
330
F90
100
AcDbEntity
  8
0
 62
     0
370
    -2
100
AcDbLine
 10
29.34727887590689
 20
21.36065753773975
 30
0.0
 11
28.8497788759069
 21
21.36065753773975
 31
0.0
  0
LINE
  5
1074
330
F90
100
AcDbEntity
  8
0
 62
     0
370
    -2
100
AcDbLine
 10
28.8497788759069
 20
21.36065753773975
 30
0.0
 11
28.44977887590689
 21
21.56966880377002
 31
0.0
  0
LINE
  5
1075
330
F90
100
AcDbEntity
  8
0
 62
     0
370
    -2
100
AcDbLine
 10
28.44977887590689
 20
21.56966880377002
 30
0.0
 11
28.0497788759069
 21
21.56966880377002
 31
0.0
  0
MTEXT
  5
1076
330
F90
100
AcDbEntity
  8
0
 62
     0
100
AcDbMText
 10
27.17394554257356
 20
21.56966880377002
 30
0.0
 40
0.41
 41
0.0
 71
     5
 72
     1
  1
\A1;0.565
 73
     1
 44
1.0
1001
ACAD
1000
MTEXTBEGIN
1070
    73
1070
     1
1070
    44
1040
1.0
1070
    74
1070
     0
1000
MTEXTEND
  0
POINT
  5
1077
330
F90
100
AcDbEntity
  8
Defpoints
 62
     0
100
AcDbPoint
 10
29.5972788759069
 20
21.36065753773975
 30
0.0
  0
POINT
  5
1078
330
F90
100
AcDbEntity
  8
Defpoints
 62
     0
100
AcDbPoint
 10
28.0497788759069
 20
21.56966880377002
 30
0.0
  0
POINT
  5
1079
330
F90
100
AcDbEntity
  8
Defpoints
 62
     0
100
AcDbPoint
 10
29.04977887590689
 20
20.79565753773976
 30
0.0
  0
ENDBLK
  5
F99
330
F90
100
AcDbEntity
  8
0
100
AcDbBlockEnd
  0
BLOCK
  5
FAA
330
FA4
100
AcDbEntity
  8
0
100
AcDbBlockBegin
  2
*D27
 70
     1
 10
0.0
 20
0.0
 30
0.0
  3
*D27
  1

  0
LINE
  5
1058
330
FA4
100
AcDbEntity
  8
0
 62
     0
370
    -2
100
AcDbLine
 10
29.3897788759069
 20
26.56315753773976
 30
0.0
 11
29.3897788759069
 21
27.67065753773975
 31
0.0
  0
MTEXT
  5
1059
330
FA4
100
AcDbEntity
  8
0
 62
     0
100
AcDbMText
 10
29.3897788759069
 20
29.19565753773975
 30
0.0
 40
0.41
 41
0.0
 71
     5
 72
     1
  1
\A1;0.340 (3) 
 11
0.0000000000000001
 21
1.0
 31
0.0
 73
     1
 44
1.0
1001
ACAD
1000
MTEXTBEGIN
1070
    73
1070
     1
1070
    44
1040
1.0
1070
    74
1070
     0
1000
MTEXTEND
  0
POINT
  5
105A
330
FA4
100
AcDbEntity
  8
Defpoints
 62
     0
100
AcDbPoint
 10
29.3897788759069
 20
26.31315753773976
 30
0.0
  0
POINT
  5
105B
330
FA4
100
AcDbEntity
  8
Defpoints
 62
     0
100
AcDbPoint
 10
29.3897788759069
 20
27.67065753773975
 30
0.0
  0
POINT
  5
105C
330
FA4
100
AcDbEntity
  8
Defpoints
 62
     0
100
AcDbPoint
 10
29.04977887590689
 20
20.79565753773976
 30
0.0
  0
ENDBLK
  5
FAB
330
FA4
100
AcDbEntity
  8
0
100
AcDbBlockEnd
  0
BLOCK
  5
FCC
330
FC6
100
AcDbEntity
  8
0
100
AcDbBlockBegin
  2
*D28
 70
     1
 10
0.0
 20
0.0
 30
0.0
  3
*D28
  1

  0
LINE
  5
1270
330
FC6
100
AcDbEntity
  8
0
 62
     0
370
    -2
100
AcDbLine
 10
34.7997788759069
 20
23.73315753773976
 30
0.0
 11
35.43396291860674
 21
23.73315753773976
 31
0.0
  0
MTEXT
  5
1271
330
FC6
100
AcDbEntity
  8
0
 62
     0
100
AcDbMText
 10
37.02729625194007
 20
23.73315753773976
 30
0.0
 40
0.41
 41
0.0
 71
     5
 72
     1
  1
\A1;2.938 (2)
 73
     1
 44
1.0
1001
ACAD
1000
MTEXTBEGIN
1070
    73
1070
     1
1070
    44
1040
1.0
1070
    74
1070
     0
1000
MTEXTEND
  0
POINT
  5
1272
330
FC6
100
AcDbEntity
  8
Defpoints
 62
     0
100
AcDbPoint
 10
34.5497788759069
 20
23.73315753773976
 30
0.0
  0
POINT
  5
1273
330
FC6
100
AcDbEntity
  8
Defpoints
 62
     0
100
AcDbPoint
 10
35.43396291860674
 20
23.73315753773976
 30
0.0
  0
POINT
  5
1274
330
FC6
100
AcDbEntity
  8
Defpoints
 62
     0
100
AcDbPoint
 10
29.04977887590689
 20
20.79565753773976
 30
0.0
  0
ENDBLK
  5
FCD
330
FC6
100
AcDbEntity
  8
0
100
AcDbBlockEnd
  0
BLOCK
  5
113E
330
1137
100
AcDbEntity
  8
0
100
AcDbBlockBegin
  2
A$C78BE44BC
 70
     0
 10
0.0
 20
0.0
 30
0.0
  3
A$C78BE44BC
  1

  0
TEXT
  5
1138
330
1137
100
AcDbEntity
  8
DIMENSION
100
AcDbText
 10
1.416666666666666
 20
-3.0
 30
0.0
 40
0.5
  1
MAXIMUM OPERATING TEMPERATURE : 176%%DF
 72
     1
 11
10.08333333333333
 21
-2.75
 31
0.0
100
AcDbText
 73
     2
  0
TEXT
  5
1139
330
1137
100
AcDbEntity
  8
DIMENSION
100
AcDbText
 10
-0.208333333333334
 20
-2.0
 30
0.0
 40
0.5
  1
MAXIMUM AMPS : .10/.13 @ 230/220 VAC 60/50 HZ
 72
     1
 11
10.08333333333333
 21
-1.75
 31
0.0
100
AcDbText
 73
     2
  0
TEXT
  5
113A
330
1137
100
AcDbEntity
  8
DIMENSION
100
AcDbText
 10
-0.0833333333333322
 20
-1.0
 30
0.0
 40
0.5
  1
MAXIMUM AMPS : .20/.20 @ 120/110 VAC 60/50 HZ
 72
     1
 11
10.08333333333333
 21
-0.75
 31
0.0
100
AcDbText
 73
     2
  0
TEXT
  5
113B
330
1137
100
AcDbEntity
  8
DIMENSION
100
AcDbText
 10
0.0
 20
0.0
 30
0.0
 40
0.5
  1
105/80 CFM FREE AIR @ 230/220 VAC 60/50 HZ
 72
     1
 11
10.08333333333333
 21
0.25
 31
0.0
100
AcDbText
 73
     2
  0
TEXT
  5
113C
330
1137
100
AcDbEntity
  8
DIMENSION
100
AcDbText
 10
0.2500000000000035
 20
1.0
 30
0.0
 40
0.5
  1
105/80 CFM FREE AIR @ 120/110 VAC 60/50 HZ
 72
     1
 11
10.08333333333333
 21
1.25
 31
0.0
100
AcDbText
 73
     2
  0
TEXT
  5
113D
330
1137
100
AcDbEntity
  8
DIMENSION
100
AcDbText
 10
5.416666666666663
 20
2.0
 30
0.0
 40
0.5
  1
IQ100FP SPEC DRAWING
 72
     1
 11
10.08333333333333
 21
2.25
 31
0.0
100
AcDbText
 73
     2
  0
ENDBLK
  5
113F
330
1137
100
AcDbEntity
  8
0
100
AcDbBlockEnd
  0
BLOCK
  5
11DC
330
11D3
100
AcDbEntity
  8
0
100
AcDbBlockBegin
  2
*D30
 70
     1
 10
0.0
 20
0.0
 30
0.0
  3
*D30
  1

  0
LINE
  5
127D
330
11D3
100
AcDbEntity
  8
0
 62
     0
370
    -2
100
AcDbLine
 10
28.59319471764836
 20
24.56137773103593
 30
0.0
 11
29.00319471764836
 21
24.56137773103592
 31
0.0
  0
LINE
  5
127E
330
11D3
100
AcDbEntity
  8
0
 62
     0
370
    -2
100
AcDbLine
 10
29.00319471764836
 20
24.56137773103592
 30
0.0
 11
29.17660774268775
 21
24.18985663776302
 31
0.0
  0
MTEXT
  5
127F
330
11D3
100
AcDbEntity
  8
0
 62
     0
100
AcDbMText
 10
26.89736138431503
 20
24.56137773103593
 30
0.0
 40
0.41
 41
0.0
 71
     5
 72
     1
  1
\A1;(8) \U+22050.188
 73
     1
 44
1.0
1001
ACAD
1000
MTEXTBEGIN
1070
    73
1070
     1
1070
    44
1040
1.0
1070
    74
1070
     0
1000
MTEXTEND
  0
SOLID
  5
1280
330
11D3
100
AcDbEntity
  8
0
 62
     0
100
AcDbTrace
 10
29.23852792489989
 20
24.21875880860292
 30
0.0
 11
29.11468756047559
 21
24.16095446692312
 31
0.0
 12
29.35002076772713
 22
23.81833554449012
 32
0.0
 13
29.35002076772713
 23
23.81833554449012
 33
0.0
  0
LINE
  5
1281
330
11D3
100
AcDbEntity
  8
0
 62
     0
370
    -2
100
AcDbLine
 10
29.29977887590689
 20
23.73315753773975
 30
0.0
 11
29.47977887590689
 21
23.73315753773975
 31
0.0
  0
LINE
  5
1282
330
11D3
100
AcDbEntity
  8
0
 62
     0
370
    -2
100
AcDbLine
 10
29.38977887590688
 20
23.64315753773976
 30
0.0
 11
29.38977887590689
 21
23.82315753773975
 31
0.0
  0
POINT
  5
1283
330
11D3
100
AcDbEntity
  8
Defpoints
 62
     0
100
AcDbPoint
 10
29.35002076772713
 20
23.81833554449012
 30
0.0
  0
POINT
  5
1284
330
11D3
100
AcDbEntity
  8
Defpoints
 62
     0
100
AcDbPoint
 10
29.42953698408665
 20
23.64797953098938
 30
0.0
  0
ENDBLK
  5
11DD
330
11D3
100
AcDbEntity
  8
0
100
AcDbBlockEnd
  0
ENDSEC
  0
SECTION
  2
ENTITIES
  0
LINE
  5
BA8
330
1F
100
AcDbEntity
  8
0
  6
HIDDEN
100
AcDbLine
 10
29.04977887590689
 20
26.67065753773975
 30
0.0
 11
34.8897788759069
 21
26.67065753773975
 31
0.0
  0
LINE
  5
BA9
102
{ACAD_REACTORS
330
F48
102
}
330
1F
100
AcDbEntity
  8
0
  6
HIDDEN
100
AcDbLine
 10
34.8897788759069
 20
26.67065753773975
 30
0.0
 11
34.8897788759069
 21
20.79565753773976
 31
0.0
  0
LINE
  5
BAA
330
1F
100
AcDbEntity
  8
0
  6
HIDDEN
100
AcDbLine
 10
34.8897788759069
 20
20.79565753773975
 30
0.0
 11
29.04977887590689
 21
20.79565753773976
 31
0.0
  0
LINE
  5
BAB
102
{ACAD_REACTORS
330
EE7
102
}
330
1F
100
AcDbEntity
  8
0
  6
HIDDEN
100
AcDbLine
 10
29.04977887590689
 20
20.79565753773976
 30
0.0
 11
29.04977887590689
 21
26.67065753773975
 31
0.0
  0
LINE
  5
C3C
102
{ACAD_REACTORS
330
F8E
330
FA2
102
}
330
1F
100
AcDbEntity
  8
0
100
AcDbLine
 10
29.59727887590689
 20
26.10565753773976
 30
0.0
 11
29.5972788759069
 21
21.36065753773975
 31
0.0
  0
LINE
  5
C3D
102
{ACAD_REACTORS
330
F71
102
}
330
1F
100
AcDbEntity
  8
0
100
AcDbLine
 10
34.34227887590689
 20
26.10565753773975
 30
0.0
 11
34.34227887590689
 21
21.36065753773975
 31
0.0
  0
LINE
  5
C3E
330
1F
100
AcDbEntity
  8
0
100
AcDbLine
 10
29.59727887590689
 20
26.10565753773976
 30
0.0
 11
34.34227887590689
 21
26.10565753773975
 31
0.0
  0
LINE
  5
C3F
102
{ACAD_REACTORS
330
F8E
102
}
330
1F
100
AcDbEntity
  8
0
100
AcDbLine
 10
29.59727887590689
 20
21.36065753773975
 30
0.0
 11
34.34227887590689
 21
21.36065753773975
 31
0.0
  0
LWPOLYLINE
  5
DB6
330
1F
100
AcDbEntity
  8
BORDER
100
AcDbPolyline
 90
        4
 70
     1
 43
0.0
 10
25.10005030044189
 20
33.59436938790276
 10
38.8395074513719
 20
33.59436938790276
 10
38.8395074513719
 20
15.51548099593725
 10
25.10005030044189
 20
15.51548099593725
  0
LINE
  5
DB7
330
1F
100
AcDbEntity
  8
BORDER
100
AcDbLine
 10
33.29042497481589
 20
16.01260088752283
 30
0.0
 11
35.12618729736191
 21
16.01260088752283
 31
0.0
  0
TEXT
  5
DB8
330
1F
100
AcDbEntity
  8
TEXT
100
AcDbText
 10
33.37977298344628
 20
15.87702273527222
 30
0.0
 40
0.0903854348337414
  1
PROPRIETARY DRAWING
 72
     1
 11
34.2083061360889
 21
15.92221545268909
 31
0.0
100
AcDbText
 73
     2
  0
TEXT
  5
DB9
330
1F
100
AcDbEntity
  8
TEXT
100
AcDbText
 10
33.44002994000211
 20
15.65105914818787
 30
0.0
 40
0.0451927174168707
  1
OR ALTERED WITHOUT AUTHORIZATION OF
 72
     1
 11
34.20830613608891
 21
15.6736555068963
 31
0.0
100
AcDbText
 73
     2
  0
TEXT
  5
DBA
330
1F
100
AcDbEntity
  8
TEXT
100
AcDbText
 10
33.40613540193945
 20
15.71884822431317
 30
0.0
 40
0.0451927174168707
  1
QUBE, INC. AND IS NOT TO BE DUPLICATED
 72
     1
 11
34.20830613608891
 21
15.74144458302161
 31
0.0
100
AcDbText
 73
     2
  0
TEXT
  5
DBB
330
1F
100
AcDbEntity
  8
TEXT
100
AcDbText
 10
33.44756205957158
 20
15.78663730043848
 30
0.0
 40
0.0451927174168707
  1
THIS DRAWING IS THE PROPERTY OF ICE
 72
     1
 11
34.20830613608891
 21
15.80923365914691
 31
0.0
100
AcDbText
 73
     2
  0
LINE
  5
DBC
330
1F
100
AcDbEntity
  8
BORDER
100
AcDbLine
 10
36.42954526766447
 20
16.67856077137784
 30
0.0
 11
38.8395074513719
 21
16.67856077137784
 31
0.0
  0
TEXT
  5
DBD
330
1F
100
AcDbEntity
  8
TEXT
100
AcDbText
 10
33.94091589137243
 20
15.58327007206256
 30
0.0
 40
0.0451927174168707
  1
ICE QUBE, INC.
 72
     1
 11
34.20830613608892
 21
15.605866430771
 31
0.0
100
AcDbText
 73
     2
  0
LINE
  5
DBE
330
1F
100
AcDbEntity
  8
BORDER
100
AcDbLine
 10
33.29042497481589
 20
16.01260088752283
 30
0.0
 11
33.29042497481589
 21
15.51548099593725
 31
0.0
  0
TEXT
  5
DBF
330
1F
100
AcDbEntity
  8
TEXT
100
AcDbText
 10
36.7316334361454
 20
15.56555452683516
 30
0.0
 40
0.1807708696674828
  1
IQ290965
 72
     1
 11
37.37939571912054
 21
15.6559399616689
 31
0.0
100
AcDbText
 73
     2
  0
TEXT
  5
DC0
330
1F
100
AcDbEntity
  8
TEXT
100
AcDbText
 10
37.03195679395991
 20
15.91435191985856
 30
0.0
 40
0.1807708696674828
  1
IQ100FPP
 72
     1
 11
37.63452635951818
 21
16.0047373546923
 31
0.0
100
AcDbText
 73
     2
  0
LINE
  5
DC1
330
1F
100
AcDbEntity
  8
BORDER
100
AcDbLine
 10
36.42954526766447
 20
15.86418800352582
 30
0.0
 11
38.8395074513719
 21
15.86418800352582
 31
0.0
  0
LINE
  5
DC2
330
1F
100
AcDbEntity
  8
BORDER
100
AcDbLine
 10
36.42954526766447
 20
16.21307578198408
 30
0.0
 11
38.8395074513719
 21
16.21307578198408
 31
0.0
  0
TEXT
  5
DC3
330
1F
100
AcDbEntity
  8
TEXT
100
AcDbText
 10
36.47473798508134
 20
16.14528670585877
 30
0.0
 40
0.0451927174168707
  1
PART NAME
100
AcDbText
  0
TEXT
  5
DC4
330
1F
100
AcDbEntity
  8
TEXT
100
AcDbText
 10
36.47473798508134
 20
15.79639892740052
 30
0.0
 40
0.0451927174168707
  1
DWG NO
100
AcDbText
  0
LINE
  5
DC5
330
1F
100
AcDbEntity
  8
BORDER
100
AcDbLine
 10
36.42954526766447
 20
15.51548099593725
 30
0.0
 11
36.42954526766447
 21
16.67856077137784
 31
0.0
  0
TEXT
  5
DC6
330
1F
100
AcDbEntity
  8
TEXT
100
AcDbText
 10
35.97942580219243
 20
15.93215785052081
 30
0.0
 40
0.0677890761253061
  1
NONE
 72
     1
 11
36.10370577508883
 21
15.96605238858346
 31
0.0
100
AcDbText
 73
     2
  0
TEXT
  5
DC7
330
1F
100
AcDbEntity
  8
TEXT
100
AcDbText
 10
35.48418659156681
 20
15.76095698725551
 30
0.0
 40
0.0903854348337414
  1
9-29-09
 72
     1
 11
35.77793925477646
 21
15.80614970467238
 31
0.0
100
AcDbText
 73
     2
  0
TEXT
  5
DC8
330
1F
100
AcDbEntity
  8
TEXT
100
AcDbText
 10
35.1713800147788
 20
15.83526466437903
 30
0.0
 40
0.0451927174168707
  1
DATE
100
AcDbText
  0
TEXT
  5
DC9
330
1F
100
AcDbEntity
  8
TEXT
100
AcDbText
 10
35.3616413551038
 20
15.93215785052081
 30
0.0
 40
0.0677890761253061
  1
JJH
 72
     1
 11
35.45202678993754
 21
15.96605238858346
 31
0.0
100
AcDbText
 73
     2
  0
LINE
  5
DCA
330
1F
100
AcDbEntity
  8
BORDER
100
AcDbLine
 10
35.12618729736193
 20
15.51548099593725
 30
0.0
 11
35.12618729736191
 21
16.09684011278788
 31
0.0
  0
TEXT
  5
DCB
330
1F
100
AcDbEntity
  8
TEXT
100
AcDbText
 10
35.17138001477877
 20
16.0290510366626
 30
0.0
 40
0.0451927174168707
  1
DRAWN
100
AcDbText
  0
LINE
  5
DCC
330
1F
100
AcDbEntity
  8
BORDER
100
AcDbLine
 10
35.77786628251318
 20
16.0968401127879
 30
0.0
 11
35.77786628251318
 21
15.90305374050434
 31
0.0
  0
TEXT
  5
DCD
330
1F
100
AcDbEntity
  8
TEXT
100
AcDbText
 10
35.82305899993006
 20
16.0290510366626
 30
0.0
 40
0.0451927174168707
  1
SCALE
100
AcDbText
  0
TEXT
  5
DCE
330
1F
100
AcDbEntity
  8
TEXT
100
AcDbText
 10
35.28074639092762
 20
15.56718146466216
 30
0.0
 40
0.0903854348337414
  1
SHEET 1 OF 1
 72
     1
 11
35.77786628251319
 21
15.61237418207903
 31
0.0
100
AcDbText
 73
     2
  0
LINE
  5
DCF
330
1F
100
AcDbEntity
  8
BORDER
100
AcDbLine
 10
35.12618729736193
 20
15.90305374050434
 30
0.0
 11
36.42954526766447
 21
15.90305374050434
 31
0.0
  0
LINE
  5
DD0
330
1F
100
AcDbEntity
  8
BORDER
100
AcDbLine
 10
35.12618729736193
 20
15.7092673682208
 30
0.0
 11
36.42954526766447
 21
15.7092673682208
 31
0.0
  0
LINE
  5
DD1
330
1F
100
AcDbEntity
  8
BORDER
100
AcDbLine
 10
35.12618729736191
 20
16.09684011278788
 30
0.0
 11
36.42954526766447
 21
16.09684011278788
 31
0.0
  0
TEXT
  5
DD2
330
1F
100
AcDbEntity
  8
TEXT
100
AcDbText
 10
38.5391840935574
 20
15.56555452683516
 30
0.0
 40
0.1807708696674828
  1
0
 72
     1
 11
38.58437681097427
 21
15.6559399616689
 31
0.0
100
AcDbText
 73
     2
  0
LINE
  5
DD3
330
1F
100
AcDbEntity
  8
BORDER
100
AcDbLine
 10
38.32924617057662
 20
15.86418800352582
 30
0.0
 11
38.32924617057662
 21
15.51548099593725
 31
0.0
  0
TEXT
  5
DD4
330
1F
100
AcDbEntity
  8
TEXT
100
AcDbText
 10
38.37443888799349
 20
15.79639892740052
 30
0.0
 40
0.0451927174168707
  1
REV
100
AcDbText
  0
ARC
  5
DD5
330
1F
100
AcDbEntity
  8
TEXT
100
AcDbCircle
 10
37.49106124326081
 20
16.36361717009771
 30
0.0
 40
0.0533321045237035
100
AcDbArc
 50
180.0
 51
0.0000000000004071
  0
ARC
  5
DD6
330
1F
100
AcDbEntity
  8
TEXT
100
AcDbCircle
 10
37.49106124326081
 20
16.44868556182183
 30
0.0
 40
0.0533321045237035
100
AcDbArc
 50
357.1912576066922
 51
182.8087423933078
  0
LINE
  5
DD7
330
1F
100
AcDbEntity
  8
TEXT
100
AcDbLine
 10
37.54435560164651
 20
16.37621677975606
 30
0.0
 11
37.54435560164651
 21
16.36161099533416
 31
0.0
  0
LINE
  5
DD8
330
1F
100
AcDbEntity
  8
TEXT
100
AcDbLine
 10
37.47574806473419
 20
16.39320396338218
 30
0.0
 11
37.4757480647342
 21
16.34964013573541
 31
0.0
  0
LINE
  5
DD9
330
1F
100
AcDbEntity
  8
TEXT
100
AcDbLine
 10
37.50633667564943
 20
16.37621677975606
 30
0.0
 11
37.50633667564943
 21
16.34856561168805
 31
0.0
  0
LINE
  5
DDA
330
1F
100
AcDbEntity
  8
TEXT
100
AcDbLine
 10
37.47574806473418
 20
16.41803131366302
 30
0.0
 11
37.50633667564942
 21
16.41803131366302
 31
0.0
  0
LINE
  5
DDB
330
1F
100
AcDbEntity
  8
TEXT
100
AcDbLine
 10
37.50633667564943
 20
16.37621677975606
 30
0.0
 11
37.54435560164651
 21
16.37621677975606
 31
0.0
  0
LINE
  5
DDC
330
1F
100
AcDbEntity
  8
TEXT
100
AcDbLine
 10
37.47574806473419
 20
16.39320396338218
 30
0.0
 11
37.54435560164651
 21
16.39320396338218
 31
0.0
  0
ARC
  5
DDD
330
1F
100
AcDbEntity
  8
TEXT
100
AcDbCircle
 10
37.49106124326081
 20
16.34964013573541
 30
0.0
 40
0.0153131785266079
100
AcDbArc
 50
179.9999999999984
 51
4.023745172363637
  0
ARC
  5
DDE
330
1F
100
AcDbEntity
  8
TEXT
100
AcDbCircle
 10
37.49106124326081
 20
16.46203532687281
 30
0.0
 40
0.0153131785266079
100
AcDbArc
 50
355.9762548274009
 51
180.0
  0
LINE
  5
DDF
330
1F
100
AcDbEntity
  8
TEXT
100
AcDbLine
 10
37.18404530457422
 20
16.32243457535107
 30
0.0
 11
37.18404530457422
 21
16.310285065574
 31
0.0
  0
LINE
  5
DE0
330
1F
100
AcDbEntity
  8
TEXT
100
AcDbLine
 10
37.15818826754143
 20
16.49940427746065
 30
0.0
 11
37.15818826754143
 21
16.3472111487967
 31
0.0
  0
LINE
  5
DE1
330
1F
100
AcDbEntity
  8
TEXT
100
AcDbLine
 10
37.12071653244708
 20
16.49940427746066
 30
0.0
 11
37.15818826754143
 21
16.49940427746066
 31
0.0
  0
LINE
  5
DE2
330
1F
100
AcDbEntity
  8
TEXT
100
AcDbLine
 10
37.18404530457422
 20
16.310285065574
 30
0.0
 11
37.22206423057131
 21
16.310285065574
 31
0.0
  0
LINE
  5
DE3
330
1F
100
AcDbEntity
  8
TEXT
100
AcDbLine
 10
37.12071653244708
 20
16.49940427746065
 30
0.0
 11
37.12071653244706
 21
16.33629616821377
 31
0.0
  0
LINE
  5
DE4
330
1F
100
AcDbEntity
  8
TEXT
100
AcDbLine
 10
37.15818826754143
 20
16.4644643138115
 30
0.0
 11
37.15818826754143
 21
16.3472111487967
 31
0.0
  0
LINE
  5
DE5
330
1F
100
AcDbEntity
  8
TEXT
100
AcDbLine
 10
37.18404530457421
 20
16.49940427746065
 30
0.0
 11
37.18404530457421
 21
16.3472111487967
 31
0.0
  0
LINE
  5
DE6
330
1F
100
AcDbEntity
  8
TEXT
100
AcDbLine
 10
37.22206423057131
 20
16.49940427746065
 30
0.0
 11
37.22206423057131
 21
16.310285065574
 31
0.0
  0
LINE
  5
DE7
330
1F
100
AcDbEntity
  8
TEXT
100
AcDbLine
 10
37.15206299613079
 20
16.310285065574
 30
0.0
 11
37.15899787060133
 21
16.310285065574
 31
0.0
  0
LINE
  5
DE8
330
1F
100
AcDbEntity
  8
TEXT
100
AcDbLine
 10
37.18404530457421
 20
16.49940427746066
 30
0.0
 11
37.22206423057131
 21
16.49940427746066
 31
0.0
  0
ARC
  5
DE9
330
1F
100
AcDbEntity
  8
TEXT
100
AcDbCircle
 10
37.17107245912933
 20
16.3472111487967
 30
0.0
 40
0.0128841915879046
100
AcDbArc
 50
180.0000000000016
 51
359.9999999999984
  0
ARC
  5
DEA
330
1F
100
AcDbEntity
  8
TEXT
100
AcDbCircle
 10
37.15206299613079
 20
16.34217872016045
 30
0.0
 40
0.0318936545864524
100
AcDbArc
 50
180.0
 51
270.0
  0
ARC
  5
DEB
330
1F
100
AcDbEntity
  8
TEXT
100
AcDbCircle
 10
37.15899787060133
 20
16.34217872016045
 30
0.0
 40
0.0318936545864524
100
AcDbArc
 50
270.0
 51
321.7523418942985
  0
LINE
  5
DEC
330
1F
100
AcDbEntity
  8
TEXT
100
AcDbLine
 10
37.38166463113821
 20
16.34243777869826
 30
0.0
 11
37.38166463113821
 21
16.46949674244776
 31
0.0
  0
LINE
  5
DED
330
1F
100
AcDbEntity
  8
TEXT
100
AcDbLine
 10
37.34364570514112
 20
16.3472111487967
 30
0.0
 11
37.34364570514111
 21
16.4644643138115
 31
0.0
  0
LINE
  5
DEE
330
1F
100
AcDbEntity
  8
TEXT
100
AcDbLine
 10
37.31778866810832
 20
16.3472111487967
 30
0.0
 11
37.31778866810832
 21
16.4644643138115
 31
0.0
  0
LINE
  5
DEF
330
1F
100
AcDbEntity
  8
TEXT
100
AcDbLine
 10
37.27976974211123
 20
16.31227118514756
 30
0.0
 11
37.27976974211123
 21
16.58135148778792
 31
0.0
  0
LINE
  5
DF0
330
1F
100
AcDbEntity
  8
TEXT
100
AcDbLine
 10
37.31305709422588
 20
16.31227118514756
 30
0.0
 11
37.31305709422588
 21
16.32923469949266
 31
0.0
  0
LINE
  5
DF1
330
1F
100
AcDbEntity
  8
TEXT
100
AcDbLine
 10
37.34977097655175
 20
16.50139039703423
 30
0.0
 11
37.34283610208121
 21
16.50139039703423
 31
0.0
  0
LINE
  5
DF2
330
1F
100
AcDbEntity
  8
TEXT
100
AcDbLine
 10
37.31305709422588
 20
16.31227118514756
 30
0.0
 11
37.27976974211123
 21
16.31227118514756
 31
0.0
  0
ARC
  5
DF3
330
1F
100
AcDbEntity
  8
TEXT
100
AcDbCircle
 10
37.33076151355322
 20
16.3472111487967
 30
0.0
 40
0.0128841915879046
100
AcDbArc
 50
180.0
 51
0.0
  0
ARC
  5
DF4
330
1F
100
AcDbEntity
  8
TEXT
100
AcDbCircle
 10
37.33076151355322
 20
16.46446431381152
 30
0.0
 40
0.0128841915879046
100
AcDbArc
 50
0.0000000000016284
 51
179.9999999999984
  0
ARC
  5
DF5
330
1F
100
AcDbEntity
  8
TEXT
100
AcDbCircle
 10
37.34734198961305
 20
16.34243777869826
 30
0.0
 40
0.0343226415251557
100
AcDbArc
 50
202.6235962336632
 51
0.0
  0
LINE
  5
DF6
330
1F
100
AcDbEntity
  8
TEXT
100
AcDbLine
 10
37.31778866810832
 20
16.48924088725715
 30
0.0
 11
37.31778866810832
 21
16.58135148778793
 31
0.0
  0
LINE
  5
DF7
330
1F
100
AcDbEntity
  8
TEXT
100
AcDbLine
 10
37.31566041104198
 20
16.32923469949266
 30
0.0
 11
37.31305709422588
 21
16.32923469949266
 31
0.0
  0
ARC
  5
DF8
330
1F
100
AcDbEntity
  8
TEXT
100
AcDbCircle
 10
37.34977097655175
 20
16.46949674244777
 30
0.0
 40
0.0318936545864524
100
AcDbArc
 50
0.0
 51
90.0
  0
ARC
  5
DF9
330
1F
100
AcDbEntity
  8
TEXT
100
AcDbCircle
 10
37.34283610208121
 20
16.46949674244777
 30
0.0
 40
0.0318936545864524
100
AcDbArc
 50
90.0
 51
141.7523418942987
  0
LINE
  5
DFA
330
1F
100
AcDbEntity
  8
TEXT
100
AcDbLine
 10
36.75773755793194
 20
16.39121986541605
 30
0.0
 11
36.75773755793194
 21
16.36435642699209
 31
0.0
  0
LINE
  5
DFB
330
1F
100
AcDbEntity
  8
TEXT
100
AcDbLine
 10
36.71971863193484
 20
16.39121986541605
 30
0.0
 11
36.71971863193484
 21
16.36435642699209
 31
0.0
  0
LINE
  5
DFC
330
1F
100
AcDbEntity
  8
TEXT
100
AcDbLine
 10
36.75773755793194
 20
16.39121986541605
 30
0.0
 11
36.71971863193484
 21
16.39121986541605
 31
0.0
  0
LINE
  5
DFD
330
1F
100
AcDbEntity
  8
TEXT
100
AcDbLine
 10
36.75773755793194
 20
16.50514321877286
 30
0.0
 11
36.71971863193483
 21
16.50514321877286
 31
0.0
  0
ARC
  5
DFE
330
1F
100
AcDbEntity
  8
TEXT
100
AcDbCircle
 10
36.99867268703418
 20
16.34217872016045
 30
0.0
 40
0.0318936545864524
100
AcDbArc
 50
270.0
 51
321.7523418942985
  0
ARC
  5
DFF
330
1F
100
AcDbEntity
  8
TEXT
100
AcDbCircle
 10
36.99173781256365
 20
16.34217872016045
 30
0.0
 40
0.0318936545864524
100
AcDbArc
 50
180.0
 51
270.0
  0
LINE
  5
E00
330
1F
100
AcDbEntity
  8
TEXT
100
AcDbLine
 10
37.02584837807342
 20
16.48244076311556
 30
0.0
 11
37.02845169488953
 21
16.48244076311556
 31
0.0
  0
LINE
  5
E01
330
1F
100
AcDbEntity
  8
TEXT
100
AcDbLine
 10
37.02372012100707
 20
16.32243457535107
 30
0.0
 11
37.02372012100707
 21
16.24759842315745
 31
0.0
  0
ARC
  5
E02
330
1F
100
AcDbEntity
  8
TEXT
100
AcDbCircle
 10
36.99416679950235
 20
16.46923768390996
 30
0.0
 40
0.0343226415251557
100
AcDbArc
 50
22.62359623366325
 51
180.0
  0
LINE
  5
E03
330
1F
100
AcDbEntity
  8
TEXT
100
AcDbLine
 10
37.27976974211123
 20
16.58135148778793
 30
0.0
 11
37.31778866810832
 21
16.58135148778793
 31
0.0
  0
ARC
  5
E04
330
1F
100
AcDbEntity
  8
TEXT
100
AcDbCircle
 10
37.0107472755622
 20
16.3472111487967
 30
0.0
 40
0.0128841915879046
100
AcDbArc
 50
180.0000000000016
 51
359.9999999999984
  0
ARC
  5
E05
330
1F
100
AcDbEntity
  8
TEXT
100
AcDbCircle
 10
37.0107472755622
 20
16.46446431381152
 30
0.0
 40
0.0128841915879046
100
AcDbArc
 50
0.0
 51
180.0
  0
LINE
  5
E06
330
1F
100
AcDbEntity
  8
TEXT
100
AcDbLine
 10
37.02372012100707
 20
16.24759842315745
 30
0.0
 11
37.06173904700418
 21
16.24759842315745
 31
0.0
  0
LINE
  5
E07
330
1F
100
AcDbEntity
  8
TEXT
100
AcDbLine
 10
37.02845169488953
 20
16.49940427746066
 30
0.0
 11
37.06173904700418
 21
16.49940427746066
 31
0.0
  0
LINE
  5
E08
330
1F
100
AcDbEntity
  8
TEXT
100
AcDbLine
 10
36.91134595225721
 20
16.54904820309023
 30
0.0
 11
36.91134595225721
 21
16.58135148778793
 31
0.0
  0
LINE
  5
E09
330
1F
100
AcDbEntity
  8
TEXT
100
AcDbLine
 10
36.84763689293184
 20
16.43439456786129
 30
0.0
 11
36.84763689293184
 21
16.34260115267154
 31
0.0
  0
LINE
  5
E0A
330
1F
100
AcDbEntity
  8
TEXT
100
AcDbLine
 10
36.90669919463533
 20
16.4343945678613
 30
0.0
 11
36.90669919463533
 21
16.466697852559
 31
0.0
  0
LINE
  5
E0B
330
1F
100
AcDbEntity
  8
TEXT
100
AcDbLine
 10
36.91134595225721
 20
16.310285065574
 30
0.0
 11
36.91134595225721
 21
16.34260115267154
 31
0.0
  0
LINE
  5
E0C
330
1F
100
AcDbEntity
  8
TEXT
100
AcDbLine
 10
36.84763689293184
 20
16.4343945678613
 30
0.0
 11
36.90669919463533
 21
16.4343945678613
 31
0.0
  0
LINE
  5
E0D
330
1F
100
AcDbEntity
  8
TEXT
100
AcDbLine
 10
36.84763689293187
 20
16.466697852559
 30
0.0
 11
36.90669919463533
 21
16.466697852559
 31
0.0
  0
ARC
  5
E0E
330
1F
100
AcDbEntity
  8
TEXT
100
AcDbCircle
 10
36.69787417812238
 20
16.36435642699209
 30
0.0
 40
0.0597742003176558
100
AcDbArc
 50
180.0
 51
0.0
  0
ARC
  5
E0F
330
1F
100
AcDbEntity
  8
TEXT
100
AcDbCircle
 10
36.69787417812238
 20
16.52729292876967
 30
0.0
 40
0.0597742003176558
100
AcDbArc
 50
0.0
 51
180.0
  0
LINE
  5
E10
330
1F
100
AcDbEntity
  8
TEXT
100
AcDbLine
 10
36.99173781256365
 20
16.310285065574
 30
0.0
 11
36.99867268703418
 21
16.310285065574
 31
0.0
  0
LINE
  5
E11
330
1F
100
AcDbEntity
  8
TEXT
100
AcDbLine
 10
36.80961796693476
 20
16.58135148778793
 30
0.0
 11
36.91134595225721
 21
16.58135148778793
 31
0.0
  0
LINE
  5
E12
330
1F
100
AcDbEntity
  8
TEXT
100
AcDbLine
 10
36.84763689293184
 20
16.54904820309023
 30
0.0
 11
36.91134595225721
 21
16.54904820309023
 31
0.0
  0
LINE
  5
E13
330
1F
100
AcDbEntity
  8
TEXT
100
AcDbLine
 10
36.84763689293184
 20
16.34260115267154
 30
0.0
 11
36.91134595225721
 21
16.34260115267154
 31
0.0
  0
LINE
  5
E14
330
1F
100
AcDbEntity
  8
TEXT
100
AcDbLine
 10
36.80961796693476
 20
16.310285065574
 30
0.0
 11
36.91134595225721
 21
16.310285065574
 31
0.0
  0
ARC
  5
E15
330
1F
100
AcDbEntity
  8
TEXT
100
AcDbCircle
 10
36.69787417812238
 20
16.36435642699209
 30
0.0
 40
0.0217552743205602
100
AcDbArc
 50
180.0
 51
0.0
  0
ARC
  5
E16
330
1F
100
AcDbEntity
  8
TEXT
100
AcDbCircle
 10
36.69787417812238
 20
16.52729292876967
 30
0.0
 40
0.0217552743205602
100
AcDbArc
 50
0.0
 51
180.0
  0
LINE
  5
E17
330
1F
100
AcDbEntity
  8
TEXT
100
AcDbLine
 10
37.54435560164651
 20
16.45069173658541
 30
0.0
 11
37.54435560164651
 21
16.39320396338218
 31
0.0
  0
LINE
  5
E18
330
1F
100
AcDbEntity
  8
TEXT
100
AcDbLine
 10
37.50633667564942
 20
16.46310985092023
 30
0.0
 11
37.50633667564942
 21
16.41803131366302
 31
0.0
  0
LINE
  5
E19
330
1F
100
AcDbEntity
  8
TEXT
100
AcDbLine
 10
37.47574806473419
 20
16.46203532687281
 30
0.0
 11
37.47574806473418
 21
16.41803131366302
 31
0.0
  0
LINE
  5
E1A
330
1F
100
AcDbEntity
  8
TEXT
100
AcDbLine
 10
37.43772913873711
 20
16.44868556182183
 30
0.0
 11
37.43772913873711
 21
16.36361717009771
 31
0.0
  0
LINE
  5
E1B
330
1F
100
AcDbEntity
  8
TEXT
100
AcDbLine
 10
37.02845169488953
 20
16.49940427746066
 30
0.0
 11
37.02845169488953
 21
16.48244076311556
 31
0.0
  0
LINE
  5
E1C
330
1F
100
AcDbEntity
  8
TEXT
100
AcDbLine
 10
37.06173904700418
 20
16.49940427746065
 30
0.0
 11
37.06173904700418
 21
16.24759842315745
 31
0.0
  0
LINE
  5
E1D
330
1F
100
AcDbEntity
  8
TEXT
100
AcDbLine
 10
37.02372012100707
 20
16.4644643138115
 30
0.0
 11
37.02372012100707
 21
16.3472111487967
 31
0.0
  0
LINE
  5
E1E
330
1F
100
AcDbEntity
  8
TEXT
100
AcDbLine
 10
36.99786308397429
 20
16.4644643138115
 30
0.0
 11
36.99786308397429
 21
16.3472111487967
 31
0.0
  0
LINE
  5
E1F
330
1F
100
AcDbEntity
  8
TEXT
100
AcDbLine
 10
36.95984415797719
 20
16.46923768390995
 30
0.0
 11
36.95984415797719
 21
16.34217872016045
 31
0.0
  0
LINE
  5
E20
330
1F
100
AcDbEntity
  8
TEXT
100
AcDbLine
 10
36.84763689293184
 20
16.54904820309023
 30
0.0
 11
36.84763689293187
 21
16.466697852559
 31
0.0
  0
LINE
  5
E21
330
1F
100
AcDbEntity
  8
TEXT
100
AcDbLine
 10
36.80961796693476
 20
16.58135148778792
 30
0.0
 11
36.80961796693476
 21
16.310285065574
 31
0.0
  0
LINE
  5
E22
330
1F
100
AcDbEntity
  8
TEXT
100
AcDbLine
 10
36.71971863193483
 20
16.52729292876967
 30
0.0
 11
36.71971863193483
 21
16.50514321877286
 31
0.0
  0
LINE
  5
E23
330
1F
100
AcDbEntity
  8
TEXT
100
AcDbLine
 10
36.75773755793194
 20
16.52729292876967
 30
0.0
 11
36.75773755793194
 21
16.50514321877286
 31
0.0
  0
LINE
  5
E24
330
1F
100
AcDbEntity
  8
TEXT
100
AcDbLine
 10
36.67611890380182
 20
16.52729292876966
 30
0.0
 11
36.67611890380182
 21
16.36435642699209
 31
0.0
  0
LINE
  5
E25
330
1F
100
AcDbEntity
  8
TEXT
100
AcDbLine
 10
36.63809997780473
 20
16.52729292876966
 30
0.0
 11
36.63809997780473
 21
16.36435642699209
 31
0.0
  0
LINE
  5
E26
330
1F
100
AcDbEntity
  8
TEXT
100
AcDbLine
 10
36.58030495925699
 20
16.58135148778792
 30
0.0
 11
36.58030495925699
 21
16.310285065574
 31
0.0
  0
LINE
  5
E27
330
1F
100
AcDbEntity
  8
TEXT
100
AcDbLine
 10
36.5422860332599
 20
16.58135148778792
 30
0.0
 11
36.5422860332599
 21
16.310285065574
 31
0.0
  0
LINE
  5
E28
330
1F
100
AcDbEntity
  8
TEXT
100
AcDbLine
 10
36.5422860332599
 20
16.310285065574
 30
0.0
 11
36.58030495925699
 21
16.310285065574
 31
0.0
  0
LINE
  5
E29
330
1F
100
AcDbEntity
  8
TEXT
100
AcDbLine
 10
36.5422860332599
 20
16.58135148778793
 30
0.0
 11
36.58030495925699
 21
16.58135148778793
 31
0.0
  0
TEXT
  5
E2A
330
1F
100
AcDbEntity
  8
TEXT
100
AcDbText
 10
37.90716318211215
 20
16.25368862185559
 30
0.0
 40
0.033894538062653
  1
FAX  724-837-3386
 72
     1
 11
38.18961766596759
 21
16.27063589088691
 31
0.0
100
AcDbText
 73
     2
  0
TEXT
  5
E2B
330
1F
100
AcDbEntity
  8
TEXT
100
AcDbText
 10
37.91281227178926
 20
16.52484492635682
 30
0.0
 40
0.033894538062653
  1
141 WILSON AVENUE
 72
     1
 11
38.18961766596759
 21
16.54179219538814
 31
0.0
100
AcDbText
 73
     2
  0
TEXT
  5
E2C
330
1F
100
AcDbEntity
  8
TEXT
100
AcDbText
 10
37.86197046469528
 20
16.43445949152307
 30
0.0
 40
0.033894538062653
  1
GREENSBURG, PA  15601
 72
     1
 11
38.18961766596759
 21
16.4514067605544
 31
0.0
100
AcDbText
 73
     2
  0
TEXT
  5
E2D
330
1F
100
AcDbEntity
  8
TEXT
100
AcDbText
 10
37.74333958147599
 20
16.61071108944887
 30
0.0
 40
0.033894538062653
  1
INDUSTRIAL COOLING EQUIPMENT
 72
     1
 11
38.18961766596759
 21
16.62765835848019
 31
0.0
100
AcDbText
 73
     2
  0
TEXT
  5
E2E
330
1F
100
AcDbEntity
  8
TEXT
100
AcDbText
 10
37.67837505018924
 20
16.34407405668933
 30
0.0
 40
0.033894538062653
  1
724-837-2204  *  1-888-867-8234
 72
     1
 11
38.18961766596759
 21
16.36102132572065
 31
0.0
100
AcDbText
 73
     2
  0
LINE
  5
E2F
330
1F
100
AcDbEntity
  8
BORDER
100
AcDbLine
 10
29.79926054131205
 20
15.94937431734444
 30
0.0
 11
25.10005030044189
 21
15.94937431734444
 31
0.0
  0
TEXT
  5
E30
330
1F
100
AcDbEntity
  8
TEXT
100
AcDbText
 10
25.24016168547963
 20
15.84090098699263
 30
0.0
 40
0.072315553567862
  1
0
 72
     1
 11
25.25824057387159
 21
15.87705876377656
 31
0.0
100
AcDbText
 73
     2
  0
TEXT
  5
E32
330
1F
100
AcDbEntity
  8
TEXT
100
AcDbText
 10
26.4345735785755
 20
15.84090098699263
 30
0.0
 40
0.072315553567862
  1
INITIAL RELEASE
 72
     1
 11
26.92872986128923
 21
15.87705876377656
 31
0.0
100
AcDbText
 73
     2
  0
TEXT
  5
E33
330
1F
100
AcDbEntity
  8
TEXT
100
AcDbText
 10
29.34191240590269
 20
15.84090098699263
 30
0.0
 40
0.072315553567862
  1
JMH
 72
     1
 11
29.43833314399317
 21
15.87705876377656
 31
0.0
100
AcDbText
 73
     2
  0
TEXT
  5
E35
330
1F
100
AcDbEntity
  8
TEXT
100
AcDbText
 10
28.5603495386641
 20
15.84090098699263
 30
0.0
 40
0.072315553567862
  1
9-9-08
 72
     1
 11
28.75921731097572
 21
15.87705876377656
 31
0.0
100
AcDbText
 73
     2
  0
LINE
  5
E37
330
1F
100
AcDbEntity
  8
BORDER
100
AcDbLine
 10
29.79926054131205
 20
15.66011210307297
 30
0.0
 11
25.10005030044189
 21
15.66011210307297
 31
0.0
  0
LINE
  5
E38
330
1F
100
AcDbEntity
  8
BORDER
100
AcDbLine
 10
29.79926054131205
 20
15.80474321020871
 30
0.0
 11
25.10005030044189
 21
15.80474321020871
 31
0.0
  0
TEXT
  5
E39
330
1F
100
AcDbEntity
  8
TEXT
100
AcDbText
 10
25.1497672435198
 20
15.6962698798569
 30
0.0
 40
0.072315553567862
  1
REV
 72
     1
 11
25.25824057387159
 21
15.73242765664083
 31
0.0
100
AcDbText
 73
     2
  0
LINE
  5
E3A
330
1F
100
AcDbEntity
  8
BORDER
100
AcDbLine
 10
25.10005030044189
 20
15.51548099593725
 30
0.0
 11
25.10005030044189
 21
16.38326763875166
 31
0.0
  0
LINE
  5
E3B
330
1F
100
AcDbEntity
  8
BORDER
100
AcDbLine
 10
25.41643084730129
 20
15.66011210307297
 30
0.0
 11
25.41643084730129
 21
15.94937431734444
 31
0.0
  0
TEXT
  5
E3C
330
1F
100
AcDbEntity
  8
TEXT
100
AcDbText
 10
26.56715209344992
 20
15.6962698798569
 30
0.0
 40
0.072315553567862
  1
DESCRIPTION
 72
     1
 11
26.92872986128923
 21
15.73242765664083
 31
0.0
100
AcDbText
 73
     2
  0
TEXT
  5
E3D
330
1F
100
AcDbEntity
  8
TEXT
100
AcDbText
 10
29.19728129876697
 20
15.6962698798569
 30
0.0
 40
0.072315553567862
  1
CHECKED
 72
     1
 11
29.43833314399317
 21
15.73242765664083
 31
0.0
100
AcDbText
 73
     2
  0
LINE
  5
E3E
330
1F
100
AcDbEntity
  8
BORDER
100
AcDbLine
 10
29.0774057466743
 20
15.66011210307297
 30
0.0
 11
29.0774057466743
 21
15.94937431734444
 31
0.0
  0
TEXT
  5
E3F
330
1F
100
AcDbEntity
  8
TEXT
100
AcDbText
 10
28.6266387961013
 20
15.6962698798569
 30
0.0
 40
0.072315553567862
  1
DATE
 72
     1
 11
28.75921731097572
 21
15.73242765664083
 31
0.0
100
AcDbText
 73
     2
  0
LINE
  5
E40
330
1F
100
AcDbEntity
  8
BORDER
100
AcDbLine
 10
28.44102887527713
 20
15.66011210307297
 30
0.0
 11
28.44102887527711
 21
15.94937431734444
 31
0.0
  0
LINE
  5
E41
330
1F
100
AcDbEntity
  8
BORDER
100
AcDbLine
 10
25.10005030044189
 20
15.66011210307297
 30
0.0
 11
29.79926054131205
 21
15.66011210307297
 31
0.0
  0
LINE
  5
E42
330
1F
100
AcDbEntity
  8
BORDER
100
AcDbLine
 10
29.79926054131205
 20
15.94937431734444
 30
0.0
 11
29.79926054131205
 21
15.51548099593725
 31
0.0
  0
LINE
  5
E43
330
1F
100
AcDbEntity
  8
BORDER
100
AcDbLine
 10
29.79926054131205
 20
15.51548099593725
 30
0.0
 11
25.10005030044189
 21
15.51548099593725
 31
0.0
  0
TEXT
  5
E44
330
1F
100
AcDbEntity
  8
TEXT
100
AcDbText
 10
26.62741505475647
 20
15.55163877272116
 30
0.0
 40
0.072315553567862
  1
REVISIONS
 72
     1
 11
26.92872986128923
 21
15.58779654950509
 31
0.0
100
AcDbText
 73
     2
  0
TEXT
  5
E4E
330
1F
100
AcDbEntity
  8
DIMENSION
100
AcDbText
 10
30.68376350338292
 20
32.3186143842357
 30
0.0
 40
0.4108
  1
IQ100FPP
 72
     1
 11
32.05309683671626
 21
32.52401438423569
 31
0.0
100
AcDbText
 73
     2
  0
TEXT
  5
E4F
330
1F
100
AcDbEntity
  8
DIMENSION
100
AcDbText
 10
29.24596350338293
 20
31.66051507713593
 30
0.0
 40
0.4108
  1
CUTOUT DRAWING
 72
     1
 11
32.05309683671626
 21
31.86591507713593
 31
0.0
100
AcDbText
 73
     2
  0
DIMENSION
  5
ED8
102
{ACAD_XDICTIONARY
360
EE1
102
}
102
{ACAD_REACTORS
330
EE7
102
}
330
1F
100
AcDbEntity
  8
0
100
AcDbDimension
  2
*D15
 10
29.04977887590689
 20
20.79565753773976
 30
0.0
 11
27.27644554257356
 21
20.79565753773976
 31
0.0
 70
    38
 71
     5
 42
0.0000000000000036
  3
Standard
100
AcDbOrdinateDimension
 13
29.04977887590689
 23
20.79565753773976
 33
0.0
 14
28.0497788759069
 24
20.79565753773976
 34
0.0
  0
DIMENSION
  5
EE8
330
1F
100
AcDbEntity
  8
0
100
AcDbDimension
  2
*D16
 10
29.04977887590689
 20
20.79565753773976
 30
0.0
 11
29.04977887590689
 21
19.02232420440643
 31
0.0
 70
   102
 71
     5
 42
0.0
  3
Standard
100
AcDbOrdinateDimension
 13
29.04977887590689
 23
20.79565753773976
 33
0.0
 14
29.04977887590689
 24
19.79565753773975
 34
0.0
  0
DIMENSION
  5
F10
330
1F
100
AcDbEntity
  8
0
100
AcDbDimension
  2
*D17
 10
29.04977887590689
 20
20.79565753773976
 30
0.0
 11
31.96977887590689
 21
18.23649087107309
 31
0.0
 70
   102
  1
(2) <>
 71
     5
 42
2.920000000000001
  3
Standard
100
AcDbOrdinateDimension
 13
31.9697788759069
 23
21.15315753773976
 33
0.0
 14
31.9697788759069
 24
19.79565753773975
 34
0.0
  0
DIMENSION
  5
F20
330
1F
100
AcDbEntity
  8
0
100
AcDbDimension
  2
*D18
 10
29.04977887590689
 20
20.79565753773976
 30
0.0
 11
34.54977887590689
 21
18.27065753773975
 31
0.0
 70
   102
  1
(3) <>
 71
     5
 42
5.499999999999996
  3
Standard
100
AcDbOrdinateDimension
 13
34.5497788759069
 23
21.15315753773976
 33
0.0
 14
34.5497788759069
 24
19.79565753773974
 34
0.0
  0
DIMENSION
  5
F30
330
1F
100
AcDbEntity
  8
0
100
AcDbDimension
  2
*D19
 10
29.04977887590689
 20
20.79565753773976
 30
0.0
 11
37.10467613637076
 21
21.15315753773976
 31
0.0
 70
   166
  1
<> (3) 
 71
     5
 42
0.3575000000000017
  3
Standard
100
AcDbOrdinateDimension
 13
34.5497788759069
 23
21.15315753773976
 33
0.0
 14
35.54550946970409
 24
21.15315753773976
 34
0.0
  0
DIMENSION
  5
F39
102
{ACAD_XDICTIONARY
360
F42
102
}
102
{ACAD_REACTORS
330
F48
102
}
330
1F
100
AcDbEntity
  8
0
100
AcDbDimension
  2
*D20
 10
29.04977887590689
 20
20.79565753773976
 30
0.0
 11
34.88977887590689
 21
28.54649087107309
 31
0.0
 70
   102
 71
     5
 42
5.839999999999999
  3
Standard
100
AcDbOrdinateDimension
 13
34.8897788759069
 23
26.67065753773975
 33
0.0
 14
34.8897788759069
 24
27.67065753773975
 34
0.0
  0
DIMENSION
  5
F49
330
1F
100
AcDbEntity
  8
0
100
AcDbDimension
  2
*D21
 10
29.04977887590689
 20
20.79565753773976
 30
0.0
 11
36.7997788759069
 21
26.67065753773975
 31
0.0
 70
    38
 71
     5
 42
5.874999999999992
  3
Standard
100
AcDbOrdinateDimension
 13
34.8897788759069
 23
26.67065753773975
 33
0.0
 14
35.8897788759069
 24
26.67065753773975
 34
0.0
  0
DIMENSION
  5
F52
330
1F
100
AcDbEntity
  8
0
100
AcDbDimension
  2
*D22
 10
29.04977887590689
 20
20.79565753773976
 30
0.0
 11
26.94406689725031
 21
26.31315753773976
 31
0.0
 70
   166
  1
(3) <>
 71
     5
 42
5.517500000000001
  3
Standard
100
AcDbOrdinateDimension
 13
29.3897788759069
 23
26.31315753773976
 33
0.0
 14
28.46906689725031
 24
26.31315753773976
 34
0.0
  0
DIMENSION
  5
F62
102
{ACAD_XDICTIONARY
360
F6B
102
}
102
{ACAD_REACTORS
330
F71
102
}
330
1F
100
AcDbEntity
  8
0
100
AcDbDimension
  2
*D23
 10
29.04977887590689
 20
20.79565753773976
 30
0.0
 11
34.11576760987664
 21
28.58065753773976
 31
0.0
 70
   102
 71
     5
 42
5.292499999999993
  3
Standard
100
AcDbOrdinateDimension
 13
34.34227887590689
 23
26.10565753773975
 33
0.0
 14
34.11576760987664
 24
27.67065753773975
 34
0.0
1001
ACAD
1000
DSTYLE
1002
{
1070
    41
1040
0.2
1002
}
  0
DIMENSION
  5
F72
330
1F
100
AcDbEntity
  8
0
100
AcDbDimension
  2
*D24
 10
29.04977887590689
 20
20.79565753773976
 30
0.0
 11
36.6972788759069
 21
25.8966462717095
 31
0.0
 70
    38
 71
     5
 42
5.309999999999991
  3
Standard
100
AcDbOrdinateDimension
 13
34.34227887590689
 23
26.10565753773975
 33
0.0
 14
35.8897788759069
 24
25.8966462717095
 34
0.0
1001
ACAD
1000
DSTYLE
1002
{
1070
    41
1040
0.2
1002
}
  0
DIMENSION
  5
F7B
102
{ACAD_XDICTIONARY
360
F86
102
}
102
{ACAD_REACTORS
330
F8E
102
}
330
1F
100
AcDbEntity
  8
0
100
AcDbDimension
  2
*D25
 10
29.04977887590689
 20
20.79565753773976
 30
0.0
 11
29.82379014193714
 21
18.91982420440642
 31
0.0
 70
   102
 71
     5
 42
0.5474999999999995
  3
Standard
100
AcDbOrdinateDimension
 13
29.5972788759069
 23
21.36065753773975
 33
0.0
 14
29.82379014193715
 24
19.79565753773975
 34
0.0
1001
ACAD
1000
DSTYLE
1002
{
1070
    41
1040
0.2
1002
}
  0
DIMENSION
  5
F8F
102
{ACAD_XDICTIONARY
360
F9A
102
}
102
{ACAD_REACTORS
330
FA2
102
}
330
1F
100
AcDbEntity
  8
0
100
AcDbDimension
  2
*D26
 10
29.04977887590689
 20
20.79565753773976
 30
0.0
 11
27.17394554257356
 21
21.56966880377002
 31
0.0
 70
    38
 71
     5
 42
0.5649999999999907
  3
Standard
100
AcDbOrdinateDimension
 13
29.5972788759069
 23
21.36065753773975
 33
0.0
 14
28.0497788759069
 24
21.56966880377002
 34
0.0
1001
ACAD
1000
DSTYLE
1002
{
1070
    41
1040
0.2
1002
}
  0
DIMENSION
  5
FA3
330
1F
100
AcDbEntity
  8
0
100
AcDbDimension
  2
*D27
 10
29.04977887590689
 20
20.79565753773976
 30
0.0
 11
29.3897788759069
 21
29.19565753773975
 31
0.0
 70
   102
  1
<> (3) 
 71
     5
 42
0.3399999999999999
  3
Standard
100
AcDbOrdinateDimension
 13
29.3897788759069
 23
26.31315753773976
 33
0.0
 14
29.3897788759069
 24
27.67065753773975
 34
0.0
  0
DIMENSION
  5
FC5
330
1F
100
AcDbEntity
  8
0
100
AcDbDimension
  2
*D28
 10
29.04977887590689
 20
20.79565753773976
 30
0.0
 11
37.02729625194007
 21
23.73315753773976
 31
0.0
 70
   166
  1
<> (2)
 71
     5
 42
2.9375
  3
Standard
100
AcDbOrdinateDimension
 13
34.5497788759069
 23
23.73315753773976
 33
0.0
 14
35.43396291860674
 24
23.73315753773976
 34
0.0
  0
CIRCLE
  5
11AD
102
{ACAD_REACTORS
330
11E7
102
}
330
1F
100
AcDbEntity
  8
0
100
AcDbCircle
 10
29.38977887590689
 20
23.73315753773976
 30
0.0
 40
0.094
  0
CIRCLE
  5
11B6
330
1F
100
AcDbEntity
  8
0
100
AcDbCircle
 10
29.3897788759069
 20
26.31315753773976
 30
0.0
 40
0.094
  0
CIRCLE
  5
11B7
330
1F
100
AcDbEntity
  8
0
100
AcDbCircle
 10
31.9697788759069
 20
26.31315753773976
 30
0.0
 40
0.094
  0
CIRCLE
  5
11B8
330
1F
100
AcDbEntity
  8
0
100
AcDbCircle
 10
34.5497788759069
 20
26.31315753773976
 30
0.0
 40
0.094
  0
CIRCLE
  5
11B9
330
1F
100
AcDbEntity
  8
0
100
AcDbCircle
 10
34.5497788759069
 20
23.73315753773976
 30
0.0
 40
0.094
  0
CIRCLE
  5
11BA
330
1F
100
AcDbEntity
  8
0
100
AcDbCircle
 10
34.5497788759069
 20
21.15315753773976
 30
0.0
 40
0.094
  0
CIRCLE
  5
11BB
330
1F
100
AcDbEntity
  8
0
100
AcDbCircle
 10
31.9697788759069
 20
21.15315753773976
 30
0.0
 40
0.094
  0
CIRCLE
  5
11BC
330
1F
100
AcDbEntity
  8
0
100
AcDbCircle
 10
29.38977887590691
 20
21.15315753773976
 30
0.0
 40
0.094
  0
DIMENSION
  5
11D2
102
{ACAD_XDICTIONARY
360
11DE
102
}
102
{ACAD_REACTORS
330
11E7
102
}
330
1F
100
AcDbEntity
  8
0
100
AcDbDimension
  2
*D30
 10
29.42953698408665
 20
23.64797953098938
 30
0.0
 11
26.89736138431503
 21
24.56137773103593
 31
0.0
 70
    35
  1
(8) <>
 71
     5
 42
0.187999999999997
  3
Standard
100
AcDbDiametricDimension
 15
29.35002076772713
 25
23.81833554449012
 35
0.0
 40
0.0
1001
ACAD
1000
DSTYLE
1002
{
1070
   288
1070
     1
1002
}
  0
ENDSEC
  0
SECTION
  2
OBJECTS
  0
DICTIONARY
  5
C
330
0
100
AcDbDictionary
281
     1
  3
ACAD_COLOR
350
73
  3
ACAD_GROUP
350
D
  3
ACAD_LAYOUT
350
1A
  3
ACAD_MATERIAL
350
72
  3
ACAD_MLINESTYLE
350
17
  3
ACAD_PLOTSETTINGS
350
19
  3
ACAD_PLOTSTYLENAME
350
E
  3
ACDBHEADERROUNDTRIPXREC
350
129F
  3
AcDbVariableDictionary
350
66
  0
DICTIONARY
  5
158
330
2
100
AcDbDictionary
280
     1
281
     1
  3
ACAD_LAYERSTATES
360
159
  0
DICTIONARY
  5
EE1
330
ED8
100
AcDbDictionary
280
     1
281
     1
  3
ACAD_DIMASSOC
360
EE7
  0
DICTIONARY
  5
F42
330
F39
100
AcDbDictionary
280
     1
281
     1
  3
ACAD_DIMASSOC
360
F48
  0
DICTIONARY
  5
F6B
330
F62
100
AcDbDictionary
280
     1
281
     1
  3
ACAD_DIMASSOC
360
F71
  0
DICTIONARY
  5
F86
330
F7B
100
AcDbDictionary
280
     1
281
     1
  3
ACAD_DIMASSOC
360
F8E
  0
DICTIONARY
  5
F9A
330
F8F
100
AcDbDictionary
280
     1
281
     1
  3
ACAD_DIMASSOC
360
FA2
  0
DICTIONARY
  5
11DE
330
11D2
100
AcDbDictionary
280
     1
281
     1
  3
ACAD_DIMASSOC
360
11E7
  0
DICTIONARY
  5
73
102
{ACAD_REACTORS
330
C
102
}
330
C
100
AcDbDictionary
281
     1
  0
DICTIONARY
  5
D
102
{ACAD_REACTORS
330
C
102
}
330
C
100
AcDbDictionary
281
     1
  0
DICTIONARY
  5
1A
102
{ACAD_REACTORS
330
C
102
}
330
C
100
AcDbDictionary
281
     1
  3
Layout1
350
59
  3
Layout2
350
5E
  3
Model
350
22
  0
DICTIONARY
  5
72
102
{ACAD_REACTORS
330
C
102
}
330
C
100
AcDbDictionary
281
     1
  0
DICTIONARY
  5
17
102
{ACAD_REACTORS
330
C
102
}
330
C
100
AcDbDictionary
281
     1
  3
Standard
350
18
  0
DICTIONARY
  5
19
102
{ACAD_REACTORS
330
C
102
}
330
C
100
AcDbDictionary
281
     1
  0
ACDBDICTIONARYWDFLT
  5
E
102
{ACAD_REACTORS
330
C
102
}
330
C
100
AcDbDictionary
281
     1
  3
Normal
350
F
100
AcDbDictionaryWithDefault
340
F
  0
DICTIONARY
  5
129F
102
{ACAD_REACTORS
330
C
102
}
330
C
100
AcDbDictionary
281
     1
  3
COLORDICT
350
12A1
  3
MATERIALDICT
350
12A0
  0
DICTIONARY
  5
66
102
{ACAD_REACTORS
330
C
102
}
330
C
100
AcDbDictionary
281
     1
  3
DIMASSOC
350
67
  3
HIDETEXT
350
6B
  3
PROJECTNAME
350
125E
  0
DICTIONARY
  5
159
102
{ACAD_REACTORS
330
158
102
}
330
158
100
AcDbDictionary
281
     1
  0
DIMASSOC
  5
EE7
102
{ACAD_REACTORS
330
EE1
102
}
330
EE1
100
AcDbDimAssoc
330
ED8
 90
        2
 70
     0
 71
     0
  1
AcDbOsnapPointRef
 72
    13
331
BAB
 73
     2
 91
        0
 40
0.0
 10
0.0
 20
0.0
 30
2.000000000000000E+50
 75
     0
  0
DIMASSOC
  5
F48
102
{ACAD_REACTORS
330
F42
102
}
330
F42
100
AcDbDimAssoc
330
F39
 90
        2
 70
     0
 71
     0
  1
AcDbOsnapPointRef
 72
    13
331
BA9
 73
     2
 91
        0
 40
0.0
 10
0.0
 20
0.0
 30
2.000000000000000E+50
 75
     0
  0
DIMASSOC
  5
F71
102
{ACAD_REACTORS
330
F6B
102
}
330
F6B
100
AcDbDimAssoc
330
F62
 90
        2
 70
     0
 71
     0
  1
AcDbOsnapPointRef
 72
    13
331
C3D
 73
     2
 91
        0
 40
0.0
 10
0.0
 20
0.0
 30
2.000000000000000E+50
 75
     0
  0
DIMASSOC
  5
F8E
102
{ACAD_REACTORS
330
F86
102
}
330
F86
100
AcDbDimAssoc
330
F7B
 90
        2
 70
     0
 71
     0
  1
AcDbOsnapPointRef
 72
    11
331
C3F
 73
     2
 91
        0
 40
0.0000000000000015
 10
0.0
 20
0.0
 30
0.0
332
C3C
 74
     2
 92
        0
 75
     0
  0
DIMASSOC
  5
FA2
102
{ACAD_REACTORS
330
F9A
102
}
330
F9A
100
AcDbDimAssoc
330
F8F
 90
        2
 70
     0
 71
     0
  1
AcDbOsnapPointRef
 72
     1
331
C3C
 73
     2
 91
        0
 40
1.0
 10
0.0
 20
0.0
 30
2.000000000000000E+50
 75
     0
  0
DIMASSOC
  5
11E7
102
{ACAD_REACTORS
330
11DE
102
}
330
11DE
100
AcDbDimAssoc
330
11D2
 90
        2
 70
     0
 71
     0
  1
AcDbOsnapPointRef
 72
     3
331
11AD
 73
     2
 91
        0
 40
0.0
 10
0.0
 20
0.0
 30
0.0
 75
     0
  0
LAYOUT
  5
59
102
{ACAD_XDICTIONARY
360
12A4
102
}
102
{ACAD_REACTORS
330
1A
102
}
330
1A
100
AcDbPlotSettings
  1

  2
None
  4

  6

 40
0.0
 41
0.0
 42
0.0
 43
0.0
 44
0.0
 45
0.0
 46
0.0
 47
0.0
 48
0.0
 49
0.0
140
0.0
141
0.0
142
1.0
143
1.0
 70
   688
 72
     0
 73
     0
 74
     5
  7
monochrome.ctb
 75
    16
147
1.0
148
0.0
149
0.0
100
AcDbLayout
  1
Layout1
 70
     1
 71
     1
 10
0.0
 20
0.0
 11
12.0
 21
9.0
 12
0.0
 22
0.0
 32
0.0
 14
0.0
 24
0.0
 34
0.0
 15
0.0
 25
0.0
 35
0.0
146
0.0
 13
0.0
 23
0.0
 33
0.0
 16
1.0
 26
0.0
 36
0.0
 17
0.0
 27
1.0
 37
0.0
 76
     0
330
58
  0
LAYOUT
  5
5E
102
{ACAD_XDICTIONARY
360
12A6
102
}
102
{ACAD_REACTORS
330
1A
102
}
330
1A
100
AcDbPlotSettings
  1

  2
None
  4

  6

 40
0.0
 41
0.0
 42
0.0
 43
0.0
 44
0.0
 45
0.0
 46
0.0
 47
0.0
 48
0.0
 49
0.0
140
0.0
141
0.0
142
1.0
143
1.0
 70
   688
 72
     0
 73
     0
 74
     5
  7
monochrome.ctb
 75
    16
147
1.0
148
0.0
149
0.0
100
AcDbLayout
  1
Layout2
 70
     1
 71
     2
 10
0.0
 20
0.0
 11
12.0
 21
9.0
 12
0.0
 22
0.0
 32
0.0
 14
0.0
 24
0.0
 34
0.0
 15
0.0
 25
0.0
 35
0.0
146
0.0
 13
0.0
 23
0.0
 33
0.0
 16
1.0
 26
0.0
 36
0.0
 17
0.0
 27
1.0
 37
0.0
 76
     0
330
5D
  0
LAYOUT
  5
22
102
{ACAD_XDICTIONARY
360
12A2
102
}
102
{ACAD_REACTORS
330
1A
102
}
330
1A
100
AcDbPlotSettings
  1

  2
Adobe PDF
  4
Letter
  6

 40
3.174999952316284
 41
3.174999952316284
 42
3.175003051757812
 43
3.17498779296875
 44
215.8999938964844
 45
279.3999938964844
 46
1.016
 47
0.0
 48
24.39675137347566
 49
14.76304997932046
140
55.62279035286204
141
55.85143268833297
142
1.0
143
3.822175049617129
 70
 11956
 72
     0
 73
     0
 74
     4
  7
monochrome.ctb
 75
     0
147
0.2616311359418693
148
-619.6774848862818
149
-374.9814694747398
100
AcDbLayout
  1
Model
 70
     1
 71
     0
 10
0.0
 20
0.0
 11
12.0
 21
9.0
 12
0.0
 22
0.0
 32
0.0
 14
0.0
 24
0.0
 34
0.0
 15
0.0
 25
0.0
 35
0.0
146
0.0
 13
0.0
 23
0.0
 33
0.0
 16
1.0
 26
0.0
 36
0.0
 17
0.0
 27
1.0
 37
0.0
 76
     0
330
1F
  0
MLINESTYLE
  5
18
102
{ACAD_REACTORS
330
17
102
}
330
17
100
AcDbMlineStyle
  2
STANDARD
 70
     0
  3

 62
   256
 51
90.0
 52
90.0
 71
     2
 49
0.5
 62
   256
  6
BYLAYER
 49
-0.5
 62
   256
  6
BYLAYER
  0
ACDBPLACEHOLDER
  5
F
102
{ACAD_REACTORS
330
E
102
}
330
E
  0
XRECORD
  5
12A1
102
{ACAD_REACTORS
330
129F
102
}
330
129F
100
AcDbXrecord
280
     1
340
73
  0
XRECORD
  5
12A0
102
{ACAD_REACTORS
330
129F
102
}
330
129F
100
AcDbXrecord
280
     1
340
72
  0
DICTIONARYVAR
  5
67
102
{ACAD_REACTORS
330
66
102
}
330
66
100
DictionaryVariables
280
     0
  1
2
  0
DICTIONARYVAR
  5
6B
102
{ACAD_REACTORS
330
66
102
}
330
66
100
DictionaryVariables
280
     0
  1
1
  0
DICTIONARYVAR
  5
125E
102
{ACAD_REACTORS
330
66
102
}
330
66
100
DictionaryVariables
280
     0
  1

  0
DICTIONARY
  5
12A4
330
59
100
AcDbDictionary
280
     1
281
     1
  3
ACAD_XREC_ROUNDTRIP
360
12A5
  0
DICTIONARY
  5
12A6
330
5E
100
AcDbDictionary
280
     1
281
     1
  3
ACAD_XREC_ROUNDTRIP
360
12A7
  0
DICTIONARY
  5
12A2
330
22
100
AcDbDictionary
280
     1
281
     1
  3
ACAD_XREC_ROUNDTRIP
360
12A3
  0
XRECORD
  5
12A5
102
{ACAD_REACTORS
330
12A4
102
}
330
12A4
100
AcDbXrecord
280
     1
102
SHADEPLOT
 70
     0
102
SHADEPLOTRESLEVEL
 70
     2
102
SHADEPLOTCUSTOMDPI
 70
   300
  0
XRECORD
  5
12A7
102
{ACAD_REACTORS
330
12A6
102
}
330
12A6
100
AcDbXrecord
280
     1
102
SHADEPLOT
 70
     0
102
SHADEPLOTRESLEVEL
 70
     2
102
SHADEPLOTCUSTOMDPI
 70
   300
  0
XRECORD
  5
12A3
102
{ACAD_REACTORS
330
12A2
102
}
330
12A2
100
AcDbXrecord
280
     1
102
SHADEPLOT
 70
     0
102
SHADEPLOTRESLEVEL
 70
     2
102
SHADEPLOTCUSTOMDPI
 70
   300
  0
ENDSEC
  0
EOF
