  0
SECTION
  2
HEADER
  9
$ACADVER
  1
AC1015
  9
$ACADMAINTVER
 70
    20
  9
$DWGCODEPAGE
  3
ANSI_1252
  9
$INSBASE
 10
0.0
 20
0.0
 30
0.0
  9
$EXTMIN
 10
22.51483155837176
 20
4.86638757204286
 30
0.0
  9
$EXTMAX
 10
69.27094924560927
 20
66.38982507204294
 30
0.0
  9
$LIMMIN
 10
0.0
 20
0.0
  9
$LIMMAX
 10
12.0
 20
9.0
  9
$ORTHOMODE
 70
     1
  9
$REGENMODE
 70
     1
  9
$FILLMODE
 70
     1
  9
$QTEXTMODE
 70
     0
  9
$MIRRTEXT
 70
     0
  9
$LTSCALE
 40
1.0
  9
$ATTMODE
 70
     1
  9
$TEXTSIZE
 40
0.2
  9
$TRACEWID
 40
0.05
  9
$TEXTSTYLE
  7
Standard
  9
$CLAYER
  8
0
  9
$CELTYPE
  6
ByLayer
  9
$CECOLOR
 62
   256
  9
$CELTSCALE
 40
1.0
  9
$DISPSILH
 70
     0
  9
$DIMSCALE
 40
1.0
  9
$DIMASZ
 40
1.0
  9
$DIMEXO
 40
0.2
  9
$DIMDLI
 40
0.38
  9
$DIMRND
 40
0.0
  9
$DIMDLE
 40
0.0
  9
$DIMEXE
 40
0.18
  9
$DIMTP
 40
0.0
  9
$DIMTM
 40
0.0
  9
$DIMTXT
 40
1.0
  9
$DIMCEN
 40
0.09
  9
$DIMTSZ
 40
0.0
  9
$DIMTOL
 70
     0
  9
$DIMLIM
 70
     0
  9
$DIMTIH
 70
     1
  9
$DIMTOH
 70
     1
  9
$DIMSE1
 70
     0
  9
$DIMSE2
 70
     0
  9
$DIMTAD
 70
     0
  9
$DIMZIN
 70
     0
  9
$DIMBLK
  1

  9
$DIMASO
 70
     1
  9
$DIMSHO
 70
     1
  9
$DIMPOST
  1

  9
$DIMAPOST
  1

  9
$DIMALT
 70
     0
  9
$DIMALTD
 70
     2
  9
$DIMALTF
 40
25.4
  9
$DIMLFAC
 40
1.0
  9
$DIMTOFL
 70
     0
  9
$DIMTVP
 40
0.0
  9
$DIMTIX
 70
     0
  9
$DIMSOXD
 70
     0
  9
$DIMSAH
 70
     0
  9
$DIMBLK1
  1

  9
$DIMBLK2
  1

  9
$DIMSTYLE
  2
Standard
  9
$DIMCLRD
 70
     0
  9
$DIMCLRE
 70
     0
  9
$DIMCLRT
 70
     0
  9
$DIMTFAC
 40
1.0
  9
$DIMGAP
 40
0.09
  9
$DIMJUST
 70
     0
  9
$DIMSD1
 70
     0
  9
$DIMSD2
 70
     0
  9
$DIMTOLJ
 70
     1
  9
$DIMTZIN
 70
     0
  9
$DIMALTZ
 70
     0
  9
$DIMALTTZ
 70
     0
  9
$DIMUPT
 70
     0
  9
$DIMDEC
 70
     3
  9
$DIMTDEC
 70
     3
  9
$DIMALTU
 70
     2
  9
$DIMALTTD
 70
     2
  9
$DIMTXSTY
  7
Standard
  9
$DIMAUNIT
 70
     0
  9
$DIMADEC
 70
     0
  9
$DIMALTRND
 40
0.0
  9
$DIMAZIN
 70
     0
  9
$DIMDSEP
 70
    46
  9
$DIMATFIT
 70
     3
  9
$DIMFRAC
 70
     0
  9
$DIMLDRBLK
  1

  9
$DIMLUNIT
 70
     2
  9
$DIMLWD
 70
    -2
  9
$DIMLWE
 70
    -2
  9
$DIMTMOVE
 70
     0
  9
$LUNITS
 70
     2
  9
$LUPREC
 70
     4
  9
$SKETCHINC
 40
0.1
  9
$FILLETRAD
 40
0.0
  9
$AUNITS
 70
     0
  9
$AUPREC
 70
     0
  9
$MENU
  1
.
  9
$ELEVATION
 40
0.0
  9
$PELEVATION
 40
0.0
  9
$THICKNESS
 40
0.0
  9
$LIMCHECK
 70
     0
  9
$CHAMFERA
 40
0.0
  9
$CHAMFERB
 40
0.0
  9
$CHAMFERC
 40
0.0
  9
$CHAMFERD
 40
0.0
  9
$SKPOLY
 70
     0
  9
$TDCREATE
 40
2455303.392407037
  9
$TDUCREATE
 40
2455303.559073704
  9
$TDUPDATE
 40
2455722.496415648
  9
$TDUUPDATE
 40
2455722.663082315
  9
$TDINDWG
 40
0.0121442361
  9
$TDUSRTIMER
 40
0.0121436806
  9
$USRTIMER
 70
     1
  9
$ANGBASE
 50
0.0
  9
$ANGDIR
 70
     0
  9
$PDMODE
 70
     0
  9
$PDSIZE
 40
0.0
  9
$PLINEWID
 40
0.0
  9
$SPLFRAME
 70
     0
  9
$SPLINETYPE
 70
     6
  9
$SPLINESEGS
 70
     8
  9
$HANDSEED
  5
9B1
  9
$SURFTAB1
 70
     6
  9
$SURFTAB2
 70
     6
  9
$SURFTYPE
 70
     6
  9
$SURFU
 70
     6
  9
$SURFV
 70
     6
  9
$UCSBASE
  2

  9
$UCSNAME
  2

  9
$UCSORG
 10
0.0
 20
0.0
 30
0.0
  9
$UCSXDIR
 10
1.0
 20
0.0
 30
0.0
  9
$UCSYDIR
 10
0.0
 20
1.0
 30
0.0
  9
$UCSORTHOREF
  2

  9
$UCSORTHOVIEW
 70
     0
  9
$UCSORGTOP
 10
0.0
 20
0.0
 30
0.0
  9
$UCSORGBOTTOM
 10
0.0
 20
0.0
 30
0.0
  9
$UCSORGLEFT
 10
0.0
 20
0.0
 30
0.0
  9
$UCSORGRIGHT
 10
0.0
 20
0.0
 30
0.0
  9
$UCSORGFRONT
 10
0.0
 20
0.0
 30
0.0
  9
$UCSORGBACK
 10
0.0
 20
0.0
 30
0.0
  9
$PUCSBASE
  2

  9
$PUCSNAME
  2

  9
$PUCSORG
 10
0.0
 20
0.0
 30
0.0
  9
$PUCSXDIR
 10
1.0
 20
0.0
 30
0.0
  9
$PUCSYDIR
 10
0.0
 20
1.0
 30
0.0
  9
$PUCSORTHOREF
  2

  9
$PUCSORTHOVIEW
 70
     0
  9
$PUCSORGTOP
 10
0.0
 20
0.0
 30
0.0
  9
$PUCSORGBOTTOM
 10
0.0
 20
0.0
 30
0.0
  9
$PUCSORGLEFT
 10
0.0
 20
0.0
 30
0.0
  9
$PUCSORGRIGHT
 10
0.0
 20
0.0
 30
0.0
  9
$PUCSORGFRONT
 10
0.0
 20
0.0
 30
0.0
  9
$PUCSORGBACK
 10
0.0
 20
0.0
 30
0.0
  9
$USERI1
 70
     0
  9
$USERI2
 70
     0
  9
$USERI3
 70
     0
  9
$USERI4
 70
     0
  9
$USERI5
 70
     0
  9
$USERR1
 40
0.0
  9
$USERR2
 40
0.0
  9
$USERR3
 40
0.0
  9
$USERR4
 40
0.0
  9
$USERR5
 40
0.0
  9
$WORLDVIEW
 70
     1
  9
$SHADEDGE
 70
     3
  9
$SHADEDIF
 70
    70
  9
$TILEMODE
 70
     1
  9
$MAXACTVP
 70
    64
  9
$PINSBASE
 10
0.0
 20
0.0
 30
0.0
  9
$PLIMCHECK
 70
     0
  9
$PEXTMIN
 10
0.0
 20
0.0
 30
0.0
  9
$PEXTMAX
 10
0.0
 20
0.0
 30
0.0
  9
$PLIMMIN
 10
0.0
 20
0.0
  9
$PLIMMAX
 10
12.0
 20
9.0
  9
$UNITMODE
 70
     0
  9
$VISRETAIN
 70
     1
  9
$PLINEGEN
 70
     0
  9
$PSLTSCALE
 70
     1
  9
$TREEDEPTH
 70
  3020
  9
$CMLSTYLE
  2
Standard
  9
$CMLJUST
 70
     0
  9
$CMLSCALE
 40
1.0
  9
$PROXYGRAPHICS
 70
     1
  9
$MEASUREMENT
 70
     0
  9
$CELWEIGHT
370
    -1
  9
$ENDCAPS
280
     0
  9
$JOINSTYLE
280
     0
  9
$LWDISPLAY
290
     0
  9
$INSUNITS
 70
     1
  9
$HYPERLINKBASE
  1

  9
$STYLESHEET
  1

  9
$XEDIT
290
     1
  9
$CEPSNTYPE
380
     0
  9
$PSTYLEMODE
290
     1
  9
$FINGERPRINTGUID
  2
{FDEAD576-A652-11D2-9A35-0060089B3A3F}
  9
$VERSIONGUID
  2
{A5ED6F6F-2AFD-41FD-8E93-CC461CF9256A}
  9
$EXTNAMES
290
     1
  9
$PSVPSCALE
 40
0.0
  9
$OLESTARTUP
290
     0
  0
ENDSEC
  0
SECTION
  2
CLASSES
  0
CLASS
  1
ACDBDICTIONARYWDFLT
  2
AcDbDictionaryWithDefault
  3
ObjectDBX Classes
 90
        0
280
     0
281
     0
  0
CLASS
  1
ACDBPLACEHOLDER
  2
AcDbPlaceHolder
  3
ObjectDBX Classes
 90
        0
280
     0
281
     0
  0
CLASS
  1
LAYOUT
  2
AcDbLayout
  3
ObjectDBX Classes
 90
        0
280
     0
281
     0
  0
CLASS
  1
DICTIONARYVAR
  2
AcDbDictionaryVar
  3
ObjectDBX Classes
 90
        0
280
     0
281
     0
  0
ENDSEC
  0
SECTION
  2
TABLES
  0
TABLE
  2
VPORT
  5
8
330
0
100
AcDbSymbolTable
 70
     3
  0
VPORT
  5
9A7
330
8
100
AcDbSymbolTableRecord
100
AcDbViewportTableRecord
  2
*Active
 70
     0
 10
0.0
 20
0.0
 11
1.0
 21
1.0
 12
30.9549182215614
 22
45.7863743052746
 13
0.0
 23
0.0
 14
0.5
 24
0.5
 15
0.5
 25
0.5
 16
0.0
 26
0.0
 36
1.0
 17
0.0
 27
0.0
 37
0.0
 40
89.15358846418333
 41
2.028571428571428
 42
50.0
 43
0.0
 44
0.0
 50
0.0
 51
0.0
 71
     0
 72
  1000
 73
     1
 74
     3
 75
     0
 76
     0
 77
     0
 78
     0
281
     0
 65
     1
110
0.0
120
0.0
130
0.0
111
1.0
121
0.0
131
0.0
112
0.0
122
1.0
132
0.0
 79
     0
146
0.0
  0
ENDTAB
  0
TABLE
  2
LTYPE
  5
5
330
0
100
AcDbSymbolTable
 70
     2
  0
LTYPE
  5
14
330
5
100
AcDbSymbolTableRecord
100
AcDbLinetypeTableRecord
  2
ByBlock
 70
     0
  3

 72
    65
 73
     0
 40
0.0
  0
LTYPE
  5
15
330
5
100
AcDbSymbolTableRecord
100
AcDbLinetypeTableRecord
  2
ByLayer
 70
     0
  3

 72
    65
 73
     0
 40
0.0
  0
LTYPE
  5
16
330
5
100
AcDbSymbolTableRecord
100
AcDbLinetypeTableRecord
  2
Continuous
 70
     0
  3
Solid line
 72
    65
 73
     0
 40
0.0
  0
LTYPE
  5
137
330
5
100
AcDbSymbolTableRecord
100
AcDbLinetypeTableRecord
  2
DASHDOT
 70
     0
  3
__ . __ . __ . __ . __ . __ . __ . __ . __ . __
 72
    65
 73
     4
 40
1.0
 49
0.5
 74
     0
 49
-0.25
 74
     0
 49
0.0
 74
     0
 49
-0.25
 74
     0
  0
ENDTAB
  0
TABLE
  2
LAYER
  5
2
102
{ACAD_XDICTIONARY
360
13D
102
}
330
0
100
AcDbSymbolTable
 70
     7
  0
LAYER
  5
10
330
2
100
AcDbSymbolTableRecord
100
AcDbLayerTableRecord
  2
0
 70
     0
 62
     7
  6
Continuous
370
    -3
390
F
  0
LAYER
  5
138
330
2
100
AcDbSymbolTableRecord
100
AcDbLayerTableRecord
  2
Defpoints
 70
     0
 62
     7
  6
Continuous
290
     0
370
    -3
390
F
  0
LAYER
  5
139
330
2
100
AcDbSymbolTableRecord
100
AcDbLayerTableRecord
  2
DIM
 70
     0
 62
     7
  6
Continuous
370
    -3
390
F
  0
LAYER
  5
13A
330
2
100
AcDbSymbolTableRecord
100
AcDbLayerTableRecord
  2
TEXT
 70
     0
 62
    -7
  6
Continuous
370
    -3
390
F
  0
LAYER
  5
13B
330
2
100
AcDbSymbolTableRecord
100
AcDbLayerTableRecord
  2
TEMPLATE
 70
     0
 62
     7
  6
Continuous
370
    -3
390
F
  0
LAYER
  5
13C
330
2
100
AcDbSymbolTableRecord
100
AcDbLayerTableRecord
  2
BORDER
 70
     0
 62
     7
  6
Continuous
370
    -3
390
F
  0
LAYER
  5
6C1
330
2
100
AcDbSymbolTableRecord
100
AcDbLayerTableRecord
  2
Washer
 70
     0
 62
     7
  6
Continuous
370
    -3
390
F
  0
ENDTAB
  0
TABLE
  2
STYLE
  5
3
330
0
100
AcDbSymbolTable
 70
     1
  0
STYLE
  5
11
330
3
100
AcDbSymbolTableRecord
100
AcDbTextStyleTableRecord
  2
Standard
 70
     0
 40
0.0
 41
1.0
 50
0.0
 71
     0
 42
0.2
  3
txt
  4

  0
ENDTAB
  0
TABLE
  2
VIEW
  5
6
330
0
100
AcDbSymbolTable
 70
     0
  0
ENDTAB
  0
TABLE
  2
UCS
  5
7
330
0
100
AcDbSymbolTable
 70
     0
  0
ENDTAB
  0
TABLE
  2
APPID
  5
9
330
0
100
AcDbSymbolTable
 70
     1
  0
APPID
  5
12
330
9
100
AcDbSymbolTableRecord
100
AcDbRegAppTableRecord
  2
ACAD
 70
     0
  0
ENDTAB
  0
TABLE
  2
DIMSTYLE
  5
A
330
0
100
AcDbSymbolTable
 70
     1
100
AcDbDimStyleTable
 71
     1
340
27
  0
DIMSTYLE
105
27
102
{ACAD_REACTORS
330
73D
330
73E
330
73F
330
740
330
741
330
742
330
743
330
744
330
745
330
746
330
747
330
748
330
749
330
74A
330
74B
330
74C
330
74D
330
74E
330
74F
330
750
330
70E
330
70F
330
710
330
712
330
713
330
714
330
715
330
71A
102
}
330
A
100
AcDbSymbolTableRecord
100
AcDbDimStyleTableRecord
  2
Standard
 70
     0
 41
1.0
 42
0.2
140
1.0
271
     3
272
     3
340
11
  0
ENDTAB
  0
TABLE
  2
BLOCK_RECORD
  5
1
330
0
100
AcDbSymbolTable
 70
    99
  0
BLOCK_RECORD
  5
1F
330
1
100
AcDbSymbolTableRecord
100
AcDbBlockTableRecord
  2
*Model_Space
340
22
  0
BLOCK_RECORD
  5
58
330
1
100
AcDbSymbolTableRecord
100
AcDbBlockTableRecord
  2
*Paper_Space
340
59
  0
BLOCK_RECORD
  5
5D
330
1
100
AcDbSymbolTableRecord
100
AcDbBlockTableRecord
  2
*Paper_Space0
340
5E
  0
BLOCK_RECORD
  5
89
330
1
100
AcDbSymbolTableRecord
100
AcDbBlockTableRecord
  2
*D1
340
0
  0
BLOCK_RECORD
  5
91
330
1
100
AcDbSymbolTableRecord
100
AcDbBlockTableRecord
  2
*D2
340
0
  0
BLOCK_RECORD
  5
99
330
1
100
AcDbSymbolTableRecord
100
AcDbBlockTableRecord
  2
*D3
340
0
  0
BLOCK_RECORD
  5
A3
330
1
100
AcDbSymbolTableRecord
100
AcDbBlockTableRecord
  2
*D4
340
0
  0
BLOCK_RECORD
  5
AB
330
1
100
AcDbSymbolTableRecord
100
AcDbBlockTableRecord
  2
*D5
340
0
  0
BLOCK_RECORD
  5
B3
330
1
100
AcDbSymbolTableRecord
100
AcDbBlockTableRecord
  2
*D6
340
0
  0
BLOCK_RECORD
  5
BB
330
1
100
AcDbSymbolTableRecord
100
AcDbBlockTableRecord
  2
*D7
340
0
  0
BLOCK_RECORD
  5
C3
330
1
100
AcDbSymbolTableRecord
100
AcDbBlockTableRecord
  2
*D8
340
0
  0
BLOCK_RECORD
  5
CB
330
1
100
AcDbSymbolTableRecord
100
AcDbBlockTableRecord
  2
*D9
340
0
  0
BLOCK_RECORD
  5
D3
330
1
100
AcDbSymbolTableRecord
100
AcDbBlockTableRecord
  2
*D10
340
0
  0
BLOCK_RECORD
  5
DB
330
1
100
AcDbSymbolTableRecord
100
AcDbBlockTableRecord
  2
*D11
340
0
  0
BLOCK_RECORD
  5
E3
330
1
100
AcDbSymbolTableRecord
100
AcDbBlockTableRecord
  2
*D12
340
0
  0
BLOCK_RECORD
  5
EB
330
1
100
AcDbSymbolTableRecord
100
AcDbBlockTableRecord
  2
*D13
340
0
  0
BLOCK_RECORD
  5
F3
330
1
100
AcDbSymbolTableRecord
100
AcDbBlockTableRecord
  2
*D14
340
0
  0
BLOCK_RECORD
  5
FB
330
1
100
AcDbSymbolTableRecord
100
AcDbBlockTableRecord
  2
*D15
340
0
  0
BLOCK_RECORD
  5
105
330
1
100
AcDbSymbolTableRecord
100
AcDbBlockTableRecord
  2
*D16
340
0
  0
BLOCK_RECORD
  5
10D
330
1
100
AcDbSymbolTableRecord
100
AcDbBlockTableRecord
  2
*D17
340
0
  0
BLOCK_RECORD
  5
115
330
1
100
AcDbSymbolTableRecord
100
AcDbBlockTableRecord
  2
*D18
340
0
  0
BLOCK_RECORD
  5
11F
330
1
100
AcDbSymbolTableRecord
100
AcDbBlockTableRecord
  2
*D19
340
0
  0
BLOCK_RECORD
  5
127
330
1
100
AcDbSymbolTableRecord
100
AcDbBlockTableRecord
  2
*D20
340
0
  0
BLOCK_RECORD
  5
12F
330
1
100
AcDbSymbolTableRecord
100
AcDbBlockTableRecord
  2
*D21
340
0
  0
BLOCK_RECORD
  5
425
330
1
100
AcDbSymbolTableRecord
100
AcDbBlockTableRecord
  2
*D22
340
0
  0
BLOCK_RECORD
  5
42D
330
1
100
AcDbSymbolTableRecord
100
AcDbBlockTableRecord
  2
*D23
340
0
  0
BLOCK_RECORD
  5
435
330
1
100
AcDbSymbolTableRecord
100
AcDbBlockTableRecord
  2
*D24
340
0
  0
BLOCK_RECORD
  5
43D
330
1
100
AcDbSymbolTableRecord
100
AcDbBlockTableRecord
  2
*D25
340
0
  0
BLOCK_RECORD
  5
445
330
1
100
AcDbSymbolTableRecord
100
AcDbBlockTableRecord
  2
*D26
340
0
  0
BLOCK_RECORD
  5
44D
330
1
100
AcDbSymbolTableRecord
100
AcDbBlockTableRecord
  2
*D27
340
0
  0
BLOCK_RECORD
  5
457
330
1
100
AcDbSymbolTableRecord
100
AcDbBlockTableRecord
  2
*D28
340
0
  0
BLOCK_RECORD
  5
45F
330
1
100
AcDbSymbolTableRecord
100
AcDbBlockTableRecord
  2
*D29
340
0
  0
BLOCK_RECORD
  5
467
330
1
100
AcDbSymbolTableRecord
100
AcDbBlockTableRecord
  2
*D30
340
0
  0
BLOCK_RECORD
  5
46F
330
1
100
AcDbSymbolTableRecord
100
AcDbBlockTableRecord
  2
*D31
340
0
  0
BLOCK_RECORD
  5
477
330
1
100
AcDbSymbolTableRecord
100
AcDbBlockTableRecord
  2
*D32
340
0
  0
BLOCK_RECORD
  5
47F
330
1
100
AcDbSymbolTableRecord
100
AcDbBlockTableRecord
  2
*D33
340
0
  0
BLOCK_RECORD
  5
487
330
1
100
AcDbSymbolTableRecord
100
AcDbBlockTableRecord
  2
*D34
340
0
  0
BLOCK_RECORD
  5
48F
330
1
100
AcDbSymbolTableRecord
100
AcDbBlockTableRecord
  2
*D35
340
0
  0
BLOCK_RECORD
  5
497
330
1
100
AcDbSymbolTableRecord
100
AcDbBlockTableRecord
  2
*D36
340
0
  0
BLOCK_RECORD
  5
49F
330
1
100
AcDbSymbolTableRecord
100
AcDbBlockTableRecord
  2
*D37
340
0
  0
BLOCK_RECORD
  5
4A7
330
1
100
AcDbSymbolTableRecord
100
AcDbBlockTableRecord
  2
*D38
340
0
  0
BLOCK_RECORD
  5
4AF
330
1
100
AcDbSymbolTableRecord
100
AcDbBlockTableRecord
  2
*D39
340
0
  0
BLOCK_RECORD
  5
4B9
330
1
100
AcDbSymbolTableRecord
100
AcDbBlockTableRecord
  2
*D40
340
0
  0
BLOCK_RECORD
  5
4C1
330
1
100
AcDbSymbolTableRecord
100
AcDbBlockTableRecord
  2
*D41
340
0
  0
BLOCK_RECORD
  5
4C9
330
1
100
AcDbSymbolTableRecord
100
AcDbBlockTableRecord
  2
*D42
340
0
  0
BLOCK_RECORD
  5
5D4
330
1
100
AcDbSymbolTableRecord
100
AcDbBlockTableRecord
  2
*D43
340
0
  0
BLOCK_RECORD
  5
5DC
330
1
100
AcDbSymbolTableRecord
100
AcDbBlockTableRecord
  2
*D44
340
0
  0
BLOCK_RECORD
  5
5E4
330
1
100
AcDbSymbolTableRecord
100
AcDbBlockTableRecord
  2
*D45
340
0
  0
BLOCK_RECORD
  5
5EE
330
1
100
AcDbSymbolTableRecord
100
AcDbBlockTableRecord
  2
*D46
340
0
  0
BLOCK_RECORD
  5
5F6
330
1
100
AcDbSymbolTableRecord
100
AcDbBlockTableRecord
  2
*D47
340
0
  0
BLOCK_RECORD
  5
5FE
330
1
100
AcDbSymbolTableRecord
100
AcDbBlockTableRecord
  2
*D48
340
0
  0
BLOCK_RECORD
  5
606
330
1
100
AcDbSymbolTableRecord
100
AcDbBlockTableRecord
  2
*D49
340
0
  0
BLOCK_RECORD
  5
60E
330
1
100
AcDbSymbolTableRecord
100
AcDbBlockTableRecord
  2
*D50
340
0
  0
BLOCK_RECORD
  5
616
330
1
100
AcDbSymbolTableRecord
100
AcDbBlockTableRecord
  2
*D51
340
0
  0
BLOCK_RECORD
  5
61E
330
1
100
AcDbSymbolTableRecord
100
AcDbBlockTableRecord
  2
*D52
340
0
  0
BLOCK_RECORD
  5
626
330
1
100
AcDbSymbolTableRecord
100
AcDbBlockTableRecord
  2
*D53
340
0
  0
BLOCK_RECORD
  5
62E
330
1
100
AcDbSymbolTableRecord
100
AcDbBlockTableRecord
  2
*D54
340
0
  0
BLOCK_RECORD
  5
636
330
1
100
AcDbSymbolTableRecord
100
AcDbBlockTableRecord
  2
*D55
340
0
  0
BLOCK_RECORD
  5
63E
330
1
100
AcDbSymbolTableRecord
100
AcDbBlockTableRecord
  2
*D56
340
0
  0
BLOCK_RECORD
  5
646
330
1
100
AcDbSymbolTableRecord
100
AcDbBlockTableRecord
  2
*D57
340
0
  0
BLOCK_RECORD
  5
64E
330
1
100
AcDbSymbolTableRecord
100
AcDbBlockTableRecord
  2
*D58
340
0
  0
BLOCK_RECORD
  5
656
330
1
100
AcDbSymbolTableRecord
100
AcDbBlockTableRecord
  2
*D59
340
0
  0
BLOCK_RECORD
  5
660
330
1
100
AcDbSymbolTableRecord
100
AcDbBlockTableRecord
  2
*D60
340
0
  0
BLOCK_RECORD
  5
668
330
1
100
AcDbSymbolTableRecord
100
AcDbBlockTableRecord
  2
*D61
340
0
  0
BLOCK_RECORD
  5
670
330
1
100
AcDbSymbolTableRecord
100
AcDbBlockTableRecord
  2
*D62
340
0
  0
BLOCK_RECORD
  5
678
330
1
100
AcDbSymbolTableRecord
100
AcDbBlockTableRecord
  2
*D63
340
0
  0
BLOCK_RECORD
  5
682
330
1
100
AcDbSymbolTableRecord
100
AcDbBlockTableRecord
  2
*D64
340
0
  0
BLOCK_RECORD
  5
68A
330
1
100
AcDbSymbolTableRecord
100
AcDbBlockTableRecord
  2
*D65
340
0
  0
BLOCK_RECORD
  5
692
330
1
100
AcDbSymbolTableRecord
100
AcDbBlockTableRecord
  2
*D66
340
0
  0
BLOCK_RECORD
  5
69A
330
1
100
AcDbSymbolTableRecord
100
AcDbBlockTableRecord
  2
*D67
340
0
  0
BLOCK_RECORD
  5
6A4
330
1
100
AcDbSymbolTableRecord
100
AcDbBlockTableRecord
  2
*D68
340
0
  0
BLOCK_RECORD
  5
6AF
330
1
100
AcDbSymbolTableRecord
100
AcDbBlockTableRecord
  2
*D69
340
0
  0
BLOCK_RECORD
  5
6B9
330
1
100
AcDbSymbolTableRecord
100
AcDbBlockTableRecord
  2
*D70
340
0
  0
BLOCK_RECORD
  5
756
330
1
100
AcDbSymbolTableRecord
100
AcDbBlockTableRecord
  2
*D71
340
0
  0
BLOCK_RECORD
  5
75E
330
1
100
AcDbSymbolTableRecord
100
AcDbBlockTableRecord
  2
*D72
340
0
  0
BLOCK_RECORD
  5
766
330
1
100
AcDbSymbolTableRecord
100
AcDbBlockTableRecord
  2
*D73
340
0
  0
BLOCK_RECORD
  5
76E
330
1
100
AcDbSymbolTableRecord
100
AcDbBlockTableRecord
  2
*D74
340
0
  0
BLOCK_RECORD
  5
778
330
1
100
AcDbSymbolTableRecord
100
AcDbBlockTableRecord
  2
*D75
340
0
  0
BLOCK_RECORD
  5
780
330
1
100
AcDbSymbolTableRecord
100
AcDbBlockTableRecord
  2
*D76
340
0
  0
BLOCK_RECORD
  5
788
330
1
100
AcDbSymbolTableRecord
100
AcDbBlockTableRecord
  2
*D77
340
0
  0
BLOCK_RECORD
  5
790
330
1
100
AcDbSymbolTableRecord
100
AcDbBlockTableRecord
  2
*D78
340
0
  0
BLOCK_RECORD
  5
798
330
1
100
AcDbSymbolTableRecord
100
AcDbBlockTableRecord
  2
*D79
340
0
  0
BLOCK_RECORD
  5
7A0
330
1
100
AcDbSymbolTableRecord
100
AcDbBlockTableRecord
  2
*D80
340
0
  0
BLOCK_RECORD
  5
7A8
330
1
100
AcDbSymbolTableRecord
100
AcDbBlockTableRecord
  2
*D81
340
0
  0
BLOCK_RECORD
  5
7B0
330
1
100
AcDbSymbolTableRecord
100
AcDbBlockTableRecord
  2
*D82
340
0
  0
BLOCK_RECORD
  5
7B8
330
1
100
AcDbSymbolTableRecord
100
AcDbBlockTableRecord
  2
*D83
340
0
  0
BLOCK_RECORD
  5
7C0
330
1
100
AcDbSymbolTableRecord
100
AcDbBlockTableRecord
  2
*D84
340
0
  0
BLOCK_RECORD
  5
7C8
330
1
100
AcDbSymbolTableRecord
100
AcDbBlockTableRecord
  2
*D85
340
0
  0
BLOCK_RECORD
  5
7D0
330
1
100
AcDbSymbolTableRecord
100
AcDbBlockTableRecord
  2
*D86
340
0
  0
BLOCK_RECORD
  5
7D8
330
1
100
AcDbSymbolTableRecord
100
AcDbBlockTableRecord
  2
*D87
340
0
  0
BLOCK_RECORD
  5
7E0
330
1
100
AcDbSymbolTableRecord
100
AcDbBlockTableRecord
  2
*D88
340
0
  0
BLOCK_RECORD
  5
7EA
330
1
100
AcDbSymbolTableRecord
100
AcDbBlockTableRecord
  2
*D89
340
0
  0
BLOCK_RECORD
  5
7F2
330
1
100
AcDbSymbolTableRecord
100
AcDbBlockTableRecord
  2
*D90
340
0
  0
BLOCK_RECORD
  5
7FA
330
1
100
AcDbSymbolTableRecord
100
AcDbBlockTableRecord
  2
*D91
340
0
  0
BLOCK_RECORD
  5
802
330
1
100
AcDbSymbolTableRecord
100
AcDbBlockTableRecord
  2
*D92
340
0
  0
BLOCK_RECORD
  5
80C
330
1
100
AcDbSymbolTableRecord
100
AcDbBlockTableRecord
  2
*D93
340
0
  0
BLOCK_RECORD
  5
817
330
1
100
AcDbSymbolTableRecord
100
AcDbBlockTableRecord
  2
*D94
340
0
  0
BLOCK_RECORD
  5
821
330
1
100
AcDbSymbolTableRecord
100
AcDbBlockTableRecord
  2
*D95
340
0
  0
BLOCK_RECORD
  5
829
330
1
100
AcDbSymbolTableRecord
100
AcDbBlockTableRecord
  2
*D96
340
0
  0
BLOCK_RECORD
  5
831
330
1
100
AcDbSymbolTableRecord
100
AcDbBlockTableRecord
  2
*D97
340
0
  0
BLOCK_RECORD
  5
839
330
1
100
AcDbSymbolTableRecord
100
AcDbBlockTableRecord
  2
*D98
340
0
  0
ENDTAB
  0
ENDSEC
  0
SECTION
  2
BLOCKS
  0
BLOCK
  5
20
330
1F
100
AcDbEntity
  8
0
100
AcDbBlockBegin
  2
*Model_Space
 70
     0
 10
0.0
 20
0.0
 30
0.0
  3
*Model_Space
  1

  0
ENDBLK
  5
21
330
1F
100
AcDbEntity
  8
0
100
AcDbBlockEnd
  0
BLOCK
  5
5A
330
58
100
AcDbEntity
 67
     1
  8
0
100
AcDbBlockBegin
  2
*Paper_Space
 70
     0
 10
0.0
 20
0.0
 30
0.0
  3
*Paper_Space
  1

  0
ENDBLK
  5
5B
330
58
100
AcDbEntity
 67
     1
  8
0
100
AcDbBlockEnd
  0
BLOCK
  5
5F
330
5D
100
AcDbEntity
  8
0
100
AcDbBlockBegin
  2
*Paper_Space0
 70
     0
 10
0.0
 20
0.0
 30
0.0
  3
*Paper_Space0
  1

  0
ENDBLK
  5
60
330
5D
100
AcDbEntity
  8
0
100
AcDbBlockEnd
  0
BLOCK
  5
8A
330
89
100
AcDbEntity
  8
0
100
AcDbBlockBegin
  2
*D1
 70
     1
 10
0.0
 20
0.0
 30
0.0
  3
*D1
  1

  0
LINE
  5
8B
330
89
100
AcDbEntity
  8
0
 62
     0
370
    -2
100
AcDbLine
 10
595.4607577132779
 20
54.21439641606787
 30
0.0
 11
595.4607577132779
 21
55.63887420424133
 31
0.0
  0
MTEXT
  5
8C
330
89
100
AcDbEntity
  8
0
 62
     0
100
AcDbMText
 10
595.4607577132779
 20
58.34720753757477
 30
0.0
 40
1.0
 41
0.0
 71
     5
 72
     1
  1
\A1;12.625
 11
0.0000000000000001
 21
1.0
 31
0.0
 73
     1
 44
1.0
1001
ACAD
1000
MTEXTBEGIN
1070
    73
1070
     1
1070
    44
1040
1.0
1070
    74
1070
     0
1000
MTEXTEND
  0
POINT
  5
8D
330
89
100
AcDbEntity
  8
Defpoints
 62
     0
100
AcDbPoint
 10
595.4607577132779
 20
53.83939641606787
 30
0.0
  0
POINT
  5
8E
330
89
100
AcDbEntity
  8
Defpoints
 62
     0
100
AcDbPoint
 10
595.4607577132779
 20
55.63887420424133
 30
0.0
  0
POINT
  5
8F
330
89
100
AcDbEntity
  8
Defpoints
 62
     0
100
AcDbPoint
 10
582.8357513330404
 20
33.62052433121551
 30
0.0
  0
ENDBLK
  5
90
330
89
100
AcDbEntity
  8
0
100
AcDbBlockEnd
  0
BLOCK
  5
92
330
91
100
AcDbEntity
  8
0
100
AcDbBlockBegin
  2
*D2
 70
     1
 10
0.0
 20
0.0
 30
0.0
  3
*D2
  1

  0
LINE
  5
93
330
91
100
AcDbEntity
  8
0
 62
     0
370
    -2
100
AcDbLine
 10
595.8357577132781
 20
52.33939641606787
 30
0.0
 11
604.0857513330404
 21
52.33939641606787
 31
0.0
  0
MTEXT
  5
94
330
91
100
AcDbEntity
  8
0
 62
     0
100
AcDbMText
 10
606.627417999707
 20
52.33939641606787
 30
0.0
 40
1.0
 41
0.0
 71
     5
 72
     1
  1
\A1;18.719
 73
     1
 44
1.0
1001
ACAD
1000
MTEXTBEGIN
1070
    73
1070
     1
1070
    44
1040
1.0
1070
    74
1070
     0
1000
MTEXTEND
  0
POINT
  5
95
330
91
100
AcDbEntity
  8
Defpoints
 62
     0
100
AcDbPoint
 10
595.4607577132779
 20
52.33939641606787
 30
0.0
  0
POINT
  5
96
330
91
100
AcDbEntity
  8
Defpoints
 62
     0
100
AcDbPoint
 10
604.0857513330404
 20
52.33939641606787
 30
0.0
  0
POINT
  5
97
330
91
100
AcDbEntity
  8
Defpoints
 62
     0
100
AcDbPoint
 10
582.8357513330404
 20
33.62052433121551
 30
0.0
  0
ENDBLK
  5
98
330
91
100
AcDbEntity
  8
0
100
AcDbBlockEnd
  0
BLOCK
  5
9A
330
99
100
AcDbEntity
  8
0
100
AcDbBlockBegin
  2
*D3
 70
     1
 10
0.0
 20
0.0
 30
0.0
  3
*D3
  1

  0
LINE
  5
9B
330
99
100
AcDbEntity
  8
0
 62
     0
370
    -2
100
AcDbLine
 10
595.8357577132781
 20
53.83939641606787
 30
0.0
 11
600.0857513330404
 21
53.83939641606787
 31
0.0
  0
LINE
  5
9C
330
99
100
AcDbEntity
  8
0
 62
     0
370
    -2
100
AcDbLine
 10
600.0857513330404
 20
53.83939641606787
 30
0.0
 11
602.0857513330404
 21
54.28341616267072
 31
0.0
  0
LINE
  5
9D
330
99
100
AcDbEntity
  8
0
 62
     0
370
    -2
100
AcDbLine
 10
602.0857513330404
 20
54.28341616267072
 30
0.0
 11
604.0857513330404
 21
54.28341616267072
 31
0.0
  0
MTEXT
  5
9E
330
99
100
AcDbEntity
  8
0
 62
     0
100
AcDbMText
 10
606.7107513330404
 20
54.28341616267072
 30
0.0
 40
1.0
 41
0.0
 71
     5
 72
     1
  1
\A1;20.219
 73
     1
 44
1.0
1001
ACAD
1000
MTEXTBEGIN
1070
    73
1070
     1
1070
    44
1040
1.0
1070
    74
1070
     0
1000
MTEXTEND
  0
POINT
  5
9F
330
99
100
AcDbEntity
  8
Defpoints
 62
     0
100
AcDbPoint
 10
595.4607577132779
 20
53.83939641606787
 30
0.0
  0
POINT
  5
A0
330
99
100
AcDbEntity
  8
Defpoints
 62
     0
100
AcDbPoint
 10
604.0857513330404
 20
54.28341616267072
 30
0.0
  0
POINT
  5
A1
330
99
100
AcDbEntity
  8
Defpoints
 62
     0
100
AcDbPoint
 10
582.8357513330404
 20
33.62052433121551
 30
0.0
  0
ENDBLK
  5
A2
330
99
100
AcDbEntity
  8
0
100
AcDbBlockEnd
  0
BLOCK
  5
A4
330
A3
100
AcDbEntity
  8
0
100
AcDbBlockBegin
  2
*D4
 70
     1
 10
0.0
 20
0.0
 30
0.0
  3
*D4
  1

  0
LINE
  5
A5
330
A3
100
AcDbEntity
  8
0
 62
     0
370
    -2
100
AcDbLine
 10
600.3357513330406
 20
42.65236291264478
 30
0.0
 11
604.0857513330404
 21
42.65236291264478
 31
0.0
  0
MTEXT
  5
A6
330
A3
100
AcDbEntity
  8
0
 62
     0
100
AcDbMText
 10
606.3774179997071
 20
42.65236291264478
 30
0.0
 40
1.0
 41
0.0
 71
     5
 72
     1
  1
\A1;9.032
 73
     1
 44
1.0
1001
ACAD
1000
MTEXTBEGIN
1070
    73
1070
     1
1070
    44
1040
1.0
1070
    74
1070
     0
1000
MTEXTEND
  0
POINT
  5
A7
330
A3
100
AcDbEntity
  8
Defpoints
 62
     0
100
AcDbPoint
 10
599.9607513330406
 20
42.65236291264478
 30
0.0
  0
POINT
  5
A8
330
A3
100
AcDbEntity
  8
Defpoints
 62
     0
100
AcDbPoint
 10
604.0857513330404
 20
42.65236291264478
 30
0.0
  0
POINT
  5
A9
330
A3
100
AcDbEntity
  8
Defpoints
 62
     0
100
AcDbPoint
 10
582.8357513330404
 20
33.62052433121551
 30
0.0
  0
ENDBLK
  5
AA
330
A3
100
AcDbEntity
  8
0
100
AcDbBlockEnd
  0
BLOCK
  5
AC
330
AB
100
AcDbEntity
  8
0
100
AcDbBlockBegin
  2
*D5
 70
     1
 10
0.0
 20
0.0
 30
0.0
  3
*D5
  1

  0
LINE
  5
AD
330
AB
100
AcDbEntity
  8
0
 62
     0
370
    -2
100
AcDbLine
 10
600.3357513330406
 20
39.65236291264478
 30
0.0
 11
604.0857513330404
 21
39.65236291264478
 31
0.0
  0
MTEXT
  5
AE
330
AB
100
AcDbEntity
  8
0
 62
     0
100
AcDbMText
 10
606.3774179997071
 20
39.65236291264478
 30
0.0
 40
1.0
 41
0.0
 71
     5
 72
     1
  1
\A1;6.032
 73
     1
 44
1.0
1001
ACAD
1000
MTEXTBEGIN
1070
    73
1070
     1
1070
    44
1040
1.0
1070
    74
1070
     0
1000
MTEXTEND
  0
POINT
  5
AF
330
AB
100
AcDbEntity
  8
Defpoints
 62
     0
100
AcDbPoint
 10
599.9607513330406
 20
39.65236291264478
 30
0.0
  0
POINT
  5
B0
330
AB
100
AcDbEntity
  8
Defpoints
 62
     0
100
AcDbPoint
 10
604.0857513330404
 20
39.65236291264478
 30
0.0
  0
POINT
  5
B1
330
AB
100
AcDbEntity
  8
Defpoints
 62
     0
100
AcDbPoint
 10
582.8357513330404
 20
33.62052433121551
 30
0.0
  0
ENDBLK
  5
B2
330
AB
100
AcDbEntity
  8
0
100
AcDbBlockEnd
  0
BLOCK
  5
B4
330
B3
100
AcDbEntity
  8
0
100
AcDbBlockBegin
  2
*D6
 70
     1
 10
0.0
 20
0.0
 30
0.0
  3
*D6
  1

  0
LINE
  5
B5
330
B3
100
AcDbEntity
  8
0
 62
     0
370
    -2
100
AcDbLine
 10
582.8977577132782
 20
48.31139641606785
 30
0.0
 11
580.8357513330404
 21
48.31139641606785
 31
0.0
  0
MTEXT
  5
B6
330
B3
100
AcDbEntity
  8
0
 62
     0
100
AcDbMText
 10
578.2940846663737
 20
48.31139641606785
 30
0.0
 40
1.0
 41
0.0
 71
     5
 72
     1
  1
\A1;14.691
 73
     1
 44
1.0
1001
ACAD
1000
MTEXTBEGIN
1070
    73
1070
     1
1070
    44
1040
1.0
1070
    74
1070
     0
1000
MTEXTEND
  0
POINT
  5
B7
330
B3
100
AcDbEntity
  8
Defpoints
 62
     0
100
AcDbPoint
 10
583.2727577132782
 20
48.31139641606785
 30
0.0
  0
POINT
  5
B8
330
B3
100
AcDbEntity
  8
Defpoints
 62
     0
100
AcDbPoint
 10
580.8357513330404
 20
48.31139641606785
 30
0.0
  0
POINT
  5
B9
330
B3
100
AcDbEntity
  8
Defpoints
 62
     0
100
AcDbPoint
 10
582.8357513330404
 20
33.62052433121551
 30
0.0
  0
ENDBLK
  5
BA
330
B3
100
AcDbEntity
  8
0
100
AcDbBlockEnd
  0
BLOCK
  5
BC
330
BB
100
AcDbEntity
  8
0
100
AcDbBlockBegin
  2
*D7
 70
     1
 10
0.0
 20
0.0
 30
0.0
  3
*D7
  1

  0
LINE
  5
BD
330
BB
100
AcDbEntity
  8
0
 62
     0
370
    -2
100
AcDbLine
 10
582.8977577132778
 20
55.31139641606785
 30
0.0
 11
580.8357513330404
 21
55.31139641606785
 31
0.0
  0
MTEXT
  5
BE
330
BB
100
AcDbEntity
  8
0
 62
     0
100
AcDbMText
 10
578.2940846663737
 20
55.31139641606785
 30
0.0
 40
1.0
 41
0.0
 71
     5
 72
     1
  1
\A1;21.691
 73
     1
 44
1.0
1001
ACAD
1000
MTEXTBEGIN
1070
    73
1070
     1
1070
    44
1040
1.0
1070
    74
1070
     0
1000
MTEXTEND
  0
POINT
  5
BF
330
BB
100
AcDbEntity
  8
Defpoints
 62
     0
100
AcDbPoint
 10
583.272757713278
 20
55.31139641606785
 30
0.0
  0
POINT
  5
C0
330
BB
100
AcDbEntity
  8
Defpoints
 62
     0
100
AcDbPoint
 10
580.8357513330404
 20
55.31139641606785
 30
0.0
  0
POINT
  5
C1
330
BB
100
AcDbEntity
  8
Defpoints
 62
     0
100
AcDbPoint
 10
582.8357513330404
 20
33.62052433121551
 30
0.0
  0
ENDBLK
  5
C2
330
BB
100
AcDbEntity
  8
0
100
AcDbBlockEnd
  0
BLOCK
  5
C4
330
C3
100
AcDbEntity
  8
0
100
AcDbBlockBegin
  2
*D8
 70
     1
 10
0.0
 20
0.0
 30
0.0
  3
*D8
  1

  0
LINE
  5
C5
330
C3
100
AcDbEntity
  8
0
 62
     0
370
    -2
100
AcDbLine
 10
582.8977577132778
 20
62.31139641606785
 30
0.0
 11
580.8357513330404
 21
62.31139641606785
 31
0.0
  0
MTEXT
  5
C6
330
C3
100
AcDbEntity
  8
0
 62
     0
100
AcDbMText
 10
578.127417999707
 20
62.31139641606785
 30
0.0
 40
1.0
 41
0.0
 71
     5
 72
     1
  1
\A1;28.691
 73
     1
 44
1.0
1001
ACAD
1000
MTEXTBEGIN
1070
    73
1070
     1
1070
    44
1040
1.0
1070
    74
1070
     0
1000
MTEXTEND
  0
POINT
  5
C7
330
C3
100
AcDbEntity
  8
Defpoints
 62
     0
100
AcDbPoint
 10
583.272757713278
 20
62.31139641606785
 30
0.0
  0
POINT
  5
C8
330
C3
100
AcDbEntity
  8
Defpoints
 62
     0
100
AcDbPoint
 10
580.8357513330404
 20
62.31139641606785
 30
0.0
  0
POINT
  5
C9
330
C3
100
AcDbEntity
  8
Defpoints
 62
     0
100
AcDbPoint
 10
582.8357513330404
 20
33.62052433121551
 30
0.0
  0
ENDBLK
  5
CA
330
C3
100
AcDbEntity
  8
0
100
AcDbBlockEnd
  0
BLOCK
  5
CC
330
CB
100
AcDbEntity
  8
0
100
AcDbBlockBegin
  2
*D9
 70
     1
 10
0.0
 20
0.0
 30
0.0
  3
*D9
  1

  0
LINE
  5
CD
330
CB
100
AcDbEntity
  8
0
 62
     0
370
    -2
100
AcDbLine
 10
598.8708141376585
 20
65.34531715603634
 30
0.0
 11
598.8708141376585
 21
68.15236291264477
 31
0.0
  0
MTEXT
  5
CE
330
CB
100
AcDbEntity
  8
0
 62
     0
100
AcDbMText
 10
598.8708141376585
 20
70.77736291264486
 30
0.0
 40
1.0
 41
0.0
 71
     5
 72
     1
  1
\A1;16.035
 11
0.0000000000000001
 21
1.0
 31
0.0
 73
     1
 44
1.0
1001
ACAD
1000
MTEXTBEGIN
1070
    73
1070
     1
1070
    44
1040
1.0
1070
    74
1070
     0
1000
MTEXTEND
  0
POINT
  5
CF
330
CB
100
AcDbEntity
  8
Defpoints
 62
     0
100
AcDbPoint
 10
598.8708141376585
 20
64.97031715603634
 30
0.0
  0
POINT
  5
D0
330
CB
100
AcDbEntity
  8
Defpoints
 62
     0
100
AcDbPoint
 10
598.8708141376585
 20
68.15236291264477
 30
0.0
  0
POINT
  5
D1
330
CB
100
AcDbEntity
  8
Defpoints
 62
     0
100
AcDbPoint
 10
582.8357513330404
 20
33.62052433121551
 30
0.0
  0
ENDBLK
  5
D2
330
CB
100
AcDbEntity
  8
0
100
AcDbBlockEnd
  0
BLOCK
  5
D4
330
D3
100
AcDbEntity
  8
0
100
AcDbBlockBegin
  2
*D10
 70
     1
 10
0.0
 20
0.0
 30
0.0
  3
*D10
  1

  0
LINE
  5
D5
330
D3
100
AcDbEntity
  8
0
 62
     0
370
    -2
100
AcDbLine
 10
586.0458141376588
 20
65.34531715603634
 30
0.0
 11
586.0458141376588
 21
68.15236291264477
 31
0.0
  0
MTEXT
  5
D6
330
D3
100
AcDbEntity
  8
0
 62
     0
100
AcDbMText
 10
586.0458141376588
 20
70.27736291264486
 30
0.0
 40
1.0
 41
0.0
 71
     5
 72
     1
  1
\A1;3.210
 11
0.0000000000000001
 21
1.0
 31
0.0
 73
     1
 44
1.0
1001
ACAD
1000
MTEXTBEGIN
1070
    73
1070
     1
1070
    44
1040
1.0
1070
    74
1070
     0
1000
MTEXTEND
  0
POINT
  5
D7
330
D3
100
AcDbEntity
  8
Defpoints
 62
     0
100
AcDbPoint
 10
586.0458141376588
 20
64.97031715603634
 30
0.0
  0
POINT
  5
D8
330
D3
100
AcDbEntity
  8
Defpoints
 62
     0
100
AcDbPoint
 10
586.0458141376588
 20
68.15236291264477
 30
0.0
  0
POINT
  5
D9
330
D3
100
AcDbEntity
  8
Defpoints
 62
     0
100
AcDbPoint
 10
582.8357513330404
 20
33.62052433121551
 30
0.0
  0
ENDBLK
  5
DA
330
D3
100
AcDbEntity
  8
0
100
AcDbBlockEnd
  0
BLOCK
  5
DC
330
DB
100
AcDbEntity
  8
0
100
AcDbBlockBegin
  2
*D11
 70
     1
 10
0.0
 20
0.0
 30
0.0
  3
*D11
  1

  0
LINE
  5
DD
330
DB
100
AcDbEntity
  8
0
 62
     0
370
    -2
100
AcDbLine
 10
599.2458141376585
 20
62.13281715603637
 30
0.0
 11
604.0857513330404
 21
62.13281715603637
 31
0.0
  0
MTEXT
  5
DE
330
DB
100
AcDbEntity
  8
0
 62
     0
100
AcDbMText
 10
606.7940846663737
 20
62.13281715603637
 30
0.0
 40
1.0
 41
0.0
 71
     5
 72
     1
  1
\A1;28.512
 73
     1
 44
1.0
1001
ACAD
1000
MTEXTBEGIN
1070
    73
1070
     1
1070
    44
1040
1.0
1070
    74
1070
     0
1000
MTEXTEND
  0
POINT
  5
DF
330
DB
100
AcDbEntity
  8
Defpoints
 62
     0
100
AcDbPoint
 10
598.8708141376585
 20
62.13281715603637
 30
0.0
  0
POINT
  5
E0
330
DB
100
AcDbEntity
  8
Defpoints
 62
     0
100
AcDbPoint
 10
604.0857513330404
 20
62.13281715603637
 30
0.0
  0
POINT
  5
E1
330
DB
100
AcDbEntity
  8
Defpoints
 62
     0
100
AcDbPoint
 10
582.8357513330404
 20
33.62052433121551
 30
0.0
  0
ENDBLK
  5
E2
330
DB
100
AcDbEntity
  8
0
100
AcDbBlockEnd
  0
BLOCK
  5
E4
330
E3
100
AcDbEntity
  8
0
100
AcDbBlockBegin
  2
*D12
 70
     1
 10
0.0
 20
0.0
 30
0.0
  3
*D12
  1

  0
LINE
  5
E5
330
E3
100
AcDbEntity
  8
0
 62
     0
370
    -2
100
AcDbLine
 10
599.2458141376585
 20
64.9703171560364
 30
0.0
 11
604.0857513330404
 21
64.9703171560364
 31
0.0
  0
MTEXT
  5
E6
330
E3
100
AcDbEntity
  8
0
 62
     0
100
AcDbMText
 10
606.7107513330404
 20
64.9703171560364
 30
0.0
 40
1.0
 41
0.0
 71
     5
 72
     1
  1
\A1;31.350
 73
     1
 44
1.0
1001
ACAD
1000
MTEXTBEGIN
1070
    73
1070
     1
1070
    44
1040
1.0
1070
    74
1070
     0
1000
MTEXTEND
  0
POINT
  5
E7
330
E3
100
AcDbEntity
  8
Defpoints
 62
     0
100
AcDbPoint
 10
598.8708141376585
 20
64.9703171560364
 30
0.0
  0
POINT
  5
E8
330
E3
100
AcDbEntity
  8
Defpoints
 62
     0
100
AcDbPoint
 10
604.0857513330404
 20
64.9703171560364
 30
0.0
  0
POINT
  5
E9
330
E3
100
AcDbEntity
  8
Defpoints
 62
     0
100
AcDbPoint
 10
582.8357513330404
 20
33.62052433121551
 30
0.0
  0
ENDBLK
  5
EA
330
E3
100
AcDbEntity
  8
0
100
AcDbBlockEnd
  0
BLOCK
  5
EC
330
EB
100
AcDbEntity
  8
0
100
AcDbBlockBegin
  2
*D13
 70
     1
 10
0.0
 20
0.0
 30
0.0
  3
*D13
  1

  0
LINE
  5
ED
330
EB
100
AcDbEntity
  8
0
 62
     0
370
    -2
100
AcDbLine
 10
602.4607513330408
 20
66.15236291264477
 30
0.0
 11
604.0857513330404
 21
66.15236291264477
 31
0.0
  0
MTEXT
  5
EE
330
EB
100
AcDbEntity
  8
0
 62
     0
100
AcDbMText
 10
606.877417999707
 20
66.15236291264477
 30
0.0
 40
1.0
 41
0.0
 71
     5
 72
     1
  1
\A1;32.530
 73
     1
 44
1.0
1001
ACAD
1000
MTEXTBEGIN
1070
    73
1070
     1
1070
    44
1040
1.0
1070
    74
1070
     0
1000
MTEXTEND
  0
POINT
  5
EF
330
EB
100
AcDbEntity
  8
Defpoints
 62
     0
100
AcDbPoint
 10
602.0857513330406
 20
66.15236291264477
 30
0.0
  0
POINT
  5
F0
330
EB
100
AcDbEntity
  8
Defpoints
 62
     0
100
AcDbPoint
 10
604.0857513330404
 20
66.15236291264477
 30
0.0
  0
POINT
  5
F1
330
EB
100
AcDbEntity
  8
Defpoints
 62
     0
100
AcDbPoint
 10
582.8357513330404
 20
33.62052433121551
 30
0.0
  0
ENDBLK
  5
F2
330
EB
100
AcDbEntity
  8
0
100
AcDbBlockEnd
  0
BLOCK
  5
F4
330
F3
100
AcDbEntity
  8
0
100
AcDbBlockBegin
  2
*D14
 70
     1
 10
0.0
 20
0.0
 30
0.0
  3
*D14
  1

  0
LINE
  5
F5
330
F3
100
AcDbEntity
  8
0
 62
     0
370
    -2
100
AcDbLine
 10
602.0857513330406
 20
66.52736291264478
 30
0.0
 11
602.0857513330406
 21
68.15236291264477
 31
0.0
  0
MTEXT
  5
F6
330
F3
100
AcDbEntity
  8
0
 62
     0
100
AcDbMText
 10
602.0857513330406
 20
70.77736291264486
 30
0.0
 40
1.0
 41
0.0
 71
     5
 72
     1
  1
\A1;19.250
 11
0.0000000000000001
 21
1.0
 31
0.0
 73
     1
 44
1.0
1001
ACAD
1000
MTEXTBEGIN
1070
    73
1070
     1
1070
    44
1040
1.0
1070
    74
1070
     0
1000
MTEXTEND
  0
POINT
  5
F7
330
F3
100
AcDbEntity
  8
Defpoints
 62
     0
100
AcDbPoint
 10
602.0857513330406
 20
66.15236291264477
 30
0.0
  0
POINT
  5
F8
330
F3
100
AcDbEntity
  8
Defpoints
 62
     0
100
AcDbPoint
 10
602.0857513330406
 20
68.15236291264477
 30
0.0
  0
POINT
  5
F9
330
F3
100
AcDbEntity
  8
Defpoints
 62
     0
100
AcDbPoint
 10
582.8357513330404
 20
33.62052433121551
 30
0.0
  0
ENDBLK
  5
FA
330
F3
100
AcDbEntity
  8
0
100
AcDbBlockEnd
  0
BLOCK
  5
FC
330
FB
100
AcDbEntity
  8
0
100
AcDbBlockBegin
  2
*D15
 70
     1
 10
0.0
 20
0.0
 30
0.0
  3
*D15
  1

  0
LINE
  5
FD
330
FB
100
AcDbEntity
  8
0
 62
     0
370
    -2
100
AcDbLine
 10
601.7521759841534
 20
41.09279626021479
 30
0.0
 11
601.7521759841534
 21
35.62052433121551
 31
0.0
  0
LINE
  5
FE
330
FB
100
AcDbEntity
  8
0
 62
     0
370
    -2
100
AcDbLine
 10
601.7521759841534
 20
35.62052433121551
 30
0.0
 11
599.8133697695575
 21
33.62052433121551
 31
0.0
  0
LINE
  5
FF
330
FB
100
AcDbEntity
  8
0
 62
     0
370
    -2
100
AcDbLine
 10
599.8133697695575
 20
33.62052433121551
 30
0.0
 11
599.8133697695575
 21
31.62052433121551
 31
0.0
  0
MTEXT
  5
100
330
FB
100
AcDbEntity
  8
0
 62
     0
100
AcDbMText
 10
599.8133697695575
 20
29.07885766454894
 30
0.0
 40
1.0
 41
0.0
 71
     5
 72
     1
  1
\A1;18.916
 11
0.0000000000000001
 21
1.0
 31
0.0
 73
     1
 44
1.0
1001
ACAD
1000
MTEXTBEGIN
1070
    73
1070
     1
1070
    44
1040
1.0
1070
    74
1070
     0
1000
MTEXTEND
  0
POINT
  5
101
330
FB
100
AcDbEntity
  8
Defpoints
 62
     0
100
AcDbPoint
 10
601.7521759841534
 20
41.46779626021479
 30
0.0
  0
POINT
  5
102
330
FB
100
AcDbEntity
  8
Defpoints
 62
     0
100
AcDbPoint
 10
599.8133697695575
 20
31.62052433121551
 30
0.0
  0
POINT
  5
103
330
FB
100
AcDbEntity
  8
Defpoints
 62
     0
100
AcDbPoint
 10
582.8357513330404
 20
33.62052433121551
 30
0.0
  0
ENDBLK
  5
104
330
FB
100
AcDbEntity
  8
0
100
AcDbBlockEnd
  0
BLOCK
  5
106
330
105
100
AcDbEntity
  8
0
100
AcDbBlockBegin
  2
*D16
 70
     1
 10
0.0
 20
0.0
 30
0.0
  3
*D16
  1

  0
LINE
  5
107
330
105
100
AcDbEntity
  8
0
 62
     0
370
    -2
100
AcDbLine
 10
599.9607513330406
 20
43.02736291264477
 30
0.0
 11
599.9607513330406
 21
44.5682295567501
 31
0.0
  0
MTEXT
  5
108
330
105
100
AcDbEntity
  8
0
 62
     0
100
AcDbMText
 10
599.9607513330406
 20
47.10989622341686
 30
0.0
 40
1.0
 41
0.0
 71
     5
 72
     1
  1
\A1;17.125
 11
0.0000000000000001
 21
1.0
 31
0.0
 73
     1
 44
1.0
1001
ACAD
1000
MTEXTBEGIN
1070
    73
1070
     1
1070
    44
1040
1.0
1070
    74
1070
     0
1000
MTEXTEND
  0
POINT
  5
109
330
105
100
AcDbEntity
  8
Defpoints
 62
     0
100
AcDbPoint
 10
599.9607513330406
 20
42.65236291264478
 30
0.0
  0
POINT
  5
10A
330
105
100
AcDbEntity
  8
Defpoints
 62
     0
100
AcDbPoint
 10
599.9607513330406
 20
44.5682295567501
 30
0.0
  0
POINT
  5
10B
330
105
100
AcDbEntity
  8
Defpoints
 62
     0
100
AcDbPoint
 10
582.8357513330404
 20
33.62052433121551
 30
0.0
  0
ENDBLK
  5
10C
330
105
100
AcDbEntity
  8
0
100
AcDbBlockEnd
  0
BLOCK
  5
10E
330
10D
100
AcDbEntity
  8
0
100
AcDbBlockBegin
  2
*D17
 70
     1
 10
0.0
 20
0.0
 30
0.0
  3
*D17
  1

  0
LINE
  5
10F
330
10D
100
AcDbEntity
  8
0
 62
     0
370
    -2
100
AcDbLine
 10
584.9607513330404
 20
43.02736291264477
 30
0.0
 11
584.9607513330404
 21
44.5682295567501
 31
0.0
  0
MTEXT
  5
110
330
10D
100
AcDbEntity
  8
0
 62
     0
100
AcDbMText
 10
584.9607513330404
 20
46.77656289008353
 30
0.0
 40
1.0
 41
0.0
 71
     5
 72
     1
  1
\A1;2.125
 11
0.0000000000000001
 21
1.0
 31
0.0
 73
     1
 44
1.0
1001
ACAD
1000
MTEXTBEGIN
1070
    73
1070
     1
1070
    44
1040
1.0
1070
    74
1070
     0
1000
MTEXTEND
  0
POINT
  5
111
330
10D
100
AcDbEntity
  8
Defpoints
 62
     0
100
AcDbPoint
 10
584.9607513330404
 20
42.65236291264478
 30
0.0
  0
POINT
  5
112
330
10D
100
AcDbEntity
  8
Defpoints
 62
     0
100
AcDbPoint
 10
584.9607513330404
 20
44.5682295567501
 30
0.0
  0
POINT
  5
113
330
10D
100
AcDbEntity
  8
Defpoints
 62
     0
100
AcDbPoint
 10
582.8357513330404
 20
33.62052433121551
 30
0.0
  0
ENDBLK
  5
114
330
10D
100
AcDbEntity
  8
0
100
AcDbBlockEnd
  0
BLOCK
  5
116
330
115
100
AcDbEntity
  8
0
100
AcDbBlockBegin
  2
*D18
 70
     1
 10
0.0
 20
0.0
 30
0.0
  3
*D18
  1

  0
LINE
  5
117
330
115
100
AcDbEntity
  8
0
 62
     0
370
    -2
100
AcDbLine
 10
583.2727577132782
 20
40.93639641606785
 30
0.0
 11
583.2727577132782
 21
35.62052433121551
 31
0.0
  0
LINE
  5
118
330
115
100
AcDbEntity
  8
0
 62
     0
370
    -2
100
AcDbLine
 10
583.2727577132782
 20
35.62052433121551
 30
0.0
 11
585.0441219150434
 21
33.62052433121551
 31
0.0
  0
LINE
  5
119
330
115
100
AcDbEntity
  8
0
 62
     0
370
    -2
100
AcDbLine
 10
585.0441219150434
 20
33.62052433121551
 30
0.0
 11
585.0441219150434
 21
31.62052433121551
 31
0.0
  0
MTEXT
  5
11A
330
115
100
AcDbEntity
  8
0
 62
     0
100
AcDbMText
 10
585.0441219150434
 20
29.32885766454894
 30
0.0
 40
1.0
 41
0.0
 71
     5
 72
     1
  1
\A1;0.437
 11
0.0000000000000001
 21
1.0
 31
0.0
 73
     1
 44
1.0
1001
ACAD
1000
MTEXTBEGIN
1070
    73
1070
     1
1070
    44
1040
1.0
1070
    74
1070
     0
1000
MTEXTEND
  0
POINT
  5
11B
330
115
100
AcDbEntity
  8
Defpoints
 62
     0
100
AcDbPoint
 10
583.2727577132782
 20
41.31139641606785
 30
0.0
  0
POINT
  5
11C
330
115
100
AcDbEntity
  8
Defpoints
 62
     0
100
AcDbPoint
 10
585.0441219150434
 20
31.62052433121551
 30
0.0
  0
POINT
  5
11D
330
115
100
AcDbEntity
  8
Defpoints
 62
     0
100
AcDbPoint
 10
582.8357513330404
 20
33.62052433121551
 30
0.0
  0
ENDBLK
  5
11E
330
115
100
AcDbEntity
  8
0
100
AcDbBlockEnd
  0
BLOCK
  5
120
330
11F
100
AcDbEntity
  8
0
100
AcDbBlockBegin
  2
*D19
 70
     1
 10
0.0
 20
0.0
 30
0.0
  3
*D19
  1

  0
LINE
  5
121
330
11F
100
AcDbEntity
  8
0
 62
     0
370
    -2
100
AcDbLine
 10
582.8977577132782
 20
41.31139641606785
 30
0.0
 11
580.8357513330404
 21
41.31139641606785
 31
0.0
  0
MTEXT
  5
122
330
11F
100
AcDbEntity
  8
0
 62
     0
100
AcDbMText
 10
578.6274179997071
 20
41.31139641606785
 30
0.0
 40
1.0
 41
0.0
 71
     5
 72
     1
  1
\A1;7.691
 73
     1
 44
1.0
1001
ACAD
1000
MTEXTBEGIN
1070
    73
1070
     1
1070
    44
1040
1.0
1070
    74
1070
     0
1000
MTEXTEND
  0
POINT
  5
123
330
11F
100
AcDbEntity
  8
Defpoints
 62
     0
100
AcDbPoint
 10
583.2727577132782
 20
41.31139641606785
 30
0.0
  0
POINT
  5
124
330
11F
100
AcDbEntity
  8
Defpoints
 62
     0
100
AcDbPoint
 10
580.8357513330404
 20
41.31139641606785
 30
0.0
  0
POINT
  5
125
330
11F
100
AcDbEntity
  8
Defpoints
 62
     0
100
AcDbPoint
 10
582.8357513330404
 20
33.62052433121551
 30
0.0
  0
ENDBLK
  5
126
330
11F
100
AcDbEntity
  8
0
100
AcDbBlockEnd
  0
BLOCK
  5
128
330
127
100
AcDbEntity
  8
0
100
AcDbBlockBegin
  2
*D20
 70
     1
 10
0.0
 20
0.0
 30
0.0
  3
*D20
  1

  0
LINE
  5
129
330
127
100
AcDbEntity
  8
0
 62
     0
370
    -2
100
AcDbLine
 10
582.8357513330404
 20
33.24552433121552
 30
0.0
 11
582.8357513330404
 21
31.62052433121551
 31
0.0
  0
MTEXT
  5
12A
330
127
100
AcDbEntity
  8
0
 62
     0
100
AcDbMText
 10
582.8357513330404
 20
29.57885766454893
 30
0.0
 40
1.0
 41
0.0
 71
     5
 72
     1
  1
\A1;0.000
 11
0.0000000000000001
 21
1.0
 31
0.0
 73
     1
 44
1.0
1001
ACAD
1000
MTEXTBEGIN
1070
    73
1070
     1
1070
    44
1040
1.0
1070
    74
1070
     0
1000
MTEXTEND
  0
POINT
  5
12B
330
127
100
AcDbEntity
  8
Defpoints
 62
     0
100
AcDbPoint
 10
582.8357513330404
 20
33.62052433121551
 30
0.0
  0
POINT
  5
12C
330
127
100
AcDbEntity
  8
Defpoints
 62
     0
100
AcDbPoint
 10
582.8357513330404
 20
31.62052433121551
 30
0.0
  0
POINT
  5
12D
330
127
100
AcDbEntity
  8
Defpoints
 62
     0
100
AcDbPoint
 10
582.8357513330404
 20
33.62052433121551
 30
0.0
  0
ENDBLK
  5
12E
330
127
100
AcDbEntity
  8
0
100
AcDbBlockEnd
  0
BLOCK
  5
130
330
12F
100
AcDbEntity
  8
0
100
AcDbBlockBegin
  2
*D21
 70
     1
 10
0.0
 20
0.0
 30
0.0
  3
*D21
  1

  0
LINE
  5
131
330
12F
100
AcDbEntity
  8
0
 62
     0
370
    -2
100
AcDbLine
 10
582.4607513330404
 20
33.62052433121551
 30
0.0
 11
580.8357513330404
 21
33.62052433121551
 31
0.0
  0
MTEXT
  5
132
330
12F
100
AcDbEntity
  8
0
 62
     0
100
AcDbMText
 10
578.7940846663737
 20
33.62052433121551
 30
0.0
 40
1.0
 41
0.0
 71
     5
 72
     1
  1
\A1;0.000
 73
     1
 44
1.0
1001
ACAD
1000
MTEXTBEGIN
1070
    73
1070
     1
1070
    44
1040
1.0
1070
    74
1070
     0
1000
MTEXTEND
  0
POINT
  5
133
330
12F
100
AcDbEntity
  8
Defpoints
 62
     0
100
AcDbPoint
 10
582.8357513330404
 20
33.62052433121551
 30
0.0
  0
POINT
  5
134
330
12F
100
AcDbEntity
  8
Defpoints
 62
     0
100
AcDbPoint
 10
580.8357513330404
 20
33.62052433121551
 30
0.0
  0
POINT
  5
135
330
12F
100
AcDbEntity
  8
Defpoints
 62
     0
100
AcDbPoint
 10
582.8357513330404
 20
33.62052433121551
 30
0.0
  0
ENDBLK
  5
136
330
12F
100
AcDbEntity
  8
0
100
AcDbBlockEnd
  0
BLOCK
  5
42B
330
425
100
AcDbEntity
  8
0
100
AcDbBlockBegin
  2
*D22
 70
     1
 10
0.0
 20
0.0
 30
0.0
  3
*D22
  1

  0
LINE
  5
57B
330
425
100
AcDbEntity
  8
DIM
 62
     0
370
    -2
100
AcDbLine
 10
35.5234641428581
 20
27.05305911618064
 30
0.0
 11
33.2864577626203
 21
27.05305911618064
 31
0.0
  0
MTEXT
  5
57C
330
425
100
AcDbEntity
  8
DIM
 62
     0
100
AcDbMText
 10
31.36312442928697
 20
27.05305911618064
 30
0.0
 40
1.0
 41
0.0
 71
     5
 72
     1
  1
\A1;7.691
 73
     1
 44
1.0
1001
ACAD
1000
MTEXTBEGIN
1070
    73
1070
     1
1070
    44
1040
1.0
1070
    74
1070
     0
1000
MTEXTEND
  0
POINT
  5
57D
330
425
100
AcDbEntity
  8
Defpoints
 62
     0
100
AcDbPoint
 10
35.7234641428581
 20
27.05305911618064
 30
0.0
  0
POINT
  5
57E
330
425
100
AcDbEntity
  8
Defpoints
 62
     0
100
AcDbPoint
 10
33.2864577626203
 20
27.05305911618064
 30
0.0
  0
POINT
  5
57F
330
425
100
AcDbEntity
  8
Defpoints
 62
     0
100
AcDbPoint
 10
35.2864577626203
 20
19.3621870313283
 30
0.0
  0
ENDBLK
  5
42C
330
425
100
AcDbEntity
  8
0
100
AcDbBlockEnd
  0
BLOCK
  5
433
330
42D
100
AcDbEntity
  8
0
100
AcDbBlockBegin
  2
*D23
 70
     1
 10
0.0
 20
0.0
 30
0.0
  3
*D23
  1

  0
LINE
  5
58F
330
42D
100
AcDbEntity
  8
DIM
 62
     0
370
    -2
100
AcDbLine
 10
35.2864577626203
 20
19.1621870313283
 30
0.0
 11
35.2864577626203
 21
17.3621870313283
 31
0.0
  0
MTEXT
  5
590
330
42D
100
AcDbEntity
  8
DIM
 62
     0
100
AcDbMText
 10
35.2864577626203
 20
15.60552036466164
 30
0.0
 40
1.0
 41
0.0
 71
     5
 72
     1
  1
\A1;0.000
 11
0.0000000000000001
 21
1.0
 31
0.0
 73
     1
 44
1.0
1001
ACAD
1000
MTEXTBEGIN
1070
    73
1070
     1
1070
    44
1040
1.0
1070
    74
1070
     0
1000
MTEXTEND
  0
POINT
  5
591
330
42D
100
AcDbEntity
  8
Defpoints
 62
     0
100
AcDbPoint
 10
35.2864577626203
 20
19.3621870313283
 30
0.0
  0
POINT
  5
592
330
42D
100
AcDbEntity
  8
Defpoints
 62
     0
100
AcDbPoint
 10
35.2864577626203
 20
17.3621870313283
 30
0.0
  0
POINT
  5
593
330
42D
100
AcDbEntity
  8
Defpoints
 62
     0
100
AcDbPoint
 10
35.2864577626203
 20
19.3621870313283
 30
0.0
  0
ENDBLK
  5
434
330
42D
100
AcDbEntity
  8
0
100
AcDbBlockEnd
  0
BLOCK
  5
43B
330
435
100
AcDbEntity
  8
0
100
AcDbBlockBegin
  2
*D24
 70
     1
 10
0.0
 20
0.0
 30
0.0
  3
*D24
  1

  0
LINE
  5
576
330
435
100
AcDbEntity
  8
DIM
 62
     0
370
    -2
100
AcDbLine
 10
35.0864577626203
 20
19.3621870313283
 30
0.0
 11
33.2864577626203
 21
19.3621870313283
 31
0.0
  0
MTEXT
  5
577
330
435
100
AcDbEntity
  8
DIM
 62
     0
100
AcDbMText
 10
31.52979109595364
 20
19.3621870313283
 30
0.0
 40
1.0
 41
0.0
 71
     5
 72
     1
  1
\A1;0.000
 73
     1
 44
1.0
1001
ACAD
1000
MTEXTBEGIN
1070
    73
1070
     1
1070
    44
1040
1.0
1070
    74
1070
     0
1000
MTEXTEND
  0
POINT
  5
578
330
435
100
AcDbEntity
  8
Defpoints
 62
     0
100
AcDbPoint
 10
35.2864577626203
 20
19.3621870313283
 30
0.0
  0
POINT
  5
579
330
435
100
AcDbEntity
  8
Defpoints
 62
     0
100
AcDbPoint
 10
33.2864577626203
 20
19.3621870313283
 30
0.0
  0
POINT
  5
57A
330
435
100
AcDbEntity
  8
Defpoints
 62
     0
100
AcDbPoint
 10
35.2864577626203
 20
19.3621870313283
 30
0.0
  0
ENDBLK
  5
43C
330
435
100
AcDbEntity
  8
0
100
AcDbBlockEnd
  0
BLOCK
  5
443
330
43D
100
AcDbEntity
  8
0
100
AcDbBlockBegin
  2
*D25
 70
     1
 10
0.0
 20
0.0
 30
0.0
  3
*D25
  1

  0
LINE
  5
5AC
330
43D
100
AcDbEntity
  8
DIM
 62
     0
370
    -2
100
AcDbLine
 10
47.91146414285797
 20
39.78105911618067
 30
0.0
 11
47.91146414285797
 21
41.38053690435413
 31
0.0
  0
MTEXT
  5
5AD
330
43D
100
AcDbEntity
  8
DIM
 62
     0
100
AcDbMText
 10
47.91146414285796
 20
43.80387023768746
 30
0.0
 40
1.0
 41
0.0
 71
     5
 72
     1
  1
\A1;12.625
 11
0.0000000000000001
 21
1.0
 31
0.0
 73
     1
 44
1.0
1001
ACAD
1000
MTEXTBEGIN
1070
    73
1070
     1
1070
    44
1040
1.0
1070
    74
1070
     0
1000
MTEXTEND
  0
POINT
  5
5AE
330
43D
100
AcDbEntity
  8
Defpoints
 62
     0
100
AcDbPoint
 10
47.91146414285797
 20
39.58105911618066
 30
0.0
  0
POINT
  5
5AF
330
43D
100
AcDbEntity
  8
Defpoints
 62
     0
100
AcDbPoint
 10
47.91146414285797
 20
41.38053690435413
 30
0.0
  0
POINT
  5
5B0
330
43D
100
AcDbEntity
  8
Defpoints
 62
     0
100
AcDbPoint
 10
35.2864577626203
 20
19.3621870313283
 30
0.0
  0
ENDBLK
  5
444
330
43D
100
AcDbEntity
  8
0
100
AcDbBlockEnd
  0
BLOCK
  5
44B
330
445
100
AcDbEntity
  8
0
100
AcDbBlockBegin
  2
*D26
 70
     1
 10
0.0
 20
0.0
 30
0.0
  3
*D26
  1

  0
LINE
  5
562
330
445
100
AcDbEntity
  8
DIM
 62
     0
370
    -2
100
AcDbLine
 10
48.11146414285797
 20
38.08105911618066
 30
0.0
 11
56.53645776262028
 21
38.08105911618066
 31
0.0
  0
MTEXT
  5
563
330
445
100
AcDbEntity
  8
DIM
 62
     0
100
AcDbMText
 10
58.79312442928696
 20
38.08105911618066
 30
0.0
 40
1.0
 41
0.0
 71
     5
 72
     1
  1
\A1;18.719
 73
     1
 44
1.0
1001
ACAD
1000
MTEXTBEGIN
1070
    73
1070
     1
1070
    44
1040
1.0
1070
    74
1070
     0
1000
MTEXTEND
  0
POINT
  5
564
330
445
100
AcDbEntity
  8
Defpoints
 62
     0
100
AcDbPoint
 10
47.91146414285797
 20
38.08105911618066
 30
0.0
  0
POINT
  5
565
330
445
100
AcDbEntity
  8
Defpoints
 62
     0
100
AcDbPoint
 10
56.53645776262028
 20
38.08105911618066
 30
0.0
  0
POINT
  5
566
330
445
100
AcDbEntity
  8
Defpoints
 62
     0
100
AcDbPoint
 10
35.2864577626203
 20
19.3621870313283
 30
0.0
  0
ENDBLK
  5
44C
330
445
100
AcDbEntity
  8
0
100
AcDbBlockEnd
  0
BLOCK
  5
455
330
44D
100
AcDbEntity
  8
0
100
AcDbBlockBegin
  2
*D27
 70
     1
 10
0.0
 20
0.0
 30
0.0
  3
*D27
  1

  0
LINE
  5
55B
330
44D
100
AcDbEntity
  8
DIM
 62
     0
370
    -2
100
AcDbLine
 10
48.11146414285797
 20
39.58105911618066
 30
0.0
 11
52.53645776262029
 21
39.58105911618066
 31
0.0
  0
LINE
  5
55C
330
44D
100
AcDbEntity
  8
DIM
 62
     0
370
    -2
100
AcDbLine
 10
52.53645776262029
 20
39.58105911618066
 30
0.0
 11
54.53645776262028
 21
40.0250788627835
 31
0.0
  0
LINE
  5
55D
330
44D
100
AcDbEntity
  8
DIM
 62
     0
370
    -2
100
AcDbLine
 10
54.53645776262028
 20
40.0250788627835
 30
0.0
 11
56.53645776262028
 21
40.0250788627835
 31
0.0
  0
MTEXT
  5
55E
330
44D
100
AcDbEntity
  8
DIM
 62
     0
100
AcDbMText
 10
58.87645776262028
 20
40.0250788627835
 30
0.0
 40
1.0
 41
0.0
 71
     5
 72
     1
  1
\A1;20.219
 73
     1
 44
1.0
1001
ACAD
1000
MTEXTBEGIN
1070
    73
1070
     1
1070
    44
1040
1.0
1070
    74
1070
     0
1000
MTEXTEND
  0
POINT
  5
55F
330
44D
100
AcDbEntity
  8
Defpoints
 62
     0
100
AcDbPoint
 10
47.91146414285797
 20
39.58105911618066
 30
0.0
  0
POINT
  5
560
330
44D
100
AcDbEntity
  8
Defpoints
 62
     0
100
AcDbPoint
 10
56.53645776262028
 20
40.0250788627835
 30
0.0
  0
POINT
  5
561
330
44D
100
AcDbEntity
  8
Defpoints
 62
     0
100
AcDbPoint
 10
35.2864577626203
 20
19.3621870313283
 30
0.0
  0
ENDBLK
  5
456
330
44D
100
AcDbEntity
  8
0
100
AcDbBlockEnd
  0
BLOCK
  5
45D
330
457
100
AcDbEntity
  8
0
100
AcDbBlockBegin
  2
*D28
 70
     1
 10
0.0
 20
0.0
 30
0.0
  3
*D28
  1

  0
LINE
  5
556
330
457
100
AcDbEntity
  8
DIM
 62
     0
370
    -2
100
AcDbLine
 10
52.61145776262053
 20
28.39402561275758
 30
0.0
 11
56.53645776262028
 21
28.39402561275758
 31
0.0
  0
MTEXT
  5
557
330
457
100
AcDbEntity
  8
DIM
 62
     0
100
AcDbMText
 10
58.54312442928697
 20
28.39402561275758
 30
0.0
 40
1.0
 41
0.0
 71
     5
 72
     1
  1
\A1;9.032
 73
     1
 44
1.0
1001
ACAD
1000
MTEXTBEGIN
1070
    73
1070
     1
1070
    44
1040
1.0
1070
    74
1070
     0
1000
MTEXTEND
  0
POINT
  5
558
330
457
100
AcDbEntity
  8
Defpoints
 62
     0
100
AcDbPoint
 10
52.41145776262054
 20
28.39402561275758
 30
0.0
  0
POINT
  5
559
330
457
100
AcDbEntity
  8
Defpoints
 62
     0
100
AcDbPoint
 10
56.53645776262028
 20
28.39402561275758
 30
0.0
  0
POINT
  5
55A
330
457
100
AcDbEntity
  8
Defpoints
 62
     0
100
AcDbPoint
 10
35.2864577626203
 20
19.3621870313283
 30
0.0
  0
ENDBLK
  5
45E
330
457
100
AcDbEntity
  8
0
100
AcDbBlockEnd
  0
BLOCK
  5
465
330
45F
100
AcDbEntity
  8
0
100
AcDbBlockBegin
  2
*D29
 70
     1
 10
0.0
 20
0.0
 30
0.0
  3
*D29
  1

  0
LINE
  5
551
330
45F
100
AcDbEntity
  8
DIM
 62
     0
370
    -2
100
AcDbLine
 10
52.61145776262053
 20
25.39402561275757
 30
0.0
 11
56.53645776262028
 21
25.39402561275757
 31
0.0
  0
MTEXT
  5
552
330
45F
100
AcDbEntity
  8
DIM
 62
     0
100
AcDbMText
 10
58.54312442928697
 20
25.39402561275757
 30
0.0
 40
1.0
 41
0.0
 71
     5
 72
     1
  1
\A1;6.032
 73
     1
 44
1.0
1001
ACAD
1000
MTEXTBEGIN
1070
    73
1070
     1
1070
    44
1040
1.0
1070
    74
1070
     0
1000
MTEXTEND
  0
POINT
  5
553
330
45F
100
AcDbEntity
  8
Defpoints
 62
     0
100
AcDbPoint
 10
52.41145776262054
 20
25.39402561275757
 30
0.0
  0
POINT
  5
554
330
45F
100
AcDbEntity
  8
Defpoints
 62
     0
100
AcDbPoint
 10
56.53645776262028
 20
25.39402561275757
 30
0.0
  0
POINT
  5
555
330
45F
100
AcDbEntity
  8
Defpoints
 62
     0
100
AcDbPoint
 10
35.2864577626203
 20
19.3621870313283
 30
0.0
  0
ENDBLK
  5
466
330
45F
100
AcDbEntity
  8
0
100
AcDbBlockEnd
  0
BLOCK
  5
46D
330
467
100
AcDbEntity
  8
0
100
AcDbBlockBegin
  2
*D30
 70
     1
 10
0.0
 20
0.0
 30
0.0
  3
*D30
  1

  0
LINE
  5
58A
330
467
100
AcDbEntity
  8
DIM
 62
     0
370
    -2
100
AcDbLine
 10
35.5234641428581
 20
34.05305911618064
 30
0.0
 11
33.2864577626203
 21
34.05305911618064
 31
0.0
  0
MTEXT
  5
58B
330
467
100
AcDbEntity
  8
DIM
 62
     0
100
AcDbMText
 10
31.02979109595363
 20
34.05305911618064
 30
0.0
 40
1.0
 41
0.0
 71
     5
 72
     1
  1
\A1;14.691
 73
     1
 44
1.0
1001
ACAD
1000
MTEXTBEGIN
1070
    73
1070
     1
1070
    44
1040
1.0
1070
    74
1070
     0
1000
MTEXTEND
  0
POINT
  5
58C
330
467
100
AcDbEntity
  8
Defpoints
 62
     0
100
AcDbPoint
 10
35.7234641428581
 20
34.05305911618064
 30
0.0
  0
POINT
  5
58D
330
467
100
AcDbEntity
  8
Defpoints
 62
     0
100
AcDbPoint
 10
33.2864577626203
 20
34.05305911618064
 30
0.0
  0
POINT
  5
58E
330
467
100
AcDbEntity
  8
Defpoints
 62
     0
100
AcDbPoint
 10
35.2864577626203
 20
19.3621870313283
 30
0.0
  0
ENDBLK
  5
46E
330
467
100
AcDbEntity
  8
0
100
AcDbBlockEnd
  0
BLOCK
  5
475
330
46F
100
AcDbEntity
  8
0
100
AcDbBlockBegin
  2
*D31
 70
     1
 10
0.0
 20
0.0
 30
0.0
  3
*D31
  1

  0
LINE
  5
585
330
46F
100
AcDbEntity
  8
DIM
 62
     0
370
    -2
100
AcDbLine
 10
35.52346414285786
 20
41.05305911618064
 30
0.0
 11
33.2864577626203
 21
41.05305911618064
 31
0.0
  0
MTEXT
  5
586
330
46F
100
AcDbEntity
  8
DIM
 62
     0
100
AcDbMText
 10
31.02979109595363
 20
41.05305911618064
 30
0.0
 40
1.0
 41
0.0
 71
     5
 72
     1
  1
\A1;21.691
 73
     1
 44
1.0
1001
ACAD
1000
MTEXTBEGIN
1070
    73
1070
     1
1070
    44
1040
1.0
1070
    74
1070
     0
1000
MTEXTEND
  0
POINT
  5
587
330
46F
100
AcDbEntity
  8
Defpoints
 62
     0
100
AcDbPoint
 10
35.72346414285787
 20
41.05305911618064
 30
0.0
  0
POINT
  5
588
330
46F
100
AcDbEntity
  8
Defpoints
 62
     0
100
AcDbPoint
 10
33.2864577626203
 20
41.05305911618064
 30
0.0
  0
POINT
  5
589
330
46F
100
AcDbEntity
  8
Defpoints
 62
     0
100
AcDbPoint
 10
35.2864577626203
 20
19.3621870313283
 30
0.0
  0
ENDBLK
  5
476
330
46F
100
AcDbEntity
  8
0
100
AcDbBlockEnd
  0
BLOCK
  5
47D
330
477
100
AcDbEntity
  8
0
100
AcDbBlockBegin
  2
*D32
 70
     1
 10
0.0
 20
0.0
 30
0.0
  3
*D32
  1

  0
LINE
  5
580
330
477
100
AcDbEntity
  8
DIM
 62
     0
370
    -2
100
AcDbLine
 10
35.52346414285786
 20
48.05305911618064
 30
0.0
 11
33.2864577626203
 21
48.05305911618064
 31
0.0
  0
MTEXT
  5
581
330
477
100
AcDbEntity
  8
DIM
 62
     0
100
AcDbMText
 10
30.86312442928697
 20
48.05305911618064
 30
0.0
 40
1.0
 41
0.0
 71
     5
 72
     1
  1
\A1;28.691
 73
     1
 44
1.0
1001
ACAD
1000
MTEXTBEGIN
1070
    73
1070
     1
1070
    44
1040
1.0
1070
    74
1070
     0
1000
MTEXTEND
  0
POINT
  5
582
330
477
100
AcDbEntity
  8
Defpoints
 62
     0
100
AcDbPoint
 10
35.72346414285787
 20
48.05305911618064
 30
0.0
  0
POINT
  5
583
330
477
100
AcDbEntity
  8
Defpoints
 62
     0
100
AcDbPoint
 10
33.2864577626203
 20
48.05305911618064
 30
0.0
  0
POINT
  5
584
330
477
100
AcDbEntity
  8
Defpoints
 62
     0
100
AcDbPoint
 10
35.2864577626203
 20
19.3621870313283
 30
0.0
  0
ENDBLK
  5
47E
330
477
100
AcDbEntity
  8
0
100
AcDbBlockEnd
  0
BLOCK
  5
485
330
47F
100
AcDbEntity
  8
0
100
AcDbBlockBegin
  2
*D33
 70
     1
 10
0.0
 20
0.0
 30
0.0
  3
*D33
  1

  0
LINE
  5
571
330
47F
100
AcDbEntity
  8
DIM
 62
     0
370
    -2
100
AcDbLine
 10
51.32152056723835
 20
50.91197985614914
 30
0.0
 11
51.32152056723835
 21
53.89402561275757
 31
0.0
  0
MTEXT
  5
572
330
47F
100
AcDbEntity
  8
DIM
 62
     0
100
AcDbMText
 10
51.32152056723835
 20
56.23402561275756
 30
0.0
 40
1.0
 41
0.0
 71
     5
 72
     1
  1
\A1;16.035
 11
0.0000000000000001
 21
1.0
 31
0.0
 73
     1
 44
1.0
1001
ACAD
1000
MTEXTBEGIN
1070
    73
1070
     1
1070
    44
1040
1.0
1070
    74
1070
     0
1000
MTEXTEND
  0
POINT
  5
573
330
47F
100
AcDbEntity
  8
Defpoints
 62
     0
100
AcDbPoint
 10
51.32152056723835
 20
50.71197985614912
 30
0.0
  0
POINT
  5
574
330
47F
100
AcDbEntity
  8
Defpoints
 62
     0
100
AcDbPoint
 10
51.32152056723835
 20
53.89402561275757
 30
0.0
  0
POINT
  5
575
330
47F
100
AcDbEntity
  8
Defpoints
 62
     0
100
AcDbPoint
 10
35.2864577626203
 20
19.3621870313283
 30
0.0
  0
ENDBLK
  5
486
330
47F
100
AcDbEntity
  8
0
100
AcDbBlockEnd
  0
BLOCK
  5
48D
330
487
100
AcDbEntity
  8
0
100
AcDbBlockBegin
  2
*D34
 70
     1
 10
0.0
 20
0.0
 30
0.0
  3
*D34
  1

  0
LINE
  5
56C
330
487
100
AcDbEntity
  8
DIM
 62
     0
370
    -2
100
AcDbLine
 10
38.49652056723855
 20
50.91197985614914
 30
0.0
 11
38.49652056723855
 21
53.89402561275757
 31
0.0
  0
MTEXT
  5
56D
330
487
100
AcDbEntity
  8
DIM
 62
     0
100
AcDbMText
 10
38.49652056723853
 20
55.73402561275758
 30
0.0
 40
1.0
 41
0.0
 71
     5
 72
     1
  1
\A1;3.210
 11
0.0000000000000001
 21
1.0
 31
0.0
 73
     1
 44
1.0
1001
ACAD
1000
MTEXTBEGIN
1070
    73
1070
     1
1070
    44
1040
1.0
1070
    74
1070
     0
1000
MTEXTEND
  0
POINT
  5
56E
330
487
100
AcDbEntity
  8
Defpoints
 62
     0
100
AcDbPoint
 10
38.49652056723855
 20
50.71197985614912
 30
0.0
  0
POINT
  5
56F
330
487
100
AcDbEntity
  8
Defpoints
 62
     0
100
AcDbPoint
 10
38.49652056723855
 20
53.89402561275757
 30
0.0
  0
POINT
  5
570
330
487
100
AcDbEntity
  8
Defpoints
 62
     0
100
AcDbPoint
 10
35.2864577626203
 20
19.3621870313283
 30
0.0
  0
ENDBLK
  5
48E
330
487
100
AcDbEntity
  8
0
100
AcDbBlockEnd
  0
BLOCK
  5
495
330
48F
100
AcDbEntity
  8
0
100
AcDbBlockBegin
  2
*D35
 70
     1
 10
0.0
 20
0.0
 30
0.0
  3
*D35
  1

  0
LINE
  5
54C
330
48F
100
AcDbEntity
  8
DIM
 62
     0
370
    -2
100
AcDbLine
 10
51.52152056723837
 20
47.87447985614916
 30
0.0
 11
56.53645776262028
 21
47.87447985614916
 31
0.0
  0
MTEXT
  5
54D
330
48F
100
AcDbEntity
  8
DIM
 62
     0
100
AcDbMText
 10
58.95979109595363
 20
47.87447985614916
 30
0.0
 40
1.0
 41
0.0
 71
     5
 72
     1
  1
\A1;28.512
 73
     1
 44
1.0
1001
ACAD
1000
MTEXTBEGIN
1070
    73
1070
     1
1070
    44
1040
1.0
1070
    74
1070
     0
1000
MTEXTEND
  0
POINT
  5
54E
330
48F
100
AcDbEntity
  8
Defpoints
 62
     0
100
AcDbPoint
 10
51.32152056723835
 20
47.87447985614916
 30
0.0
  0
POINT
  5
54F
330
48F
100
AcDbEntity
  8
Defpoints
 62
     0
100
AcDbPoint
 10
56.53645776262028
 20
47.87447985614916
 30
0.0
  0
POINT
  5
550
330
48F
100
AcDbEntity
  8
Defpoints
 62
     0
100
AcDbPoint
 10
35.2864577626203
 20
19.3621870313283
 30
0.0
  0
ENDBLK
  5
496
330
48F
100
AcDbEntity
  8
0
100
AcDbBlockEnd
  0
BLOCK
  5
49D
330
497
100
AcDbEntity
  8
0
100
AcDbBlockBegin
  2
*D36
 70
     1
 10
0.0
 20
0.0
 30
0.0
  3
*D36
  1

  0
LINE
  5
547
330
497
100
AcDbEntity
  8
DIM
 62
     0
370
    -2
100
AcDbLine
 10
51.52152056723837
 20
50.71197985614919
 30
0.0
 11
56.53645776262028
 21
50.71197985614919
 31
0.0
  0
MTEXT
  5
548
330
497
100
AcDbEntity
  8
DIM
 62
     0
100
AcDbMText
 10
58.87645776262028
 20
50.71197985614919
 30
0.0
 40
1.0
 41
0.0
 71
     5
 72
     1
  1
\A1;31.350
 73
     1
 44
1.0
1001
ACAD
1000
MTEXTBEGIN
1070
    73
1070
     1
1070
    44
1040
1.0
1070
    74
1070
     0
1000
MTEXTEND
  0
POINT
  5
549
330
497
100
AcDbEntity
  8
Defpoints
 62
     0
100
AcDbPoint
 10
51.32152056723835
 20
50.71197985614919
 30
0.0
  0
POINT
  5
54A
330
497
100
AcDbEntity
  8
Defpoints
 62
     0
100
AcDbPoint
 10
56.53645776262028
 20
50.71197985614919
 30
0.0
  0
POINT
  5
54B
330
497
100
AcDbEntity
  8
Defpoints
 62
     0
100
AcDbPoint
 10
35.2864577626203
 20
19.3621870313283
 30
0.0
  0
ENDBLK
  5
49E
330
497
100
AcDbEntity
  8
0
100
AcDbBlockEnd
  0
BLOCK
  5
4A5
330
49F
100
AcDbEntity
  8
0
100
AcDbBlockBegin
  2
*D37
 70
     1
 10
0.0
 20
0.0
 30
0.0
  3
*D37
  1

  0
LINE
  5
542
330
49F
100
AcDbEntity
  8
DIM
 62
     0
370
    -2
100
AcDbLine
 10
54.73645776262053
 20
51.89402561275755
 30
0.0
 11
56.53645776262028
 21
51.89402561275755
 31
0.0
  0
MTEXT
  5
543
330
49F
100
AcDbEntity
  8
DIM
 62
     0
100
AcDbMText
 10
59.04312442928697
 20
51.89402561275755
 30
0.0
 40
1.0
 41
0.0
 71
     5
 72
     1
  1
\A1;32.530
 73
     1
 44
1.0
1001
ACAD
1000
MTEXTBEGIN
1070
    73
1070
     1
1070
    44
1040
1.0
1070
    74
1070
     0
1000
MTEXTEND
  0
POINT
  5
544
330
49F
100
AcDbEntity
  8
Defpoints
 62
     0
100
AcDbPoint
 10
54.53645776262053
 20
51.89402561275755
 30
0.0
  0
POINT
  5
545
330
49F
100
AcDbEntity
  8
Defpoints
 62
     0
100
AcDbPoint
 10
56.53645776262028
 20
51.89402561275755
 30
0.0
  0
POINT
  5
546
330
49F
100
AcDbEntity
  8
Defpoints
 62
     0
100
AcDbPoint
 10
35.2864577626203
 20
19.3621870313283
 30
0.0
  0
ENDBLK
  5
4A6
330
49F
100
AcDbEntity
  8
0
100
AcDbBlockEnd
  0
BLOCK
  5
4AD
330
4A7
100
AcDbEntity
  8
0
100
AcDbBlockBegin
  2
*D38
 70
     1
 10
0.0
 20
0.0
 30
0.0
  3
*D38
  1

  0
LINE
  5
567
330
4A7
100
AcDbEntity
  8
DIM
 62
     0
370
    -2
100
AcDbLine
 10
54.53645776262053
 20
52.09402561275757
 30
0.0
 11
54.53645776262053
 21
53.89402561275757
 31
0.0
  0
MTEXT
  5
568
330
4A7
100
AcDbEntity
  8
DIM
 62
     0
100
AcDbMText
 10
54.5364577626205
 20
56.23402561275756
 30
0.0
 40
1.0
 41
0.0
 71
     5
 72
     1
  1
\A1;19.250
 11
0.0000000000000001
 21
1.0
 31
0.0
 73
     1
 44
1.0
1001
ACAD
1000
MTEXTBEGIN
1070
    73
1070
     1
1070
    44
1040
1.0
1070
    74
1070
     0
1000
MTEXTEND
  0
POINT
  5
569
330
4A7
100
AcDbEntity
  8
Defpoints
 62
     0
100
AcDbPoint
 10
54.53645776262053
 20
51.89402561275755
 30
0.0
  0
POINT
  5
56A
330
4A7
100
AcDbEntity
  8
Defpoints
 62
     0
100
AcDbPoint
 10
54.53645776262053
 20
53.89402561275757
 30
0.0
  0
POINT
  5
56B
330
4A7
100
AcDbEntity
  8
Defpoints
 62
     0
100
AcDbPoint
 10
35.2864577626203
 20
19.3621870313283
 30
0.0
  0
ENDBLK
  5
4AE
330
4A7
100
AcDbEntity
  8
0
100
AcDbBlockEnd
  0
BLOCK
  5
4B7
330
4AF
100
AcDbEntity
  8
0
100
AcDbBlockBegin
  2
*D39
 70
     1
 10
0.0
 20
0.0
 30
0.0
  3
*D39
  1

  0
LINE
  5
59B
330
4AF
100
AcDbEntity
  8
DIM
 62
     0
370
    -2
100
AcDbLine
 10
54.20288241373334
 20
27.00945896032758
 30
0.0
 11
54.20288241373334
 21
21.3621870313283
 31
0.0
  0
LINE
  5
59C
330
4AF
100
AcDbEntity
  8
DIM
 62
     0
370
    -2
100
AcDbLine
 10
54.20288241373334
 20
21.3621870313283
 30
0.0
 11
52.26407619913739
 21
19.3621870313283
 31
0.0
  0
LINE
  5
59D
330
4AF
100
AcDbEntity
  8
DIM
 62
     0
370
    -2
100
AcDbLine
 10
52.26407619913739
 20
19.3621870313283
 30
0.0
 11
52.26407619913739
 21
17.3621870313283
 31
0.0
  0
MTEXT
  5
59E
330
4AF
100
AcDbEntity
  8
DIM
 62
     0
100
AcDbMText
 10
52.26407619913739
 20
15.10552036466164
 30
0.0
 40
1.0
 41
0.0
 71
     5
 72
     1
  1
\A1;18.916
 11
0.0000000000000001
 21
1.0
 31
0.0
 73
     1
 44
1.0
1001
ACAD
1000
MTEXTBEGIN
1070
    73
1070
     1
1070
    44
1040
1.0
1070
    74
1070
     0
1000
MTEXTEND
  0
POINT
  5
59F
330
4AF
100
AcDbEntity
  8
Defpoints
 62
     0
100
AcDbPoint
 10
54.20288241373334
 20
27.20945896032758
 30
0.0
  0
POINT
  5
5A0
330
4AF
100
AcDbEntity
  8
Defpoints
 62
     0
100
AcDbPoint
 10
52.26407619913739
 20
17.3621870313283
 30
0.0
  0
POINT
  5
5A1
330
4AF
100
AcDbEntity
  8
Defpoints
 62
     0
100
AcDbPoint
 10
35.2864577626203
 20
19.3621870313283
 30
0.0
  0
ENDBLK
  5
4B8
330
4AF
100
AcDbEntity
  8
0
100
AcDbBlockEnd
  0
BLOCK
  5
4BF
330
4B9
100
AcDbEntity
  8
0
100
AcDbBlockBegin
  2
*D40
 70
     1
 10
0.0
 20
0.0
 30
0.0
  3
*D40
  1

  0
LINE
  5
5A7
330
4B9
100
AcDbEntity
  8
DIM
 62
     0
370
    -2
100
AcDbLine
 10
52.41145776262054
 20
28.59402561275758
 30
0.0
 11
52.41145776262054
 21
30.30989225686289
 31
0.0
  0
MTEXT
  5
5A8
330
4B9
100
AcDbEntity
  8
DIM
 62
     0
100
AcDbMText
 10
52.41145776262054
 20
32.56655892352956
 30
0.0
 40
1.0
 41
0.0
 71
     5
 72
     1
  1
\A1;17.125
 11
0.0000000000000001
 21
1.0
 31
0.0
 73
     1
 44
1.0
1001
ACAD
1000
MTEXTBEGIN
1070
    73
1070
     1
1070
    44
1040
1.0
1070
    74
1070
     0
1000
MTEXTEND
  0
POINT
  5
5A9
330
4B9
100
AcDbEntity
  8
Defpoints
 62
     0
100
AcDbPoint
 10
52.41145776262054
 20
28.39402561275758
 30
0.0
  0
POINT
  5
5AA
330
4B9
100
AcDbEntity
  8
Defpoints
 62
     0
100
AcDbPoint
 10
52.41145776262054
 20
30.30989225686289
 30
0.0
  0
POINT
  5
5AB
330
4B9
100
AcDbEntity
  8
Defpoints
 62
     0
100
AcDbPoint
 10
35.2864577626203
 20
19.3621870313283
 30
0.0
  0
ENDBLK
  5
4C0
330
4B9
100
AcDbEntity
  8
0
100
AcDbBlockEnd
  0
BLOCK
  5
4C7
330
4C1
100
AcDbEntity
  8
0
100
AcDbBlockBegin
  2
*D41
 70
     1
 10
0.0
 20
0.0
 30
0.0
  3
*D41
  1

  0
LINE
  5
5A2
330
4C1
100
AcDbEntity
  8
DIM
 62
     0
370
    -2
100
AcDbLine
 10
37.4114577626203
 20
28.59402561275758
 30
0.0
 11
37.4114577626203
 21
30.30989225686289
 31
0.0
  0
MTEXT
  5
5A3
330
4C1
100
AcDbEntity
  8
DIM
 62
     0
100
AcDbMText
 10
37.4114577626203
 20
32.23322559019623
 30
0.0
 40
1.0
 41
0.0
 71
     5
 72
     1
  1
\A1;2.125
 11
0.0000000000000001
 21
1.0
 31
0.0
 73
     1
 44
1.0
1001
ACAD
1000
MTEXTBEGIN
1070
    73
1070
     1
1070
    44
1040
1.0
1070
    74
1070
     0
1000
MTEXTEND
  0
POINT
  5
5A4
330
4C1
100
AcDbEntity
  8
Defpoints
 62
     0
100
AcDbPoint
 10
37.4114577626203
 20
28.39402561275758
 30
0.0
  0
POINT
  5
5A5
330
4C1
100
AcDbEntity
  8
Defpoints
 62
     0
100
AcDbPoint
 10
37.4114577626203
 20
30.30989225686289
 30
0.0
  0
POINT
  5
5A6
330
4C1
100
AcDbEntity
  8
Defpoints
 62
     0
100
AcDbPoint
 10
35.2864577626203
 20
19.3621870313283
 30
0.0
  0
ENDBLK
  5
4C8
330
4C1
100
AcDbEntity
  8
0
100
AcDbBlockEnd
  0
BLOCK
  5
4D1
330
4C9
100
AcDbEntity
  8
0
100
AcDbBlockBegin
  2
*D42
 70
     1
 10
0.0
 20
0.0
 30
0.0
  3
*D42
  1

  0
LINE
  5
594
330
4C9
100
AcDbEntity
  8
DIM
 62
     0
370
    -2
100
AcDbLine
 10
35.7234641428581
 20
26.85305911618064
 30
0.0
 11
35.7234641428581
 21
21.3621870313283
 31
0.0
  0
LINE
  5
595
330
4C9
100
AcDbEntity
  8
DIM
 62
     0
370
    -2
100
AcDbLine
 10
35.7234641428581
 20
21.3621870313283
 30
0.0
 11
37.4948283446233
 21
19.3621870313283
 31
0.0
  0
LINE
  5
596
330
4C9
100
AcDbEntity
  8
DIM
 62
     0
370
    -2
100
AcDbLine
 10
37.4948283446233
 20
19.3621870313283
 30
0.0
 11
37.4948283446233
 21
17.3621870313283
 31
0.0
  0
MTEXT
  5
597
330
4C9
100
AcDbEntity
  8
DIM
 62
     0
100
AcDbMText
 10
37.49482834462329
 20
15.35552036466164
 30
0.0
 40
1.0
 41
0.0
 71
     5
 72
     1
  1
\A1;0.437
 11
0.0000000000000001
 21
1.0
 31
0.0
 73
     1
 44
1.0
1001
ACAD
1000
MTEXTBEGIN
1070
    73
1070
     1
1070
    44
1040
1.0
1070
    74
1070
     0
1000
MTEXTEND
  0
POINT
  5
598
330
4C9
100
AcDbEntity
  8
Defpoints
 62
     0
100
AcDbPoint
 10
35.7234641428581
 20
27.05305911618064
 30
0.0
  0
POINT
  5
599
330
4C9
100
AcDbEntity
  8
Defpoints
 62
     0
100
AcDbPoint
 10
37.4948283446233
 20
17.3621870313283
 30
0.0
  0
POINT
  5
59A
330
4C9
100
AcDbEntity
  8
Defpoints
 62
     0
100
AcDbPoint
 10
35.2864577626203
 20
19.3621870313283
 30
0.0
  0
ENDBLK
  5
4D2
330
4C9
100
AcDbEntity
  8
0
100
AcDbBlockEnd
  0
BLOCK
  5
5D5
330
5D4
100
AcDbEntity
  8
0
100
AcDbBlockBegin
  2
*D43
 70
     1
 10
0.0
 20
0.0
 30
0.0
  3
*D43
  1

  0
LINE
  5
5D6
330
5D4
100
AcDbEntity
  8
0
 62
     0
370
    -2
100
AcDbLine
 10
449.35007849395
 20
54.21439641606787
 30
0.0
 11
449.35007849395
 21
55.63887420424133
 31
0.0
  0
MTEXT
  5
5D7
330
5D4
100
AcDbEntity
  8
0
 62
     0
100
AcDbMText
 10
449.35007849395
 20
58.34720753757475
 30
0.0
 40
1.0
 41
0.0
 71
     5
 72
     1
  1
\A1;12.625
 11
0.0000000000000001
 21
1.0
 31
0.0
 73
     1
 44
1.0
1001
ACAD
1000
MTEXTBEGIN
1070
    73
1070
     1
1070
    44
1040
1.0
1070
    74
1070
     0
1000
MTEXTEND
  0
POINT
  5
5D8
330
5D4
100
AcDbEntity
  8
Defpoints
 62
     0
100
AcDbPoint
 10
449.35007849395
 20
53.83939641606787
 30
0.0
  0
POINT
  5
5D9
330
5D4
100
AcDbEntity
  8
Defpoints
 62
     0
100
AcDbPoint
 10
449.35007849395
 20
55.63887420424133
 30
0.0
  0
POINT
  5
5DA
330
5D4
100
AcDbEntity
  8
Defpoints
 62
     0
100
AcDbPoint
 10
436.7250721137123
 20
33.62052433121551
 30
0.0
  0
ENDBLK
  5
5DB
330
5D4
100
AcDbEntity
  8
0
100
AcDbBlockEnd
  0
BLOCK
  5
5DD
330
5DC
100
AcDbEntity
  8
0
100
AcDbBlockBegin
  2
*D44
 70
     1
 10
0.0
 20
0.0
 30
0.0
  3
*D44
  1

  0
LINE
  5
5DE
330
5DC
100
AcDbEntity
  8
0
 62
     0
370
    -2
100
AcDbLine
 10
449.72507849395
 20
52.33939641606787
 30
0.0
 11
457.9750721137124
 21
52.33939641606787
 31
0.0
  0
MTEXT
  5
5DF
330
5DC
100
AcDbEntity
  8
0
 62
     0
100
AcDbMText
 10
460.5167387803791
 20
52.33939641606787
 30
0.0
 40
1.0
 41
0.0
 71
     5
 72
     1
  1
\A1;18.719
 73
     1
 44
1.0
1001
ACAD
1000
MTEXTBEGIN
1070
    73
1070
     1
1070
    44
1040
1.0
1070
    74
1070
     0
1000
MTEXTEND
  0
POINT
  5
5E0
330
5DC
100
AcDbEntity
  8
Defpoints
 62
     0
100
AcDbPoint
 10
449.35007849395
 20
52.33939641606787
 30
0.0
  0
POINT
  5
5E1
330
5DC
100
AcDbEntity
  8
Defpoints
 62
     0
100
AcDbPoint
 10
457.9750721137124
 20
52.33939641606787
 30
0.0
  0
POINT
  5
5E2
330
5DC
100
AcDbEntity
  8
Defpoints
 62
     0
100
AcDbPoint
 10
436.7250721137123
 20
33.62052433121551
 30
0.0
  0
ENDBLK
  5
5E3
330
5DC
100
AcDbEntity
  8
0
100
AcDbBlockEnd
  0
BLOCK
  5
5E5
330
5E4
100
AcDbEntity
  8
0
100
AcDbBlockBegin
  2
*D45
 70
     1
 10
0.0
 20
0.0
 30
0.0
  3
*D45
  1

  0
LINE
  5
5E6
330
5E4
100
AcDbEntity
  8
0
 62
     0
370
    -2
100
AcDbLine
 10
449.72507849395
 20
53.83939641606787
 30
0.0
 11
453.9750721137123
 21
53.83939641606787
 31
0.0
  0
LINE
  5
5E7
330
5E4
100
AcDbEntity
  8
0
 62
     0
370
    -2
100
AcDbLine
 10
453.9750721137123
 20
53.83939641606787
 30
0.0
 11
455.9750721137125
 21
54.28341616267072
 31
0.0
  0
LINE
  5
5E8
330
5E4
100
AcDbEntity
  8
0
 62
     0
370
    -2
100
AcDbLine
 10
455.9750721137125
 20
54.28341616267072
 30
0.0
 11
457.9750721137124
 21
54.28341616267072
 31
0.0
  0
MTEXT
  5
5E9
330
5E4
100
AcDbEntity
  8
0
 62
     0
100
AcDbMText
 10
460.6000721137124
 20
54.28341616267072
 30
0.0
 40
1.0
 41
0.0
 71
     5
 72
     1
  1
\A1;20.219
 73
     1
 44
1.0
1001
ACAD
1000
MTEXTBEGIN
1070
    73
1070
     1
1070
    44
1040
1.0
1070
    74
1070
     0
1000
MTEXTEND
  0
POINT
  5
5EA
330
5E4
100
AcDbEntity
  8
Defpoints
 62
     0
100
AcDbPoint
 10
449.35007849395
 20
53.83939641606787
 30
0.0
  0
POINT
  5
5EB
330
5E4
100
AcDbEntity
  8
Defpoints
 62
     0
100
AcDbPoint
 10
457.9750721137124
 20
54.28341616267072
 30
0.0
  0
POINT
  5
5EC
330
5E4
100
AcDbEntity
  8
Defpoints
 62
     0
100
AcDbPoint
 10
436.7250721137123
 20
33.62052433121551
 30
0.0
  0
ENDBLK
  5
5ED
330
5E4
100
AcDbEntity
  8
0
100
AcDbBlockEnd
  0
BLOCK
  5
5EF
330
5EE
100
AcDbEntity
  8
0
100
AcDbBlockBegin
  2
*D46
 70
     1
 10
0.0
 20
0.0
 30
0.0
  3
*D46
  1

  0
LINE
  5
5F0
330
5EE
100
AcDbEntity
  8
0
 62
     0
370
    -2
100
AcDbLine
 10
454.2250721137125
 20
42.65236291264478
 30
0.0
 11
457.9750721137124
 21
42.65236291264478
 31
0.0
  0
MTEXT
  5
5F1
330
5EE
100
AcDbEntity
  8
0
 62
     0
100
AcDbMText
 10
460.2667387803792
 20
42.65236291264478
 30
0.0
 40
1.0
 41
0.0
 71
     5
 72
     1
  1
\A1;9.032
 73
     1
 44
1.0
1001
ACAD
1000
MTEXTBEGIN
1070
    73
1070
     1
1070
    44
1040
1.0
1070
    74
1070
     0
1000
MTEXTEND
  0
POINT
  5
5F2
330
5EE
100
AcDbEntity
  8
Defpoints
 62
     0
100
AcDbPoint
 10
453.8500721137125
 20
42.65236291264478
 30
0.0
  0
POINT
  5
5F3
330
5EE
100
AcDbEntity
  8
Defpoints
 62
     0
100
AcDbPoint
 10
457.9750721137124
 20
42.65236291264478
 30
0.0
  0
POINT
  5
5F4
330
5EE
100
AcDbEntity
  8
Defpoints
 62
     0
100
AcDbPoint
 10
436.7250721137123
 20
33.62052433121551
 30
0.0
  0
ENDBLK
  5
5F5
330
5EE
100
AcDbEntity
  8
0
100
AcDbBlockEnd
  0
BLOCK
  5
5F7
330
5F6
100
AcDbEntity
  8
0
100
AcDbBlockBegin
  2
*D47
 70
     1
 10
0.0
 20
0.0
 30
0.0
  3
*D47
  1

  0
LINE
  5
5F8
330
5F6
100
AcDbEntity
  8
0
 62
     0
370
    -2
100
AcDbLine
 10
454.2250721137125
 20
39.65236291264478
 30
0.0
 11
457.9750721137124
 21
39.65236291264478
 31
0.0
  0
MTEXT
  5
5F9
330
5F6
100
AcDbEntity
  8
0
 62
     0
100
AcDbMText
 10
460.2667387803792
 20
39.65236291264478
 30
0.0
 40
1.0
 41
0.0
 71
     5
 72
     1
  1
\A1;6.032
 73
     1
 44
1.0
1001
ACAD
1000
MTEXTBEGIN
1070
    73
1070
     1
1070
    44
1040
1.0
1070
    74
1070
     0
1000
MTEXTEND
  0
POINT
  5
5FA
330
5F6
100
AcDbEntity
  8
Defpoints
 62
     0
100
AcDbPoint
 10
453.8500721137125
 20
39.65236291264478
 30
0.0
  0
POINT
  5
5FB
330
5F6
100
AcDbEntity
  8
Defpoints
 62
     0
100
AcDbPoint
 10
457.9750721137124
 20
39.65236291264478
 30
0.0
  0
POINT
  5
5FC
330
5F6
100
AcDbEntity
  8
Defpoints
 62
     0
100
AcDbPoint
 10
436.7250721137123
 20
33.62052433121551
 30
0.0
  0
ENDBLK
  5
5FD
330
5F6
100
AcDbEntity
  8
0
100
AcDbBlockEnd
  0
BLOCK
  5
5FF
330
5FE
100
AcDbEntity
  8
0
100
AcDbBlockBegin
  2
*D48
 70
     1
 10
0.0
 20
0.0
 30
0.0
  3
*D48
  1

  0
LINE
  5
600
330
5FE
100
AcDbEntity
  8
0
 62
     0
370
    -2
100
AcDbLine
 10
436.7870784939499
 20
48.31139641606785
 30
0.0
 11
434.7250721137124
 21
48.31139641606785
 31
0.0
  0
MTEXT
  5
601
330
5FE
100
AcDbEntity
  8
0
 62
     0
100
AcDbMText
 10
432.1834054470456
 20
48.31139641606785
 30
0.0
 40
1.0
 41
0.0
 71
     5
 72
     1
  1
\A1;14.691
 73
     1
 44
1.0
1001
ACAD
1000
MTEXTBEGIN
1070
    73
1070
     1
1070
    44
1040
1.0
1070
    74
1070
     0
1000
MTEXTEND
  0
POINT
  5
602
330
5FE
100
AcDbEntity
  8
Defpoints
 62
     0
100
AcDbPoint
 10
437.1620784939501
 20
48.31139641606785
 30
0.0
  0
POINT
  5
603
330
5FE
100
AcDbEntity
  8
Defpoints
 62
     0
100
AcDbPoint
 10
434.7250721137124
 20
48.31139641606785
 30
0.0
  0
POINT
  5
604
330
5FE
100
AcDbEntity
  8
Defpoints
 62
     0
100
AcDbPoint
 10
436.7250721137123
 20
33.62052433121551
 30
0.0
  0
ENDBLK
  5
605
330
5FE
100
AcDbEntity
  8
0
100
AcDbBlockEnd
  0
BLOCK
  5
607
330
606
100
AcDbEntity
  8
0
100
AcDbBlockBegin
  2
*D49
 70
     1
 10
0.0
 20
0.0
 30
0.0
  3
*D49
  1

  0
LINE
  5
608
330
606
100
AcDbEntity
  8
0
 62
     0
370
    -2
100
AcDbLine
 10
436.7870784939499
 20
55.31139641606785
 30
0.0
 11
434.7250721137124
 21
55.31139641606785
 31
0.0
  0
MTEXT
  5
609
330
606
100
AcDbEntity
  8
0
 62
     0
100
AcDbMText
 10
432.1834054470456
 20
55.31139641606785
 30
0.0
 40
1.0
 41
0.0
 71
     5
 72
     1
  1
\A1;21.691
 73
     1
 44
1.0
1001
ACAD
1000
MTEXTBEGIN
1070
    73
1070
     1
1070
    44
1040
1.0
1070
    74
1070
     0
1000
MTEXTEND
  0
POINT
  5
60A
330
606
100
AcDbEntity
  8
Defpoints
 62
     0
100
AcDbPoint
 10
437.1620784939499
 20
55.31139641606785
 30
0.0
  0
POINT
  5
60B
330
606
100
AcDbEntity
  8
Defpoints
 62
     0
100
AcDbPoint
 10
434.7250721137124
 20
55.31139641606785
 30
0.0
  0
POINT
  5
60C
330
606
100
AcDbEntity
  8
Defpoints
 62
     0
100
AcDbPoint
 10
436.7250721137123
 20
33.62052433121551
 30
0.0
  0
ENDBLK
  5
60D
330
606
100
AcDbEntity
  8
0
100
AcDbBlockEnd
  0
BLOCK
  5
60F
330
60E
100
AcDbEntity
  8
0
100
AcDbBlockBegin
  2
*D50
 70
     1
 10
0.0
 20
0.0
 30
0.0
  3
*D50
  1

  0
LINE
  5
610
330
60E
100
AcDbEntity
  8
0
 62
     0
370
    -2
100
AcDbLine
 10
436.7870784939499
 20
62.31139641606785
 30
0.0
 11
434.7250721137124
 21
62.31139641606785
 31
0.0
  0
MTEXT
  5
611
330
60E
100
AcDbEntity
  8
0
 62
     0
100
AcDbMText
 10
432.0167387803791
 20
62.31139641606785
 30
0.0
 40
1.0
 41
0.0
 71
     5
 72
     1
  1
\A1;28.691
 73
     1
 44
1.0
1001
ACAD
1000
MTEXTBEGIN
1070
    73
1070
     1
1070
    44
1040
1.0
1070
    74
1070
     0
1000
MTEXTEND
  0
POINT
  5
612
330
60E
100
AcDbEntity
  8
Defpoints
 62
     0
100
AcDbPoint
 10
437.1620784939499
 20
62.31139641606785
 30
0.0
  0
POINT
  5
613
330
60E
100
AcDbEntity
  8
Defpoints
 62
     0
100
AcDbPoint
 10
434.7250721137124
 20
62.31139641606785
 30
0.0
  0
POINT
  5
614
330
60E
100
AcDbEntity
  8
Defpoints
 62
     0
100
AcDbPoint
 10
436.7250721137123
 20
33.62052433121551
 30
0.0
  0
ENDBLK
  5
615
330
60E
100
AcDbEntity
  8
0
100
AcDbBlockEnd
  0
BLOCK
  5
617
330
616
100
AcDbEntity
  8
0
100
AcDbBlockBegin
  2
*D51
 70
     1
 10
0.0
 20
0.0
 30
0.0
  3
*D51
  1

  0
LINE
  5
618
330
616
100
AcDbEntity
  8
0
 62
     0
370
    -2
100
AcDbLine
 10
452.7601349183304
 20
65.34531715603634
 30
0.0
 11
452.7601349183304
 21
68.15236291264477
 31
0.0
  0
MTEXT
  5
619
330
616
100
AcDbEntity
  8
0
 62
     0
100
AcDbMText
 10
452.7601349183304
 20
70.77736291264485
 30
0.0
 40
1.0
 41
0.0
 71
     5
 72
     1
  1
\A1;16.035
 11
0.0000000000000001
 21
1.0
 31
0.0
 73
     1
 44
1.0
1001
ACAD
1000
MTEXTBEGIN
1070
    73
1070
     1
1070
    44
1040
1.0
1070
    74
1070
     0
1000
MTEXTEND
  0
POINT
  5
61A
330
616
100
AcDbEntity
  8
Defpoints
 62
     0
100
AcDbPoint
 10
452.7601349183304
 20
64.97031715603634
 30
0.0
  0
POINT
  5
61B
330
616
100
AcDbEntity
  8
Defpoints
 62
     0
100
AcDbPoint
 10
452.7601349183304
 20
68.15236291264477
 30
0.0
  0
POINT
  5
61C
330
616
100
AcDbEntity
  8
Defpoints
 62
     0
100
AcDbPoint
 10
436.7250721137123
 20
33.62052433121551
 30
0.0
  0
ENDBLK
  5
61D
330
616
100
AcDbEntity
  8
0
100
AcDbBlockEnd
  0
BLOCK
  5
61F
330
61E
100
AcDbEntity
  8
0
100
AcDbBlockBegin
  2
*D52
 70
     1
 10
0.0
 20
0.0
 30
0.0
  3
*D52
  1

  0
LINE
  5
620
330
61E
100
AcDbEntity
  8
0
 62
     0
370
    -2
100
AcDbLine
 10
439.9351349183306
 20
65.34531715603634
 30
0.0
 11
439.9351349183306
 21
68.15236291264477
 31
0.0
  0
MTEXT
  5
621
330
61E
100
AcDbEntity
  8
0
 62
     0
100
AcDbMText
 10
439.9351349183306
 20
70.27736291264485
 30
0.0
 40
1.0
 41
0.0
 71
     5
 72
     1
  1
\A1;3.210
 11
0.0000000000000001
 21
1.0
 31
0.0
 73
     1
 44
1.0
1001
ACAD
1000
MTEXTBEGIN
1070
    73
1070
     1
1070
    44
1040
1.0
1070
    74
1070
     0
1000
MTEXTEND
  0
POINT
  5
622
330
61E
100
AcDbEntity
  8
Defpoints
 62
     0
100
AcDbPoint
 10
439.9351349183306
 20
64.97031715603634
 30
0.0
  0
POINT
  5
623
330
61E
100
AcDbEntity
  8
Defpoints
 62
     0
100
AcDbPoint
 10
439.9351349183306
 20
68.15236291264477
 30
0.0
  0
POINT
  5
624
330
61E
100
AcDbEntity
  8
Defpoints
 62
     0
100
AcDbPoint
 10
436.7250721137123
 20
33.62052433121551
 30
0.0
  0
ENDBLK
  5
625
330
61E
100
AcDbEntity
  8
0
100
AcDbBlockEnd
  0
BLOCK
  5
627
330
626
100
AcDbEntity
  8
0
100
AcDbBlockBegin
  2
*D53
 70
     1
 10
0.0
 20
0.0
 30
0.0
  3
*D53
  1

  0
LINE
  5
628
330
626
100
AcDbEntity
  8
0
 62
     0
370
    -2
100
AcDbLine
 10
453.1351349183303
 20
62.13281715603637
 30
0.0
 11
457.9750721137124
 21
62.13281715603637
 31
0.0
  0
MTEXT
  5
629
330
626
100
AcDbEntity
  8
0
 62
     0
100
AcDbMText
 10
460.6834054470458
 20
62.13281715603637
 30
0.0
 40
1.0
 41
0.0
 71
     5
 72
     1
  1
\A1;28.512
 73
     1
 44
1.0
1001
ACAD
1000
MTEXTBEGIN
1070
    73
1070
     1
1070
    44
1040
1.0
1070
    74
1070
     0
1000
MTEXTEND
  0
POINT
  5
62A
330
626
100
AcDbEntity
  8
Defpoints
 62
     0
100
AcDbPoint
 10
452.7601349183304
 20
62.13281715603637
 30
0.0
  0
POINT
  5
62B
330
626
100
AcDbEntity
  8
Defpoints
 62
     0
100
AcDbPoint
 10
457.9750721137124
 20
62.13281715603637
 30
0.0
  0
POINT
  5
62C
330
626
100
AcDbEntity
  8
Defpoints
 62
     0
100
AcDbPoint
 10
436.7250721137123
 20
33.62052433121551
 30
0.0
  0
ENDBLK
  5
62D
330
626
100
AcDbEntity
  8
0
100
AcDbBlockEnd
  0
BLOCK
  5
62F
330
62E
100
AcDbEntity
  8
0
100
AcDbBlockBegin
  2
*D54
 70
     1
 10
0.0
 20
0.0
 30
0.0
  3
*D54
  1

  0
LINE
  5
630
330
62E
100
AcDbEntity
  8
0
 62
     0
370
    -2
100
AcDbLine
 10
453.1351349183303
 20
64.9703171560364
 30
0.0
 11
457.9750721137124
 21
64.9703171560364
 31
0.0
  0
MTEXT
  5
631
330
62E
100
AcDbEntity
  8
0
 62
     0
100
AcDbMText
 10
460.6000721137124
 20
64.9703171560364
 30
0.0
 40
1.0
 41
0.0
 71
     5
 72
     1
  1
\A1;31.350
 73
     1
 44
1.0
1001
ACAD
1000
MTEXTBEGIN
1070
    73
1070
     1
1070
    44
1040
1.0
1070
    74
1070
     0
1000
MTEXTEND
  0
POINT
  5
632
330
62E
100
AcDbEntity
  8
Defpoints
 62
     0
100
AcDbPoint
 10
452.7601349183304
 20
64.9703171560364
 30
0.0
  0
POINT
  5
633
330
62E
100
AcDbEntity
  8
Defpoints
 62
     0
100
AcDbPoint
 10
457.9750721137124
 20
64.9703171560364
 30
0.0
  0
POINT
  5
634
330
62E
100
AcDbEntity
  8
Defpoints
 62
     0
100
AcDbPoint
 10
436.7250721137123
 20
33.62052433121551
 30
0.0
  0
ENDBLK
  5
635
330
62E
100
AcDbEntity
  8
0
100
AcDbBlockEnd
  0
BLOCK
  5
637
330
636
100
AcDbEntity
  8
0
100
AcDbBlockBegin
  2
*D55
 70
     1
 10
0.0
 20
0.0
 30
0.0
  3
*D55
  1

  0
LINE
  5
638
330
636
100
AcDbEntity
  8
0
 62
     0
370
    -2
100
AcDbLine
 10
456.3500721137123
 20
66.15236291264477
 30
0.0
 11
457.9750721137124
 21
66.15236291264477
 31
0.0
  0
MTEXT
  5
639
330
636
100
AcDbEntity
  8
0
 62
     0
100
AcDbMText
 10
460.7667387803791
 20
66.15236291264477
 30
0.0
 40
1.0
 41
0.0
 71
     5
 72
     1
  1
\A1;32.530
 73
     1
 44
1.0
1001
ACAD
1000
MTEXTBEGIN
1070
    73
1070
     1
1070
    44
1040
1.0
1070
    74
1070
     0
1000
MTEXTEND
  0
POINT
  5
63A
330
636
100
AcDbEntity
  8
Defpoints
 62
     0
100
AcDbPoint
 10
455.9750721137125
 20
66.15236291264477
 30
0.0
  0
POINT
  5
63B
330
636
100
AcDbEntity
  8
Defpoints
 62
     0
100
AcDbPoint
 10
457.9750721137124
 20
66.15236291264477
 30
0.0
  0
POINT
  5
63C
330
636
100
AcDbEntity
  8
Defpoints
 62
     0
100
AcDbPoint
 10
436.7250721137123
 20
33.62052433121551
 30
0.0
  0
ENDBLK
  5
63D
330
636
100
AcDbEntity
  8
0
100
AcDbBlockEnd
  0
BLOCK
  5
63F
330
63E
100
AcDbEntity
  8
0
100
AcDbBlockBegin
  2
*D56
 70
     1
 10
0.0
 20
0.0
 30
0.0
  3
*D56
  1

  0
LINE
  5
640
330
63E
100
AcDbEntity
  8
0
 62
     0
370
    -2
100
AcDbLine
 10
455.9750721137125
 20
66.52736291264478
 30
0.0
 11
455.9750721137125
 21
68.15236291264477
 31
0.0
  0
MTEXT
  5
641
330
63E
100
AcDbEntity
  8
0
 62
     0
100
AcDbMText
 10
455.9750721137125
 20
70.77736291264485
 30
0.0
 40
1.0
 41
0.0
 71
     5
 72
     1
  1
\A1;19.250
 11
0.0000000000000001
 21
1.0
 31
0.0
 73
     1
 44
1.0
1001
ACAD
1000
MTEXTBEGIN
1070
    73
1070
     1
1070
    44
1040
1.0
1070
    74
1070
     0
1000
MTEXTEND
  0
POINT
  5
642
330
63E
100
AcDbEntity
  8
Defpoints
 62
     0
100
AcDbPoint
 10
455.9750721137125
 20
66.15236291264477
 30
0.0
  0
POINT
  5
643
330
63E
100
AcDbEntity
  8
Defpoints
 62
     0
100
AcDbPoint
 10
455.9750721137125
 20
68.15236291264477
 30
0.0
  0
POINT
  5
644
330
63E
100
AcDbEntity
  8
Defpoints
 62
     0
100
AcDbPoint
 10
436.7250721137123
 20
33.62052433121551
 30
0.0
  0
ENDBLK
  5
645
330
63E
100
AcDbEntity
  8
0
100
AcDbBlockEnd
  0
BLOCK
  5
647
330
646
100
AcDbEntity
  8
0
100
AcDbBlockBegin
  2
*D57
 70
     1
 10
0.0
 20
0.0
 30
0.0
  3
*D57
  1

  0
LINE
  5
648
330
646
100
AcDbEntity
  8
0
 62
     0
370
    -2
100
AcDbLine
 10
453.8500721137125
 20
43.02736291264477
 30
0.0
 11
453.8500721137125
 21
44.5682295567501
 31
0.0
  0
MTEXT
  5
649
330
646
100
AcDbEntity
  8
0
 62
     0
100
AcDbMText
 10
453.8500721137125
 20
47.10989622341684
 30
0.0
 40
1.0
 41
0.0
 71
     5
 72
     1
  1
\A1;17.125
 11
0.0000000000000001
 21
1.0
 31
0.0
 73
     1
 44
1.0
1001
ACAD
1000
MTEXTBEGIN
1070
    73
1070
     1
1070
    44
1040
1.0
1070
    74
1070
     0
1000
MTEXTEND
  0
POINT
  5
64A
330
646
100
AcDbEntity
  8
Defpoints
 62
     0
100
AcDbPoint
 10
453.8500721137125
 20
42.65236291264478
 30
0.0
  0
POINT
  5
64B
330
646
100
AcDbEntity
  8
Defpoints
 62
     0
100
AcDbPoint
 10
453.8500721137125
 20
44.5682295567501
 30
0.0
  0
POINT
  5
64C
330
646
100
AcDbEntity
  8
Defpoints
 62
     0
100
AcDbPoint
 10
436.7250721137123
 20
33.62052433121551
 30
0.0
  0
ENDBLK
  5
64D
330
646
100
AcDbEntity
  8
0
100
AcDbBlockEnd
  0
BLOCK
  5
64F
330
64E
100
AcDbEntity
  8
0
100
AcDbBlockBegin
  2
*D58
 70
     1
 10
0.0
 20
0.0
 30
0.0
  3
*D58
  1

  0
LINE
  5
650
330
64E
100
AcDbEntity
  8
0
 62
     0
370
    -2
100
AcDbLine
 10
438.8500721137123
 20
43.02736291264477
 30
0.0
 11
438.8500721137123
 21
44.5682295567501
 31
0.0
  0
MTEXT
  5
651
330
64E
100
AcDbEntity
  8
0
 62
     0
100
AcDbMText
 10
438.8500721137123
 20
46.77656289008353
 30
0.0
 40
1.0
 41
0.0
 71
     5
 72
     1
  1
\A1;2.125
 11
0.0000000000000001
 21
1.0
 31
0.0
 73
     1
 44
1.0
1001
ACAD
1000
MTEXTBEGIN
1070
    73
1070
     1
1070
    44
1040
1.0
1070
    74
1070
     0
1000
MTEXTEND
  0
POINT
  5
652
330
64E
100
AcDbEntity
  8
Defpoints
 62
     0
100
AcDbPoint
 10
438.8500721137123
 20
42.65236291264478
 30
0.0
  0
POINT
  5
653
330
64E
100
AcDbEntity
  8
Defpoints
 62
     0
100
AcDbPoint
 10
438.8500721137123
 20
44.5682295567501
 30
0.0
  0
POINT
  5
654
330
64E
100
AcDbEntity
  8
Defpoints
 62
     0
100
AcDbPoint
 10
436.7250721137123
 20
33.62052433121551
 30
0.0
  0
ENDBLK
  5
655
330
64E
100
AcDbEntity
  8
0
100
AcDbBlockEnd
  0
BLOCK
  5
657
330
656
100
AcDbEntity
  8
0
100
AcDbBlockBegin
  2
*D59
 70
     1
 10
0.0
 20
0.0
 30
0.0
  3
*D59
  1

  0
LINE
  5
658
330
656
100
AcDbEntity
  8
0
 62
     0
370
    -2
100
AcDbLine
 10
437.1620784939501
 20
40.93639641606785
 30
0.0
 11
437.1620784939501
 21
34.26024938347698
 31
0.0
  0
LINE
  5
659
330
656
100
AcDbEntity
  8
0
 62
     0
370
    -2
100
AcDbLine
 10
437.1620784939501
 20
34.26024938347698
 30
0.0
 11
438.9334426957153
 21
32.26024938347697
 31
0.0
  0
LINE
  5
65A
330
656
100
AcDbEntity
  8
0
 62
     0
370
    -2
100
AcDbLine
 10
438.9334426957153
 20
32.26024938347697
 30
0.0
 11
438.9334426957153
 21
30.26024938347698
 31
0.0
  0
MTEXT
  5
65B
330
656
100
AcDbEntity
  8
0
 62
     0
100
AcDbMText
 10
438.9334426957153
 20
27.96858271681037
 30
0.0
 40
1.0
 41
0.0
 71
     5
 72
     1
  1
\A1;0.437
 11
0.0000000000000001
 21
1.0
 31
0.0
 73
     1
 44
1.0
1001
ACAD
1000
MTEXTBEGIN
1070
    73
1070
     1
1070
    44
1040
1.0
1070
    74
1070
     0
1000
MTEXTEND
  0
POINT
  5
65C
330
656
100
AcDbEntity
  8
Defpoints
 62
     0
100
AcDbPoint
 10
437.1620784939501
 20
41.31139641606785
 30
0.0
  0
POINT
  5
65D
330
656
100
AcDbEntity
  8
Defpoints
 62
     0
100
AcDbPoint
 10
438.9334426957153
 20
30.26024938347698
 30
0.0
  0
POINT
  5
65E
330
656
100
AcDbEntity
  8
Defpoints
 62
     0
100
AcDbPoint
 10
436.7250721137123
 20
33.62052433121551
 30
0.0
  0
ENDBLK
  5
65F
330
656
100
AcDbEntity
  8
0
100
AcDbBlockEnd
  0
BLOCK
  5
661
330
660
100
AcDbEntity
  8
0
100
AcDbBlockBegin
  2
*D60
 70
     1
 10
0.0
 20
0.0
 30
0.0
  3
*D60
  1

  0
LINE
  5
662
330
660
100
AcDbEntity
  8
0
 62
     0
370
    -2
100
AcDbLine
 10
436.7870784939499
 20
41.31139641606785
 30
0.0
 11
434.7250721137124
 21
41.31139641606785
 31
0.0
  0
MTEXT
  5
663
330
660
100
AcDbEntity
  8
0
 62
     0
100
AcDbMText
 10
432.5167387803791
 20
41.31139641606785
 30
0.0
 40
1.0
 41
0.0
 71
     5
 72
     1
  1
\A1;7.691
 73
     1
 44
1.0
1001
ACAD
1000
MTEXTBEGIN
1070
    73
1070
     1
1070
    44
1040
1.0
1070
    74
1070
     0
1000
MTEXTEND
  0
POINT
  5
664
330
660
100
AcDbEntity
  8
Defpoints
 62
     0
100
AcDbPoint
 10
437.1620784939501
 20
41.31139641606785
 30
0.0
  0
POINT
  5
665
330
660
100
AcDbEntity
  8
Defpoints
 62
     0
100
AcDbPoint
 10
434.7250721137124
 20
41.31139641606785
 30
0.0
  0
POINT
  5
666
330
660
100
AcDbEntity
  8
Defpoints
 62
     0
100
AcDbPoint
 10
436.7250721137123
 20
33.62052433121551
 30
0.0
  0
ENDBLK
  5
667
330
660
100
AcDbEntity
  8
0
100
AcDbBlockEnd
  0
BLOCK
  5
669
330
668
100
AcDbEntity
  8
0
100
AcDbBlockBegin
  2
*D61
 70
     1
 10
0.0
 20
0.0
 30
0.0
  3
*D61
  1

  0
LINE
  5
66A
330
668
100
AcDbEntity
  8
0
 62
     0
370
    -2
100
AcDbLine
 10
436.7250721137123
 20
33.24552433121552
 30
0.0
 11
436.7250721137123
 21
29.70639391959784
 31
0.0
  0
MTEXT
  5
66B
330
668
100
AcDbEntity
  8
0
 62
     0
100
AcDbMText
 10
436.7250721137123
 20
27.66472725293124
 30
0.0
 40
1.0
 41
0.0
 71
     5
 72
     1
  1
\A1;0.000
 11
0.0000000000000001
 21
1.0
 31
0.0
 73
     1
 44
1.0
1001
ACAD
1000
MTEXTBEGIN
1070
    73
1070
     1
1070
    44
1040
1.0
1070
    74
1070
     0
1000
MTEXTEND
  0
POINT
  5
66C
330
668
100
AcDbEntity
  8
Defpoints
 62
     0
100
AcDbPoint
 10
436.7250721137123
 20
33.62052433121551
 30
0.0
  0
POINT
  5
66D
330
668
100
AcDbEntity
  8
Defpoints
 62
     0
100
AcDbPoint
 10
436.7250721137123
 20
29.70639391959784
 30
0.0
  0
POINT
  5
66E
330
668
100
AcDbEntity
  8
Defpoints
 62
     0
100
AcDbPoint
 10
436.7250721137123
 20
33.62052433121551
 30
0.0
  0
ENDBLK
  5
66F
330
668
100
AcDbEntity
  8
0
100
AcDbBlockEnd
  0
BLOCK
  5
671
330
670
100
AcDbEntity
  8
0
100
AcDbBlockBegin
  2
*D62
 70
     1
 10
0.0
 20
0.0
 30
0.0
  3
*D62
  1

  0
LINE
  5
672
330
670
100
AcDbEntity
  8
0
 62
     0
370
    -2
100
AcDbLine
 10
436.3500721137125
 20
33.62052433121551
 30
0.0
 11
434.7250721137124
 21
33.62052433121551
 31
0.0
  0
MTEXT
  5
673
330
670
100
AcDbEntity
  8
0
 62
     0
100
AcDbMText
 10
432.6834054470457
 20
33.62052433121551
 30
0.0
 40
1.0
 41
0.0
 71
     5
 72
     1
  1
\A1;0.000
 73
     1
 44
1.0
1001
ACAD
1000
MTEXTBEGIN
1070
    73
1070
     1
1070
    44
1040
1.0
1070
    74
1070
     0
1000
MTEXTEND
  0
POINT
  5
674
330
670
100
AcDbEntity
  8
Defpoints
 62
     0
100
AcDbPoint
 10
436.7250721137123
 20
33.62052433121551
 30
0.0
  0
POINT
  5
675
330
670
100
AcDbEntity
  8
Defpoints
 62
     0
100
AcDbPoint
 10
434.7250721137124
 20
33.62052433121551
 30
0.0
  0
POINT
  5
676
330
670
100
AcDbEntity
  8
Defpoints
 62
     0
100
AcDbPoint
 10
436.7250721137123
 20
33.62052433121551
 30
0.0
  0
ENDBLK
  5
677
330
670
100
AcDbEntity
  8
0
100
AcDbBlockEnd
  0
BLOCK
  5
679
330
678
100
AcDbEntity
  8
0
100
AcDbBlockBegin
  2
*D63
 70
     1
 10
0.0
 20
0.0
 30
0.0
  3
*D63
  1

  0
LINE
  5
67A
330
678
100
AcDbEntity
  8
0
 62
     0
370
    -2
100
AcDbLine
 10
455.5380784939499
 20
40.93639641606796
 30
0.0
 11
455.5380784939499
 21
33.97006167268771
 31
0.0
  0
LINE
  5
67B
330
678
100
AcDbEntity
  8
0
 62
     0
370
    -2
100
AcDbLine
 10
455.5380784939499
 20
33.97006167268771
 30
0.0
 11
455.8956053074123
 21
31.9700616726877
 31
0.0
  0
LINE
  5
67C
330
678
100
AcDbEntity
  8
0
 62
     0
370
    -2
100
AcDbLine
 10
455.8956053074123
 20
31.9700616726877
 30
0.0
 11
455.8956053074123
 21
29.9700616726877
 31
0.0
  0
MTEXT
  5
67D
330
678
100
AcDbEntity
  8
0
 62
     0
100
AcDbMText
 10
455.8956053074123
 20
27.42839500602111
 30
0.0
 40
1.0
 41
0.0
 71
     5
 72
     1
  1
\A1;18.813
 11
0.0000000000000001
 21
1.0
 31
0.0
 73
     1
 44
1.0
1001
ACAD
1000
MTEXTBEGIN
1070
    73
1070
     1
1070
    44
1040
1.0
1070
    74
1070
     0
1000
MTEXTEND
  0
POINT
  5
67E
330
678
100
AcDbEntity
  8
Defpoints
 62
     0
100
AcDbPoint
 10
455.5380784939499
 20
41.31139641606796
 30
0.0
  0
POINT
  5
67F
330
678
100
AcDbEntity
  8
Defpoints
 62
     0
100
AcDbPoint
 10
455.8956053074123
 20
29.9700616726877
 30
0.0
  0
POINT
  5
680
330
678
100
AcDbEntity
  8
Defpoints
 62
     0
100
AcDbPoint
 10
436.7250721137123
 20
33.62052433121551
 30
0.0
  0
ENDBLK
  5
681
330
678
100
AcDbEntity
  8
0
100
AcDbBlockEnd
  0
BLOCK
  5
683
330
682
100
AcDbEntity
  8
0
100
AcDbBlockBegin
  2
*D64
 70
     1
 10
0.0
 20
0.0
 30
0.0
  3
*D64
  1

  0
LINE
  5
684
330
682
100
AcDbEntity
  8
0
 62
     0
370
    -2
100
AcDbLine
 10
452.6640721137122
 20
34.33752433121551
 30
0.0
 11
451.3499689699695
 21
34.33752433121551
 31
0.0
  0
MTEXT
  5
685
330
682
100
AcDbEntity
  8
0
 62
     0
100
AcDbMText
 10
449.2249689699693
 20
34.33752433121551
 30
0.0
 40
1.0
 41
0.0
 71
     5
 72
     1
  1
\A1;0.717
 73
     1
 44
1.0
1001
ACAD
1000
MTEXTBEGIN
1070
    73
1070
     1
1070
    44
1040
1.0
1070
    74
1070
     0
1000
MTEXTEND
  0
POINT
  5
686
330
682
100
AcDbEntity
  8
Defpoints
 62
     0
100
AcDbPoint
 10
453.0390721137123
 20
34.33752433121551
 30
0.0
  0
POINT
  5
687
330
682
100
AcDbEntity
  8
Defpoints
 62
     0
100
AcDbPoint
 10
451.3499689699695
 20
34.33752433121551
 30
0.0
  0
POINT
  5
688
330
682
100
AcDbEntity
  8
Defpoints
 62
     0
100
AcDbPoint
 10
436.7250721137123
 20
33.62052433121551
 30
0.0
  0
ENDBLK
  5
689
330
682
100
AcDbEntity
  8
0
100
AcDbBlockEnd
  0
BLOCK
  5
68B
330
68A
100
AcDbEntity
  8
0
100
AcDbBlockBegin
  2
*D65
 70
     1
 10
0.0
 20
0.0
 30
0.0
  3
*D65
  1

  0
LINE
  5
68C
330
68A
100
AcDbEntity
  8
0
 62
     0
370
    -2
100
AcDbLine
 10
452.6640721137122
 20
37.46252433121551
 30
0.0
 11
451.5181916164323
 21
37.46252433121551
 31
0.0
  0
MTEXT
  5
68D
330
68A
100
AcDbEntity
  8
0
 62
     0
100
AcDbMText
 10
449.1431916164323
 20
37.46252433121551
 30
0.0
 40
1.0
 41
0.0
 71
     5
 72
     1
  1
\A1;3.842
 73
     1
 44
1.0
1001
ACAD
1000
MTEXTBEGIN
1070
    73
1070
     1
1070
    44
1040
1.0
1070
    74
1070
     0
1000
MTEXTEND
  0
POINT
  5
68E
330
68A
100
AcDbEntity
  8
Defpoints
 62
     0
100
AcDbPoint
 10
453.0390721137123
 20
37.46252433121551
 30
0.0
  0
POINT
  5
68F
330
68A
100
AcDbEntity
  8
Defpoints
 62
     0
100
AcDbPoint
 10
451.5181916164323
 20
37.46252433121551
 30
0.0
  0
POINT
  5
690
330
68A
100
AcDbEntity
  8
Defpoints
 62
     0
100
AcDbPoint
 10
436.7250721137123
 20
33.62052433121551
 30
0.0
  0
ENDBLK
  5
691
330
68A
100
AcDbEntity
  8
0
100
AcDbBlockEnd
  0
BLOCK
  5
693
330
692
100
AcDbEntity
  8
0
100
AcDbBlockBegin
  2
*D66
 70
     1
 10
0.0
 20
0.0
 30
0.0
  3
*D66
  1

  0
LINE
  5
694
330
692
100
AcDbEntity
  8
0
 62
     0
370
    -2
100
AcDbLine
 10
453.0390721137123
 20
33.96252433121552
 30
0.0
 11
453.0390721137123
 21
29.8350152387496
 31
0.0
  0
MTEXT
  5
695
330
692
100
AcDbEntity
  8
0
 62
     0
100
AcDbMText
 10
453.0390721137123
 20
27.293348572083
 30
0.0
 40
1.0
 41
0.0
 71
     5
 72
     1
  1
\A1;16.314
 11
0.0000000000000001
 21
1.0
 31
0.0
 73
     1
 44
1.0
1001
ACAD
1000
MTEXTBEGIN
1070
    73
1070
     1
1070
    44
1040
1.0
1070
    74
1070
     0
1000
MTEXTEND
  0
POINT
  5
696
330
692
100
AcDbEntity
  8
Defpoints
 62
     0
100
AcDbPoint
 10
453.0390721137123
 20
34.33752433121551
 30
0.0
  0
POINT
  5
697
330
692
100
AcDbEntity
  8
Defpoints
 62
     0
100
AcDbPoint
 10
453.0390721137123
 20
29.8350152387496
 30
0.0
  0
POINT
  5
698
330
692
100
AcDbEntity
  8
Defpoints
 62
     0
100
AcDbPoint
 10
436.7250721137123
 20
33.62052433121551
 30
0.0
  0
ENDBLK
  5
699
330
692
100
AcDbEntity
  8
0
100
AcDbBlockEnd
  0
BLOCK
  5
69B
330
69A
100
AcDbEntity
  8
0
100
AcDbBlockBegin
  2
*D67
 70
     1
 10
0.0
 20
0.0
 30
0.0
  3
*D67
  1

  0
LINE
  5
69C
330
69A
100
AcDbEntity
  8
0
 62
     0
370
    -2
100
AcDbLine
 10
455.3190721137124
 20
33.96252433121552
 30
0.0
 11
455.3190721137124
 21
32.33752433121551
 31
0.0
  0
LINE
  5
69D
330
69A
100
AcDbEntity
  8
0
 62
     0
370
    -2
100
AcDbLine
 10
455.3190721137124
 20
32.33752433121551
 30
0.0
 11
454.5446202676354
 21
32.24370225835287
 31
0.0
  0
LINE
  5
69E
330
69A
100
AcDbEntity
  8
0
 62
     0
370
    -2
100
AcDbLine
 10
454.5446202676354
 20
32.24370225835287
 30
0.0
 11
454.5446202676354
 21
30.24370225835288
 31
0.0
  0
MTEXT
  5
69F
330
69A
100
AcDbEntity
  8
0
 62
     0
100
AcDbMText
 10
454.5446202676354
 20
27.53536892501961
 30
0.0
 40
1.0
 41
0.0
 71
     5
 72
     1
  1
\A1;18.594
 11
0.0000000000000001
 21
1.0
 31
0.0
 73
     1
 44
1.0
1001
ACAD
1000
MTEXTBEGIN
1070
    73
1070
     1
1070
    44
1040
1.0
1070
    74
1070
     0
1000
MTEXTEND
  0
POINT
  5
6A0
330
69A
100
AcDbEntity
  8
Defpoints
 62
     0
100
AcDbPoint
 10
455.3190721137124
 20
34.33752433121551
 30
0.0
  0
POINT
  5
6A1
330
69A
100
AcDbEntity
  8
Defpoints
 62
     0
100
AcDbPoint
 10
454.5446202676354
 20
30.24370225835288
 30
0.0
  0
POINT
  5
6A2
330
69A
100
AcDbEntity
  8
Defpoints
 62
     0
100
AcDbPoint
 10
436.7250721137123
 20
33.62052433121551
 30
0.0
  0
ENDBLK
  5
6A3
330
69A
100
AcDbEntity
  8
0
100
AcDbBlockEnd
  0
BLOCK
  5
6A5
330
6A4
100
AcDbEntity
  8
0
100
AcDbBlockBegin
  2
*D68
 70
     1
 10
0.0
 20
0.0
 30
0.0
  3
*D68
  1

  0
LINE
  5
6A6
330
6A4
100
AcDbEntity
  8
0
 62
     0
370
    -2
100
AcDbLine
 10
432.3491709604661
 20
67.31605549709684
 30
0.0
 11
433.3491709604661
 21
67.31605549709681
 31
0.0
  0
LINE
  5
6A7
330
6A4
100
AcDbEntity
  8
0
 62
     0
370
    -2
100
AcDbLine
 10
433.3491709604661
 20
67.31605549709681
 30
0.0
 11
445.6676247091762
 21
55.70403898069293
 31
0.0
  0
MTEXT
  5
6A8
330
6A4
100
AcDbEntity
  8
0
 62
     0
100
AcDbMText
 10
431.9741709604661
 20
63.48272216376347
 30
0.0
 40
1.0
 41
0.0
 71
     9
 72
     1
  1
\A1;\U+22051.250 (1) \POPTIONAL:\PETHERNET\PCONNECTION\PPORT
 73
     1
 44
1.0
1001
ACAD
1000
MTEXTBEGIN
1070
    73
1070
     1
1070
    44
1040
1.0
1070
    74
1070
     0
1000
MTEXTEND
  0
SOLID
  5
6A9
330
6A4
100
AcDbEntity
  8
0
 62
     0
100
AcDbTrace
 10
445.7819470234967
 20
55.82531629195179
 30
0.0
 11
445.5533023948555
 21
55.58276166943406
 31
0.0
 12
446.3952885767293
 22
55.01810509476979
 32
0.0
 13
446.3952885767293
 23
55.01810509476979
 33
0.0
  0
LINE
  5
6AA
330
6A4
100
AcDbEntity
  8
0
 62
     0
370
    -2
100
AcDbLine
 10
446.7600784939499
 20
54.58939641606789
 30
0.0
 11
446.9400784939496
 21
54.58939641606785
 31
0.0
  0
LINE
  5
6AB
330
6A4
100
AcDbEntity
  8
0
 62
     0
370
    -2
100
AcDbLine
 10
446.8500784939496
 20
54.49939641606781
 30
0.0
 11
446.8500784939497
 21
54.67939641606782
 31
0.0
  0
POINT
  5
6AC
330
6A4
100
AcDbEntity
  8
Defpoints
 62
     0
100
AcDbPoint
 10
446.3952885767293
 20
55.01810509476979
 30
0.0
  0
POINT
  5
6AD
330
6A4
100
AcDbEntity
  8
Defpoints
 62
     0
100
AcDbPoint
 10
447.3048684111707
 20
54.16068773736594
 30
0.0
  0
ENDBLK
  5
6AE
330
6A4
100
AcDbEntity
  8
0
100
AcDbBlockEnd
  0
BLOCK
  5
6B0
330
6AF
100
AcDbEntity
  8
0
100
AcDbBlockBegin
  2
*D69
 70
     1
 10
0.0
 20
0.0
 30
0.0
  3
*D69
  1

  0
LINE
  5
6B1
330
6AF
100
AcDbEntity
  8
0
 62
     0
370
    -2
100
AcDbLine
 10
446.4750784939496
 20
54.58939641606781
 30
0.0
 11
439.2188439394604
 21
54.58939641606781
 31
0.0
  0
LINE
  5
6B2
330
6AF
100
AcDbEntity
  8
0
 62
     0
370
    -2
100
AcDbLine
 10
439.2188439394604
 20
54.58939641606781
 30
0.0
 11
437.2188439394602
 21
53.49002884601986
 31
0.0
  0
LINE
  5
6B3
330
6AF
100
AcDbEntity
  8
0
 62
     0
370
    -2
100
AcDbLine
 10
437.2188439394602
 20
53.49002884601986
 30
0.0
 11
435.2188439394604
 21
53.49002884601986
 31
0.0
  0
MTEXT
  5
6B4
330
6AF
100
AcDbEntity
  8
0
 62
     0
100
AcDbMText
 10
432.4271772727936
 20
53.49002884601986
 30
0.0
 40
1.0
 41
0.0
 71
     5
 72
     1
  1
\A1;20.969
 73
     1
 44
1.0
1001
ACAD
1000
MTEXTBEGIN
1070
    73
1070
     1
1070
    44
1040
1.0
1070
    74
1070
     0
1000
MTEXTEND
  0
POINT
  5
6B5
330
6AF
100
AcDbEntity
  8
Defpoints
 62
     0
100
AcDbPoint
 10
446.8500784939496
 20
54.58939641606781
 30
0.0
  0
POINT
  5
6B6
330
6AF
100
AcDbEntity
  8
Defpoints
 62
     0
100
AcDbPoint
 10
435.2188439394604
 20
53.49002884601986
 30
0.0
  0
POINT
  5
6B7
330
6AF
100
AcDbEntity
  8
Defpoints
 62
     0
100
AcDbPoint
 10
436.7250721137123
 20
33.62052433121551
 30
0.0
  0
ENDBLK
  5
6B8
330
6AF
100
AcDbEntity
  8
0
100
AcDbBlockEnd
  0
BLOCK
  5
6BA
330
6B9
100
AcDbEntity
  8
0
100
AcDbBlockBegin
  2
*D70
 70
     1
 10
0.0
 20
0.0
 30
0.0
  3
*D70
  1

  0
LINE
  5
6BB
330
6B9
100
AcDbEntity
  8
0
 62
     0
370
    -2
100
AcDbLine
 10
446.8500784939496
 20
54.9643964160678
 30
0.0
 11
446.8500784939496
 21
55.87170796562316
 31
0.0
  0
MTEXT
  5
6BC
330
6B9
100
AcDbEntity
  8
0
 62
     0
100
AcDbMText
 10
446.8500784939496
 20
58.33004129895656
 30
0.0
 40
1.0
 41
0.0
 71
     5
 72
     1
  1
\A1;10.125
 11
0.0000000000000001
 21
1.0
 31
0.0
 73
     1
 44
1.0
1001
ACAD
1000
MTEXTBEGIN
1070
    73
1070
     1
1070
    44
1040
1.0
1070
    74
1070
     0
1000
MTEXTEND
  0
POINT
  5
6BD
330
6B9
100
AcDbEntity
  8
Defpoints
 62
     0
100
AcDbPoint
 10
446.8500784939496
 20
54.58939641606781
 30
0.0
  0
POINT
  5
6BE
330
6B9
100
AcDbEntity
  8
Defpoints
 62
     0
100
AcDbPoint
 10
446.8500784939496
 20
55.87170796562316
 30
0.0
  0
POINT
  5
6BF
330
6B9
100
AcDbEntity
  8
Defpoints
 62
     0
100
AcDbPoint
 10
436.7250721137123
 20
33.62052433121551
 30
0.0
  0
ENDBLK
  5
6C0
330
6B9
100
AcDbEntity
  8
0
100
AcDbBlockEnd
  0
BLOCK
  5
75C
330
756
100
AcDbEntity
  8
0
100
AcDbBlockBegin
  2
*D71
 70
     1
 10
0.0
 20
0.0
 30
0.0
  3
*D71
  1

  0
LINE
  5
941
330
756
100
AcDbEntity
  8
0
 62
     0
370
    -2
100
AcDbLine
 10
35.08645776262053
 20
19.3621870313283
 30
0.0
 11
33.28645776262048
 21
19.3621870313283
 31
0.0
  0
MTEXT
  5
942
330
756
100
AcDbEntity
  8
0
 62
     0
100
AcDbMText
 10
31.52979109595381
 20
19.3621870313283
 30
0.0
 40
1.0
 41
0.0
 71
     5
 72
     1
  1
\A1;0.000
 73
     1
 44
1.0
1001
ACAD
1000
MTEXTBEGIN
1070
    73
1070
     1
1070
    44
1040
1.0
1070
    74
1070
     0
1000
MTEXTEND
  0
POINT
  5
943
330
756
100
AcDbEntity
  8
Defpoints
 62
     0
100
AcDbPoint
 10
35.28645776262055
 20
19.3621870313283
 30
0.0
  0
POINT
  5
944
330
756
100
AcDbEntity
  8
Defpoints
 62
     0
100
AcDbPoint
 10
33.28645776262048
 20
19.3621870313283
 30
0.0
  0
POINT
  5
945
330
756
100
AcDbEntity
  8
Defpoints
 62
     0
100
AcDbPoint
 10
35.28645776262055
 20
19.3621870313283
 30
0.0
  0
ENDBLK
  5
75D
330
756
100
AcDbEntity
  8
0
100
AcDbBlockEnd
  0
BLOCK
  5
764
330
75E
100
AcDbEntity
  8
0
100
AcDbBlockBegin
  2
*D72
 70
     1
 10
0.0
 20
0.0
 30
0.0
  3
*D72
  1

  0
LINE
  5
93C
330
75E
100
AcDbEntity
  8
0
 62
     0
370
    -2
100
AcDbLine
 10
35.28645776262055
 20
19.1621870313283
 30
0.0
 11
35.28645776262055
 21
15.1630566197107
 31
0.0
  0
MTEXT
  5
93D
330
75E
100
AcDbEntity
  8
0
 62
     0
100
AcDbMText
 10
35.28645776262055
 20
13.40638995304404
 30
0.0
 40
1.0
 41
0.0
 71
     5
 72
     1
  1
\A1;0.000
 11
0.0000000000000001
 21
1.0
 31
0.0
 73
     1
 44
1.0
1001
ACAD
1000
MTEXTBEGIN
1070
    73
1070
     1
1070
    44
1040
1.0
1070
    74
1070
     0
1000
MTEXTEND
  0
POINT
  5
93E
330
75E
100
AcDbEntity
  8
Defpoints
 62
     0
100
AcDbPoint
 10
35.28645776262055
 20
19.3621870313283
 30
0.0
  0
POINT
  5
93F
330
75E
100
AcDbEntity
  8
Defpoints
 62
     0
100
AcDbPoint
 10
35.28645776262055
 20
15.1630566197107
 30
0.0
  0
POINT
  5
940
330
75E
100
AcDbEntity
  8
Defpoints
 62
     0
100
AcDbPoint
 10
35.28645776262055
 20
19.3621870313283
 30
0.0
  0
ENDBLK
  5
765
330
75E
100
AcDbEntity
  8
0
100
AcDbBlockEnd
  0
BLOCK
  5
76C
330
766
100
AcDbEntity
  8
0
100
AcDbBlockBegin
  2
*D73
 70
     1
 10
0.0
 20
0.0
 30
0.0
  3
*D73
  1

  0
LINE
  5
937
330
766
100
AcDbEntity
  8
0
 62
     0
370
    -2
100
AcDbLine
 10
35.5234641428581
 20
27.05305911618065
 30
0.0
 11
33.28645776262048
 21
27.05305911618065
 31
0.0
  0
MTEXT
  5
938
330
766
100
AcDbEntity
  8
0
 62
     0
100
AcDbMText
 10
31.36312442928715
 20
27.05305911618065
 30
0.0
 40
1.0
 41
0.0
 71
     5
 72
     1
  1
\A1;7.691
 73
     1
 44
1.0
1001
ACAD
1000
MTEXTBEGIN
1070
    73
1070
     1
1070
    44
1040
1.0
1070
    74
1070
     0
1000
MTEXTEND
  0
POINT
  5
939
330
766
100
AcDbEntity
  8
Defpoints
 62
     0
100
AcDbPoint
 10
35.7234641428581
 20
27.05305911618065
 30
0.0
  0
POINT
  5
93A
330
766
100
AcDbEntity
  8
Defpoints
 62
     0
100
AcDbPoint
 10
33.28645776262048
 20
27.05305911618065
 30
0.0
  0
POINT
  5
93B
330
766
100
AcDbEntity
  8
Defpoints
 62
     0
100
AcDbPoint
 10
35.28645776262055
 20
19.3621870313283
 30
0.0
  0
ENDBLK
  5
76D
330
766
100
AcDbEntity
  8
0
100
AcDbBlockEnd
  0
BLOCK
  5
776
330
76E
100
AcDbEntity
  8
0
100
AcDbBlockBegin
  2
*D74
 70
     1
 10
0.0
 20
0.0
 30
0.0
  3
*D74
  1

  0
LINE
  5
930
330
76E
100
AcDbEntity
  8
0
 62
     0
370
    -2
100
AcDbLine
 10
35.7234641428581
 20
26.85305911618065
 30
0.0
 11
35.7234641428581
 21
19.71691208358983
 31
0.0
  0
LINE
  5
931
330
76E
100
AcDbEntity
  8
0
 62
     0
370
    -2
100
AcDbLine
 10
35.7234641428581
 20
19.71691208358983
 30
0.0
 11
37.49482834462332
 21
17.71691208358983
 31
0.0
  0
LINE
  5
932
330
76E
100
AcDbEntity
  8
0
 62
     0
370
    -2
100
AcDbLine
 10
37.49482834462332
 20
17.71691208358983
 30
0.0
 11
37.49482834462332
 21
15.71691208358983
 31
0.0
  0
MTEXT
  5
933
330
76E
100
AcDbEntity
  8
0
 62
     0
100
AcDbMText
 10
37.49482834462332
 20
13.71024541692317
 30
0.0
 40
1.0
 41
0.0
 71
     5
 72
     1
  1
\A1;0.437
 11
0.0000000000000001
 21
1.0
 31
0.0
 73
     1
 44
1.0
1001
ACAD
1000
MTEXTBEGIN
1070
    73
1070
     1
1070
    44
1040
1.0
1070
    74
1070
     0
1000
MTEXTEND
  0
POINT
  5
934
330
76E
100
AcDbEntity
  8
Defpoints
 62
     0
100
AcDbPoint
 10
35.7234641428581
 20
27.05305911618065
 30
0.0
  0
POINT
  5
935
330
76E
100
AcDbEntity
  8
Defpoints
 62
     0
100
AcDbPoint
 10
37.49482834462332
 20
15.71691208358983
 30
0.0
  0
POINT
  5
936
330
76E
100
AcDbEntity
  8
Defpoints
 62
     0
100
AcDbPoint
 10
35.28645776262055
 20
19.3621870313283
 30
0.0
  0
ENDBLK
  5
777
330
76E
100
AcDbEntity
  8
0
100
AcDbBlockEnd
  0
BLOCK
  5
77E
330
778
100
AcDbEntity
  8
0
100
AcDbBlockBegin
  2
*D75
 70
     1
 10
0.0
 20
0.0
 30
0.0
  3
*D75
  1

  0
LINE
  5
92B
330
778
100
AcDbEntity
  8
0
 62
     0
370
    -2
100
AcDbLine
 10
37.41145776262055
 20
28.59402561275758
 30
0.0
 11
37.41145776262055
 21
30.30989225686291
 31
0.0
  0
MTEXT
  5
92C
330
778
100
AcDbEntity
  8
0
 62
     0
100
AcDbMText
 10
37.41145776262053
 20
32.23322559019625
 30
0.0
 40
1.0
 41
0.0
 71
     5
 72
     1
  1
\A1;2.125
 11
0.0000000000000001
 21
1.0
 31
0.0
 73
     1
 44
1.0
1001
ACAD
1000
MTEXTBEGIN
1070
    73
1070
     1
1070
    44
1040
1.0
1070
    74
1070
     0
1000
MTEXTEND
  0
POINT
  5
92D
330
778
100
AcDbEntity
  8
Defpoints
 62
     0
100
AcDbPoint
 10
37.41145776262055
 20
28.39402561275758
 30
0.0
  0
POINT
  5
92E
330
778
100
AcDbEntity
  8
Defpoints
 62
     0
100
AcDbPoint
 10
37.41145776262055
 20
30.30989225686291
 30
0.0
  0
POINT
  5
92F
330
778
100
AcDbEntity
  8
Defpoints
 62
     0
100
AcDbPoint
 10
35.28645776262055
 20
19.3621870313283
 30
0.0
  0
ENDBLK
  5
77F
330
778
100
AcDbEntity
  8
0
100
AcDbBlockEnd
  0
BLOCK
  5
786
330
780
100
AcDbEntity
  8
0
100
AcDbBlockBegin
  2
*D76
 70
     1
 10
0.0
 20
0.0
 30
0.0
  3
*D76
  1

  0
LINE
  5
926
330
780
100
AcDbEntity
  8
0
 62
     0
370
    -2
100
AcDbLine
 10
52.41145776262054
 20
28.59402561275758
 30
0.0
 11
52.41145776262054
 21
30.30989225686291
 31
0.0
  0
MTEXT
  5
927
330
780
100
AcDbEntity
  8
0
 62
     0
100
AcDbMText
 10
52.41145776262054
 20
32.56655892352958
 30
0.0
 40
1.0
 41
0.0
 71
     5
 72
     1
  1
\A1;17.125
 11
0.0000000000000001
 21
1.0
 31
0.0
 73
     1
 44
1.0
1001
ACAD
1000
MTEXTBEGIN
1070
    73
1070
     1
1070
    44
1040
1.0
1070
    74
1070
     0
1000
MTEXTEND
  0
POINT
  5
928
330
780
100
AcDbEntity
  8
Defpoints
 62
     0
100
AcDbPoint
 10
52.41145776262054
 20
28.39402561275758
 30
0.0
  0
POINT
  5
929
330
780
100
AcDbEntity
  8
Defpoints
 62
     0
100
AcDbPoint
 10
52.41145776262054
 20
30.30989225686291
 30
0.0
  0
POINT
  5
92A
330
780
100
AcDbEntity
  8
Defpoints
 62
     0
100
AcDbPoint
 10
35.28645776262055
 20
19.3621870313283
 30
0.0
  0
ENDBLK
  5
787
330
780
100
AcDbEntity
  8
0
100
AcDbBlockEnd
  0
BLOCK
  5
78E
330
788
100
AcDbEntity
  8
0
100
AcDbBlockBegin
  2
*D77
 70
     1
 10
0.0
 20
0.0
 30
0.0
  3
*D77
  1

  0
LINE
  5
921
330
788
100
AcDbEntity
  8
0
 62
     0
370
    -2
100
AcDbLine
 10
54.53645776262053
 20
52.09402561275758
 30
0.0
 11
54.53645776262053
 21
53.89402561275757
 31
0.0
  0
MTEXT
  5
922
330
788
100
AcDbEntity
  8
0
 62
     0
100
AcDbMText
 10
54.53645776262053
 20
56.2340256127576
 30
0.0
 40
1.0
 41
0.0
 71
     5
 72
     1
  1
\A1;19.250
 11
0.0000000000000001
 21
1.0
 31
0.0
 73
     1
 44
1.0
1001
ACAD
1000
MTEXTBEGIN
1070
    73
1070
     1
1070
    44
1040
1.0
1070
    74
1070
     0
1000
MTEXTEND
  0
POINT
  5
923
330
788
100
AcDbEntity
  8
Defpoints
 62
     0
100
AcDbPoint
 10
54.53645776262053
 20
51.89402561275756
 30
0.0
  0
POINT
  5
924
330
788
100
AcDbEntity
  8
Defpoints
 62
     0
100
AcDbPoint
 10
54.53645776262053
 20
53.89402561275757
 30
0.0
  0
POINT
  5
925
330
788
100
AcDbEntity
  8
Defpoints
 62
     0
100
AcDbPoint
 10
35.28645776262055
 20
19.3621870313283
 30
0.0
  0
ENDBLK
  5
78F
330
788
100
AcDbEntity
  8
0
100
AcDbBlockEnd
  0
BLOCK
  5
796
330
790
100
AcDbEntity
  8
0
100
AcDbBlockBegin
  2
*D78
 70
     1
 10
0.0
 20
0.0
 30
0.0
  3
*D78
  1

  0
LINE
  5
91C
330
790
100
AcDbEntity
  8
0
 62
     0
370
    -2
100
AcDbLine
 10
54.73645776262053
 20
51.89402561275756
 30
0.0
 11
56.53645776262053
 21
51.89402561275756
 31
0.0
  0
MTEXT
  5
91D
330
790
100
AcDbEntity
  8
0
 62
     0
100
AcDbMText
 10
59.0431244292872
 20
51.89402561275756
 30
0.0
 40
1.0
 41
0.0
 71
     5
 72
     1
  1
\A1;32.530
 73
     1
 44
1.0
1001
ACAD
1000
MTEXTBEGIN
1070
    73
1070
     1
1070
    44
1040
1.0
1070
    74
1070
     0
1000
MTEXTEND
  0
POINT
  5
91E
330
790
100
AcDbEntity
  8
Defpoints
 62
     0
100
AcDbPoint
 10
54.53645776262053
 20
51.89402561275756
 30
0.0
  0
POINT
  5
91F
330
790
100
AcDbEntity
  8
Defpoints
 62
     0
100
AcDbPoint
 10
56.53645776262053
 20
51.89402561275756
 30
0.0
  0
POINT
  5
920
330
790
100
AcDbEntity
  8
Defpoints
 62
     0
100
AcDbPoint
 10
35.28645776262055
 20
19.3621870313283
 30
0.0
  0
ENDBLK
  5
797
330
790
100
AcDbEntity
  8
0
100
AcDbBlockEnd
  0
BLOCK
  5
79E
330
798
100
AcDbEntity
  8
0
100
AcDbBlockBegin
  2
*D79
 70
     1
 10
0.0
 20
0.0
 30
0.0
  3
*D79
  1

  0
LINE
  5
917
330
798
100
AcDbEntity
  8
0
 62
     0
370
    -2
100
AcDbLine
 10
51.52152056723849
 20
50.71197985614921
 30
0.0
 11
56.53645776262053
 21
50.71197985614921
 31
0.0
  0
MTEXT
  5
918
330
798
100
AcDbEntity
  8
0
 62
     0
100
AcDbMText
 10
58.87645776262053
 20
50.71197985614921
 30
0.0
 40
1.0
 41
0.0
 71
     5
 72
     1
  1
\A1;31.350
 73
     1
 44
1.0
1001
ACAD
1000
MTEXTBEGIN
1070
    73
1070
     1
1070
    44
1040
1.0
1070
    74
1070
     0
1000
MTEXTEND
  0
POINT
  5
919
330
798
100
AcDbEntity
  8
Defpoints
 62
     0
100
AcDbPoint
 10
51.3215205672385
 20
50.71197985614921
 30
0.0
  0
POINT
  5
91A
330
798
100
AcDbEntity
  8
Defpoints
 62
     0
100
AcDbPoint
 10
56.53645776262053
 20
50.71197985614921
 30
0.0
  0
POINT
  5
91B
330
798
100
AcDbEntity
  8
Defpoints
 62
     0
100
AcDbPoint
 10
35.28645776262055
 20
19.3621870313283
 30
0.0
  0
ENDBLK
  5
79F
330
798
100
AcDbEntity
  8
0
100
AcDbBlockEnd
  0
BLOCK
  5
7A6
330
7A0
100
AcDbEntity
  8
0
100
AcDbBlockBegin
  2
*D80
 70
     1
 10
0.0
 20
0.0
 30
0.0
  3
*D80
  1

  0
LINE
  5
912
330
7A0
100
AcDbEntity
  8
0
 62
     0
370
    -2
100
AcDbLine
 10
51.52152056723849
 20
47.87447985614917
 30
0.0
 11
56.53645776262053
 21
47.87447985614917
 31
0.0
  0
MTEXT
  5
913
330
7A0
100
AcDbEntity
  8
0
 62
     0
100
AcDbMText
 10
58.95979109595387
 20
47.87447985614917
 30
0.0
 40
1.0
 41
0.0
 71
     5
 72
     1
  1
\A1;28.512
 73
     1
 44
1.0
1001
ACAD
1000
MTEXTBEGIN
1070
    73
1070
     1
1070
    44
1040
1.0
1070
    74
1070
     0
1000
MTEXTEND
  0
POINT
  5
914
330
7A0
100
AcDbEntity
  8
Defpoints
 62
     0
100
AcDbPoint
 10
51.3215205672385
 20
47.87447985614917
 30
0.0
  0
POINT
  5
915
330
7A0
100
AcDbEntity
  8
Defpoints
 62
     0
100
AcDbPoint
 10
56.53645776262053
 20
47.87447985614917
 30
0.0
  0
POINT
  5
916
330
7A0
100
AcDbEntity
  8
Defpoints
 62
     0
100
AcDbPoint
 10
35.28645776262055
 20
19.3621870313283
 30
0.0
  0
ENDBLK
  5
7A7
330
7A0
100
AcDbEntity
  8
0
100
AcDbBlockEnd
  0
BLOCK
  5
7AE
330
7A8
100
AcDbEntity
  8
0
100
AcDbBlockBegin
  2
*D81
 70
     1
 10
0.0
 20
0.0
 30
0.0
  3
*D81
  1

  0
LINE
  5
90D
330
7A8
100
AcDbEntity
  8
0
 62
     0
370
    -2
100
AcDbLine
 10
38.49652056723868
 20
50.91197985614915
 30
0.0
 11
38.49652056723868
 21
53.89402561275757
 31
0.0
  0
MTEXT
  5
90E
330
7A8
100
AcDbEntity
  8
0
 62
     0
100
AcDbMText
 10
38.49652056723865
 20
55.73402561275758
 30
0.0
 40
1.0
 41
0.0
 71
     5
 72
     1
  1
\A1;3.210
 11
0.0000000000000001
 21
1.0
 31
0.0
 73
     1
 44
1.0
1001
ACAD
1000
MTEXTBEGIN
1070
    73
1070
     1
1070
    44
1040
1.0
1070
    74
1070
     0
1000
MTEXTEND
  0
POINT
  5
90F
330
7A8
100
AcDbEntity
  8
Defpoints
 62
     0
100
AcDbPoint
 10
38.49652056723868
 20
50.71197985614914
 30
0.0
  0
POINT
  5
910
330
7A8
100
AcDbEntity
  8
Defpoints
 62
     0
100
AcDbPoint
 10
38.49652056723868
 20
53.89402561275757
 30
0.0
  0
POINT
  5
911
330
7A8
100
AcDbEntity
  8
Defpoints
 62
     0
100
AcDbPoint
 10
35.28645776262055
 20
19.3621870313283
 30
0.0
  0
ENDBLK
  5
7AF
330
7A8
100
AcDbEntity
  8
0
100
AcDbBlockEnd
  0
BLOCK
  5
7B6
330
7B0
100
AcDbEntity
  8
0
100
AcDbBlockBegin
  2
*D82
 70
     1
 10
0.0
 20
0.0
 30
0.0
  3
*D82
  1

  0
LINE
  5
908
330
7B0
100
AcDbEntity
  8
0
 62
     0
370
    -2
100
AcDbLine
 10
51.3215205672385
 20
50.91197985614915
 30
0.0
 11
51.3215205672385
 21
53.89402561275757
 31
0.0
  0
MTEXT
  5
909
330
7B0
100
AcDbEntity
  8
0
 62
     0
100
AcDbMText
 10
51.32152056723846
 20
56.2340256127576
 30
0.0
 40
1.0
 41
0.0
 71
     5
 72
     1
  1
\A1;16.035
 11
0.0000000000000001
 21
1.0
 31
0.0
 73
     1
 44
1.0
1001
ACAD
1000
MTEXTBEGIN
1070
    73
1070
     1
1070
    44
1040
1.0
1070
    74
1070
     0
1000
MTEXTEND
  0
POINT
  5
90A
330
7B0
100
AcDbEntity
  8
Defpoints
 62
     0
100
AcDbPoint
 10
51.3215205672385
 20
50.71197985614914
 30
0.0
  0
POINT
  5
90B
330
7B0
100
AcDbEntity
  8
Defpoints
 62
     0
100
AcDbPoint
 10
51.3215205672385
 20
53.89402561275757
 30
0.0
  0
POINT
  5
90C
330
7B0
100
AcDbEntity
  8
Defpoints
 62
     0
100
AcDbPoint
 10
35.28645776262055
 20
19.3621870313283
 30
0.0
  0
ENDBLK
  5
7B7
330
7B0
100
AcDbEntity
  8
0
100
AcDbBlockEnd
  0
BLOCK
  5
7BE
330
7B8
100
AcDbEntity
  8
0
100
AcDbBlockBegin
  2
*D83
 70
     1
 10
0.0
 20
0.0
 30
0.0
  3
*D83
  1

  0
LINE
  5
903
330
7B8
100
AcDbEntity
  8
0
 62
     0
370
    -2
100
AcDbLine
 10
35.52346414285799
 20
48.05305911618065
 30
0.0
 11
33.28645776262048
 21
48.05305911618065
 31
0.0
  0
MTEXT
  5
904
330
7B8
100
AcDbEntity
  8
0
 62
     0
100
AcDbMText
 10
30.86312442928715
 20
48.05305911618065
 30
0.0
 40
1.0
 41
0.0
 71
     5
 72
     1
  1
\A1;28.691
 73
     1
 44
1.0
1001
ACAD
1000
MTEXTBEGIN
1070
    73
1070
     1
1070
    44
1040
1.0
1070
    74
1070
     0
1000
MTEXTEND
  0
POINT
  5
905
330
7B8
100
AcDbEntity
  8
Defpoints
 62
     0
100
AcDbPoint
 10
35.72346414285799
 20
48.05305911618065
 30
0.0
  0
POINT
  5
906
330
7B8
100
AcDbEntity
  8
Defpoints
 62
     0
100
AcDbPoint
 10
33.28645776262048
 20
48.05305911618065
 30
0.0
  0
POINT
  5
907
330
7B8
100
AcDbEntity
  8
Defpoints
 62
     0
100
AcDbPoint
 10
35.28645776262055
 20
19.3621870313283
 30
0.0
  0
ENDBLK
  5
7BF
330
7B8
100
AcDbEntity
  8
0
100
AcDbBlockEnd
  0
BLOCK
  5
7C6
330
7C0
100
AcDbEntity
  8
0
100
AcDbBlockBegin
  2
*D84
 70
     1
 10
0.0
 20
0.0
 30
0.0
  3
*D84
  1

  0
LINE
  5
8FE
330
7C0
100
AcDbEntity
  8
0
 62
     0
370
    -2
100
AcDbLine
 10
35.52346414285799
 20
41.05305911618065
 30
0.0
 11
33.28645776262048
 21
41.05305911618065
 31
0.0
  0
MTEXT
  5
8FF
330
7C0
100
AcDbEntity
  8
0
 62
     0
100
AcDbMText
 10
31.02979109595381
 20
41.05305911618065
 30
0.0
 40
1.0
 41
0.0
 71
     5
 72
     1
  1
\A1;21.691
 73
     1
 44
1.0
1001
ACAD
1000
MTEXTBEGIN
1070
    73
1070
     1
1070
    44
1040
1.0
1070
    74
1070
     0
1000
MTEXTEND
  0
POINT
  5
900
330
7C0
100
AcDbEntity
  8
Defpoints
 62
     0
100
AcDbPoint
 10
35.72346414285799
 20
41.05305911618065
 30
0.0
  0
POINT
  5
901
330
7C0
100
AcDbEntity
  8
Defpoints
 62
     0
100
AcDbPoint
 10
33.28645776262048
 20
41.05305911618065
 30
0.0
  0
POINT
  5
902
330
7C0
100
AcDbEntity
  8
Defpoints
 62
     0
100
AcDbPoint
 10
35.28645776262055
 20
19.3621870313283
 30
0.0
  0
ENDBLK
  5
7C7
330
7C0
100
AcDbEntity
  8
0
100
AcDbBlockEnd
  0
BLOCK
  5
7CE
330
7C8
100
AcDbEntity
  8
0
100
AcDbBlockBegin
  2
*D85
 70
     1
 10
0.0
 20
0.0
 30
0.0
  3
*D85
  1

  0
LINE
  5
8F9
330
7C8
100
AcDbEntity
  8
0
 62
     0
370
    -2
100
AcDbLine
 10
35.5234641428581
 20
34.05305911618065
 30
0.0
 11
33.28645776262048
 21
34.05305911618065
 31
0.0
  0
MTEXT
  5
8FA
330
7C8
100
AcDbEntity
  8
0
 62
     0
100
AcDbMText
 10
31.02979109595381
 20
34.05305911618065
 30
0.0
 40
1.0
 41
0.0
 71
     5
 72
     1
  1
\A1;14.691
 73
     1
 44
1.0
1001
ACAD
1000
MTEXTBEGIN
1070
    73
1070
     1
1070
    44
1040
1.0
1070
    74
1070
     0
1000
MTEXTEND
  0
POINT
  5
8FB
330
7C8
100
AcDbEntity
  8
Defpoints
 62
     0
100
AcDbPoint
 10
35.7234641428581
 20
34.05305911618065
 30
0.0
  0
POINT
  5
8FC
330
7C8
100
AcDbEntity
  8
Defpoints
 62
     0
100
AcDbPoint
 10
33.28645776262048
 20
34.05305911618065
 30
0.0
  0
POINT
  5
8FD
330
7C8
100
AcDbEntity
  8
Defpoints
 62
     0
100
AcDbPoint
 10
35.28645776262055
 20
19.3621870313283
 30
0.0
  0
ENDBLK
  5
7CF
330
7C8
100
AcDbEntity
  8
0
100
AcDbBlockEnd
  0
BLOCK
  5
7D6
330
7D0
100
AcDbEntity
  8
0
100
AcDbBlockBegin
  2
*D86
 70
     1
 10
0.0
 20
0.0
 30
0.0
  3
*D86
  1

  0
LINE
  5
8F4
330
7D0
100
AcDbEntity
  8
0
 62
     0
370
    -2
100
AcDbLine
 10
52.61145776262053
 20
25.39402561275757
 30
0.0
 11
56.53645776262053
 21
25.39402561275757
 31
0.0
  0
MTEXT
  5
8F5
330
7D0
100
AcDbEntity
  8
0
 62
     0
100
AcDbMText
 10
58.5431244292872
 20
25.39402561275757
 30
0.0
 40
1.0
 41
0.0
 71
     5
 72
     1
  1
\A1;6.032
 73
     1
 44
1.0
1001
ACAD
1000
MTEXTBEGIN
1070
    73
1070
     1
1070
    44
1040
1.0
1070
    74
1070
     0
1000
MTEXTEND
  0
POINT
  5
8F6
330
7D0
100
AcDbEntity
  8
Defpoints
 62
     0
100
AcDbPoint
 10
52.41145776262054
 20
25.39402561275757
 30
0.0
  0
POINT
  5
8F7
330
7D0
100
AcDbEntity
  8
Defpoints
 62
     0
100
AcDbPoint
 10
56.53645776262053
 20
25.39402561275757
 30
0.0
  0
POINT
  5
8F8
330
7D0
100
AcDbEntity
  8
Defpoints
 62
     0
100
AcDbPoint
 10
35.28645776262055
 20
19.3621870313283
 30
0.0
  0
ENDBLK
  5
7D7
330
7D0
100
AcDbEntity
  8
0
100
AcDbBlockEnd
  0
BLOCK
  5
7DE
330
7D8
100
AcDbEntity
  8
0
100
AcDbBlockBegin
  2
*D87
 70
     1
 10
0.0
 20
0.0
 30
0.0
  3
*D87
  1

  0
LINE
  5
8EF
330
7D8
100
AcDbEntity
  8
0
 62
     0
370
    -2
100
AcDbLine
 10
52.61145776262053
 20
28.39402561275758
 30
0.0
 11
56.53645776262053
 21
28.39402561275758
 31
0.0
  0
MTEXT
  5
8F0
330
7D8
100
AcDbEntity
  8
0
 62
     0
100
AcDbMText
 10
58.5431244292872
 20
28.39402561275758
 30
0.0
 40
1.0
 41
0.0
 71
     5
 72
     1
  1
\A1;9.032
 73
     1
 44
1.0
1001
ACAD
1000
MTEXTBEGIN
1070
    73
1070
     1
1070
    44
1040
1.0
1070
    74
1070
     0
1000
MTEXTEND
  0
POINT
  5
8F1
330
7D8
100
AcDbEntity
  8
Defpoints
 62
     0
100
AcDbPoint
 10
52.41145776262054
 20
28.39402561275758
 30
0.0
  0
POINT
  5
8F2
330
7D8
100
AcDbEntity
  8
Defpoints
 62
     0
100
AcDbPoint
 10
56.53645776262053
 20
28.39402561275758
 30
0.0
  0
POINT
  5
8F3
330
7D8
100
AcDbEntity
  8
Defpoints
 62
     0
100
AcDbPoint
 10
35.28645776262055
 20
19.3621870313283
 30
0.0
  0
ENDBLK
  5
7DF
330
7D8
100
AcDbEntity
  8
0
100
AcDbBlockEnd
  0
BLOCK
  5
7E8
330
7E0
100
AcDbEntity
  8
0
100
AcDbBlockBegin
  2
*D88
 70
     1
 10
0.0
 20
0.0
 30
0.0
  3
*D88
  1

  0
LINE
  5
8E8
330
7E0
100
AcDbEntity
  8
0
 62
     0
370
    -2
100
AcDbLine
 10
48.1114641428581
 20
39.58105911618068
 30
0.0
 11
52.53645776262054
 21
39.58105911618068
 31
0.0
  0
LINE
  5
8E9
330
7E0
100
AcDbEntity
  8
0
 62
     0
370
    -2
100
AcDbLine
 10
52.53645776262054
 20
39.58105911618068
 30
0.0
 11
54.53645776262053
 21
40.02507886278353
 31
0.0
  0
LINE
  5
8EA
330
7E0
100
AcDbEntity
  8
0
 62
     0
370
    -2
100
AcDbLine
 10
54.53645776262053
 20
40.02507886278353
 30
0.0
 11
56.53645776262053
 21
40.02507886278353
 31
0.0
  0
MTEXT
  5
8EB
330
7E0
100
AcDbEntity
  8
0
 62
     0
100
AcDbMText
 10
58.87645776262053
 20
40.02507886278353
 30
0.0
 40
1.0
 41
0.0
 71
     5
 72
     1
  1
\A1;20.219
 73
     1
 44
1.0
1001
ACAD
1000
MTEXTBEGIN
1070
    73
1070
     1
1070
    44
1040
1.0
1070
    74
1070
     0
1000
MTEXTEND
  0
POINT
  5
8EC
330
7E0
100
AcDbEntity
  8
Defpoints
 62
     0
100
AcDbPoint
 10
47.91146414285807
 20
39.58105911618068
 30
0.0
  0
POINT
  5
8ED
330
7E0
100
AcDbEntity
  8
Defpoints
 62
     0
100
AcDbPoint
 10
56.53645776262053
 20
40.02507886278353
 30
0.0
  0
POINT
  5
8EE
330
7E0
100
AcDbEntity
  8
Defpoints
 62
     0
100
AcDbPoint
 10
35.28645776262055
 20
19.3621870313283
 30
0.0
  0
ENDBLK
  5
7E9
330
7E0
100
AcDbEntity
  8
0
100
AcDbBlockEnd
  0
BLOCK
  5
7F0
330
7EA
100
AcDbEntity
  8
0
100
AcDbBlockBegin
  2
*D89
 70
     1
 10
0.0
 20
0.0
 30
0.0
  3
*D89
  1

  0
LINE
  5
8E3
330
7EA
100
AcDbEntity
  8
0
 62
     0
370
    -2
100
AcDbLine
 10
48.1114641428581
 20
38.08105911618067
 30
0.0
 11
56.53645776262053
 21
38.08105911618067
 31
0.0
  0
MTEXT
  5
8E4
330
7EA
100
AcDbEntity
  8
0
 62
     0
100
AcDbMText
 10
58.7931244292872
 20
38.08105911618067
 30
0.0
 40
1.0
 41
0.0
 71
     5
 72
     1
  1
\A1;18.719
 73
     1
 44
1.0
1001
ACAD
1000
MTEXTBEGIN
1070
    73
1070
     1
1070
    44
1040
1.0
1070
    74
1070
     0
1000
MTEXTEND
  0
POINT
  5
8E5
330
7EA
100
AcDbEntity
  8
Defpoints
 62
     0
100
AcDbPoint
 10
47.91146414285807
 20
38.08105911618067
 30
0.0
  0
POINT
  5
8E6
330
7EA
100
AcDbEntity
  8
Defpoints
 62
     0
100
AcDbPoint
 10
56.53645776262053
 20
38.08105911618067
 30
0.0
  0
POINT
  5
8E7
330
7EA
100
AcDbEntity
  8
Defpoints
 62
     0
100
AcDbPoint
 10
35.28645776262055
 20
19.3621870313283
 30
0.0
  0
ENDBLK
  5
7F1
330
7EA
100
AcDbEntity
  8
0
100
AcDbBlockEnd
  0
BLOCK
  5
7F8
330
7F2
100
AcDbEntity
  8
0
100
AcDbBlockBegin
  2
*D90
 70
     1
 10
0.0
 20
0.0
 30
0.0
  3
*D90
  1

  0
LINE
  5
8DE
330
7F2
100
AcDbEntity
  8
0
 62
     0
370
    -2
100
AcDbLine
 10
47.91146414285807
 20
39.78105911618067
 30
0.0
 11
47.91146414285807
 21
41.38053690435413
 31
0.0
  0
MTEXT
  5
8DF
330
7F2
100
AcDbEntity
  8
0
 62
     0
100
AcDbMText
 10
47.91146414285806
 20
43.80387023768747
 30
0.0
 40
1.0
 41
0.0
 71
     5
 72
     1
  1
\A1;12.625
 11
0.0000000000000001
 21
1.0
 31
0.0
 73
     1
 44
1.0
1001
ACAD
1000
MTEXTBEGIN
1070
    73
1070
     1
1070
    44
1040
1.0
1070
    74
1070
     0
1000
MTEXTEND
  0
POINT
  5
8E0
330
7F2
100
AcDbEntity
  8
Defpoints
 62
     0
100
AcDbPoint
 10
47.91146414285807
 20
39.58105911618068
 30
0.0
  0
POINT
  5
8E1
330
7F2
100
AcDbEntity
  8
Defpoints
 62
     0
100
AcDbPoint
 10
47.91146414285807
 20
41.38053690435413
 30
0.0
  0
POINT
  5
8E2
330
7F2
100
AcDbEntity
  8
Defpoints
 62
     0
100
AcDbPoint
 10
35.28645776262055
 20
19.3621870313283
 30
0.0
  0
ENDBLK
  5
7F9
330
7F2
100
AcDbEntity
  8
0
100
AcDbBlockEnd
  0
BLOCK
  5
800
330
7FA
100
AcDbEntity
  8
0
100
AcDbBlockBegin
  2
*D91
 70
     1
 10
0.0
 20
0.0
 30
0.0
  3
*D91
  1

  0
LINE
  5
972
330
7FA
100
AcDbEntity
  8
0
 62
     0
370
    -2
100
AcDbLine
 10
45.41146414285786
 20
40.5310591161806
 30
0.0
 11
45.41146414285786
 21
41.61337066573596
 31
0.0
  0
MTEXT
  5
973
330
7FA
100
AcDbEntity
  8
0
 62
     0
100
AcDbMText
 10
45.41146414285784
 20
43.78670399906929
 30
0.0
 40
1.0
 41
0.0
 71
     5
 72
     1
  1
\A1;10.125
 11
0.0000000000000001
 21
1.0
 31
0.0
 73
     1
 44
1.0
1001
ACAD
1000
MTEXTBEGIN
1070
    73
1070
     1
1070
    44
1040
1.0
1070
    74
1070
     0
1000
MTEXTEND
  0
POINT
  5
974
330
7FA
100
AcDbEntity
  8
Defpoints
 62
     0
100
AcDbPoint
 10
45.41146414285786
 20
40.3310591161806
 30
0.0
  0
POINT
  5
975
330
7FA
100
AcDbEntity
  8
Defpoints
 62
     0
100
AcDbPoint
 10
45.41146414285786
 20
41.61337066573596
 30
0.0
  0
POINT
  5
976
330
7FA
100
AcDbEntity
  8
Defpoints
 62
     0
100
AcDbPoint
 10
35.28645776262055
 20
19.3621870313283
 30
0.0
  0
ENDBLK
  5
801
330
7FA
100
AcDbEntity
  8
0
100
AcDbBlockEnd
  0
BLOCK
  5
80A
330
802
100
AcDbEntity
  8
0
100
AcDbBlockBegin
  2
*D92
 70
     1
 10
0.0
 20
0.0
 30
0.0
  3
*D92
  1

  0
LINE
  5
96B
330
802
100
AcDbEntity
  8
0
 62
     0
370
    -2
100
AcDbLine
 10
45.21146414285786
 20
40.3310591161806
 30
0.0
 11
37.78022958836845
 21
40.3310591161806
 31
0.0
  0
LINE
  5
96C
330
802
100
AcDbEntity
  8
0
 62
     0
370
    -2
100
AcDbLine
 10
37.78022958836845
 20
40.3310591161806
 30
0.0
 11
35.78022958836843
 21
39.23169154613268
 31
0.0
  0
LINE
  5
96D
330
802
100
AcDbEntity
  8
0
 62
     0
370
    -2
100
AcDbLine
 10
35.78022958836843
 20
39.23169154613268
 30
0.0
 11
33.78022958836844
 21
39.23169154613268
 31
0.0
  0
MTEXT
  5
96E
330
802
100
AcDbEntity
  8
0
 62
     0
100
AcDbMText
 10
31.27356292170177
 20
39.23169154613268
 30
0.0
 40
1.0
 41
0.0
 71
     5
 72
     1
  1
\A1;20.969
 73
     1
 44
1.0
1001
ACAD
1000
MTEXTBEGIN
1070
    73
1070
     1
1070
    44
1040
1.0
1070
    74
1070
     0
1000
MTEXTEND
  0
POINT
  5
96F
330
802
100
AcDbEntity
  8
Defpoints
 62
     0
100
AcDbPoint
 10
45.41146414285786
 20
40.3310591161806
 30
0.0
  0
POINT
  5
970
330
802
100
AcDbEntity
  8
Defpoints
 62
     0
100
AcDbPoint
 10
33.78022958836844
 20
39.23169154613268
 30
0.0
  0
POINT
  5
971
330
802
100
AcDbEntity
  8
Defpoints
 62
     0
100
AcDbPoint
 10
35.28645776262055
 20
19.3621870313283
 30
0.0
  0
ENDBLK
  5
80B
330
802
100
AcDbEntity
  8
0
100
AcDbBlockEnd
  0
BLOCK
  5
815
330
80C
100
AcDbEntity
  8
0
100
AcDbBlockBegin
  2
*D93
 70
     1
 10
0.0
 20
0.0
 30
0.0
  3
*D93
  1

  0
LINE
  5
977
330
80C
100
AcDbEntity
  8
0
 62
     0
370
    -2
100
AcDbLine
 10
32.56430177285801
 20
52.59519589362782
 30
0.0
 11
33.564301772858
 21
52.59519589362782
 31
0.0
  0
LINE
  5
978
330
80C
100
AcDbEntity
  8
0
 62
     0
370
    -2
100
AcDbLine
 10
33.564301772858
 20
52.59519589362782
 30
0.0
 11
44.28245577900804
 21
41.49980421856905
 31
0.0
  0
MTEXT
  5
979
330
80C
100
AcDbEntity
  8
0
 62
     0
100
AcDbMText
 10
32.47430177285802
 20
48.76186256029447
 30
0.0
 40
1.0
 41
0.0
 71
     9
 72
     1
  1
\A1;\U+22051.250 (1) \POPTIONAL:\PETHERNET\PCONNECTION\PPORT
 73
     1
 44
1.0
1001
ACAD
1000
MTEXTBEGIN
1070
    73
1070
     1
1070
    44
1040
1.0
1070
    74
1070
     0
1000
MTEXTEND
  0
SOLID
  5
97A
330
80C
100
AcDbEntity
  8
0
 62
     0
100
AcDbTrace
 10
44.40232707156072
 20
41.61559994819468
 30
0.0
 11
44.1625844864554
 21
41.38400848894341
 31
0.0
 12
44.97723015676186
 22
40.7805764632531
 32
0.0
 13
44.97723015676186
 23
40.7805764632531
 33
0.0
  0
LINE
  5
97B
330
80C
100
AcDbEntity
  8
0
 62
     0
370
    -2
100
AcDbLine
 10
45.321464142858
 20
40.33105911618064
 30
0.0
 11
45.50146414285801
 21
40.33105911618066
 31
0.0
  0
LINE
  5
97C
330
80C
100
AcDbEntity
  8
0
 62
     0
370
    -2
100
AcDbLine
 10
45.411464142858
 20
40.24105911618065
 30
0.0
 11
45.411464142858
 21
40.42105911618064
 31
0.0
  0
POINT
  5
97D
330
80C
100
AcDbEntity
  8
Defpoints
 62
     0
100
AcDbPoint
 10
44.97723015676186
 20
40.7805764632531
 30
0.0
  0
POINT
  5
97E
330
80C
100
AcDbEntity
  8
Defpoints
 62
     0
100
AcDbPoint
 10
45.84569812895413
 20
39.88154176910819
 30
0.0
  0
ENDBLK
  5
816
330
80C
100
AcDbEntity
  8
0
100
AcDbBlockEnd
  0
BLOCK
  5
81F
330
817
100
AcDbEntity
  8
0
100
AcDbBlockBegin
  2
*D94
 70
     1
 10
0.0
 20
0.0
 30
0.0
  3
*D94
  1

  0
LINE
  5
95C
330
817
100
AcDbEntity
  8
0
 62
     0
370
    -2
100
AcDbLine
 10
53.88045776262053
 20
19.8791870313283
 30
0.0
 11
53.88045776262053
 21
18.0791870313283
 31
0.0
  0
LINE
  5
95D
330
817
100
AcDbEntity
  8
0
 62
     0
370
    -2
100
AcDbLine
 10
53.88045776262053
 20
18.0791870313283
 30
0.0
 11
53.1060059165436
 21
17.70036495846573
 31
0.0
  0
LINE
  5
95E
330
817
100
AcDbEntity
  8
0
 62
     0
370
    -2
100
AcDbLine
 10
53.1060059165436
 20
17.70036495846573
 30
0.0
 11
53.1060059165436
 21
15.70036495846573
 31
0.0
  0
MTEXT
  5
95F
330
817
100
AcDbEntity
  8
0
 62
     0
100
AcDbMText
 10
53.1060059165436
 20
13.27703162513241
 30
0.0
 40
1.0
 41
0.0
 71
     5
 72
     1
  1
\A1;18.594
 11
0.0000000000000001
 21
1.0
 31
0.0
 73
     1
 44
1.0
1001
ACAD
1000
MTEXTBEGIN
1070
    73
1070
     1
1070
    44
1040
1.0
1070
    74
1070
     0
1000
MTEXTEND
  0
POINT
  5
960
330
817
100
AcDbEntity
  8
Defpoints
 62
     0
100
AcDbPoint
 10
53.88045776262053
 20
20.0791870313283
 30
0.0
  0
POINT
  5
961
330
817
100
AcDbEntity
  8
Defpoints
 62
     0
100
AcDbPoint
 10
53.1060059165436
 20
15.70036495846573
 30
0.0
  0
POINT
  5
962
330
817
100
AcDbEntity
  8
Defpoints
 62
     0
100
AcDbPoint
 10
35.28645776262055
 20
19.3621870313283
 30
0.0
  0
ENDBLK
  5
820
330
817
100
AcDbEntity
  8
0
100
AcDbBlockEnd
  0
BLOCK
  5
827
330
821
100
AcDbEntity
  8
0
100
AcDbBlockBegin
  2
*D95
 70
     1
 10
0.0
 20
0.0
 30
0.0
  3
*D95
  1

  0
LINE
  5
957
330
821
100
AcDbEntity
  8
0
 62
     0
370
    -2
100
AcDbLine
 10
51.60045776262032
 20
19.8791870313283
 30
0.0
 11
51.60045776262032
 21
15.29167793886246
 31
0.0
  0
MTEXT
  5
958
330
821
100
AcDbEntity
  8
0
 62
     0
100
AcDbMText
 10
51.60045776262032
 20
13.0350112721958
 30
0.0
 40
1.0
 41
0.0
 71
     5
 72
     1
  1
\A1;16.314
 11
0.0000000000000001
 21
1.0
 31
0.0
 73
     1
 44
1.0
1001
ACAD
1000
MTEXTBEGIN
1070
    73
1070
     1
1070
    44
1040
1.0
1070
    74
1070
     0
1000
MTEXTEND
  0
POINT
  5
959
330
821
100
AcDbEntity
  8
Defpoints
 62
     0
100
AcDbPoint
 10
51.60045776262032
 20
20.0791870313283
 30
0.0
  0
POINT
  5
95A
330
821
100
AcDbEntity
  8
Defpoints
 62
     0
100
AcDbPoint
 10
51.60045776262032
 20
15.29167793886246
 30
0.0
  0
POINT
  5
95B
330
821
100
AcDbEntity
  8
Defpoints
 62
     0
100
AcDbPoint
 10
35.28645776262055
 20
19.3621870313283
 30
0.0
  0
ENDBLK
  5
828
330
821
100
AcDbEntity
  8
0
100
AcDbBlockEnd
  0
BLOCK
  5
82F
330
829
100
AcDbEntity
  8
0
100
AcDbBlockBegin
  2
*D96
 70
     1
 10
0.0
 20
0.0
 30
0.0
  3
*D96
  1

  0
LINE
  5
952
330
829
100
AcDbEntity
  8
0
 62
     0
370
    -2
100
AcDbLine
 10
51.40045776262033
 20
23.2041870313283
 30
0.0
 11
50.07957726534048
 21
23.2041870313283
 31
0.0
  0
MTEXT
  5
953
330
829
100
AcDbEntity
  8
0
 62
     0
100
AcDbMText
 10
47.98957726534047
 20
23.2041870313283
 30
0.0
 40
1.0
 41
0.0
 71
     5
 72
     1
  1
\A1;3.842
 73
     1
 44
1.0
1001
ACAD
1000
MTEXTBEGIN
1070
    73
1070
     1
1070
    44
1040
1.0
1070
    74
1070
     0
1000
MTEXTEND
  0
POINT
  5
954
330
829
100
AcDbEntity
  8
Defpoints
 62
     0
100
AcDbPoint
 10
51.60045776262032
 20
23.2041870313283
 30
0.0
  0
POINT
  5
955
330
829
100
AcDbEntity
  8
Defpoints
 62
     0
100
AcDbPoint
 10
50.07957726534048
 20
23.2041870313283
 30
0.0
  0
POINT
  5
956
330
829
100
AcDbEntity
  8
Defpoints
 62
     0
100
AcDbPoint
 10
35.28645776262055
 20
19.3621870313283
 30
0.0
  0
ENDBLK
  5
830
330
829
100
AcDbEntity
  8
0
100
AcDbBlockEnd
  0
BLOCK
  5
837
330
831
100
AcDbEntity
  8
0
100
AcDbBlockBegin
  2
*D97
 70
     1
 10
0.0
 20
0.0
 30
0.0
  3
*D97
  1

  0
LINE
  5
94D
330
831
100
AcDbEntity
  8
0
 62
     0
370
    -2
100
AcDbLine
 10
51.40045776262033
 20
20.0791870313283
 30
0.0
 11
49.91135461887753
 21
20.0791870313283
 31
0.0
  0
MTEXT
  5
94E
330
831
100
AcDbEntity
  8
0
 62
     0
100
AcDbMText
 10
48.07135461887753
 20
20.0791870313283
 30
0.0
 40
1.0
 41
0.0
 71
     5
 72
     1
  1
\A1;0.717
 73
     1
 44
1.0
1001
ACAD
1000
MTEXTBEGIN
1070
    73
1070
     1
1070
    44
1040
1.0
1070
    74
1070
     0
1000
MTEXTEND
  0
POINT
  5
94F
330
831
100
AcDbEntity
  8
Defpoints
 62
     0
100
AcDbPoint
 10
51.60045776262032
 20
20.0791870313283
 30
0.0
  0
POINT
  5
950
330
831
100
AcDbEntity
  8
Defpoints
 62
     0
100
AcDbPoint
 10
49.91135461887753
 20
20.0791870313283
 30
0.0
  0
POINT
  5
951
330
831
100
AcDbEntity
  8
Defpoints
 62
     0
100
AcDbPoint
 10
35.28645776262055
 20
19.3621870313283
 30
0.0
  0
ENDBLK
  5
838
330
831
100
AcDbEntity
  8
0
100
AcDbBlockEnd
  0
BLOCK
  5
841
330
839
100
AcDbEntity
  8
0
100
AcDbBlockBegin
  2
*D98
 70
     1
 10
0.0
 20
0.0
 30
0.0
  3
*D98
  1

  0
LINE
  5
946
330
839
100
AcDbEntity
  8
0
 62
     0
370
    -2
100
AcDbLine
 10
54.09946414285808
 20
26.85305911618077
 30
0.0
 11
54.09946414285808
 21
19.42672437280055
 31
0.0
  0
LINE
  5
947
330
839
100
AcDbEntity
  8
0
 62
     0
370
    -2
100
AcDbLine
 10
54.09946414285808
 20
19.42672437280055
 30
0.0
 11
54.45699095632038
 21
17.42672437280056
 31
0.0
  0
LINE
  5
948
330
839
100
AcDbEntity
  8
0
 62
     0
370
    -2
100
AcDbLine
 10
54.45699095632038
 20
17.42672437280056
 30
0.0
 11
54.45699095632037
 21
15.42672437280056
 31
0.0
  0
MTEXT
  5
949
330
839
100
AcDbEntity
  8
0
 62
     0
100
AcDbMText
 10
54.45699095632037
 20
13.1700577061339
 30
0.0
 40
1.0
 41
0.0
 71
     5
 72
     1
  1
\A1;18.813
 11
0.0000000000000001
 21
1.0
 31
0.0
 73
     1
 44
1.0
1001
ACAD
1000
MTEXTBEGIN
1070
    73
1070
     1
1070
    44
1040
1.0
1070
    74
1070
     0
1000
MTEXTEND
  0
POINT
  5
94A
330
839
100
AcDbEntity
  8
Defpoints
 62
     0
100
AcDbPoint
 10
54.09946414285808
 20
27.05305911618076
 30
0.0
  0
POINT
  5
94B
330
839
100
AcDbEntity
  8
Defpoints
 62
     0
100
AcDbPoint
 10
54.45699095632037
 20
15.42672437280056
 30
0.0
  0
POINT
  5
94C
330
839
100
AcDbEntity
  8
Defpoints
 62
     0
100
AcDbPoint
 10
35.28645776262055
 20
19.3621870313283
 30
0.0
  0
ENDBLK
  5
842
330
839
100
AcDbEntity
  8
0
100
AcDbBlockEnd
  0
ENDSEC
  0
SECTION
  2
ENTITIES
  0
LINE
  5
2B4
330
1F
100
AcDbEntity
  8
BORDER
100
AcDbLine
 10
38.5064988160789
 20
6.34295007204296
 30
0.0
 11
22.51483155837176
 21
6.34295007204296
 31
0.0
  0
TEXT
  5
2B5
330
1F
100
AcDbEntity
  8
TEXT
100
AcDbText
 10
22.99163819899677
 20
5.973809447042902
 30
0.0
 40
0.24609375
  1
0
 72
     1
 11
23.05316163649676
 21
6.096856322042902
 31
0.0
100
AcDbText
 73
     2
  0
LINE
  5
2B6
330
1F
100
AcDbEntity
  8
BORDER
100
AcDbLine
 10
23.59149171462176
 20
5.850762572042918
 30
0.0
 11
23.59149171462176
 21
6.835137572043002
 31
0.0
  0
TEXT
  5
2B7
330
1F
100
AcDbEntity
  8
TEXT
100
AcDbText
 10
27.05628663649694
 20
5.973809447042902
 30
0.0
 40
0.24609375
  1
INITIAL RELEASE
 72
     1
 11
28.73792726149694
 21
6.096856322042902
 31
0.0
100
AcDbText
 73
     2
  0
TEXT
  5
2B8
330
1F
100
AcDbEntity
  8
TEXT
100
AcDbText
 10
36.95011831222545
 20
5.973809447042902
 30
0.0
 40
0.24609375
  1
JJH
 72
     1
 11
37.27824331222545
 21
6.096856322042902
 31
0.0
100
AcDbText
 73
     2
  0
LINE
  5
2B9
330
1F
100
AcDbEntity
  8
BORDER
100
AcDbLine
 10
36.04998780837176
 20
5.850762572042918
 30
0.0
 11
36.04998780837176
 21
6.835137572043002
 31
0.0
  0
TEXT
  5
2BA
330
1F
100
AcDbEntity
  8
TEXT
100
AcDbText
 10
34.24940187087171
 20
5.973809447042902
 30
0.0
 40
0.24609375
  1
4-15-10
 72
     1
 11
34.96717530837171
 21
6.096856322042902
 31
0.0
100
AcDbText
 73
     2
  0
LINE
  5
2BB
330
1F
100
AcDbEntity
  8
BORDER
100
AcDbLine
 10
33.88436280837178
 20
5.850762572042918
 30
0.0
 11
33.88436280837178
 21
6.835137572043002
 31
0.0
  0
LINE
  5
2BC
330
1F
100
AcDbEntity
  8
BORDER
100
AcDbLine
 10
38.5064988160789
 20
5.358575072042903
 30
0.0
 11
22.51483155837176
 21
5.358575072042903
 31
0.0
  0
LINE
  5
2BD
330
1F
100
AcDbEntity
  8
BORDER
100
AcDbLine
 10
38.5064988160789
 20
5.850762572042918
 30
0.0
 11
22.51483155837176
 21
5.850762572042918
 31
0.0
  0
TEXT
  5
2BE
330
1F
100
AcDbEntity
  8
TEXT
100
AcDbText
 10
22.68402101149677
 20
5.481621947042846
 30
0.0
 40
0.24609375
  1
REV
 72
     1
 11
23.05316163649676
 21
5.604668822042846
 31
0.0
100
AcDbText
 73
     2
  0
LINE
  5
2BF
330
1F
100
AcDbEntity
  8
BORDER
100
AcDbLine
 10
22.51483155837176
 20
4.866387572042903
 30
0.0
 11
22.51483155837176
 21
7.819512572043116
 31
0.0
  0
LINE
  5
2C0
330
1F
100
AcDbEntity
  8
BORDER
100
AcDbLine
 10
23.59149171462176
 20
5.358575072042903
 30
0.0
 11
23.59149171462176
 21
5.850762572042918
 31
0.0
  0
TEXT
  5
2C1
330
1F
100
AcDbEntity
  8
TEXT
100
AcDbText
 10
27.50745851149694
 20
5.481621947042846
 30
0.0
 40
0.24609375
  1
DESCRIPTION
 72
     1
 11
28.73792726149694
 21
5.604668822042846
 31
0.0
100
AcDbText
 73
     2
  0
TEXT
  5
2C2
330
1F
100
AcDbEntity
  8
TEXT
100
AcDbText
 10
36.45793081222545
 20
5.481621947042846
 30
0.0
 40
0.24609375
  1
CHECKED
 72
     1
 11
37.27824331222545
 21
5.604668822042846
 31
0.0
100
AcDbText
 73
     2
  0
LINE
  5
2C3
330
1F
100
AcDbEntity
  8
BORDER
100
AcDbLine
 10
36.04998780837176
 20
5.358575072042903
 30
0.0
 11
36.04998780837176
 21
5.850762572042918
 31
0.0
  0
TEXT
  5
2C4
330
1F
100
AcDbEntity
  8
TEXT
100
AcDbText
 10
34.51600343337171
 20
5.481621947042846
 30
0.0
 40
0.24609375
  1
DATE
 72
     1
 11
34.96717530837171
 21
5.604668822042846
 31
0.0
100
AcDbText
 73
     2
  0
LINE
  5
2C5
330
1F
100
AcDbEntity
  8
BORDER
100
AcDbLine
 10
33.88436280837178
 20
5.358575072042903
 30
0.0
 11
33.88436280837178
 21
5.850762572042918
 31
0.0
  0
LINE
  5
2C6
330
1F
100
AcDbEntity
  8
BORDER
100
AcDbLine
 10
22.51483155837176
 20
5.358575072042903
 30
0.0
 11
38.5064988160789
 21
5.358575072042903
 31
0.0
  0
LINE
  5
2C7
330
1F
100
AcDbEntity
  8
BORDER
100
AcDbLine
 10
38.5064988160789
 20
6.835137572043002
 30
0.0
 11
38.5064988160789
 21
4.866387572042903
 31
0.0
  0
LINE
  5
2C8
330
1F
100
AcDbEntity
  8
BORDER
100
AcDbLine
 10
38.5064988160789
 20
4.866387572042903
 30
0.0
 11
22.51483155837176
 21
4.866387572042903
 31
0.0
  0
TEXT
  5
2C9
330
1F
100
AcDbEntity
  8
TEXT
100
AcDbText
 10
27.71253663649694
 20
4.989434447042831
 30
0.0
 40
0.24609375
  1
REVISIONS
 72
     1
 11
28.73792726149694
 21
5.112481322042831
 31
0.0
100
AcDbText
 73
     2
  0
TEXT
  5
2CA
330
1F
100
AcDbEntity
  8
TEXT
100
AcDbText
 10
68.32504585901418
 20
5.086278341545103
 30
0.0
 40
0.615234375
  1
1
 72
     1
 11
68.42758492151418
 21
5.393895529045103
 31
0.0
100
AcDbText
 73
     2
  0
TEXT
  5
2CB
330
1F
100
AcDbEntity
  8
TEXT
100
AcDbText
 10
62.29234231763554
 20
5.086278341545103
 30
0.0
 40
0.615234375
  1
IQ300445
 72
     1
 11
64.44566263013554
 21
5.393895529045103
 31
0.0
100
AcDbText
 73
     2
  0
TEXT
  5
2CC
330
1F
100
AcDbEntity
  8
TEXT
100
AcDbText
 10
64.43026230579313
 20
7.744035321984789
 30
0.0
 40
0.15380859375
  1
724-837-2204  *  1-888-867-8234
 72
     1
 11
66.75020859485563
 21
7.820939618859789
 31
0.0
100
AcDbText
 73
     2
  0
TEXT
  5
2CD
330
1F
100
AcDbEntity
  8
TEXT
100
AcDbText
 10
65.26339218860563
 20
8.051652509484789
 30
0.0
 40
0.15380859375
  1
GREENSBURG, PA  15601
 72
     1
 11
66.75020859485563
 21
8.128556806359789
 31
0.0
100
AcDbText
 73
     2
  0
TEXT
  5
2CE
330
1F
100
AcDbEntity
  8
TEXT
100
AcDbText
 10
65.49410507923063
 20
8.359269696984789
 30
0.0
 40
0.15380859375
  1
141 WILSON AVENUE
 72
     1
 11
66.75020859485563
 21
8.436173993859789
 31
0.0
100
AcDbText
 73
     2
  0
TEXT
  5
2CF
330
1F
100
AcDbEntity
  8
TEXT
100
AcDbText
 10
64.72506211048063
 20
8.651506025109801
 30
0.0
 40
0.15380859375
  1
INDUSTRIAL COOLING EQUIPMENT
 72
     1
 11
66.75020859485563
 21
8.728410321984801
 31
0.0
100
AcDbText
 73
     2
  0
TEXT
  5
2D0
330
1F
100
AcDbEntity
  8
TEXT
100
AcDbText
 10
65.46847031360563
 20
7.436418134484789
 30
0.0
 40
0.15380859375
  1
FAX  724-837-3386
 72
     1
 11
66.75020859485563
 21
7.513322431359789
 31
0.0
100
AcDbText
 73
     2
  0
LINE
  5
2D1
330
1F
100
AcDbEntity
  8
BORDER
100
AcDbLine
 10
61.30710466285202
 20
8.920671064172331
 30
0.0
 11
69.27094924560927
 21
8.920671064172301
 31
0.0
  0
LINE
  5
2D2
330
1F
100
AcDbEntity
  8
BORDER
100
AcDbLine
 10
61.30710466285202
 20
7.382585126672302
 30
0.0
 11
69.27094924560927
 21
7.382585126672302
 31
0.0
  0
LINE
  5
2D3
330
1F
100
AcDbEntity
  8
BORDER
100
AcDbLine
 10
61.30710466285202
 20
6.152116376672302
 30
0.0
 11
69.27094924560927
 21
6.152116376672302
 31
0.0
  0
LINE
  5
2D4
330
1F
100
AcDbEntity
  8
BORDER
100
AcDbLine
 10
67.58422059741909
 20
6.152116376672302
 30
0.0
 11
67.58422059741909
 21
4.866387572042903
 31
0.0
  0
TEXT
  5
2D5
330
1F
100
AcDbEntity
  8
TEXT
100
AcDbText
 10
57.47769058491738
 20
5.050286190675471
 30
0.0
 40
0.3076171875
  1
SHEET 1 OF 1
 72
     1
 11
59.16958511616738
 21
5.204094784425471
 31
0.0
100
AcDbText
 73
     2
  0
LINE
  5
2D6
330
1F
100
AcDbEntity
  8
BORDER
100
AcDbLine
 10
57.00046403785202
 20
5.536882001672302
 30
0.0
 11
61.30710466285202
 21
5.536882001672302
 31
0.0
  0
TEXT
  5
2D7
330
1F
100
AcDbEntity
  8
TEXT
100
AcDbText
 10
58.25656755347702
 20
5.695646959671512
 30
0.0
 40
0.3076171875
  1
4-15-10
 72
     1
 11
59.15378435035202
 21
5.849455553421512
 31
0.0
100
AcDbText
 73
     2
  0
TEXT
  5
2D8
330
1F
100
AcDbEntity
  8
TEXT
100
AcDbText
 10
57.15427263160202
 20
5.921403486047302
 30
0.0
 40
0.15380859375
  1
DATE
100
AcDbText
  0
TEXT
  5
2D9
330
1F
100
AcDbEntity
  8
TEXT
100
AcDbText
 10
57.73720720191445
 20
6.206872236047267
 30
0.0
 40
0.230712890625
  1
JJH
 72
     1
 11
58.04482438941445
 21
6.322228681359767
 31
0.0
100
AcDbText
 73
     2
  0
TEXT
  5
2DA
330
1F
100
AcDbEntity
  8
TEXT
100
AcDbText
 10
57.08967302222688
 20
6.536637861047302
 30
0.0
 40
0.15380859375
  1
DRAWN
100
AcDbText
  0
TEXT
  5
2DB
330
1F
100
AcDbEntity
  8
TEXT
100
AcDbText
 10
59.30759294410202
 20
6.536637861047302
 30
0.0
 40
0.15380859375
  1
SCALE
100
AcDbText
  0
TEXT
  5
2DC
330
1F
100
AcDbEntity
  8
TEXT
100
AcDbText
 10
59.83977067847697
 20
6.206872236047267
 30
0.0
 40
0.230712890625
  1
NONE
 72
     1
 11
60.26274431128947
 21
6.322228681359767
 31
0.0
100
AcDbText
 73
     2
  0
LINE
  5
2DD
330
1F
100
AcDbEntity
  8
BORDER
100
AcDbLine
 10
57.00046403785202
 20
6.767350751672302
 30
0.0
 11
61.30710466285202
 21
6.767350751672302
 31
0.0
  0
LINE
  5
2DE
330
1F
100
AcDbEntity
  8
BORDER
100
AcDbLine
 10
57.00046403785202
 20
6.152116376672302
 30
0.0
 11
61.30710466285202
 21
6.152116376672302
 31
0.0
  0
LINE
  5
2DF
330
1F
100
AcDbEntity
  8
BORDER
100
AcDbLine
 10
61.30710466285202
 20
4.86638757204286
 30
0.0
 11
61.30710466285202
 21
8.920671064172301
 31
0.0
  0
LINE
  5
2E0
330
1F
100
AcDbEntity
  8
TEXT
100
AcDbLine
 10
62.18735198382708
 20
7.633256236202463
 30
0.0
 11
62.21366539651446
 21
7.616603085675912
 31
0.0
  0
ARC
  5
2E1
330
1F
100
AcDbEntity
  8
TEXT
100
AcDbCircle
 10
62.35913505673343
 20
7.810083075922882
 30
0.0
 40
0.1013649329105545
100
AcDbArc
 50
287.1920036507392
 51
335.899750405153
  0
ARC
  5
2E2
330
1F
100
AcDbEntity
  8
TEXT
100
AcDbCircle
 10
62.56192896078065
 20
7.673520866447296
 30
0.0
 40
0.0471540870156667
100
AcDbArc
 50
67.37252950712535
 51
112.6274704928676
  0
ARC
  5
2E3
330
1F
100
AcDbEntity
  8
TEXT
100
AcDbCircle
 10
62.54707390153411
 20
7.754988084744674
 30
0.0
 40
0.0666030908166776
100
AcDbArc
 50
330.1916644163821
 51
19.91318758188132
  0
ARC
  5
2E4
330
1F
100
AcDbEntity
  8
TEXT
100
AcDbCircle
 10
62.45846123699656
 20
7.792285942653712
 30
0.0
 40
0.0245532030746471
100
AcDbArc
 50
253.9290889125597
 51
38.65267477511391
  0
ARC
  5
2E5
330
1F
100
AcDbEntity
  8
TEXT
100
AcDbCircle
 10
62.8757565962226
 20
7.766871780709286
 30
0.0
 40
0.051016304247067
100
AcDbArc
 50
188.1927496775744
 51
244.8496170020148
  0
ARC
  5
2E6
330
1F
100
AcDbEntity
  8
TEXT
100
AcDbCircle
 10
62.87513271764013
 20
7.816254531031993
 30
0.0
 40
0.0978550905911451
100
AcDbArc
 50
257.573093086619
 51
314.427386746227
  0
LINE
  5
2E7
330
1F
100
AcDbEntity
  8
TEXT
100
AcDbLine
 10
63.04564871378513
 20
7.707462746687546
 30
0.0
 11
63.04720620198307
 21
7.725361218532491
 31
0.0
  0
LINE
  5
2E8
330
1F
100
AcDbEntity
  8
TEXT
100
AcDbLine
 10
63.04720620198307
 20
7.725361218532491
 30
0.0
 11
63.02072854321867
 21
7.723804825704737
 31
0.0
  0
ARC
  5
2E9
330
1F
100
AcDbEntity
  8
TEXT
100
AcDbCircle
 10
63.02019312430869
 20
7.745376502155884
 30
0.0
 40
0.0215783200996405
100
AcDbArc
 50
155.9964711746275
 51
271.4218156194853
  0
ARC
  5
2EA
330
1F
100
AcDbEntity
  8
TEXT
100
AcDbCircle
 10
63.20764361579793
 20
7.755927719620949
 30
0.0
 40
0.0505724721520153
100
AcDbArc
 50
203.9135879631564
 51
286.1701931802543
  0
ARC
  5
2EB
330
1F
100
AcDbEntity
  8
TEXT
100
AcDbCircle
 10
63.23184083293589
 20
7.778040193465692
 30
0.0
 40
0.0714040466730829
100
AcDbArc
 50
261.8576121462839
 51
331.2394802847371
  0
ARC
  5
2EC
330
1F
100
AcDbEntity
  8
TEXT
100
AcDbCircle
 10
63.22881279858395
 20
7.78913439812242
 30
0.0
 40
0.0798259163365318
100
AcDbArc
 50
325.2939034707337
 51
356.4132772462207
  0
LINE
  5
2ED
330
1F
100
AcDbEntity
  8
TEXT
100
AcDbLine
 10
62.53127242459188
 20
8.510513763453907
 30
0.0
 11
62.73601416390104
 21
8.510513763453907
 31
0.0
  0
ARC
  5
2EE
330
1F
100
AcDbEntity
  8
TEXT
100
AcDbCircle
 10
62.64301218195946
 20
8.514838421140531
 30
0.0
 40
0.0931024774600015
100
AcDbArc
 50
357.337623744369
 51
85.63084243886233
  0
ARC
  5
2EF
330
1F
100
AcDbEntity
  8
TEXT
100
AcDbCircle
 10
62.61398888265106
 20
8.43545007907857
 30
0.0
 40
0.1759664343777212
100
AcDbArc
 50
78.15621523985548
 51
106.6122408520358
  0
LINE
  5
2F0
330
1F
100
AcDbEntity
  8
TEXT
100
AcDbLine
 10
62.53127242459188
 20
8.532618162644986
 30
0.0
 11
62.66553774215188
 21
8.532618162644986
 31
0.0
  0
ARC
  5
2F1
330
1F
100
AcDbEntity
  8
TEXT
100
AcDbCircle
 10
62.59668962103617
 20
8.519841444601418
 30
0.0
 40
0.066653237840224
100
AcDbArc
 50
103.9179608005984
 51
168.9486088950472
  0
ARC
  5
2F2
330
1F
100
AcDbEntity
  8
TEXT
100
AcDbCircle
 10
62.61202568554974
 20
8.534308370922111
 30
0.0
 40
0.0535387430353659
100
AcDbArc
 50
358.1908821763629
 51
69.74957583402932
  0
ARC
  5
2F3
330
1F
100
AcDbEntity
  8
TEXT
100
AcDbCircle
 10
62.60560704613877
 20
8.381347550422923
 30
0.0
 40
0.2047163202607575
100
AcDbArc
 50
82.99970676551479
 51
97.00029323448521
  0
ARC
  5
2F4
330
1F
100
AcDbEntity
  8
TEXT
100
AcDbCircle
 10
62.60412985855854
 20
8.483475408771987
 30
0.0
 40
0.1271990964368048
100
AcDbArc
 50
108.54166133208
 51
149.7652339536172
  0
ARC
  5
2F5
330
1F
100
AcDbEntity
  8
TEXT
100
AcDbCircle
 10
62.60494395507149
 20
8.479600586106391
 30
0.0
 40
0.1298868236526413
100
AcDbArc
 50
148.4692011102813
 51
195.5802361373368
  0
ARC
  5
2F6
330
1F
100
AcDbEntity
  8
TEXT
100
AcDbCircle
 10
62.60254125992677
 20
8.475730601903642
 30
0.0
 40
0.1265705251824847
100
AcDbArc
 50
194.1847393568164
 51
248.6586767321129
  0
ARC
  5
2F7
330
1F
100
AcDbEntity
  8
TEXT
100
AcDbCircle
 10
62.65453083323203
 20
8.508999132461362
 30
0.0
 40
0.1232677143761734
100
AcDbArc
 50
179.2959701761242
 51
227.5915484940839
  0
ARC
  5
2F8
330
1F
100
AcDbEntity
  8
TEXT
100
AcDbCircle
 10
62.62764839198828
 20
8.487056315703602
 30
0.0
 40
0.0890795626387494
100
AcDbArc
 50
230.841648863773
 51
280.5326941523482
  0
ARC
  5
2F9
330
1F
100
AcDbEntity
  8
TEXT
100
AcDbCircle
 10
62.63929018870035
 20
8.511192732818576
 30
0.0
 40
0.1118114428642877
100
AcDbArc
 50
272.3792098458871
 51
327.358187436322
  0
ARC
  5
2FA
330
1F
100
AcDbEntity
  8
TEXT
100
AcDbCircle
 10
62.6062353352061
 20
8.534671502873088
 30
0.0
 40
0.1836990577561208
100
AcDbArc
 50
254.2847830849396
 51
294.1819270465994
  0
ARC
  5
2FB
330
1F
100
AcDbEntity
  8
TEXT
100
AcDbCircle
 10
62.62114728817439
 20
8.489050760339557
 30
0.0
 40
0.1360681298420276
100
AcDbArc
 50
296.3233923707218
 51
339.8348331475805
  0
ARC
  5
2FC
330
1F
100
AcDbEntity
  8
TEXT
100
AcDbCircle
 10
62.73966954623486
 20
8.443884476449092
 30
0.0
 40
0.0093683072575426
100
AcDbArc
 50
349.2952029716974
 51
131.662690546936
  0
ARC
  5
2FD
330
1F
100
AcDbEntity
  8
TEXT
100
AcDbCircle
 10
62.34235794475835
 20
8.219123180098883
 30
0.0
 40
0.3925676386464281
100
AcDbArc
 50
84.62122141578795
 51
95.37877858421207
  0
ARC
  5
2FE
330
1F
100
AcDbEntity
  8
TEXT
100
AcDbCircle
 10
62.36589666915691
 20
8.520451030487071
 30
0.0
 40
0.0904880978638747
100
AcDbArc
 50
43.1676186731902
 51
81.57335966331341
  0
ARC
  5
2FF
330
1F
100
AcDbEntity
  8
TEXT
100
AcDbCircle
 10
62.40048177151929
 20
8.558735467971111
 30
0.0
 40
0.0393033179917377
100
AcDbArc
 50
321.1558234807585
 51
36.94217904230096
  0
ARC
  5
300
330
1F
100
AcDbEntity
  8
TEXT
100
AcDbCircle
 10
62.40794605499822
 20
8.564067963688321
 30
0.0
 40
0.0378790179601405
100
AcDbArc
 50
205.1359642899003
 51
307.6679722285764
  0
ARC
  5
301
330
1F
100
AcDbEntity
  8
TEXT
100
AcDbCircle
 10
62.41585906619551
 20
8.564880487344261
 30
0.0
 40
0.0454636997704151
100
AcDbArc
 50
180.010674400693
 51
201.8251852718034
  0
ARC
  5
302
330
1F
100
AcDbEntity
  8
TEXT
100
AcDbCircle
 10
62.32569115395385
 20
8.551445783753401
 30
0.0
 40
0.0466768725441042
100
AcDbArc
 50
16.71684440730493
 51
45.97719400399777
  0
ARC
  5
303
330
1F
100
AcDbEntity
  8
TEXT
100
AcDbCircle
 10
62.33372822302639
 20
8.206210543231613
 30
0.0
 40
0.3795839524571727
100
AcDbArc
 50
86.31431733544655
 51
93.90381943516556
  0
ARC
  5
304
330
1F
100
AcDbEntity
  8
TEXT
100
AcDbCircle
 10
62.32004675451778
 20
8.493075078618822
 30
0.0
 40
0.117781620314344
100
AcDbArc
 50
97.06566064011505
 51
142.4986334312258
  0
ARC
  5
305
330
1F
100
AcDbEntity
  8
TEXT
100
AcDbCircle
 10
62.31898084475588
 20
8.474662915151958
 30
0.0
 40
0.1290498933113547
100
AcDbArc
 50
135.7093780000635
 51
195.2317137751546
  0
ARC
  5
306
330
1F
100
AcDbEntity
  8
TEXT
100
AcDbCircle
 10
62.30677503130916
 20
8.470749369696925
 30
0.0
 40
0.116246069777947
100
AcDbArc
 50
194.9511061487659
 51
259.6103135862126
  0
ARC
  5
307
330
1F
100
AcDbEntity
  8
TEXT
100
AcDbCircle
 10
62.32533945940285
 20
8.475477498105211
 30
0.0
 40
0.1254581315342643
100
AcDbArc
 50
251.6347706403311
 51
316.4182924463649
  0
ARC
  5
308
330
1F
100
AcDbEntity
  8
TEXT
100
AcDbCircle
 10
62.30957012068031
 20
8.515123451448253
 30
0.0
 40
0.1651798587007476
100
AcDbArc
 50
310.2152586008206
 51
331.3072507285898
  0
ARC
  5
309
330
1F
100
AcDbEntity
  8
TEXT
100
AcDbCircle
 10
62.35728294035464
 20
8.489503433365861
 30
0.0
 40
0.1074394787924735
100
AcDbArc
 50
117.3722826858102
 51
160.0902491401812
  0
ARC
  5
30A
330
1F
100
AcDbEntity
  8
TEXT
100
AcDbCircle
 10
62.37116070708342
 20
8.499655900435264
 30
0.0
 40
0.117897438694018
100
AcDbArc
 50
167.0430028911425
 51
212.1309371309445
  0
ARC
  5
30B
330
1F
100
AcDbEntity
  8
TEXT
100
AcDbCircle
 10
62.34597540671964
 20
8.485703860709142
 30
0.0
 40
0.0891631714137721
100
AcDbArc
 50
213.1462108998124
 51
285.6537258536394
  0
ARC
  5
30C
330
1F
100
AcDbEntity
  8
TEXT
100
AcDbCircle
 10
62.34678576797004
 20
8.507712166997142
 30
0.0
 40
0.1103412734404501
100
AcDbArc
 50
282.1628426667851
 51
326.5593609179329
  0
ARC
  5
30D
330
1F
100
AcDbEntity
  8
TEXT
100
AcDbCircle
 10
62.44222566928878
 20
8.435115271973295
 30
0.0
 40
0.0122615525523301
100
AcDbArc
 50
3.288025410275502
 51
105.9275278804377
  0
LINE
  5
30E
330
1F
100
AcDbEntity
  8
TEXT
100
AcDbLine
 10
61.86436389613348
 20
8.874050331433004
 30
0.0
 11
61.8683704427472
 21
8.545750131422797
 31
0.0
  0
LINE
  5
30F
330
1F
100
AcDbEntity
  8
TEXT
100
AcDbLine
 10
61.89641626904156
 20
8.834013713877617
 30
0.0
 11
61.89841954234842
 21
8.545750131422797
 31
0.0
  0
ARC
  5
310
330
1F
100
AcDbEntity
  8
TEXT
100
AcDbCircle
 10
61.8833949925477
 20
8.545199070302452
 30
0.0
 40
0.01503465214332
100
AcDbArc
 50
177.899482485688
 51
2.100517514311766
  0
LINE
  5
311
330
1F
100
AcDbEntity
  8
TEXT
100
AcDbLine
 10
61.9652918782031
 20
8.819536952511775
 30
0.0
 11
61.9652918782031
 21
8.31768680287994
 31
0.0
  0
LINE
  5
312
330
1F
100
AcDbEntity
  8
TEXT
100
AcDbLine
 10
62.11081919072447
 20
8.819536952511775
 30
0.0
 11
62.11081919072447
 21
8.31768680287994
 31
0.0
  0
ARC
  5
313
330
1F
100
AcDbEntity
  8
TEXT
100
AcDbCircle
 10
61.91100917520682
 20
8.833312775029417
 30
0.0
 40
0.0146097305112935
100
AcDbArc
 50
38.20381851856275
 51
177.2500340797979
  0
LINE
  5
314
330
1F
100
AcDbEntity
  8
TEXT
100
AcDbLine
 10
61.92248973048154
 20
8.842348320181493
 30
0.0
 11
61.9652918782031
 21
8.819536952511775
 31
0.0
  0
LINE
  5
315
330
1F
100
AcDbEntity
  8
TEXT
100
AcDbLine
 10
62.15362133844589
 20
8.842348320181493
 30
0.0
 11
62.11081919072447
 21
8.819536952511775
 31
0.0
  0
LINE
  5
316
330
1F
100
AcDbEntity
  8
TEXT
100
AcDbLine
 10
62.17969479988576
 20
8.834013713877617
 30
0.0
 11
62.17952976911604
 21
8.810266399527071
 31
0.0
  0
LINE
  5
317
330
1F
100
AcDbEntity
  8
TEXT
100
AcDbLine
 10
62.21174717279385
 20
8.874050331433004
 30
0.0
 11
62.21096875932849
 21
8.810266399527071
 31
0.0
  0
ARC
  5
318
330
1F
100
AcDbEntity
  8
TEXT
100
AcDbCircle
 10
62.16510189372073
 20
8.833312775029417
 30
0.0
 40
0.0146097305112935
100
AcDbArc
 50
2.7499659202021
 51
141.7961814814372
  0
ARC
  5
319
330
1F
100
AcDbEntity
  8
TEXT
100
AcDbCircle
 10
62.19524926422221
 20
8.799881028945343
 30
0.0
 40
0.0188403409872779
100
AcDbArc
 50
146.5485285753433
 51
33.45147142465565
  0
ARC
  5
31A
330
1F
100
AcDbEntity
  8
TEXT
100
AcDbCircle
 10
63.67600277575983
 20
7.774234891522161
 30
0.0
 40
0.0093683072575426
100
AcDbArc
 50
349.2952029716974
 51
131.662690546936
  0
ARC
  5
31B
330
1F
100
AcDbEntity
  8
TEXT
100
AcDbCircle
 10
63.55748051769936
 20
7.819401175412544
 30
0.0
 40
0.1360681298420276
100
AcDbArc
 50
296.3233923707218
 51
339.8348331475805
  0
ARC
  5
31C
330
1F
100
AcDbEntity
  8
TEXT
100
AcDbCircle
 10
63.54256856473107
 20
7.865021917946187
 30
0.0
 40
0.1836990577561208
100
AcDbArc
 50
254.2847830849396
 51
294.1819270465994
  0
ARC
  5
31D
330
1F
100
AcDbEntity
  8
TEXT
100
AcDbCircle
 10
63.57562341822542
 20
7.841543147891577
 30
0.0
 40
0.1118114428642877
100
AcDbArc
 50
272.3792098458871
 51
327.358187436322
  0
ARC
  5
31E
330
1F
100
AcDbEntity
  8
TEXT
100
AcDbCircle
 10
63.56398162151314
 20
7.81740673077666
 30
0.0
 40
0.0890795626387494
100
AcDbArc
 50
230.841648863773
 51
280.5326941523482
  0
ARC
  5
31F
330
1F
100
AcDbEntity
  8
TEXT
100
AcDbCircle
 10
63.590864062757
 20
7.839349547534375
 30
0.0
 40
0.1232677143761734
100
AcDbArc
 50
179.2959701761242
 51
227.5915484940839
  0
ARC
  5
320
330
1F
100
AcDbEntity
  8
TEXT
100
AcDbCircle
 10
63.53887448945172
 20
7.806081016976655
 30
0.0
 40
0.1265705251824847
100
AcDbArc
 50
194.1847393568164
 51
248.6586767321129
  0
ARC
  5
321
330
1F
100
AcDbEntity
  8
TEXT
100
AcDbCircle
 10
63.54127718459657
 20
7.809951001179434
 30
0.0
 40
0.1298868236526413
100
AcDbArc
 50
148.4692011102813
 51
195.5802361373368
  0
ARC
  5
322
330
1F
100
AcDbEntity
  8
TEXT
100
AcDbCircle
 10
63.54046308808349
 20
7.813825823845029
 30
0.0
 40
0.1271990964368048
100
AcDbArc
 50
108.54166133208
 51
149.7652339536172
  0
ARC
  5
323
330
1F
100
AcDbEntity
  8
TEXT
100
AcDbCircle
 10
63.54194027566386
 20
7.711697965495964
 30
0.0
 40
0.2047163202607575
100
AcDbArc
 50
82.99970676551479
 51
97.00029323448521
  0
ARC
  5
324
330
1F
100
AcDbEntity
  8
TEXT
100
AcDbCircle
 10
63.5483589150747
 20
7.864658785995152
 30
0.0
 40
0.0535387430353659
100
AcDbArc
 50
358.1908821763629
 51
69.74957583402932
  0
ARC
  5
325
330
1F
100
AcDbEntity
  8
TEXT
100
AcDbCircle
 10
63.53302285056114
 20
7.850191859674459
 30
0.0
 40
0.066653237840224
100
AcDbArc
 50
103.9179608005984
 51
168.9486088950472
  0
LINE
  5
326
330
1F
100
AcDbEntity
  8
TEXT
100
AcDbLine
 10
63.46760565411685
 20
7.862968577718027
 30
0.0
 11
63.60187097167685
 21
7.862968577718027
 31
0.0
  0
ARC
  5
327
330
1F
100
AcDbEntity
  8
TEXT
100
AcDbCircle
 10
63.55032211217602
 20
7.765800494151598
 30
0.0
 40
0.1759664343777212
100
AcDbArc
 50
78.15621523985548
 51
106.6122408520358
  0
ARC
  5
328
330
1F
100
AcDbEntity
  8
TEXT
100
AcDbCircle
 10
63.5793454114844
 20
7.845188836213572
 30
0.0
 40
0.0931024774600015
100
AcDbArc
 50
357.337623744369
 51
85.63084243886233
  0
LINE
  5
329
330
1F
100
AcDbEntity
  8
TEXT
100
AcDbLine
 10
63.46760565411685
 20
7.840864178526921
 30
0.0
 11
63.67234739342601
 21
7.840864178526921
 31
0.0
  0
ARC
  5
32A
330
1F
100
AcDbEntity
  8
TEXT
100
AcDbCircle
 10
61.97615882677203
 20
8.286927901476808
 30
0.0
 40
0.0326220874061268
100
AcDbArc
 50
109.4580308571273
 51
191.0341765876994
  0
ARC
  5
32B
330
1F
100
AcDbEntity
  8
TEXT
100
AcDbCircle
 10
61.93446269268522
 20
8.27886182750273
 30
0.0
 40
0.0098472248728866
100
AcDbArc
 50
155.9249042338167
 51
10.66497725508789
  0
ARC
  5
32C
330
1F
100
AcDbEntity
  8
TEXT
100
AcDbCircle
 10
61.90709766628632
 20
8.271179508967113
 30
0.0
 40
0.0217828561562576
100
AcDbArc
 50
32.48569494743556
 51
175.1979664789357
  0
ARC
  5
32D
330
1F
100
AcDbEntity
  8
TEXT
100
AcDbCircle
 10
61.87809748329871
 20
8.269529193968303
 30
0.0
 40
0.0080787876372507
100
AcDbArc
 50
158.7719549350966
 51
25.46716058583897
  0
ARC
  5
32E
330
1F
100
AcDbEntity
  8
TEXT
100
AcDbCircle
 10
61.85919646952701
 20
8.274846207448026
 30
0.0
 40
0.0116192452302551
100
AcDbArc
 50
348.1206509806765
 51
136.2651890953773
  0
ARC
  5
32F
330
1F
100
AcDbEntity
  8
TEXT
100
AcDbCircle
 10
61.8578014617656
 20
8.268723951202055
 30
0.0
 40
0.0157913639103993
100
AcDbArc
 50
116.3151684036785
 51
258.4674100382152
  0
ARC
  5
330
330
1F
100
AcDbEntity
  8
TEXT
100
AcDbCircle
 10
61.8631944989925
 20
8.245142524589915
 30
0.0
 40
0.0117838251454794
100
AcDbArc
 50
356.7423630506752
 51
136.5172760690071
  0
ARC
  5
331
330
1F
100
AcDbEntity
  8
TEXT
100
AcDbCircle
 10
61.87915006875325
 20
8.238310225997134
 30
0.0
 40
0.0074525982549692
100
AcDbArc
 50
124.2167745950175
 51
319.7988197133695
  0
ARC
  5
332
330
1F
100
AcDbEntity
  8
TEXT
100
AcDbCircle
 10
61.90899579145482
 20
8.224833839594502
 30
0.0
 40
0.0256611124275406
100
AcDbArc
 50
160.2627782819661
 51
255.1333022011724
  0
ARC
  5
333
330
1F
100
AcDbEntity
  8
TEXT
100
AcDbCircle
 10
61.90882025137742
 20
8.202558041459901
 30
0.0
 40
0.0068883484696222
100
AcDbArc
 50
201.5154657473999
 51
41.96660508022691
  0
ARC
  5
334
330
1F
100
AcDbEntity
  8
TEXT
100
AcDbCircle
 10
61.93281410657712
 20
8.219642779664859
 30
0.0
 40
0.0226245588459445
100
AcDbArc
 50
121.2424246402128
 51
213.4732397083751
  0
ARC
  5
335
330
1F
100
AcDbEntity
  8
TEXT
100
AcDbCircle
 10
61.92736766478676
 20
8.22790295090288
 30
0.0
 40
0.0127428632908327
100
AcDbArc
 50
332.2921775479048
 51
119.56785717599
  0
ARC
  5
336
330
1F
100
AcDbEntity
  8
TEXT
100
AcDbCircle
 10
61.92975589098594
 20
8.201035379064897
 30
0.0
 40
0.0227527111230828
100
AcDbArc
 50
312.9867785858863
 51
66.99118422926642
  0
ARC
  5
337
330
1F
100
AcDbEntity
  8
TEXT
100
AcDbCircle
 10
62.02774042819423
 20
8.02475867038833
 30
0.0
 40
0.179677831520529
100
AcDbArc
 50
117.322218089242
 51
179.3383492613259
  0
ARC
  5
338
330
1F
100
AcDbEntity
  8
TEXT
100
AcDbCircle
 10
62.60759195901234
 20
7.965886079498893
 30
0.0
 40
0.7619588220489245
100
AcDbArc
 50
175.4121316267021
 51
191.7939289657065
  0
ARC
  5
339
330
1F
100
AcDbEntity
  8
TEXT
100
AcDbCircle
 10
61.86023012154081
 20
7.77536579077762
 30
0.0
 40
0.034813593449889
100
AcDbArc
 50
15.17145974978904
 51
87.54918714297627
  0
ARC
  5
33A
330
1F
100
AcDbEntity
  8
TEXT
100
AcDbCircle
 10
65.00326540151039
 20
7.678415795990837
 30
0.0
 40
3.111243359055491
100
AcDbArc
 50
178.0464319449979
 51
181.7502526685598
  0
LINE
  5
33B
330
1F
100
AcDbEntity
  8
TEXT
100
AcDbLine
 10
61.92680138253811
 20
7.737372138332822
 30
0.0
 11
61.92555354363392
 21
7.587116271400168
 31
0.0
  0
ARC
  5
33C
330
1F
100
AcDbEntity
  8
TEXT
100
AcDbCircle
 10
61.93200974420189
 20
7.738486075699319
 30
0.0
 40
0.0053261513006815
100
AcDbArc
 50
333.687900136725
 51
192.072245755337
  0
LINE
  5
33D
330
1F
100
AcDbEntity
  8
TEXT
100
AcDbLine
 10
61.93678406810093
 20
7.736125203193913
 30
0.0
 11
61.93678406810093
 21
7.7136803402445
 31
0.0
  0
ARC
  5
33E
330
1F
100
AcDbEntity
  8
TEXT
100
AcDbCircle
 10
61.94383986558663
 20
7.715307573123942
 30
0.0
 40
0.0072410058006127
100
AcDbArc
 50
192.9866902548905
 51
33.38063139741194
  0
ARC
  5
33F
330
1F
100
AcDbEntity
  8
TEXT
100
AcDbCircle
 10
61.96272323490987
 20
7.710894898046467
 30
0.0
 40
0.0153391519577597
100
AcDbArc
 50
17.66955929970744
 51
146.8111142491887
  0
ARC
  5
340
330
1F
100
AcDbEntity
  8
TEXT
100
AcDbCircle
 10
62.0107794834844
 20
7.734378435768142
 30
0.0
 40
0.0383766338216476
100
AcDbArc
 50
209.3802246625985
 51
263.8421008682747
  0
LINE
  5
341
330
1F
100
AcDbEntity
  8
TEXT
100
AcDbLine
 10
62.00666286703953
 20
7.696223233075321
 30
0.0
 11
62.01040635808093
 21
7.643851881118457
 31
0.0
  0
ARC
  5
342
330
1F
100
AcDbEntity
  8
TEXT
100
AcDbCircle
 10
62.02619262845271
 20
7.641646105729456
 30
0.0
 40
0.0159396291461927
100
AcDbArc
 50
172.0457056516376
 51
14.81661014794112
  0
LINE
  5
343
330
1F
100
AcDbEntity
  8
TEXT
100
AcDbLine
 10
62.04160225367335
 20
7.64572228382682
 30
0.0
 11
62.04409793148196
 21
7.667543679206778
 31
0.0
  0
ARC
  5
344
330
1F
100
AcDbEntity
  8
TEXT
100
AcDbCircle
 10
62.04978345568477
 20
7.668207995149039
 30
0.0
 40
0.0057242031003841
100
AcDbArc
 50
318.6510821797591
 51
186.6644145786486
  0
LINE
  5
345
330
1F
100
AcDbEntity
  8
TEXT
100
AcDbLine
 10
62.05408061704456
 20
7.664426341359565
 30
0.0
 11
62.05720018863374
 21
7.635746802715664
 31
0.0
  0
ARC
  5
346
330
1F
100
AcDbEntity
  8
TEXT
100
AcDbCircle
 10
62.06788086643113
 20
7.633538242632844
 30
0.0
 40
0.0109066317370995
100
AcDbArc
 50
168.3169857564297
 51
15.04995211451716
  0
LINE
  5
347
330
1F
100
AcDbEntity
  8
TEXT
100
AcDbLine
 10
62.07841339866334
 20
7.636370270285134
 30
0.0
 11
62.07841339866334
 21
7.660062068373427
 31
0.0
  0
ARC
  5
348
330
1F
100
AcDbEntity
  8
TEXT
100
AcDbCircle
 10
62.09262377773384
 20
7.647731282026278
 30
0.0
 40
0.0188144403389452
100
AcDbArc
 50
65.19241843010743
 51
139.0508106988786
  0
ARC
  5
349
330
1F
100
AcDbEntity
  8
TEXT
100
AcDbCircle
 10
62.10474676119408
 20
7.646552031551401
 30
0.0
 40
0.0187409074770342
100
AcDbArc
 50
7.606980527162062
 51
103.0413594591621
  0
LINE
  5
34A
330
1F
100
AcDbEntity
  8
TEXT
100
AcDbLine
 10
62.12332273780956
 20
7.649032899513205
 30
0.0
 11
62.1312167410786
 21
7.540349200319987
 31
0.0
  0
LINE
  5
34B
330
1F
100
AcDbEntity
  8
TEXT
100
AcDbLine
 10
62.16542415703525
 20
7.54385511873361
 30
0.0
 11
62.16805550857249
 21
7.629750302564126
 31
0.0
  0
ARC
  5
34C
330
1F
100
AcDbEntity
  8
TEXT
100
AcDbCircle
 10
62.177552048114
 20
7.632338207707581
 30
0.0
 40
0.0098428408651125
100
AcDbArc
 50
5.351678383090963
 51
195.2435488026409
  0
LINE
  5
34D
330
1F
100
AcDbEntity
  8
TEXT
100
AcDbLine
 10
62.21366539651446
 20
7.616603085675912
 30
0.0
 11
62.21541963087262
 21
7.562261228466987
 31
0.0
  0
ARC
  5
34E
330
1F
100
AcDbEntity
  8
TEXT
100
AcDbCircle
 10
62.26329269934936
 20
7.604332340778802
 30
0.0
 40
0.0091812242135779
100
AcDbArc
 50
354.5219056877808
 51
214.9448543763831
  0
ARC
  5
34F
330
1F
100
AcDbEntity
  8
TEXT
100
AcDbCircle
 10
62.28869825356811
 20
7.602827491000644
 30
0.0
 40
0.0162783950053258
100
AcDbArc
 50
177.7877751662289
 51
326.3805826419358
  0
ARC
  5
350
330
1F
100
AcDbEntity
  8
TEXT
100
AcDbCircle
 10
62.45689079173443
 20
7.622246665195169
 30
0.0
 40
0.0089033441219437
100
AcDbArc
 50
144.5711585108378
 51
21.75301147887064
  0
LINE
  5
351
330
1F
100
AcDbEntity
  8
TEXT
100
AcDbLine
 10
62.46516012938926
 20
7.625546300221052
 30
0.0
 11
62.46578109662213
 21
7.672705651474963
 31
0.0
  0
ARC
  5
352
330
1F
100
AcDbEntity
  8
TEXT
100
AcDbCircle
 10
62.45691107071721
 20
7.667327211614838
 30
0.0
 40
0.0103732817797432
100
AcDbArc
 50
31.23099864076822
 51
160.1819529381845
  0
ARC
  5
353
330
1F
100
AcDbEntity
  8
TEXT
100
AcDbCircle
 10
62.49104728856334
 20
7.651565074004088
 30
0.0
 40
0.0479422967473917
100
AcDbArc
 50
156.2885975497962
 51
210.2571046136432
  0
ARC
  5
354
330
1F
100
AcDbEntity
  8
TEXT
100
AcDbCircle
 10
62.6266876075147
 20
7.575762843186105
 30
0.0
 40
0.0296002671039394
100
AcDbArc
 50
341.5477100758345
 51
84.99888070834158
  0
ARC
  5
355
330
1F
100
AcDbEntity
  8
TEXT
100
AcDbCircle
 10
62.63957490124338
 20
7.541412168943757
 30
0.0
 40
0.06466493958184
100
AcDbArc
 50
99.17143729878524
 51
127.7955283290939
  0
ARC
  5
356
330
1F
100
AcDbEntity
  8
TEXT
100
AcDbCircle
 10
62.5141177664507
 20
7.599045079732468
 30
0.0
 40
0.0071695193474101
100
AcDbArc
 50
312.7998628402735
 51
120.0581864533374
  0
ARC
  5
357
330
1F
100
AcDbEntity
  8
TEXT
100
AcDbCircle
 10
62.5147803221237
 20
7.621000869741172
 30
0.0
 40
0.0163147136278491
100
AcDbArc
 50
129.1527393458019
 51
254.8870408388505
  0
ARC
  5
358
330
1F
100
AcDbEntity
  8
TEXT
100
AcDbCircle
 10
62.45250731662262
 20
7.673257758369281
 30
0.0
 40
0.0653428037861352
100
AcDbArc
 50
322.6907301981535
 51
8.220255073942626
  0
ARC
  5
359
330
1F
100
AcDbEntity
  8
TEXT
100
AcDbCircle
 10
62.52309128446475
 20
7.688292875434888
 30
0.0
 40
0.0082074434469485
100
AcDbArc
 50
89.05883162362073
 51
223.9137905963005
  0
ARC
  5
35A
330
1F
100
AcDbEntity
  8
TEXT
100
AcDbCircle
 10
62.35916267805012
 20
7.881241725459367
 30
0.0
 40
0.2470761059830726
100
AcDbArc
 50
311.6071689301101
 51
318.3515702307968
  0
ARC
  5
35B
330
1F
100
AcDbEntity
  8
TEXT
100
AcDbCircle
 10
62.52214120033367
 20
7.692873436568183
 30
0.0
 40
0.0627704744789619
100
AcDbArc
 50
337.3510782224621
 51
22.64892177753791
  0
ARC
  5
35C
330
1F
100
AcDbEntity
  8
TEXT
100
AcDbCircle
 10
62.62463399113497
 20
7.660416934326882
 30
0.0
 40
0.045326613590146
100
AcDbArc
 50
169.4684867573186
 51
223.1418439421426
  0
ARC
  5
35D
330
1F
100
AcDbEntity
  8
TEXT
100
AcDbCircle
 10
62.58556539781604
 20
7.655450931746478
 30
0.0
 40
0.0267102165282497
100
AcDbArc
 50
282.9712622283036
 51
25.35441378639507
  0
ARC
  5
35E
330
1F
100
AcDbEntity
  8
TEXT
100
AcDbCircle
 10
62.88966132676435
 20
7.719226373866283
 30
0.0
 40
0.2848087394943485
100
AcDbArc
 50
179.4662202071271
 51
190.5890997840371
  0
ARC
  5
35F
330
1F
100
AcDbEntity
  8
TEXT
100
AcDbCircle
 10
62.39605002123634
 20
7.970219873798874
 30
0.0
 40
0.2876081473724921
100
AcDbArc
 50
317.9732863042378
 51
40.61894937560242
  0
ARC
  5
360
330
1F
100
AcDbEntity
  8
TEXT
100
AcDbCircle
 10
62.58689188718361
 20
8.123525667767857
 30
0.0
 40
0.0436586685353445
100
AcDbArc
 50
51.01090143870927
 51
107.577946053111
  0
ARC
  5
361
330
1F
100
AcDbEntity
  8
TEXT
100
AcDbCircle
 10
62.51198242839521
 20
8.168619260847767
 30
0.0
 40
0.0618220671781216
100
AcDbArc
 50
356.7791343814141
 51
50.82801334298964
  0
ARC
  5
362
330
1F
100
AcDbEntity
  8
TEXT
100
AcDbCircle
 10
62.52750840742899
 20
8.099388266637667
 30
0.0
 40
0.1194970791252326
100
AcDbArc
 50
78.6467194011529
 51
92.8865786316482
  0
ARC
  5
363
330
1F
100
AcDbEntity
  8
TEXT
100
AcDbCircle
 10
62.51402496888298
 20
8.233526454802323
 30
0.0
 40
0.0165698915731058
100
AcDbArc
 50
296.7794474250819
 51
150.4674482996606
  0
ARC
  5
364
330
1F
100
AcDbEntity
  8
TEXT
100
AcDbCircle
 10
62.48746786868653
 20
8.257197168955507
 30
0.0
 40
0.0196907891008428
100
AcDbArc
 50
174.1982733486932
 51
308.0634596483613
  0
ARC
  5
365
330
1F
100
AcDbEntity
  8
TEXT
100
AcDbCircle
 10
62.43131342777999
 20
8.227095397505442
 30
0.0
 40
0.0486505457686418
100
AcDbArc
 50
41.27304036069129
 51
94.61991284103847
  0
ARC
  5
366
330
1F
100
AcDbEntity
  8
TEXT
100
AcDbCircle
 10
62.41183400661751
 20
8.271011680899228
 30
0.0
 40
0.0162197868826806
100
AcDbArc
 50
136.6395135700792
 51
16.38775991618405
  0
ARC
  5
367
330
1F
100
AcDbEntity
  8
TEXT
100
AcDbCircle
 10
62.38682086795623
 20
8.267660933461051
 30
0.0
 40
0.0196126874358512
100
AcDbArc
 50
47.61705801860755
 51
152.6179806585991
  0
ARC
  5
368
330
1F
100
AcDbEntity
  8
TEXT
100
AcDbCircle
 10
62.34649793607562
 20
8.266116897315392
 30
0.0
 40
0.0252262882749687
100
AcDbArc
 50
24.75773987532819
 51
121.5483884163393
  0
ARC
  5
369
330
1F
100
AcDbEntity
  8
TEXT
100
AcDbCircle
 10
62.31415167523895
 20
8.280305743776985
 30
0.0
 40
0.0204949719337044
100
AcDbArc
 50
20.89289471578039
 51
159.1071052842196
  0
ARC
  5
36A
330
1F
100
AcDbEntity
  8
TEXT
100
AcDbCircle
 10
62.28479421925002
 20
8.290459661959621
 30
0.0
 40
0.010599009609105
100
AcDbArc
 50
183.5606974541693
 51
344.4298925613464
  0
ARC
  5
36B
330
1F
100
AcDbEntity
  8
TEXT
100
AcDbCircle
 10
62.25227488654629
 20
8.266732167713035
 30
0.0
 40
0.0318368892121782
100
AcDbArc
 50
46.43616582623992
 51
130.6283095026665
  0
ARC
  5
36C
330
1F
100
AcDbEntity
  8
TEXT
100
AcDbCircle
 10
62.22005588585513
 20
8.287464597785692
 30
0.0
 40
0.0119895843575363
100
AcDbArc
 50
163.3756550464649
 51
16.62434495353001
  0
ARC
  5
36D
330
1F
100
AcDbEntity
  8
TEXT
100
AcDbCircle
 10
62.17474212598133
 20
8.197683714814379
 30
0.0
 40
0.0991587237297954
100
AcDbArc
 50
70.05468846035585
 51
100.2232656721042
  0
ARC
  5
36E
330
1F
100
AcDbEntity
  8
TEXT
100
AcDbCircle
 10
62.14893697512504
 20
8.242351503639206
 30
0.0
 40
0.0535491463461023
100
AcDbArc
 50
81.18509483549694
 51
120.0392913824104
  0
ARC
  5
36F
330
1F
100
AcDbEntity
  8
TEXT
100
AcDbCircle
 10
62.10910494649537
 20
8.300320678978613
 30
0.0
 40
0.0174505270015937
100
AcDbArc
 50
318.2823815987277
 51
84.36248438139953
  0
ARC
  5
370
330
1F
100
AcDbEntity
  8
TEXT
100
AcDbCircle
 10
62.03059147482807
 20
8.222738368825652
 30
0.0
 40
0.025095904415113
100
AcDbArc
 50
35.60679995345996
 51
177.5845513854532
  0
LINE
  5
371
330
1F
100
AcDbEntity
  8
TEXT
100
AcDbLine
 10
62.05099523985589
 20
8.237349692896451
 30
0.0
 11
62.04939955250782
 21
8.214228745740136
 31
0.0
  0
LINE
  5
372
330
1F
100
AcDbEntity
  8
TEXT
100
AcDbLine
 10
62.0055178680516
 20
8.223796036843559
 30
0.0
 11
62.00472002437757
 21
8.164000486478036
 31
0.0
  0
ARC
  5
373
330
1F
100
AcDbEntity
  8
TEXT
100
AcDbCircle
 10
62.10598480750766
 20
8.118908467990642
 30
0.0
 40
0.1108505590135849
100
AcDbArc
 50
120.6947626763568
 51
155.9971516553458
  0
ARC
  5
374
330
1F
100
AcDbEntity
  8
TEXT
100
AcDbCircle
 10
62.065200355288
 20
8.149646002095629
 30
0.0
 40
0.020624379234747
100
AcDbArc
 50
218.6904014524234
 51
353.6659411500744
  0
ARC
  5
375
330
1F
100
AcDbEntity
  8
TEXT
100
AcDbCircle
 10
62.05380591882434
 20
8.117461811836072
 30
0.0
 40
0.0198567767603146
100
AcDbArc
 50
103.7022990326946
 51
207.0193065629239
  0
ARC
  5
376
330
1F
100
AcDbEntity
  8
TEXT
100
AcDbCircle
 10
62.34846597669346
 20
7.952964255887033
 30
0.0
 40
0.3489058191057564
100
AcDbArc
 50
153.5374647244097
 51
193.3327646348711
  0
ARC
  5
377
330
1F
100
AcDbEntity
  8
TEXT
100
AcDbCircle
 10
61.94166123252742
 20
7.827086595794503
 30
0.0
 40
0.0811939753143691
100
AcDbArc
 50
346.9852122362349
 51
34.01252680042676
  0
ARC
  5
378
330
1F
100
AcDbEntity
  8
TEXT
100
AcDbCircle
 10
62.00956046900196
 20
7.773333467175397
 30
0.0
 40
0.0371970984892134
100
AcDbArc
 50
345.4259909574677
 51
72.46181126870012
  0
ARC
  5
379
330
1F
100
AcDbEntity
  8
TEXT
100
AcDbCircle
 10
62.04826412779792
 20
7.693531950438702
 30
0.0
 40
0.0704934554133018
100
AcDbArc
 50
18.24878221232128
 51
92.19784172829085
  0
ARC
  5
37A
330
1F
100
AcDbEntity
  8
TEXT
100
AcDbCircle
 10
62.12372007005209
 20
7.711829112645793
 30
0.0
 40
0.0093087709923834
100
AcDbArc
 50
156.0593073728629
 51
8.762281217120262
  0
ARC
  5
37B
330
1F
100
AcDbEntity
  8
TEXT
100
AcDbCircle
 10
62.14380331268081
 20
7.709373828916972
 30
0.0
 40
0.0115518372967831
100
AcDbArc
 50
1.65827202806844
 51
160.4091839300749
  0
ARC
  5
37C
330
1F
100
AcDbEntity
  8
TEXT
100
AcDbCircle
 10
62.18725426232779
 20
7.731876533081694
 30
0.0
 40
0.0388497184269947
100
AcDbArc
 50
214.7934494581952
 51
299.0409507876109
  0
ARC
  5
37D
330
1F
100
AcDbEntity
  8
TEXT
100
AcDbCircle
 10
62.23094087753636
 20
7.721088173840392
 30
0.0
 40
0.0339643822818188
100
AcDbArc
 50
223.0305625061273
 51
311.2487591160724
  0
ARC
  5
37E
330
1F
100
AcDbEntity
  8
TEXT
100
AcDbCircle
 10
62.27259580093654
 20
7.700660591372402
 30
0.0
 40
0.0199271806404938
100
AcDbArc
 50
194.8546182240432
 51
330.4510994340803
  0
ARC
  5
37F
330
1F
100
AcDbEntity
  8
TEXT
100
AcDbCircle
 10
62.30409755880581
 20
7.643244826041857
 30
0.0
 40
0.0496521737614448
100
AcDbArc
 50
33.67851647490052
 51
106.5775508010124
  0
ARC
  5
380
330
1F
100
AcDbEntity
  8
TEXT
100
AcDbCircle
 10
62.35958262018633
 20
7.699905177484815
 30
0.0
 40
0.0323889862234048
100
AcDbArc
 50
244.0629515517945
 51
24.32612031264045
  0
ARC
  5
381
330
1F
100
AcDbEntity
  8
TEXT
100
AcDbCircle
 10
62.43464954043295
 20
7.880152578876212
 30
0.0
 40
0.0843121861480206
100
AcDbArc
 50
300.6537348898141
 51
16.68245916376003
  0
ARC
  5
382
330
1F
100
AcDbEntity
  8
TEXT
100
AcDbCircle
 10
62.27132624687627
 20
7.970254643586521
 30
0.0
 40
0.2528260760774508
100
AcDbArc
 50
344.8914411173241
 51
24.57723374822152
  0
ARC
  5
383
330
1F
100
AcDbEntity
  8
TEXT
100
AcDbCircle
 10
62.55156940837356
 20
8.100836107336526
 30
0.0
 40
0.0563814754237062
100
AcDbArc
 50
155.9906329013512
 51
206.8057304576939
  0
ARC
  5
384
330
1F
100
AcDbEntity
  8
TEXT
100
AcDbCircle
 10
62.49170061237445
 20
8.123310154440595
 30
0.0
 40
0.0083785179794686
100
AcDbArc
 50
3.19372534848462
 51
193.0548754998608
  0
ARC
  5
385
330
1F
100
AcDbEntity
  8
TEXT
100
AcDbCircle
 10
62.47232357391205
 20
8.108750776562722
 30
0.0
 40
0.0169182064068399
100
AcDbArc
 50
131.5213803610226
 51
48.47861963898631
  0
ARC
  5
386
330
1F
100
AcDbEntity
  8
TEXT
100
AcDbCircle
 10
62.41625395938527
 20
8.145384010178139
 30
0.0
 40
0.0508558740164717
100
AcDbArc
 50
331.8837666959812
 51
33.32508059324369
  0
ARC
  5
387
330
1F
100
AcDbEntity
  8
TEXT
100
AcDbCircle
 10
62.44743274630335
 20
8.170193308347343
 30
0.0
 40
0.0117397396445049
100
AcDbArc
 50
15.46471151433603
 51
237.003605808355
  0
ARC
  5
388
330
1F
100
AcDbEntity
  8
TEXT
100
AcDbCircle
 10
62.4250674716807
 20
8.152929247694039
 30
0.0
 40
0.0176104784795681
100
AcDbArc
 50
124.5991194751616
 51
24.91162951380548
  0
ARC
  5
389
330
1F
100
AcDbEntity
  8
TEXT
100
AcDbCircle
 10
62.37470161393209
 20
8.185835811326178
 30
0.0
 40
0.0443663169497271
100
AcDbArc
 50
335.4827230531642
 51
36.54383594003129
  0
ARC
  5
38A
330
1F
100
AcDbEntity
  8
TEXT
100
AcDbCircle
 10
62.31844983849057
 20
8.047666407478352
 30
0.0
 40
0.1885036741012086
100
AcDbArc
 50
60.82353397560639
 51
101.6183182656855
  0
LINE
  5
38B
330
1F
100
AcDbEntity
  8
TEXT
100
AcDbLine
 10
62.28048687718323
 20
8.23230781323128
 30
0.0
 11
62.27930634887824
 21
8.187479838802778
 31
0.0
  0
ARC
  5
38C
330
1F
100
AcDbEntity
  8
TEXT
100
AcDbCircle
 10
62.2619176512301
 20
8.186628209534994
 30
0.0
 40
0.0174095398647999
100
AcDbArc
 50
165.3922446503685
 51
2.803879044206525
  0
LINE
  5
38D
330
1F
100
AcDbEntity
  8
TEXT
100
AcDbLine
 10
62.245070874003
 20
8.191018901435093
 30
0.0
 11
62.24270981739303
 21
8.225229703191452
 31
0.0
  0
ARC
  5
38E
330
1F
100
AcDbEntity
  8
TEXT
100
AcDbCircle
 10
62.22742625367075
 20
8.217573124353712
 30
0.0
 40
0.0170941662430643
100
AcDbArc
 50
26.60941129939627
 51
166.061900005812
  0
LINE
  5
38F
330
1F
100
AcDbEntity
  8
TEXT
100
AcDbLine
 10
62.21083539912788
 20
8.221690655783866
 30
0.0
 11
62.21083539912788
 21
8.206354778609487
 31
0.0
  0
ARC
  5
390
330
1F
100
AcDbEntity
  8
TEXT
100
AcDbCircle
 10
62.19730295416914
 20
8.197850511073177
 30
0.0
 40
0.0159827917739593
100
AcDbArc
 50
179.1163546128549
 51
32.14670843865729
  0
LINE
  5
391
330
1F
100
AcDbEntity
  8
TEXT
100
AcDbLine
 10
62.18132206314434
 20
8.198096996250221
 30
0.0
 11
62.18132206314434
 21
8.141472192054896
 31
0.0
  0
ARC
  5
392
330
1F
100
AcDbEntity
  8
TEXT
100
AcDbCircle
 10
62.16006366087279
 20
8.14119949268349
 30
0.0
 40
0.0212601512713907
100
AcDbArc
 50
182.4450201076248
 51
0.7349407504797699
  0
LINE
  5
393
330
1F
100
AcDbEntity
  8
TEXT
100
AcDbLine
 10
62.13882286446235
 20
8.140292519735517
 30
0.0
 11
62.14826711657408
 21
8.211073513561125
 31
0.0
  0
ARC
  5
394
330
1F
100
AcDbEntity
  8
TEXT
100
AcDbCircle
 10
62.13725975449531
 20
8.209502495624626
 30
0.0
 40
0.0111189080978901
100
AcDbArc
 50
8.122642540875407
 51
202.9043136183474
  0
LINE
  5
395
330
1F
100
AcDbEntity
  8
TEXT
100
AcDbLine
 10
62.12701750439739
 20
8.205175091065378
 30
0.0
 11
62.12229539117722
 21
8.168604914220829
 31
0.0
  0
ARC
  5
396
330
1F
100
AcDbEntity
  8
TEXT
100
AcDbCircle
 10
62.1087192514906
 20
8.169322263155002
 30
0.0
 40
0.0135950784582775
100
AcDbArc
 50
183.0246359049376
 51
356.9753640950623
  0
LINE
  5
397
330
1F
100
AcDbEntity
  8
TEXT
100
AcDbLine
 10
62.09514311180375
 20
8.168604914220829
 30
0.0
 11
62.08569883402017
 21
8.147370614550672
 31
0.0
  0
LINE
  5
398
330
1F
100
AcDbEntity
  8
TEXT
100
AcDbLine
 10
62.72402275438871
 20
7.926913587310076
 30
0.0
 11
62.82370343665482
 21
7.930804554154753
 31
0.0
  0
LINE
  5
399
330
1F
100
AcDbEntity
  8
TEXT
100
AcDbLine
 10
62.89924269245332
 20
7.926913587310076
 30
0.0
 11
62.99892337471922
 21
7.930804554154753
 31
0.0
  0
LINE
  5
39A
330
1F
100
AcDbEntity
  8
TEXT
100
AcDbLine
 10
62.76451801230567
 20
7.895785806878727
 30
0.0
 11
62.76607552617511
 21
7.744816083205214
 31
0.0
  0
LINE
  5
39B
330
1F
100
AcDbEntity
  8
TEXT
100
AcDbLine
 10
62.82370343665482
 20
7.930804554154753
 30
0.0
 11
62.82526095052427
 21
7.759601769394627
 31
0.0
  0
LINE
  5
39C
330
1F
100
AcDbEntity
  8
TEXT
100
AcDbLine
 10
62.99892337471922
 20
7.930804554154753
 30
0.0
 11
63.00048088858868
 21
7.754154409722254
 31
0.0
  0
ARC
  5
39D
330
1F
100
AcDbEntity
  8
TEXT
100
AcDbCircle
 10
62.74630149842439
 20
7.896204744942387
 30
0.0
 40
0.0182213305521715
100
AcDbArc
 50
358.6825606331185
 51
106.404935772954
  0
LINE
  5
39E
330
1F
100
AcDbEntity
  8
TEXT
100
AcDbLine
 10
62.72402275438871
 20
7.926913587310076
 30
0.0
 11
62.72480149848756
 21
7.916018852740569
 31
0.0
  0
LINE
  5
39F
330
1F
100
AcDbEntity
  8
TEXT
100
AcDbLine
 10
62.74115535560852
 20
7.913684278723643
 30
0.0
 11
62.72480149848756
 21
7.916018852740569
 31
0.0
  0
LINE
  5
3A0
330
1F
100
AcDbEntity
  8
TEXT
100
AcDbLine
 10
62.89924269245332
 20
7.926913587310076
 30
0.0
 11
62.89846394835447
 21
7.91212788589592
 31
0.0
  0
LINE
  5
3A1
330
1F
100
AcDbEntity
  8
TEXT
100
AcDbLine
 10
62.89846394835447
 20
7.91212788589592
 30
0.0
 11
62.9264991466596
 21
7.910571493068168
 31
0.0
  0
LINE
  5
3A2
330
1F
100
AcDbEntity
  8
TEXT
100
AcDbLine
 10
62.94363174787921
 20
7.746372476032951
 30
0.0
 11
62.94285300378059
 21
7.895007610464851
 31
0.0
  0
ARC
  5
3A3
330
1F
100
AcDbEntity
  8
TEXT
100
AcDbCircle
 10
62.93172364138811
 20
7.899687261529741
 30
0.0
 40
0.0120731868763059
100
AcDbArc
 50
337.1943218370272
 51
115.6412778855146
  0
ARC
  5
3A4
330
1F
100
AcDbEntity
  8
TEXT
100
AcDbCircle
 10
62.82600670195861
 20
7.745609729451452
 30
0.0
 40
0.0599364305340945
100
AcDbArc
 50
180.7587023263156
 51
270.031539090741
  0
ARC
  5
3A5
330
1F
100
AcDbEntity
  8
TEXT
100
AcDbCircle
 10
62.84969267149463
 20
7.821192139426877
 30
0.0
 40
0.1375674997473768
100
AcDbArc
 50
260.0995263030863
 51
313.0673878832466
  0
LINE
  5
3A6
330
1F
100
AcDbEntity
  8
TEXT
100
AcDbLine
 10
62.94363174787921
 20
7.720692055273964
 30
0.0
 11
62.94441051764979
 21
7.691120667670366
 31
0.0
  0
ARC
  5
3A7
330
1F
100
AcDbEntity
  8
TEXT
100
AcDbCircle
 10
62.95361919014365
 20
7.694785355752522
 30
0.0
 40
0.0099110840899745
100
AcDbArc
 50
201.7006027724373
 51
343.0678677067618
  0
ARC
  5
3A8
330
1F
100
AcDbEntity
  8
TEXT
100
AcDbCircle
 10
63.03951208489323
 20
7.51331818771407
 30
0.0
 40
0.1942415197458125
100
AcDbArc
 50
88.18956599987521
 51
113.1652090520224
  0
LINE
  5
3A9
330
1F
100
AcDbEntity
  8
TEXT
100
AcDbLine
 10
63.09531353906507
 20
8.016971194769261
 30
0.0
 11
63.10109719331811
 21
7.717263645917391
 31
0.0
  0
LINE
  5
3AA
330
1F
100
AcDbEntity
  8
TEXT
100
AcDbLine
 10
63.15809819232256
 20
8.057436672170972
 30
0.0
 11
63.15975994650015
 21
7.907986639854803
 31
0.0
  0
ARC
  5
3AB
330
1F
100
AcDbEntity
  8
TEXT
100
AcDbCircle
 10
63.03586317658781
 20
8.410913077337802
 30
0.0
 40
0.3740146629229284
100
AcDbArc
 50
273.5403564160214
 51
289.075801678542
  0
LINE
  5
3AC
330
1F
100
AcDbEntity
  8
TEXT
100
AcDbLine
 10
63.05895916657394
 20
8.037612202267972
 30
0.0
 11
63.06061163921757
 21
8.019448119932027
 31
0.0
  0
LINE
  5
3AD
330
1F
100
AcDbEntity
  8
TEXT
100
AcDbLine
 10
63.06061163921757
 20
8.019448119932027
 30
0.0
 11
63.09531353906507
 21
8.016971194769261
 31
0.0
  0
LINE
  5
3AE
330
1F
100
AcDbEntity
  8
TEXT
100
AcDbLine
 10
63.16058615715067
 20
7.877437931705037
 30
0.0
 11
63.1614123934726
 21
7.735427743478091
 31
0.0
  0
ARC
  5
3AF
330
1F
100
AcDbEntity
  8
TEXT
100
AcDbCircle
 10
63.25703448857782
 20
7.779424769746063
 30
0.0
 40
0.1612156660571837
100
AcDbArc
 50
71.07988584761956
 51
127.1124618564865
  0
ARC
  5
3B0
330
1F
100
AcDbEntity
  8
TEXT
100
AcDbCircle
 10
63.25715305696874
 20
7.832283173318494
 30
0.0
 40
0.1124710257305615
100
AcDbArc
 50
359.8698564192901
 51
62.37231490188332
  0
ARC
  5
3B1
330
1F
100
AcDbEntity
  8
TEXT
100
AcDbCircle
 10
63.21160642290763
 20
7.844009229049383
 30
0.0
 40
0.0609962759449252
100
AcDbArc
 50
78.87075864991586
 51
146.7670066549792
  0
ARC
  5
3B2
330
1F
100
AcDbEntity
  8
TEXT
100
AcDbCircle
 10
63.23004429236041
 20
7.833147269486423
 30
0.0
 40
0.0710244975166505
100
AcDbArc
 50
21.58325850317222
 51
95.38396011116695
  0
ARC
  5
3B3
330
1F
100
AcDbEntity
  8
TEXT
100
AcDbCircle
 10
63.22447670254021
 20
7.808872320697438
 30
0.0
 40
0.087570602080919
100
AcDbArc
 50
343.595252916762
 51
35.13836089167873
  0
ARC
  5
3B4
330
1F
100
AcDbEntity
  8
TEXT
100
AcDbCircle
 10
63.19619143577941
 20
7.837646062149892
 30
0.0
 40
0.1534106941749243
100
AcDbArc
 50
231.6935697703411
 51
269.6626044169122
  0
ARC
  5
3B5
330
1F
100
AcDbEntity
  8
TEXT
100
AcDbCircle
 10
63.21209547646371
 20
7.864270752778004
 30
0.0
 40
0.180815572895239
100
AcDbArc
 50
264.6664639047648
 51
308.6423664458135
  0
ARC
  5
3B6
330
1F
100
AcDbEntity
  8
TEXT
100
AcDbCircle
 10
63.23321258930813
 20
7.824247477175156
 30
0.0
 40
0.1366328960615528
100
AcDbArc
 50
312.2086974257856
 51
3.264333629957673
  0
ARC
  5
3B7
330
1F
100
AcDbEntity
  8
TEXT
100
AcDbCircle
 10
61.88420761591809
 20
8.877386373209283
 30
0.0
 40
0.0201221865019904
100
AcDbArc
 50
32.93635467158912
 51
189.5430854165182
  0
ARC
  5
3B8
330
1F
100
AcDbEntity
  8
TEXT
100
AcDbCircle
 10
61.91597668561943
 20
8.888828772987629
 30
0.0
 40
0.0148894796547294
100
AcDbArc
 50
181.9314217622489
 51
21.08009584438978
  0
ARC
  5
3B9
330
1F
100
AcDbEntity
  8
TEXT
100
AcDbCircle
 10
61.94095589228735
 20
8.891931547798742
 30
0.0
 40
0.0113126844160138
100
AcDbArc
 50
3.320051391017292
 51
168.514586219827
  0
ARC
  5
3BA
330
1F
100
AcDbEntity
  8
TEXT
100
AcDbCircle
 10
61.96500795414229
 20
8.885691411586613
 30
0.0
 40
0.0145024453597056
100
AcDbArc
 50
151.6108765070425
 51
6.217261201770677
  0
ARC
  5
3BB
330
1F
100
AcDbEntity
  8
TEXT
100
AcDbCircle
 10
61.99092341469079
 20
8.887875451765189
 30
0.0
 40
0.0115146651492079
100
AcDbArc
 50
7.567610287755374
 51
183.0538693842452
  0
ARC
  5
3BC
330
1F
100
AcDbEntity
  8
TEXT
100
AcDbCircle
 10
62.0115199740167
 20
8.894368141760132
 30
0.0
 40
0.0104439280189953
100
AcDbArc
 50
208.4553291170986
 51
16.75507449313704
  0
ARC
  5
3BD
330
1F
100
AcDbEntity
  8
TEXT
100
AcDbCircle
 10
62.02737952249595
 20
8.887027850533506
 30
0.0
 40
0.0118942338855718
100
AcDbArc
 50
340.2175703033619
 51
119.5111127021388
  0
ARC
  5
3BE
330
1F
100
AcDbEntity
  8
TEXT
100
AcDbCircle
 10
62.05569595666421
 20
8.882939110023508
 30
0.0
 40
0.0171242596506155
100
AcDbArc
 50
179.7887253899368
 51
338.3185482084503
  0
ARC
  5
3BF
330
1F
100
AcDbEntity
  8
TEXT
100
AcDbCircle
 10
62.09496848839402
 20
8.865264182026413
 30
0.0
 40
0.0259704868899873
100
AcDbArc
 50
51.76909225769989
 51
154.0890012254435
  0
ARC
  5
3C0
330
1F
100
AcDbEntity
  8
TEXT
100
AcDbCircle
 10
62.1279562924631
 20
8.88918839389243
 30
0.0
 40
0.0172795459549521
100
AcDbArc
 50
191.766783144212
 51
294.1224948725133
  0
ARC
  5
3C1
330
1F
100
AcDbEntity
  8
TEXT
100
AcDbCircle
 10
62.1481903327888
 20
8.877678526779908
 30
0.0
 40
0.0138440428734066
100
AcDbArc
 50
13.33841226381546
 51
197.9246330182941
  0
ARC
  5
3C2
330
1F
100
AcDbEntity
  8
TEXT
100
AcDbCircle
 10
62.17633449492237
 20
8.881660542783469
 30
0.0
 40
0.0146947225409444
100
AcDbArc
 50
183.0745908828772
 51
5.238726745824146
  0
ARC
  5
3C3
330
1F
100
AcDbEntity
  8
TEXT
100
AcDbCircle
 10
62.20412047130245
 20
8.884939732328453
 30
0.0
 40
0.013294571354579
100
AcDbArc
 50
305.0065695458967
 51
188.3798152009863
  0
ARC
  5
3C4
330
1F
100
AcDbEntity
  8
TEXT
100
AcDbCircle
 10
61.90798805480952
 20
7.598383730590192
 30
0.0
 40
0.0208686854937918
100
AcDbArc
 50
225.9317407160001
 51
327.3216812937227
  0
ARC
  5
3C5
330
1F
100
AcDbEntity
  8
TEXT
100
AcDbCircle
 10
62.14889454579796
 20
7.536500669788373
 30
0.0
 40
0.0180918757165399
100
AcDbArc
 50
167.7181143692784
 51
23.98551077365387
  0
ARC
  5
3C6
330
1F
100
AcDbEntity
  8
TEXT
100
AcDbCircle
 10
62.23706630674521
 20
7.558727031245986
 30
0.0
 40
0.0219332880874366
100
AcDbArc
 50
170.7272794785983
 51
21.15794103948721
  0
LINE
  5
3C7
330
1F
100
AcDbEntity
  8
TEXT
100
AcDbLine
 10
62.25752105009818
 20
7.566643634096343
 30
0.0
 11
62.25576681573992
 21
7.599073447933625
 31
0.0
  0
LINE
  5
3C8
330
1F
100
AcDbEntity
  8
TEXT
100
AcDbLine
 10
62.30225382086089
 20
7.593814570313192
 30
0.0
 11
62.31102496698056
 21
7.548237524362995
 31
0.0
  0
ARC
  5
3C9
330
1F
100
AcDbEntity
  8
TEXT
100
AcDbCircle
 10
62.32180302293093
 20
7.546079399179993
 30
0.0
 40
0.0109919968328384
100
AcDbArc
 50
168.6772178130466
 51
20.84321825743664
  0
LINE
  5
3CA
330
1F
100
AcDbEntity
  8
TEXT
100
AcDbLine
 10
62.3320756765934
 20
7.54999048356982
 30
0.0
 11
62.3320756765934
 21
7.580667338200306
 31
0.0
  0
ARC
  5
3CB
330
1F
100
AcDbEntity
  8
TEXT
100
AcDbCircle
 10
62.34610311965778
 20
7.579284644781346
 30
0.0
 40
0.0140954247902933
100
AcDbArc
 50
354.9255052590734
 51
174.3705062402905
  0
LINE
  5
3CC
330
1F
100
AcDbEntity
  8
TEXT
100
AcDbLine
 10
62.36014329796754
 20
7.578037891777703
 30
0.0
 11
62.36365174101255
 21
7.492142707947187
 31
0.0
  0
ARC
  5
3CD
330
1F
100
AcDbEntity
  8
TEXT
100
AcDbCircle
 10
62.38115780645356
 20
7.493940460442977
 30
0.0
 40
0.0175981317550675
100
AcDbArc
 50
185.8633287467241
 51
2.708827809510179
  0
LINE
  5
3CE
330
1F
100
AcDbEntity
  8
TEXT
100
AcDbLine
 10
62.39873627414809
 20
7.49477215436979
 30
0.0
 11
62.39171938805807
 21
7.565767162105294
 31
0.0
  0
LINE
  5
3CF
330
1F
100
AcDbEntity
  8
TEXT
100
AcDbLine
 10
62.39171938805807
 20
7.565767162105294
 30
0.0
 11
62.39961339132709
 21
7.547361052371948
 31
0.0
  0
ARC
  5
3D0
330
1F
100
AcDbEntity
  8
TEXT
100
AcDbCircle
 10
62.41115601493041
 20
7.553682239987941
 30
0.0
 40
0.0131601509308921
100
AcDbArc
 50
208.7068196476629
 51
351.5282258973487
  0
LINE
  5
3D1
330
1F
100
AcDbEntity
  8
TEXT
100
AcDbLine
 10
62.42417256965634
 20
7.551743458001332
 30
0.0
 11
62.42329545247709
 21
7.564890674889517
 31
0.0
  0
ARC
  5
3D2
330
1F
100
AcDbEntity
  8
TEXT
100
AcDbCircle
 10
62.44100511082254
 20
7.559867336060697
 30
0.0
 40
0.0184083114842141
100
AcDbArc
 50
7.472141028409105
 51
164.1640293291664
  0
LINE
  5
3D3
330
1F
100
AcDbEntity
  8
TEXT
100
AcDbLine
 10
62.45925710279177
 20
7.562261228466987
 30
0.0
 11
62.46802822324005
 21
7.489513276749369
 31
0.0
  0
ARC
  5
3D4
330
1F
100
AcDbEntity
  8
TEXT
100
AcDbCircle
 10
62.48514270816034
 20
7.485132278564242
 30
0.0
 40
0.017666316514279
100
AcDbArc
 50
165.6416373020929
 51
23.37981978602016
  0
LINE
  5
3D5
330
1F
100
AcDbEntity
  8
TEXT
100
AcDbLine
 10
62.50135852201746
 20
7.492142707947187
 30
0.0
 11
62.49869225727822
 21
7.557289336846473
 31
0.0
  0
ARC
  5
3D6
330
1F
100
AcDbEntity
  8
TEXT
100
AcDbCircle
 10
62.50370298924465
 20
7.562694652519701
 30
0.0
 40
0.0073705408461766
100
AcDbArc
 50
60.0223195166815
 51
227.1694577924199
  0
LINE
  5
3D7
330
1F
100
AcDbEntity
  8
TEXT
100
AcDbLine
 10
62.50738577286714
 20
7.569079163241417
 30
0.0
 11
62.53747509966482
 21
7.564482941623487
 31
0.0
  0
ARC
  5
3D8
330
1F
100
AcDbEntity
  8
TEXT
100
AcDbCircle
 10
62.53518989326042
 20
7.551336984323391
 30
0.0
 40
0.0133431016501523
100
AcDbArc
 50
327.1504341221703
 51
80.13862259361689
  0
LINE
  5
3D9
330
1F
100
AcDbEntity
  8
TEXT
100
AcDbLine
 10
62.54639940178551
 20
7.544099216693147
 30
0.0
 11
62.55086156568157
 21
7.417337835458432
 31
0.0
  0
LINE
  5
3DA
330
1F
100
AcDbEntity
  8
TEXT
100
AcDbLine
 10
62.58847117046097
 20
7.419885814396315
 30
0.0
 11
62.58910861877872
 21
7.548558156997422
 31
0.0
  0
ARC
  5
3DB
330
1F
100
AcDbEntity
  8
TEXT
100
AcDbCircle
 10
62.5991417124965
 20
7.549450305126874
 30
0.0
 40
0.0100726807669156
100
AcDbArc
 50
32.94435831946158
 51
185.0814072168599
  0
ARC
  5
3DC
330
1F
100
AcDbEntity
  8
TEXT
100
AcDbCircle
 10
62.627959795159
 20
7.573910704791281
 30
0.0
 40
0.0278402136928573
100
AcDbArc
 50
222.9877626572328
 51
344.3358851615564
  0
ARC
  5
3DD
330
1F
100
AcDbEntity
  8
TEXT
100
AcDbCircle
 10
62.58926487513147
 20
7.597943652878831
 30
0.0
 40
0.0119828830734734
100
AcDbArc
 50
193.93190346098
 51
333.0378283509302
  0
ARC
  5
3DE
330
1F
100
AcDbEntity
  8
TEXT
100
AcDbCircle
 10
62.56732942854322
 20
7.583255628338598
 30
0.0
 40
0.0156685498436857
100
AcDbArc
 50
48.87596376793592
 51
143.7953529790059
  0
ARC
  5
3DF
330
1F
100
AcDbEntity
  8
TEXT
100
AcDbCircle
 10
62.53737785509125
 20
7.608284123553383
 30
0.0
 40
0.0234176436855599
100
AcDbArc
 50
218.2556843178653
 51
317.6564247238853
  0
ARC
  5
3E0
330
1F
100
AcDbEntity
  8
TEXT
100
AcDbCircle
 10
62.5698150549421
 20
7.416417122938304
 30
0.0
 40
0.0189758390246317
100
AcDbArc
 50
177.2189023070876
 51
10.53261226458013
  0
TEXT
  5
3E1
330
1F
100
AcDbEntity
  8
TEXT
100
AcDbText
 10
52.96651922135199
 20
5.097100462667903
 30
0.0
 40
0.15380859375
  1
ICE QUBE, INC.
 72
     1
 11
53.87655340103949
 21
5.174004759542903
 31
0.0
100
AcDbText
 73
     2
  0
TEXT
  5
3E2
330
1F
100
AcDbEntity
  8
TEXT
100
AcDbText
 10
51.26180730728949
 20
5.327813353292904
 30
0.0
 40
0.15380859375
  1
OR ALTERED WITHOUT AUTHORIZATION OF
 72
     1
 11
53.87655340103949
 21
5.404717650167904
 31
0.0
100
AcDbText
 73
     2
  0
TEXT
  5
3E3
330
1F
100
AcDbEntity
  8
TEXT
100
AcDbText
 10
51.14645086197699
 20
5.558526243917902
 30
0.0
 40
0.15380859375
  1
QUBE, INC. AND IS NOT TO BE DUPLICATED
 72
     1
 11
53.87655340103949
 21
5.635430540792902
 31
0.0
100
AcDbText
 73
     2
  0
TEXT
  5
3E4
330
1F
100
AcDbEntity
  8
TEXT
100
AcDbText
 10
51.28744207291449
 20
5.789239134542902
 30
0.0
 40
0.15380859375
  1
THIS DRAWING IS THE PROPERTY OF ICE
 72
     1
 11
53.87655340103949
 21
5.866143431417902
 31
0.0
100
AcDbText
 73
     2
  0
TEXT
  5
3E5
330
1F
100
AcDbEntity
  8
TEXT
100
AcDbText
 10
51.05672918228949
 20
6.096856322042902
 30
0.0
 40
0.3076171875
  1
PROPRIETARY DRAWING
 72
     1
 11
53.87655340103949
 21
6.250664915792902
 31
0.0
100
AcDbText
 73
     2
  0
LINE
  5
3E6
330
1F
100
AcDbEntity
  8
BORDER
100
AcDbLine
 10
57.00046403785202
 20
4.866387572042945
 30
0.0
 11
50.7526427642272
 21
4.866387572042945
 31
0.0
  0
LINE
  5
3E7
330
1F
100
AcDbEntity
  8
BORDER
100
AcDbLine
 10
57.00046403785202
 20
6.767350751672302
 30
0.0
 11
50.81108288030444
 21
6.767350751672302
 31
0.0
  0
LINE
  5
3E8
330
1F
100
AcDbEntity
  8
BORDER
100
AcDbLine
 10
50.81108288030444
 20
6.767350751672302
 30
0.0
 11
50.81108288030444
 21
4.866387572042903
 31
0.0
  0
LINE
  5
3E9
330
1F
100
AcDbEntity
  8
BORDER
100
AcDbLine
 10
57.00046403785202
 20
4.866387572042945
 30
0.0
 11
57.00046403785202
 21
6.767350751672302
 31
0.0
  0
LWPOLYLINE
  5
3EA
330
1F
100
AcDbEntity
  8
BORDER
100
AcDbPolyline
 90
        4
 70
     1
 43
0.0
 10
22.51483155837176
 20
66.38982507204294
 10
69.27094924560927
 20
66.38982507204294
 10
69.27094924560927
 20
4.866387572042931
 10
22.51483155837176
 20
4.866387572042931
  0
TEXT
  5
3EB
330
1F
100
AcDbEntity
  8
TEXT
100
AcDbText
 10
64.10152695423042
 20
6.260444731879777
 30
0.0
 40
0.25
  1
480-400VAC
 72
     1
 11
65.28902695423042
 21
6.385444731879777
 31
0.0
100
AcDbText
 73
     2
  0
TEXT
  5
3EC
330
1F
100
AcDbEntity
  8
TEXT
100
AcDbText
 10
61.44110231511106
 20
6.703540222402246
 30
0.0
 40
0.6149999999999995
  1
IQ25,35,4500V
 41
1.102062365217141
 72
     5
 11
69.12247700067453
 21
6.703540222402246
 31
0.0
100
AcDbText
  0
TEXT
  5
3ED
330
1F
100
AcDbEntity
  8
DIM
100
AcDbText
 10
41.74479109595362
 20
64.89402561275756
 30
0.0
 40
1.0
  1
IQ2500V
 72
     1
 11
44.91145776262029
 21
65.39402561275756
 31
0.0
100
AcDbText
 73
     2
  0
TEXT
  5
3EE
330
1F
100
AcDbEntity
  8
DIM
100
AcDbText
 10
41.74479109595362
 20
63.39402561275755
 30
0.0
 40
1.0
  1
IQ3500V
 72
     1
 11
44.91145776262029
 21
63.89402561275755
 31
0.0
100
AcDbText
 73
     2
  0
TEXT
  5
3EF
330
1F
100
AcDbEntity
  8
DIM
100
AcDbText
 10
41.74479109595362
 20
61.89402561275755
 30
0.0
 40
1.0
  1
IQ4500V
 72
     1
 11
44.91145776262029
 21
62.39402561275755
 31
0.0
100
AcDbText
 73
     2
  0
TEXT
  5
3F0
330
1F
100
AcDbEntity
  8
DIM
100
AcDbText
 10
40.16145776262028
 20
60.39402561275757
 30
0.0
 40
1.0
  1
480-400VAC
 72
     1
 11
44.91145776262029
 21
60.89402561275757
 31
0.0
100
AcDbText
 73
     2
  0
TEXT
  5
424
330
1F
100
AcDbEntity
  8
DIM
100
AcDbText
 10
38.07812442928695
 20
58.89402561275755
 30
0.0
 40
1.0
  1
CUTOUT DRAWING
 72
     1
 11
44.91145776262029
 21
59.39402561275755
 31
0.0
100
AcDbText
 73
     2
  0
DIMENSION
  5
70E
330
1F
100
AcDbEntity
  8
0
100
AcDbDimension
  2
*D91
 10
35.28645776262055
 20
19.3621870313283
 30
0.0
 11
45.41146414285784
 21
43.78670399906929
 31
0.0
 70
   102
 71
     5
 42
10.12500638023732
  3
Standard
100
AcDbOrdinateDimension
 13
45.41146414285786
 23
40.3310591161806
 33
0.0
 14
45.41146414285786
 24
41.61337066573596
 34
0.0
  0
DIMENSION
  5
70F
330
1F
100
AcDbEntity
  8
0
100
AcDbDimension
  2
*D92
 10
35.28645776262055
 20
19.3621870313283
 30
0.0
 11
31.27356292170177
 21
39.23169154613268
 31
0.0
 70
    38
 71
     5
 42
20.96887208485231
  3
Standard
100
AcDbOrdinateDimension
 13
45.41146414285786
 23
40.3310591161806
 33
0.0
 14
33.78022958836844
 24
39.23169154613268
 34
0.0
  0
DIMENSION
  5
710
330
1F
100
AcDbEntity
  8
0
100
AcDbDimension
  2
*D93
 10
45.84569812895413
 20
39.88154176910819
 30
0.0
 11
27.80763510619134
 21
52.59519589362782
 31
0.0
 70
   163
  1
<> (1) \POPTIONAL:\PETHERNET\PCONNECTION\PPORT
 71
     9
 42
1.249999999999992
  3
Standard
100
AcDbDiametricDimension
 15
44.97723015676186
 25
40.7805764632531
 35
0.0
 40
0.0
  0
CIRCLE
  5
711
330
1F
100
AcDbEntity
  8
TEMPLATE
100
AcDbCircle
 10
45.41146414285807
 20
40.33105911618068
 30
0.0
 40
0.625
  0
DIMENSION
  5
712
330
1F
100
AcDbEntity
  8
0
100
AcDbDimension
  2
*D94
 10
35.28645776262055
 20
19.3621870313283
 30
0.0
 11
53.1060059165436
 21
13.27703162513241
 31
0.0
 70
   230
 71
     5
 42
18.59399999999999
  3
Standard
100
AcDbOrdinateDimension
 13
53.88045776262053
 23
20.0791870313283
 33
0.0
 14
53.1060059165436
 24
15.70036495846573
 34
0.0
  0
DIMENSION
  5
713
330
1F
100
AcDbEntity
  8
0
100
AcDbDimension
  2
*D95
 10
35.28645776262055
 20
19.3621870313283
 30
0.0
 11
51.60045776262032
 21
13.0350112721958
 31
0.0
 70
   230
 71
     5
 42
16.31399999999979
  3
Standard
100
AcDbOrdinateDimension
 13
51.60045776262032
 23
20.0791870313283
 33
0.0
 14
51.60045776262032
 24
15.29167793886246
 34
0.0
  0
DIMENSION
  5
714
330
1F
100
AcDbEntity
  8
0
100
AcDbDimension
  2
*D96
 10
35.28645776262055
 20
19.3621870313283
 30
0.0
 11
47.98957726534047
 21
23.2041870313283
 31
0.0
 70
    38
 71
     5
 42
3.841999999999998
  3
Standard
100
AcDbOrdinateDimension
 13
51.60045776262032
 23
23.2041870313283
 33
0.0
 14
50.07957726534048
 24
23.2041870313283
 34
0.0
  0
DIMENSION
  5
715
330
1F
100
AcDbEntity
  8
0
100
AcDbDimension
  2
*D97
 10
35.28645776262055
 20
19.3621870313283
 30
0.0
 11
48.07135461887753
 21
20.0791870313283
 31
0.0
 70
    38
 71
     5
 42
0.7169999999999988
  3
Standard
100
AcDbOrdinateDimension
 13
51.60045776262032
 23
20.0791870313283
 33
0.0
 14
49.91135461887753
 24
20.0791870313283
 34
0.0
  0
LINE
  5
716
330
1F
100
AcDbEntity
  8
Washer
100
AcDbLine
 10
53.88045776262053
 20
20.0791870313283
 30
0.0
 11
51.60045776262032
 21
20.0791870313283
 31
0.0
  0
LINE
  5
717
330
1F
100
AcDbEntity
  8
Washer
100
AcDbLine
 10
51.60045776262032
 20
20.0791870313283
 30
0.0
 11
51.60045776262032
 21
23.2041870313283
 31
0.0
  0
LINE
  5
718
330
1F
100
AcDbEntity
  8
Washer
100
AcDbLine
 10
53.88045776262053
 20
23.2041870313283
 30
0.0
 11
51.60045776262032
 21
23.2041870313283
 31
0.0
  0
LINE
  5
719
330
1F
100
AcDbEntity
  8
Washer
100
AcDbLine
 10
53.88045776262053
 20
20.0791870313283
 30
0.0
 11
53.88045776262053
 21
23.2041870313283
 31
0.0
  0
DIMENSION
  5
71A
330
1F
100
AcDbEntity
  8
0
100
AcDbDimension
  2
*D98
 10
35.28645776262055
 20
19.3621870313283
 30
0.0
 11
54.45699095632037
 21
13.1700577061339
 31
0.0
 70
   230
 71
     5
 42
18.81300638023754
  3
Standard
100
AcDbOrdinateDimension
 13
54.09946414285808
 23
27.05305911618076
 33
0.0
 14
54.45699095632037
 24
15.42672437280056
 34
0.0
  0
LINE
  5
720
330
1F
100
AcDbEntity
  8
TEMPLATE
  6
DASHDOT
100
AcDbLine
 10
35.28645776262055
 20
51.89402561275756
 30
0.0
 11
35.28645776262055
 21
19.3621870313283
 31
0.0
  0
MTEXT
  5
721
102
{ACAD_REACTORS
330
722
102
}
330
1F
100
AcDbEntity
  8
DIM
100
AcDbMText
 10
39.18966889169325
 20
37.50980710581463
 30
0.0
 40
0.9999999999999998
 41
0.0
 71
     1
 72
     1
  1
%%C .375 (8)
 73
     1
 44
1.0
1001
ACAD
1000
MTEXTBEGIN
1070
    73
1070
     1
1070
    44
1040
1.0
1070
    74
1070
     0
1000
MTEXTEND
  0
LEADER
  5
722
330
1F
100
AcDbEntity
  8
DIM
100
AcDbLeader
  3
Standard
 73
     0
 40
1.0
 41
8.333333333333332
 76
     3
 10
36.13242391568892
 20
34.62011693225334
 30
0.0
 10
37.86475105287398
 20
37.00980710581463
 30
0.0
 10
38.68966889169325
 20
37.00980710581463
 30
0.0
340
721
213
0.0
223
-0.5
233
0.0
1001
ACAD
1000
DSTYLE
1002
{
1070
    77
1070
     0
1070
    41
1040
1.0
1070
    42
1040
0.375
1070
    43
1040
2.125
1070
    44
1040
1.0
1070
   140
1040
0.9999999999999998
1070
   141
1040
0.5
1070
   147
1040
0.5
1070
   271
1070
     3
1070
   272
1070
     3
1070
   288
1070
     1
1002
}
  0
MTEXT
  5
723
102
{ACAD_REACTORS
330
724
102
}
330
1F
100
AcDbEntity
  8
DIM
100
AcDbMText
 10
56.99013165898392
 20
45.5642645939056
 30
0.0
 40
0.9999999999999998
 41
0.0
 71
     1
 72
     1
  1
%%C 1.250 (1)\PPOWER SUPPLY
 73
     1
 44
1.0
1001
ACAD
1000
MTEXTBEGIN
1070
    73
1070
     1
1070
    44
1040
1.0
1070
    74
1070
     0
1000
MTEXTEND
  0
LEADER
  5
724
330
1F
100
AcDbEntity
  8
DIM
100
AcDbLeader
  3
Standard
 73
     0
 40
2.666666666666666
 41
12.0
 76
     3
 10
48.69141862040589
 20
40.2983077132534
 30
0.0
 10
51.89584078411915
 20
44.0777744710619
 30
0.0
 10
56.49013165898392
 20
45.06426459390559
 30
0.0
340
723
213
0.0
223
-0.5
233
0.0
1001
ACAD
1000
DSTYLE
1002
{
1070
    77
1070
     0
1070
    41
1040
1.0
1070
    42
1040
0.375
1070
    43
1040
2.125
1070
    44
1040
1.0
1070
   140
1040
0.9999999999999998
1070
   141
1040
0.5
1070
   147
1040
0.5
1070
   271
1070
     3
1070
   272
1070
     3
1070
   288
1070
     1
1002
}
  0
CIRCLE
  5
725
330
1F
100
AcDbEntity
  8
TEMPLATE
100
AcDbCircle
 10
47.91146414285807
 20
39.58105911618068
 30
0.0
 40
0.625
  0
CIRCLE
  5
726
330
1F
100
AcDbEntity
  8
TEMPLATE
100
AcDbCircle
 10
54.09946414285808
 20
27.05305911618076
 30
0.0
 40
0.1875
  0
CIRCLE
  5
727
330
1F
100
AcDbEntity
  8
TEMPLATE
100
AcDbCircle
 10
54.09946414285808
 20
34.05305911618065
 30
0.0
 40
0.1875
  0
CIRCLE
  5
728
330
1F
100
AcDbEntity
  8
TEMPLATE
100
AcDbCircle
 10
54.09946414285808
 20
41.05305911618065
 30
0.0
 40
0.1875
  0
CIRCLE
  5
729
330
1F
100
AcDbEntity
  8
TEMPLATE
100
AcDbCircle
 10
54.09946414285808
 20
48.05305911618065
 30
0.0
 40
0.1875
  0
CIRCLE
  5
72A
330
1F
100
AcDbEntity
  8
TEMPLATE
100
AcDbCircle
 10
35.7234641428581
 20
27.05305911618065
 30
0.0
 40
0.1875
  0
CIRCLE
  5
72B
330
1F
100
AcDbEntity
  8
TEMPLATE
100
AcDbCircle
 10
35.7234641428581
 20
34.05305911618065
 30
0.0
 40
0.1875
  0
CIRCLE
  5
72C
330
1F
100
AcDbEntity
  8
TEMPLATE
100
AcDbCircle
 10
35.72346414285799
 20
41.05305911618065
 30
0.0
 40
0.1875
  0
CIRCLE
  5
72D
330
1F
100
AcDbEntity
  8
TEMPLATE
100
AcDbCircle
 10
35.72346414285799
 20
48.05305911618065
 30
0.0
 40
0.1875
  0
LINE
  5
72E
330
1F
100
AcDbEntity
  8
TEMPLATE
100
AcDbLine
 10
51.3215205672385
 20
47.87447985614917
 30
0.0
 11
51.3215205672385
 21
50.71197985614921
 31
0.0
  0
LINE
  5
72F
330
1F
100
AcDbEntity
  8
TEMPLATE
100
AcDbLine
 10
38.49652056723868
 20
47.87447985614909
 30
0.0
 11
38.49652056723868
 21
50.71197985614914
 31
0.0
  0
LINE
  5
730
330
1F
100
AcDbEntity
  8
TEMPLATE
100
AcDbLine
 10
51.3215205672385
 20
50.71197985614921
 30
0.0
 11
38.49652056723868
 21
50.71197985614914
 31
0.0
  0
LINE
  5
731
330
1F
100
AcDbEntity
  8
TEMPLATE
100
AcDbLine
 10
51.3215205672385
 20
47.87447985614917
 30
0.0
 11
38.49652056723868
 21
47.87447985614909
 31
0.0
  0
LINE
  5
732
330
1F
100
AcDbEntity
  8
TEMPLATE
100
AcDbLine
 10
52.41145776262054
 20
25.39402561275757
 30
0.0
 11
52.41145776262054
 21
28.39402561275758
 31
0.0
  0
LINE
  5
733
330
1F
100
AcDbEntity
  8
TEMPLATE
  6
DASHDOT
100
AcDbLine
 10
54.53645776262053
 20
51.89402561275756
 30
0.0
 11
54.53645776262053
 21
19.3621870313283
 31
0.0
  0
LINE
  5
734
330
1F
100
AcDbEntity
  8
TEMPLATE
100
AcDbLine
 10
37.41145776262055
 20
25.39402561275757
 30
0.0
 11
37.41145776262055
 21
28.39402561275758
 31
0.0
  0
LINE
  5
735
330
1F
100
AcDbEntity
  8
TEMPLATE
  6
DASHDOT
100
AcDbLine
 10
35.28645776262055
 20
51.89402561275756
 30
0.0
 11
54.53645776262053
 21
51.89402561275756
 31
0.0
  0
LINE
  5
736
330
1F
100
AcDbEntity
  8
TEMPLATE
100
AcDbLine
 10
37.41145776262055
 20
28.39402561275758
 30
0.0
 11
52.41145776262054
 21
28.39402561275758
 31
0.0
  0
LINE
  5
737
330
1F
100
AcDbEntity
  8
TEMPLATE
100
AcDbLine
 10
37.41145776262055
 20
25.39402561275757
 30
0.0
 11
52.41145776262054
 21
25.39402561275757
 31
0.0
  0
LINE
  5
738
330
1F
100
AcDbEntity
  8
TEMPLATE
100
AcDbLine
 10
44.57946414285809
 20
25.39405911618066
 30
0.0
 11
37.41145776262055
 21
25.39405911618066
 31
0.0
  0
CIRCLE
  5
739
330
1F
100
AcDbEntity
  8
TEMPLATE
100
AcDbCircle
 10
47.91146414285807
 20
38.08105911618067
 30
0.0
 40
0.625
  0
LEADER
  5
73A
330
1F
100
AcDbEntity
  8
0
100
AcDbLeader
  3
Standard
 73
     0
 40
7.666666666666666
 41
8.5
 76
     3
 10
48.59827328312301
 20
37.45453763307241
 30
0.0
 10
51.50544687086492
 20
36.25900340640575
 30
0.0
 10
60.06367749219427
 20
36.25900340640575
 30
0.0
340
73B
213
0.0
223
-0.5
233
0.0
1001
ACAD
1000
DSTYLE
1002
{
1070
   147
1040
0.375
1070
    77
1070
     0
1002
}
  0
MTEXT
  5
73B
102
{ACAD_REACTORS
330
73A
102
}
330
1F
100
AcDbEntity
  8
0
100
AcDbMText
 10
60.43867749219427
 20
36.75900340640575
 30
0.0
 40
1.0
 41
0.0
 71
     1
 72
     1
  1
%%C 1.250 (1)\POPTIONAL: \PEXTERNAL \PHEAT \POUTPUT
 73
     1
 44
1.0
1001
ACAD
1000
MTEXTBEGIN
1070
    73
1070
     1
1070
    44
1040
1.0
1070
    74
1070
     0
1000
MTEXTEND
  0
LINE
  5
73C
330
1F
100
AcDbEntity
  8
TEMPLATE
  6
DASHDOT
100
AcDbLine
 10
54.53645776262053
 20
19.3621870313283
 30
0.0
 11
35.28645776262055
 21
19.3621870313283
 31
0.0
  0
DIMENSION
  5
73D
330
1F
100
AcDbEntity
  8
0
100
AcDbDimension
  2
*D71
 10
35.28645776262055
 20
19.3621870313283
 30
0.0
 11
31.52979109595381
 21
19.3621870313283
 31
0.0
 70
    38
 71
     5
 42
0.0
  3
Standard
100
AcDbOrdinateDimension
 13
35.28645776262055
 23
19.3621870313283
 33
0.0
 14
33.28645776262048
 24
19.3621870313283
 34
0.0
  0
DIMENSION
  5
73E
330
1F
100
AcDbEntity
  8
0
100
AcDbDimension
  2
*D72
 10
35.28645776262055
 20
19.3621870313283
 30
0.0
 11
35.28645776262055
 21
13.40638995304404
 31
0.0
 70
   230
 71
     5
 42
0.0
  3
Standard
100
AcDbOrdinateDimension
 13
35.28645776262055
 23
19.3621870313283
 33
0.0
 14
35.28645776262055
 24
15.1630566197107
 34
0.0
  0
DIMENSION
  5
73F
330
1F
100
AcDbEntity
  8
0
100
AcDbDimension
  2
*D73
 10
35.28645776262055
 20
19.3621870313283
 30
0.0
 11
31.36312442928715
 21
27.05305911618065
 31
0.0
 70
    38
 71
     5
 42
7.690872084852343
  3
Standard
100
AcDbOrdinateDimension
 13
35.7234641428581
 23
27.05305911618065
 33
0.0
 14
33.28645776262048
 24
27.05305911618065
 34
0.0
  0
DIMENSION
  5
740
330
1F
100
AcDbEntity
  8
0
100
AcDbDimension
  2
*D74
 10
35.28645776262055
 20
19.3621870313283
 30
0.0
 11
37.49482834462332
 21
13.71024541692317
 31
0.0
 70
   230
 71
     5
 42
0.4370063802375627
  3
Standard
100
AcDbOrdinateDimension
 13
35.7234641428581
 23
27.05305911618065
 33
0.0
 14
37.49482834462332
 24
15.71691208358983
 34
0.0
  0
DIMENSION
  5
741
330
1F
100
AcDbEntity
  8
0
100
AcDbDimension
  2
*D75
 10
35.28645776262055
 20
19.3621870313283
 30
0.0
 11
37.41145776262053
 21
32.23322559019625
 31
0.0
 70
   102
 71
     5
 42
2.125
  3
Standard
100
AcDbOrdinateDimension
 13
37.41145776262055
 23
28.39402561275758
 33
0.0
 14
37.41145776262055
 24
30.30989225686291
 34
0.0
  0
DIMENSION
  5
742
330
1F
100
AcDbEntity
  8
0
100
AcDbDimension
  2
*D76
 10
35.28645776262055
 20
19.3621870313283
 30
0.0
 11
52.41145776262054
 21
32.56655892352958
 31
0.0
 70
   102
 71
     5
 42
17.125
  3
Standard
100
AcDbOrdinateDimension
 13
52.41145776262054
 23
28.39402561275758
 33
0.0
 14
52.41145776262054
 24
30.30989225686291
 34
0.0
  0
DIMENSION
  5
743
330
1F
100
AcDbEntity
  8
0
100
AcDbDimension
  2
*D77
 10
35.28645776262055
 20
19.3621870313283
 30
0.0
 11
54.53645776262053
 21
56.2340256127576
 31
0.0
 70
   102
 71
     5
 42
19.24999999999999
  3
Standard
100
AcDbOrdinateDimension
 13
54.53645776262053
 23
51.89402561275756
 33
0.0
 14
54.53645776262053
 24
53.89402561275757
 34
0.0
  0
DIMENSION
  5
744
330
1F
100
AcDbEntity
  8
0
100
AcDbDimension
  2
*D78
 10
35.28645776262055
 20
19.3621870313283
 30
0.0
 11
59.0431244292872
 21
51.89402561275756
 31
0.0
 70
    38
  1
32.530
 71
     5
 42
32.53183858142927
  3
Standard
100
AcDbOrdinateDimension
 13
54.53645776262053
 23
51.89402561275756
 33
0.0
 14
56.53645776262053
 24
51.89402561275756
 34
0.0
  0
DIMENSION
  5
745
330
1F
100
AcDbEntity
  8
0
100
AcDbDimension
  2
*D79
 10
35.28645776262055
 20
19.3621870313283
 30
0.0
 11
58.87645776262053
 21
50.71197985614921
 31
0.0
 70
    38
 71
     5
 42
31.34979282482091
  3
Standard
100
AcDbOrdinateDimension
 13
51.3215205672385
 23
50.71197985614921
 33
0.0
 14
56.53645776262053
 24
50.71197985614921
 34
0.0
  0
DIMENSION
  5
746
330
1F
100
AcDbEntity
  8
0
100
AcDbDimension
  2
*D80
 10
35.28645776262055
 20
19.3621870313283
 30
0.0
 11
58.95979109595387
 21
47.87447985614917
 31
0.0
 70
    38
 71
     5
 42
28.51229282482086
  3
Standard
100
AcDbOrdinateDimension
 13
51.3215205672385
 23
47.87447985614917
 33
0.0
 14
56.53645776262053
 24
47.87447985614917
 34
0.0
  0
DIMENSION
  5
747
330
1F
100
AcDbEntity
  8
0
100
AcDbDimension
  2
*D81
 10
35.28645776262055
 20
19.3621870313283
 30
0.0
 11
38.49652056723865
 21
55.73402561275758
 31
0.0
 70
   102
 71
     5
 42
3.210062804618124
  3
Standard
100
AcDbOrdinateDimension
 13
38.49652056723868
 23
50.71197985614914
 33
0.0
 14
38.49652056723868
 24
53.89402561275757
 34
0.0
  0
DIMENSION
  5
748
330
1F
100
AcDbEntity
  8
0
100
AcDbDimension
  2
*D82
 10
35.28645776262055
 20
19.3621870313283
 30
0.0
 11
51.32152056723846
 21
56.2340256127576
 31
0.0
 70
   102
 71
     5
 42
16.03506280461794
  3
Standard
100
AcDbOrdinateDimension
 13
51.3215205672385
 23
50.71197985614914
 33
0.0
 14
51.3215205672385
 24
53.89402561275757
 34
0.0
  0
DIMENSION
  5
749
330
1F
100
AcDbEntity
  8
0
100
AcDbDimension
  2
*D83
 10
35.28645776262055
 20
19.3621870313283
 30
0.0
 11
30.86312442928715
 21
48.05305911618065
 31
0.0
 70
    38
 71
     5
 42
28.69087208485235
  3
Standard
100
AcDbOrdinateDimension
 13
35.72346414285799
 23
48.05305911618065
 33
0.0
 14
33.28645776262048
 24
48.05305911618065
 34
0.0
  0
DIMENSION
  5
74A
330
1F
100
AcDbEntity
  8
0
100
AcDbDimension
  2
*D84
 10
35.28645776262055
 20
19.3621870313283
 30
0.0
 11
31.02979109595381
 21
41.05305911618065
 31
0.0
 70
    38
 71
     5
 42
21.69087208485235
  3
Standard
100
AcDbOrdinateDimension
 13
35.72346414285799
 23
41.05305911618065
 33
0.0
 14
33.28645776262048
 24
41.05305911618065
 34
0.0
  0
DIMENSION
  5
74B
330
1F
100
AcDbEntity
  8
0
100
AcDbDimension
  2
*D85
 10
35.28645776262055
 20
19.3621870313283
 30
0.0
 11
31.02979109595381
 21
34.05305911618065
 31
0.0
 70
    38
 71
     5
 42
14.69087208485234
  3
Standard
100
AcDbOrdinateDimension
 13
35.7234641428581
 23
34.05305911618065
 33
0.0
 14
33.28645776262048
 24
34.05305911618065
 34
0.0
  0
DIMENSION
  5
74C
330
1F
100
AcDbEntity
  8
0
100
AcDbDimension
  2
*D86
 10
35.28645776262055
 20
19.3621870313283
 30
0.0
 11
58.5431244292872
 21
25.39402561275757
 31
0.0
 70
    38
 71
     5
 42
6.031838581429267
  3
Standard
100
AcDbOrdinateDimension
 13
52.41145776262054
 23
25.39402561275757
 33
0.0
 14
56.53645776262053
 24
25.39402561275757
 34
0.0
  0
DIMENSION
  5
74D
330
1F
100
AcDbEntity
  8
0
100
AcDbDimension
  2
*D87
 10
35.28645776262055
 20
19.3621870313283
 30
0.0
 11
58.5431244292872
 21
28.39402561275758
 31
0.0
 70
    38
 71
     5
 42
9.031838581429267
  3
Standard
100
AcDbOrdinateDimension
 13
52.41145776262054
 23
28.39402561275758
 33
0.0
 14
56.53645776262053
 24
28.39402561275758
 34
0.0
  0
DIMENSION
  5
74E
330
1F
100
AcDbEntity
  8
0
100
AcDbDimension
  2
*D88
 10
35.28645776262055
 20
19.3621870313283
 30
0.0
 11
58.87645776262053
 21
40.02507886278353
 31
0.0
 70
    38
 71
     5
 42
20.21887208485237
  3
Standard
100
AcDbOrdinateDimension
 13
47.91146414285807
 23
39.58105911618068
 33
0.0
 14
56.53645776262053
 24
40.02507886278353
 34
0.0
  0
DIMENSION
  5
74F
330
1F
100
AcDbEntity
  8
0
100
AcDbDimension
  2
*D89
 10
35.28645776262055
 20
19.3621870313283
 30
0.0
 11
58.7931244292872
 21
38.08105911618067
 31
0.0
 70
    38
 71
     5
 42
18.71887208485236
  3
Standard
100
AcDbOrdinateDimension
 13
47.91146414285807
 23
38.08105911618067
 33
0.0
 14
56.53645776262053
 24
38.08105911618067
 34
0.0
  0
DIMENSION
  5
750
330
1F
100
AcDbEntity
  8
0
100
AcDbDimension
  2
*D90
 10
35.28645776262055
 20
19.3621870313283
 30
0.0
 11
47.91146414285806
 21
43.80387023768747
 31
0.0
 70
   102
 71
     5
 42
12.62500638023755
  3
Standard
100
AcDbOrdinateDimension
 13
47.91146414285807
 23
39.58105911618068
 33
0.0
 14
47.91146414285807
 24
41.38053690435413
 34
0.0
  0
TEXT
  5
980
330
1F
100
AcDbEntity
  8
TEXT
100
AcDbText
 10
23.01214601149677
 20
6.465996947042945
 30
0.0
 40
0.24609375
  1
1
 72
     1
 11
23.05316163649676
 21
6.589043822042945
 31
0.0
100
AcDbText
 73
     2
  0
TEXT
  5
981
330
1F
100
AcDbEntity
  8
TEXT
100
AcDbText
 10
24.10316163649694
 20
6.465996947042945
 30
0.0
 40
0.24609375
  1
ADDED RECT FOR FUSE BLOCKS & ENET HOLE
 72
     1
 11
28.73792726149694
 21
6.589043822042945
 31
0.0
100
AcDbText
 73
     2
  0
TEXT
  5
982
330
1F
100
AcDbEntity
  8
TEXT
100
AcDbText
 10
34.35194093337171
 20
6.465996947042945
 30
0.0
 40
0.24609375
  1
6-8-11
 72
     1
 11
34.96717530837171
 21
6.589043822042945
 31
0.0
100
AcDbText
 73
     2
  0
TEXT
  5
983
330
1F
100
AcDbEntity
  8
TEXT
100
AcDbText
 10
36.95011831222545
 20
6.465996947042945
 30
0.0
 40
0.24609375
  1
JJH
 72
     1
 11
37.27824331222545
 21
6.589043822042945
 31
0.0
100
AcDbText
 73
     2
  0
LINE
  5
984
330
1F
100
AcDbEntity
  8
BORDER
100
AcDbLine
 10
38.5064988160789
 20
6.835137572043002
 30
0.0
 11
22.51483155837176
 21
6.835137572043002
 31
0.0
  0
ENDSEC
  0
SECTION
  2
OBJECTS
  0
DICTIONARY
  5
C
330
0
100
AcDbDictionary
281
     1
  3
ACAD_COLOR
350
73
  3
ACAD_GROUP
350
D
  3
ACAD_LAYOUT
350
1A
  3
ACAD_MATERIAL
350
72
  3
ACAD_MLINESTYLE
350
17
  3
ACAD_PLOTSETTINGS
350
19
  3
ACAD_PLOTSTYLENAME
350
E
  3
ACDBHEADERROUNDTRIPXREC
350
9A8
  3
AcDbVariableDictionary
350
66
  0
DICTIONARY
  5
13D
330
2
100
AcDbDictionary
280
     1
281
     1
  3
ACAD_LAYERSTATES
360
13E
  0
DICTIONARY
  5
73
102
{ACAD_REACTORS
330
C
102
}
330
C
100
AcDbDictionary
281
     1
  0
DICTIONARY
  5
D
102
{ACAD_REACTORS
330
C
102
}
330
C
100
AcDbDictionary
281
     1
  0
DICTIONARY
  5
1A
102
{ACAD_REACTORS
330
C
102
}
330
C
100
AcDbDictionary
281
     1
  3
Layout1
350
59
  3
Layout2
350
5E
  3
Model
350
22
  0
DICTIONARY
  5
72
102
{ACAD_REACTORS
330
C
102
}
330
C
100
AcDbDictionary
281
     1
  0
DICTIONARY
  5
17
102
{ACAD_REACTORS
330
C
102
}
330
C
100
AcDbDictionary
281
     1
  3
Standard
350
18
  0
DICTIONARY
  5
19
102
{ACAD_REACTORS
330
C
102
}
330
C
100
AcDbDictionary
281
     1
  0
ACDBDICTIONARYWDFLT
  5
E
102
{ACAD_REACTORS
330
C
102
}
330
C
100
AcDbDictionary
281
     1
  3
Normal
350
F
100
AcDbDictionaryWithDefault
340
F
  0
DICTIONARY
  5
9A8
102
{ACAD_REACTORS
330
C
102
}
330
C
100
AcDbDictionary
281
     1
  3
COLORDICT
350
9AA
  3
MATERIALDICT
350
9A9
  0
DICTIONARY
  5
66
102
{ACAD_REACTORS
330
C
102
}
330
C
100
AcDbDictionary
281
     1
  3
DIMASSOC
350
67
  3
HIDETEXT
350
6B
  3
PROJECTNAME
350
5B1
  0
DICTIONARY
  5
13E
102
{ACAD_REACTORS
330
13D
102
}
330
13D
100
AcDbDictionary
281
     1
  0
LAYOUT
  5
59
102
{ACAD_XDICTIONARY
360
9AD
102
}
102
{ACAD_REACTORS
330
1A
102
}
330
1A
100
AcDbPlotSettings
  1

  2
None
  4

  6

 40
0.0
 41
0.0
 42
0.0
 43
0.0
 44
0.0
 45
0.0
 46
0.0
 47
0.0
 48
0.0
 49
0.0
140
0.0
141
0.0
142
1.0
143
1.0
 70
   688
 72
     0
 73
     0
 74
     5
  7

 75
    16
147
1.0
148
0.0
149
0.0
100
AcDbLayout
  1
Layout1
 70
     1
 71
     1
 10
0.0
 20
0.0
 11
12.0
 21
9.0
 12
0.0
 22
0.0
 32
0.0
 14
0.0
 24
0.0
 34
0.0
 15
0.0
 25
0.0
 35
0.0
146
0.0
 13
0.0
 23
0.0
 33
0.0
 16
1.0
 26
0.0
 36
0.0
 17
0.0
 27
1.0
 37
0.0
 76
     0
330
58
  0
LAYOUT
  5
5E
102
{ACAD_XDICTIONARY
360
9AF
102
}
102
{ACAD_REACTORS
330
1A
102
}
330
1A
100
AcDbPlotSettings
  1

  2
None
  4

  6

 40
0.0
 41
0.0
 42
0.0
 43
0.0
 44
0.0
 45
0.0
 46
0.0
 47
0.0
 48
0.0
 49
0.0
140
0.0
141
0.0
142
1.0
143
1.0
 70
   688
 72
     0
 73
     0
 74
     5
  7

 75
    16
147
1.0
148
0.0
149
0.0
100
AcDbLayout
  1
Layout2
 70
     1
 71
     2
 10
0.0
 20
0.0
 11
12.0
 21
9.0
 12
0.0
 22
0.0
 32
0.0
 14
0.0
 24
0.0
 34
0.0
 15
0.0
 25
0.0
 35
0.0
146
0.0
 13
0.0
 23
0.0
 33
0.0
 16
1.0
 26
0.0
 36
0.0
 17
0.0
 27
1.0
 37
0.0
 76
     0
330
5D
  0
LAYOUT
  5
22
102
{ACAD_XDICTIONARY
360
9AB
102
}
102
{ACAD_REACTORS
330
1A
102
}
330
1A
100
AcDbPlotSettings
  1

  2
none_device
  4
ANSI_A_(8.50_x_11.00_Inches)
  6

 40
6.349999904632567
 41
19.04999923706055
 42
6.350006103515625
 43
19.04998779296875
 44
215.8999938964844
 45
279.3999938964844
 46
0.0
 47
0.0
 48
0.0
 49
0.0
140
0.0
141
0.0
142
1.0
143
2.584895464708373
 70
 11952
 72
     0
 73
     1
 74
     0
  7

 75
     0
147
0.3868628397755418
148
0.0
149
0.0
100
AcDbLayout
  1
Model
 70
     1
 71
     0
 10
0.0
 20
0.0
 11
12.0
 21
9.0
 12
0.0
 22
0.0
 32
0.0
 14
0.0
 24
0.0
 34
0.0
 15
0.0
 25
0.0
 35
0.0
146
0.0
 13
0.0
 23
0.0
 33
0.0
 16
1.0
 26
0.0
 36
0.0
 17
0.0
 27
1.0
 37
0.0
 76
     0
330
1F
  0
MLINESTYLE
  5
18
102
{ACAD_REACTORS
330
17
102
}
330
17
100
AcDbMlineStyle
  2
STANDARD
 70
     0
  3

 62
   256
 51
90.0
 52
90.0
 71
     2
 49
0.5
 62
   256
  6
BYLAYER
 49
-0.5
 62
   256
  6
BYLAYER
  0
ACDBPLACEHOLDER
  5
F
102
{ACAD_REACTORS
330
E
102
}
330
E
  0
XRECORD
  5
9AA
102
{ACAD_REACTORS
330
9A8
102
}
330
9A8
100
AcDbXrecord
280
     1
340
73
  0
XRECORD
  5
9A9
102
{ACAD_REACTORS
330
9A8
102
}
330
9A8
100
AcDbXrecord
280
     1
340
72
  0
DICTIONARYVAR
  5
67
102
{ACAD_REACTORS
330
66
102
}
330
66
100
DictionaryVariables
280
     0
  1
2
  0
DICTIONARYVAR
  5
6B
102
{ACAD_REACTORS
330
66
102
}
330
66
100
DictionaryVariables
280
     0
  1
1
  0
DICTIONARYVAR
  5
5B1
102
{ACAD_REACTORS
330
66
102
}
330
66
100
DictionaryVariables
280
     0
  1

  0
DICTIONARY
  5
9AD
330
59
100
AcDbDictionary
280
     1
281
     1
  3
ACAD_XREC_ROUNDTRIP
360
9AE
  0
DICTIONARY
  5
9AF
330
5E
100
AcDbDictionary
280
     1
281
     1
  3
ACAD_XREC_ROUNDTRIP
360
9B0
  0
DICTIONARY
  5
9AB
330
22
100
AcDbDictionary
280
     1
281
     1
  3
ACAD_XREC_ROUNDTRIP
360
9AC
  0
XRECORD
  5
9AE
102
{ACAD_REACTORS
330
9AD
102
}
330
9AD
100
AcDbXrecord
280
     1
102
SHADEPLOT
 70
     0
102
SHADEPLOTRESLEVEL
 70
     2
102
SHADEPLOTCUSTOMDPI
 70
   300
  0
XRECORD
  5
9B0
102
{ACAD_REACTORS
330
9AF
102
}
330
9AF
100
AcDbXrecord
280
     1
102
SHADEPLOT
 70
     0
102
SHADEPLOTRESLEVEL
 70
     2
102
SHADEPLOTCUSTOMDPI
 70
   300
  0
XRECORD
  5
9AC
102
{ACAD_REACTORS
330
9AB
102
}
330
9AB
100
AcDbXrecord
280
     1
102
SHADEPLOT
 70
     0
102
SHADEPLOTRESLEVEL
 70
     2
102
SHADEPLOTCUSTOMDPI
 70
   300
  0
ENDSEC
  0
EOF
