  0
SECTION
  2
HEADER
  9
$ACADVER
  1
AC1015
  9
$ACADMAINTVER
 70
    20
  9
$DWGCODEPAGE
  3
ANSI_1252
  9
$INSBASE
 10
0.0
 20
0.0
 30
0.0
  9
$EXTMIN
 10
-57.84618759733572
 20
-1.082427127057115
 30
0.0
  9
$EXTMAX
 10
229.4986428691435
 20
110.2716859242943
 30
0.0
  9
$LIMMIN
 10
0.0
 20
0.0
  9
$LIMMAX
 10
12.0
 20
9.0
  9
$ORTHOMODE
 70
     1
  9
$REGENMODE
 70
     1
  9
$FILLMODE
 70
     1
  9
$QTEXTMODE
 70
     0
  9
$MIRRTEXT
 70
     0
  9
$LTSCALE
 40
1.0
  9
$ATTMODE
 70
     1
  9
$TEXTSIZE
 40
0.2
  9
$TRACEWID
 40
0.05
  9
$TEXTSTYLE
  7
Standard
  9
$CLAYER
  8
0
  9
$CELTYPE
  6
ByLayer
  9
$CECOLOR
 62
   256
  9
$CELTSCALE
 40
1.0
  9
$DISPSILH
 70
     0
  9
$DIMSCALE
 40
1.0
  9
$DIMASZ
 40
1.25
  9
$DIMEXO
 40
0.375
  9
$DIMDLI
 40
0.38
  9
$DIMRND
 40
0.0
  9
$DIMDLE
 40
0.0
  9
$DIMEXE
 40
0.18
  9
$DIMTP
 40
0.0
  9
$DIMTM
 40
0.0
  9
$DIMTXT
 40
1.25
  9
$DIMCEN
 40
0.09
  9
$DIMTSZ
 40
0.0
  9
$DIMTOL
 70
     0
  9
$DIMLIM
 70
     0
  9
$DIMTIH
 70
     1
  9
$DIMTOH
 70
     1
  9
$DIMSE1
 70
     0
  9
$DIMSE2
 70
     0
  9
$DIMTAD
 70
     0
  9
$DIMZIN
 70
     0
  9
$DIMBLK
  1

  9
$DIMASO
 70
     1
  9
$DIMSHO
 70
     1
  9
$DIMPOST
  1

  9
$DIMAPOST
  1

  9
$DIMALT
 70
     0
  9
$DIMALTD
 70
     2
  9
$DIMALTF
 40
25.4
  9
$DIMLFAC
 40
1.0
  9
$DIMTOFL
 70
     0
  9
$DIMTVP
 40
0.0
  9
$DIMTIX
 70
     0
  9
$DIMSOXD
 70
     0
  9
$DIMSAH
 70
     0
  9
$DIMBLK1
  1

  9
$DIMBLK2
  1

  9
$DIMSTYLE
  2
Standard
  9
$DIMCLRD
 70
     0
  9
$DIMCLRE
 70
     0
  9
$DIMCLRT
 70
     0
  9
$DIMTFAC
 40
1.0
  9
$DIMGAP
 40
0.09
  9
$DIMJUST
 70
     0
  9
$DIMSD1
 70
     0
  9
$DIMSD2
 70
     0
  9
$DIMTOLJ
 70
     1
  9
$DIMTZIN
 70
     0
  9
$DIMALTZ
 70
     0
  9
$DIMALTTZ
 70
     0
  9
$DIMUPT
 70
     0
  9
$DIMDEC
 70
     3
  9
$DIMTDEC
 70
     3
  9
$DIMALTU
 70
     2
  9
$DIMALTTD
 70
     2
  9
$DIMTXSTY
  7
Standard
  9
$DIMAUNIT
 70
     0
  9
$DIMADEC
 70
     0
  9
$DIMALTRND
 40
0.0
  9
$DIMAZIN
 70
     0
  9
$DIMDSEP
 70
    46
  9
$DIMATFIT
 70
     3
  9
$DIMFRAC
 70
     0
  9
$DIMLDRBLK
  1

  9
$DIMLUNIT
 70
     2
  9
$DIMLWD
 70
    -2
  9
$DIMLWE
 70
    -2
  9
$DIMTMOVE
 70
     0
  9
$LUNITS
 70
     2
  9
$LUPREC
 70
     4
  9
$SKETCHINC
 40
0.1
  9
$FILLETRAD
 40
0.0
  9
$AUNITS
 70
     0
  9
$AUPREC
 70
     0
  9
$MENU
  1
.
  9
$ELEVATION
 40
0.0
  9
$PELEVATION
 40
0.0
  9
$THICKNESS
 40
0.0
  9
$LIMCHECK
 70
     0
  9
$CHAMFERA
 40
0.0
  9
$CHAMFERB
 40
0.0
  9
$CHAMFERC
 40
0.0
  9
$CHAMFERD
 40
0.0
  9
$SKPOLY
 70
     0
  9
$TDCREATE
 40
2455096.461181540
  9
$TDUCREATE
 40
2455096.627848206
  9
$TDUPDATE
 40
2455754.510387361
  9
$TDUUPDATE
 40
2455754.677054028
  9
$TDINDWG
 40
0.0087112153
  9
$TDUSRTIMER
 40
0.0087108565
  9
$USRTIMER
 70
     1
  9
$ANGBASE
 50
0.0
  9
$ANGDIR
 70
     0
  9
$PDMODE
 70
     0
  9
$PDSIZE
 40
0.0
  9
$PLINEWID
 40
0.0
  9
$SPLFRAME
 70
     0
  9
$SPLINETYPE
 70
     6
  9
$SPLINESEGS
 70
     8
  9
$HANDSEED
  5
A62
  9
$SURFTAB1
 70
     6
  9
$SURFTAB2
 70
     6
  9
$SURFTYPE
 70
     6
  9
$SURFU
 70
     6
  9
$SURFV
 70
     6
  9
$UCSBASE
  2

  9
$UCSNAME
  2

  9
$UCSORG
 10
0.0
 20
0.0
 30
0.0
  9
$UCSXDIR
 10
1.0
 20
0.0
 30
0.0
  9
$UCSYDIR
 10
0.0
 20
1.0
 30
0.0
  9
$UCSORTHOREF
  2

  9
$UCSORTHOVIEW
 70
     0
  9
$UCSORGTOP
 10
0.0
 20
0.0
 30
0.0
  9
$UCSORGBOTTOM
 10
0.0
 20
0.0
 30
0.0
  9
$UCSORGLEFT
 10
0.0
 20
0.0
 30
0.0
  9
$UCSORGRIGHT
 10
0.0
 20
0.0
 30
0.0
  9
$UCSORGFRONT
 10
0.0
 20
0.0
 30
0.0
  9
$UCSORGBACK
 10
0.0
 20
0.0
 30
0.0
  9
$PUCSBASE
  2

  9
$PUCSNAME
  2

  9
$PUCSORG
 10
0.0
 20
0.0
 30
0.0
  9
$PUCSXDIR
 10
1.0
 20
0.0
 30
0.0
  9
$PUCSYDIR
 10
0.0
 20
1.0
 30
0.0
  9
$PUCSORTHOREF
  2

  9
$PUCSORTHOVIEW
 70
     0
  9
$PUCSORGTOP
 10
0.0
 20
0.0
 30
0.0
  9
$PUCSORGBOTTOM
 10
0.0
 20
0.0
 30
0.0
  9
$PUCSORGLEFT
 10
0.0
 20
0.0
 30
0.0
  9
$PUCSORGRIGHT
 10
0.0
 20
0.0
 30
0.0
  9
$PUCSORGFRONT
 10
0.0
 20
0.0
 30
0.0
  9
$PUCSORGBACK
 10
0.0
 20
0.0
 30
0.0
  9
$USERI1
 70
     0
  9
$USERI2
 70
     0
  9
$USERI3
 70
     0
  9
$USERI4
 70
     0
  9
$USERI5
 70
     0
  9
$USERR1
 40
0.0
  9
$USERR2
 40
0.0
  9
$USERR3
 40
0.0
  9
$USERR4
 40
0.0
  9
$USERR5
 40
0.0
  9
$WORLDVIEW
 70
     1
  9
$SHADEDGE
 70
     3
  9
$SHADEDIF
 70
    70
  9
$TILEMODE
 70
     1
  9
$MAXACTVP
 70
    64
  9
$PINSBASE
 10
0.0
 20
0.0
 30
0.0
  9
$PLIMCHECK
 70
     0
  9
$PEXTMIN
 10
0.0
 20
0.0
 30
0.0
  9
$PEXTMAX
 10
0.0
 20
0.0
 30
0.0
  9
$PLIMMIN
 10
0.0
 20
0.0
  9
$PLIMMAX
 10
12.0
 20
9.0
  9
$UNITMODE
 70
     0
  9
$VISRETAIN
 70
     1
  9
$PLINEGEN
 70
     0
  9
$PSLTSCALE
 70
     1
  9
$TREEDEPTH
 70
  3020
  9
$CMLSTYLE
  2
Standard
  9
$CMLJUST
 70
     0
  9
$CMLSCALE
 40
1.0
  9
$PROXYGRAPHICS
 70
     1
  9
$MEASUREMENT
 70
     0
  9
$CELWEIGHT
370
    -1
  9
$ENDCAPS
280
     0
  9
$JOINSTYLE
280
     0
  9
$LWDISPLAY
290
     0
  9
$INSUNITS
 70
     1
  9
$HYPERLINKBASE
  1

  9
$STYLESHEET
  1

  9
$XEDIT
290
     1
  9
$CEPSNTYPE
380
     0
  9
$PSTYLEMODE
290
     1
  9
$FINGERPRINTGUID
  2
{FDEAD576-A652-11D2-9A35-0060089B3A3F}
  9
$VERSIONGUID
  2
{4D456841-E829-48A4-B9A4-A0DAB1B7CD47}
  9
$EXTNAMES
290
     1
  9
$PSVPSCALE
 40
0.0
  9
$OLESTARTUP
290
     0
  0
ENDSEC
  0
SECTION
  2
CLASSES
  0
CLASS
  1
ACDBDICTIONARYWDFLT
  2
AcDbDictionaryWithDefault
  3
ObjectDBX Classes
 90
        0
280
     0
281
     0
  0
CLASS
  1
ACDBPLACEHOLDER
  2
AcDbPlaceHolder
  3
ObjectDBX Classes
 90
        0
280
     0
281
     0
  0
CLASS
  1
LAYOUT
  2
AcDbLayout
  3
ObjectDBX Classes
 90
        0
280
     0
281
     0
  0
CLASS
  1
DICTIONARYVAR
  2
AcDbDictionaryVar
  3
ObjectDBX Classes
 90
        0
280
     0
281
     0
  0
ENDSEC
  0
SECTION
  2
TABLES
  0
TABLE
  2
VPORT
  5
8
330
0
100
AcDbSymbolTable
 70
     5
  0
VPORT
  5
A58
330
8
100
AcDbSymbolTableRecord
100
AcDbViewportTableRecord
  2
*Active
 70
     0
 10
0.0
 20
0.0
 11
1.0
 21
1.0
 12
21.34576088644667
 22
25.2214592255003
 13
0.0
 23
0.0
 14
0.5
 24
0.5
 15
0.5
 25
0.5
 16
0.0
 26
0.0
 36
1.0
 17
0.0
 27
0.0
 37
0.0
 40
251.1717310529545
 41
2.028571428571428
 42
50.0
 43
0.0
 44
0.0
 50
0.0
 51
0.0
 71
     0
 72
  1000
 73
     1
 74
     3
 75
     0
 76
     0
 77
     0
 78
     0
281
     0
 65
     1
110
0.0
120
0.0
130
0.0
111
1.0
121
0.0
131
0.0
112
0.0
122
1.0
132
0.0
 79
     0
146
0.0
  0
ENDTAB
  0
TABLE
  2
LTYPE
  5
5
330
0
100
AcDbSymbolTable
 70
     2
  0
LTYPE
  5
14
330
5
100
AcDbSymbolTableRecord
100
AcDbLinetypeTableRecord
  2
ByBlock
 70
     0
  3

 72
    65
 73
     0
 40
0.0
  0
LTYPE
  5
15
330
5
100
AcDbSymbolTableRecord
100
AcDbLinetypeTableRecord
  2
ByLayer
 70
     0
  3

 72
    65
 73
     0
 40
0.0
  0
LTYPE
  5
16
330
5
100
AcDbSymbolTableRecord
100
AcDbLinetypeTableRecord
  2
Continuous
 70
     0
  3
Solid line
 72
    65
 73
     0
 40
0.0
  0
LTYPE
  5
158
330
5
100
AcDbSymbolTableRecord
100
AcDbLinetypeTableRecord
  2
DASHED
 70
     0
  3
__ __ __ __ __ __ __ __ __ __ __ __ __ __ __ __
 72
    65
 73
     2
 40
0.75
 49
0.5
 74
     0
 49
-0.25
 74
     0
  0
ENDTAB
  0
TABLE
  2
LAYER
  5
2
102
{ACAD_XDICTIONARY
360
160
102
}
330
0
100
AcDbSymbolTable
 70
     8
  0
LAYER
  5
10
330
2
100
AcDbSymbolTableRecord
100
AcDbLayerTableRecord
  2
0
 70
     0
 62
     7
  6
Continuous
370
    -3
390
F
  0
LAYER
  5
159
330
2
100
AcDbSymbolTableRecord
100
AcDbLayerTableRecord
  2
Defpoints
 70
     0
 62
     7
  6
Continuous
290
     0
370
    -3
390
F
  0
LAYER
  5
15A
330
2
100
AcDbSymbolTableRecord
100
AcDbLayerTableRecord
  2
DIM
 70
     0
 62
     7
  6
Continuous
370
    -3
390
F
  0
LAYER
  5
15B
330
2
100
AcDbSymbolTableRecord
100
AcDbLayerTableRecord
  2
TEXT
 70
     0
 62
    -7
  6
Continuous
370
    -3
390
F
  0
LAYER
  5
15C
330
2
100
AcDbSymbolTableRecord
100
AcDbLayerTableRecord
  2
TEMPLATE
 70
     0
 62
     7
  6
Continuous
370
    -3
390
F
  0
LAYER
  5
15D
330
2
100
AcDbSymbolTableRecord
100
AcDbLayerTableRecord
  2
DIMENSION
 70
     0
 62
     7
  6
Continuous
370
    -3
390
F
  0
LAYER
  5
15E
330
2
100
AcDbSymbolTableRecord
100
AcDbLayerTableRecord
  2
THERMOSTATCVR
 70
     0
 62
     7
  6
Continuous
370
    -3
390
F
  0
LAYER
  5
15F
330
2
100
AcDbSymbolTableRecord
100
AcDbLayerTableRecord
  2
BORDER
 70
     0
 62
     7
  6
Continuous
370
    -3
390
F
  0
ENDTAB
  0
TABLE
  2
STYLE
  5
3
330
0
100
AcDbSymbolTable
 70
     1
  0
STYLE
  5
11
330
3
100
AcDbSymbolTableRecord
100
AcDbTextStyleTableRecord
  2
Standard
 70
     0
 40
0.0
 41
1.0
 50
0.0
 71
     0
 42
0.2
  3
txt
  4

  0
ENDTAB
  0
TABLE
  2
VIEW
  5
6
330
0
100
AcDbSymbolTable
 70
     0
  0
ENDTAB
  0
TABLE
  2
UCS
  5
7
330
0
100
AcDbSymbolTable
 70
     0
  0
ENDTAB
  0
TABLE
  2
APPID
  5
9
330
0
100
AcDbSymbolTable
 70
     1
  0
APPID
  5
12
330
9
100
AcDbSymbolTableRecord
100
AcDbRegAppTableRecord
  2
ACAD
 70
     0
  0
ENDTAB
  0
TABLE
  2
DIMSTYLE
  5
A
330
0
100
AcDbSymbolTable
 70
     1
100
AcDbDimStyleTable
 71
     1
340
27
  0
DIMSTYLE
105
27
102
{ACAD_REACTORS
330
733
330
734
330
735
330
736
330
740
330
741
330
742
330
743
330
747
330
748
330
749
330
74A
330
74B
330
74C
330
74D
330
74E
330
74F
330
750
330
751
330
752
330
753
330
755
330
756
330
757
330
758
330
759
330
75B
330
777
330
778
102
}
330
A
100
AcDbSymbolTableRecord
100
AcDbDimStyleTableRecord
  2
Standard
 70
     0
 41
1.25
 42
0.375
140
1.25
271
     3
272
     3
340
11
  0
ENDTAB
  0
TABLE
  2
BLOCK_RECORD
  5
1
330
0
100
AcDbSymbolTable
 70
   110
  0
BLOCK_RECORD
  5
1F
330
1
100
AcDbSymbolTableRecord
100
AcDbBlockTableRecord
  2
*Model_Space
340
22
  0
BLOCK_RECORD
  5
58
330
1
100
AcDbSymbolTableRecord
100
AcDbBlockTableRecord
  2
*Paper_Space
340
59
  0
BLOCK_RECORD
  5
5D
330
1
100
AcDbSymbolTableRecord
100
AcDbBlockTableRecord
  2
*Paper_Space0
340
5E
  0
BLOCK_RECORD
  5
89
330
1
100
AcDbSymbolTableRecord
100
AcDbBlockTableRecord
  2
*D1
340
0
  0
BLOCK_RECORD
  5
91
330
1
100
AcDbSymbolTableRecord
100
AcDbBlockTableRecord
  2
*D2
340
0
  0
BLOCK_RECORD
  5
99
330
1
100
AcDbSymbolTableRecord
100
AcDbBlockTableRecord
  2
*D3
340
0
  0
BLOCK_RECORD
  5
A1
330
1
100
AcDbSymbolTableRecord
100
AcDbBlockTableRecord
  2
*D4
340
0
  0
BLOCK_RECORD
  5
A9
330
1
100
AcDbSymbolTableRecord
100
AcDbBlockTableRecord
  2
*D5
340
0
  0
BLOCK_RECORD
  5
B3
330
1
100
AcDbSymbolTableRecord
100
AcDbBlockTableRecord
  2
*D6
340
0
  0
BLOCK_RECORD
  5
BB
330
1
100
AcDbSymbolTableRecord
100
AcDbBlockTableRecord
  2
*D7
340
0
  0
BLOCK_RECORD
  5
C3
330
1
100
AcDbSymbolTableRecord
100
AcDbBlockTableRecord
  2
*D8
340
0
  0
BLOCK_RECORD
  5
CB
330
1
100
AcDbSymbolTableRecord
100
AcDbBlockTableRecord
  2
*D9
340
0
  0
BLOCK_RECORD
  5
D3
330
1
100
AcDbSymbolTableRecord
100
AcDbBlockTableRecord
  2
*D10
340
0
  0
BLOCK_RECORD
  5
DB
330
1
100
AcDbSymbolTableRecord
100
AcDbBlockTableRecord
  2
*D11
340
0
  0
BLOCK_RECORD
  5
E3
330
1
100
AcDbSymbolTableRecord
100
AcDbBlockTableRecord
  2
*D12
340
0
  0
BLOCK_RECORD
  5
EB
330
1
100
AcDbSymbolTableRecord
100
AcDbBlockTableRecord
  2
*D13
340
0
  0
BLOCK_RECORD
  5
F3
330
1
100
AcDbSymbolTableRecord
100
AcDbBlockTableRecord
  2
*D14
340
0
  0
BLOCK_RECORD
  5
FB
330
1
100
AcDbSymbolTableRecord
100
AcDbBlockTableRecord
  2
*D15
340
0
  0
BLOCK_RECORD
  5
103
330
1
100
AcDbSymbolTableRecord
100
AcDbBlockTableRecord
  2
*D16
340
0
  0
BLOCK_RECORD
  5
10B
330
1
100
AcDbSymbolTableRecord
100
AcDbBlockTableRecord
  2
*D17
340
0
  0
BLOCK_RECORD
  5
113
330
1
100
AcDbSymbolTableRecord
100
AcDbBlockTableRecord
  2
*D18
340
0
  0
BLOCK_RECORD
  5
11D
330
1
100
AcDbSymbolTableRecord
100
AcDbBlockTableRecord
  2
*D19
340
0
  0
BLOCK_RECORD
  5
125
330
1
100
AcDbSymbolTableRecord
100
AcDbBlockTableRecord
  2
*D20
340
0
  0
BLOCK_RECORD
  5
12D
330
1
100
AcDbSymbolTableRecord
100
AcDbBlockTableRecord
  2
*D21
340
0
  0
BLOCK_RECORD
  5
135
330
1
100
AcDbSymbolTableRecord
100
AcDbBlockTableRecord
  2
*D22
340
0
  0
BLOCK_RECORD
  5
13D
330
1
100
AcDbSymbolTableRecord
100
AcDbBlockTableRecord
  2
*D23
340
0
  0
BLOCK_RECORD
  5
145
330
1
100
AcDbSymbolTableRecord
100
AcDbBlockTableRecord
  2
*D24
340
0
  0
BLOCK_RECORD
  5
14D
330
1
100
AcDbSymbolTableRecord
100
AcDbBlockTableRecord
  2
*D25
340
0
  0
BLOCK_RECORD
  5
470
330
1
100
AcDbSymbolTableRecord
100
AcDbBlockTableRecord
  2
*D26
340
0
  0
BLOCK_RECORD
  5
47B
330
1
100
AcDbSymbolTableRecord
100
AcDbBlockTableRecord
  2
*D27
340
0
  0
BLOCK_RECORD
  5
483
330
1
100
AcDbSymbolTableRecord
100
AcDbBlockTableRecord
  2
*D28
340
0
  0
BLOCK_RECORD
  5
48B
330
1
100
AcDbSymbolTableRecord
100
AcDbBlockTableRecord
  2
*D29
340
0
  0
BLOCK_RECORD
  5
493
330
1
100
AcDbSymbolTableRecord
100
AcDbBlockTableRecord
  2
*D30
340
0
  0
BLOCK_RECORD
  5
49B
330
1
100
AcDbSymbolTableRecord
100
AcDbBlockTableRecord
  2
*D31
340
0
  0
BLOCK_RECORD
  5
4A3
330
1
100
AcDbSymbolTableRecord
100
AcDbBlockTableRecord
  2
*D32
340
0
  0
BLOCK_RECORD
  5
4AB
330
1
100
AcDbSymbolTableRecord
100
AcDbBlockTableRecord
  2
*D33
340
0
  0
BLOCK_RECORD
  5
4B5
330
1
100
AcDbSymbolTableRecord
100
AcDbBlockTableRecord
  2
*D34
340
0
  0
BLOCK_RECORD
  5
4BD
330
1
100
AcDbSymbolTableRecord
100
AcDbBlockTableRecord
  2
*D35
340
0
  0
BLOCK_RECORD
  5
4C5
330
1
100
AcDbSymbolTableRecord
100
AcDbBlockTableRecord
  2
*D36
340
0
  0
BLOCK_RECORD
  5
4CD
330
1
100
AcDbSymbolTableRecord
100
AcDbBlockTableRecord
  2
*D37
340
0
  0
BLOCK_RECORD
  5
4D5
330
1
100
AcDbSymbolTableRecord
100
AcDbBlockTableRecord
  2
*D38
340
0
  0
BLOCK_RECORD
  5
4DD
330
1
100
AcDbSymbolTableRecord
100
AcDbBlockTableRecord
  2
*D39
340
0
  0
BLOCK_RECORD
  5
4E5
330
1
100
AcDbSymbolTableRecord
100
AcDbBlockTableRecord
  2
*D40
340
0
  0
BLOCK_RECORD
  5
4ED
330
1
100
AcDbSymbolTableRecord
100
AcDbBlockTableRecord
  2
*D41
340
0
  0
BLOCK_RECORD
  5
4F5
330
1
100
AcDbSymbolTableRecord
100
AcDbBlockTableRecord
  2
*D42
340
0
  0
BLOCK_RECORD
  5
4FD
330
1
100
AcDbSymbolTableRecord
100
AcDbBlockTableRecord
  2
*D43
340
0
  0
BLOCK_RECORD
  5
505
330
1
100
AcDbSymbolTableRecord
100
AcDbBlockTableRecord
  2
*D44
340
0
  0
BLOCK_RECORD
  5
50D
330
1
100
AcDbSymbolTableRecord
100
AcDbBlockTableRecord
  2
*D45
340
0
  0
BLOCK_RECORD
  5
515
330
1
100
AcDbSymbolTableRecord
100
AcDbBlockTableRecord
  2
*D46
340
0
  0
BLOCK_RECORD
  5
51F
330
1
100
AcDbSymbolTableRecord
100
AcDbBlockTableRecord
  2
*D47
340
0
  0
BLOCK_RECORD
  5
527
330
1
100
AcDbSymbolTableRecord
100
AcDbBlockTableRecord
  2
*D48
340
0
  0
BLOCK_RECORD
  5
52F
330
1
100
AcDbSymbolTableRecord
100
AcDbBlockTableRecord
  2
*D49
340
0
  0
BLOCK_RECORD
  5
537
330
1
100
AcDbSymbolTableRecord
100
AcDbBlockTableRecord
  2
*D50
340
0
  0
BLOCK_RECORD
  5
5F2
330
1
100
AcDbSymbolTableRecord
100
AcDbBlockTableRecord
  2
*D51
340
0
  0
BLOCK_RECORD
  5
5FA
330
1
100
AcDbSymbolTableRecord
100
AcDbBlockTableRecord
  2
*D52
340
0
  0
BLOCK_RECORD
  5
605
330
1
100
AcDbSymbolTableRecord
100
AcDbBlockTableRecord
  2
*D53
340
0
  0
BLOCK_RECORD
  5
60D
330
1
100
AcDbSymbolTableRecord
100
AcDbBlockTableRecord
  2
*D54
340
0
  0
BLOCK_RECORD
  5
615
330
1
100
AcDbSymbolTableRecord
100
AcDbBlockTableRecord
  2
*D55
340
0
  0
BLOCK_RECORD
  5
61D
330
1
100
AcDbSymbolTableRecord
100
AcDbBlockTableRecord
  2
*D56
340
0
  0
BLOCK_RECORD
  5
625
330
1
100
AcDbSymbolTableRecord
100
AcDbBlockTableRecord
  2
*D57
340
0
  0
BLOCK_RECORD
  5
62F
330
1
100
AcDbSymbolTableRecord
100
AcDbBlockTableRecord
  2
*D58
340
0
  0
BLOCK_RECORD
  5
637
330
1
100
AcDbSymbolTableRecord
100
AcDbBlockTableRecord
  2
*D59
340
0
  0
BLOCK_RECORD
  5
63F
330
1
100
AcDbSymbolTableRecord
100
AcDbBlockTableRecord
  2
*D60
340
0
  0
BLOCK_RECORD
  5
647
330
1
100
AcDbSymbolTableRecord
100
AcDbBlockTableRecord
  2
*D61
340
0
  0
BLOCK_RECORD
  5
64F
330
1
100
AcDbSymbolTableRecord
100
AcDbBlockTableRecord
  2
*D62
340
0
  0
BLOCK_RECORD
  5
657
330
1
100
AcDbSymbolTableRecord
100
AcDbBlockTableRecord
  2
*D63
340
0
  0
BLOCK_RECORD
  5
65F
330
1
100
AcDbSymbolTableRecord
100
AcDbBlockTableRecord
  2
*D64
340
0
  0
BLOCK_RECORD
  5
667
330
1
100
AcDbSymbolTableRecord
100
AcDbBlockTableRecord
  2
*D65
340
0
  0
BLOCK_RECORD
  5
66F
330
1
100
AcDbSymbolTableRecord
100
AcDbBlockTableRecord
  2
*D66
340
0
  0
BLOCK_RECORD
  5
677
330
1
100
AcDbSymbolTableRecord
100
AcDbBlockTableRecord
  2
*D67
340
0
  0
BLOCK_RECORD
  5
67F
330
1
100
AcDbSymbolTableRecord
100
AcDbBlockTableRecord
  2
*D68
340
0
  0
BLOCK_RECORD
  5
687
330
1
100
AcDbSymbolTableRecord
100
AcDbBlockTableRecord
  2
*D69
340
0
  0
BLOCK_RECORD
  5
68F
330
1
100
AcDbSymbolTableRecord
100
AcDbBlockTableRecord
  2
*D70
340
0
  0
BLOCK_RECORD
  5
699
330
1
100
AcDbSymbolTableRecord
100
AcDbBlockTableRecord
  2
*D71
340
0
  0
BLOCK_RECORD
  5
6A1
330
1
100
AcDbSymbolTableRecord
100
AcDbBlockTableRecord
  2
*D72
340
0
  0
BLOCK_RECORD
  5
6A9
330
1
100
AcDbSymbolTableRecord
100
AcDbBlockTableRecord
  2
*D73
340
0
  0
BLOCK_RECORD
  5
6B1
330
1
100
AcDbSymbolTableRecord
100
AcDbBlockTableRecord
  2
*D74
340
0
  0
BLOCK_RECORD
  5
6B9
330
1
100
AcDbSymbolTableRecord
100
AcDbBlockTableRecord
  2
*D75
340
0
  0
BLOCK_RECORD
  5
6C1
330
1
100
AcDbSymbolTableRecord
100
AcDbBlockTableRecord
  2
*D76
340
0
  0
BLOCK_RECORD
  5
6CC
330
1
100
AcDbSymbolTableRecord
100
AcDbBlockTableRecord
  2
*D77
340
0
  0
BLOCK_RECORD
  5
6D7
330
1
100
AcDbSymbolTableRecord
100
AcDbBlockTableRecord
  2
*D78
340
0
  0
BLOCK_RECORD
  5
6E1
330
1
100
AcDbSymbolTableRecord
100
AcDbBlockTableRecord
  2
*D79
340
0
  0
BLOCK_RECORD
  5
779
330
1
100
AcDbSymbolTableRecord
100
AcDbBlockTableRecord
  2
*D81
340
0
  0
BLOCK_RECORD
  5
781
330
1
100
AcDbSymbolTableRecord
100
AcDbBlockTableRecord
  2
*D82
340
0
  0
BLOCK_RECORD
  5
78B
330
1
100
AcDbSymbolTableRecord
100
AcDbBlockTableRecord
  2
*D83
340
0
  0
BLOCK_RECORD
  5
796
330
1
100
AcDbSymbolTableRecord
100
AcDbBlockTableRecord
  2
*D84
340
0
  0
BLOCK_RECORD
  5
7A1
330
1
100
AcDbSymbolTableRecord
100
AcDbBlockTableRecord
  2
*D85
340
0
  0
BLOCK_RECORD
  5
7A9
330
1
100
AcDbSymbolTableRecord
100
AcDbBlockTableRecord
  2
*D86
340
0
  0
BLOCK_RECORD
  5
7B1
330
1
100
AcDbSymbolTableRecord
100
AcDbBlockTableRecord
  2
*D87
340
0
  0
BLOCK_RECORD
  5
7B9
330
1
100
AcDbSymbolTableRecord
100
AcDbBlockTableRecord
  2
*D88
340
0
  0
BLOCK_RECORD
  5
7C1
330
1
100
AcDbSymbolTableRecord
100
AcDbBlockTableRecord
  2
*D89
340
0
  0
BLOCK_RECORD
  5
7CB
330
1
100
AcDbSymbolTableRecord
100
AcDbBlockTableRecord
  2
*D90
340
0
  0
BLOCK_RECORD
  5
7D3
330
1
100
AcDbSymbolTableRecord
100
AcDbBlockTableRecord
  2
*D91
340
0
  0
BLOCK_RECORD
  5
7DB
330
1
100
AcDbSymbolTableRecord
100
AcDbBlockTableRecord
  2
*D92
340
0
  0
BLOCK_RECORD
  5
7E3
330
1
100
AcDbSymbolTableRecord
100
AcDbBlockTableRecord
  2
*D93
340
0
  0
BLOCK_RECORD
  5
7EB
330
1
100
AcDbSymbolTableRecord
100
AcDbBlockTableRecord
  2
*D94
340
0
  0
BLOCK_RECORD
  5
7F3
330
1
100
AcDbSymbolTableRecord
100
AcDbBlockTableRecord
  2
*D95
340
0
  0
BLOCK_RECORD
  5
7FB
330
1
100
AcDbSymbolTableRecord
100
AcDbBlockTableRecord
  2
*D96
340
0
  0
BLOCK_RECORD
  5
803
330
1
100
AcDbSymbolTableRecord
100
AcDbBlockTableRecord
  2
*D97
340
0
  0
BLOCK_RECORD
  5
80B
330
1
100
AcDbSymbolTableRecord
100
AcDbBlockTableRecord
  2
*D98
340
0
  0
BLOCK_RECORD
  5
813
330
1
100
AcDbSymbolTableRecord
100
AcDbBlockTableRecord
  2
*D99
340
0
  0
BLOCK_RECORD
  5
81B
330
1
100
AcDbSymbolTableRecord
100
AcDbBlockTableRecord
  2
*D100
340
0
  0
BLOCK_RECORD
  5
823
330
1
100
AcDbSymbolTableRecord
100
AcDbBlockTableRecord
  2
*D101
340
0
  0
BLOCK_RECORD
  5
82B
330
1
100
AcDbSymbolTableRecord
100
AcDbBlockTableRecord
  2
*D102
340
0
  0
BLOCK_RECORD
  5
835
330
1
100
AcDbSymbolTableRecord
100
AcDbBlockTableRecord
  2
*D103
340
0
  0
BLOCK_RECORD
  5
83D
330
1
100
AcDbSymbolTableRecord
100
AcDbBlockTableRecord
  2
*D104
340
0
  0
BLOCK_RECORD
  5
845
330
1
100
AcDbSymbolTableRecord
100
AcDbBlockTableRecord
  2
*D105
340
0
  0
BLOCK_RECORD
  5
84D
330
1
100
AcDbSymbolTableRecord
100
AcDbBlockTableRecord
  2
*D106
340
0
  0
BLOCK_RECORD
  5
855
330
1
100
AcDbSymbolTableRecord
100
AcDbBlockTableRecord
  2
*D107
340
0
  0
BLOCK_RECORD
  5
85D
330
1
100
AcDbSymbolTableRecord
100
AcDbBlockTableRecord
  2
*D108
340
0
  0
BLOCK_RECORD
  5
865
330
1
100
AcDbSymbolTableRecord
100
AcDbBlockTableRecord
  2
*D109
340
0
  0
ENDTAB
  0
ENDSEC
  0
SECTION
  2
BLOCKS
  0
BLOCK
  5
20
330
1F
100
AcDbEntity
  8
0
100
AcDbBlockBegin
  2
*Model_Space
 70
     0
 10
0.0
 20
0.0
 30
0.0
  3
*Model_Space
  1

  0
ENDBLK
  5
21
330
1F
100
AcDbEntity
  8
0
100
AcDbBlockEnd
  0
BLOCK
  5
5A
330
58
100
AcDbEntity
 67
     1
  8
0
100
AcDbBlockBegin
  2
*Paper_Space
 70
     0
 10
0.0
 20
0.0
 30
0.0
  3
*Paper_Space
  1

  0
ENDBLK
  5
5B
330
58
100
AcDbEntity
 67
     1
  8
0
100
AcDbBlockEnd
  0
BLOCK
  5
5F
330
5D
100
AcDbEntity
  8
0
100
AcDbBlockBegin
  2
*Paper_Space0
 70
     0
 10
0.0
 20
0.0
 30
0.0
  3
*Paper_Space0
  1

  0
ENDBLK
  5
60
330
5D
100
AcDbEntity
  8
0
100
AcDbBlockEnd
  0
BLOCK
  5
8A
330
89
100
AcDbEntity
  8
0
100
AcDbBlockBegin
  2
*D1
 70
     1
 10
0.0
 20
0.0
 30
0.0
  3
*D1
  1

  0
LINE
  5
8B
330
89
100
AcDbEntity
  8
DIM
 62
     0
370
    -2
100
AcDbLine
 10
193.1829414317195
 20
250.3002461931855
 30
0.0
 11
193.1829414317195
 21
246.6641366250504
 31
0.0
  0
MTEXT
  5
8C
330
89
100
AcDbEntity
  8
DIM
 62
     0
100
AcDbMText
 10
193.1829414317195
 20
243.3724699583838
 30
0.0
 40
1.25
 41
0.0
 71
     5
 72
     1
  1
\A1;18.782
 11
0.0000000000000001
 21
1.0
 31
0.0
 73
     1
 44
1.0
1001
ACAD
1000
MTEXTBEGIN
1070
    73
1070
     1
1070
    44
1040
1.0
1070
    74
1070
     0
1000
MTEXTEND
  0
POINT
  5
8D
330
89
100
AcDbEntity
  8
Defpoints
 62
     0
100
AcDbPoint
 10
193.1829414317195
 20
250.6752461931855
 30
0.0
  0
POINT
  5
8E
330
89
100
AcDbEntity
  8
Defpoints
 62
     0
100
AcDbPoint
 10
193.1829414317195
 20
246.6641366250504
 30
0.0
  0
POINT
  5
8F
330
89
100
AcDbEntity
  8
Defpoints
 62
     0
100
AcDbPoint
 10
174.4011509406743
 20
218.1745142280172
 30
0.0
  0
ENDBLK
  5
90
330
89
100
AcDbEntity
  8
0
100
AcDbBlockEnd
  0
BLOCK
  5
92
330
91
100
AcDbEntity
  8
0
100
AcDbBlockBegin
  2
*D2
 70
     1
 10
0.0
 20
0.0
 30
0.0
  3
*D2
  1

  0
LINE
  5
93
330
91
100
AcDbEntity
  8
DIM
 62
     0
370
    -2
100
AcDbLine
 10
193.931111454033
 20
255.2913863348418
 30
0.0
 11
198.4592184003736
 21
255.2913863348418
 31
0.0
  0
MTEXT
  5
94
330
91
100
AcDbEntity
  8
DIM
 62
     0
100
AcDbMText
 10
201.9592184003736
 20
255.2913863348418
 30
0.0
 40
1.25
 41
0.0
 71
     5
 72
     1
  1
\A1;35.625
 73
     1
 44
1.0
1001
ACAD
1000
MTEXTBEGIN
1070
    73
1070
     1
1070
    44
1040
1.0
1070
    74
1070
     0
1000
MTEXTEND
  0
POINT
  5
95
330
91
100
AcDbEntity
  8
Defpoints
 62
     0
100
AcDbPoint
 10
193.556111454033
 20
255.2913863348418
 30
0.0
  0
POINT
  5
96
330
91
100
AcDbEntity
  8
Defpoints
 62
     0
100
AcDbPoint
 10
198.4592184003736
 20
255.2913863348418
 30
0.0
  0
POINT
  5
97
330
91
100
AcDbEntity
  8
Defpoints
 62
     0
100
AcDbPoint
 10
174.4011509406743
 20
219.6663563407817
 30
0.0
  0
ENDBLK
  5
98
330
91
100
AcDbEntity
  8
0
100
AcDbBlockEnd
  0
BLOCK
  5
9A
330
99
100
AcDbEntity
  8
0
100
AcDbBlockBegin
  2
*D3
 70
     1
 10
0.0
 20
0.0
 30
0.0
  3
*D3
  1

  0
LINE
  5
9B
330
99
100
AcDbEntity
  8
DIM
 62
     0
370
    -2
100
AcDbLine
 10
193.931111454033
 20
260.0413863348421
 30
0.0
 11
198.5480426169415
 21
260.0413863348421
 31
0.0
  0
MTEXT
  5
9C
330
99
100
AcDbEntity
  8
DIM
 62
     0
100
AcDbMText
 10
201.9438759502748
 20
260.0413863348421
 30
0.0
 40
1.25
 41
0.0
 71
     5
 72
     1
  1
\A1;40.375
 73
     1
 44
1.0
1001
ACAD
1000
MTEXTBEGIN
1070
    73
1070
     1
1070
    44
1040
1.0
1070
    74
1070
     0
1000
MTEXTEND
  0
POINT
  5
9D
330
99
100
AcDbEntity
  8
Defpoints
 62
     0
100
AcDbPoint
 10
193.556111454033
 20
260.0413863348421
 30
0.0
  0
POINT
  5
9E
330
99
100
AcDbEntity
  8
Defpoints
 62
     0
100
AcDbPoint
 10
198.5480426169415
 20
260.0413863348421
 30
0.0
  0
POINT
  5
9F
330
99
100
AcDbEntity
  8
Defpoints
 62
     0
100
AcDbPoint
 10
174.4011509406743
 20
219.6663563407817
 30
0.0
  0
ENDBLK
  5
A0
330
99
100
AcDbEntity
  8
0
100
AcDbBlockEnd
  0
BLOCK
  5
A2
330
A1
100
AcDbEntity
  8
0
100
AcDbBlockBegin
  2
*D4
 70
     1
 10
0.0
 20
0.0
 30
0.0
  3
*D4
  1

  0
LINE
  5
A3
330
A1
100
AcDbEntity
  8
DIM
 62
     0
370
    -2
100
AcDbLine
 10
193.5579414317195
 20
252.1670883059499
 30
0.0
 11
198.4948034958445
 21
252.1670883059499
 31
0.0
  0
MTEXT
  5
A4
330
A1
100
AcDbEntity
  8
DIM
 62
     0
100
AcDbMText
 10
201.7864701625112
 20
252.1670883059499
 30
0.0
 40
1.25
 41
0.0
 71
     5
 72
     1
  1
\A1;32.500
 73
     1
 44
1.0
1001
ACAD
1000
MTEXTBEGIN
1070
    73
1070
     1
1070
    44
1040
1.0
1070
    74
1070
     0
1000
MTEXTEND
  0
POINT
  5
A5
330
A1
100
AcDbEntity
  8
Defpoints
 62
     0
100
AcDbPoint
 10
193.1829414317195
 20
252.1670883059499
 30
0.0
  0
POINT
  5
A6
330
A1
100
AcDbEntity
  8
Defpoints
 62
     0
100
AcDbPoint
 10
198.4948034958445
 20
252.1670883059499
 30
0.0
  0
POINT
  5
A7
330
A1
100
AcDbEntity
  8
Defpoints
 62
     0
100
AcDbPoint
 10
174.4011509406743
 20
219.6663563407817
 30
0.0
  0
ENDBLK
  5
A8
330
A1
100
AcDbEntity
  8
0
100
AcDbBlockEnd
  0
BLOCK
  5
AA
330
A9
100
AcDbEntity
  8
0
100
AcDbBlockBegin
  2
*D5
 70
     1
 10
0.0
 20
0.0
 30
0.0
  3
*D5
  1

  0
LINE
  5
AB
330
A9
100
AcDbEntity
  8
DIM
 62
     0
370
    -2
100
AcDbLine
 10
193.431611454033
 20
222.7913863348418
 30
0.0
 11
193.431611454033
 21
220.6587114245536
 31
0.0
  0
LINE
  5
AC
330
A9
100
AcDbEntity
  8
DIM
 62
     0
370
    -2
100
AcDbLine
 10
193.431611454033
 20
220.6587114245536
 30
0.0
 11
191.8849419945259
 21
218.1587114245537
 31
0.0
  0
LINE
  5
AD
330
A9
100
AcDbEntity
  8
DIM
 62
     0
370
    -2
100
AcDbLine
 10
191.8849419945259
 20
218.1587114245537
 30
0.0
 11
191.8849419945259
 21
215.6587114245537
 31
0.0
  0
MTEXT
  5
AE
330
A9
100
AcDbEntity
  8
DIM
 62
     0
100
AcDbMText
 10
191.8849419945259
 20
212.5753780912204
 30
0.0
 40
1.25
 41
0.0
 71
     5
 72
     1
  1
\A1;19.030
 11
0.0000000000000001
 21
1.0
 31
0.0
 73
     1
 44
1.0
1001
ACAD
1000
MTEXTBEGIN
1070
    73
1070
     1
1070
    44
1040
1.0
1070
    74
1070
     0
1000
MTEXTEND
  0
POINT
  5
AF
330
A9
100
AcDbEntity
  8
Defpoints
 62
     0
100
AcDbPoint
 10
193.431611454033
 20
223.1663863348418
 30
0.0
  0
POINT
  5
B0
330
A9
100
AcDbEntity
  8
Defpoints
 62
     0
100
AcDbPoint
 10
191.8849419945259
 20
215.6587114245537
 30
0.0
  0
POINT
  5
B1
330
A9
100
AcDbEntity
  8
Defpoints
 62
     0
100
AcDbPoint
 10
174.4011509406743
 20
219.6663563407817
 30
0.0
  0
ENDBLK
  5
B2
330
A9
100
AcDbEntity
  8
0
100
AcDbBlockEnd
  0
BLOCK
  5
B4
330
B3
100
AcDbEntity
  8
0
100
AcDbBlockBegin
  2
*D6
 70
     1
 10
0.0
 20
0.0
 30
0.0
  3
*D6
  1

  0
LINE
  5
B5
330
B3
100
AcDbEntity
  8
DIM
 62
     0
370
    -2
100
AcDbLine
 10
189.431611454033
 20
235.2913863348418
 30
0.0
 11
189.431611454033
 21
215.5877529647316
 31
0.0
  0
MTEXT
  5
B6
330
B3
100
AcDbEntity
  8
DIM
 62
     0
100
AcDbMText
 10
189.4316114540329
 20
212.5044196313983
 30
0.0
 40
1.25
 41
0.0
 71
     5
 72
     1
  1
\A1;15.030
 11
0.0000000000000001
 21
1.0
 31
0.0
 73
     1
 44
1.0
1001
ACAD
1000
MTEXTBEGIN
1070
    73
1070
     1
1070
    44
1040
1.0
1070
    74
1070
     0
1000
MTEXTEND
  0
POINT
  5
B7
330
B3
100
AcDbEntity
  8
Defpoints
 62
     0
100
AcDbPoint
 10
189.431611454033
 20
235.6663863348418
 30
0.0
  0
POINT
  5
B8
330
B3
100
AcDbEntity
  8
Defpoints
 62
     0
100
AcDbPoint
 10
189.431611454033
 20
215.5877529647316
 30
0.0
  0
POINT
  5
B9
330
B3
100
AcDbEntity
  8
Defpoints
 62
     0
100
AcDbPoint
 10
174.4011509406743
 20
219.6663563407817
 30
0.0
  0
ENDBLK
  5
BA
330
B3
100
AcDbEntity
  8
0
100
AcDbBlockEnd
  0
BLOCK
  5
BC
330
BB
100
AcDbEntity
  8
0
100
AcDbBlockBegin
  2
*D7
 70
     1
 10
0.0
 20
0.0
 30
0.0
  3
*D7
  1

  0
LINE
  5
BD
330
BB
100
AcDbEntity
  8
DIM
 62
     0
370
    -2
100
AcDbLine
 10
194.4611114540329
 20
219.2913863348419
 30
0.0
 11
194.4611114540329
 21
215.6587114245537
 31
0.0
  0
MTEXT
  5
BE
330
BB
100
AcDbEntity
  8
DIM
 62
     0
100
AcDbMText
 10
194.4611114540328
 20
212.4712114245537
 30
0.0
 40
1.25
 41
0.0
 71
     5
 72
     1
  1
\A1;20.060
 11
0.0000000000000001
 21
1.0
 31
0.0
 73
     1
 44
1.0
1001
ACAD
1000
MTEXTBEGIN
1070
    73
1070
     1
1070
    44
1040
1.0
1070
    74
1070
     0
1000
MTEXTEND
  0
POINT
  5
BF
330
BB
100
AcDbEntity
  8
Defpoints
 62
     0
100
AcDbPoint
 10
194.4611114540329
 20
219.6663863348419
 30
0.0
  0
POINT
  5
C0
330
BB
100
AcDbEntity
  8
Defpoints
 62
     0
100
AcDbPoint
 10
194.4611114540329
 20
215.6587114245537
 30
0.0
  0
POINT
  5
C1
330
BB
100
AcDbEntity
  8
Defpoints
 62
     0
100
AcDbPoint
 10
174.4011509406743
 20
219.6663563407817
 30
0.0
  0
ENDBLK
  5
C2
330
BB
100
AcDbEntity
  8
0
100
AcDbBlockEnd
  0
BLOCK
  5
C4
330
C3
100
AcDbEntity
  8
0
100
AcDbBlockBegin
  2
*D8
 70
     1
 10
0.0
 20
0.0
 30
0.0
  3
*D8
  1

  0
LINE
  5
C5
330
C3
100
AcDbEntity
  8
DIM
 62
     0
370
    -2
100
AcDbLine
 10
188.7126114540329
 20
275.1333863348369
 30
0.0
 11
188.7126114540329
 21
279.6645683333212
 31
0.0
  0
MTEXT
  5
C6
330
C3
100
AcDbEntity
  8
DIM
 62
     0
100
AcDbMText
 10
188.7126114540328
 20
282.5395683333212
 30
0.0
 40
1.25
 41
0.0
 71
     5
 72
     1
  1
\A1;14.311
 11
0.0000000000000001
 21
1.0
 31
0.0
 73
     1
 44
1.0
1001
ACAD
1000
MTEXTBEGIN
1070
    73
1070
     1
1070
    44
1040
1.0
1070
    74
1070
     0
1000
MTEXTEND
  0
POINT
  5
C7
330
C3
100
AcDbEntity
  8
Defpoints
 62
     0
100
AcDbPoint
 10
188.7126114540329
 20
274.7583863348369
 30
0.0
  0
POINT
  5
C8
330
C3
100
AcDbEntity
  8
Defpoints
 62
     0
100
AcDbPoint
 10
188.7126114540329
 20
279.6645683333212
 30
0.0
  0
POINT
  5
C9
330
C3
100
AcDbEntity
  8
Defpoints
 62
     0
100
AcDbPoint
 10
174.4011509406743
 20
219.6663563407817
 30
0.0
  0
ENDBLK
  5
CA
330
C3
100
AcDbEntity
  8
0
100
AcDbBlockEnd
  0
BLOCK
  5
CC
330
CB
100
AcDbEntity
  8
0
100
AcDbBlockBegin
  2
*D9
 70
     1
 10
0.0
 20
0.0
 30
0.0
  3
*D9
  1

  0
LINE
  5
CD
330
CB
100
AcDbEntity
  8
DIM
 62
     0
370
    -2
100
AcDbLine
 10
180.150111454033
 20
275.1333863348412
 30
0.0
 11
180.150111454033
 21
279.6645683333212
 31
0.0
  0
MTEXT
  5
CE
330
CB
100
AcDbEntity
  8
DIM
 62
     0
100
AcDbMText
 10
180.150111454033
 20
282.5395683333212
 30
0.0
 40
1.25
 41
0.0
 71
     5
 72
     1
  1
\A1;5.749
 11
0.0000000000000001
 21
1.0
 31
0.0
 73
     1
 44
1.0
1001
ACAD
1000
MTEXTBEGIN
1070
    73
1070
     1
1070
    44
1040
1.0
1070
    74
1070
     0
1000
MTEXTEND
  0
POINT
  5
CF
330
CB
100
AcDbEntity
  8
Defpoints
 62
     0
100
AcDbPoint
 10
180.150111454033
 20
274.7583863348412
 30
0.0
  0
POINT
  5
D0
330
CB
100
AcDbEntity
  8
Defpoints
 62
     0
100
AcDbPoint
 10
180.150111454033
 20
279.6645683333212
 30
0.0
  0
POINT
  5
D1
330
CB
100
AcDbEntity
  8
Defpoints
 62
     0
100
AcDbPoint
 10
174.4011509406743
 20
219.6663563407817
 30
0.0
  0
ENDBLK
  5
D2
330
CB
100
AcDbEntity
  8
0
100
AcDbBlockEnd
  0
BLOCK
  5
D4
330
D3
100
AcDbEntity
  8
0
100
AcDbBlockBegin
  2
*D10
 70
     1
 10
0.0
 20
0.0
 30
0.0
  3
*D10
  1

  0
LINE
  5
D5
330
D3
100
AcDbEntity
  8
DIM
 62
     0
370
    -2
100
AcDbLine
 10
193.4316114540328
 20
273.0413863348412
 30
0.0
 11
193.4316114540328
 21
279.6645683333212
 31
0.0
  0
MTEXT
  5
D6
330
D3
100
AcDbEntity
  8
DIM
 62
     0
100
AcDbMText
 10
193.4316114540328
 20
282.7479016666546
 30
0.0
 40
1.25
 41
0.0
 71
     5
 72
     1
  1
\A1;19.030
 11
0.0000000000000001
 21
1.0
 31
0.0
 73
     1
 44
1.0
1001
ACAD
1000
MTEXTBEGIN
1070
    73
1070
     1
1070
    44
1040
1.0
1070
    74
1070
     0
1000
MTEXTEND
  0
POINT
  5
D7
330
D3
100
AcDbEntity
  8
Defpoints
 62
     0
100
AcDbPoint
 10
193.4316114540328
 20
272.6663863348412
 30
0.0
  0
POINT
  5
D8
330
D3
100
AcDbEntity
  8
Defpoints
 62
     0
100
AcDbPoint
 10
193.4316114540328
 20
279.6645683333212
 30
0.0
  0
POINT
  5
D9
330
D3
100
AcDbEntity
  8
Defpoints
 62
     0
100
AcDbPoint
 10
174.4011509406743
 20
219.6663563407817
 30
0.0
  0
ENDBLK
  5
DA
330
D3
100
AcDbEntity
  8
0
100
AcDbBlockEnd
  0
BLOCK
  5
DC
330
DB
100
AcDbEntity
  8
0
100
AcDbBlockBegin
  2
*D11
 70
     1
 10
0.0
 20
0.0
 30
0.0
  3
*D11
  1

  0
LINE
  5
DD
330
DB
100
AcDbEntity
  8
DIM
 62
     0
370
    -2
100
AcDbLine
 10
189.0876114540329
 20
270.1333863348413
 30
0.0
 11
198.4592184003736
 21
270.1333863348413
 31
0.0
  0
MTEXT
  5
DE
330
DB
100
AcDbEntity
  8
DIM
 62
     0
100
AcDbMText
 10
201.8550517337069
 20
270.1333863348413
 30
0.0
 40
1.25
 41
0.0
 71
     5
 72
     1
  1
\A1;50.467
 73
     1
 44
1.0
1001
ACAD
1000
MTEXTBEGIN
1070
    73
1070
     1
1070
    44
1040
1.0
1070
    74
1070
     0
1000
MTEXTEND
  0
POINT
  5
DF
330
DB
100
AcDbEntity
  8
Defpoints
 62
     0
100
AcDbPoint
 10
188.7126114540329
 20
270.1333863348413
 30
0.0
  0
POINT
  5
E0
330
DB
100
AcDbEntity
  8
Defpoints
 62
     0
100
AcDbPoint
 10
198.4592184003736
 20
270.1333863348413
 30
0.0
  0
POINT
  5
E1
330
DB
100
AcDbEntity
  8
Defpoints
 62
     0
100
AcDbPoint
 10
174.4011509406743
 20
219.6663563407817
 30
0.0
  0
ENDBLK
  5
E2
330
DB
100
AcDbEntity
  8
0
100
AcDbBlockEnd
  0
BLOCK
  5
E4
330
E3
100
AcDbEntity
  8
0
100
AcDbBlockBegin
  2
*D12
 70
     1
 10
0.0
 20
0.0
 30
0.0
  3
*D12
  1

  0
LINE
  5
E5
330
E3
100
AcDbEntity
  8
DIM
 62
     0
370
    -2
100
AcDbLine
 10
189.0876114540329
 20
274.7583863348369
 30
0.0
 11
198.4592184003736
 21
274.7583863348369
 31
0.0
  0
MTEXT
  5
E6
330
E3
100
AcDbEntity
  8
DIM
 62
     0
100
AcDbMText
 10
201.8550517337069
 20
274.7583863348369
 30
0.0
 40
1.25
 41
0.0
 71
     5
 72
     1
  1
\A1;55.092
 73
     1
 44
1.0
1001
ACAD
1000
MTEXTBEGIN
1070
    73
1070
     1
1070
    44
1040
1.0
1070
    74
1070
     0
1000
MTEXTEND
  0
POINT
  5
E7
330
E3
100
AcDbEntity
  8
Defpoints
 62
     0
100
AcDbPoint
 10
188.7126114540329
 20
274.7583863348369
 30
0.0
  0
POINT
  5
E8
330
E3
100
AcDbEntity
  8
Defpoints
 62
     0
100
AcDbPoint
 10
198.4592184003736
 20
274.7583863348369
 30
0.0
  0
POINT
  5
E9
330
E3
100
AcDbEntity
  8
Defpoints
 62
     0
100
AcDbPoint
 10
174.4011509406743
 20
219.6663563407817
 30
0.0
  0
ENDBLK
  5
EA
330
E3
100
AcDbEntity
  8
0
100
AcDbBlockEnd
  0
BLOCK
  5
EC
330
EB
100
AcDbEntity
  8
0
100
AcDbBlockBegin
  2
*D13
 70
     1
 10
0.0
 20
0.0
 30
0.0
  3
*D13
  1

  0
LINE
  5
ED
330
EB
100
AcDbEntity
  8
DIM
 62
     0
370
    -2
100
AcDbLine
 10
175.0556114540328
 20
263.1663863348414
 30
0.0
 11
170.3020267817062
 21
263.1663863348414
 31
0.0
  0
MTEXT
  5
EE
330
EB
100
AcDbEntity
  8
DIM
 62
     0
100
AcDbMText
 10
167.0103601150395
 20
263.1663863348414
 30
0.0
 40
1.25
 41
0.0
 71
     5
 72
     1
  1
\A1;43.500
 73
     1
 44
1.0
1001
ACAD
1000
MTEXTBEGIN
1070
    73
1070
     1
1070
    44
1040
1.0
1070
    74
1070
     0
1000
MTEXTEND
  0
POINT
  5
EF
330
EB
100
AcDbEntity
  8
Defpoints
 62
     0
100
AcDbPoint
 10
175.4306114540328
 20
263.1663863348414
 30
0.0
  0
POINT
  5
F0
330
EB
100
AcDbEntity
  8
Defpoints
 62
     0
100
AcDbPoint
 10
170.3020267817062
 20
263.1663863348414
 30
0.0
  0
POINT
  5
F1
330
EB
100
AcDbEntity
  8
Defpoints
 62
     0
100
AcDbPoint
 10
174.4011509406743
 20
219.6663563407817
 30
0.0
  0
ENDBLK
  5
F2
330
EB
100
AcDbEntity
  8
0
100
AcDbBlockEnd
  0
BLOCK
  5
F4
330
F3
100
AcDbEntity
  8
0
100
AcDbBlockBegin
  2
*D14
 70
     1
 10
0.0
 20
0.0
 30
0.0
  3
*D14
  1

  0
LINE
  5
F5
330
F3
100
AcDbEntity
  8
DIM
 62
     0
370
    -2
100
AcDbLine
 10
179.0566114540328
 20
253.1663863348418
 30
0.0
 11
170.4142996368798
 21
253.1663863348418
 31
0.0
  0
MTEXT
  5
F6
330
F3
100
AcDbEntity
  8
DIM
 62
     0
100
AcDbMText
 10
167.1226329702131
 20
253.1663863348418
 30
0.0
 40
1.25
 41
0.0
 71
     5
 72
     1
  1
\A1;33.500
 73
     1
 44
1.0
1001
ACAD
1000
MTEXTBEGIN
1070
    73
1070
     1
1070
    44
1040
1.0
1070
    74
1070
     0
1000
MTEXTEND
  0
POINT
  5
F7
330
F3
100
AcDbEntity
  8
Defpoints
 62
     0
100
AcDbPoint
 10
179.4316114540328
 20
253.1663863348418
 30
0.0
  0
POINT
  5
F8
330
F3
100
AcDbEntity
  8
Defpoints
 62
     0
100
AcDbPoint
 10
170.4142996368798
 20
253.1663863348418
 30
0.0
  0
POINT
  5
F9
330
F3
100
AcDbEntity
  8
Defpoints
 62
     0
100
AcDbPoint
 10
174.4011509406743
 20
219.6663563407817
 30
0.0
  0
ENDBLK
  5
FA
330
F3
100
AcDbEntity
  8
0
100
AcDbBlockEnd
  0
BLOCK
  5
FC
330
FB
100
AcDbEntity
  8
0
100
AcDbBlockBegin
  2
*D15
 70
     1
 10
0.0
 20
0.0
 30
0.0
  3
*D15
  1

  0
LINE
  5
FD
330
FB
100
AcDbEntity
  8
DIM
 62
     0
370
    -2
100
AcDbLine
 10
174.0261114540329
 20
275.6663863348418
 30
0.0
 11
170.4549277600254
 21
275.6663863348418
 31
0.0
  0
MTEXT
  5
FE
330
FB
100
AcDbEntity
  8
DIM
 62
     0
100
AcDbMText
 10
167.2674277600254
 20
275.6663863348418
 30
0.0
 40
1.25
 41
0.0
 71
     5
 72
     1
  1
\A1;56.000
 73
     1
 44
1.0
1001
ACAD
1000
MTEXTBEGIN
1070
    73
1070
     1
1070
    44
1040
1.0
1070
    74
1070
     0
1000
MTEXTEND
  0
POINT
  5
FF
330
FB
100
AcDbEntity
  8
Defpoints
 62
     0
100
AcDbPoint
 10
174.4011114540329
 20
275.6663863348418
 30
0.0
  0
POINT
  5
100
330
FB
100
AcDbEntity
  8
Defpoints
 62
     0
100
AcDbPoint
 10
170.4549277600254
 20
275.6663863348418
 30
0.0
  0
POINT
  5
101
330
FB
100
AcDbEntity
  8
Defpoints
 62
     0
100
AcDbPoint
 10
174.4011509406743
 20
219.6663563407817
 30
0.0
  0
ENDBLK
  5
102
330
FB
100
AcDbEntity
  8
0
100
AcDbBlockEnd
  0
BLOCK
  5
104
330
103
100
AcDbEntity
  8
0
100
AcDbBlockBegin
  2
*D16
 70
     1
 10
0.0
 20
0.0
 30
0.0
  3
*D16
  1

  0
LINE
  5
105
330
103
100
AcDbEntity
  8
DIM
 62
     0
370
    -2
100
AcDbLine
 10
175.4306114540328
 20
273.0413863348414
 30
0.0
 11
175.4306114540328
 21
279.6645683333212
 31
0.0
  0
MTEXT
  5
106
330
103
100
AcDbEntity
  8
DIM
 62
     0
100
AcDbMText
 10
175.4306114540328
 20
282.2270683333213
 30
0.0
 40
1.25
 41
0.0
 71
     5
 72
     1
  1
\A1;1.029
 11
0.0000000000000001
 21
1.0
 31
0.0
 73
     1
 44
1.0
1001
ACAD
1000
MTEXTBEGIN
1070
    73
1070
     1
1070
    44
1040
1.0
1070
    74
1070
     0
1000
MTEXTEND
  0
POINT
  5
107
330
103
100
AcDbEntity
  8
Defpoints
 62
     0
100
AcDbPoint
 10
175.4306114540328
 20
272.6663863348414
 30
0.0
  0
POINT
  5
108
330
103
100
AcDbEntity
  8
Defpoints
 62
     0
100
AcDbPoint
 10
175.4306114540328
 20
279.6645683333212
 30
0.0
  0
POINT
  5
109
330
103
100
AcDbEntity
  8
Defpoints
 62
     0
100
AcDbPoint
 10
174.4011509406743
 20
219.6663563407817
 30
0.0
  0
ENDBLK
  5
10A
330
103
100
AcDbEntity
  8
0
100
AcDbBlockEnd
  0
BLOCK
  5
10C
330
10B
100
AcDbEntity
  8
0
100
AcDbBlockBegin
  2
*D17
 70
     1
 10
0.0
 20
0.0
 30
0.0
  3
*D17
  1

  0
LINE
  5
10D
330
10B
100
AcDbEntity
  8
DIM
 62
     0
370
    -2
100
AcDbLine
 10
175.0556114540328
 20
272.6663863348414
 30
0.0
 11
170.3908509982741
 21
272.6663863348414
 31
0.0
  0
MTEXT
  5
10E
330
10B
100
AcDbEntity
  8
DIM
 62
     0
100
AcDbMText
 10
167.2033509982741
 20
272.6663863348414
 30
0.0
 40
1.25
 41
0.0
 71
     5
 72
     1
  1
\A1;53.000
 73
     1
 44
1.0
1001
ACAD
1000
MTEXTBEGIN
1070
    73
1070
     1
1070
    44
1040
1.0
1070
    74
1070
     0
1000
MTEXTEND
  0
POINT
  5
10F
330
10B
100
AcDbEntity
  8
Defpoints
 62
     0
100
AcDbPoint
 10
175.4306114540328
 20
272.6663863348414
 30
0.0
  0
POINT
  5
110
330
10B
100
AcDbEntity
  8
Defpoints
 62
     0
100
AcDbPoint
 10
170.3908509982741
 20
272.6663863348414
 30
0.0
  0
POINT
  5
111
330
10B
100
AcDbEntity
  8
Defpoints
 62
     0
100
AcDbPoint
 10
174.4011509406743
 20
219.6663563407817
 30
0.0
  0
ENDBLK
  5
112
330
10B
100
AcDbEntity
  8
0
100
AcDbBlockEnd
  0
BLOCK
  5
114
330
113
100
AcDbEntity
  8
0
100
AcDbBlockBegin
  2
*D18
 70
     1
 10
0.0
 20
0.0
 30
0.0
  3
*D18
  1

  0
LINE
  5
115
330
113
100
AcDbEntity
  8
DIM
 62
     0
370
    -2
100
AcDbLine
 10
175.4306114540328
 20
222.7913863348418
 30
0.0
 11
175.4306114540328
 21
220.6587114245537
 31
0.0
  0
LINE
  5
116
330
113
100
AcDbEntity
  8
DIM
 62
     0
370
    -2
100
AcDbLine
 10
175.4306114540328
 20
220.6587114245537
 30
0.0
 11
176.9675818119631
 21
218.1587114245537
 31
0.0
  0
LINE
  5
117
330
113
100
AcDbEntity
  8
DIM
 62
     0
370
    -2
100
AcDbLine
 10
176.9675818119631
 20
218.1587114245537
 30
0.0
 11
176.9675818119631
 21
215.6587114245537
 31
0.0
  0
MTEXT
  5
118
330
113
100
AcDbEntity
  8
DIM
 62
     0
100
AcDbMText
 10
176.967581811963
 20
213.0962114245537
 30
0.0
 40
1.25
 41
0.0
 71
     5
 72
     1
  1
\A1;1.029
 11
0.0000000000000001
 21
1.0
 31
0.0
 73
     1
 44
1.0
1001
ACAD
1000
MTEXTBEGIN
1070
    73
1070
     1
1070
    44
1040
1.0
1070
    74
1070
     0
1000
MTEXTEND
  0
POINT
  5
119
330
113
100
AcDbEntity
  8
Defpoints
 62
     0
100
AcDbPoint
 10
175.4306114540328
 20
223.1663863348418
 30
0.0
  0
POINT
  5
11A
330
113
100
AcDbEntity
  8
Defpoints
 62
     0
100
AcDbPoint
 10
176.9675818119631
 20
215.6587114245537
 30
0.0
  0
POINT
  5
11B
330
113
100
AcDbEntity
  8
Defpoints
 62
     0
100
AcDbPoint
 10
174.4011509406743
 20
219.6663563407817
 30
0.0
  0
ENDBLK
  5
11C
330
113
100
AcDbEntity
  8
0
100
AcDbBlockEnd
  0
BLOCK
  5
11E
330
11D
100
AcDbEntity
  8
0
100
AcDbBlockBegin
  2
*D19
 70
     1
 10
0.0
 20
0.0
 30
0.0
  3
*D19
  1

  0
LINE
  5
11F
330
11D
100
AcDbEntity
  8
DIM
 62
     0
370
    -2
100
AcDbLine
 10
179.431611454033
 20
235.2913863348418
 30
0.0
 11
179.431611454033
 21
215.5877529647316
 31
0.0
  0
MTEXT
  5
120
330
11D
100
AcDbEntity
  8
DIM
 62
     0
100
AcDbMText
 10
179.4316114540329
 20
212.921086298065
 30
0.0
 40
1.25
 41
0.0
 71
     5
 72
     1
  1
\A1;5.030
 11
0.0000000000000001
 21
1.0
 31
0.0
 73
     1
 44
1.0
1001
ACAD
1000
MTEXTBEGIN
1070
    73
1070
     1
1070
    44
1040
1.0
1070
    74
1070
     0
1000
MTEXTEND
  0
POINT
  5
121
330
11D
100
AcDbEntity
  8
Defpoints
 62
     0
100
AcDbPoint
 10
179.431611454033
 20
235.6663863348418
 30
0.0
  0
POINT
  5
122
330
11D
100
AcDbEntity
  8
Defpoints
 62
     0
100
AcDbPoint
 10
179.431611454033
 20
215.5877529647316
 30
0.0
  0
POINT
  5
123
330
11D
100
AcDbEntity
  8
Defpoints
 62
     0
100
AcDbPoint
 10
174.4011509406743
 20
219.6663563407817
 30
0.0
  0
ENDBLK
  5
124
330
11D
100
AcDbEntity
  8
0
100
AcDbBlockEnd
  0
BLOCK
  5
126
330
125
100
AcDbEntity
  8
0
100
AcDbBlockBegin
  2
*D20
 70
     1
 10
0.0
 20
0.0
 30
0.0
  3
*D20
  1

  0
LINE
  5
127
330
125
100
AcDbEntity
  8
DIM
 62
     0
370
    -2
100
AcDbLine
 10
174.4011114540329
 20
219.2913863348419
 30
0.0
 11
174.4011114540329
 21
215.6667486588847
 31
0.0
  0
MTEXT
  5
128
330
125
100
AcDbEntity
  8
DIM
 62
     0
100
AcDbMText
 10
174.4011114540328
 20
213.2084153255514
 30
0.0
 40
1.25
 41
0.0
 71
     5
 72
     1
  1
\A1;0.000
 11
0.0000000000000001
 21
1.0
 31
0.0
 73
     1
 44
1.0
1001
ACAD
1000
MTEXTBEGIN
1070
    73
1070
     1
1070
    44
1040
1.0
1070
    74
1070
     0
1000
MTEXTEND
  0
POINT
  5
129
330
125
100
AcDbEntity
  8
Defpoints
 62
     0
100
AcDbPoint
 10
174.4011114540329
 20
219.6663863348419
 30
0.0
  0
POINT
  5
12A
330
125
100
AcDbEntity
  8
Defpoints
 62
     0
100
AcDbPoint
 10
174.4011114540329
 20
215.6667486588847
 30
0.0
  0
POINT
  5
12B
330
125
100
AcDbEntity
  8
Defpoints
 62
     0
100
AcDbPoint
 10
174.4011509406743
 20
219.6663563407817
 30
0.0
  0
ENDBLK
  5
12C
330
125
100
AcDbEntity
  8
0
100
AcDbBlockEnd
  0
BLOCK
  5
12E
330
12D
100
AcDbEntity
  8
0
100
AcDbBlockBegin
  2
*D21
 70
     1
 10
0.0
 20
0.0
 30
0.0
  3
*D21
  1

  0
LINE
  5
12F
330
12D
100
AcDbEntity
  8
DIM
 62
     0
370
    -2
100
AcDbLine
 10
174.0261114540329
 20
219.6663863348419
 30
0.0
 11
170.4152839826815
 21
219.6663863348419
 31
0.0
  0
MTEXT
  5
130
330
12D
100
AcDbEntity
  8
DIM
 62
     0
100
AcDbMText
 10
167.9569506493481
 20
219.6663863348419
 30
0.0
 40
1.25
 41
0.0
 71
     5
 72
     1
  1
\A1;0.000
 73
     1
 44
1.0
1001
ACAD
1000
MTEXTBEGIN
1070
    73
1070
     1
1070
    44
1040
1.0
1070
    74
1070
     0
1000
MTEXTEND
  0
POINT
  5
131
330
12D
100
AcDbEntity
  8
Defpoints
 62
     0
100
AcDbPoint
 10
174.4011114540329
 20
219.6663863348419
 30
0.0
  0
POINT
  5
132
330
12D
100
AcDbEntity
  8
Defpoints
 62
     0
100
AcDbPoint
 10
170.4152839826815
 20
219.6663863348419
 30
0.0
  0
POINT
  5
133
330
12D
100
AcDbEntity
  8
Defpoints
 62
     0
100
AcDbPoint
 10
174.4011509406743
 20
219.6663563407817
 30
0.0
  0
ENDBLK
  5
134
330
12D
100
AcDbEntity
  8
0
100
AcDbBlockEnd
  0
BLOCK
  5
136
330
135
100
AcDbEntity
  8
0
100
AcDbBlockBegin
  2
*D22
 70
     1
 10
0.0
 20
0.0
 30
0.0
  3
*D22
  1

  0
LINE
  5
137
330
135
100
AcDbEntity
  8
DIM
 62
     0
370
    -2
100
AcDbLine
 10
179.056611454033
 20
235.6663863348418
 30
0.0
 11
170.4323575769242
 21
235.6663863348418
 31
0.0
  0
MTEXT
  5
138
330
135
100
AcDbEntity
  8
DIM
 62
     0
100
AcDbMText
 10
167.4531909102575
 20
235.6663863348418
 30
0.0
 40
1.25
 41
0.0
 71
     5
 72
     1
  1
\A1;16.000
 73
     1
 44
1.0
1001
ACAD
1000
MTEXTBEGIN
1070
    73
1070
     1
1070
    44
1040
1.0
1070
    74
1070
     0
1000
MTEXTEND
  0
POINT
  5
139
330
135
100
AcDbEntity
  8
Defpoints
 62
     0
100
AcDbPoint
 10
179.431611454033
 20
235.6663863348418
 30
0.0
  0
POINT
  5
13A
330
135
100
AcDbEntity
  8
Defpoints
 62
     0
100
AcDbPoint
 10
170.4323575769242
 20
235.6663863348418
 30
0.0
  0
POINT
  5
13B
330
135
100
AcDbEntity
  8
Defpoints
 62
     0
100
AcDbPoint
 10
174.4011509406743
 20
219.6663563407817
 30
0.0
  0
ENDBLK
  5
13C
330
135
100
AcDbEntity
  8
0
100
AcDbBlockEnd
  0
BLOCK
  5
13E
330
13D
100
AcDbEntity
  8
0
100
AcDbBlockBegin
  2
*D23
 70
     1
 10
0.0
 20
0.0
 30
0.0
  3
*D23
  1

  0
LINE
  5
13F
330
13D
100
AcDbEntity
  8
DIM
 62
     0
370
    -2
100
AcDbLine
 10
175.0556114540328
 20
223.1663863348418
 30
0.0
 11
170.4152839826815
 21
223.1663863348418
 31
0.0
  0
MTEXT
  5
140
330
13D
100
AcDbEntity
  8
DIM
 62
     0
100
AcDbMText
 10
167.7486173160148
 20
223.1663863348418
 30
0.0
 40
1.25
 41
0.0
 71
     5
 72
     1
  1
\A1;3.500
 73
     1
 44
1.0
1001
ACAD
1000
MTEXTBEGIN
1070
    73
1070
     1
1070
    44
1040
1.0
1070
    74
1070
     0
1000
MTEXTEND
  0
POINT
  5
141
330
13D
100
AcDbEntity
  8
Defpoints
 62
     0
100
AcDbPoint
 10
175.4306114540328
 20
223.1663863348418
 30
0.0
  0
POINT
  5
142
330
13D
100
AcDbEntity
  8
Defpoints
 62
     0
100
AcDbPoint
 10
170.4152839826815
 20
223.1663863348418
 30
0.0
  0
POINT
  5
143
330
13D
100
AcDbEntity
  8
Defpoints
 62
     0
100
AcDbPoint
 10
174.4011509406743
 20
219.6663563407817
 30
0.0
  0
ENDBLK
  5
144
330
13D
100
AcDbEntity
  8
0
100
AcDbBlockEnd
  0
BLOCK
  5
146
330
145
100
AcDbEntity
  8
0
100
AcDbBlockBegin
  2
*D24
 70
     1
 10
0.0
 20
0.0
 30
0.0
  3
*D24
  1

  0
LINE
  5
147
330
145
100
AcDbEntity
  8
DIM
 62
     0
370
    -2
100
AcDbLine
 10
193.5579414317195
 20
250.6670883059499
 30
0.0
 11
198.4948034958445
 21
250.6670883059499
 31
0.0
  0
MTEXT
  5
148
330
145
100
AcDbEntity
  8
DIM
 62
     0
100
AcDbMText
 10
201.4739701625112
 20
250.6670883059499
 30
0.0
 40
1.25
 41
0.0
 71
     5
 72
     1
  1
\A1;31.000
 73
     1
 44
1.0
1001
ACAD
1000
MTEXTBEGIN
1070
    73
1070
     1
1070
    44
1040
1.0
1070
    74
1070
     0
1000
MTEXTEND
  0
POINT
  5
149
330
145
100
AcDbEntity
  8
Defpoints
 62
     0
100
AcDbPoint
 10
193.1829414317195
 20
250.6670883059499
 30
0.0
  0
POINT
  5
14A
330
145
100
AcDbEntity
  8
Defpoints
 62
     0
100
AcDbPoint
 10
198.4948034958445
 20
250.6670883059499
 30
0.0
  0
POINT
  5
14B
330
145
100
AcDbEntity
  8
Defpoints
 62
     0
100
AcDbPoint
 10
174.4011509406743
 20
218.1663563407817
 30
0.0
  0
ENDBLK
  5
14C
330
145
100
AcDbEntity
  8
0
100
AcDbBlockEnd
  0
BLOCK
  5
14E
330
14D
100
AcDbEntity
  8
0
100
AcDbBlockBegin
  2
*D25
 70
     1
 10
0.0
 20
0.0
 30
0.0
  3
*D25
  1

  0
LINE
  5
14F
330
14D
100
AcDbEntity
  8
0
 62
     0
370
    -2
100
AcDbLine
 10
198.4371212523623
 20
246.8120005293501
 30
0.0
 11
197.187121252362
 21
246.8120005293501
 31
0.0
  0
LINE
  5
150
330
14D
100
AcDbEntity
  8
0
 62
     0
370
    -2
100
AcDbLine
 10
197.187121252362
 20
246.8120005293501
 30
0.0
 11
194.5336748220439
 21
249.3666482618638
 31
0.0
  0
MTEXT
  5
151
330
14D
100
AcDbEntity
  8
0
 62
     0
100
AcDbMText
 10
211.103787919029
 20
246.81200052935
 30
0.0
 40
1.25
 41
0.0
 71
     5
 72
     1
  1
\A1;%%C 1.250 (1) OPTIONAL\PEXTERNAL HEAT OUTPUT
 73
     1
 44
1.0
1001
ACAD
1000
MTEXTBEGIN
1070
    73
1070
     1
1070
    44
1040
1.0
1070
    74
1070
     0
1000
MTEXTEND
  0
SOLID
  5
152
330
14D
100
AcDbEntity
  8
0
 62
     0
100
AcDbTrace
 10
194.6781681602756
 20
249.5167297496776
 30
0.0
 11
194.3891814838121
 21
249.21656677405
 31
0.0
 12
193.633185895161
 22
250.2336082912546
 32
0.0
 13
193.633185895161
 23
250.2336082912546
 33
0.0
  0
LINE
  5
153
330
14D
100
AcDbEntity
  8
0
 62
     0
370
    -2
100
AcDbLine
 10
193.0929414317195
 20
250.6670883059499
 30
0.0
 11
193.2729414317195
 21
250.66708830595
 31
0.0
  0
LINE
  5
154
330
14D
100
AcDbEntity
  8
0
 62
     0
370
    -2
100
AcDbLine
 10
193.1829414317195
 20
250.57708830595
 30
0.0
 11
193.1829414317195
 21
250.75708830595
 31
0.0
  0
POINT
  5
155
330
14D
100
AcDbEntity
  8
Defpoints
 62
     0
100
AcDbPoint
 10
193.633185895161
 20
250.2336082912546
 30
0.0
  0
POINT
  5
156
330
14D
100
AcDbEntity
  8
Defpoints
 62
     0
100
AcDbPoint
 10
192.732696968278
 20
251.1005683206453
 30
0.0
  0
ENDBLK
  5
157
330
14D
100
AcDbEntity
  8
0
100
AcDbBlockEnd
  0
BLOCK
  5
479
330
470
100
AcDbEntity
  8
0
100
AcDbBlockBegin
  2
*D26
 70
     1
 10
0.0
 20
0.0
 30
0.0
  3
*D26
  1

  0
LINE
  5
98D
330
470
100
AcDbEntity
  8
0
 62
     0
370
    -2
100
AcDbLine
 10
204.8253095358102
 20
53.74024359312679
 30
0.0
 11
203.2903095358101
 21
53.74024359312681
 31
0.0
  0
LINE
  5
98E
330
470
100
AcDbEntity
  8
0
 62
     0
370
    -2
100
AcDbLine
 10
203.2903095358101
 20
53.74024359312681
 30
0.0
 11
200.6368631054918
 21
56.29489132564065
 31
0.0
  0
MTEXT
  5
98F
330
470
100
AcDbEntity
  8
0
 62
     0
100
AcDbMText
 10
217.2069762024768
 20
53.74024359312679
 30
0.0
 40
1.25
 41
0.0
 71
     5
 72
     1
  1
\A1;%%C 1.250 (1) OPTIONAL\PEXTERNAL HEAT OUTPUT
 73
     1
 44
1.0
1001
ACAD
1000
MTEXTBEGIN
1070
    73
1070
     1
1070
    44
1040
1.0
1070
    74
1070
     0
1000
MTEXTEND
  0
SOLID
  5
990
330
470
100
AcDbEntity
  8
0
 62
     0
100
AcDbTrace
 10
200.7813564437236
 20
56.44497281345447
 30
0.0
 11
200.49236976726
 21
56.1448098378268
 31
0.0
 12
199.7363741786088
 22
57.16185135503137
 32
0.0
 13
199.7363741786088
 23
57.16185135503137
 33
0.0
  0
LINE
  5
991
330
470
100
AcDbEntity
  8
0
 62
     0
370
    -2
100
AcDbLine
 10
199.1961297151672
 20
57.59533136972675
 30
0.0
 11
199.3761297151673
 21
57.59533136972676
 31
0.0
  0
LINE
  5
992
330
470
100
AcDbEntity
  8
0
 62
     0
370
    -2
100
AcDbLine
 10
199.2861297151673
 20
57.50533136972676
 30
0.0
 11
199.2861297151673
 21
57.68533136972672
 31
0.0
  0
POINT
  5
993
330
470
100
AcDbEntity
  8
Defpoints
 62
     0
100
AcDbPoint
 10
199.7363741786088
 20
57.16185135503137
 30
0.0
  0
POINT
  5
994
330
470
100
AcDbEntity
  8
Defpoints
 62
     0
100
AcDbPoint
 10
198.8358852517258
 20
58.02881138442213
 30
0.0
  0
ENDBLK
  5
47A
330
470
100
AcDbEntity
  8
0
100
AcDbBlockEnd
  0
BLOCK
  5
481
330
47B
100
AcDbEntity
  8
0
100
AcDbBlockBegin
  2
*D27
 70
     1
 10
0.0
 20
0.0
 30
0.0
  3
*D27
  1

  0
LINE
  5
988
330
47B
100
AcDbEntity
  8
DIM
 62
     0
370
    -2
100
AcDbLine
 10
199.6611297151673
 20
57.5953313697267
 30
0.0
 11
204.5979917792923
 21
57.5953313697267
 31
0.0
  0
MTEXT
  5
989
330
47B
100
AcDbEntity
  8
DIM
 62
     0
100
AcDbMText
 10
207.577158445959
 20
57.5953313697267
 30
0.0
 40
1.25
 41
0.0
 71
     5
 72
     1
  1
\A1;31.000
 73
     1
 44
1.0
1001
ACAD
1000
MTEXTBEGIN
1070
    73
1070
     1
1070
    44
1040
1.0
1070
    74
1070
     0
1000
MTEXTEND
  0
POINT
  5
98A
330
47B
100
AcDbEntity
  8
Defpoints
 62
     0
100
AcDbPoint
 10
199.2861297151673
 20
57.5953313697267
 30
0.0
  0
POINT
  5
98B
330
47B
100
AcDbEntity
  8
Defpoints
 62
     0
100
AcDbPoint
 10
204.5979917792923
 20
57.5953313697267
 30
0.0
  0
POINT
  5
98C
330
47B
100
AcDbEntity
  8
Defpoints
 62
     0
100
AcDbPoint
 10
180.5043392241221
 20
25.09459940455848
 30
0.0
  0
ENDBLK
  5
482
330
47B
100
AcDbEntity
  8
0
100
AcDbBlockEnd
  0
BLOCK
  5
489
330
483
100
AcDbEntity
  8
0
100
AcDbBlockBegin
  2
*D28
 70
     1
 10
0.0
 20
0.0
 30
0.0
  3
*D28
  1

  0
LINE
  5
933
330
483
100
AcDbEntity
  8
DIM
 62
     0
370
    -2
100
AcDbLine
 10
181.1587997374806
 20
30.09462939861861
 30
0.0
 11
176.5184722661293
 21
30.09462939861861
 31
0.0
  0
MTEXT
  5
934
330
483
100
AcDbEntity
  8
DIM
 62
     0
100
AcDbMText
 10
173.8518055994626
 20
30.09462939861861
 30
0.0
 40
1.25
 41
0.0
 71
     5
 72
     1
  1
\A1;3.500
 73
     1
 44
1.0
1001
ACAD
1000
MTEXTBEGIN
1070
    73
1070
     1
1070
    44
1040
1.0
1070
    74
1070
     0
1000
MTEXTEND
  0
POINT
  5
935
330
483
100
AcDbEntity
  8
Defpoints
 62
     0
100
AcDbPoint
 10
181.5337997374806
 20
30.09462939861861
 30
0.0
  0
POINT
  5
936
330
483
100
AcDbEntity
  8
Defpoints
 62
     0
100
AcDbPoint
 10
176.5184722661293
 20
30.09462939861861
 30
0.0
  0
POINT
  5
937
330
483
100
AcDbEntity
  8
Defpoints
 62
     0
100
AcDbPoint
 10
180.5043392241221
 20
26.59459940455848
 30
0.0
  0
ENDBLK
  5
48A
330
483
100
AcDbEntity
  8
0
100
AcDbBlockEnd
  0
BLOCK
  5
491
330
48B
100
AcDbEntity
  8
0
100
AcDbBlockBegin
  2
*D29
 70
     1
 10
0.0
 20
0.0
 30
0.0
  3
*D29
  1

  0
LINE
  5
983
330
48B
100
AcDbEntity
  8
DIM
 62
     0
370
    -2
100
AcDbLine
 10
185.1597997374808
 20
42.59462939861861
 30
0.0
 11
176.535545860372
 21
42.59462939861861
 31
0.0
  0
MTEXT
  5
984
330
48B
100
AcDbEntity
  8
DIM
 62
     0
100
AcDbMText
 10
173.5563791937053
 20
42.59462939861861
 30
0.0
 40
1.25
 41
0.0
 71
     5
 72
     1
  1
\A1;16.000
 73
     1
 44
1.0
1001
ACAD
1000
MTEXTBEGIN
1070
    73
1070
     1
1070
    44
1040
1.0
1070
    74
1070
     0
1000
MTEXTEND
  0
POINT
  5
985
330
48B
100
AcDbEntity
  8
Defpoints
 62
     0
100
AcDbPoint
 10
185.5347997374808
 20
42.59462939861861
 30
0.0
  0
POINT
  5
986
330
48B
100
AcDbEntity
  8
Defpoints
 62
     0
100
AcDbPoint
 10
176.535545860372
 20
42.59462939861861
 30
0.0
  0
POINT
  5
987
330
48B
100
AcDbEntity
  8
Defpoints
 62
     0
100
AcDbPoint
 10
180.5043392241221
 20
26.59459940455848
 30
0.0
  0
ENDBLK
  5
492
330
48B
100
AcDbEntity
  8
0
100
AcDbBlockEnd
  0
BLOCK
  5
499
330
493
100
AcDbEntity
  8
0
100
AcDbBlockBegin
  2
*D30
 70
     1
 10
0.0
 20
0.0
 30
0.0
  3
*D30
  1

  0
LINE
  5
938
330
493
100
AcDbEntity
  8
DIM
 62
     0
370
    -2
100
AcDbLine
 10
180.1292997374807
 20
26.59462939861872
 30
0.0
 11
176.5184722661293
 21
26.59462939861872
 31
0.0
  0
MTEXT
  5
939
330
493
100
AcDbEntity
  8
DIM
 62
     0
100
AcDbMText
 10
174.060138932796
 20
26.59462939861872
 30
0.0
 40
1.25
 41
0.0
 71
     5
 72
     1
  1
\A1;0.000
 73
     1
 44
1.0
1001
ACAD
1000
MTEXTBEGIN
1070
    73
1070
     1
1070
    44
1040
1.0
1070
    74
1070
     0
1000
MTEXTEND
  0
POINT
  5
93A
330
493
100
AcDbEntity
  8
Defpoints
 62
     0
100
AcDbPoint
 10
180.5042997374807
 20
26.59462939861872
 30
0.0
  0
POINT
  5
93B
330
493
100
AcDbEntity
  8
Defpoints
 62
     0
100
AcDbPoint
 10
176.5184722661293
 20
26.59462939861872
 30
0.0
  0
POINT
  5
93C
330
493
100
AcDbEntity
  8
Defpoints
 62
     0
100
AcDbPoint
 10
180.5043392241221
 20
26.59459940455848
 30
0.0
  0
ENDBLK
  5
49A
330
493
100
AcDbEntity
  8
0
100
AcDbBlockEnd
  0
BLOCK
  5
4A1
330
49B
100
AcDbEntity
  8
0
100
AcDbBlockBegin
  2
*D31
 70
     1
 10
0.0
 20
0.0
 30
0.0
  3
*D31
  1

  0
LINE
  5
92E
330
49B
100
AcDbEntity
  8
DIM
 62
     0
370
    -2
100
AcDbLine
 10
180.5042997374807
 20
26.21962939861872
 30
0.0
 11
180.5042997374807
 21
22.59499172266151
 31
0.0
  0
MTEXT
  5
92F
330
49B
100
AcDbEntity
  8
DIM
 62
     0
100
AcDbMText
 10
180.5042997374807
 20
20.13665838932821
 30
0.0
 40
1.25
 41
0.0
 71
     5
 72
     1
  1
\A1;0.000
 11
0.0000000000000001
 21
1.0
 31
0.0
 73
     1
 44
1.0
1001
ACAD
1000
MTEXTBEGIN
1070
    73
1070
     1
1070
    44
1040
1.0
1070
    74
1070
     0
1000
MTEXTEND
  0
POINT
  5
930
330
49B
100
AcDbEntity
  8
Defpoints
 62
     0
100
AcDbPoint
 10
180.5042997374807
 20
26.59462939861872
 30
0.0
  0
POINT
  5
931
330
49B
100
AcDbEntity
  8
Defpoints
 62
     0
100
AcDbPoint
 10
180.5042997374807
 20
22.59499172266151
 30
0.0
  0
POINT
  5
932
330
49B
100
AcDbEntity
  8
Defpoints
 62
     0
100
AcDbPoint
 10
180.5043392241221
 20
26.59459940455848
 30
0.0
  0
ENDBLK
  5
4A2
330
49B
100
AcDbEntity
  8
0
100
AcDbBlockEnd
  0
BLOCK
  5
4A9
330
4A3
100
AcDbEntity
  8
0
100
AcDbBlockBegin
  2
*D32
 70
     1
 10
0.0
 20
0.0
 30
0.0
  3
*D32
  1

  0
LINE
  5
929
330
4A3
100
AcDbEntity
  8
DIM
 62
     0
370
    -2
100
AcDbLine
 10
185.5347997374808
 20
42.2196293986186
 30
0.0
 11
185.5347997374808
 21
22.51599602850841
 31
0.0
  0
MTEXT
  5
92A
330
4A3
100
AcDbEntity
  8
DIM
 62
     0
100
AcDbMText
 10
185.5347997374808
 20
19.84932936184178
 30
0.0
 40
1.25
 41
0.0
 71
     5
 72
     1
  1
\A1;5.030
 11
0.0000000000000001
 21
1.0
 31
0.0
 73
     1
 44
1.0
1001
ACAD
1000
MTEXTBEGIN
1070
    73
1070
     1
1070
    44
1040
1.0
1070
    74
1070
     0
1000
MTEXTEND
  0
POINT
  5
92B
330
4A3
100
AcDbEntity
  8
Defpoints
 62
     0
100
AcDbPoint
 10
185.5347997374808
 20
42.59462939861861
 30
0.0
  0
POINT
  5
92C
330
4A3
100
AcDbEntity
  8
Defpoints
 62
     0
100
AcDbPoint
 10
185.5347997374808
 20
22.51599602850841
 30
0.0
  0
POINT
  5
92D
330
4A3
100
AcDbEntity
  8
Defpoints
 62
     0
100
AcDbPoint
 10
180.5043392241221
 20
26.59459940455848
 30
0.0
  0
ENDBLK
  5
4AA
330
4A3
100
AcDbEntity
  8
0
100
AcDbBlockEnd
  0
BLOCK
  5
4B3
330
4AB
100
AcDbEntity
  8
0
100
AcDbBlockBegin
  2
*D33
 70
     1
 10
0.0
 20
0.0
 30
0.0
  3
*D33
  1

  0
LINE
  5
922
330
4AB
100
AcDbEntity
  8
DIM
 62
     0
370
    -2
100
AcDbLine
 10
181.5337997374806
 20
29.71962939861861
 30
0.0
 11
181.5337997374806
 21
27.58695448833048
 31
0.0
  0
LINE
  5
923
330
4AB
100
AcDbEntity
  8
DIM
 62
     0
370
    -2
100
AcDbLine
 10
181.5337997374806
 20
27.58695448833048
 30
0.0
 11
183.0707700954109
 21
25.08695448833048
 31
0.0
  0
LINE
  5
924
330
4AB
100
AcDbEntity
  8
DIM
 62
     0
370
    -2
100
AcDbLine
 10
183.0707700954109
 20
25.08695448833048
 30
0.0
 11
183.0707700954109
 21
22.58695448833048
 31
0.0
  0
MTEXT
  5
925
330
4AB
100
AcDbEntity
  8
DIM
 62
     0
100
AcDbMText
 10
183.0707700954109
 20
20.0244544883305
 30
0.0
 40
1.25
 41
0.0
 71
     5
 72
     1
  1
\A1;1.029
 11
0.0000000000000001
 21
1.0
 31
0.0
 73
     1
 44
1.0
1001
ACAD
1000
MTEXTBEGIN
1070
    73
1070
     1
1070
    44
1040
1.0
1070
    74
1070
     0
1000
MTEXTEND
  0
POINT
  5
926
330
4AB
100
AcDbEntity
  8
Defpoints
 62
     0
100
AcDbPoint
 10
181.5337997374806
 20
30.09462939861861
 30
0.0
  0
POINT
  5
927
330
4AB
100
AcDbEntity
  8
Defpoints
 62
     0
100
AcDbPoint
 10
183.0707700954109
 20
22.58695448833048
 30
0.0
  0
POINT
  5
928
330
4AB
100
AcDbEntity
  8
Defpoints
 62
     0
100
AcDbPoint
 10
180.5043392241221
 20
26.59459940455848
 30
0.0
  0
ENDBLK
  5
4B4
330
4AB
100
AcDbEntity
  8
0
100
AcDbBlockEnd
  0
BLOCK
  5
4BB
330
4B5
100
AcDbEntity
  8
0
100
AcDbBlockBegin
  2
*D34
 70
     1
 10
0.0
 20
0.0
 30
0.0
  3
*D34
  1

  0
LINE
  5
97E
330
4B5
100
AcDbEntity
  8
DIM
 62
     0
370
    -2
100
AcDbLine
 10
181.1587997374806
 20
79.59462939861822
 30
0.0
 11
176.4940392817219
 21
79.59462939861822
 31
0.0
  0
MTEXT
  5
97F
330
4B5
100
AcDbEntity
  8
DIM
 62
     0
100
AcDbMText
 10
173.3065392817219
 20
79.59462939861822
 30
0.0
 40
1.25
 41
0.0
 71
     5
 72
     1
  1
\A1;53.000
 73
     1
 44
1.0
1001
ACAD
1000
MTEXTBEGIN
1070
    73
1070
     1
1070
    44
1040
1.0
1070
    74
1070
     0
1000
MTEXTEND
  0
POINT
  5
980
330
4B5
100
AcDbEntity
  8
Defpoints
 62
     0
100
AcDbPoint
 10
181.5337997374806
 20
79.59462939861822
 30
0.0
  0
POINT
  5
981
330
4B5
100
AcDbEntity
  8
Defpoints
 62
     0
100
AcDbPoint
 10
176.4940392817219
 20
79.59462939861822
 30
0.0
  0
POINT
  5
982
330
4B5
100
AcDbEntity
  8
Defpoints
 62
     0
100
AcDbPoint
 10
180.5043392241221
 20
26.59459940455848
 30
0.0
  0
ENDBLK
  5
4BC
330
4B5
100
AcDbEntity
  8
0
100
AcDbBlockEnd
  0
BLOCK
  5
4C3
330
4BD
100
AcDbEntity
  8
0
100
AcDbBlockBegin
  2
*D35
 70
     1
 10
0.0
 20
0.0
 30
0.0
  3
*D35
  1

  0
LINE
  5
979
330
4BD
100
AcDbEntity
  8
DIM
 62
     0
370
    -2
100
AcDbLine
 10
181.5337997374806
 20
79.96962939861822
 30
0.0
 11
181.5337997374806
 21
86.59281139709801
 31
0.0
  0
MTEXT
  5
97A
330
4BD
100
AcDbEntity
  8
DIM
 62
     0
100
AcDbMText
 10
181.5337997374806
 20
89.15531139709804
 30
0.0
 40
1.25
 41
0.0
 71
     5
 72
     1
  1
\A1;1.029
 11
0.0000000000000001
 21
1.0
 31
0.0
 73
     1
 44
1.0
1001
ACAD
1000
MTEXTBEGIN
1070
    73
1070
     1
1070
    44
1040
1.0
1070
    74
1070
     0
1000
MTEXTEND
  0
POINT
  5
97B
330
4BD
100
AcDbEntity
  8
Defpoints
 62
     0
100
AcDbPoint
 10
181.5337997374806
 20
79.59462939861822
 30
0.0
  0
POINT
  5
97C
330
4BD
100
AcDbEntity
  8
Defpoints
 62
     0
100
AcDbPoint
 10
181.5337997374806
 20
86.59281139709801
 30
0.0
  0
POINT
  5
97D
330
4BD
100
AcDbEntity
  8
Defpoints
 62
     0
100
AcDbPoint
 10
180.5043392241221
 20
26.59459940455848
 30
0.0
  0
ENDBLK
  5
4C4
330
4BD
100
AcDbEntity
  8
0
100
AcDbBlockEnd
  0
BLOCK
  5
4CB
330
4C5
100
AcDbEntity
  8
0
100
AcDbBlockBegin
  2
*D36
 70
     1
 10
0.0
 20
0.0
 30
0.0
  3
*D36
  1

  0
LINE
  5
974
330
4C5
100
AcDbEntity
  8
DIM
 62
     0
370
    -2
100
AcDbLine
 10
180.1292997374807
 20
82.59462939861862
 30
0.0
 11
176.5581160434732
 21
82.59462939861862
 31
0.0
  0
MTEXT
  5
975
330
4C5
100
AcDbEntity
  8
DIM
 62
     0
100
AcDbMText
 10
173.3706160434732
 20
82.59462939861862
 30
0.0
 40
1.25
 41
0.0
 71
     5
 72
     1
  1
\A1;56.000
 73
     1
 44
1.0
1001
ACAD
1000
MTEXTBEGIN
1070
    73
1070
     1
1070
    44
1040
1.0
1070
    74
1070
     0
1000
MTEXTEND
  0
POINT
  5
976
330
4C5
100
AcDbEntity
  8
Defpoints
 62
     0
100
AcDbPoint
 10
180.5042997374807
 20
82.59462939861862
 30
0.0
  0
POINT
  5
977
330
4C5
100
AcDbEntity
  8
Defpoints
 62
     0
100
AcDbPoint
 10
176.5581160434732
 20
82.59462939861862
 30
0.0
  0
POINT
  5
978
330
4C5
100
AcDbEntity
  8
Defpoints
 62
     0
100
AcDbPoint
 10
180.5043392241221
 20
26.59459940455848
 30
0.0
  0
ENDBLK
  5
4CC
330
4C5
100
AcDbEntity
  8
0
100
AcDbBlockEnd
  0
BLOCK
  5
4D3
330
4CD
100
AcDbEntity
  8
0
100
AcDbBlockBegin
  2
*D37
 70
     1
 10
0.0
 20
0.0
 30
0.0
  3
*D37
  1

  0
LINE
  5
96F
330
4CD
100
AcDbEntity
  8
DIM
 62
     0
370
    -2
100
AcDbLine
 10
185.1597997374806
 20
60.09462939861862
 30
0.0
 11
176.5174879203276
 21
60.09462939861862
 31
0.0
  0
MTEXT
  5
970
330
4CD
100
AcDbEntity
  8
DIM
 62
     0
100
AcDbMText
 10
173.225821253661
 20
60.09462939861862
 30
0.0
 40
1.25
 41
0.0
 71
     5
 72
     1
  1
\A1;33.500
 73
     1
 44
1.0
1001
ACAD
1000
MTEXTBEGIN
1070
    73
1070
     1
1070
    44
1040
1.0
1070
    74
1070
     0
1000
MTEXTEND
  0
POINT
  5
971
330
4CD
100
AcDbEntity
  8
Defpoints
 62
     0
100
AcDbPoint
 10
185.5347997374806
 20
60.09462939861862
 30
0.0
  0
POINT
  5
972
330
4CD
100
AcDbEntity
  8
Defpoints
 62
     0
100
AcDbPoint
 10
176.5174879203276
 20
60.09462939861862
 30
0.0
  0
POINT
  5
973
330
4CD
100
AcDbEntity
  8
Defpoints
 62
     0
100
AcDbPoint
 10
180.5043392241221
 20
26.59459940455848
 30
0.0
  0
ENDBLK
  5
4D4
330
4CD
100
AcDbEntity
  8
0
100
AcDbBlockEnd
  0
BLOCK
  5
4DB
330
4D5
100
AcDbEntity
  8
0
100
AcDbBlockBegin
  2
*D38
 70
     1
 10
0.0
 20
0.0
 30
0.0
  3
*D38
  1

  0
LINE
  5
96A
330
4D5
100
AcDbEntity
  8
DIM
 62
     0
370
    -2
100
AcDbLine
 10
181.1587997374806
 20
70.09462939861824
 30
0.0
 11
176.405215065154
 21
70.09462939861824
 31
0.0
  0
MTEXT
  5
96B
330
4D5
100
AcDbEntity
  8
DIM
 62
     0
100
AcDbMText
 10
173.1135483984873
 20
70.09462939861824
 30
0.0
 40
1.25
 41
0.0
 71
     5
 72
     1
  1
\A1;43.500
 73
     1
 44
1.0
1001
ACAD
1000
MTEXTBEGIN
1070
    73
1070
     1
1070
    44
1040
1.0
1070
    74
1070
     0
1000
MTEXTEND
  0
POINT
  5
96C
330
4D5
100
AcDbEntity
  8
Defpoints
 62
     0
100
AcDbPoint
 10
181.5337997374806
 20
70.09462939861824
 30
0.0
  0
POINT
  5
96D
330
4D5
100
AcDbEntity
  8
Defpoints
 62
     0
100
AcDbPoint
 10
176.405215065154
 20
70.09462939861824
 30
0.0
  0
POINT
  5
96E
330
4D5
100
AcDbEntity
  8
Defpoints
 62
     0
100
AcDbPoint
 10
180.5043392241221
 20
26.59459940455848
 30
0.0
  0
ENDBLK
  5
4DC
330
4D5
100
AcDbEntity
  8
0
100
AcDbBlockEnd
  0
BLOCK
  5
4E3
330
4DD
100
AcDbEntity
  8
0
100
AcDbBlockBegin
  2
*D39
 70
     1
 10
0.0
 20
0.0
 30
0.0
  3
*D39
  1

  0
LINE
  5
965
330
4DD
100
AcDbEntity
  8
DIM
 62
     0
370
    -2
100
AcDbLine
 10
195.1907997374807
 20
81.68662939861373
 30
0.0
 11
204.5624066838214
 21
81.68662939861373
 31
0.0
  0
MTEXT
  5
966
330
4DD
100
AcDbEntity
  8
DIM
 62
     0
100
AcDbMText
 10
207.9582400171548
 20
81.68662939861373
 30
0.0
 40
1.25
 41
0.0
 71
     5
 72
     1
  1
\A1;55.092
 73
     1
 44
1.0
1001
ACAD
1000
MTEXTBEGIN
1070
    73
1070
     1
1070
    44
1040
1.0
1070
    74
1070
     0
1000
MTEXTEND
  0
POINT
  5
967
330
4DD
100
AcDbEntity
  8
Defpoints
 62
     0
100
AcDbPoint
 10
194.8157997374807
 20
81.68662939861373
 30
0.0
  0
POINT
  5
968
330
4DD
100
AcDbEntity
  8
Defpoints
 62
     0
100
AcDbPoint
 10
204.5624066838214
 20
81.68662939861373
 30
0.0
  0
POINT
  5
969
330
4DD
100
AcDbEntity
  8
Defpoints
 62
     0
100
AcDbPoint
 10
180.5043392241221
 20
26.59459940455848
 30
0.0
  0
ENDBLK
  5
4E4
330
4DD
100
AcDbEntity
  8
0
100
AcDbBlockEnd
  0
BLOCK
  5
4EB
330
4E5
100
AcDbEntity
  8
0
100
AcDbBlockBegin
  2
*D40
 70
     1
 10
0.0
 20
0.0
 30
0.0
  3
*D40
  1

  0
LINE
  5
960
330
4E5
100
AcDbEntity
  8
DIM
 62
     0
370
    -2
100
AcDbLine
 10
195.1907997374807
 20
77.06162939861811
 30
0.0
 11
204.5624066838214
 21
77.06162939861811
 31
0.0
  0
MTEXT
  5
961
330
4E5
100
AcDbEntity
  8
DIM
 62
     0
100
AcDbMText
 10
207.9582400171548
 20
77.06162939861811
 30
0.0
 40
1.25
 41
0.0
 71
     5
 72
     1
  1
\A1;50.467
 73
     1
 44
1.0
1001
ACAD
1000
MTEXTBEGIN
1070
    73
1070
     1
1070
    44
1040
1.0
1070
    74
1070
     0
1000
MTEXTEND
  0
POINT
  5
962
330
4E5
100
AcDbEntity
  8
Defpoints
 62
     0
100
AcDbPoint
 10
194.8157997374807
 20
77.06162939861811
 30
0.0
  0
POINT
  5
963
330
4E5
100
AcDbEntity
  8
Defpoints
 62
     0
100
AcDbPoint
 10
204.5624066838214
 20
77.06162939861811
 30
0.0
  0
POINT
  5
964
330
4E5
100
AcDbEntity
  8
Defpoints
 62
     0
100
AcDbPoint
 10
180.5043392241221
 20
26.59459940455848
 30
0.0
  0
ENDBLK
  5
4EC
330
4E5
100
AcDbEntity
  8
0
100
AcDbBlockEnd
  0
BLOCK
  5
4F3
330
4ED
100
AcDbEntity
  8
0
100
AcDbBlockBegin
  2
*D41
 70
     1
 10
0.0
 20
0.0
 30
0.0
  3
*D41
  1

  0
LINE
  5
95B
330
4ED
100
AcDbEntity
  8
DIM
 62
     0
370
    -2
100
AcDbLine
 10
199.5347997374806
 20
79.96962939861801
 30
0.0
 11
199.5347997374806
 21
86.59281139709801
 31
0.0
  0
MTEXT
  5
95C
330
4ED
100
AcDbEntity
  8
DIM
 62
     0
100
AcDbMText
 10
199.5347997374806
 20
89.67614473043136
 30
0.0
 40
1.25
 41
0.0
 71
     5
 72
     1
  1
\A1;19.030
 11
0.0000000000000001
 21
1.0
 31
0.0
 73
     1
 44
1.0
1001
ACAD
1000
MTEXTBEGIN
1070
    73
1070
     1
1070
    44
1040
1.0
1070
    74
1070
     0
1000
MTEXTEND
  0
POINT
  5
95D
330
4ED
100
AcDbEntity
  8
Defpoints
 62
     0
100
AcDbPoint
 10
199.5347997374806
 20
79.59462939861801
 30
0.0
  0
POINT
  5
95E
330
4ED
100
AcDbEntity
  8
Defpoints
 62
     0
100
AcDbPoint
 10
199.5347997374806
 20
86.59281139709801
 30
0.0
  0
POINT
  5
95F
330
4ED
100
AcDbEntity
  8
Defpoints
 62
     0
100
AcDbPoint
 10
180.5043392241221
 20
26.59459940455848
 30
0.0
  0
ENDBLK
  5
4F4
330
4ED
100
AcDbEntity
  8
0
100
AcDbBlockEnd
  0
BLOCK
  5
4FB
330
4F5
100
AcDbEntity
  8
0
100
AcDbBlockBegin
  2
*D42
 70
     1
 10
0.0
 20
0.0
 30
0.0
  3
*D42
  1

  0
LINE
  5
956
330
4F5
100
AcDbEntity
  8
DIM
 62
     0
370
    -2
100
AcDbLine
 10
186.2532997374808
 20
82.06162939861799
 30
0.0
 11
186.2532997374808
 21
86.59281139709801
 31
0.0
  0
MTEXT
  5
957
330
4F5
100
AcDbEntity
  8
DIM
 62
     0
100
AcDbMText
 10
186.2532997374808
 20
89.46781139709804
 30
0.0
 40
1.25
 41
0.0
 71
     5
 72
     1
  1
\A1;5.749
 11
0.0000000000000001
 21
1.0
 31
0.0
 73
     1
 44
1.0
1001
ACAD
1000
MTEXTBEGIN
1070
    73
1070
     1
1070
    44
1040
1.0
1070
    74
1070
     0
1000
MTEXTEND
  0
POINT
  5
958
330
4F5
100
AcDbEntity
  8
Defpoints
 62
     0
100
AcDbPoint
 10
186.2532997374808
 20
81.686629398618
 30
0.0
  0
POINT
  5
959
330
4F5
100
AcDbEntity
  8
Defpoints
 62
     0
100
AcDbPoint
 10
186.2532997374808
 20
86.59281139709801
 30
0.0
  0
POINT
  5
95A
330
4F5
100
AcDbEntity
  8
Defpoints
 62
     0
100
AcDbPoint
 10
180.5043392241221
 20
26.59459940455848
 30
0.0
  0
ENDBLK
  5
4FC
330
4F5
100
AcDbEntity
  8
0
100
AcDbBlockEnd
  0
BLOCK
  5
503
330
4FD
100
AcDbEntity
  8
0
100
AcDbBlockBegin
  2
*D43
 70
     1
 10
0.0
 20
0.0
 30
0.0
  3
*D43
  1

  0
LINE
  5
951
330
4FD
100
AcDbEntity
  8
DIM
 62
     0
370
    -2
100
AcDbLine
 10
194.8157997374807
 20
82.06162939861373
 30
0.0
 11
194.8157997374807
 21
86.59281139709801
 31
0.0
  0
MTEXT
  5
952
330
4FD
100
AcDbEntity
  8
DIM
 62
     0
100
AcDbMText
 10
194.8157997374807
 20
89.46781139709804
 30
0.0
 40
1.25
 41
0.0
 71
     5
 72
     1
  1
\A1;14.311
 11
0.0000000000000001
 21
1.0
 31
0.0
 73
     1
 44
1.0
1001
ACAD
1000
MTEXTBEGIN
1070
    73
1070
     1
1070
    44
1040
1.0
1070
    74
1070
     0
1000
MTEXTEND
  0
POINT
  5
953
330
4FD
100
AcDbEntity
  8
Defpoints
 62
     0
100
AcDbPoint
 10
194.8157997374807
 20
81.68662939861373
 30
0.0
  0
POINT
  5
954
330
4FD
100
AcDbEntity
  8
Defpoints
 62
     0
100
AcDbPoint
 10
194.8157997374807
 20
86.59281139709801
 30
0.0
  0
POINT
  5
955
330
4FD
100
AcDbEntity
  8
Defpoints
 62
     0
100
AcDbPoint
 10
180.5043392241221
 20
26.59459940455848
 30
0.0
  0
ENDBLK
  5
504
330
4FD
100
AcDbEntity
  8
0
100
AcDbBlockEnd
  0
BLOCK
  5
50B
330
505
100
AcDbEntity
  8
0
100
AcDbBlockBegin
  2
*D44
 70
     1
 10
0.0
 20
0.0
 30
0.0
  3
*D44
  1

  0
LINE
  5
91D
330
505
100
AcDbEntity
  8
DIM
 62
     0
370
    -2
100
AcDbLine
 10
200.5642997374807
 20
26.21962939861872
 30
0.0
 11
200.5642997374807
 21
22.58695448833048
 31
0.0
  0
MTEXT
  5
91E
330
505
100
AcDbEntity
  8
DIM
 62
     0
100
AcDbMText
 10
200.5642997374807
 20
19.39945448833051
 30
0.0
 40
1.25
 41
0.0
 71
     5
 72
     1
  1
\A1;20.060
 11
0.0000000000000001
 21
1.0
 31
0.0
 73
     1
 44
1.0
1001
ACAD
1000
MTEXTBEGIN
1070
    73
1070
     1
1070
    44
1040
1.0
1070
    74
1070
     0
1000
MTEXTEND
  0
POINT
  5
91F
330
505
100
AcDbEntity
  8
Defpoints
 62
     0
100
AcDbPoint
 10
200.5642997374807
 20
26.59462939861872
 30
0.0
  0
POINT
  5
920
330
505
100
AcDbEntity
  8
Defpoints
 62
     0
100
AcDbPoint
 10
200.5642997374807
 20
22.58695448833048
 30
0.0
  0
POINT
  5
921
330
505
100
AcDbEntity
  8
Defpoints
 62
     0
100
AcDbPoint
 10
180.5043392241221
 20
26.59459940455848
 30
0.0
  0
ENDBLK
  5
50C
330
505
100
AcDbEntity
  8
0
100
AcDbBlockEnd
  0
BLOCK
  5
513
330
50D
100
AcDbEntity
  8
0
100
AcDbBlockBegin
  2
*D45
 70
     1
 10
0.0
 20
0.0
 30
0.0
  3
*D45
  1

  0
LINE
  5
918
330
50D
100
AcDbEntity
  8
DIM
 62
     0
370
    -2
100
AcDbLine
 10
195.5347997374808
 20
42.2196293986186
 30
0.0
 11
195.5347997374808
 21
22.51599602850841
 31
0.0
  0
MTEXT
  5
919
330
50D
100
AcDbEntity
  8
DIM
 62
     0
100
AcDbMText
 10
195.5347997374808
 20
19.43266269517511
 30
0.0
 40
1.25
 41
0.0
 71
     5
 72
     1
  1
\A1;15.030
 11
0.0000000000000001
 21
1.0
 31
0.0
 73
     1
 44
1.0
1001
ACAD
1000
MTEXTBEGIN
1070
    73
1070
     1
1070
    44
1040
1.0
1070
    74
1070
     0
1000
MTEXTEND
  0
POINT
  5
91A
330
50D
100
AcDbEntity
  8
Defpoints
 62
     0
100
AcDbPoint
 10
195.5347997374808
 20
42.59462939861861
 30
0.0
  0
POINT
  5
91B
330
50D
100
AcDbEntity
  8
Defpoints
 62
     0
100
AcDbPoint
 10
195.5347997374808
 20
22.51599602850841
 30
0.0
  0
POINT
  5
91C
330
50D
100
AcDbEntity
  8
Defpoints
 62
     0
100
AcDbPoint
 10
180.5043392241221
 20
26.59459940455848
 30
0.0
  0
ENDBLK
  5
514
330
50D
100
AcDbEntity
  8
0
100
AcDbBlockEnd
  0
BLOCK
  5
51D
330
515
100
AcDbEntity
  8
0
100
AcDbBlockBegin
  2
*D46
 70
     1
 10
0.0
 20
0.0
 30
0.0
  3
*D46
  1

  0
LINE
  5
911
330
515
100
AcDbEntity
  8
DIM
 62
     0
370
    -2
100
AcDbLine
 10
199.5347997374808
 20
29.71962939861861
 30
0.0
 11
199.5347997374808
 21
27.58695448833048
 31
0.0
  0
LINE
  5
912
330
515
100
AcDbEntity
  8
DIM
 62
     0
370
    -2
100
AcDbLine
 10
199.5347997374808
 20
27.58695448833048
 30
0.0
 11
197.9881302779739
 21
25.08695448833048
 31
0.0
  0
LINE
  5
913
330
515
100
AcDbEntity
  8
DIM
 62
     0
370
    -2
100
AcDbLine
 10
197.9881302779739
 20
25.08695448833048
 30
0.0
 11
197.9881302779739
 21
22.58695448833048
 31
0.0
  0
MTEXT
  5
914
330
515
100
AcDbEntity
  8
DIM
 62
     0
100
AcDbMText
 10
197.9881302779739
 20
19.50362115499718
 30
0.0
 40
1.25
 41
0.0
 71
     5
 72
     1
  1
\A1;19.030
 11
0.0000000000000001
 21
1.0
 31
0.0
 73
     1
 44
1.0
1001
ACAD
1000
MTEXTBEGIN
1070
    73
1070
     1
1070
    44
1040
1.0
1070
    74
1070
     0
1000
MTEXTEND
  0
POINT
  5
915
330
515
100
AcDbEntity
  8
Defpoints
 62
     0
100
AcDbPoint
 10
199.5347997374808
 20
30.09462939861861
 30
0.0
  0
POINT
  5
916
330
515
100
AcDbEntity
  8
Defpoints
 62
     0
100
AcDbPoint
 10
197.9881302779739
 20
22.58695448833048
 30
0.0
  0
POINT
  5
917
330
515
100
AcDbEntity
  8
Defpoints
 62
     0
100
AcDbPoint
 10
180.5043392241221
 20
26.59459940455848
 30
0.0
  0
ENDBLK
  5
51E
330
515
100
AcDbEntity
  8
0
100
AcDbBlockEnd
  0
BLOCK
  5
525
330
51F
100
AcDbEntity
  8
0
100
AcDbBlockBegin
  2
*D47
 70
     1
 10
0.0
 20
0.0
 30
0.0
  3
*D47
  1

  0
LINE
  5
94C
330
51F
100
AcDbEntity
  8
DIM
 62
     0
370
    -2
100
AcDbLine
 10
199.6611297151673
 20
59.09533136972672
 30
0.0
 11
204.5979917792923
 21
59.09533136972672
 31
0.0
  0
MTEXT
  5
94D
330
51F
100
AcDbEntity
  8
DIM
 62
     0
100
AcDbMText
 10
207.889658445959
 20
59.09533136972672
 30
0.0
 40
1.25
 41
0.0
 71
     5
 72
     1
  1
\A1;32.500
 73
     1
 44
1.0
1001
ACAD
1000
MTEXTBEGIN
1070
    73
1070
     1
1070
    44
1040
1.0
1070
    74
1070
     0
1000
MTEXTEND
  0
POINT
  5
94E
330
51F
100
AcDbEntity
  8
Defpoints
 62
     0
100
AcDbPoint
 10
199.2861297151673
 20
59.09533136972672
 30
0.0
  0
POINT
  5
94F
330
51F
100
AcDbEntity
  8
Defpoints
 62
     0
100
AcDbPoint
 10
204.5979917792923
 20
59.09533136972672
 30
0.0
  0
POINT
  5
950
330
51F
100
AcDbEntity
  8
Defpoints
 62
     0
100
AcDbPoint
 10
180.5043392241221
 20
26.59459940455848
 30
0.0
  0
ENDBLK
  5
526
330
51F
100
AcDbEntity
  8
0
100
AcDbBlockEnd
  0
BLOCK
  5
52D
330
527
100
AcDbEntity
  8
0
100
AcDbBlockBegin
  2
*D48
 70
     1
 10
0.0
 20
0.0
 30
0.0
  3
*D48
  1

  0
LINE
  5
947
330
527
100
AcDbEntity
  8
DIM
 62
     0
370
    -2
100
AcDbLine
 10
200.0342997374808
 20
66.96962939861892
 30
0.0
 11
204.6512309003893
 21
66.96962939861892
 31
0.0
  0
MTEXT
  5
948
330
527
100
AcDbEntity
  8
DIM
 62
     0
100
AcDbMText
 10
208.0470642337227
 20
66.96962939861892
 30
0.0
 40
1.25
 41
0.0
 71
     5
 72
     1
  1
\A1;40.375
 73
     1
 44
1.0
1001
ACAD
1000
MTEXTBEGIN
1070
    73
1070
     1
1070
    44
1040
1.0
1070
    74
1070
     0
1000
MTEXTEND
  0
POINT
  5
949
330
527
100
AcDbEntity
  8
Defpoints
 62
     0
100
AcDbPoint
 10
199.6592997374808
 20
66.96962939861892
 30
0.0
  0
POINT
  5
94A
330
527
100
AcDbEntity
  8
Defpoints
 62
     0
100
AcDbPoint
 10
204.6512309003893
 20
66.96962939861892
 30
0.0
  0
POINT
  5
94B
330
527
100
AcDbEntity
  8
Defpoints
 62
     0
100
AcDbPoint
 10
180.5043392241221
 20
26.59459940455848
 30
0.0
  0
ENDBLK
  5
52E
330
527
100
AcDbEntity
  8
0
100
AcDbBlockEnd
  0
BLOCK
  5
535
330
52F
100
AcDbEntity
  8
0
100
AcDbBlockBegin
  2
*D49
 70
     1
 10
0.0
 20
0.0
 30
0.0
  3
*D49
  1

  0
LINE
  5
942
330
52F
100
AcDbEntity
  8
DIM
 62
     0
370
    -2
100
AcDbLine
 10
200.0342997374808
 20
62.2196293986186
 30
0.0
 11
204.5624066838214
 21
62.2196293986186
 31
0.0
  0
MTEXT
  5
943
330
52F
100
AcDbEntity
  8
DIM
 62
     0
100
AcDbMText
 10
208.0624066838214
 20
62.2196293986186
 30
0.0
 40
1.25
 41
0.0
 71
     5
 72
     1
  1
\A1;35.625
 73
     1
 44
1.0
1001
ACAD
1000
MTEXTBEGIN
1070
    73
1070
     1
1070
    44
1040
1.0
1070
    74
1070
     0
1000
MTEXTEND
  0
POINT
  5
944
330
52F
100
AcDbEntity
  8
Defpoints
 62
     0
100
AcDbPoint
 10
199.6592997374808
 20
62.2196293986186
 30
0.0
  0
POINT
  5
945
330
52F
100
AcDbEntity
  8
Defpoints
 62
     0
100
AcDbPoint
 10
204.5624066838214
 20
62.2196293986186
 30
0.0
  0
POINT
  5
946
330
52F
100
AcDbEntity
  8
Defpoints
 62
     0
100
AcDbPoint
 10
180.5043392241221
 20
26.59459940455848
 30
0.0
  0
ENDBLK
  5
536
330
52F
100
AcDbEntity
  8
0
100
AcDbBlockEnd
  0
BLOCK
  5
53D
330
537
100
AcDbEntity
  8
0
100
AcDbBlockBegin
  2
*D50
 70
     1
 10
0.0
 20
0.0
 30
0.0
  3
*D50
  1

  0
LINE
  5
93D
330
537
100
AcDbEntity
  8
DIM
 62
     0
370
    -2
100
AcDbLine
 10
199.2861297151673
 20
57.2284892569623
 30
0.0
 11
199.2861297151673
 21
53.5923796888272
 31
0.0
  0
MTEXT
  5
93E
330
537
100
AcDbEntity
  8
DIM
 62
     0
100
AcDbMText
 10
199.2861297151673
 20
50.30071302216057
 30
0.0
 40
1.25
 41
0.0
 71
     5
 72
     1
  1
\A1;18.782
 11
0.0000000000000001
 21
1.0
 31
0.0
 73
     1
 44
1.0
1001
ACAD
1000
MTEXTBEGIN
1070
    73
1070
     1
1070
    44
1040
1.0
1070
    74
1070
     0
1000
MTEXTEND
  0
POINT
  5
93F
330
537
100
AcDbEntity
  8
Defpoints
 62
     0
100
AcDbPoint
 10
199.2861297151673
 20
57.60348925696231
 30
0.0
  0
POINT
  5
940
330
537
100
AcDbEntity
  8
Defpoints
 62
     0
100
AcDbPoint
 10
199.2861297151673
 20
53.5923796888272
 30
0.0
  0
POINT
  5
941
330
537
100
AcDbEntity
  8
Defpoints
 62
     0
100
AcDbPoint
 10
180.5043392241221
 20
25.102757291794
 30
0.0
  0
ENDBLK
  5
53E
330
537
100
AcDbEntity
  8
0
100
AcDbBlockEnd
  0
BLOCK
  5
5F3
330
5F2
100
AcDbEntity
  8
0
100
AcDbBlockBegin
  2
*D51
 70
     1
 10
0.0
 20
0.0
 30
0.0
  3
*D51
  1

  0
LINE
  5
5F4
330
5F2
100
AcDbEntity
  8
DIM
 62
     0
370
    -2
100
AcDbLine
 10
489.9314818723397
 20
250.6670883059499
 30
0.0
 11
494.8683439364646
 21
250.6670883059499
 31
0.0
  0
MTEXT
  5
5F5
330
5F2
100
AcDbEntity
  8
DIM
 62
     0
100
AcDbMText
 10
497.8475106031313
 20
250.6670883059499
 30
0.0
 40
1.25
 41
0.0
 71
     5
 72
     1
  1
\A1;31.000
 73
     1
 44
1.0
1001
ACAD
1000
MTEXTBEGIN
1070
    73
1070
     1
1070
    44
1040
1.0
1070
    74
1070
     0
1000
MTEXTEND
  0
POINT
  5
5F6
330
5F2
100
AcDbEntity
  8
Defpoints
 62
     0
100
AcDbPoint
 10
489.5564818723396
 20
250.6670883059499
 30
0.0
  0
POINT
  5
5F7
330
5F2
100
AcDbEntity
  8
Defpoints
 62
     0
100
AcDbPoint
 10
494.8683439364646
 20
250.6670883059499
 30
0.0
  0
POINT
  5
5F8
330
5F2
100
AcDbEntity
  8
Defpoints
 62
     0
100
AcDbPoint
 10
470.7746913812946
 20
218.1663563407817
 30
0.0
  0
ENDBLK
  5
5F9
330
5F2
100
AcDbEntity
  8
0
100
AcDbBlockEnd
  0
BLOCK
  5
5FB
330
5FA
100
AcDbEntity
  8
0
100
AcDbBlockBegin
  2
*D52
 70
     1
 10
0.0
 20
0.0
 30
0.0
  3
*D52
  1

  0
LINE
  5
5FC
330
5FA
100
AcDbEntity
  8
0
 62
     0
370
    -2
100
AcDbLine
 10
495.0492642862386
 20
242.644244407174
 30
0.0
 11
493.7992642862386
 21
242.644244407174
 31
0.0
  0
LINE
  5
5FD
330
5FA
100
AcDbEntity
  8
0
 62
     0
370
    -2
100
AcDbLine
 10
493.7992642862386
 20
242.644244407174
 30
0.0
 11
490.4330280696155
 21
249.0095926757773
 31
0.0
  0
MTEXT
  5
5FE
330
5FA
100
AcDbEntity
  8
0
 62
     0
100
AcDbMText
 10
495.4242642862387
 20
242.644244407174
 30
0.0
 40
1.25
 41
0.0
 71
     4
 72
     1
  1
\A1;%%C 1.250 (1) \POPTIONAL:\PEXTERNAL \PHEAT OUTPUT
 73
     1
 44
1.0
1001
ACAD
1000
MTEXTBEGIN
1070
    73
1070
     1
1070
    44
1040
1.0
1070
    74
1070
     0
1000
MTEXTEND
  0
SOLID
  5
5FF
330
5FA
100
AcDbEntity
  8
0
 62
     0
100
AcDbTrace
 10
490.6171942507459
 20
249.1069866976969
 30
0.0
 11
490.2488618884852
 21
248.9121986538577
 31
0.0
 12
489.8486639380982
 22
250.114589762559
 32
0.0
 13
489.8486639380982
 23
250.114589762559
 33
0.0
  0
LINE
  5
600
330
5FA
100
AcDbEntity
  8
0
 62
     0
370
    -2
100
AcDbLine
 10
489.4664818723395
 20
250.6670883059498
 30
0.0
 11
489.6464818723394
 21
250.6670883059499
 31
0.0
  0
LINE
  5
601
330
5FA
100
AcDbEntity
  8
0
 62
     0
370
    -2
100
AcDbLine
 10
489.5564818723395
 20
250.5770883059498
 30
0.0
 11
489.5564818723394
 21
250.7570883059498
 31
0.0
  0
POINT
  5
602
330
5FA
100
AcDbEntity
  8
Defpoints
 62
     0
100
AcDbPoint
 10
489.8486639380982
 20
250.114589762559
 30
0.0
  0
POINT
  5
603
330
5FA
100
AcDbEntity
  8
Defpoints
 62
     0
100
AcDbPoint
 10
489.2642998065809
 20
251.2195868493407
 30
0.0
  0
ENDBLK
  5
604
330
5FA
100
AcDbEntity
  8
0
100
AcDbBlockEnd
  0
BLOCK
  5
606
330
605
100
AcDbEntity
  8
0
100
AcDbBlockBegin
  2
*D53
 70
     1
 10
0.0
 20
0.0
 30
0.0
  3
*D53
  1

  0
LINE
  5
607
330
605
100
AcDbEntity
  8
DIM
 62
     0
370
    -2
100
AcDbLine
 10
489.5564818723396
 20
250.3002461931854
 30
0.0
 11
489.5564818723396
 21
246.6641366250504
 31
0.0
  0
MTEXT
  5
608
330
605
100
AcDbEntity
  8
DIM
 62
     0
100
AcDbMText
 10
489.5564818723396
 20
243.3724699583838
 30
0.0
 40
1.25
 41
0.0
 71
     5
 72
     1
  1
\A1;18.782
 11
0.0000000000000001
 21
1.0
 31
0.0
 73
     1
 44
1.0
1001
ACAD
1000
MTEXTBEGIN
1070
    73
1070
     1
1070
    44
1040
1.0
1070
    74
1070
     0
1000
MTEXTEND
  0
POINT
  5
609
330
605
100
AcDbEntity
  8
Defpoints
 62
     0
100
AcDbPoint
 10
489.5564818723396
 20
250.6752461931855
 30
0.0
  0
POINT
  5
60A
330
605
100
AcDbEntity
  8
Defpoints
 62
     0
100
AcDbPoint
 10
489.5564818723396
 20
246.6641366250504
 30
0.0
  0
POINT
  5
60B
330
605
100
AcDbEntity
  8
Defpoints
 62
     0
100
AcDbPoint
 10
470.7746913812946
 20
218.1745142280172
 30
0.0
  0
ENDBLK
  5
60C
330
605
100
AcDbEntity
  8
0
100
AcDbBlockEnd
  0
BLOCK
  5
60E
330
60D
100
AcDbEntity
  8
0
100
AcDbBlockBegin
  2
*D54
 70
     1
 10
0.0
 20
0.0
 30
0.0
  3
*D54
  1

  0
LINE
  5
60F
330
60D
100
AcDbEntity
  8
DIM
 62
     0
370
    -2
100
AcDbLine
 10
490.3046518946531
 20
255.2913863348418
 30
0.0
 11
494.8327588409937
 21
255.2913863348418
 31
0.0
  0
MTEXT
  5
610
330
60D
100
AcDbEntity
  8
DIM
 62
     0
100
AcDbMText
 10
498.3327588409937
 20
255.2913863348418
 30
0.0
 40
1.25
 41
0.0
 71
     5
 72
     1
  1
\A1;35.625
 73
     1
 44
1.0
1001
ACAD
1000
MTEXTBEGIN
1070
    73
1070
     1
1070
    44
1040
1.0
1070
    74
1070
     0
1000
MTEXTEND
  0
POINT
  5
611
330
60D
100
AcDbEntity
  8
Defpoints
 62
     0
100
AcDbPoint
 10
489.9296518946531
 20
255.2913863348418
 30
0.0
  0
POINT
  5
612
330
60D
100
AcDbEntity
  8
Defpoints
 62
     0
100
AcDbPoint
 10
494.8327588409937
 20
255.2913863348418
 30
0.0
  0
POINT
  5
613
330
60D
100
AcDbEntity
  8
Defpoints
 62
     0
100
AcDbPoint
 10
470.7746913812946
 20
219.6663563407817
 30
0.0
  0
ENDBLK
  5
614
330
60D
100
AcDbEntity
  8
0
100
AcDbBlockEnd
  0
BLOCK
  5
616
330
615
100
AcDbEntity
  8
0
100
AcDbBlockBegin
  2
*D55
 70
     1
 10
0.0
 20
0.0
 30
0.0
  3
*D55
  1

  0
LINE
  5
617
330
615
100
AcDbEntity
  8
DIM
 62
     0
370
    -2
100
AcDbLine
 10
490.3046518946531
 20
260.0413863348421
 30
0.0
 11
494.9215830575617
 21
260.0413863348421
 31
0.0
  0
MTEXT
  5
618
330
615
100
AcDbEntity
  8
DIM
 62
     0
100
AcDbMText
 10
498.317416390895
 20
260.0413863348421
 30
0.0
 40
1.25
 41
0.0
 71
     5
 72
     1
  1
\A1;40.375
 73
     1
 44
1.0
1001
ACAD
1000
MTEXTBEGIN
1070
    73
1070
     1
1070
    44
1040
1.0
1070
    74
1070
     0
1000
MTEXTEND
  0
POINT
  5
619
330
615
100
AcDbEntity
  8
Defpoints
 62
     0
100
AcDbPoint
 10
489.9296518946531
 20
260.0413863348421
 30
0.0
  0
POINT
  5
61A
330
615
100
AcDbEntity
  8
Defpoints
 62
     0
100
AcDbPoint
 10
494.9215830575617
 20
260.0413863348421
 30
0.0
  0
POINT
  5
61B
330
615
100
AcDbEntity
  8
Defpoints
 62
     0
100
AcDbPoint
 10
470.7746913812946
 20
219.6663563407817
 30
0.0
  0
ENDBLK
  5
61C
330
615
100
AcDbEntity
  8
0
100
AcDbBlockEnd
  0
BLOCK
  5
61E
330
61D
100
AcDbEntity
  8
0
100
AcDbBlockBegin
  2
*D56
 70
     1
 10
0.0
 20
0.0
 30
0.0
  3
*D56
  1

  0
LINE
  5
61F
330
61D
100
AcDbEntity
  8
DIM
 62
     0
370
    -2
100
AcDbLine
 10
489.9314818723397
 20
252.1670883059499
 30
0.0
 11
494.8683439364646
 21
252.1670883059499
 31
0.0
  0
MTEXT
  5
620
330
61D
100
AcDbEntity
  8
DIM
 62
     0
100
AcDbMText
 10
498.1600106031314
 20
252.1670883059499
 30
0.0
 40
1.25
 41
0.0
 71
     5
 72
     1
  1
\A1;32.500
 73
     1
 44
1.0
1001
ACAD
1000
MTEXTBEGIN
1070
    73
1070
     1
1070
    44
1040
1.0
1070
    74
1070
     0
1000
MTEXTEND
  0
POINT
  5
621
330
61D
100
AcDbEntity
  8
Defpoints
 62
     0
100
AcDbPoint
 10
489.5564818723396
 20
252.1670883059499
 30
0.0
  0
POINT
  5
622
330
61D
100
AcDbEntity
  8
Defpoints
 62
     0
100
AcDbPoint
 10
494.8683439364646
 20
252.1670883059499
 30
0.0
  0
POINT
  5
623
330
61D
100
AcDbEntity
  8
Defpoints
 62
     0
100
AcDbPoint
 10
470.7746913812946
 20
219.6663563407817
 30
0.0
  0
ENDBLK
  5
624
330
61D
100
AcDbEntity
  8
0
100
AcDbBlockEnd
  0
BLOCK
  5
626
330
625
100
AcDbEntity
  8
0
100
AcDbBlockBegin
  2
*D57
 70
     1
 10
0.0
 20
0.0
 30
0.0
  3
*D57
  1

  0
LINE
  5
627
330
625
100
AcDbEntity
  8
DIM
 62
     0
370
    -2
100
AcDbLine
 10
489.8051518946531
 20
222.7913863348419
 30
0.0
 11
489.8051518946531
 21
220.6587114245536
 31
0.0
  0
LINE
  5
628
330
625
100
AcDbEntity
  8
DIM
 62
     0
370
    -2
100
AcDbLine
 10
489.8051518946531
 20
220.6587114245536
 30
0.0
 11
488.2584824351463
 21
218.1587114245536
 31
0.0
  0
LINE
  5
629
330
625
100
AcDbEntity
  8
DIM
 62
     0
370
    -2
100
AcDbLine
 10
488.2584824351463
 20
218.1587114245536
 30
0.0
 11
488.2584824351463
 21
215.6587114245537
 31
0.0
  0
MTEXT
  5
62A
330
625
100
AcDbEntity
  8
DIM
 62
     0
100
AcDbMText
 10
488.2584824351463
 20
212.5753780912204
 30
0.0
 40
1.25
 41
0.0
 71
     5
 72
     1
  1
\A1;19.030
 11
0.0000000000000001
 21
1.0
 31
0.0
 73
     1
 44
1.0
1001
ACAD
1000
MTEXTBEGIN
1070
    73
1070
     1
1070
    44
1040
1.0
1070
    74
1070
     0
1000
MTEXTEND
  0
POINT
  5
62B
330
625
100
AcDbEntity
  8
Defpoints
 62
     0
100
AcDbPoint
 10
489.8051518946531
 20
223.1663863348418
 30
0.0
  0
POINT
  5
62C
330
625
100
AcDbEntity
  8
Defpoints
 62
     0
100
AcDbPoint
 10
488.2584824351463
 20
215.6587114245537
 30
0.0
  0
POINT
  5
62D
330
625
100
AcDbEntity
  8
Defpoints
 62
     0
100
AcDbPoint
 10
470.7746913812946
 20
219.6663563407817
 30
0.0
  0
ENDBLK
  5
62E
330
625
100
AcDbEntity
  8
0
100
AcDbBlockEnd
  0
BLOCK
  5
630
330
62F
100
AcDbEntity
  8
0
100
AcDbBlockBegin
  2
*D58
 70
     1
 10
0.0
 20
0.0
 30
0.0
  3
*D58
  1

  0
LINE
  5
631
330
62F
100
AcDbEntity
  8
DIM
 62
     0
370
    -2
100
AcDbLine
 10
485.8051518946531
 20
235.2913863348419
 30
0.0
 11
485.8051518946531
 21
215.5877529647316
 31
0.0
  0
MTEXT
  5
632
330
62F
100
AcDbEntity
  8
DIM
 62
     0
100
AcDbMText
 10
485.805151894653
 20
212.5044196313984
 30
0.0
 40
1.25
 41
0.0
 71
     5
 72
     1
  1
\A1;15.030
 11
0.0000000000000001
 21
1.0
 31
0.0
 73
     1
 44
1.0
1001
ACAD
1000
MTEXTBEGIN
1070
    73
1070
     1
1070
    44
1040
1.0
1070
    74
1070
     0
1000
MTEXTEND
  0
POINT
  5
633
330
62F
100
AcDbEntity
  8
Defpoints
 62
     0
100
AcDbPoint
 10
485.8051518946531
 20
235.6663863348418
 30
0.0
  0
POINT
  5
634
330
62F
100
AcDbEntity
  8
Defpoints
 62
     0
100
AcDbPoint
 10
485.8051518946531
 20
215.5877529647316
 30
0.0
  0
POINT
  5
635
330
62F
100
AcDbEntity
  8
Defpoints
 62
     0
100
AcDbPoint
 10
470.7746913812946
 20
219.6663563407817
 30
0.0
  0
ENDBLK
  5
636
330
62F
100
AcDbEntity
  8
0
100
AcDbBlockEnd
  0
BLOCK
  5
638
330
637
100
AcDbEntity
  8
0
100
AcDbBlockBegin
  2
*D59
 70
     1
 10
0.0
 20
0.0
 30
0.0
  3
*D59
  1

  0
LINE
  5
639
330
637
100
AcDbEntity
  8
DIM
 62
     0
370
    -2
100
AcDbLine
 10
490.834651894653
 20
219.2913863348418
 30
0.0
 11
490.834651894653
 21
215.6587114245537
 31
0.0
  0
MTEXT
  5
63A
330
637
100
AcDbEntity
  8
DIM
 62
     0
100
AcDbMText
 10
490.834651894653
 20
212.4712114245537
 30
0.0
 40
1.25
 41
0.0
 71
     5
 72
     1
  1
\A1;20.060
 11
0.0000000000000001
 21
1.0
 31
0.0
 73
     1
 44
1.0
1001
ACAD
1000
MTEXTBEGIN
1070
    73
1070
     1
1070
    44
1040
1.0
1070
    74
1070
     0
1000
MTEXTEND
  0
POINT
  5
63B
330
637
100
AcDbEntity
  8
Defpoints
 62
     0
100
AcDbPoint
 10
490.834651894653
 20
219.6663863348419
 30
0.0
  0
POINT
  5
63C
330
637
100
AcDbEntity
  8
Defpoints
 62
     0
100
AcDbPoint
 10
490.834651894653
 20
215.6587114245537
 30
0.0
  0
POINT
  5
63D
330
637
100
AcDbEntity
  8
Defpoints
 62
     0
100
AcDbPoint
 10
470.7746913812946
 20
219.6663563407817
 30
0.0
  0
ENDBLK
  5
63E
330
637
100
AcDbEntity
  8
0
100
AcDbBlockEnd
  0
BLOCK
  5
640
330
63F
100
AcDbEntity
  8
0
100
AcDbBlockBegin
  2
*D60
 70
     1
 10
0.0
 20
0.0
 30
0.0
  3
*D60
  1

  0
LINE
  5
641
330
63F
100
AcDbEntity
  8
DIM
 62
     0
370
    -2
100
AcDbLine
 10
485.0861518946531
 20
275.1333863348369
 30
0.0
 11
485.0861518946531
 21
279.6645683333212
 31
0.0
  0
MTEXT
  5
642
330
63F
100
AcDbEntity
  8
DIM
 62
     0
100
AcDbMText
 10
485.0861518946531
 20
282.5395683333212
 30
0.0
 40
1.25
 41
0.0
 71
     5
 72
     1
  1
\A1;14.311
 11
0.0000000000000001
 21
1.0
 31
0.0
 73
     1
 44
1.0
1001
ACAD
1000
MTEXTBEGIN
1070
    73
1070
     1
1070
    44
1040
1.0
1070
    74
1070
     0
1000
MTEXTEND
  0
POINT
  5
643
330
63F
100
AcDbEntity
  8
Defpoints
 62
     0
100
AcDbPoint
 10
485.0861518946531
 20
274.7583863348369
 30
0.0
  0
POINT
  5
644
330
63F
100
AcDbEntity
  8
Defpoints
 62
     0
100
AcDbPoint
 10
485.0861518946531
 20
279.6645683333212
 30
0.0
  0
POINT
  5
645
330
63F
100
AcDbEntity
  8
Defpoints
 62
     0
100
AcDbPoint
 10
470.7746913812946
 20
219.6663563407817
 30
0.0
  0
ENDBLK
  5
646
330
63F
100
AcDbEntity
  8
0
100
AcDbBlockEnd
  0
BLOCK
  5
648
330
647
100
AcDbEntity
  8
0
100
AcDbBlockBegin
  2
*D61
 70
     1
 10
0.0
 20
0.0
 30
0.0
  3
*D61
  1

  0
LINE
  5
649
330
647
100
AcDbEntity
  8
DIM
 62
     0
370
    -2
100
AcDbLine
 10
476.523651894653
 20
275.1333863348413
 30
0.0
 11
476.523651894653
 21
279.6645683333212
 31
0.0
  0
MTEXT
  5
64A
330
647
100
AcDbEntity
  8
DIM
 62
     0
100
AcDbMText
 10
476.523651894653
 20
282.5395683333212
 30
0.0
 40
1.25
 41
0.0
 71
     5
 72
     1
  1
\A1;5.749
 11
0.0000000000000001
 21
1.0
 31
0.0
 73
     1
 44
1.0
1001
ACAD
1000
MTEXTBEGIN
1070
    73
1070
     1
1070
    44
1040
1.0
1070
    74
1070
     0
1000
MTEXTEND
  0
POINT
  5
64B
330
647
100
AcDbEntity
  8
Defpoints
 62
     0
100
AcDbPoint
 10
476.523651894653
 20
274.7583863348412
 30
0.0
  0
POINT
  5
64C
330
647
100
AcDbEntity
  8
Defpoints
 62
     0
100
AcDbPoint
 10
476.523651894653
 20
279.6645683333212
 30
0.0
  0
POINT
  5
64D
330
647
100
AcDbEntity
  8
Defpoints
 62
     0
100
AcDbPoint
 10
470.7746913812946
 20
219.6663563407817
 30
0.0
  0
ENDBLK
  5
64E
330
647
100
AcDbEntity
  8
0
100
AcDbBlockEnd
  0
BLOCK
  5
650
330
64F
100
AcDbEntity
  8
0
100
AcDbBlockBegin
  2
*D62
 70
     1
 10
0.0
 20
0.0
 30
0.0
  3
*D62
  1

  0
LINE
  5
651
330
64F
100
AcDbEntity
  8
DIM
 62
     0
370
    -2
100
AcDbLine
 10
489.8051518946529
 20
273.0413863348411
 30
0.0
 11
489.8051518946529
 21
279.6645683333212
 31
0.0
  0
MTEXT
  5
652
330
64F
100
AcDbEntity
  8
DIM
 62
     0
100
AcDbMText
 10
489.8051518946529
 20
282.7479016666546
 30
0.0
 40
1.25
 41
0.0
 71
     5
 72
     1
  1
\A1;19.030
 11
0.0000000000000001
 21
1.0
 31
0.0
 73
     1
 44
1.0
1001
ACAD
1000
MTEXTBEGIN
1070
    73
1070
     1
1070
    44
1040
1.0
1070
    74
1070
     0
1000
MTEXTEND
  0
POINT
  5
653
330
64F
100
AcDbEntity
  8
Defpoints
 62
     0
100
AcDbPoint
 10
489.8051518946529
 20
272.6663863348412
 30
0.0
  0
POINT
  5
654
330
64F
100
AcDbEntity
  8
Defpoints
 62
     0
100
AcDbPoint
 10
489.8051518946529
 20
279.6645683333212
 30
0.0
  0
POINT
  5
655
330
64F
100
AcDbEntity
  8
Defpoints
 62
     0
100
AcDbPoint
 10
470.7746913812946
 20
219.6663563407817
 30
0.0
  0
ENDBLK
  5
656
330
64F
100
AcDbEntity
  8
0
100
AcDbBlockEnd
  0
BLOCK
  5
658
330
657
100
AcDbEntity
  8
0
100
AcDbBlockBegin
  2
*D63
 70
     1
 10
0.0
 20
0.0
 30
0.0
  3
*D63
  1

  0
LINE
  5
659
330
657
100
AcDbEntity
  8
DIM
 62
     0
370
    -2
100
AcDbLine
 10
485.4611518946531
 20
270.1333863348413
 30
0.0
 11
494.8327588409937
 21
270.1333863348413
 31
0.0
  0
MTEXT
  5
65A
330
657
100
AcDbEntity
  8
DIM
 62
     0
100
AcDbMText
 10
498.2285921743272
 20
270.1333863348413
 30
0.0
 40
1.25
 41
0.0
 71
     5
 72
     1
  1
\A1;50.467
 73
     1
 44
1.0
1001
ACAD
1000
MTEXTBEGIN
1070
    73
1070
     1
1070
    44
1040
1.0
1070
    74
1070
     0
1000
MTEXTEND
  0
POINT
  5
65B
330
657
100
AcDbEntity
  8
Defpoints
 62
     0
100
AcDbPoint
 10
485.0861518946531
 20
270.1333863348413
 30
0.0
  0
POINT
  5
65C
330
657
100
AcDbEntity
  8
Defpoints
 62
     0
100
AcDbPoint
 10
494.8327588409937
 20
270.1333863348413
 30
0.0
  0
POINT
  5
65D
330
657
100
AcDbEntity
  8
Defpoints
 62
     0
100
AcDbPoint
 10
470.7746913812946
 20
219.6663563407817
 30
0.0
  0
ENDBLK
  5
65E
330
657
100
AcDbEntity
  8
0
100
AcDbBlockEnd
  0
BLOCK
  5
660
330
65F
100
AcDbEntity
  8
0
100
AcDbBlockBegin
  2
*D64
 70
     1
 10
0.0
 20
0.0
 30
0.0
  3
*D64
  1

  0
LINE
  5
661
330
65F
100
AcDbEntity
  8
DIM
 62
     0
370
    -2
100
AcDbLine
 10
485.4611518946531
 20
274.7583863348369
 30
0.0
 11
494.8327588409937
 21
274.7583863348369
 31
0.0
  0
MTEXT
  5
662
330
65F
100
AcDbEntity
  8
DIM
 62
     0
100
AcDbMText
 10
498.2285921743272
 20
274.7583863348369
 30
0.0
 40
1.25
 41
0.0
 71
     5
 72
     1
  1
\A1;55.092
 73
     1
 44
1.0
1001
ACAD
1000
MTEXTBEGIN
1070
    73
1070
     1
1070
    44
1040
1.0
1070
    74
1070
     0
1000
MTEXTEND
  0
POINT
  5
663
330
65F
100
AcDbEntity
  8
Defpoints
 62
     0
100
AcDbPoint
 10
485.0861518946531
 20
274.7583863348369
 30
0.0
  0
POINT
  5
664
330
65F
100
AcDbEntity
  8
Defpoints
 62
     0
100
AcDbPoint
 10
494.8327588409937
 20
274.7583863348369
 30
0.0
  0
POINT
  5
665
330
65F
100
AcDbEntity
  8
Defpoints
 62
     0
100
AcDbPoint
 10
470.7746913812946
 20
219.6663563407817
 30
0.0
  0
ENDBLK
  5
666
330
65F
100
AcDbEntity
  8
0
100
AcDbBlockEnd
  0
BLOCK
  5
668
330
667
100
AcDbEntity
  8
0
100
AcDbBlockBegin
  2
*D65
 70
     1
 10
0.0
 20
0.0
 30
0.0
  3
*D65
  1

  0
LINE
  5
669
330
667
100
AcDbEntity
  8
DIM
 62
     0
370
    -2
100
AcDbLine
 10
471.429151894653
 20
263.1663863348414
 30
0.0
 11
466.6755672223263
 21
263.1663863348414
 31
0.0
  0
MTEXT
  5
66A
330
667
100
AcDbEntity
  8
DIM
 62
     0
100
AcDbMText
 10
463.3839005556597
 20
263.1663863348414
 30
0.0
 40
1.25
 41
0.0
 71
     5
 72
     1
  1
\A1;43.500
 73
     1
 44
1.0
1001
ACAD
1000
MTEXTBEGIN
1070
    73
1070
     1
1070
    44
1040
1.0
1070
    74
1070
     0
1000
MTEXTEND
  0
POINT
  5
66B
330
667
100
AcDbEntity
  8
Defpoints
 62
     0
100
AcDbPoint
 10
471.8041518946529
 20
263.1663863348414
 30
0.0
  0
POINT
  5
66C
330
667
100
AcDbEntity
  8
Defpoints
 62
     0
100
AcDbPoint
 10
466.6755672223263
 20
263.1663863348414
 30
0.0
  0
POINT
  5
66D
330
667
100
AcDbEntity
  8
Defpoints
 62
     0
100
AcDbPoint
 10
470.7746913812946
 20
219.6663563407817
 30
0.0
  0
ENDBLK
  5
66E
330
667
100
AcDbEntity
  8
0
100
AcDbBlockEnd
  0
BLOCK
  5
670
330
66F
100
AcDbEntity
  8
0
100
AcDbBlockBegin
  2
*D66
 70
     1
 10
0.0
 20
0.0
 30
0.0
  3
*D66
  1

  0
LINE
  5
671
330
66F
100
AcDbEntity
  8
DIM
 62
     0
370
    -2
100
AcDbLine
 10
475.430151894653
 20
253.1663863348418
 30
0.0
 11
466.7878400774999
 21
253.1663863348418
 31
0.0
  0
MTEXT
  5
672
330
66F
100
AcDbEntity
  8
DIM
 62
     0
100
AcDbMText
 10
463.4961734108332
 20
253.1663863348418
 30
0.0
 40
1.25
 41
0.0
 71
     5
 72
     1
  1
\A1;33.500
 73
     1
 44
1.0
1001
ACAD
1000
MTEXTBEGIN
1070
    73
1070
     1
1070
    44
1040
1.0
1070
    74
1070
     0
1000
MTEXTEND
  0
POINT
  5
673
330
66F
100
AcDbEntity
  8
Defpoints
 62
     0
100
AcDbPoint
 10
475.805151894653
 20
253.1663863348418
 30
0.0
  0
POINT
  5
674
330
66F
100
AcDbEntity
  8
Defpoints
 62
     0
100
AcDbPoint
 10
466.7878400774999
 20
253.1663863348418
 30
0.0
  0
POINT
  5
675
330
66F
100
AcDbEntity
  8
Defpoints
 62
     0
100
AcDbPoint
 10
470.7746913812946
 20
219.6663563407817
 30
0.0
  0
ENDBLK
  5
676
330
66F
100
AcDbEntity
  8
0
100
AcDbBlockEnd
  0
BLOCK
  5
678
330
677
100
AcDbEntity
  8
0
100
AcDbBlockBegin
  2
*D67
 70
     1
 10
0.0
 20
0.0
 30
0.0
  3
*D67
  1

  0
LINE
  5
679
330
677
100
AcDbEntity
  8
DIM
 62
     0
370
    -2
100
AcDbLine
 10
470.3996518946532
 20
275.6663863348418
 30
0.0
 11
466.8284682006456
 21
275.6663863348418
 31
0.0
  0
MTEXT
  5
67A
330
677
100
AcDbEntity
  8
DIM
 62
     0
100
AcDbMText
 10
463.6409682006456
 20
275.6663863348418
 30
0.0
 40
1.25
 41
0.0
 71
     5
 72
     1
  1
\A1;56.000
 73
     1
 44
1.0
1001
ACAD
1000
MTEXTBEGIN
1070
    73
1070
     1
1070
    44
1040
1.0
1070
    74
1070
     0
1000
MTEXTEND
  0
POINT
  5
67B
330
677
100
AcDbEntity
  8
Defpoints
 62
     0
100
AcDbPoint
 10
470.7746518946532
 20
275.6663863348418
 30
0.0
  0
POINT
  5
67C
330
677
100
AcDbEntity
  8
Defpoints
 62
     0
100
AcDbPoint
 10
466.8284682006456
 20
275.6663863348418
 30
0.0
  0
POINT
  5
67D
330
677
100
AcDbEntity
  8
Defpoints
 62
     0
100
AcDbPoint
 10
470.7746913812946
 20
219.6663563407817
 30
0.0
  0
ENDBLK
  5
67E
330
677
100
AcDbEntity
  8
0
100
AcDbBlockEnd
  0
BLOCK
  5
680
330
67F
100
AcDbEntity
  8
0
100
AcDbBlockBegin
  2
*D68
 70
     1
 10
0.0
 20
0.0
 30
0.0
  3
*D68
  1

  0
LINE
  5
681
330
67F
100
AcDbEntity
  8
DIM
 62
     0
370
    -2
100
AcDbLine
 10
471.8041518946529
 20
273.0413863348414
 30
0.0
 11
471.8041518946529
 21
279.6645683333212
 31
0.0
  0
MTEXT
  5
682
330
67F
100
AcDbEntity
  8
DIM
 62
     0
100
AcDbMText
 10
471.8041518946528
 20
282.2270683333213
 30
0.0
 40
1.25
 41
0.0
 71
     5
 72
     1
  1
\A1;1.029
 11
0.0000000000000001
 21
1.0
 31
0.0
 73
     1
 44
1.0
1001
ACAD
1000
MTEXTBEGIN
1070
    73
1070
     1
1070
    44
1040
1.0
1070
    74
1070
     0
1000
MTEXTEND
  0
POINT
  5
683
330
67F
100
AcDbEntity
  8
Defpoints
 62
     0
100
AcDbPoint
 10
471.8041518946529
 20
272.6663863348414
 30
0.0
  0
POINT
  5
684
330
67F
100
AcDbEntity
  8
Defpoints
 62
     0
100
AcDbPoint
 10
471.8041518946529
 20
279.6645683333212
 30
0.0
  0
POINT
  5
685
330
67F
100
AcDbEntity
  8
Defpoints
 62
     0
100
AcDbPoint
 10
470.7746913812946
 20
219.6663563407817
 30
0.0
  0
ENDBLK
  5
686
330
67F
100
AcDbEntity
  8
0
100
AcDbBlockEnd
  0
BLOCK
  5
688
330
687
100
AcDbEntity
  8
0
100
AcDbBlockBegin
  2
*D69
 70
     1
 10
0.0
 20
0.0
 30
0.0
  3
*D69
  1

  0
LINE
  5
689
330
687
100
AcDbEntity
  8
DIM
 62
     0
370
    -2
100
AcDbLine
 10
471.429151894653
 20
272.6663863348414
 30
0.0
 11
466.7643914388943
 21
272.6663863348414
 31
0.0
  0
MTEXT
  5
68A
330
687
100
AcDbEntity
  8
DIM
 62
     0
100
AcDbMText
 10
463.5768914388943
 20
272.6663863348414
 30
0.0
 40
1.25
 41
0.0
 71
     5
 72
     1
  1
\A1;53.000
 73
     1
 44
1.0
1001
ACAD
1000
MTEXTBEGIN
1070
    73
1070
     1
1070
    44
1040
1.0
1070
    74
1070
     0
1000
MTEXTEND
  0
POINT
  5
68B
330
687
100
AcDbEntity
  8
Defpoints
 62
     0
100
AcDbPoint
 10
471.8041518946529
 20
272.6663863348414
 30
0.0
  0
POINT
  5
68C
330
687
100
AcDbEntity
  8
Defpoints
 62
     0
100
AcDbPoint
 10
466.7643914388943
 20
272.6663863348414
 30
0.0
  0
POINT
  5
68D
330
687
100
AcDbEntity
  8
Defpoints
 62
     0
100
AcDbPoint
 10
470.7746913812946
 20
219.6663563407817
 30
0.0
  0
ENDBLK
  5
68E
330
687
100
AcDbEntity
  8
0
100
AcDbBlockEnd
  0
BLOCK
  5
690
330
68F
100
AcDbEntity
  8
0
100
AcDbBlockBegin
  2
*D70
 70
     1
 10
0.0
 20
0.0
 30
0.0
  3
*D70
  1

  0
LINE
  5
691
330
68F
100
AcDbEntity
  8
DIM
 62
     0
370
    -2
100
AcDbLine
 10
471.8041518946529
 20
222.7913863348419
 30
0.0
 11
471.8041518946529
 21
220.6587114245536
 31
0.0
  0
LINE
  5
692
330
68F
100
AcDbEntity
  8
DIM
 62
     0
370
    -2
100
AcDbLine
 10
471.8041518946529
 20
220.6587114245536
 30
0.0
 11
473.3411222525833
 21
218.1587114245536
 31
0.0
  0
LINE
  5
693
330
68F
100
AcDbEntity
  8
DIM
 62
     0
370
    -2
100
AcDbLine
 10
473.3411222525833
 20
218.1587114245536
 30
0.0
 11
473.3411222525833
 21
215.6587114245537
 31
0.0
  0
MTEXT
  5
694
330
68F
100
AcDbEntity
  8
DIM
 62
     0
100
AcDbMText
 10
473.3411222525831
 20
213.0962114245537
 30
0.0
 40
1.25
 41
0.0
 71
     5
 72
     1
  1
\A1;1.029
 11
0.0000000000000001
 21
1.0
 31
0.0
 73
     1
 44
1.0
1001
ACAD
1000
MTEXTBEGIN
1070
    73
1070
     1
1070
    44
1040
1.0
1070
    74
1070
     0
1000
MTEXTEND
  0
POINT
  5
695
330
68F
100
AcDbEntity
  8
Defpoints
 62
     0
100
AcDbPoint
 10
471.8041518946529
 20
223.1663863348418
 30
0.0
  0
POINT
  5
696
330
68F
100
AcDbEntity
  8
Defpoints
 62
     0
100
AcDbPoint
 10
473.3411222525833
 20
215.6587114245537
 30
0.0
  0
POINT
  5
697
330
68F
100
AcDbEntity
  8
Defpoints
 62
     0
100
AcDbPoint
 10
470.7746913812946
 20
219.6663563407817
 30
0.0
  0
ENDBLK
  5
698
330
68F
100
AcDbEntity
  8
0
100
AcDbBlockEnd
  0
BLOCK
  5
69A
330
699
100
AcDbEntity
  8
0
100
AcDbBlockBegin
  2
*D71
 70
     1
 10
0.0
 20
0.0
 30
0.0
  3
*D71
  1

  0
LINE
  5
69B
330
699
100
AcDbEntity
  8
DIM
 62
     0
370
    -2
100
AcDbLine
 10
475.8051518946531
 20
235.2913863348419
 30
0.0
 11
475.8051518946531
 21
215.5877529647316
 31
0.0
  0
MTEXT
  5
69C
330
699
100
AcDbEntity
  8
DIM
 62
     0
100
AcDbMText
 10
475.8051518946531
 20
212.921086298065
 30
0.0
 40
1.25
 41
0.0
 71
     5
 72
     1
  1
\A1;5.030
 11
0.0000000000000001
 21
1.0
 31
0.0
 73
     1
 44
1.0
1001
ACAD
1000
MTEXTBEGIN
1070
    73
1070
     1
1070
    44
1040
1.0
1070
    74
1070
     0
1000
MTEXTEND
  0
POINT
  5
69D
330
699
100
AcDbEntity
  8
Defpoints
 62
     0
100
AcDbPoint
 10
475.8051518946531
 20
235.6663863348418
 30
0.0
  0
POINT
  5
69E
330
699
100
AcDbEntity
  8
Defpoints
 62
     0
100
AcDbPoint
 10
475.8051518946531
 20
215.5877529647316
 30
0.0
  0
POINT
  5
69F
330
699
100
AcDbEntity
  8
Defpoints
 62
     0
100
AcDbPoint
 10
470.7746913812946
 20
219.6663563407817
 30
0.0
  0
ENDBLK
  5
6A0
330
699
100
AcDbEntity
  8
0
100
AcDbBlockEnd
  0
BLOCK
  5
6A2
330
6A1
100
AcDbEntity
  8
0
100
AcDbBlockBegin
  2
*D72
 70
     1
 10
0.0
 20
0.0
 30
0.0
  3
*D72
  1

  0
LINE
  5
6A3
330
6A1
100
AcDbEntity
  8
DIM
 62
     0
370
    -2
100
AcDbLine
 10
470.7746518946532
 20
219.2913863348418
 30
0.0
 11
470.7746518946532
 21
215.6667486588847
 31
0.0
  0
MTEXT
  5
6A4
330
6A1
100
AcDbEntity
  8
DIM
 62
     0
100
AcDbMText
 10
470.7746518946531
 20
213.2084153255514
 30
0.0
 40
1.25
 41
0.0
 71
     5
 72
     1
  1
\A1;0.000
 11
0.0000000000000001
 21
1.0
 31
0.0
 73
     1
 44
1.0
1001
ACAD
1000
MTEXTBEGIN
1070
    73
1070
     1
1070
    44
1040
1.0
1070
    74
1070
     0
1000
MTEXTEND
  0
POINT
  5
6A5
330
6A1
100
AcDbEntity
  8
Defpoints
 62
     0
100
AcDbPoint
 10
470.7746518946532
 20
219.6663863348419
 30
0.0
  0
POINT
  5
6A6
330
6A1
100
AcDbEntity
  8
Defpoints
 62
     0
100
AcDbPoint
 10
470.7746518946532
 20
215.6667486588847
 30
0.0
  0
POINT
  5
6A7
330
6A1
100
AcDbEntity
  8
Defpoints
 62
     0
100
AcDbPoint
 10
470.7746913812946
 20
219.6663563407817
 30
0.0
  0
ENDBLK
  5
6A8
330
6A1
100
AcDbEntity
  8
0
100
AcDbBlockEnd
  0
BLOCK
  5
6AA
330
6A9
100
AcDbEntity
  8
0
100
AcDbBlockBegin
  2
*D73
 70
     1
 10
0.0
 20
0.0
 30
0.0
  3
*D73
  1

  0
LINE
  5
6AB
330
6A9
100
AcDbEntity
  8
DIM
 62
     0
370
    -2
100
AcDbLine
 10
470.3996518946532
 20
219.6663863348419
 30
0.0
 11
466.7888244233018
 21
219.6663863348419
 31
0.0
  0
MTEXT
  5
6AC
330
6A9
100
AcDbEntity
  8
DIM
 62
     0
100
AcDbMText
 10
464.3304910899685
 20
219.6663863348419
 30
0.0
 40
1.25
 41
0.0
 71
     5
 72
     1
  1
\A1;0.000
 73
     1
 44
1.0
1001
ACAD
1000
MTEXTBEGIN
1070
    73
1070
     1
1070
    44
1040
1.0
1070
    74
1070
     0
1000
MTEXTEND
  0
POINT
  5
6AD
330
6A9
100
AcDbEntity
  8
Defpoints
 62
     0
100
AcDbPoint
 10
470.7746518946532
 20
219.6663863348419
 30
0.0
  0
POINT
  5
6AE
330
6A9
100
AcDbEntity
  8
Defpoints
 62
     0
100
AcDbPoint
 10
466.7888244233018
 20
219.6663863348419
 30
0.0
  0
POINT
  5
6AF
330
6A9
100
AcDbEntity
  8
Defpoints
 62
     0
100
AcDbPoint
 10
470.7746913812946
 20
219.6663563407817
 30
0.0
  0
ENDBLK
  5
6B0
330
6A9
100
AcDbEntity
  8
0
100
AcDbBlockEnd
  0
BLOCK
  5
6B2
330
6B1
100
AcDbEntity
  8
0
100
AcDbBlockBegin
  2
*D74
 70
     1
 10
0.0
 20
0.0
 30
0.0
  3
*D74
  1

  0
LINE
  5
6B3
330
6B1
100
AcDbEntity
  8
DIM
 62
     0
370
    -2
100
AcDbLine
 10
475.4301518946531
 20
235.6663863348418
 30
0.0
 11
466.8058980175444
 21
235.6663863348418
 31
0.0
  0
MTEXT
  5
6B4
330
6B1
100
AcDbEntity
  8
DIM
 62
     0
100
AcDbMText
 10
463.8267313508777
 20
235.6663863348418
 30
0.0
 40
1.25
 41
0.0
 71
     5
 72
     1
  1
\A1;16.000
 73
     1
 44
1.0
1001
ACAD
1000
MTEXTBEGIN
1070
    73
1070
     1
1070
    44
1040
1.0
1070
    74
1070
     0
1000
MTEXTEND
  0
POINT
  5
6B5
330
6B1
100
AcDbEntity
  8
Defpoints
 62
     0
100
AcDbPoint
 10
475.8051518946531
 20
235.6663863348418
 30
0.0
  0
POINT
  5
6B6
330
6B1
100
AcDbEntity
  8
Defpoints
 62
     0
100
AcDbPoint
 10
466.8058980175444
 20
235.6663863348418
 30
0.0
  0
POINT
  5
6B7
330
6B1
100
AcDbEntity
  8
Defpoints
 62
     0
100
AcDbPoint
 10
470.7746913812946
 20
219.6663563407817
 30
0.0
  0
ENDBLK
  5
6B8
330
6B1
100
AcDbEntity
  8
0
100
AcDbBlockEnd
  0
BLOCK
  5
6BA
330
6B9
100
AcDbEntity
  8
0
100
AcDbBlockBegin
  2
*D75
 70
     1
 10
0.0
 20
0.0
 30
0.0
  3
*D75
  1

  0
LINE
  5
6BB
330
6B9
100
AcDbEntity
  8
DIM
 62
     0
370
    -2
100
AcDbLine
 10
471.429151894653
 20
223.1663863348418
 30
0.0
 11
466.7888244233018
 21
223.1663863348418
 31
0.0
  0
MTEXT
  5
6BC
330
6B9
100
AcDbEntity
  8
DIM
 62
     0
100
AcDbMText
 10
464.1221577566351
 20
223.1663863348418
 30
0.0
 40
1.25
 41
0.0
 71
     5
 72
     1
  1
\A1;3.500
 73
     1
 44
1.0
1001
ACAD
1000
MTEXTBEGIN
1070
    73
1070
     1
1070
    44
1040
1.0
1070
    74
1070
     0
1000
MTEXTEND
  0
POINT
  5
6BD
330
6B9
100
AcDbEntity
  8
Defpoints
 62
     0
100
AcDbPoint
 10
471.8041518946529
 20
223.1663863348418
 30
0.0
  0
POINT
  5
6BE
330
6B9
100
AcDbEntity
  8
Defpoints
 62
     0
100
AcDbPoint
 10
466.7888244233018
 20
223.1663863348418
 30
0.0
  0
POINT
  5
6BF
330
6B9
100
AcDbEntity
  8
Defpoints
 62
     0
100
AcDbPoint
 10
470.7746913812946
 20
219.6663563407817
 30
0.0
  0
ENDBLK
  5
6C0
330
6B9
100
AcDbEntity
  8
0
100
AcDbBlockEnd
  0
BLOCK
  5
6C2
330
6C1
100
AcDbEntity
  8
0
100
AcDbBlockBegin
  2
*D76
 70
     1
 10
0.0
 20
0.0
 30
0.0
  3
*D76
  1

  0
LINE
  5
6C3
330
6C1
100
AcDbEntity
  8
0
 62
     0
370
    -2
100
AcDbLine
 10
481.5643822476641
 20
243.4801560548377
 30
0.0
 11
482.814382247664
 21
243.4801560548377
 31
0.0
  0
LINE
  5
6C4
330
6C1
100
AcDbEntity
  8
0
 62
     0
370
    -2
100
AcDbLine
 10
482.814382247664
 20
243.4801560548377
 30
0.0
 11
488.4068740658928
 21
250.6858635116137
 31
0.0
  0
MTEXT
  5
6C5
330
6C1
100
AcDbEntity
  8
0
 62
     0
100
AcDbMText
 10
476.501882247664
 20
243.4801560548377
 30
0.0
 40
1.25
 41
0.0
 71
     5
 72
     1
  1
\A1;\U+22051.250 (1)\PPOWER \PSUPPLY
 73
     1
 44
1.0
1001
ACAD
1000
MTEXTBEGIN
1070
    73
1070
     1
1070
    44
1040
1.0
1070
    74
1070
     0
1000
MTEXTEND
  0
SOLID
  5
6C6
330
6C1
100
AcDbEntity
  8
0
 62
     0
100
AcDbTrace
 10
488.2422935331887
 20
250.8135977123301
 30
0.0
 11
488.5714545985968
 21
250.5581293108974
 31
0.0
 12
489.1732792701907
 22
251.6733467078378
 32
0.0
 13
489.1732792701907
 23
251.6733467078378
 33
0.0
  0
LINE
  5
6C7
330
6C1
100
AcDbEntity
  8
0
 62
     0
370
    -2
100
AcDbLine
 10
489.4664818723396
 20
252.1670883059499
 30
0.0
 11
489.6464818723395
 21
252.1670883059499
 31
0.0
  0
LINE
  5
6C8
330
6C1
100
AcDbEntity
  8
0
 62
     0
370
    -2
100
AcDbLine
 10
489.5564818723396
 20
252.0770883059499
 30
0.0
 11
489.5564818723396
 21
252.2570883059499
 31
0.0
  0
POINT
  5
6C9
330
6C1
100
AcDbEntity
  8
Defpoints
 62
     0
100
AcDbPoint
 10
489.1732792701907
 20
251.6733467078378
 30
0.0
  0
POINT
  5
6CA
330
6C1
100
AcDbEntity
  8
Defpoints
 62
     0
100
AcDbPoint
 10
489.9396844744885
 20
252.660829904062
 30
0.0
  0
ENDBLK
  5
6CB
330
6C1
100
AcDbEntity
  8
0
100
AcDbBlockEnd
  0
BLOCK
  5
6CD
330
6CC
100
AcDbEntity
  8
0
100
AcDbBlockBegin
  2
*D77
 70
     1
 10
0.0
 20
0.0
 30
0.0
  3
*D77
  1

  0
LINE
  5
6CE
330
6CC
100
AcDbEntity
  8
0
 62
     0
370
    -2
100
AcDbLine
 10
468.5010107115749
 20
246.3350898181277
 30
0.0
 11
469.7510107115749
 21
246.3350898181277
 31
0.0
  0
LINE
  5
6CF
330
6CC
100
AcDbEntity
  8
0
 62
     0
370
    -2
100
AcDbLine
 10
469.7510107115749
 20
246.3350898181277
 30
0.0
 11
485.3039617889631
 21
252.2505312136001
 31
0.0
  0
MTEXT
  5
6D0
330
6CC
100
AcDbEntity
  8
0
 62
     0
100
AcDbMText
 10
468.1260107115748
 20
251.1267564847944
 30
0.0
 40
1.25
 41
0.0
 71
     3
 72
     1
  1
\A1;\U+22051.250 (1)\POPTIONAL:\PETHERNET \PCONNECTION\PPORT
 73
     1
 44
1.0
1001
ACAD
1000
MTEXTBEGIN
1070
    73
1070
     1
1070
    44
1040
1.0
1070
    74
1070
     0
1000
MTEXTEND
  0
SOLID
  5
6D1
330
6CC
100
AcDbEntity
  8
0
 62
     0
100
AcDbTrace
 10
485.2298998898131
 20
252.4452556673086
 30
0.0
 11
485.3780236881131
 21
252.0558067598916
 31
0.0
 12
486.4723085112141
 22
252.6949026085
 32
0.0
 13
486.4723085112141
 23
252.6949026085
 33
0.0
  0
LINE
  5
6D2
330
6CC
100
AcDbEntity
  8
0
 62
     0
370
    -2
100
AcDbLine
 10
486.9664818723397
 20
252.9170883059499
 30
0.0
 11
487.1464818723397
 21
252.9170883059499
 31
0.0
  0
LINE
  5
6D3
330
6CC
100
AcDbEntity
  8
0
 62
     0
370
    -2
100
AcDbLine
 10
487.0564818723397
 20
252.8270883059499
 30
0.0
 11
487.0564818723397
 21
253.00708830595
 31
0.0
  0
POINT
  5
6D4
330
6CC
100
AcDbEntity
  8
Defpoints
 62
     0
100
AcDbPoint
 10
486.4723085112141
 20
252.6949026085
 30
0.0
  0
POINT
  5
6D5
330
6CC
100
AcDbEntity
  8
Defpoints
 62
     0
100
AcDbPoint
 10
487.6406552334652
 20
253.1392740033999
 30
0.0
  0
ENDBLK
  5
6D6
330
6CC
100
AcDbEntity
  8
0
100
AcDbBlockEnd
  0
BLOCK
  5
6D8
330
6D7
100
AcDbEntity
  8
0
100
AcDbBlockBegin
  2
*D78
 70
     1
 10
0.0
 20
0.0
 30
0.0
  3
*D78
  1

  0
LINE
  5
6D9
330
6D7
100
AcDbEntity
  8
0
 62
     0
370
    -2
100
AcDbLine
 10
487.4314818723397
 20
252.9170883059499
 30
0.0
 11
489.7906758568463
 21
252.9170883059499
 31
0.0
  0
LINE
  5
6DA
330
6D7
100
AcDbEntity
  8
0
 62
     0
370
    -2
100
AcDbLine
 10
489.7906758568463
 20
252.9170883059499
 30
0.0
 11
492.2906758568463
 21
253.7175006319651
 31
0.0
  0
LINE
  5
6DB
330
6D7
100
AcDbEntity
  8
0
 62
     0
370
    -2
100
AcDbLine
 10
492.2906758568463
 20
253.7175006319651
 30
0.0
 11
494.7906758568462
 21
253.7175006319651
 31
0.0
  0
MTEXT
  5
6DC
330
6D7
100
AcDbEntity
  8
0
 62
     0
100
AcDbMText
 10
498.1865091901796
 20
253.7175006319651
 30
0.0
 40
1.25
 41
0.0
 71
     5
 72
     1
  1
\A1;33.250
 73
     1
 44
1.0
1001
ACAD
1000
MTEXTBEGIN
1070
    73
1070
     1
1070
    44
1040
1.0
1070
    74
1070
     0
1000
MTEXTEND
  0
POINT
  5
6DD
330
6D7
100
AcDbEntity
  8
Defpoints
 62
     0
100
AcDbPoint
 10
487.0564818723397
 20
252.9170883059499
 30
0.0
  0
POINT
  5
6DE
330
6D7
100
AcDbEntity
  8
Defpoints
 62
     0
100
AcDbPoint
 10
494.7906758568462
 20
253.7175006319651
 30
0.0
  0
POINT
  5
6DF
330
6D7
100
AcDbEntity
  8
Defpoints
 62
     0
100
AcDbPoint
 10
470.7746518946532
 20
219.6663863348419
 30
0.0
  0
ENDBLK
  5
6E0
330
6D7
100
AcDbEntity
  8
0
100
AcDbBlockEnd
  0
BLOCK
  5
6E2
330
6E1
100
AcDbEntity
  8
0
100
AcDbBlockBegin
  2
*D79
 70
     1
 10
0.0
 20
0.0
 30
0.0
  3
*D79
  1

  0
LINE
  5
6E3
330
6E1
100
AcDbEntity
  8
0
 62
     0
370
    -2
100
AcDbLine
 10
487.0564818723397
 20
252.5420883059499
 30
0.0
 11
487.0564818723397
 21
246.6382877756767
 31
0.0
  0
MTEXT
  5
6E4
330
6E1
100
AcDbEntity
  8
0
 62
     0
100
AcDbMText
 10
487.0564818723397
 20
243.3466211090101
 30
0.0
 40
1.25
 41
0.0
 71
     5
 72
     1
  1
\A1;16.282
 11
0.0000000000000001
 21
1.0
 31
0.0
 73
     1
 44
1.0
1001
ACAD
1000
MTEXTBEGIN
1070
    73
1070
     1
1070
    44
1040
1.0
1070
    74
1070
     0
1000
MTEXTEND
  0
POINT
  5
6E5
330
6E1
100
AcDbEntity
  8
Defpoints
 62
     0
100
AcDbPoint
 10
487.0564818723397
 20
252.9170883059499
 30
0.0
  0
POINT
  5
6E6
330
6E1
100
AcDbEntity
  8
Defpoints
 62
     0
100
AcDbPoint
 10
487.0564818723397
 20
246.6382877756767
 30
0.0
  0
POINT
  5
6E7
330
6E1
100
AcDbEntity
  8
Defpoints
 62
     0
100
AcDbPoint
 10
470.7746518946532
 20
219.6663863348419
 30
0.0
  0
ENDBLK
  5
6E8
330
6E1
100
AcDbEntity
  8
0
100
AcDbBlockEnd
  0
BLOCK
  5
77F
330
779
100
AcDbEntity
  8
0
100
AcDbBlockBegin
  2
*D81
 70
     1
 10
0.0
 20
0.0
 30
0.0
  3
*D81
  1

  0
LINE
  5
A30
330
779
100
AcDbEntity
  8
0
 62
     0
370
    -2
100
AcDbLine
 10
68.79620801626143
 20
59.4703313697267
 30
0.0
 11
68.79620801626143
 21
53.56653083945345
 31
0.0
  0
MTEXT
  5
A31
330
779
100
AcDbEntity
  8
0
 62
     0
100
AcDbMText
 10
68.79620801626142
 20
50.55986417278679
 30
0.0
 40
1.25
 41
0.0
 71
     5
 72
     1
  1
\A1;16.282
 11
0.0000000000000001
 21
1.0
 31
0.0
 73
     1
 44
1.0
1001
ACAD
1000
MTEXTBEGIN
1070
    73
1070
     1
1070
    44
1040
1.0
1070
    74
1070
     0
1000
MTEXTEND
  0
POINT
  5
A32
330
779
100
AcDbEntity
  8
Defpoints
 62
     0
100
AcDbPoint
 10
68.79620801626143
 20
59.84533136972671
 30
0.0
  0
POINT
  5
A33
330
779
100
AcDbEntity
  8
Defpoints
 62
     0
100
AcDbPoint
 10
68.79620801626143
 20
53.56653083945345
 30
0.0
  0
POINT
  5
A34
330
779
100
AcDbEntity
  8
Defpoints
 62
     0
100
AcDbPoint
 10
52.51437803857484
 20
26.59462939861872
 30
0.0
  0
ENDBLK
  5
780
330
779
100
AcDbEntity
  8
0
100
AcDbBlockEnd
  0
BLOCK
  5
789
330
781
100
AcDbEntity
  8
0
100
AcDbBlockBegin
  2
*D82
 70
     1
 10
0.0
 20
0.0
 30
0.0
  3
*D82
  1

  0
LINE
  5
A29
330
781
100
AcDbEntity
  8
0
 62
     0
370
    -2
100
AcDbLine
 10
69.17120801626143
 20
59.84533136972673
 30
0.0
 11
71.53040200076796
 21
59.84533136972673
 31
0.0
  0
LINE
  5
A2A
330
781
100
AcDbEntity
  8
0
 62
     0
370
    -2
100
AcDbLine
 10
71.53040200076796
 20
59.84533136972673
 30
0.0
 11
74.03040200076796
 21
60.6457436957419
 31
0.0
  0
LINE
  5
A2B
330
781
100
AcDbEntity
  8
0
 62
     0
370
    -2
100
AcDbLine
 10
74.03040200076796
 20
60.6457436957419
 30
0.0
 11
76.53040200076796
 21
60.6457436957419
 31
0.0
  0
MTEXT
  5
A2C
330
781
100
AcDbEntity
  8
0
 62
     0
100
AcDbMText
 10
79.6412353341013
 20
60.6457436957419
 30
0.0
 40
1.25
 41
0.0
 71
     5
 72
     1
  1
\A1;33.250
 73
     1
 44
1.0
1001
ACAD
1000
MTEXTBEGIN
1070
    73
1070
     1
1070
    44
1040
1.0
1070
    74
1070
     0
1000
MTEXTEND
  0
POINT
  5
A2D
330
781
100
AcDbEntity
  8
Defpoints
 62
     0
100
AcDbPoint
 10
68.79620801626143
 20
59.84533136972673
 30
0.0
  0
POINT
  5
A2E
330
781
100
AcDbEntity
  8
Defpoints
 62
     0
100
AcDbPoint
 10
76.53040200076796
 20
60.6457436957419
 30
0.0
  0
POINT
  5
A2F
330
781
100
AcDbEntity
  8
Defpoints
 62
     0
100
AcDbPoint
 10
52.51437803857484
 20
26.59462939861872
 30
0.0
  0
ENDBLK
  5
78A
330
781
100
AcDbEntity
  8
0
100
AcDbBlockEnd
  0
BLOCK
  5
794
330
78B
100
AcDbEntity
  8
0
100
AcDbBlockBegin
  2
*D83
 70
     1
 10
0.0
 20
0.0
 30
0.0
  3
*D83
  1

  0
LINE
  5
A21
330
78B
100
AcDbEntity
  8
0
 62
     0
370
    -2
100
AcDbLine
 10
49.95573685549648
 20
53.26333288190454
 30
0.0
 11
51.49073685549658
 21
53.26333288190454
 31
0.0
  0
LINE
  5
A22
330
78B
100
AcDbEntity
  8
0
 62
     0
370
    -2
100
AcDbLine
 10
51.49073685549658
 20
53.26333288190454
 30
0.0
 11
67.0436879328848
 21
59.17877427737692
 31
0.0
  0
MTEXT
  5
A23
330
78B
100
AcDbEntity
  8
0
 62
     0
100
AcDbMText
 10
49.86573685549648
 20
58.0549995485712
 30
0.0
 40
1.25
 41
0.0
 71
     3
 72
     1
  1
\A1;\U+22051.250 (1)\POPTIONAL:\PETHERNET \PCONNECTION\PPORT
 73
     1
 44
1.0
1001
ACAD
1000
MTEXTBEGIN
1070
    73
1070
     1
1070
    44
1040
1.0
1070
    74
1070
     0
1000
MTEXTEND
  0
SOLID
  5
A24
330
78B
100
AcDbEntity
  8
0
 62
     0
100
AcDbTrace
 10
66.96962603373482
 20
59.37349873108543
 30
0.0
 11
67.11774983203477
 21
58.98404982366841
 31
0.0
 12
68.21203465513585
 22
59.62314567227678
 32
0.0
 13
68.21203465513585
 23
59.62314567227678
 33
0.0
  0
LINE
  5
A25
330
78B
100
AcDbEntity
  8
0
 62
     0
370
    -2
100
AcDbLine
 10
68.70620801626137
 20
59.84533136972672
 30
0.0
 11
68.88620801626138
 21
59.84533136972671
 31
0.0
  0
LINE
  5
A26
330
78B
100
AcDbEntity
  8
0
 62
     0
370
    -2
100
AcDbLine
 10
68.79620801626138
 20
59.7553313697267
 30
0.0
 11
68.79620801626138
 21
59.93533136972671
 31
0.0
  0
POINT
  5
A27
330
78B
100
AcDbEntity
  8
Defpoints
 62
     0
100
AcDbPoint
 10
68.21203465513585
 20
59.62314567227678
 30
0.0
  0
POINT
  5
A28
330
78B
100
AcDbEntity
  8
Defpoints
 62
     0
100
AcDbPoint
 10
69.38038137738691
 20
60.06751706717665
 30
0.0
  0
ENDBLK
  5
795
330
78B
100
AcDbEntity
  8
0
100
AcDbBlockEnd
  0
BLOCK
  5
79F
330
796
100
AcDbEntity
  8
0
100
AcDbBlockBegin
  2
*D84
 70
     1
 10
0.0
 20
0.0
 30
0.0
  3
*D84
  1

  0
LINE
  5
A19
330
796
100
AcDbEntity
  8
0
 62
     0
370
    -2
100
AcDbLine
 10
63.0191083915858
 20
50.40839911861441
 30
0.0
 11
64.55410839158547
 21
50.40839911861443
 31
0.0
  0
LINE
  5
A1A
330
796
100
AcDbEntity
  8
0
 62
     0
370
    -2
100
AcDbLine
 10
64.55410839158547
 20
50.40839911861443
 30
0.0
 11
70.14660020981445
 21
57.61410657539061
 31
0.0
  0
MTEXT
  5
A1B
330
796
100
AcDbEntity
  8
0
 62
     0
100
AcDbMText
 10
58.24160839158579
 20
50.40839911861442
 30
0.0
 40
1.25
 41
0.0
 71
     5
 72
     1
  1
\A1;\U+22051.250 (1)\PPOWER \PSUPPLY
 73
     1
 44
1.0
1001
ACAD
1000
MTEXTBEGIN
1070
    73
1070
     1
1070
    44
1040
1.0
1070
    74
1070
     0
1000
MTEXTEND
  0
SOLID
  5
A1C
330
796
100
AcDbEntity
  8
0
 62
     0
100
AcDbTrace
 10
69.98201967711043
 20
57.74184077610694
 30
0.0
 11
70.31118074251847
 21
57.48637237467428
 31
0.0
 12
70.91300541411242
 22
58.60158977161471
 32
0.0
 13
70.91300541411242
 23
58.60158977161471
 33
0.0
  0
LINE
  5
A1D
330
796
100
AcDbEntity
  8
0
 62
     0
370
    -2
100
AcDbLine
 10
71.20620801626137
 20
59.09533136972674
 30
0.0
 11
71.38620801626138
 21
59.09533136972675
 31
0.0
  0
LINE
  5
A1E
330
796
100
AcDbEntity
  8
0
 62
     0
370
    -2
100
AcDbLine
 10
71.29620801626137
 20
59.00533136972674
 30
0.0
 11
71.29620801626137
 21
59.18533136972675
 31
0.0
  0
POINT
  5
A1F
330
796
100
AcDbEntity
  8
Defpoints
 62
     0
100
AcDbPoint
 10
70.91300541411242
 20
58.60158977161471
 30
0.0
  0
POINT
  5
A20
330
796
100
AcDbEntity
  8
Defpoints
 62
     0
100
AcDbPoint
 10
71.67941061841034
 20
59.58907296783879
 30
0.0
  0
ENDBLK
  5
7A0
330
796
100
AcDbEntity
  8
0
100
AcDbBlockEnd
  0
BLOCK
  5
7A7
330
7A1
100
AcDbEntity
  8
0
100
AcDbBlockBegin
  2
*D85
 70
     1
 10
0.0
 20
0.0
 30
0.0
  3
*D85
  1

  0
LINE
  5
A14
330
7A1
100
AcDbEntity
  8
DIM
 62
     0
370
    -2
100
AcDbLine
 10
71.29620801626137
 20
57.2284892569623
 30
0.0
 11
71.29620801626137
 21
53.5923796888272
 31
0.0
  0
MTEXT
  5
A15
330
7A1
100
AcDbEntity
  8
DIM
 62
     0
100
AcDbMText
 10
71.29620801626136
 20
50.30071302216054
 30
0.0
 40
1.25
 41
0.0
 71
     5
 72
     1
  1
\A1;18.782
 11
0.0000000000000001
 21
1.0
 31
0.0
 73
     1
 44
1.0
1001
ACAD
1000
MTEXTBEGIN
1070
    73
1070
     1
1070
    44
1040
1.0
1070
    74
1070
     0
1000
MTEXTEND
  0
POINT
  5
A16
330
7A1
100
AcDbEntity
  8
Defpoints
 62
     0
100
AcDbPoint
 10
71.29620801626137
 20
57.60348925696231
 30
0.0
  0
POINT
  5
A17
330
7A1
100
AcDbEntity
  8
Defpoints
 62
     0
100
AcDbPoint
 10
71.29620801626137
 20
53.5923796888272
 30
0.0
  0
POINT
  5
A18
330
7A1
100
AcDbEntity
  8
Defpoints
 62
     0
100
AcDbPoint
 10
52.51441752521632
 20
25.10275729179399
 30
0.0
  0
ENDBLK
  5
7A8
330
7A1
100
AcDbEntity
  8
0
100
AcDbBlockEnd
  0
BLOCK
  5
7AF
330
7A9
100
AcDbEntity
  8
0
100
AcDbBlockBegin
  2
*D86
 70
     1
 10
0.0
 20
0.0
 30
0.0
  3
*D86
  1

  0
LINE
  5
A0F
330
7A9
100
AcDbEntity
  8
DIM
 62
     0
370
    -2
100
AcDbLine
 10
72.04437803857482
 20
62.2196293986186
 30
0.0
 11
76.57248498491546
 21
62.2196293986186
 31
0.0
  0
MTEXT
  5
A10
330
7A9
100
AcDbEntity
  8
DIM
 62
     0
100
AcDbMText
 10
80.07248498491547
 20
62.2196293986186
 30
0.0
 40
1.25
 41
0.0
 71
     5
 72
     1
  1
\A1;35.625
 73
     1
 44
1.0
1001
ACAD
1000
MTEXTBEGIN
1070
    73
1070
     1
1070
    44
1040
1.0
1070
    74
1070
     0
1000
MTEXTEND
  0
POINT
  5
A11
330
7A9
100
AcDbEntity
  8
Defpoints
 62
     0
100
AcDbPoint
 10
71.66937803857482
 20
62.2196293986186
 30
0.0
  0
POINT
  5
A12
330
7A9
100
AcDbEntity
  8
Defpoints
 62
     0
100
AcDbPoint
 10
76.57248498491546
 20
62.2196293986186
 30
0.0
  0
POINT
  5
A13
330
7A9
100
AcDbEntity
  8
Defpoints
 62
     0
100
AcDbPoint
 10
52.51441752521632
 20
26.59459940455848
 30
0.0
  0
ENDBLK
  5
7B0
330
7A9
100
AcDbEntity
  8
0
100
AcDbBlockEnd
  0
BLOCK
  5
7B7
330
7B1
100
AcDbEntity
  8
0
100
AcDbBlockBegin
  2
*D87
 70
     1
 10
0.0
 20
0.0
 30
0.0
  3
*D87
  1

  0
LINE
  5
A0A
330
7B1
100
AcDbEntity
  8
DIM
 62
     0
370
    -2
100
AcDbLine
 10
72.04437803857482
 20
66.96962939861892
 30
0.0
 11
76.66130920148342
 21
66.96962939861892
 31
0.0
  0
MTEXT
  5
A0B
330
7B1
100
AcDbEntity
  8
DIM
 62
     0
100
AcDbMText
 10
80.05714253481675
 20
66.96962939861892
 30
0.0
 40
1.25
 41
0.0
 71
     5
 72
     1
  1
\A1;40.375
 73
     1
 44
1.0
1001
ACAD
1000
MTEXTBEGIN
1070
    73
1070
     1
1070
    44
1040
1.0
1070
    74
1070
     0
1000
MTEXTEND
  0
POINT
  5
A0C
330
7B1
100
AcDbEntity
  8
Defpoints
 62
     0
100
AcDbPoint
 10
71.66937803857482
 20
66.96962939861892
 30
0.0
  0
POINT
  5
A0D
330
7B1
100
AcDbEntity
  8
Defpoints
 62
     0
100
AcDbPoint
 10
76.66130920148342
 20
66.96962939861892
 30
0.0
  0
POINT
  5
A0E
330
7B1
100
AcDbEntity
  8
Defpoints
 62
     0
100
AcDbPoint
 10
52.51441752521632
 20
26.59459940455848
 30
0.0
  0
ENDBLK
  5
7B8
330
7B1
100
AcDbEntity
  8
0
100
AcDbBlockEnd
  0
BLOCK
  5
7BF
330
7B9
100
AcDbEntity
  8
0
100
AcDbBlockBegin
  2
*D88
 70
     1
 10
0.0
 20
0.0
 30
0.0
  3
*D88
  1

  0
LINE
  5
A05
330
7B9
100
AcDbEntity
  8
DIM
 62
     0
370
    -2
100
AcDbLine
 10
71.67120801626137
 20
59.09533136972671
 30
0.0
 11
76.60807008038634
 21
59.09533136972671
 31
0.0
  0
MTEXT
  5
A06
330
7B9
100
AcDbEntity
  8
DIM
 62
     0
100
AcDbMText
 10
79.89973674705301
 20
59.09533136972671
 30
0.0
 40
1.25
 41
0.0
 71
     5
 72
     1
  1
\A1;32.500
 73
     1
 44
1.0
1001
ACAD
1000
MTEXTBEGIN
1070
    73
1070
     1
1070
    44
1040
1.0
1070
    74
1070
     0
1000
MTEXTEND
  0
POINT
  5
A07
330
7B9
100
AcDbEntity
  8
Defpoints
 62
     0
100
AcDbPoint
 10
71.29620801626137
 20
59.09533136972671
 30
0.0
  0
POINT
  5
A08
330
7B9
100
AcDbEntity
  8
Defpoints
 62
     0
100
AcDbPoint
 10
76.60807008038634
 20
59.09533136972671
 30
0.0
  0
POINT
  5
A09
330
7B9
100
AcDbEntity
  8
Defpoints
 62
     0
100
AcDbPoint
 10
52.51441752521632
 20
26.59459940455848
 30
0.0
  0
ENDBLK
  5
7C0
330
7B9
100
AcDbEntity
  8
0
100
AcDbBlockEnd
  0
BLOCK
  5
7C9
330
7C1
100
AcDbEntity
  8
0
100
AcDbBlockBegin
  2
*D89
 70
     1
 10
0.0
 20
0.0
 30
0.0
  3
*D89
  1

  0
LINE
  5
9FE
330
7C1
100
AcDbEntity
  8
DIM
 62
     0
370
    -2
100
AcDbLine
 10
71.54487803857486
 20
29.71962939861861
 30
0.0
 11
71.54487803857486
 21
27.58695448833047
 31
0.0
  0
LINE
  5
9FF
330
7C1
100
AcDbEntity
  8
DIM
 62
     0
370
    -2
100
AcDbLine
 10
71.54487803857486
 20
27.58695448833047
 30
0.0
 11
69.99820857906801
 21
25.08695448833047
 31
0.0
  0
LINE
  5
A00
330
7C1
100
AcDbEntity
  8
DIM
 62
     0
370
    -2
100
AcDbLine
 10
69.99820857906801
 20
25.08695448833047
 30
0.0
 11
69.99820857906801
 21
22.58695448833047
 31
0.0
  0
MTEXT
  5
A01
330
7C1
100
AcDbEntity
  8
DIM
 62
     0
100
AcDbMText
 10
69.99820857906801
 20
19.50362115499715
 30
0.0
 40
1.25
 41
0.0
 71
     5
 72
     1
  1
\A1;19.030
 11
0.0000000000000001
 21
1.0
 31
0.0
 73
     1
 44
1.0
1001
ACAD
1000
MTEXTBEGIN
1070
    73
1070
     1
1070
    44
1040
1.0
1070
    74
1070
     0
1000
MTEXTEND
  0
POINT
  5
A02
330
7C1
100
AcDbEntity
  8
Defpoints
 62
     0
100
AcDbPoint
 10
71.54487803857486
 20
30.0946293986186
 30
0.0
  0
POINT
  5
A03
330
7C1
100
AcDbEntity
  8
Defpoints
 62
     0
100
AcDbPoint
 10
69.99820857906801
 20
22.58695448833047
 30
0.0
  0
POINT
  5
A04
330
7C1
100
AcDbEntity
  8
Defpoints
 62
     0
100
AcDbPoint
 10
52.51441752521632
 20
26.59459940455848
 30
0.0
  0
ENDBLK
  5
7CA
330
7C1
100
AcDbEntity
  8
0
100
AcDbBlockEnd
  0
BLOCK
  5
7D1
330
7CB
100
AcDbEntity
  8
0
100
AcDbBlockBegin
  2
*D90
 70
     1
 10
0.0
 20
0.0
 30
0.0
  3
*D90
  1

  0
LINE
  5
9F9
330
7CB
100
AcDbEntity
  8
DIM
 62
     0
370
    -2
100
AcDbLine
 10
67.54487803857486
 20
42.2196293986186
 30
0.0
 11
67.54487803857486
 21
22.51599602850841
 31
0.0
  0
MTEXT
  5
9FA
330
7CB
100
AcDbEntity
  8
DIM
 62
     0
100
AcDbMText
 10
67.54487803857486
 20
19.43266269517508
 30
0.0
 40
1.25
 41
0.0
 71
     5
 72
     1
  1
\A1;15.030
 11
0.0000000000000001
 21
1.0
 31
0.0
 73
     1
 44
1.0
1001
ACAD
1000
MTEXTBEGIN
1070
    73
1070
     1
1070
    44
1040
1.0
1070
    74
1070
     0
1000
MTEXTEND
  0
POINT
  5
9FB
330
7CB
100
AcDbEntity
  8
Defpoints
 62
     0
100
AcDbPoint
 10
67.54487803857486
 20
42.59462939861861
 30
0.0
  0
POINT
  5
9FC
330
7CB
100
AcDbEntity
  8
Defpoints
 62
     0
100
AcDbPoint
 10
67.54487803857486
 20
22.51599602850841
 30
0.0
  0
POINT
  5
9FD
330
7CB
100
AcDbEntity
  8
Defpoints
 62
     0
100
AcDbPoint
 10
52.51441752521632
 20
26.59459940455848
 30
0.0
  0
ENDBLK
  5
7D2
330
7CB
100
AcDbEntity
  8
0
100
AcDbBlockEnd
  0
BLOCK
  5
7D9
330
7D3
100
AcDbEntity
  8
0
100
AcDbBlockBegin
  2
*D91
 70
     1
 10
0.0
 20
0.0
 30
0.0
  3
*D91
  1

  0
LINE
  5
9F4
330
7D3
100
AcDbEntity
  8
DIM
 62
     0
370
    -2
100
AcDbLine
 10
72.57437803857468
 20
26.21962939861872
 30
0.0
 11
72.57437803857468
 21
22.58695448833047
 31
0.0
  0
MTEXT
  5
9F5
330
7D3
100
AcDbEntity
  8
DIM
 62
     0
100
AcDbMText
 10
72.57437803857468
 20
19.39945448833048
 30
0.0
 40
1.25
 41
0.0
 71
     5
 72
     1
  1
\A1;20.060
 11
0.0000000000000001
 21
1.0
 31
0.0
 73
     1
 44
1.0
1001
ACAD
1000
MTEXTBEGIN
1070
    73
1070
     1
1070
    44
1040
1.0
1070
    74
1070
     0
1000
MTEXTEND
  0
POINT
  5
9F6
330
7D3
100
AcDbEntity
  8
Defpoints
 62
     0
100
AcDbPoint
 10
72.57437803857468
 20
26.59462939861872
 30
0.0
  0
POINT
  5
9F7
330
7D3
100
AcDbEntity
  8
Defpoints
 62
     0
100
AcDbPoint
 10
72.57437803857468
 20
22.58695448833047
 30
0.0
  0
POINT
  5
9F8
330
7D3
100
AcDbEntity
  8
Defpoints
 62
     0
100
AcDbPoint
 10
52.51441752521632
 20
26.59459940455848
 30
0.0
  0
ENDBLK
  5
7DA
330
7D3
100
AcDbEntity
  8
0
100
AcDbBlockEnd
  0
BLOCK
  5
7E1
330
7DB
100
AcDbEntity
  8
0
100
AcDbBlockBegin
  2
*D92
 70
     1
 10
0.0
 20
0.0
 30
0.0
  3
*D92
  1

  0
LINE
  5
9EF
330
7DB
100
AcDbEntity
  8
DIM
 62
     0
370
    -2
100
AcDbLine
 10
66.82587803857481
 20
82.06162939861373
 30
0.0
 11
66.82587803857481
 21
86.59281139709801
 31
0.0
  0
MTEXT
  5
9F0
330
7DB
100
AcDbEntity
  8
DIM
 62
     0
100
AcDbMText
 10
66.82587803857479
 20
89.46781139709802
 30
0.0
 40
1.25
 41
0.0
 71
     5
 72
     1
  1
\A1;14.311
 11
0.0000000000000001
 21
1.0
 31
0.0
 73
     1
 44
1.0
1001
ACAD
1000
MTEXTBEGIN
1070
    73
1070
     1
1070
    44
1040
1.0
1070
    74
1070
     0
1000
MTEXTEND
  0
POINT
  5
9F1
330
7DB
100
AcDbEntity
  8
Defpoints
 62
     0
100
AcDbPoint
 10
66.82587803857481
 20
81.68662939861373
 30
0.0
  0
POINT
  5
9F2
330
7DB
100
AcDbEntity
  8
Defpoints
 62
     0
100
AcDbPoint
 10
66.82587803857481
 20
86.59281139709801
 30
0.0
  0
POINT
  5
9F3
330
7DB
100
AcDbEntity
  8
Defpoints
 62
     0
100
AcDbPoint
 10
52.51441752521632
 20
26.59459940455848
 30
0.0
  0
ENDBLK
  5
7E2
330
7DB
100
AcDbEntity
  8
0
100
AcDbBlockEnd
  0
BLOCK
  5
7E9
330
7E3
100
AcDbEntity
  8
0
100
AcDbBlockBegin
  2
*D93
 70
     1
 10
0.0
 20
0.0
 30
0.0
  3
*D93
  1

  0
LINE
  5
9EA
330
7E3
100
AcDbEntity
  8
DIM
 62
     0
370
    -2
100
AcDbLine
 10
58.26337803857476
 20
82.06162939861799
 30
0.0
 11
58.26337803857476
 21
86.59281139709801
 31
0.0
  0
MTEXT
  5
9EB
330
7E3
100
AcDbEntity
  8
DIM
 62
     0
100
AcDbMText
 10
58.26337803857474
 20
89.46781139709802
 30
0.0
 40
1.25
 41
0.0
 71
     5
 72
     1
  1
\A1;5.749
 11
0.0000000000000001
 21
1.0
 31
0.0
 73
     1
 44
1.0
1001
ACAD
1000
MTEXTBEGIN
1070
    73
1070
     1
1070
    44
1040
1.0
1070
    74
1070
     0
1000
MTEXTEND
  0
POINT
  5
9EC
330
7E3
100
AcDbEntity
  8
Defpoints
 62
     0
100
AcDbPoint
 10
58.26337803857476
 20
81.686629398618
 30
0.0
  0
POINT
  5
9ED
330
7E3
100
AcDbEntity
  8
Defpoints
 62
     0
100
AcDbPoint
 10
58.26337803857476
 20
86.59281139709801
 30
0.0
  0
POINT
  5
9EE
330
7E3
100
AcDbEntity
  8
Defpoints
 62
     0
100
AcDbPoint
 10
52.51441752521632
 20
26.59459940455848
 30
0.0
  0
ENDBLK
  5
7EA
330
7E3
100
AcDbEntity
  8
0
100
AcDbBlockEnd
  0
BLOCK
  5
7F1
330
7EB
100
AcDbEntity
  8
0
100
AcDbBlockBegin
  2
*D94
 70
     1
 10
0.0
 20
0.0
 30
0.0
  3
*D94
  1

  0
LINE
  5
9E5
330
7EB
100
AcDbEntity
  8
DIM
 62
     0
370
    -2
100
AcDbLine
 10
71.54487803857453
 20
79.96962939861801
 30
0.0
 11
71.54487803857453
 21
86.59281139709801
 31
0.0
  0
MTEXT
  5
9E6
330
7EB
100
AcDbEntity
  8
DIM
 62
     0
100
AcDbMText
 10
71.54487803857451
 20
89.67614473043134
 30
0.0
 40
1.25
 41
0.0
 71
     5
 72
     1
  1
\A1;19.030
 11
0.0000000000000001
 21
1.0
 31
0.0
 73
     1
 44
1.0
1001
ACAD
1000
MTEXTBEGIN
1070
    73
1070
     1
1070
    44
1040
1.0
1070
    74
1070
     0
1000
MTEXTEND
  0
POINT
  5
9E7
330
7EB
100
AcDbEntity
  8
Defpoints
 62
     0
100
AcDbPoint
 10
71.54487803857453
 20
79.59462939861801
 30
0.0
  0
POINT
  5
9E8
330
7EB
100
AcDbEntity
  8
Defpoints
 62
     0
100
AcDbPoint
 10
71.54487803857453
 20
86.59281139709801
 30
0.0
  0
POINT
  5
9E9
330
7EB
100
AcDbEntity
  8
Defpoints
 62
     0
100
AcDbPoint
 10
52.51441752521632
 20
26.59459940455848
 30
0.0
  0
ENDBLK
  5
7F2
330
7EB
100
AcDbEntity
  8
0
100
AcDbBlockEnd
  0
BLOCK
  5
7F9
330
7F3
100
AcDbEntity
  8
0
100
AcDbBlockBegin
  2
*D95
 70
     1
 10
0.0
 20
0.0
 30
0.0
  3
*D95
  1

  0
LINE
  5
9E0
330
7F3
100
AcDbEntity
  8
DIM
 62
     0
370
    -2
100
AcDbLine
 10
67.20087803857481
 20
77.06162939861811
 30
0.0
 11
76.57248498491546
 21
77.06162939861811
 31
0.0
  0
MTEXT
  5
9E1
330
7F3
100
AcDbEntity
  8
DIM
 62
     0
100
AcDbMText
 10
79.96831831824879
 20
77.06162939861811
 30
0.0
 40
1.25
 41
0.0
 71
     5
 72
     1
  1
\A1;50.467
 73
     1
 44
1.0
1001
ACAD
1000
MTEXTBEGIN
1070
    73
1070
     1
1070
    44
1040
1.0
1070
    74
1070
     0
1000
MTEXTEND
  0
POINT
  5
9E2
330
7F3
100
AcDbEntity
  8
Defpoints
 62
     0
100
AcDbPoint
 10
66.82587803857481
 20
77.06162939861811
 30
0.0
  0
POINT
  5
9E3
330
7F3
100
AcDbEntity
  8
Defpoints
 62
     0
100
AcDbPoint
 10
76.57248498491546
 20
77.06162939861811
 30
0.0
  0
POINT
  5
9E4
330
7F3
100
AcDbEntity
  8
Defpoints
 62
     0
100
AcDbPoint
 10
52.51441752521632
 20
26.59459940455848
 30
0.0
  0
ENDBLK
  5
7FA
330
7F3
100
AcDbEntity
  8
0
100
AcDbBlockEnd
  0
BLOCK
  5
801
330
7FB
100
AcDbEntity
  8
0
100
AcDbBlockBegin
  2
*D96
 70
     1
 10
0.0
 20
0.0
 30
0.0
  3
*D96
  1

  0
LINE
  5
9DB
330
7FB
100
AcDbEntity
  8
DIM
 62
     0
370
    -2
100
AcDbLine
 10
67.20087803857481
 20
81.68662939861373
 30
0.0
 11
76.57248498491546
 21
81.68662939861373
 31
0.0
  0
MTEXT
  5
9DC
330
7FB
100
AcDbEntity
  8
DIM
 62
     0
100
AcDbMText
 10
79.96831831824879
 20
81.68662939861373
 30
0.0
 40
1.25
 41
0.0
 71
     5
 72
     1
  1
\A1;55.092
 73
     1
 44
1.0
1001
ACAD
1000
MTEXTBEGIN
1070
    73
1070
     1
1070
    44
1040
1.0
1070
    74
1070
     0
1000
MTEXTEND
  0
POINT
  5
9DD
330
7FB
100
AcDbEntity
  8
Defpoints
 62
     0
100
AcDbPoint
 10
66.82587803857481
 20
81.68662939861373
 30
0.0
  0
POINT
  5
9DE
330
7FB
100
AcDbEntity
  8
Defpoints
 62
     0
100
AcDbPoint
 10
76.57248498491546
 20
81.68662939861373
 30
0.0
  0
POINT
  5
9DF
330
7FB
100
AcDbEntity
  8
Defpoints
 62
     0
100
AcDbPoint
 10
52.51441752521632
 20
26.59459940455848
 30
0.0
  0
ENDBLK
  5
802
330
7FB
100
AcDbEntity
  8
0
100
AcDbBlockEnd
  0
BLOCK
  5
809
330
803
100
AcDbEntity
  8
0
100
AcDbBlockBegin
  2
*D97
 70
     1
 10
0.0
 20
0.0
 30
0.0
  3
*D97
  1

  0
LINE
  5
9D6
330
803
100
AcDbEntity
  8
DIM
 62
     0
370
    -2
100
AcDbLine
 10
53.16887803857466
 20
70.09462939861824
 30
0.0
 11
48.41529336624805
 21
70.09462939861824
 31
0.0
  0
MTEXT
  5
9D7
330
803
100
AcDbEntity
  8
DIM
 62
     0
100
AcDbMText
 10
45.12362669958139
 20
70.09462939861824
 30
0.0
 40
1.25
 41
0.0
 71
     5
 72
     1
  1
\A1;43.500
 73
     1
 44
1.0
1001
ACAD
1000
MTEXTBEGIN
1070
    73
1070
     1
1070
    44
1040
1.0
1070
    74
1070
     0
1000
MTEXTEND
  0
POINT
  5
9D8
330
803
100
AcDbEntity
  8
Defpoints
 62
     0
100
AcDbPoint
 10
53.54387803857466
 20
70.09462939861824
 30
0.0
  0
POINT
  5
9D9
330
803
100
AcDbEntity
  8
Defpoints
 62
     0
100
AcDbPoint
 10
48.41529336624805
 20
70.09462939861824
 30
0.0
  0
POINT
  5
9DA
330
803
100
AcDbEntity
  8
Defpoints
 62
     0
100
AcDbPoint
 10
52.51441752521632
 20
26.59459940455848
 30
0.0
  0
ENDBLK
  5
80A
330
803
100
AcDbEntity
  8
0
100
AcDbBlockEnd
  0
BLOCK
  5
811
330
80B
100
AcDbEntity
  8
0
100
AcDbBlockBegin
  2
*D98
 70
     1
 10
0.0
 20
0.0
 30
0.0
  3
*D98
  1

  0
LINE
  5
9D1
330
80B
100
AcDbEntity
  8
DIM
 62
     0
370
    -2
100
AcDbLine
 10
57.16987803857469
 20
60.09462939861861
 30
0.0
 11
48.52756622142166
 21
60.09462939861861
 31
0.0
  0
MTEXT
  5
9D2
330
80B
100
AcDbEntity
  8
DIM
 62
     0
100
AcDbMText
 10
45.23589955475499
 20
60.09462939861861
 30
0.0
 40
1.25
 41
0.0
 71
     5
 72
     1
  1
\A1;33.500
 73
     1
 44
1.0
1001
ACAD
1000
MTEXTBEGIN
1070
    73
1070
     1
1070
    44
1040
1.0
1070
    74
1070
     0
1000
MTEXTEND
  0
POINT
  5
9D3
330
80B
100
AcDbEntity
  8
Defpoints
 62
     0
100
AcDbPoint
 10
57.54487803857469
 20
60.09462939861861
 30
0.0
  0
POINT
  5
9D4
330
80B
100
AcDbEntity
  8
Defpoints
 62
     0
100
AcDbPoint
 10
48.52756622142166
 20
60.09462939861861
 30
0.0
  0
POINT
  5
9D5
330
80B
100
AcDbEntity
  8
Defpoints
 62
     0
100
AcDbPoint
 10
52.51441752521632
 20
26.59459940455848
 30
0.0
  0
ENDBLK
  5
812
330
80B
100
AcDbEntity
  8
0
100
AcDbBlockEnd
  0
BLOCK
  5
819
330
813
100
AcDbEntity
  8
0
100
AcDbBlockBegin
  2
*D99
 70
     1
 10
0.0
 20
0.0
 30
0.0
  3
*D99
  1

  0
LINE
  5
9CC
330
813
100
AcDbEntity
  8
DIM
 62
     0
370
    -2
100
AcDbLine
 10
52.13937803857485
 20
82.59462939861863
 30
0.0
 11
48.56819434456728
 21
82.59462939861863
 31
0.0
  0
MTEXT
  5
9CD
330
813
100
AcDbEntity
  8
DIM
 62
     0
100
AcDbMText
 10
45.38069434456727
 20
82.59462939861863
 30
0.0
 40
1.25
 41
0.0
 71
     5
 72
     1
  1
\A1;56.000
 73
     1
 44
1.0
1001
ACAD
1000
MTEXTBEGIN
1070
    73
1070
     1
1070
    44
1040
1.0
1070
    74
1070
     0
1000
MTEXTEND
  0
POINT
  5
9CE
330
813
100
AcDbEntity
  8
Defpoints
 62
     0
100
AcDbPoint
 10
52.51437803857484
 20
82.59462939861863
 30
0.0
  0
POINT
  5
9CF
330
813
100
AcDbEntity
  8
Defpoints
 62
     0
100
AcDbPoint
 10
48.56819434456728
 20
82.59462939861863
 30
0.0
  0
POINT
  5
9D0
330
813
100
AcDbEntity
  8
Defpoints
 62
     0
100
AcDbPoint
 10
52.51441752521632
 20
26.59459940455848
 30
0.0
  0
ENDBLK
  5
81A
330
813
100
AcDbEntity
  8
0
100
AcDbBlockEnd
  0
BLOCK
  5
821
330
81B
100
AcDbEntity
  8
0
100
AcDbBlockBegin
  2
*D100
 70
     1
 10
0.0
 20
0.0
 30
0.0
  3
*D100
  1

  0
LINE
  5
9C7
330
81B
100
AcDbEntity
  8
DIM
 62
     0
370
    -2
100
AcDbLine
 10
53.54387803857466
 20
79.96962939861823
 30
0.0
 11
53.54387803857466
 21
86.59281139709801
 31
0.0
  0
MTEXT
  5
9C8
330
81B
100
AcDbEntity
  8
DIM
 62
     0
100
AcDbMText
 10
53.54387803857465
 20
89.15531139709802
 30
0.0
 40
1.25
 41
0.0
 71
     5
 72
     1
  1
\A1;1.029
 11
0.0000000000000001
 21
1.0
 31
0.0
 73
     1
 44
1.0
1001
ACAD
1000
MTEXTBEGIN
1070
    73
1070
     1
1070
    44
1040
1.0
1070
    74
1070
     0
1000
MTEXTEND
  0
POINT
  5
9C9
330
81B
100
AcDbEntity
  8
Defpoints
 62
     0
100
AcDbPoint
 10
53.54387803857466
 20
79.59462939861824
 30
0.0
  0
POINT
  5
9CA
330
81B
100
AcDbEntity
  8
Defpoints
 62
     0
100
AcDbPoint
 10
53.54387803857466
 20
86.59281139709801
 30
0.0
  0
POINT
  5
9CB
330
81B
100
AcDbEntity
  8
Defpoints
 62
     0
100
AcDbPoint
 10
52.51441752521632
 20
26.59459940455848
 30
0.0
  0
ENDBLK
  5
822
330
81B
100
AcDbEntity
  8
0
100
AcDbBlockEnd
  0
BLOCK
  5
829
330
823
100
AcDbEntity
  8
0
100
AcDbBlockBegin
  2
*D101
 70
     1
 10
0.0
 20
0.0
 30
0.0
  3
*D101
  1

  0
LINE
  5
9C2
330
823
100
AcDbEntity
  8
DIM
 62
     0
370
    -2
100
AcDbLine
 10
53.16887803857466
 20
79.59462939861824
 30
0.0
 11
48.50411758281601
 21
79.59462939861824
 31
0.0
  0
MTEXT
  5
9C3
330
823
100
AcDbEntity
  8
DIM
 62
     0
100
AcDbMText
 10
45.316617582816
 20
79.59462939861824
 30
0.0
 40
1.25
 41
0.0
 71
     5
 72
     1
  1
\A1;53.000
 73
     1
 44
1.0
1001
ACAD
1000
MTEXTBEGIN
1070
    73
1070
     1
1070
    44
1040
1.0
1070
    74
1070
     0
1000
MTEXTEND
  0
POINT
  5
9C4
330
823
100
AcDbEntity
  8
Defpoints
 62
     0
100
AcDbPoint
 10
53.54387803857466
 20
79.59462939861824
 30
0.0
  0
POINT
  5
9C5
330
823
100
AcDbEntity
  8
Defpoints
 62
     0
100
AcDbPoint
 10
48.50411758281601
 20
79.59462939861824
 30
0.0
  0
POINT
  5
9C6
330
823
100
AcDbEntity
  8
Defpoints
 62
     0
100
AcDbPoint
 10
52.51441752521632
 20
26.59459940455848
 30
0.0
  0
ENDBLK
  5
82A
330
823
100
AcDbEntity
  8
0
100
AcDbBlockEnd
  0
BLOCK
  5
833
330
82B
100
AcDbEntity
  8
0
100
AcDbBlockBegin
  2
*D102
 70
     1
 10
0.0
 20
0.0
 30
0.0
  3
*D102
  1

  0
LINE
  5
9BB
330
82B
100
AcDbEntity
  8
DIM
 62
     0
370
    -2
100
AcDbLine
 10
53.54387803857466
 20
29.71962939861861
 30
0.0
 11
53.54387803857466
 21
27.58695448833047
 31
0.0
  0
LINE
  5
9BC
330
82B
100
AcDbEntity
  8
DIM
 62
     0
370
    -2
100
AcDbLine
 10
53.54387803857466
 20
27.58695448833047
 30
0.0
 11
55.08084839650499
 21
25.08695448833047
 31
0.0
  0
LINE
  5
9BD
330
82B
100
AcDbEntity
  8
DIM
 62
     0
370
    -2
100
AcDbLine
 10
55.08084839650499
 20
25.08695448833047
 30
0.0
 11
55.08084839650499
 21
22.58695448833047
 31
0.0
  0
MTEXT
  5
9BE
330
82B
100
AcDbEntity
  8
DIM
 62
     0
100
AcDbMText
 10
55.08084839650498
 20
20.02445448833048
 30
0.0
 40
1.25
 41
0.0
 71
     5
 72
     1
  1
\A1;1.029
 11
0.0000000000000001
 21
1.0
 31
0.0
 73
     1
 44
1.0
1001
ACAD
1000
MTEXTBEGIN
1070
    73
1070
     1
1070
    44
1040
1.0
1070
    74
1070
     0
1000
MTEXTEND
  0
POINT
  5
9BF
330
82B
100
AcDbEntity
  8
Defpoints
 62
     0
100
AcDbPoint
 10
53.54387803857466
 20
30.0946293986186
 30
0.0
  0
POINT
  5
9C0
330
82B
100
AcDbEntity
  8
Defpoints
 62
     0
100
AcDbPoint
 10
55.08084839650499
 20
22.58695448833047
 30
0.0
  0
POINT
  5
9C1
330
82B
100
AcDbEntity
  8
Defpoints
 62
     0
100
AcDbPoint
 10
52.51441752521632
 20
26.59459940455848
 30
0.0
  0
ENDBLK
  5
834
330
82B
100
AcDbEntity
  8
0
100
AcDbBlockEnd
  0
BLOCK
  5
83B
330
835
100
AcDbEntity
  8
0
100
AcDbBlockBegin
  2
*D103
 70
     1
 10
0.0
 20
0.0
 30
0.0
  3
*D103
  1

  0
LINE
  5
9B6
330
835
100
AcDbEntity
  8
DIM
 62
     0
370
    -2
100
AcDbLine
 10
57.54487803857486
 20
42.2196293986186
 30
0.0
 11
57.54487803857486
 21
22.51599602850841
 31
0.0
  0
MTEXT
  5
9B7
330
835
100
AcDbEntity
  8
DIM
 62
     0
100
AcDbMText
 10
57.54487803857486
 20
19.84932936184175
 30
0.0
 40
1.25
 41
0.0
 71
     5
 72
     1
  1
\A1;5.030
 11
0.0000000000000001
 21
1.0
 31
0.0
 73
     1
 44
1.0
1001
ACAD
1000
MTEXTBEGIN
1070
    73
1070
     1
1070
    44
1040
1.0
1070
    74
1070
     0
1000
MTEXTEND
  0
POINT
  5
9B8
330
835
100
AcDbEntity
  8
Defpoints
 62
     0
100
AcDbPoint
 10
57.54487803857486
 20
42.59462939861861
 30
0.0
  0
POINT
  5
9B9
330
835
100
AcDbEntity
  8
Defpoints
 62
     0
100
AcDbPoint
 10
57.54487803857486
 20
22.51599602850841
 30
0.0
  0
POINT
  5
9BA
330
835
100
AcDbEntity
  8
Defpoints
 62
     0
100
AcDbPoint
 10
52.51441752521632
 20
26.59459940455848
 30
0.0
  0
ENDBLK
  5
83C
330
835
100
AcDbEntity
  8
0
100
AcDbBlockEnd
  0
BLOCK
  5
843
330
83D
100
AcDbEntity
  8
0
100
AcDbBlockBegin
  2
*D104
 70
     1
 10
0.0
 20
0.0
 30
0.0
  3
*D104
  1

  0
LINE
  5
9B1
330
83D
100
AcDbEntity
  8
DIM
 62
     0
370
    -2
100
AcDbLine
 10
52.51437803857484
 20
26.21962939861872
 30
0.0
 11
52.51437803857484
 21
22.5949917226615
 31
0.0
  0
MTEXT
  5
9B2
330
83D
100
AcDbEntity
  8
DIM
 62
     0
100
AcDbMText
 10
52.51437803857484
 20
20.13665838932817
 30
0.0
 40
1.25
 41
0.0
 71
     5
 72
     1
  1
\A1;0.000
 11
0.0000000000000001
 21
1.0
 31
0.0
 73
     1
 44
1.0
1001
ACAD
1000
MTEXTBEGIN
1070
    73
1070
     1
1070
    44
1040
1.0
1070
    74
1070
     0
1000
MTEXTEND
  0
POINT
  5
9B3
330
83D
100
AcDbEntity
  8
Defpoints
 62
     0
100
AcDbPoint
 10
52.51437803857484
 20
26.59462939861872
 30
0.0
  0
POINT
  5
9B4
330
83D
100
AcDbEntity
  8
Defpoints
 62
     0
100
AcDbPoint
 10
52.51437803857484
 20
22.5949917226615
 30
0.0
  0
POINT
  5
9B5
330
83D
100
AcDbEntity
  8
Defpoints
 62
     0
100
AcDbPoint
 10
52.51441752521632
 20
26.59459940455848
 30
0.0
  0
ENDBLK
  5
844
330
83D
100
AcDbEntity
  8
0
100
AcDbBlockEnd
  0
BLOCK
  5
84B
330
845
100
AcDbEntity
  8
0
100
AcDbBlockBegin
  2
*D105
 70
     1
 10
0.0
 20
0.0
 30
0.0
  3
*D105
  1

  0
LINE
  5
9AC
330
845
100
AcDbEntity
  8
DIM
 62
     0
370
    -2
100
AcDbLine
 10
52.13937803857485
 20
26.59462939861872
 30
0.0
 11
48.52855056722351
 21
26.59462939861872
 31
0.0
  0
MTEXT
  5
9AD
330
845
100
AcDbEntity
  8
DIM
 62
     0
100
AcDbMText
 10
46.07021723389016
 20
26.59462939861872
 30
0.0
 40
1.25
 41
0.0
 71
     5
 72
     1
  1
\A1;0.000
 73
     1
 44
1.0
1001
ACAD
1000
MTEXTBEGIN
1070
    73
1070
     1
1070
    44
1040
1.0
1070
    74
1070
     0
1000
MTEXTEND
  0
POINT
  5
9AE
330
845
100
AcDbEntity
  8
Defpoints
 62
     0
100
AcDbPoint
 10
52.51437803857484
 20
26.59462939861872
 30
0.0
  0
POINT
  5
9AF
330
845
100
AcDbEntity
  8
Defpoints
 62
     0
100
AcDbPoint
 10
48.52855056722351
 20
26.59462939861872
 30
0.0
  0
POINT
  5
9B0
330
845
100
AcDbEntity
  8
Defpoints
 62
     0
100
AcDbPoint
 10
52.51441752521632
 20
26.59459940455848
 30
0.0
  0
ENDBLK
  5
84C
330
845
100
AcDbEntity
  8
0
100
AcDbBlockEnd
  0
BLOCK
  5
853
330
84D
100
AcDbEntity
  8
0
100
AcDbBlockBegin
  2
*D106
 70
     1
 10
0.0
 20
0.0
 30
0.0
  3
*D106
  1

  0
LINE
  5
9A7
330
84D
100
AcDbEntity
  8
DIM
 62
     0
370
    -2
100
AcDbLine
 10
57.16987803857486
 20
42.59462939861861
 30
0.0
 11
48.54562416146606
 21
42.59462939861861
 31
0.0
  0
MTEXT
  5
9A8
330
84D
100
AcDbEntity
  8
DIM
 62
     0
100
AcDbMText
 10
45.56645749479939
 20
42.59462939861861
 30
0.0
 40
1.25
 41
0.0
 71
     5
 72
     1
  1
\A1;16.000
 73
     1
 44
1.0
1001
ACAD
1000
MTEXTBEGIN
1070
    73
1070
     1
1070
    44
1040
1.0
1070
    74
1070
     0
1000
MTEXTEND
  0
POINT
  5
9A9
330
84D
100
AcDbEntity
  8
Defpoints
 62
     0
100
AcDbPoint
 10
57.54487803857486
 20
42.59462939861861
 30
0.0
  0
POINT
  5
9AA
330
84D
100
AcDbEntity
  8
Defpoints
 62
     0
100
AcDbPoint
 10
48.54562416146606
 20
42.59462939861861
 30
0.0
  0
POINT
  5
9AB
330
84D
100
AcDbEntity
  8
Defpoints
 62
     0
100
AcDbPoint
 10
52.51441752521632
 20
26.59459940455848
 30
0.0
  0
ENDBLK
  5
854
330
84D
100
AcDbEntity
  8
0
100
AcDbBlockEnd
  0
BLOCK
  5
85B
330
855
100
AcDbEntity
  8
0
100
AcDbBlockBegin
  2
*D107
 70
     1
 10
0.0
 20
0.0
 30
0.0
  3
*D107
  1

  0
LINE
  5
9A2
330
855
100
AcDbEntity
  8
DIM
 62
     0
370
    -2
100
AcDbLine
 10
53.16887803857466
 20
30.0946293986186
 30
0.0
 11
48.52855056722351
 21
30.0946293986186
 31
0.0
  0
MTEXT
  5
9A3
330
855
100
AcDbEntity
  8
DIM
 62
     0
100
AcDbMText
 10
45.86188390055684
 20
30.0946293986186
 30
0.0
 40
1.25
 41
0.0
 71
     5
 72
     1
  1
\A1;3.500
 73
     1
 44
1.0
1001
ACAD
1000
MTEXTBEGIN
1070
    73
1070
     1
1070
    44
1040
1.0
1070
    74
1070
     0
1000
MTEXTEND
  0
POINT
  5
9A4
330
855
100
AcDbEntity
  8
Defpoints
 62
     0
100
AcDbPoint
 10
53.54387803857466
 20
30.0946293986186
 30
0.0
  0
POINT
  5
9A5
330
855
100
AcDbEntity
  8
Defpoints
 62
     0
100
AcDbPoint
 10
48.52855056722351
 20
30.0946293986186
 30
0.0
  0
POINT
  5
9A6
330
855
100
AcDbEntity
  8
Defpoints
 62
     0
100
AcDbPoint
 10
52.51441752521632
 20
26.59459940455848
 30
0.0
  0
ENDBLK
  5
85C
330
855
100
AcDbEntity
  8
0
100
AcDbBlockEnd
  0
BLOCK
  5
863
330
85D
100
AcDbEntity
  8
0
100
AcDbBlockBegin
  2
*D108
 70
     1
 10
0.0
 20
0.0
 30
0.0
  3
*D108
  1

  0
LINE
  5
99D
330
85D
100
AcDbEntity
  8
DIM
 62
     0
370
    -2
100
AcDbLine
 10
71.67120801626137
 20
57.5953313697267
 30
0.0
 11
76.60807008038634
 21
57.5953313697267
 31
0.0
  0
MTEXT
  5
99E
330
85D
100
AcDbEntity
  8
DIM
 62
     0
100
AcDbMText
 10
79.58723674705301
 20
57.5953313697267
 30
0.0
 40
1.25
 41
0.0
 71
     5
 72
     1
  1
\A1;31.000
 73
     1
 44
1.0
1001
ACAD
1000
MTEXTBEGIN
1070
    73
1070
     1
1070
    44
1040
1.0
1070
    74
1070
     0
1000
MTEXTEND
  0
POINT
  5
99F
330
85D
100
AcDbEntity
  8
Defpoints
 62
     0
100
AcDbPoint
 10
71.29620801626137
 20
57.5953313697267
 30
0.0
  0
POINT
  5
9A0
330
85D
100
AcDbEntity
  8
Defpoints
 62
     0
100
AcDbPoint
 10
76.60807008038634
 20
57.5953313697267
 30
0.0
  0
POINT
  5
9A1
330
85D
100
AcDbEntity
  8
Defpoints
 62
     0
100
AcDbPoint
 10
52.51441752521632
 20
25.09459940455848
 30
0.0
  0
ENDBLK
  5
864
330
85D
100
AcDbEntity
  8
0
100
AcDbBlockEnd
  0
BLOCK
  5
86E
330
865
100
AcDbEntity
  8
0
100
AcDbBlockBegin
  2
*D109
 70
     1
 10
0.0
 20
0.0
 30
0.0
  3
*D109
  1

  0
LINE
  5
995
330
865
100
AcDbEntity
  8
0
 62
     0
370
    -2
100
AcDbLine
 10
77.07399043016041
 20
49.57248747095081
 30
0.0
 11
75.53899043016079
 21
49.5724874709508
 31
0.0
  0
LINE
  5
996
330
865
100
AcDbEntity
  8
0
 62
     0
370
    -2
100
AcDbLine
 10
75.53899043016079
 20
49.5724874709508
 30
0.0
 11
72.17275421353722
 21
55.93783573955415
 31
0.0
  0
MTEXT
  5
997
330
865
100
AcDbEntity
  8
0
 62
     0
100
AcDbMText
 10
77.16399043016039
 20
49.5724874709508
 30
0.0
 40
1.25
 41
0.0
 71
     4
 72
     1
  1
\A1;%%C 1.250 (1) \POPTIONAL:\PEXTERNAL \PHEAT OUTPUT
 73
     1
 44
1.0
1001
ACAD
1000
MTEXTBEGIN
1070
    73
1070
     1
1070
    44
1040
1.0
1070
    74
1070
     0
1000
MTEXTEND
  0
SOLID
  5
998
330
865
100
AcDbEntity
  8
0
 62
     0
100
AcDbTrace
 10
72.3569203946675
 20
56.03522976147371
 30
0.0
 11
71.98858803240695
 21
55.84044171763459
 31
0.0
 12
71.58839008201986
 22
57.04283282633581
 32
0.0
 13
71.58839008201986
 23
57.04283282633581
 33
0.0
  0
LINE
  5
999
330
865
100
AcDbEntity
  8
0
 62
     0
370
    -2
100
AcDbLine
 10
71.20620801626117
 20
57.59533136972665
 30
0.0
 11
71.38620801626117
 21
57.59533136972664
 31
0.0
  0
LINE
  5
99A
330
865
100
AcDbEntity
  8
0
 62
     0
370
    -2
100
AcDbLine
 10
71.29620801626117
 20
57.50533136972664
 30
0.0
 11
71.29620801626117
 21
57.68533136972664
 31
0.0
  0
POINT
  5
99B
330
865
100
AcDbEntity
  8
Defpoints
 62
     0
100
AcDbPoint
 10
71.58839008201986
 20
57.04283282633581
 30
0.0
  0
POINT
  5
99C
330
865
100
AcDbEntity
  8
Defpoints
 62
     0
100
AcDbPoint
 10
71.00402595050249
 20
58.14782991311746
 30
0.0
  0
ENDBLK
  5
86F
330
865
100
AcDbEntity
  8
0
100
AcDbBlockEnd
  0
ENDSEC
  0
SECTION
  2
ENTITIES
  0
TEXT
  5
2EC
330
1F
100
AcDbEntity
  8
TEXT
100
AcDbText
 10
29.63891548999189
 20
-0.8597189009543827
 30
0.0
 40
0.4454164522054047
  1
REVISIONS
 72
     1
 11
31.49481737418108
 21
-0.6370106748516804
 31
0.0
100
AcDbText
 73
     2
  0
LINE
  5
2ED
330
1F
100
AcDbEntity
  8
BORDER
100
AcDbLine
 10
49.17540651940112
 20
-1.082427127056944
 30
0.0
 11
20.23134883903663
 21
-1.082427127056944
 31
0.0
  0
LINE
  5
2EE
330
1F
100
AcDbEntity
  8
BORDER
100
AcDbLine
 10
49.17540651940113
 20
2.480904490586411
 30
0.0
 11
49.17540651940112
 21
-1.082427127056944
 31
0.0
  0
LINE
  5
2EF
330
1F
100
AcDbEntity
  8
BORDER
100
AcDbLine
 10
20.23134883903663
 20
-0.1915942226462022
 30
0.0
 11
49.17540651940112
 21
-0.1915942226462022
 31
0.0
  0
LINE
  5
2F0
330
1F
100
AcDbEntity
  8
BORDER
100
AcDbLine
 10
40.80958893092629
 20
-0.1915942226462022
 30
0.0
 11
40.80958893092629
 21
0.6992386817646974
 31
0.0
  0
TEXT
  5
2F1
330
1F
100
AcDbEntity
  8
TEXT
100
AcDbText
 10
41.95282449158687
 20
0.0311140034564741
 30
0.0
 40
0.4454164522054047
  1
DATE
 72
     1
 11
42.76942132063012
 21
0.2538222295591765
 31
0.0
100
AcDbText
 73
     2
  0
LINE
  5
2F2
330
1F
100
AcDbEntity
  8
BORDER
100
AcDbLine
 10
44.72925371033386
 20
-0.1915942226462022
 30
0.0
 11
44.72925371033386
 21
0.6992386817646974
 31
0.0
  0
TEXT
  5
2F3
330
1F
100
AcDbEntity
  8
TEXT
100
AcDbText
 10
45.46760860751615
 20
0.0311140034564741
 30
0.0
 40
0.4454164522054047
  1
CHECKED
 72
     1
 11
46.95233011486751
 21
0.2538222295591765
 31
0.0
100
AcDbText
 73
     2
  0
TEXT
  5
2F4
330
1F
100
AcDbEntity
  8
TEXT
100
AcDbText
 10
29.26773511315405
 20
0.0311140034564741
 30
0.0
 40
0.4454164522054047
  1
DESCRIPTION
 72
     1
 11
31.49481737418108
 21
0.2538222295591765
 31
0.0
100
AcDbText
 73
     2
  0
LINE
  5
2F5
330
1F
100
AcDbEntity
  8
BORDER
100
AcDbLine
 10
22.18004581743526
 20
-0.1915942226462022
 30
0.0
 11
22.18004581743526
 21
0.6992386817646974
 31
0.0
  0
LINE
  5
2F6
330
1F
100
AcDbEntity
  8
BORDER
100
AcDbLine
 10
20.23134883903663
 20
-1.082427127056944
 30
0.0
 11
20.23134883903663
 21
4.262570299408309
 31
0.0
  0
TEXT
  5
2F7
330
1F
100
AcDbEntity
  8
TEXT
100
AcDbText
 10
20.53757264992784
 20
0.0311140034564741
 30
0.0
 40
0.4454164522054047
  1
REV
 72
     1
 11
21.20569732823594
 21
0.2538222295591765
 31
0.0
100
AcDbText
 73
     2
  0
LINE
  5
2F8
330
1F
100
AcDbEntity
  8
BORDER
100
AcDbLine
 10
49.17540651940112
 20
0.6992386817646974
 30
0.0
 11
20.23134883903663
 21
0.6992386817646974
 31
0.0
  0
LINE
  5
2F9
330
1F
100
AcDbEntity
  8
BORDER
100
AcDbLine
 10
49.17540651940112
 20
-0.1915942226462022
 30
0.0
 11
20.23134883903663
 21
-0.1915942226462022
 31
0.0
  0
LINE
  5
2FA
330
1F
100
AcDbEntity
  8
BORDER
100
AcDbLine
 10
40.80958893092629
 20
0.6992386817646974
 30
0.0
 11
40.80958893092629
 21
2.480904490586411
 31
0.0
  0
TEXT
  5
2FB
330
1F
100
AcDbEntity
  8
TEXT
100
AcDbText
 10
41.39605392633011
 20
0.9219469078673736
 30
0.0
 40
0.4454164522054047
  1
9-18-02
 72
     1
 11
42.76942132063012
 21
1.144655133970075
 31
0.0
100
AcDbText
 73
     2
  0
LINE
  5
2FC
330
1F
100
AcDbEntity
  8
BORDER
100
AcDbLine
 10
44.72925371033386
 20
0.6992386817646974
 30
0.0
 11
44.72925371033386
 21
2.480904490586411
 31
0.0
  0
TEXT
  5
2FD
330
1F
100
AcDbEntity
  8
TEXT
100
AcDbText
 10
46.35844151192697
 20
0.9219469078673736
 30
0.0
 40
0.4454164522054047
  1
GFD
 72
     1
 11
46.95233011486751
 21
1.144655133970075
 31
0.0
100
AcDbText
 73
     2
  0
TEXT
  5
2FE
330
1F
100
AcDbEntity
  8
TEXT
100
AcDbText
 10
28.45113828411081
 20
0.9219469078673736
 30
0.0
 40
0.4454164522054047
  1
INITIAL RELEASE
 72
     1
 11
31.49481737418108
 21
1.144655133970075
 31
0.0
100
AcDbText
 73
     2
  0
LINE
  5
2FF
330
1F
100
AcDbEntity
  8
BORDER
100
AcDbLine
 10
22.18004581743526
 20
0.6992386817646974
 30
0.0
 11
22.18004581743526
 21
2.480904490586411
 31
0.0
  0
TEXT
  5
300
330
1F
100
AcDbEntity
  8
TEXT
100
AcDbText
 10
21.09434321518459
 20
0.9219469078673736
 30
0.0
 40
0.4454164522054047
  1
0
 72
     1
 11
21.20569732823594
 21
1.144655133970075
 31
0.0
100
AcDbText
 73
     2
  0
LINE
  5
301
330
1F
100
AcDbEntity
  8
BORDER
100
AcDbLine
 10
49.17540651940112
 20
1.590071586175554
 30
0.0
 11
20.23134883903663
 21
1.590071586175554
 31
0.0
  0
LWPOLYLINE
  5
30A
330
1F
100
AcDbEntity
  8
BORDER
100
AcDbPolyline
 90
        4
 70
     1
 43
0.0
 10
20.23134883903663
 20
110.2716859242943
 10
104.857407238113
 20
110.2716859242943
 10
104.857407238113
 20
-1.082427127056944
 10
20.23134883903663
 20
-1.082427127056944
  0
TEXT
  5
30E
330
1F
100
AcDbEntity
  8
0
100
AcDbText
 10
56.60822392580899
 20
104.6371963922481
 30
0.0
 40
1.5
  1
IQ14000V
 72
     1
 11
61.73322392580899
 21
104.6371963922481
 31
0.0
100
AcDbText
  0
TEXT
  5
348
330
1F
100
AcDbEntity
  8
0
100
AcDbText
 10
51.48322392580899
 20
97.13719639224812
 30
0.0
 40
1.5
  1
CUTOUT DRAWING
 72
     1
 11
61.73322392580899
 21
97.13719639224812
 31
0.0
100
AcDbText
  0
TEXT
  5
349
330
1F
100
AcDbEntity
  8
0
100
AcDbText
 10
56.48322392580899
 20
99.63719639224816
 30
0.0
 40
1.5
  1
IQ20000V
 72
     1
 11
61.73322392580899
 21
99.63719639224816
 31
0.0
100
AcDbText
  0
TEXT
  5
34D
330
1F
100
AcDbEntity
  8
0
100
AcDbText
 10
56.60822392580899
 20
102.1371963922481
 30
0.0
 40
1.5
  1
IQ17000V
 72
     1
 11
61.73322392580899
 21
102.1371963922481
 31
0.0
100
AcDbText
  0
LINE
  5
34E
330
1F
100
AcDbEntity
  8
THERMOSTATCVR
100
AcDbLine
 10
71.44604191648278
 20
2.358213991393326
 30
0.0
 11
71.44604191648278
 21
-1.082427127056944
 31
0.0
  0
LINE
  5
34F
330
1F
100
AcDbEntity
  8
THERMOSTATCVR
100
AcDbLine
 10
82.64848893735106
 20
2.358213991393326
 30
0.0
 11
71.44604191648278
 21
2.358213991393326
 31
0.0
  0
LINE
  5
350
330
1F
100
AcDbEntity
  8
BORDER
100
AcDbLine
 10
82.64848893735106
 20
-1.082427127056944
 30
0.0
 11
82.64848893735106
 21
1.979810981855193
 31
0.0
  0
LINE
  5
351
330
1F
100
AcDbEntity
  8
BORDER
100
AcDbLine
 10
82.64848893735106
 20
-1.082427127056944
 30
0.0
 11
71.34026844938069
 21
-1.082427127056944
 31
0.0
  0
TEXT
  5
352
330
1F
100
AcDbEntity
  8
TEXT
100
AcDbText
 10
71.8906485118455
 20
1.144655133970047
 30
0.0
 40
0.556770565256756
  1
PROPRIETARY DRAWING
 72
     1
 11
76.99437869336576
 21
1.423040416598424
 31
0.0
100
AcDbText
 73
     2
  0
TEXT
  5
353
330
1F
100
AcDbEntity
  8
TEXT
100
AcDbText
 10
72.30822643578831
 20
0.5878845687133136
 30
0.0
 40
0.2783852826283779
  1
THIS DRAWING IS THE PROPERTY OF ICE
 72
     1
 11
76.994378693366
 21
0.7270772100275025
 31
0.0
100
AcDbText
 73
     2
  0
TEXT
  5
354
330
1F
100
AcDbEntity
  8
TEXT
100
AcDbText
 10
72.0530399267123
 20
0.1703066447707399
 30
0.0
 40
0.2783852826283779
  1
QUBE, INC. AND IS NOT TO BE DUPLICATED
 72
     1
 11
76.994378693366
 21
0.3094992860849288
 31
0.0
100
AcDbText
 73
     2
  0
TEXT
  5
355
330
1F
100
AcDbEntity
  8
TEXT
100
AcDbText
 10
72.26182888868358
 20
-0.2472712791718053
 30
0.0
 40
0.2783852826283779
  1
OR ALTERED WITHOUT AUTHORIZATION OF
 72
     1
 11
76.994378693366
 21
-0.1080786378576164
 31
0.0
100
AcDbText
 73
     2
  0
TEXT
  5
356
330
1F
100
AcDbEntity
  8
TEXT
100
AcDbText
 10
75.3472657711481
 20
-0.6648492031143932
 30
0.0
 40
0.2783852826283779
  1
ICE QUBE, INC.
 72
     1
 11
76.994378693366
 21
-0.5256565618002043
 31
0.0
100
AcDbText
 73
     2
  0
LINE
  5
357
330
1F
100
AcDbEntity
  8
DIMENSION
100
AcDbLine
 10
82.64848893735106
 20
2.358213991393326
 30
0.0
 11
82.64848893735106
 21
-1.082427127056944
 31
0.0
  0
ARC
  5
358
330
1F
100
AcDbEntity
  8
TEXT
100
AcDbCircle
 10
92.72871475015131
 20
3.532989215612302
 30
0.0
 40
0.0343452480852208
100
AcDbArc
 50
177.2189023070892
 51
10.53261226457853
  0
ARC
  5
359
330
1F
100
AcDbEntity
  8
TEXT
100
AcDbCircle
 10
92.67000516294293
 20
3.880258167827746
 30
0.0
 40
0.042384675634519
100
AcDbArc
 50
218.2556843178653
 51
317.6564247238851
  0
ARC
  5
35A
330
1F
100
AcDbEntity
  8
TEXT
100
AcDbCircle
 10
92.72421590005007
 20
3.834957937559352
 30
0.0
 40
0.0283592325387297
100
AcDbArc
 50
48.87596376793659
 51
143.7953529790059
  0
ARC
  5
35B
330
1F
100
AcDbEntity
  8
TEXT
100
AcDbCircle
 10
92.76391787865341
 20
3.861542472032908
 30
0.0
 40
0.0216883739053864
100
AcDbArc
 50
193.9319034609808
 51
333.0378283509288
  0
ARC
  5
35C
330
1F
100
AcDbEntity
  8
TEXT
100
AcDbCircle
 10
92.83395360283195
 20
3.818044128522856
 30
0.0
 40
0.0503892894952141
100
AcDbArc
 50
222.9877626572343
 51
344.3358851615566
  0
ARC
  5
35D
330
1F
100
AcDbEntity
  8
TEXT
100
AcDbCircle
 10
92.78179442309273
 20
3.773772120647606
 30
0.0
 40
0.01823101046409
100
AcDbArc
 50
32.94435831946039
 51
185.0814072168599
  0
LINE
  5
35E
330
1F
100
AcDbEntity
  8
TEXT
100
AcDbLine
 10
92.76248131588635
 20
3.539267360599807
 30
0.0
 11
92.76363506305875
 21
3.772157380514427
 31
0.0
  0
LINE
  5
35F
330
1F
100
AcDbEntity
  8
TEXT
100
AcDbLine
 10
92.6863336772673
 20
3.764086938372173
 30
0.0
 11
92.6944099539374
 21
3.534655655756437
 31
0.0
  0
ARC
  5
360
330
1F
100
AcDbEntity
  8
TEXT
100
AcDbCircle
 10
92.666045069701
 20
3.777186908524896
 30
0.0
 40
0.0241502963745601
100
AcDbArc
 50
327.1504341221726
 51
80.13862259361689
  0
LINE
  5
361
330
1F
100
AcDbEntity
  8
TEXT
100
AcDbLine
 10
92.61572110713695
 20
3.8092992981652
 30
0.0
 11
92.67018117039127
 21
3.800980384228495
 31
0.0
  0
ARC
  5
362
330
1F
100
AcDbEntity
  8
TEXT
100
AcDbCircle
 10
92.60905546684591
 20
3.797743677127556
 30
0.0
 40
0.0133402825327298
100
AcDbArc
 50
60.02231951668125
 51
227.1694577924196
  0
LINE
  5
363
330
1F
100
AcDbEntity
  8
TEXT
100
AcDbLine
 10
92.60481210725362
 20
3.670048451841792
 30
0.0
 11
92.59998631147164
 21
3.787960346465098
 31
0.0
  0
ARC
  5
364
330
1F
100
AcDbEntity
  8
TEXT
100
AcDbCircle
 10
92.57546235628323
 20
3.657359951690124
 30
0.0
 40
0.0319750827695864
100
AcDbArc
 50
165.641637302093
 51
23.3798197860204
  0
LINE
  5
365
330
1F
100
AcDbEntity
  8
TEXT
100
AcDbLine
 10
92.52861080273351
 20
3.796959202902384
 30
0.0
 11
92.54448605902068
 21
3.665289322788494
 31
0.0
  0
ARC
  5
366
330
1F
100
AcDbEntity
  8
TEXT
100
AcDbCircle
 10
92.49557567888901
 20
3.792626386394117
 30
0.0
 40
0.0333180537595555
100
AcDbArc
 50
7.472141028409503
 51
164.1640293291664
  0
LINE
  5
367
330
1F
100
AcDbEntity
  8
TEXT
100
AcDbLine
 10
92.46510968465754
 20
3.777922604021184
 30
0.0
 11
92.4635221497361
 21
3.801718359511553
 31
0.0
  0
ARC
  5
368
330
1F
100
AcDbEntity
  8
TEXT
100
AcDbCircle
 10
92.4415504206537
 20
3.781431695146238
 30
0.0
 40
0.0238191654120659
100
AcDbArc
 50
208.706819647663
 51
351.5282258973482
  0
LINE
  5
369
330
1F
100
AcDbEntity
  8
TEXT
100
AcDbLine
 10
92.40637117134605
 20
3.803304754233308
 30
0.0
 11
92.42065889271152
 21
3.769990685524361
 31
0.0
  0
LINE
  5
36A
330
1F
100
AcDbEntity
  8
TEXT
100
AcDbLine
 10
92.41907135779007
 20
3.674807608451046
 30
0.0
 11
92.40637117134605
 21
3.803304754233308
 31
0.0
  0
ARC
  5
36B
330
1F
100
AcDbEntity
  8
TEXT
100
AcDbCircle
 10
92.3872552766598
 20
3.673302287173314
 30
0.0
 40
0.0318516720224931
100
AcDbArc
 50
185.8633287467241
 51
2.708827809510243
  0
LINE
  5
36C
330
1F
100
AcDbEntity
  8
TEXT
100
AcDbLine
 10
92.34922014649205
 20
3.825514115001851
 30
0.0
 11
92.35557023971406
 21
3.670048451841792
 31
0.0
  0
ARC
  5
36D
330
1F
100
AcDbEntity
  8
TEXT
100
AcDbCircle
 10
92.32380817885358
 20
3.827770670886252
 30
0.0
 40
0.0255119607971375
100
AcDbArc
 50
354.9255052590734
 51
174.3705062402905
  0
LINE
  5
36E
330
1F
100
AcDbEntity
  8
TEXT
100
AcDbLine
 10
92.29841926132392
 20
3.774749814577745
 30
0.0
 11
92.29841926132392
 21
3.830273271611176
 31
0.0
  0
ARC
  5
36F
330
1F
100
AcDbEntity
  8
TEXT
100
AcDbCircle
 10
92.27982631067378
 20
3.767670962176196
 30
0.0
 40
0.0198949231011998
100
AcDbArc
 50
168.6772178130464
 51
20.84321825743647
  0
LINE
  5
370
330
1F
100
AcDbEntity
  8
TEXT
100
AcDbLine
 10
92.24444330631278
 20
3.854069054657428
 30
0.0
 11
92.26031860906394
 21
3.77157705269019
 31
0.0
  0
LINE
  5
371
330
1F
100
AcDbEntity
  8
TEXT
100
AcDbLine
 10
92.16347939702835
 20
3.804891121399093
 30
0.0
 11
92.16030432718531
 21
3.863587340320107
 31
0.0
  0
ARC
  5
372
330
1F
100
AcDbEntity
  8
TEXT
100
AcDbCircle
 10
92.1264574116464
 20
3.790562496006812
 30
0.0
 40
0.0396980718328078
100
AcDbArc
 50
170.7272794785986
 51
21.15794103948695
  0
ARC
  5
373
330
1F
100
AcDbEntity
  8
TEXT
100
AcDbCircle
 10
91.96687126634278
 20
3.750333977135993
 30
0.0
 40
0.0327453220384602
100
AcDbArc
 50
167.7181143692786
 51
23.9855107736552
  0
ARC
  5
374
330
1F
100
AcDbEntity
  8
TEXT
100
AcDbCircle
 10
91.53084347396989
 20
3.862338989022488
 30
0.0
 40
0.0377711983942508
100
AcDbArc
 50
225.9317407159992
 51
327.3216812937239
  0
ARC
  5
375
330
1F
100
AcDbEntity
  8
TEXT
100
AcDbCircle
 10
92.06682722137221
 20
6.190936159238418
 30
0.0
 40
0.0240624591496054
100
AcDbArc
 50
305.0065695458969
 51
188.3798152009864
  0
ARC
  5
376
330
1F
100
AcDbEntity
  8
TEXT
100
AcDbCircle
 10
92.01653609849607
 20
6.185001002521829
 30
0.0
 40
0.0265966574946753
100
AcDbArc
 50
183.0745908828774
 51
5.238726745824513
  0
ARC
  5
377
330
1F
100
AcDbEntity
  8
TEXT
100
AcDbCircle
 10
91.9655966786699
 20
6.177793767714176
 30
0.0
 40
0.0250569730472726
100
AcDbArc
 50
13.33841226381602
 51
197.9246330182953
  0
ARC
  5
378
330
1F
100
AcDbEntity
  8
TEXT
100
AcDbCircle
 10
91.92897415389769
 20
6.198626008169737
 30
0.0
 40
0.0312750488583113
100
AcDbArc
 50
191.7667831442099
 51
294.1224948725135
  0
ARC
  5
379
330
1F
100
AcDbEntity
  8
TEXT
100
AcDbCircle
 10
91.86926800266702
 20
6.155324471372622
 30
0.0
 40
0.0470051845387585
100
AcDbArc
 50
51.76909225769965
 51
154.0890012254448
  0
ARC
  5
37A
330
1F
100
AcDbEntity
  8
TEXT
100
AcDbCircle
 10
91.7981868323722
 20
6.187315140462913
 30
0.0
 40
0.0309939889989944
100
AcDbArc
 50
179.7887253899368
 51
338.318548208448
  0
ARC
  5
37B
330
1F
100
AcDbEntity
  8
TEXT
100
AcDbCircle
 10
91.74693560942831
 20
6.194715540887386
 30
0.0
 40
0.0215279236429722
100
AcDbArc
 50
340.2175703033617
 51
119.5111127021387
  0
ARC
  5
37C
330
1F
100
AcDbEntity
  8
TEXT
100
AcDbCircle
 10
91.71823067963115
 20
6.208001073235621
 30
0.0
 40
0.0189029480241147
100
AcDbArc
 50
208.4553291170986
 51
16.75507449313857
  0
ARC
  5
37D
330
1F
100
AcDbEntity
  8
TEXT
100
AcDbCircle
 10
91.68095201496589
 20
6.196249653531452
 30
0.0
 40
0.020840924643935
100
AcDbArc
 50
7.567610287756977
 51
183.0538693842453
  0
ARC
  5
37E
330
1F
100
AcDbEntity
  8
TEXT
100
AcDbCircle
 10
91.63404642514556
 20
6.192296658269269
 30
0.0
 40
0.026248646137591
100
AcDbArc
 50
151.6108765070427
 51
6.217261201770478
  0
ARC
  5
37F
330
1F
100
AcDbEntity
  8
TEXT
100
AcDbCircle
 10
91.5905134867445
 20
6.203590969209272
 30
0.0
 40
0.0204753503796834
100
AcDbArc
 50
3.320051391017496
 51
168.5145862198272
  0
ARC
  5
380
330
1F
100
AcDbEntity
  8
TEXT
100
AcDbCircle
 10
91.54530246609516
 20
6.197975113673052
 30
0.0
 40
0.0269491573962936
100
AcDbArc
 50
181.931421762249
 51
21.08009584438978
  0
ARC
  5
381
330
1F
100
AcDbEntity
  8
TEXT
100
AcDbCircle
 10
91.48780215852458
 20
6.177264985463807
 30
0.0
 40
0.0364200753669365
100
AcDbArc
 50
32.93635467158921
 51
189.5430854165198
  0
ARC
  5
382
330
1F
100
AcDbEntity
  8
TEXT
100
AcDbCircle
 10
93.9294286088298
 20
4.27114022304694
 30
0.0
 40
0.2472981935473236
100
AcDbArc
 50
312.2086974257835
 51
3.264333629957782
  0
ARC
  5
383
330
1F
100
AcDbEntity
  8
TEXT
100
AcDbCircle
 10
93.8912077702918
 20
4.343580199375678
 30
0.0
 40
0.3272664624050188
100
AcDbArc
 50
264.6664639047648
 51
308.6423664458139
  0
ARC
  5
384
330
1F
100
AcDbEntity
  8
TEXT
100
AcDbCircle
 10
93.86242231199629
 20
4.295390941254979
 30
0.0
 40
0.2776651057971328
100
AcDbArc
 50
231.6935697703411
 51
269.6626044169122
  0
ARC
  5
385
330
1F
100
AcDbEntity
  8
TEXT
100
AcDbCircle
 10
93.91361712360895
 20
4.243312016721374
 30
0.0
 40
0.1584980800868537
100
AcDbArc
 50
343.5952529167611
 51
35.13836089168098
  0
ARC
  5
386
330
1F
100
AcDbEntity
  8
TEXT
100
AcDbCircle
 10
93.92369416175023
 20
4.28724836848599
 30
0.0
 40
0.1285505207000911
100
AcDbArc
 50
21.58325850317087
 51
95.38396011116695
  0
ARC
  5
387
330
1F
100
AcDbEntity
  8
TEXT
100
AcDbCircle
 10
93.890322609657
 20
4.306907931122296
 30
0.0
 40
0.1103999789882126
100
AcDbArc
 50
78.87075864991586
 51
146.7670066549814
  0
ARC
  5
388
330
1F
100
AcDbEntity
  8
TEXT
100
AcDbCircle
 10
93.97275956774086
 20
4.285684400894425
 30
0.0
 40
0.20356650771021
100
AcDbArc
 50
359.8698564192919
 51
62.37231490188353
  0
ARC
  5
389
330
1F
100
AcDbEntity
  8
TEXT
100
AcDbCircle
 10
93.97254496533005
 20
4.190013533233326
 30
0.0
 40
0.2917916851408134
100
AcDbArc
 50
71.07988584761978
 51
127.1124618564865
  0
LINE
  5
38A
330
1F
100
AcDbEntity
  8
TEXT
100
AcDbLine
 10
93.79797867258414
 20
4.367412085082817
 30
0.0
 11
93.79947411589045
 21
4.110381281914995
 31
0.0
  0
LINE
  5
38B
330
1F
100
AcDbEntity
  8
TEXT
100
AcDbLine
 10
93.61703017190626
 20
4.624442888250683
 30
0.0
 11
93.67983874430962
 21
4.619959786918811
 31
0.0
  0
LINE
  5
38C
330
1F
100
AcDbEntity
  8
TEXT
100
AcDbLine
 10
93.61403928529364
 20
4.657318900386798
 30
0.0
 11
93.61703017190626
 21
4.624442888250683
 31
0.0
  0
ARC
  5
38D
330
1F
100
AcDbEntity
  8
TEXT
100
AcDbCircle
 10
93.57223678555625
 20
5.332973407576815
 30
0.0
 40
0.6769464248154656
100
AcDbArc
 50
273.5403564160214
 51
289.075801678542
  0
LINE
  5
38E
330
1F
100
AcDbEntity
  8
TEXT
100
AcDbLine
 10
93.79347559005202
 20
4.693200124721244
 30
0.0
 11
93.79648327574171
 21
4.422703603878061
 31
0.0
  0
LINE
  5
38F
330
1F
100
AcDbEntity
  8
TEXT
100
AcDbLine
 10
93.67983874430962
 20
4.619959786918811
 30
0.0
 11
93.69030684745416
 21
4.077505242222883
 31
0.0
  0
ARC
  5
390
330
1F
100
AcDbEntity
  8
TEXT
100
AcDbCircle
 10
93.57884111334541
 20
3.708374931370413
 30
0.0
 40
0.351566704136801
100
AcDbArc
 50
88.18956599987521
 51
113.165209052024
  0
ARC
  5
391
330
1F
100
AcDbEntity
  8
TEXT
100
AcDbCircle
 10
93.42337959329849
 20
4.036820745940872
 30
0.0
 40
0.0179385291697407
100
AcDbArc
 50
201.7006027724333
 51
343.0678677067634
  0
LINE
  5
392
330
1F
100
AcDbEntity
  8
TEXT
100
AcDbLine
 10
93.40530285993981
 20
4.083710478773183
 30
0.0
 11
93.40671239134103
 21
4.030187857604687
 31
0.0
  0
ARC
  5
393
330
1F
100
AcDbEntity
  8
TEXT
100
AcDbCircle
 10
93.23527818386947
 20
4.265610226043249
 30
0.0
 40
0.2489897759542632
100
AcDbArc
 50
260.0995263030863
 51
313.0673878832468
  0
ARC
  5
394
330
1F
100
AcDbEntity
  8
TEXT
100
AcDbCircle
 10
93.19240785287643
 20
4.128810128924186
 30
0.0
 40
0.1084817157947004
100
AcDbArc
 50
180.7587023263156
 51
270.031539090741
  0
ARC
  5
395
330
1F
100
AcDbEntity
  8
TEXT
100
AcDbCircle
 10
93.38374982762648
 20
4.407682175462809
 30
0.0
 40
0.0218518189318379
100
AcDbArc
 50
337.1943218370272
 51
115.641277885515
  0
LINE
  5
396
330
1F
100
AcDbEntity
  8
TEXT
100
AcDbLine
 10
93.40530285993981
 20
4.130190659214989
 30
0.0
 11
93.40389337500289
 21
4.399212258714115
 31
0.0
  0
LINE
  5
397
330
1F
100
AcDbEntity
  8
TEXT
100
AcDbLine
 10
93.32355157199236
 20
4.430199036489995
 30
0.0
 11
93.37429377314942
 21
4.427382049176941
 31
0.0
  0
LINE
  5
398
330
1F
100
AcDbEntity
  8
TEXT
100
AcDbLine
 10
93.32496105692928
 20
4.456960360852193
 30
0.0
 11
93.32355157199236
 21
4.430199036489995
 31
0.0
  0
LINE
  5
399
330
1F
100
AcDbEntity
  8
TEXT
100
AcDbLine
 10
93.03883147941684
 20
4.433016023803077
 30
0.0
 11
93.00923187756314
 21
4.437241477216672
 31
0.0
  0
LINE
  5
39A
330
1F
100
AcDbEntity
  8
TEXT
100
AcDbLine
 10
93.00782239262606
 20
4.456960360852193
 30
0.0
 11
93.00923187756314
 21
4.437241477216672
 31
0.0
  0
ARC
  5
39B
330
1F
100
AcDbEntity
  8
TEXT
100
AcDbCircle
 10
93.04814572114599
 20
4.401379007734746
 30
0.0
 40
0.0329796283286762
100
AcDbArc
 50
358.6825606331168
 51
106.4049357729542
  0
LINE
  5
39C
330
1F
100
AcDbEntity
  8
TEXT
100
AcDbLine
 10
93.50537773085285
 20
4.464002801578985
 30
0.0
 11
93.50819674719094
 21
4.144275540668431
 31
0.0
  0
LINE
  5
39D
330
1F
100
AcDbEntity
  8
TEXT
100
AcDbLine
 10
93.18823906654959
 20
4.464002801578985
 30
0.0
 11
93.19105808288776
 21
4.154134968708233
 31
0.0
  0
LINE
  5
39E
330
1F
100
AcDbEntity
  8
TEXT
100
AcDbLine
 10
93.08111663155957
 20
4.400620752370612
 30
0.0
 11
93.08393564789765
 21
4.127373671901948
 31
0.0
  0
LINE
  5
39F
330
1F
100
AcDbEntity
  8
TEXT
100
AcDbLine
 10
93.32496105692928
 20
4.456960360852193
 30
0.0
 11
93.50537773085285
 21
4.464002801578985
 31
0.0
  0
LINE
  5
3A0
330
1F
100
AcDbEntity
  8
TEXT
100
AcDbLine
 10
93.00782239262606
 20
4.456960360852193
 30
0.0
 11
93.18823906654959
 21
4.464002801578985
 31
0.0
  0
LINE
  5
3A1
330
1F
100
AcDbEntity
  8
TEXT
100
AcDbLine
 10
91.86958406164698
 20
4.894408664035053
 30
0.0
 11
91.85249042678655
 21
4.85597572364486
 31
0.0
  0
ARC
  5
3A2
330
1F
100
AcDbEntity
  8
TEXT
100
AcDbCircle
 10
91.89415614433471
 20
4.895707027025737
 30
0.0
 40
0.0246063608455723
100
AcDbArc
 50
183.0246359049376
 51
356.9753640950624
  0
LINE
  5
3A3
330
1F
100
AcDbEntity
  8
TEXT
100
AcDbLine
 10
91.92727499798838
 20
4.960598717324188
 30
0.0
 11
91.91872822702206
 21
4.894408664035053
 31
0.0
  0
ARC
  5
3A4
330
1F
100
AcDbEntity
  8
TEXT
100
AcDbCircle
 10
91.94581291982206
 20
4.968431086842088
 30
0.0
 40
0.0201246256654633
100
AcDbArc
 50
8.122642540875155
 51
202.9043136183461
  0
LINE
  5
3A5
330
1F
100
AcDbEntity
  8
TEXT
100
AcDbLine
 10
91.94864206479564
 20
4.843164752700118
 30
0.0
 11
91.96573565319193
 21
4.9712745448154
 31
0.0
  0
ARC
  5
3A6
330
1F
100
AcDbEntity
  8
TEXT
100
AcDbCircle
 10
91.98708676393652
 20
4.844806324957558
 30
0.0
 40
0.0384797303980822
100
AcDbArc
 50
182.4450201076249
 51
0.7349407504797633
  0
LINE
  5
3A7
330
1F
100
AcDbEntity
  8
TEXT
100
AcDbLine
 10
92.02556332873877
 20
4.947787746379447
 30
0.0
 11
92.02556332873877
 21
4.845299896153632
 31
0.0
  0
ARC
  5
3A8
330
1F
100
AcDbEntity
  8
TEXT
100
AcDbCircle
 10
92.05448788201721
 20
4.947341621465311
 30
0.0
 40
0.0289279935321181
100
AcDbArc
 50
179.1163546128549
 51
32.14670843865731
  0
LINE
  5
3A9
330
1F
100
AcDbEntity
  8
TEXT
100
AcDbLine
 10
92.07898087959723
 20
4.990491001232541
 30
0.0
 11
92.07898087959723
 21
4.962733888333686
 31
0.0
  0
ARC
  5
3AA
330
1F
100
AcDbEntity
  8
TEXT
100
AcDbCircle
 10
92.10900943403862
 20
4.983038490791044
 30
0.0
 40
0.0309395215497959
100
AcDbArc
 50
26.6094112993952
 51
166.0619000058105
  0
LINE
  5
3AB
330
1F
100
AcDbEntity
  8
TEXT
100
AcDbLine
 10
92.14094524788562
 20
4.934976775434677
 30
0.0
 11
92.13667186240252
 21
4.996896486704983
 31
0.0
  0
ARC
  5
3AC
330
1F
100
AcDbEntity
  8
TEXT
100
AcDbCircle
 10
92.17143700862155
 20
4.927029859233542
 30
0.0
 40
0.0315103308438663
100
AcDbArc
 50
165.3922446503685
 51
2.803879044206349
  0
LINE
  5
3AD
330
1F
100
AcDbEntity
  8
TEXT
100
AcDbLine
 10
92.20504630891538
 20
5.009707485205581
 30
0.0
 11
92.20290961617413
 21
4.928571262406363
 31
0.0
  0
ARC
  5
3AE
330
1F
100
AcDbEntity
  8
TEXT
100
AcDbCircle
 10
92.27375722717622
 20
4.675516471087178
 30
0.0
 40
0.3411815121100969
100
AcDbArc
 50
60.82353397560617
 51
101.6183182656855
  0
ARC
  5
3AF
330
1F
100
AcDbEntity
  8
TEXT
100
AcDbCircle
 10
92.37556991541948
 20
4.925595661091987
 30
0.0
 40
0.0803006475912857
100
AcDbArc
 50
335.482723053164
 51
36.54383594003252
  0
ARC
  5
3B0
330
1F
100
AcDbEntity
  8
TEXT
100
AcDbCircle
 10
92.46672940919236
 20
4.866036550682679
 30
0.0
 40
0.0318740189298138
100
AcDbArc
 50
124.5991194751609
 51
24.91162951380401
  0
ARC
  5
3B1
330
1F
100
AcDbEntity
  8
TEXT
100
AcDbCircle
 10
92.50720935342092
 20
4.897283571977793
 30
0.0
 40
0.0212482973755754
100
AcDbArc
 50
15.4647115143362
 51
237.003605808355
  0
ARC
  5
3B2
330
1F
100
AcDbEntity
  8
TEXT
100
AcDbCircle
 10
92.45077742594203
 20
4.852380076573169
 30
0.0
 40
0.0920463968638856
100
AcDbArc
 50
331.8837666959826
 51
33.32508059324369
  0
ARC
  5
3B3
330
1F
100
AcDbEntity
  8
TEXT
100
AcDbCircle
 10
92.5522604127264
 20
4.786075893920056
 30
0.0
 40
0.0306210437096163
100
AcDbArc
 50
131.5213803610218
 51
48.47861963898407
  0
ARC
  5
3B4
330
1F
100
AcDbEntity
  8
TEXT
100
AcDbCircle
 10
92.58733181021694
 20
4.812427584853536
 30
0.0
 40
0.0151646669334516
100
AcDbArc
 50
3.193725348484526
 51
193.0548754998616
  0
ARC
  5
3B5
330
1F
100
AcDbEntity
  8
TEXT
100
AcDbCircle
 10
92.69569111114073
 20
4.771750768283552
 30
0.0
 40
0.1020474382357674
100
AcDbArc
 50
155.9906329013486
 51
206.8057304576943
  0
ARC
  5
3B6
330
1F
100
AcDbEntity
  8
TEXT
100
AcDbCircle
 10
92.1884660607326
 20
4.535405341764941
 30
0.0
 40
0.4576016003308978
100
AcDbArc
 50
344.8914411173241
 51
24.57723374822267
  0
ARC
  5
3B7
330
1F
100
AcDbEntity
  8
TEXT
100
AcDbCircle
 10
92.48407243829587
 20
4.372325450464757
 30
0.0
 40
0.1526005224908516
100
AcDbArc
 50
300.6537348898137
 51
16.68245916376097
  0
ARC
  5
3B8
330
1F
100
AcDbEntity
  8
TEXT
100
AcDbCircle
 10
92.3482053498621
 20
4.046087347924554
 30
0.0
 40
0.0586223231356289
100
AcDbArc
 50
244.0629515517931
 51
24.32612031264297
  0
ARC
  5
3B9
330
1F
100
AcDbEntity
  8
TEXT
100
AcDbCircle
 10
92.24778037283398
 20
3.943535159092376
 30
0.0
 40
0.0898677641391095
100
AcDbArc
 50
33.67851647490189
 51
106.5775508010122
  0
ARC
  5
3BA
330
1F
100
AcDbEntity
  8
TEXT
100
AcDbCircle
 10
92.190763885303
 20
4.047454606433858
 30
0.0
 40
0.0360671252453383
100
AcDbArc
 50
194.854618224045
 51
330.4510994340804
  0
ARC
  5
3BB
330
1F
100
AcDbEntity
  8
TEXT
100
AcDbCircle
 10
92.11537071421357
 20
4.084427432074561
 30
0.0
 40
0.0614737052741723
100
AcDbArc
 50
223.030562506127
 51
311.2487591160724
  0
ARC
  5
3BC
330
1F
100
AcDbEntity
  8
TEXT
100
AcDbCircle
 10
92.03630029021828
 20
4.103953782086988
 30
0.0
 40
0.0703159009561637
100
AcDbArc
 50
214.793449458195
 51
299.0409507876108
  0
ARC
  5
3BD
330
1F
100
AcDbEntity
  8
TEXT
100
AcDbCircle
 10
91.95765640821491
 20
4.063225097778384
 30
0.0
 40
0.0209082042318717
100
AcDbArc
 50
1.658272028070106
 51
160.4091839300749
  0
ARC
  5
3BE
330
1F
100
AcDbEntity
  8
TEXT
100
AcDbCircle
 10
91.92130681916443
 20
4.067669029278675
 30
0.0
 40
0.0168483748564113
100
AcDbArc
 50
156.0593073728619
 51
8.762281217120088
  0
ARC
  5
3BF
330
1F
100
AcDbEntity
  8
TEXT
100
AcDbCircle
 10
91.78473562181915
 20
4.034552149732917
 30
0.0
 40
0.1275893630532785
100
AcDbArc
 50
18.24878221232246
 51
92.19784172829085
  0
ARC
  5
3C0
330
1F
100
AcDbEntity
  8
TEXT
100
AcDbCircle
 10
91.71468408093984
 20
4.178988603179873
 30
0.0
 40
0.0673247477491828
100
AcDbArc
 50
345.4259909574679
 51
72.46181126870034
  0
ARC
  5
3C1
330
1F
100
AcDbEntity
  8
TEXT
100
AcDbCircle
 10
91.59179011464493
 20
4.276278875055807
 30
0.0
 40
0.1469567285840436
100
AcDbArc
 50
346.9852122362351
 51
34.01252680042804
  0
ARC
  5
3C2
330
1F
100
AcDbEntity
  8
TEXT
100
AcDbCircle
 10
92.32808482301004
 20
4.504110669932117
 30
0.0
 40
0.6315007678980332
100
AcDbArc
 50
153.537464724411
 51
193.3327646348718
  0
ARC
  5
3C3
330
1F
100
AcDbEntity
  8
TEXT
100
AcDbCircle
 10
91.79476596553087
 20
4.801842399272131
 30
0.0
 40
0.0359396980086413
100
AcDbArc
 50
103.7022990326944
 51
207.0193065629238
  0
ARC
  5
3C4
330
1F
100
AcDbEntity
  8
TEXT
100
AcDbCircle
 10
91.8153892827205
 20
4.860094052727419
 30
0.0
 40
0.0373290172045402
100
AcDbArc
 50
218.6904014524236
 51
353.665941150076
  0
ARC
  5
3C5
330
1F
100
AcDbEntity
  8
TEXT
100
AcDbCircle
 10
91.88920694778813
 20
4.804460769108615
 30
0.0
 40
0.2006335501036366
100
AcDbArc
 50
120.6947626763563
 51
155.9971516553445
  0
LINE
  5
3C6
330
1F
100
AcDbEntity
  8
TEXT
100
AcDbLine
 10
91.70736719063706
 20
4.994301627719976
 30
0.0
 11
91.70592313649626
 21
4.886074897453696
 31
0.0
  0
LINE
  5
3C7
330
1F
100
AcDbEntity
  8
TEXT
100
AcDbLine
 10
91.78967878776063
 20
5.018833016239638
 30
0.0
 11
91.78679067947928
 21
4.976985345366188
 31
0.0
  0
ARC
  5
3C8
330
1F
100
AcDbEntity
  8
TEXT
100
AcDbCircle
 10
91.75274907040565
 20
4.992387305490551
 30
0.0
 40
0.0454222372956061
100
AcDbArc
 50
35.60679995345882
 51
177.5845513854531
  0
ARC
  5
3C9
330
1F
100
AcDbEntity
  8
TEXT
100
AcDbCircle
 10
91.89485423155003
 20
5.132807114373321
 30
0.0
 40
0.0315845153571128
100
AcDbArc
 50
318.2823815987287
 51
84.36248438139953
  0
ARC
  5
3CA
330
1F
100
AcDbEntity
  8
TEXT
100
AcDbCircle
 10
91.96694806114328
 20
5.027886024679047
 30
0.0
 40
0.096921074932252
100
AcDbArc
 50
81.18509483549695
 51
120.0392913824101
  0
ARC
  5
3CB
330
1F
100
AcDbEntity
  8
TEXT
100
AcDbCircle
 10
92.01365399635271
 20
4.947039729207488
 30
0.0
 40
0.179471957044587
100
AcDbArc
 50
70.05468846035606
 51
100.2232656721042
  0
ARC
  5
3CC
330
1F
100
AcDbEntity
  8
TEXT
100
AcDbCircle
 10
92.09566946468205
 20
5.109538298833625
 30
0.0
 40
0.0217005028691351
100
AcDbArc
 50
163.3756550464642
 51
16.62434495352864
  0
ARC
  5
3CD
330
1F
100
AcDbEntity
  8
TEXT
100
AcDbCircle
 10
92.15398412314602
 20
5.072013715423621
 30
0.0
 40
0.0576230572379223
100
AcDbArc
 50
46.43616582623985
 51
130.6283095026658
  0
ARC
  5
3CE
330
1F
100
AcDbEntity
  8
TEXT
100
AcDbCircle
 10
92.21284236640087
 20
5.114959203909362
 30
0.0
 40
0.0191836373616905
100
AcDbArc
 50
183.5606974541692
 51
344.4298925613464
  0
ARC
  5
3CF
330
1F
100
AcDbEntity
  8
TEXT
100
AcDbCircle
 10
92.26597778285242
 20
5.096581158091936
 30
0.0
 40
0.0370947969493738
100
AcDbArc
 50
20.89289471578055
 51
159.1071052842194
  0
ARC
  5
3D0
330
1F
100
AcDbEntity
  8
TEXT
100
AcDbCircle
 10
92.32452277533615
 20
5.070900109094053
 30
0.0
 40
0.0456582250697036
100
AcDbArc
 50
24.75773987532819
 51
121.5483884163395
  0
ARC
  5
3D1
330
1F
100
AcDbEntity
  8
TEXT
100
AcDbCircle
 10
92.39750511341172
 20
5.073694731477131
 30
0.0
 40
0.035497909458856
100
AcDbArc
 50
47.61705801860784
 51
152.6179806585991
  0
ARC
  5
3D2
330
1F
100
AcDbEntity
  8
TEXT
100
AcDbCircle
 10
92.44277754914385
 20
5.079759404131976
 30
0.0
 40
0.0293569419329476
100
AcDbArc
 50
136.6395135700793
 51
16.38775991618311
  0
ARC
  5
3D3
330
1F
100
AcDbEntity
  8
TEXT
100
AcDbCircle
 10
92.47803425381524
 20
5.000273293073489
 30
0.0
 40
0.0880548713412066
100
AcDbArc
 50
41.27304036069005
 51
94.61991284103847
  0
ARC
  5
3D4
330
1F
100
AcDbEntity
  8
TEXT
100
AcDbCircle
 10
92.57967077178498
 20
5.054755880479176
 30
0.0
 40
0.035639269272065
100
AcDbArc
 50
174.1982733486934
 51
308.063459648362
  0
ARC
  5
3D5
330
1F
100
AcDbEntity
  8
TEXT
100
AcDbCircle
 10
92.62773769485972
 20
5.011913160908747
 30
0.0
 40
0.0299906125934569
100
AcDbArc
 50
296.7794474250801
 51
150.4674482996618
  0
ARC
  5
3D6
330
1F
100
AcDbEntity
  8
TEXT
100
AcDbCircle
 10
92.65214199346829
 20
4.769130254485673
 30
0.0
 40
0.216283286482772
100
AcDbArc
 50
78.6467194011529
 51
92.8865786316482
  0
ARC
  5
3D7
330
1F
100
AcDbEntity
  8
TEXT
100
AcDbCircle
 10
92.6240408064279
 20
4.894434630658223
 30
0.0
 40
0.1118946167079948
100
AcDbArc
 50
356.7791343814142
 51
50.82801334298936
  0
ARC
  5
3D8
330
1F
100
AcDbEntity
  8
TEXT
100
AcDbCircle
 10
92.75962289809065
 20
4.812817652385304
 30
0.0
 40
0.0790198420196565
100
AcDbArc
 50
51.01090143870901
 51
107.577946053111
  0
ARC
  5
3D9
330
1F
100
AcDbEntity
  8
TEXT
100
AcDbCircle
 10
92.41420938449085
 20
4.535342410319258
 30
0.0
 40
0.5205552787424494
100
AcDbArc
 50
317.9732863042366
 51
40.6189493756024
  0
ARC
  5
3DA
330
1F
100
AcDbEntity
  8
TEXT
100
AcDbCircle
 10
93.30761930033279
 20
4.081057674251808
 30
0.0
 40
0.5154885010394051
100
AcDbArc
 50
179.4662202071271
 51
190.5890997840366
  0
ARC
  5
3DB
330
1F
100
AcDbEntity
  8
TEXT
100
AcDbCircle
 10
92.7572220236758
 20
3.965627553954873
 30
0.0
 40
0.0483440554002332
100
AcDbArc
 50
282.9712622283036
 51
25.35441378639507
  0
ARC
  5
3DC
330
1F
100
AcDbEntity
  8
TEXT
100
AcDbCircle
 10
92.82793407641504
 20
3.974615751546251
 30
0.0
 40
0.0820387328642362
100
AcDbArc
 50
169.4684867573172
 51
223.1418439421434
  0
ARC
  5
3DD
330
1F
100
AcDbEntity
  8
TEXT
100
AcDbCircle
 10
92.64242763728205
 20
4.033360275043122
 30
0.0
 40
0.1136111829157347
100
AcDbArc
 50
337.3510782224619
 51
22.6489217775381
  0
ARC
  5
3DE
330
1F
100
AcDbEntity
  8
TEXT
100
AcDbCircle
 10
92.34744527718071
 20
4.374296747204367
 30
0.0
 40
0.4471944637021735
100
AcDbArc
 50
311.607168930111
 51
318.3515702307968
  0
ARC
  5
3DF
330
1F
100
AcDbEntity
  8
TEXT
100
AcDbCircle
 10
92.64414723846256
 20
4.025069705741373
 30
0.0
 40
0.0148550312302375
100
AcDbArc
 50
89.05883162362073
 51
223.9137905963026
  0
ARC
  5
3E0
330
1F
100
AcDbEntity
  8
TEXT
100
AcDbCircle
 10
92.51639405278091
 20
3.997856952464004
 30
0.0
 40
0.1182669606179524
100
AcDbArc
 50
322.6907301981538
 51
8.220255073941016
  0
ARC
  5
3E1
330
1F
100
AcDbEntity
  8
TEXT
100
AcDbCircle
 10
92.62910484360128
 20
3.90327479450174
 30
0.0
 40
0.0295287542363986
100
AcDbArc
 50
129.152739345803
 51
254.8870408388506
  0
ARC
  5
3E2
330
1F
100
AcDbEntity
  8
TEXT
100
AcDbCircle
 10
92.62790565346636
 20
3.863535995401604
 30
0.0
 40
0.0129764444312031
100
AcDbArc
 50
312.7998628402714
 51
120.0581864533369
  0
ARC
  5
3E3
330
1F
100
AcDbEntity
  8
TEXT
100
AcDbCircle
 10
92.85497632016648
 20
3.759223526459308
 30
0.0
 40
0.1170400628647417
100
AcDbArc
 50
99.17143729878524
 51
127.795528329094
  0
ARC
  5
3E4
330
1F
100
AcDbEntity
  8
TEXT
100
AcDbCircle
 10
92.83165101161552
 20
3.821396399406665
 30
0.0
 40
0.0535748915109346
100
AcDbArc
 50
341.5477100758337
 51
84.99888070834156
  0
ARC
  5
3E5
330
1F
100
AcDbEntity
  8
TEXT
100
AcDbCircle
 10
92.58614932925564
 20
3.958594360428421
 30
0.0
 40
0.086772978703449
100
AcDbArc
 50
156.288597549796
 51
210.2571046136436
  0
ARC
  5
3E6
330
1F
100
AcDbEntity
  8
TEXT
100
AcDbCircle
 10
92.52436461085148
 20
3.987122981792296
 30
0.0
 40
0.0187750821305303
100
AcDbArc
 50
31.23099864076702
 51
160.1819529381847
  0
LINE
  5
3E7
330
1F
100
AcDbEntity
  8
TEXT
100
AcDbLine
 10
92.53929496340118
 20
3.911501779210211
 30
0.0
 11
92.54041888069599
 21
3.996857668678444
 31
0.0
  0
ARC
  5
3E8
330
1F
100
AcDbEntity
  8
TEXT
100
AcDbCircle
 10
92.52432790698327
 20
3.905529617272747
 30
0.0
 40
0.0161145740253867
100
AcDbArc
 50
144.5711585108377
 51
21.75301147887043
  0
ARC
  5
3E9
330
1F
100
AcDbEntity
  8
TEXT
100
AcDbCircle
 10
92.21990845855195
 20
3.870381956373236
 30
0.0
 40
0.029463019482902
100
AcDbArc
 50
177.787775166229
 51
326.3805826419359
  0
ARC
  5
3EA
330
1F
100
AcDbEntity
  8
TEXT
100
AcDbCircle
 10
92.17392577176502
 20
3.873105653538543
 30
0.0
 40
0.0166175220464324
100
AcDbArc
 50
354.5219056877808
 51
214.944854376383
  0
LINE
  5
3EB
330
1F
100
AcDbEntity
  8
TEXT
100
AcDbLine
 10
92.0841030226652
 20
3.895315041863113
 30
0.0
 11
92.08727809250826
 21
3.796959202902384
 31
0.0
  0
ARC
  5
3EC
330
1F
100
AcDbEntity
  8
TEXT
100
AcDbCircle
 10
92.0187398042913
 20
3.923794766481818
 30
0.0
 40
0.0178150126029644
100
AcDbArc
 50
5.351678383090991
 51
195.2435488026432
  0
LINE
  5
3ED
330
1F
100
AcDbEntity
  8
TEXT
100
AcDbLine
 10
91.99678897369484
 20
3.763645134193437
 30
0.0
 11
92.00155157845914
 21
3.919110797353539
 31
0.0
  0
LINE
  5
3EE
330
1F
100
AcDbEntity
  8
TEXT
100
AcDbLine
 10
91.92058766917478
 20
3.954011260784127
 30
0.0
 11
91.93487539054023
 21
3.757299610418328
 31
0.0
  0
ARC
  5
3EF
330
1F
100
AcDbEntity
  8
TEXT
100
AcDbCircle
 10
91.88696615054487
 20
3.94952102319813
 30
0.0
 40
0.0339200346190439
100
AcDbArc
 50
7.606980527162062
 51
103.0413594591623
  0
ARC
  5
3F0
330
1F
100
AcDbEntity
  8
TEXT
100
AcDbCircle
 10
91.86502420247416
 20
3.951655403135673
 30
0.0
 40
0.034053125144394
100
AcDbArc
 50
65.19241843010765
 51
139.0508106988783
  0
LINE
  5
3F1
330
1F
100
AcDbEntity
  8
TEXT
100
AcDbLine
 10
91.83930418061205
 20
3.93109258289661
 30
0.0
 11
91.83930418061205
 21
3.973973463255731
 31
0.0
  0
ARC
  5
3F2
330
1F
100
AcDbEntity
  8
TEXT
100
AcDbCircle
 10
91.82024086372704
 20
3.925966765156815
 30
0.0
 40
0.0197404168689767
100
AcDbArc
 50
168.3169857564303
 51
15.0499521145174
  0
LINE
  5
3F3
330
1F
100
AcDbEntity
  8
TEXT
100
AcDbLine
 10
91.79526315453578
 20
3.981872562643373
 30
0.0
 11
91.80090941133704
 21
3.929964140126968
 31
0.0
  0
ARC
  5
3F4
330
1F
100
AcDbEntity
  8
TEXT
100
AcDbCircle
 10
91.78748552358262
 20
3.988717152619301
 30
0.0
 40
0.0103604997553829
100
AcDbArc
 50
318.6510821797601
 51
186.6644145786507
  0
LINE
  5
3F5
330
1F
100
AcDbEntity
  8
TEXT
100
AcDbLine
 10
91.77267798793925
 20
3.948019224441623
 30
0.0
 11
91.77719503055127
 21
3.987514776491763
 31
0.0
  0
ARC
  5
3F6
330
1F
100
AcDbEntity
  8
TEXT
100
AcDbCircle
 10
91.74478739504305
 20
3.940641561308495
 30
0.0
 40
0.0288498714972118
100
AcDbArc
 50
172.045705651638
 51
14.81661014794029
  0
LINE
  5
3F7
330
1F
100
AcDbEntity
  8
TEXT
100
AcDbLine
 10
91.70943957722551
 20
4.039423226563997
 30
0.0
 11
91.71621509467971
 21
3.9446338961326
 31
0.0
  0
ARC
  5
3F8
330
1F
100
AcDbEntity
  8
TEXT
100
AcDbCircle
 10
91.71689043159256
 20
4.108482091393368
 30
0.0
 40
0.0694596432636919
100
AcDbArc
 50
209.3802246625985
 51
263.8421008682747
  0
ARC
  5
3F9
330
1F
100
AcDbEntity
  8
TEXT
100
AcDbCircle
 10
91.62991120621052
 20
4.065978151097397
 30
0.0
 40
0.0277630400807208
100
AcDbArc
 50
17.66955929970867
 51
146.8111142491889
  0
ARC
  5
3FA
330
1F
100
AcDbEntity
  8
TEXT
100
AcDbCircle
 10
91.59573332331165
 20
4.073964855667242
 30
0.0
 40
0.0131058310668502
100
AcDbArc
 50
192.9866902548921
 51
33.38063139741218
  0
LINE
  5
3FB
330
1F
100
AcDbEntity
  8
TEXT
100
AcDbLine
 10
91.58296270933396
 20
4.111643646490263
 30
0.0
 11
91.58296270933396
 21
4.071019651670495
 31
0.0
  0
ARC
  5
3FC
330
1F
100
AcDbEntity
  8
TEXT
100
AcDbCircle
 10
91.57432143984726
 20
4.115916698753693
 30
0.0
 40
0.0096400474057499
100
AcDbArc
 50
333.687900136721
 51
192.0722457553363
  0
LINE
  5
3FD
330
1F
100
AcDbEntity
  8
TEXT
100
AcDbLine
 10
91.56489458534927
 20
4.113900532029575
 30
0.0
 11
91.56263606404335
 21
3.841945493869558
 31
0.0
  0
ARC
  5
3FE
330
1F
100
AcDbEntity
  8
TEXT
100
AcDbCircle
 10
97.13312900279492
 20
4.007192723151945
 30
0.0
 40
5.631183152510474
100
AcDbArc
 50
178.046431944998
 51
181.7502526685598
  0
ARC
  5
3FF
330
1F
100
AcDbEntity
  8
TEXT
100
AcDbCircle
 10
91.44440418324768
 20
4.182666999598495
 30
0.0
 40
0.0630107318165165
100
AcDbArc
 50
15.17145974978885
 51
87.54918714297627
  0
ARC
  5
400
330
1F
100
AcDbEntity
  8
TEXT
100
AcDbCircle
 10
92.79708891481948
 20
4.527498475714324
 30
0.0
 40
1.379104488609082
100
AcDbArc
 50
175.4121316267021
 51
191.7939289657072
  0
ARC
  5
401
330
1F
100
AcDbEntity
  8
TEXT
100
AcDbCircle
 10
91.74758882933224
 20
4.634054698967077
 30
0.0
 40
0.3252072117062481
100
AcDbArc
 50
117.322218089242
 51
179.3383492613259
  0
ARC
  5
402
330
1F
100
AcDbEntity
  8
TEXT
100
AcDbCircle
 10
91.57024208674192
 20
4.953106061243302
 30
0.0
 40
0.0411811834575156
100
AcDbArc
 50
312.9867785858867
 51
66.99118422926599
  0
ARC
  5
403
330
1F
100
AcDbEntity
  8
TEXT
100
AcDbCircle
 10
91.56591952576375
 20
5.001734921291371
 30
0.0
 40
0.0230638972259198
100
AcDbArc
 50
332.2921775479027
 51
119.56785717599
  0
ARC
  5
404
330
1F
100
AcDbEntity
  8
TEXT
100
AcDbCircle
 10
91.57577729248634
 20
4.986784455594985
 30
0.0
 40
0.0409492347281188
100
AcDbArc
 50
121.2424246402126
 51
213.4732397083763
  0
ARC
  5
405
330
1F
100
AcDbEntity
  8
TEXT
100
AcDbCircle
 10
91.53234970500101
 20
4.95586199828719
 30
0.0
 40
0.0124675402642027
100
AcDbArc
 50
201.5154657473976
 51
41.96660508022659
  0
ARC
  5
406
330
1F
100
AcDbEntity
  8
TEXT
100
AcDbCircle
 10
91.53266742310044
 20
4.996179994884613
 30
0.0
 40
0.0464452334003571
100
AcDbArc
 50
160.2627782819638
 51
255.1333022011721
  0
ARC
  5
407
330
1F
100
AcDbEntity
  8
TEXT
100
AcDbCircle
 10
91.47864827015849
 20
5.020571529492926
 30
0.0
 40
0.0134888020294727
100
AcDbArc
 50
124.2167745950192
 51
319.7988197133719
  0
ARC
  5
408
330
1F
100
AcDbEntity
  8
TEXT
100
AcDbCircle
 10
91.44976954700643
 20
5.032937622494499
 30
0.0
 40
0.0213280897613542
100
AcDbArc
 50
356.7423630506751
 51
136.5172760690062
  0
ARC
  5
409
330
1F
100
AcDbEntity
  8
TEXT
100
AcDbCircle
 10
91.44000843967139
 20
5.075618736417624
 30
0.0
 40
0.0285815193943549
100
AcDbArc
 50
116.3151684036771
 51
258.4674100382152
  0
ARC
  5
40A
330
1F
100
AcDbEntity
  8
TEXT
100
AcDbCircle
 10
91.4425333286937
 20
5.086699690958639
 30
0.0
 40
0.0210302089661553
100
AcDbArc
 50
348.1206509806757
 51
136.2651890953782
  0
ARC
  5
40B
330
1F
100
AcDbEntity
  8
TEXT
100
AcDbCircle
 10
91.4767431470956
 20
5.077076182517372
 30
0.0
 40
0.0146221711339888
100
AcDbArc
 50
158.7719549350952
 51
25.46716058584042
  0
ARC
  5
40C
330
1F
100
AcDbEntity
  8
TEXT
100
AcDbCircle
 10
91.52923191862949
 20
5.080063163908731
 30
0.0
 40
0.039425798127831
100
AcDbArc
 50
32.48569494743436
 51
175.1979664789355
  0
ARC
  5
40D
330
1F
100
AcDbEntity
  8
TEXT
100
AcDbCircle
 10
91.57876114467882
 20
5.093967747291499
 30
0.0
 40
0.017822947421257
100
AcDbArc
 50
155.9249042338167
 51
10.6649772550879
  0
ARC
  5
40E
330
1F
100
AcDbEntity
  8
TEXT
100
AcDbCircle
 10
91.65422890489486
 20
5.108566907378957
 30
0.0
 40
0.0590442237398211
100
AcDbArc
 50
109.4580308571273
 51
191.0341765876989
  0
LINE
  5
40F
330
1F
100
AcDbEntity
  8
TEXT
100
AcDbLine
 10
94.35366745011975
 20
4.301215558822248
 30
0.0
 11
94.72423898694833
 21
4.301215558822248
 31
0.0
  0
ARC
  5
410
330
1F
100
AcDbEntity
  8
TEXT
100
AcDbCircle
 10
94.55591040142143
 20
4.309042956648426
 30
0.0
 40
0.1685104770103569
100
AcDbArc
 50
357.3376237443688
 51
85.63084243886233
  0
ARC
  5
411
330
1F
100
AcDbEntity
  8
TEXT
100
AcDbCircle
 10
94.50337979059035
 20
4.1653543271415
 30
0.0
 40
0.3184897824823254
100
AcDbArc
 50
78.15621523985547
 51
106.6122408520356
  0
LINE
  5
412
330
1F
100
AcDbEntity
  8
TEXT
100
AcDbLine
 10
94.35366745011975
 20
4.341223332550072
 30
0.0
 11
94.59668045391079
 21
4.341223332550072
 31
0.0
  0
ARC
  5
413
330
1F
100
AcDbEntity
  8
TEXT
100
AcDbCircle
 10
94.47206905744776
 20
4.318098160042437
 30
0.0
 40
0.120638775778725
100
AcDbArc
 50
103.9179608005984
 51
168.9486088950471
  0
ARC
  5
414
330
1F
100
AcDbEntity
  8
TEXT
100
AcDbCircle
 10
94.49982650942041
 20
4.344282518629681
 30
0.0
 40
0.096902245499325
100
AcDbArc
 50
358.1908821763629
 51
69.74957583402911
  0
ARC
  5
415
330
1F
100
AcDbEntity
  8
TEXT
100
AcDbCircle
 10
94.48820911729077
 20
4.067431659990745
 30
0.0
 40
0.3705255297182153
100
AcDbArc
 50
82.99970676551479
 51
97.00029323448521
  0
ARC
  5
416
330
1F
100
AcDbEntity
  8
TEXT
100
AcDbCircle
 10
94.48553548721616
 20
4.252277591011689
 30
0.0
 40
0.2302235235905614
100
AcDbArc
 50
108.5416613320802
 51
149.7652339536159
  0
ARC
  5
417
330
1F
100
AcDbEntity
  8
TEXT
100
AcDbCircle
 10
94.48700895812118
 20
4.245264370380738
 30
0.0
 40
0.2350881653011852
100
AcDbArc
 50
148.4692011102813
 51
195.5802361373362
  0
ARC
  5
418
330
1F
100
AcDbEntity
  8
TEXT
100
AcDbCircle
 10
94.4826602091299
 20
4.238259907107361
 30
0.0
 40
0.2290858434257562
100
AcDbArc
 50
194.1847393568171
 51
248.6586767321129
  0
ARC
  5
419
330
1F
100
AcDbEntity
  8
TEXT
100
AcDbCircle
 10
94.57675854073436
 20
4.298474158184872
 30
0.0
 40
0.2231079334965001
100
AcDbArc
 50
179.2959701761241
 51
227.591548494084
  0
ARC
  5
41A
330
1F
100
AcDbEntity
  8
TEXT
100
AcDbCircle
 10
94.52810276786129
 20
4.258758839971306
 30
0.0
 40
0.1612292175423426
100
AcDbArc
 50
230.8416488637727
 51
280.5326941523482
  0
ARC
  5
41B
330
1F
100
AcDbEntity
  8
TEXT
100
AcDbCircle
 10
94.54917379379692
 20
4.302444456856321
 30
0.0
 40
0.2023726981956199
100
AcDbArc
 50
272.3792098458871
 51
327.3581874363232
  0
ARC
  5
41C
330
1F
100
AcDbEntity
  8
TEXT
100
AcDbCircle
 10
94.48934628671249
 20
4.344939767931236
 30
0.0
 40
0.3324854149250318
100
AcDbArc
 50
254.28478308494
 51
294.1819270465999
  0
ARC
  5
41D
330
1F
100
AcDbEntity
  8
TEXT
100
AcDbCircle
 10
94.51633611959762
 20
4.262368677498002
 30
0.0
 40
0.2462759970639658
100
AcDbArc
 50
296.3233923707214
 51
339.834833147579
  0
ARC
  5
41E
330
1F
100
AcDbEntity
  8
TEXT
100
AcDbCircle
 10
94.73085503238058
 20
4.180620132767542
 30
0.0
 40
0.016956132294399
100
AcDbArc
 50
349.2952029716974
 51
131.6626905469363
  0
ARC
  5
41F
330
1F
100
AcDbEntity
  8
TEXT
100
AcDbCircle
 10
92.05077081366408
 20
6.036984480700866
 30
0.0
 40
0.0341000039249001
100
AcDbArc
 50
146.5485285753443
 51
33.45147142465564
  0
ARC
  5
420
330
1F
100
AcDbEntity
  8
TEXT
100
AcDbCircle
 10
91.99620569442766
 20
6.097494143103176
 30
0.0
 40
0.0264428264920073
100
AcDbArc
 50
2.749965920202088
 51
141.7961814814361
  0
LINE
  5
421
330
1F
100
AcDbEntity
  8
TEXT
100
AcDbLine
 10
92.08063114089613
 20
6.171226929266139
 30
0.0
 11
92.07922225438801
 21
6.055781442912858
 31
0.0
  0
LINE
  5
422
330
1F
100
AcDbEntity
  8
TEXT
100
AcDbLine
 10
92.02261806975776
 20
6.098762804720877
 30
0.0
 11
92.02231937293987
 21
6.055781442912858
 31
0.0
  0
LINE
  5
423
330
1F
100
AcDbEntity
  8
TEXT
100
AcDbLine
 10
91.97542650682169
 20
6.113847993883053
 30
0.0
 11
91.89795692141036
 21
6.072560645230806
 31
0.0
  0
LINE
  5
424
330
1F
100
AcDbEntity
  8
TEXT
100
AcDbLine
 10
91.55709072701416
 20
6.113847993883053
 30
0.0
 11
91.63456031242573
 21
6.072560645230806
 31
0.0
  0
ARC
  5
425
330
1F
100
AcDbEntity
  8
TEXT
100
AcDbCircle
 10
91.53631153940841
 20
6.097494143103176
 30
0.0
 40
0.0264428264920073
100
AcDbArc
 50
38.20381851856384
 51
177.2500340797979
  0
LINE
  5
426
330
1F
100
AcDbEntity
  8
TEXT
100
AcDbLine
 10
91.89795692141036
 20
6.072560645230806
 30
0.0
 11
91.89795692141036
 21
5.16423886465823
 31
0.0
  0
LINE
  5
427
330
1F
100
AcDbEntity
  8
TEXT
100
AcDbLine
 10
91.63456031242573
 20
6.072560645230806
 30
0.0
 11
91.63456031242573
 21
5.16423886465823
 31
0.0
  0
ARC
  5
428
330
1F
100
AcDbEntity
  8
TEXT
100
AcDbCircle
 10
91.48633135392804
 20
5.576023832738683
 30
0.0
 40
0.0272119117930463
100
AcDbArc
 50
177.899482485688
 51
2.100517514311817
  0
LINE
  5
429
330
1F
100
AcDbEntity
  8
TEXT
100
AcDbLine
 10
91.50989916407805
 20
6.098762804720877
 30
0.0
 11
91.51352498102431
 21
5.577021223729616
 31
0.0
  0
LINE
  5
42A
330
1F
100
AcDbEntity
  8
TEXT
100
AcDbLine
 10
91.45188609293972
 20
6.171226929266139
 30
0.0
 11
91.45913772683206
 21
5.577021223729616
 31
0.0
  0
ARC
  5
42B
330
1F
100
AcDbEntity
  8
TEXT
100
AcDbCircle
 10
92.49778482406949
 20
5.376778078236327
 30
0.0
 40
0.0221927506748505
100
AcDbArc
 50
3.288025410275712
 51
105.9275278804377
  0
ARC
  5
42C
330
1F
100
AcDbEntity
  8
TEXT
100
AcDbCircle
 10
92.32504373558487
 20
5.508174553858481
 30
0.0
 40
0.1997117706064122
100
AcDbArc
 50
282.1628426667851
 51
326.5593609179307
  0
ARC
  5
42D
330
1F
100
AcDbEntity
  8
TEXT
100
AcDbCircle
 10
92.32357702530396
 20
5.468340703117291
 30
0.0
 40
0.1613805449285272
100
AcDbArc
 50
213.1462108998138
 51
285.6537258536392
  0
ARC
  5
42E
330
1F
100
AcDbEntity
  8
TEXT
100
AcDbCircle
 10
92.36916106445898
 20
5.493593144659755
 30
0.0
 40
0.2133880233333586
100
AcDbArc
 50
167.0430028911426
 51
212.1309371309446
  0
ARC
  5
42F
330
1F
100
AcDbEntity
  8
TEXT
100
AcDbCircle
 10
92.34404305304709
 20
5.475217725279178
 30
0.0
 40
0.1944596783564855
100
AcDbArc
 50
117.3722826858102
 51
160.0902491401812
  0
ARC
  5
430
330
1F
100
AcDbEntity
  8
TEXT
100
AcDbCircle
 10
92.25768541550415
 20
5.521588580124955
 30
0.0
 40
0.2989666606253797
100
AcDbArc
 50
310.2152586008207
 51
331.3072507285895
  0
ARC
  5
431
330
1F
100
AcDbEntity
  8
TEXT
100
AcDbCircle
 10
92.28622707049316
 20
5.449831536793453
 30
0.0
 40
0.2270724707486924
100
AcDbArc
 50
251.6347706403313
 51
316.4182924463649
  0
ARC
  5
432
330
1F
100
AcDbEntity
  8
TEXT
100
AcDbCircle
 10
92.25262645406662
 20
5.441273878660367
 30
0.0
 40
0.2103991344083915
100
AcDbArc
 50
194.9511061487651
 51
259.6103135862126
  0
ARC
  5
433
330
1F
100
AcDbEntity
  8
TEXT
100
AcDbCircle
 10
92.27471831995798
 20
5.448357185457551
 30
0.0
 40
0.2335733663948378
100
AcDbArc
 50
135.7093780000659
 51
195.2317137751531
  0
ARC
  5
434
330
1F
100
AcDbEntity
  8
TEXT
100
AcDbCircle
 10
92.27664755930106
 20
5.481682211098543
 30
0.0
 40
0.2131783982950365
100
AcDbArc
 50
97.06566064011505
 51
142.4986334312247
  0
ARC
  5
435
330
1F
100
AcDbEntity
  8
TEXT
100
AcDbCircle
 10
92.30141028149125
 20
4.962472830056881
 30
0.0
 40
0.687026539347622
100
AcDbArc
 50
86.31431733544655
 51
93.90381943516556
  0
ARC
  5
436
330
1F
100
AcDbEntity
  8
TEXT
100
AcDbCircle
 10
92.28686361871565
 20
5.587330048127242
 30
0.0
 40
0.0844826289519288
100
AcDbArc
 50
16.71684440730559
 51
45.97719400399784
  0
ARC
  5
437
330
1F
100
AcDbEntity
  8
TEXT
100
AcDbCircle
 10
92.45006269050652
 20
5.611646139088008
 30
0.0
 40
0.0822868514778209
100
AcDbArc
 50
180.010674400693
 51
201.8251852718047
  0
ARC
  5
438
330
1F
100
AcDbEntity
  8
TEXT
100
AcDbCircle
 10
92.435740565813
 20
5.610175514969483
 30
0.0
 40
0.0685589853168989
100
AcDbArc
 50
205.1359642898991
 51
307.6679722285742
  0
ARC
  5
439
330
1F
100
AcDbEntity
  8
TEXT
100
AcDbCircle
 10
92.42223061415643
 20
5.600523984511057
 30
0.0
 40
0.0711368917730769
100
AcDbArc
 50
321.1558234807585
 51
36.94217904229986
  0
ARC
  5
43A
330
1F
100
AcDbEntity
  8
TEXT
100
AcDbCircle
 10
92.3596334389196
 20
5.531231211659957
 30
0.0
 40
0.1637785905466617
100
AcDbArc
 50
43.16761867318999
 51
81.57335966331341
  0
ARC
  5
43B
330
1F
100
AcDbEntity
  8
TEXT
100
AcDbCircle
 10
92.31702961370649
 20
4.985844008325429
 30
0.0
 40
0.7105263130678662
100
AcDbArc
 50
84.62122141578795
 51
95.37877858421206
  0
ARC
  5
43C
330
1F
100
AcDbEntity
  8
TEXT
100
AcDbCircle
 10
93.03614224435959
 20
5.392649866716495
 30
0.0
 40
0.016956132294399
100
AcDbArc
 50
349.2952029716974
 51
131.6626905469363
  0
ARC
  5
43D
330
1F
100
AcDbEntity
  8
TEXT
100
AcDbCircle
 10
92.82162333157662
 20
5.474398411446911
 30
0.0
 40
0.2462759970639658
100
AcDbArc
 50
296.3233923707214
 51
339.834833147579
  0
ARC
  5
43E
330
1F
100
AcDbEntity
  8
TEXT
100
AcDbCircle
 10
92.7946334986915
 20
5.556969501880103
 30
0.0
 40
0.3324854149250318
100
AcDbArc
 50
254.28478308494
 51
294.1819270465999
  0
ARC
  5
43F
330
1F
100
AcDbEntity
  8
TEXT
100
AcDbCircle
 10
92.85446100577587
 20
5.514474190805188
 30
0.0
 40
0.2023726981956199
100
AcDbArc
 50
272.3792098458871
 51
327.3581874363232
  0
ARC
  5
440
330
1F
100
AcDbEntity
  8
TEXT
100
AcDbCircle
 10
92.83338997984035
 20
5.470788573920187
 30
0.0
 40
0.1612292175423426
100
AcDbArc
 50
230.8416488637727
 51
280.5326941523482
  0
ARC
  5
441
330
1F
100
AcDbEntity
  8
TEXT
100
AcDbCircle
 10
92.88204575271334
 20
5.510503892133868
 30
0.0
 40
0.2231079334965001
100
AcDbArc
 50
179.2959701761241
 51
227.591548494084
  0
ARC
  5
442
330
1F
100
AcDbEntity
  8
TEXT
100
AcDbCircle
 10
92.78794742110891
 20
5.450289641056328
 30
0.0
 40
0.2290858434257562
100
AcDbArc
 50
194.1847393568171
 51
248.6586767321129
  0
ARC
  5
443
330
1F
100
AcDbEntity
  8
TEXT
100
AcDbCircle
 10
92.79229617010027
 20
5.457294104329662
 30
0.0
 40
0.2350881653011852
100
AcDbArc
 50
148.4692011102813
 51
195.5802361373362
  0
ARC
  5
444
330
1F
100
AcDbEntity
  8
TEXT
100
AcDbCircle
 10
92.79082269919511
 20
5.464307324960556
 30
0.0
 40
0.2302235235905614
100
AcDbArc
 50
108.5416613320802
 51
149.7652339536159
  0
ARC
  5
445
330
1F
100
AcDbEntity
  8
TEXT
100
AcDbCircle
 10
92.79349632926978
 20
5.279461393939683
 30
0.0
 40
0.3705255297182153
100
AcDbArc
 50
82.99970676551479
 51
97.00029323448521
  0
ARC
  5
446
330
1F
100
AcDbEntity
  8
TEXT
100
AcDbCircle
 10
92.80511372139944
 20
5.556312252578563
 30
0.0
 40
0.096902245499325
100
AcDbArc
 50
358.1908821763629
 51
69.74957583402911
  0
ARC
  5
447
330
1F
100
AcDbEntity
  8
TEXT
100
AcDbCircle
 10
92.77735626942677
 20
5.530127893991291
 30
0.0
 40
0.120638775778725
100
AcDbArc
 50
103.9179608005984
 51
168.9486088950471
  0
LINE
  5
448
330
1F
100
AcDbEntity
  8
TEXT
100
AcDbLine
 10
92.6589546620988
 20
5.553253066498938
 30
0.0
 11
92.9019676658898
 21
5.553253066498938
 31
0.0
  0
ARC
  5
449
330
1F
100
AcDbEntity
  8
TEXT
100
AcDbCircle
 10
92.80866700256941
 20
5.377384061090508
 30
0.0
 40
0.3184897824823254
100
AcDbArc
 50
78.15621523985547
 51
106.6122408520356
  0
ARC
  5
44A
330
1F
100
AcDbEntity
  8
TEXT
100
AcDbCircle
 10
92.86119761340051
 20
5.521072690597278
 30
0.0
 40
0.1685104770103569
100
AcDbArc
 50
357.3376237443688
 51
85.63084243886233
  0
LINE
  5
44B
330
1F
100
AcDbEntity
  8
TEXT
100
AcDbLine
 10
92.6589546620988
 20
5.513245292771188
 30
0.0
 11
93.02952619892741
 21
5.513245292771188
 31
0.0
  0
ARC
  5
44C
330
1F
100
AcDbEntity
  8
TEXT
100
AcDbCircle
 10
93.92146522424651
 20
4.207587438396045
 30
0.0
 40
0.144480615410442
100
AcDbArc
 50
325.2939034707323
 51
356.4132772462206
  0
ARC
  5
44D
330
1F
100
AcDbEntity
  8
TEXT
100
AcDbCircle
 10
93.92694580357124
 20
4.187507524630419
 30
0.0
 40
0.1292374842605051
100
AcDbArc
 50
261.8576121462839
 51
331.2394802847383
  0
ARC
  5
44E
330
1F
100
AcDbEntity
  8
TEXT
100
AcDbCircle
 10
93.88315014191444
 20
4.147485136213787
 30
0.0
 40
0.091533454731001
100
AcDbArc
 50
203.9135879631541
 51
286.1701931802542
  0
ARC
  5
44F
330
1F
100
AcDbEntity
  8
TEXT
100
AcDbCircle
 10
93.54387483369022
 20
4.128388000062557
 30
0.0
 40
0.039055598865613
100
AcDbArc
 50
155.9964711746264
 51
271.4218156194853
  0
LINE
  5
450
330
1F
100
AcDbEntity
  8
TEXT
100
AcDbLine
 10
93.59276705147657
 20
4.092161413156445
 30
0.0
 11
93.54484391312158
 21
4.089344425843363
 31
0.0
  0
LINE
  5
451
330
1F
100
AcDbEntity
  8
TEXT
100
AcDbLine
 10
93.58994808160231
 20
4.059766141724053
 30
0.0
 11
93.59276705147657
 21
4.092161413156445
 31
0.0
  0
ARC
  5
452
330
1F
100
AcDbEntity
  8
TEXT
100
AcDbCircle
 10
93.28132329918856
 20
4.256673420400503
 30
0.0
 40
0.1771124511749946
100
AcDbArc
 50
257.5730930866192
 51
314.4273867462272
  0
ARC
  5
453
330
1F
100
AcDbEntity
  8
TEXT
100
AcDbCircle
 10
93.28245248586984
 20
4.167293298195558
 30
0.0
 40
0.0923367669530824
100
AcDbArc
 50
188.1927496775748
 51
244.8496170020145
  0
ARC
  5
454
330
1F
100
AcDbEntity
  8
TEXT
100
AcDbCircle
 10
92.52717032844707
 20
4.213291564502866
 30
0.0
 40
0.0444399770566629
100
AcDbArc
 50
253.92908891256
 51
38.65267477511277
  0
ARC
  5
455
330
1F
100
AcDbEntity
  8
TEXT
100
AcDbCircle
 10
92.68755448553655
 20
4.145784447622758
 30
0.0
 40
0.1205480123630888
100
AcDbArc
 50
330.1916644163819
 51
19.91318758188131
  0
ARC
  5
456
330
1F
100
AcDbEntity
  8
TEXT
100
AcDbCircle
 10
92.7144413438452
 20
3.998333163934859
 30
0.0
 40
0.0853463614801399
100
AcDbArc
 50
67.37252950712535
 51
112.6274704928674
  0
ARC
  5
457
330
1F
100
AcDbEntity
  8
TEXT
100
AcDbCircle
 10
92.34739528408301
 20
4.245503418563173
 30
0.0
 40
0.1834650770084899
100
AcDbArc
 50
287.192003650739
 51
335.8997504051519
  0
LINE
  5
458
330
1F
100
AcDbEntity
  8
TEXT
100
AcDbLine
 10
92.03647716087635
 20
3.925456348684491
 30
0.0
 11
92.0841030226652
 21
3.895315041863113
 31
0.0
  0
LINE
  5
459
330
1F
100
AcDbEntity
  8
BORDER
100
AcDbLine
 10
90.44327685094566
 20
-1.082427127057115
 30
0.0
 11
90.44327685094566
 21
6.255607948190629
 31
0.0
  0
LINE
  5
45A
330
1F
100
AcDbEntity
  8
BORDER
100
AcDbLine
 10
82.64848893735106
 20
1.244672860879788
 30
0.0
 11
90.44327685094566
 21
1.244672860879788
 31
0.0
  0
LINE
  5
45B
330
1F
100
AcDbEntity
  8
BORDER
100
AcDbLine
 10
82.64848893735106
 20
2.358213991393326
 30
0.0
 11
90.44327685094566
 21
2.358213991393326
 31
0.0
  0
TEXT
  5
45C
330
1F
100
AcDbEntity
  8
TEXT
100
AcDbText
 10
87.78748125467094
 20
1.343778021495477
 30
0.0
 40
0.4175779239425669
  1
NONE
 72
     1
 11
88.55304078189897
 21
1.552566983466761
 31
0.0
100
AcDbText
 73
     2
  0
TEXT
  5
45D
330
1F
100
AcDbEntity
  8
TEXT
100
AcDbText
 10
86.8242681767767
 20
1.940636067450725
 30
0.0
 40
0.2783852826283779
  1
SCALE
100
AcDbText
  0
TEXT
  5
45E
330
1F
100
AcDbEntity
  8
TEXT
100
AcDbText
 10
82.8099524012755
 20
1.940636067450725
 30
0.0
 40
0.2783852826283779
  1
DRAWN
100
AcDbText
  0
TEXT
  5
45F
330
1F
100
AcDbEntity
  8
TEXT
100
AcDbText
 10
83.98195444114099
 20
1.343778021495477
 30
0.0
 40
0.4175779239425669
  1
JJH
 72
     1
 11
84.53872500639773
 21
1.552566983466761
 31
0.0
100
AcDbText
 73
     2
  0
TEXT
  5
460
330
1F
100
AcDbEntity
  8
TEXT
100
AcDbText
 10
82.92687421997939
 20
0.8270949369372431
 30
0.0
 40
0.2783852826283779
  1
DATE
100
AcDbText
  0
TEXT
  5
461
330
1F
100
AcDbEntity
  8
TEXT
100
AcDbText
 10
84.82917365127335
 20
0.418487765725004
 30
0.0
 40
0.556770565256756
  1
9-21-09
 72
     1
 11
86.54588289414835
 21
0.6968730483533819
 31
0.0
100
AcDbText
 73
     2
  0
LINE
  5
462
330
1F
100
AcDbEntity
  8
BORDER
100
AcDbLine
 10
82.64848893735106
 20
0.1311317303662918
 30
0.0
 11
90.44327685094566
 21
0.1311317303662918
 31
0.0
  0
TEXT
  5
463
330
1F
100
AcDbEntity
  8
TEXT
100
AcDbText
 10
83.51224332157293
 20
-0.7495805176782686
 30
0.0
 40
0.556770565256756
  1
SHEET 1 OF 1
 72
     1
 11
86.5744814304851
 21
-0.4711952350498906
 31
0.0
100
AcDbText
 73
     2
  0
LINE
  5
464
330
1F
100
AcDbEntity
  8
BORDER
100
AcDbLine
 10
101.8045190997098
 20
1.244672860879788
 30
0.0
 11
101.8045190997098
 21
-1.082427127056944
 31
0.0
  0
LINE
  5
465
330
1F
100
AcDbEntity
  8
BORDER
100
AcDbLine
 10
90.44327685094566
 20
1.244672860879788
 30
0.0
 11
104.857407238113
 21
1.244672860879788
 31
0.0
  0
LINE
  5
466
330
1F
100
AcDbEntity
  8
BORDER
100
AcDbLine
 10
90.44327685094566
 20
3.47175512190688
 30
0.0
 11
104.857407238113
 21
3.47175512190688
 31
0.0
  0
LINE
  5
467
330
1F
100
AcDbEntity
  8
BORDER
100
AcDbLine
 10
90.44327685094566
 20
6.255607948190686
 30
0.0
 11
104.857407238113
 21
6.255607948190629
 31
0.0
  0
TEXT
  5
468
330
1F
100
AcDbEntity
  8
TEXT
100
AcDbText
 10
97.97512487426242
 20
3.569189970826762
 30
0.0
 40
0.2783852826283779
  1
FAX  724-837-3386
 72
     1
 11
100.2950022294989
 21
3.708382612140951
 31
0.0
100
AcDbText
 73
     2
  0
TEXT
  5
469
330
1F
100
AcDbEntity
  8
TEXT
100
AcDbText
 10
96.62959600822526
 20
5.768433703590923
 30
0.0
 40
0.2783852826283779
  1
INDUSTRIAL COOLING EQUIPMENT
 72
     1
 11
100.2950022294989
 21
5.907626344905112
 31
0.0
100
AcDbText
 73
     2
  0
TEXT
  5
46A
330
1F
100
AcDbEntity
  8
TEXT
100
AcDbText
 10
98.02152242136715
 20
5.239501666597057
 30
0.0
 40
0.2783852826283779
  1
141 WILSON AVENUE
 72
     1
 11
100.2950022294989
 21
5.378694307911246
 31
0.0
100
AcDbText
 73
     2
  0
TEXT
  5
46B
330
1F
100
AcDbEntity
  8
TEXT
100
AcDbText
 10
97.60394449742459
 20
4.682731101340259
 30
0.0
 40
0.2783852826283779
  1
GREENSBURG, PA  15601
 72
     1
 11
100.2950022294989
 21
4.821923742654448
 31
0.0
100
AcDbText
 73
     2
  0
TEXT
  5
46C
330
1F
100
AcDbEntity
  8
TEXT
100
AcDbText
 10
96.09602421652088
 20
4.125960536083546
 30
0.0
 40
0.2783852826283779
  1
724-837-2204  *  1-888-867-8234
 72
     1
 11
100.2950022294989
 21
4.265153177397735
 31
0.0
100
AcDbText
 73
     2
  0
TEXT
  5
46D
330
1F
100
AcDbEntity
  8
TEXT
100
AcDbText
 10
90.7828806769123
 20
1.578735200033804
 30
0.0
 40
1.113541130513511
  1
IQ14/17/20000V
 72
     1
 11
97.64971764841229
 21
2.13550576529056
 31
0.0
100
AcDbText
 73
     2
  0
TEXT
  5
46E
330
1F
100
AcDbEntity
  8
TEXT
100
AcDbText
 10
92.22650401853044
 20
-0.684436660316564
 30
0.0
 40
1.113541130513511
  1
IQ290930
 72
     1
 11
96.12389797532774
 21
-0.1276660950598085
 31
0.0
100
AcDbText
 73
     2
  0
TEXT
  5
46F
330
1F
100
AcDbEntity
  8
TEXT
100
AcDbText
 10
103.1453729804925
 20
-0.684436660316564
 30
0.0
 40
1.113541130513511
  1
1
 72
     1
 11
103.3309631689114
 21
-0.1276660950598085
 31
0.0
100
AcDbText
 73
     2
  0
DIMENSION
  5
733
330
1F
100
AcDbEntity
  8
0
100
AcDbDimension
  2
*D81
 10
52.51437803857484
 20
26.59462939861872
 30
0.0
 11
68.79620801626142
 21
50.55986417278679
 31
0.0
 70
   102
 71
     5
 42
16.28182997768657
  3
Standard
100
AcDbOrdinateDimension
 13
68.79620801626143
 23
59.84533136972671
 33
0.0
 14
68.79620801626143
 24
53.56653083945345
 34
0.0
  0
DIMENSION
  5
734
330
1F
100
AcDbEntity
  8
0
100
AcDbDimension
  2
*D82
 10
52.51437803857484
 20
26.59462939861872
 30
0.0
 11
79.6412353341013
 21
60.6457436957419
 31
0.0
 70
    38
  1
33.250
 71
     5
 42
33.25070197110802
  3
Standard
100
AcDbOrdinateDimension
 13
68.79620801626143
 23
59.84533136972673
 33
0.0
 14
76.53040200076796
 24
60.6457436957419
 34
0.0
  0
DIMENSION
  5
735
330
1F
100
AcDbEntity
  8
0
100
AcDbDimension
  2
*D83
 10
69.38038137738691
 20
60.06751706717665
 30
0.0
 11
44.03240352216315
 21
53.26333288190454
 31
0.0
 70
   163
  1
<> (1)\POPTIONAL:\PETHERNET \PCONNECTION\PPORT
 71
     3
 42
1.250000000000014
  3
Standard
100
AcDbDiametricDimension
 15
68.21203465513585
 25
59.62314567227678
 35
0.0
 40
0.0
  0
DIMENSION
  5
736
330
1F
100
AcDbEntity
  8
0
100
AcDbDimension
  2
*D84
 10
71.67941061841034
 20
59.58907296783879
 30
0.0
 11
58.24160839158579
 21
50.40839911861442
 31
0.0
 70
   163
  1
<> (1)\PPOWER \PSUPPLY
 71
     5
 42
1.249999999999943
  3
Standard
100
AcDbDiametricDimension
 15
70.91300541411242
 25
58.60158977161471
 35
0.0
 40
0.0
  0
CIRCLE
  5
737
330
1F
100
AcDbEntity
  8
TEMPLATE
100
AcDbCircle
 10
68.79620801626137
 20
59.84533136972671
 30
0.0
 40
0.625
  0
LINE
  5
739
330
1F
100
AcDbEntity
  8
TEMPLATE
100
AcDbLine
 10
58.26337803857476
 20
77.06162939861811
 30
0.0
 11
66.82587803857481
 21
77.06162939861811
 31
0.0
  0
LINE
  5
73A
330
1F
100
AcDbEntity
  8
TEMPLATE
100
AcDbLine
 10
58.26337803857476
 20
81.686629398618
 30
0.0
 11
66.82587803857481
 21
81.68662939861373
 31
0.0
  0
LINE
  5
73B
330
1F
100
AcDbEntity
  8
TEMPLATE
  6
DASHED
100
AcDbLine
 10
52.51437803857484
 20
82.59462939861863
 30
0.0
 11
72.57437803857468
 21
82.59462939861863
 31
0.0
  0
MTEXT
  5
73E
102
{ACAD_REACTORS
330
762
102
}
330
1F
100
AcDbEntity
  8
DIM
100
AcDbMText
 10
57.53225771894014
 20
73.23371252163913
 30
0.0
 40
1.25
 41
0.0
 71
     1
 72
     1
  1
%%C .375 (8)
 73
     1
 44
1.0
1001
ACAD
1000
MTEXTBEGIN
1070
    73
1070
     1
1070
    44
1040
1.0
1070
    74
1070
     0
1000
MTEXTEND
  0
MTEXT
  5
73F
102
{ACAD_REACTORS
330
75E
102
}
330
1F
100
AcDbEntity
  8
DIM
100
AcDbMText
 10
56.99255089480155
 20
75.76760900399399
 30
0.0
 40
1.25
 41
0.0
 71
     1
 72
     1
  1
%%C .500 (2)
 73
     1
 44
1.0
1001
ACAD
1000
MTEXTBEGIN
1070
    73
1070
     1
1070
    44
1040
1.0
1070
    74
1070
     0
1000
MTEXTEND
  0
DIMENSION
  5
740
330
1F
100
AcDbEntity
  8
DIM
100
AcDbDimension
  2
*D85
 10
52.51441752521632
 20
25.10275729179399
 30
0.0
 11
71.29620801626136
 21
50.30071302216054
 31
0.0
 70
   102
 71
     5
 42
18.78179049104505
  3
Standard
100
AcDbOrdinateDimension
 13
71.29620801626137
 23
57.60348925696231
 33
0.0
 14
71.29620801626137
 24
53.5923796888272
 34
0.0
1001
ACAD
1000
DSTYLE
1002
{
1070
    41
1040
1.25
1070
    42
1040
0.375
1070
   140
1040
1.25
1070
   147
1040
0.375
1070
   271
1070
     3
1070
   272
1070
     3
1070
   288
1070
     1
1002
}
  0
DIMENSION
  5
741
330
1F
100
AcDbEntity
  8
DIM
100
AcDbDimension
  2
*D86
 10
52.51441752521632
 20
26.59459940455848
 30
0.0
 11
80.07248498491547
 21
62.2196293986186
 31
0.0
 70
    38
 71
     5
 42
35.62502999406013
  3
Standard
100
AcDbOrdinateDimension
 13
71.66937803857482
 23
62.2196293986186
 33
0.0
 14
76.57248498491546
 24
62.2196293986186
 34
0.0
1001
ACAD
1000
DSTYLE
1002
{
1070
    41
1040
1.25
1070
    42
1040
0.375
1070
   140
1040
1.25
1070
   147
1040
0.375
1070
   271
1070
     3
1070
   272
1070
     3
1070
   288
1070
     1
1002
}
  0
DIMENSION
  5
742
330
1F
100
AcDbEntity
  8
DIM
100
AcDbDimension
  2
*D87
 10
52.51441752521632
 20
26.59459940455848
 30
0.0
 11
80.05714253481675
 21
66.96962939861892
 31
0.0
 70
    38
 71
     5
 42
40.37502999406044
  3
Standard
100
AcDbOrdinateDimension
 13
71.66937803857482
 23
66.96962939861892
 33
0.0
 14
76.66130920148342
 24
66.96962939861892
 34
0.0
1001
ACAD
1000
DSTYLE
1002
{
1070
    41
1040
1.25
1070
    42
1040
0.375
1070
   140
1040
1.25
1070
   147
1040
0.375
1070
   271
1070
     3
1070
   272
1070
     3
1070
   288
1070
     1
1002
}
  0
DIMENSION
  5
743
330
1F
100
AcDbEntity
  8
DIM
100
AcDbDimension
  2
*D88
 10
52.51441752521632
 20
26.59459940455848
 30
0.0
 11
79.89973674705301
 21
59.09533136972671
 31
0.0
 70
    38
  1
32.500
 71
     5
 42
32.50073196516823
  3
Standard
100
AcDbOrdinateDimension
 13
71.29620801626137
 23
59.09533136972671
 33
0.0
 14
76.60807008038634
 24
59.09533136972671
 34
0.0
1001
ACAD
1000
DSTYLE
1002
{
1070
    41
1040
1.25
1070
    42
1040
0.375
1070
   140
1040
1.25
1070
   147
1040
0.375
1070
   271
1070
     3
1070
   272
1070
     3
1070
   288
1070
     1
1002
}
  0
LINE
  5
744
330
1F
100
AcDbEntity
  8
TEMPLATE
100
AcDbLine
 10
53.4193780385747
 20
62.2196293986186
 30
0.0
 11
71.66937803857482
 21
62.2196293986186
 31
0.0
  0
LINE
  5
745
330
1F
100
AcDbEntity
  8
TEMPLATE
100
AcDbLine
 10
53.4193780385747
 20
66.96962939861863
 30
0.0
 11
71.66937803857482
 21
66.96962939861892
 31
0.0
  0
LINE
  5
746
330
1F
100
AcDbEntity
  8
TEMPLATE
  6
DASHED
100
AcDbLine
 10
52.51437803857484
 20
26.59462939861872
 30
0.0
 11
72.57437803857468
 21
26.59462939861872
 31
0.0
  0
DIMENSION
  5
747
330
1F
100
AcDbEntity
  8
DIM
100
AcDbDimension
  2
*D89
 10
52.51441752521632
 20
26.59459940455848
 30
0.0
 11
69.99820857906801
 21
19.50362115499715
 31
0.0
 70
   102
 71
     5
 42
19.03046051335855
  3
Standard
100
AcDbOrdinateDimension
 13
71.54487803857486
 23
30.0946293986186
 33
0.0
 14
69.99820857906801
 24
22.58695448833047
 34
0.0
1001
ACAD
1000
DSTYLE
1002
{
1070
    41
1040
1.25
1070
    42
1040
0.375
1070
   140
1040
1.25
1070
   147
1040
0.375
1070
   271
1070
     3
1070
   272
1070
     3
1070
   288
1070
     1
1002
}
  0
DIMENSION
  5
748
330
1F
100
AcDbEntity
  8
DIM
100
AcDbDimension
  2
*D90
 10
52.51441752521632
 20
26.59459940455848
 30
0.0
 11
67.54487803857486
 21
19.43266269517508
 31
0.0
 70
   102
 71
     5
 42
15.03046051335854
  3
Standard
100
AcDbOrdinateDimension
 13
67.54487803857486
 23
42.59462939861861
 33
0.0
 14
67.54487803857486
 24
22.51599602850841
 34
0.0
1001
ACAD
1000
DSTYLE
1002
{
1070
    41
1040
1.25
1070
    42
1040
0.375
1070
   140
1040
1.25
1070
   147
1040
0.375
1070
   271
1070
     3
1070
   272
1070
     3
1070
   288
1070
     1
1002
}
  0
DIMENSION
  5
749
330
1F
100
AcDbEntity
  8
DIM
100
AcDbDimension
  2
*D91
 10
52.51441752521632
 20
26.59459940455848
 30
0.0
 11
72.57437803857468
 21
19.39945448833048
 31
0.0
 70
   102
 71
     5
 42
20.05996051335837
  3
Standard
100
AcDbOrdinateDimension
 13
72.57437803857468
 23
26.59462939861872
 33
0.0
 14
72.57437803857468
 24
22.58695448833047
 34
0.0
1001
ACAD
1000
DSTYLE
1002
{
1070
    41
1040
1.25
1070
    42
1040
0.375
1070
   140
1040
1.25
1070
   147
1040
0.375
1070
   271
1070
     3
1070
   272
1070
     3
1070
   288
1070
     1
1002
}
  0
DIMENSION
  5
74A
330
1F
100
AcDbEntity
  8
DIM
100
AcDbDimension
  2
*D92
 10
52.51441752521632
 20
26.59459940455848
 30
0.0
 11
66.82587803857479
 21
89.46781139709802
 31
0.0
 70
   102
 71
     5
 42
14.31146051335849
  3
Standard
100
AcDbOrdinateDimension
 13
66.82587803857481
 23
81.68662939861373
 33
0.0
 14
66.82587803857481
 24
86.59281139709801
 34
0.0
1001
ACAD
1000
DSTYLE
1002
{
1070
    41
1040
1.25
1070
    42
1040
0.375
1070
   140
1040
1.25
1070
   147
1040
0.375
1070
   271
1070
     3
1070
   272
1070
     3
1070
   288
1070
     1
1002
}
  0
DIMENSION
  5
74B
330
1F
100
AcDbEntity
  8
DIM
100
AcDbDimension
  2
*D93
 10
52.51441752521632
 20
26.59459940455848
 30
0.0
 11
58.26337803857474
 21
89.46781139709802
 31
0.0
 70
   102
 71
     5
 42
5.748960513358426
  3
Standard
100
AcDbOrdinateDimension
 13
58.26337803857476
 23
81.686629398618
 33
0.0
 14
58.26337803857476
 24
86.59281139709801
 34
0.0
1001
ACAD
1000
DSTYLE
1002
{
1070
    41
1040
1.25
1070
    42
1040
0.375
1070
   140
1040
1.25
1070
   147
1040
0.375
1070
   271
1070
     3
1070
   272
1070
     3
1070
   288
1070
     1
1002
}
  0
DIMENSION
  5
74C
330
1F
100
AcDbEntity
  8
DIM
100
AcDbDimension
  2
*D94
 10
52.51441752521632
 20
26.59459940455848
 30
0.0
 11
71.54487803857451
 21
89.67614473043134
 31
0.0
 70
   102
 71
     5
 42
19.0304605133582
  3
Standard
100
AcDbOrdinateDimension
 13
71.54487803857453
 23
79.59462939861801
 33
0.0
 14
71.54487803857453
 24
86.59281139709801
 34
0.0
1001
ACAD
1000
DSTYLE
1002
{
1070
    41
1040
1.25
1070
    42
1040
0.375
1070
   140
1040
1.25
1070
   147
1040
0.375
1070
   271
1070
     3
1070
   272
1070
     3
1070
   288
1070
     1
1002
}
  0
DIMENSION
  5
74D
330
1F
100
AcDbEntity
  8
DIM
100
AcDbDimension
  2
*D95
 10
52.51441752521632
 20
26.59459940455848
 30
0.0
 11
79.96831831824879
 21
77.06162939861811
 31
0.0
 70
    38
 71
     5
 42
50.46702999405963
  3
Standard
100
AcDbOrdinateDimension
 13
66.82587803857481
 23
77.06162939861811
 33
0.0
 14
76.57248498491546
 24
77.06162939861811
 34
0.0
1001
ACAD
1000
DSTYLE
1002
{
1070
    41
1040
1.25
1070
    42
1040
0.375
1070
   140
1040
1.25
1070
   147
1040
0.375
1070
   271
1070
     3
1070
   272
1070
     3
1070
   288
1070
     1
1002
}
  0
DIMENSION
  5
74E
330
1F
100
AcDbEntity
  8
DIM
100
AcDbDimension
  2
*D96
 10
52.51441752521632
 20
26.59459940455848
 30
0.0
 11
79.96831831824879
 21
81.68662939861373
 31
0.0
 70
    38
 71
     5
 42
55.09202999405525
  3
Standard
100
AcDbOrdinateDimension
 13
66.82587803857481
 23
81.68662939861373
 33
0.0
 14
76.57248498491546
 24
81.68662939861373
 34
0.0
1001
ACAD
1000
DSTYLE
1002
{
1070
    41
1040
1.25
1070
    42
1040
0.375
1070
   140
1040
1.25
1070
   147
1040
0.375
1070
   271
1070
     3
1070
   272
1070
     3
1070
   288
1070
     1
1002
}
  0
DIMENSION
  5
74F
330
1F
100
AcDbEntity
  8
DIM
100
AcDbDimension
  2
*D97
 10
52.51441752521632
 20
26.59459940455848
 30
0.0
 11
45.12362669958139
 21
70.09462939861824
 31
0.0
 70
    38
 71
     5
 42
43.50002999405975
  3
Standard
100
AcDbOrdinateDimension
 13
53.54387803857466
 23
70.09462939861824
 33
0.0
 14
48.41529336624805
 24
70.09462939861824
 34
0.0
1001
ACAD
1000
DSTYLE
1002
{
1070
    41
1040
1.25
1070
    42
1040
0.375
1070
   140
1040
1.25
1070
   147
1040
0.375
1070
   271
1070
     3
1070
   272
1070
     3
1070
   288
1070
     1
1002
}
  0
DIMENSION
  5
750
330
1F
100
AcDbEntity
  8
DIM
100
AcDbDimension
  2
*D98
 10
52.51441752521632
 20
26.59459940455848
 30
0.0
 11
45.23589955475499
 21
60.09462939861861
 31
0.0
 70
    38
 71
     5
 42
33.50002999406013
  3
Standard
100
AcDbOrdinateDimension
 13
57.54487803857469
 23
60.09462939861861
 33
0.0
 14
48.52756622142166
 24
60.09462939861861
 34
0.0
1001
ACAD
1000
DSTYLE
1002
{
1070
    41
1040
1.25
1070
    42
1040
0.375
1070
   140
1040
1.25
1070
   147
1040
0.375
1070
   271
1070
     3
1070
   272
1070
     3
1070
   288
1070
     1
1002
}
  0
DIMENSION
  5
751
330
1F
100
AcDbEntity
  8
DIM
100
AcDbDimension
  2
*D99
 10
52.51441752521632
 20
26.59459940455848
 30
0.0
 11
45.38069434456727
 21
82.59462939861863
 31
0.0
 70
    38
 71
     5
 42
56.00002999406015
  3
Standard
100
AcDbOrdinateDimension
 13
52.51437803857484
 23
82.59462939861863
 33
0.0
 14
48.56819434456728
 24
82.59462939861863
 34
0.0
1001
ACAD
1000
DSTYLE
1002
{
1070
    41
1040
1.25
1070
    42
1040
0.375
1070
   140
1040
1.25
1070
   147
1040
0.375
1070
   271
1070
     3
1070
   272
1070
     3
1070
   288
1070
     1
1002
}
  0
DIMENSION
  5
752
330
1F
100
AcDbEntity
  8
DIM
100
AcDbDimension
  2
*D100
 10
52.51441752521632
 20
26.59459940455848
 30
0.0
 11
53.54387803857465
 21
89.15531139709802
 31
0.0
 70
   102
 71
     5
 42
1.029460513358337
  3
Standard
100
AcDbOrdinateDimension
 13
53.54387803857466
 23
79.59462939861824
 33
0.0
 14
53.54387803857466
 24
86.59281139709801
 34
0.0
1001
ACAD
1000
DSTYLE
1002
{
1070
    41
1040
1.25
1070
    42
1040
0.375
1070
   140
1040
1.25
1070
   147
1040
0.375
1070
   271
1070
     3
1070
   272
1070
     3
1070
   288
1070
     1
1002
}
  0
DIMENSION
  5
753
330
1F
100
AcDbEntity
  8
DIM
100
AcDbDimension
  2
*D101
 10
52.51441752521632
 20
26.59459940455848
 30
0.0
 11
45.316617582816
 21
79.59462939861824
 31
0.0
 70
    38
 71
     5
 42
53.00002999405975
  3
Standard
100
AcDbOrdinateDimension
 13
53.54387803857466
 23
79.59462939861824
 33
0.0
 14
48.50411758281601
 24
79.59462939861824
 34
0.0
1001
ACAD
1000
DSTYLE
1002
{
1070
    41
1040
1.25
1070
    42
1040
0.375
1070
   140
1040
1.25
1070
   147
1040
0.375
1070
   271
1070
     3
1070
   272
1070
     3
1070
   288
1070
     1
1002
}
  0
LINE
  5
754
330
1F
100
AcDbEntity
  8
TEMPLATE
  6
DASHED
100
AcDbLine
 10
52.51437803857484
 20
82.59462939861863
 30
0.0
 11
52.51437803857484
 21
26.59462939861872
 31
0.0
  0
DIMENSION
  5
755
330
1F
100
AcDbEntity
  8
DIM
100
AcDbDimension
  2
*D102
 10
52.51441752521632
 20
26.59459940455848
 30
0.0
 11
55.08084839650498
 21
20.02445448833048
 31
0.0
 70
   102
 71
     5
 42
1.029460513358344
  3
Standard
100
AcDbOrdinateDimension
 13
53.54387803857466
 23
30.0946293986186
 33
0.0
 14
55.08084839650499
 24
22.58695448833047
 34
0.0
1001
ACAD
1000
DSTYLE
1002
{
1070
    41
1040
1.25
1070
    42
1040
0.375
1070
   140
1040
1.25
1070
   147
1040
0.375
1070
   271
1070
     3
1070
   272
1070
     3
1070
   288
1070
     1
1002
}
  0
DIMENSION
  5
756
330
1F
100
AcDbEntity
  8
DIM
100
AcDbDimension
  2
*D103
 10
52.51441752521632
 20
26.59459940455848
 30
0.0
 11
57.54487803857486
 21
19.84932936184175
 31
0.0
 70
   102
 71
     5
 42
5.030460513358548
  3
Standard
100
AcDbOrdinateDimension
 13
57.54487803857486
 23
42.59462939861861
 33
0.0
 14
57.54487803857486
 24
22.51599602850841
 34
0.0
1001
ACAD
1000
DSTYLE
1002
{
1070
    41
1040
1.25
1070
    42
1040
0.375
1070
   140
1040
1.25
1070
   147
1040
0.375
1070
   271
1070
     3
1070
   272
1070
     3
1070
   288
1070
     1
1002
}
  0
DIMENSION
  5
757
330
1F
100
AcDbEntity
  8
DIM
100
AcDbDimension
  2
*D104
 10
52.51441752521632
 20
26.59459940455848
 30
0.0
 11
52.51437803857484
 21
20.13665838932817
 31
0.0
 70
   102
 71
     5
 42
0.0000394866414695
  3
Standard
100
AcDbOrdinateDimension
 13
52.51437803857484
 23
26.59462939861872
 33
0.0
 14
52.51437803857484
 24
22.5949917226615
 34
0.0
1001
ACAD
1000
DSTYLE
1002
{
1070
    41
1040
1.25
1070
    42
1040
0.375
1070
   140
1040
1.25
1070
   147
1040
0.375
1070
   271
1070
     3
1070
   272
1070
     3
1070
   288
1070
     1
1002
}
  0
DIMENSION
  5
758
330
1F
100
AcDbEntity
  8
DIM
100
AcDbDimension
  2
*D105
 10
52.51441752521632
 20
26.59459940455848
 30
0.0
 11
46.07021723389016
 21
26.59462939861872
 31
0.0
 70
    38
 71
     5
 42
0.0000299940602417
  3
Standard
100
AcDbOrdinateDimension
 13
52.51437803857484
 23
26.59462939861872
 33
0.0
 14
48.52855056722351
 24
26.59462939861872
 34
0.0
1001
ACAD
1000
DSTYLE
1002
{
1070
    41
1040
1.25
1070
    42
1040
0.375
1070
   140
1040
1.25
1070
   147
1040
0.375
1070
   271
1070
     3
1070
   272
1070
     3
1070
   288
1070
     1
1002
}
  0
DIMENSION
  5
759
330
1F
100
AcDbEntity
  8
DIM
100
AcDbDimension
  2
*D106
 10
52.51441752521632
 20
26.59459940455848
 30
0.0
 11
45.56645749479939
 21
42.59462939861861
 31
0.0
 70
    38
 71
     5
 42
16.00002999406013
  3
Standard
100
AcDbOrdinateDimension
 13
57.54487803857486
 23
42.59462939861861
 33
0.0
 14
48.54562416146606
 24
42.59462939861861
 34
0.0
1001
ACAD
1000
DSTYLE
1002
{
1070
    41
1040
1.25
1070
    42
1040
0.375
1070
   140
1040
1.25
1070
   147
1040
0.375
1070
   271
1070
     3
1070
   272
1070
     3
1070
   288
1070
     1
1002
}
  0
CIRCLE
  5
75A
330
1F
100
AcDbEntity
  8
TEMPLATE
100
AcDbCircle
 10
53.54387803857466
 20
30.0946293986186
 30
0.0
 40
0.1875
  0
DIMENSION
  5
75B
330
1F
100
AcDbEntity
  8
DIM
100
AcDbDimension
  2
*D107
 10
52.51441752521632
 20
26.59459940455848
 30
0.0
 11
45.86188390055684
 21
30.0946293986186
 31
0.0
 70
    38
 71
     5
 42
3.500029994060128
  3
Standard
100
AcDbOrdinateDimension
 13
53.54387803857466
 23
30.0946293986186
 33
0.0
 14
48.52855056722351
 24
30.0946293986186
 34
0.0
1001
ACAD
1000
DSTYLE
1002
{
1070
    41
1040
1.25
1070
    42
1040
0.375
1070
   140
1040
1.25
1070
   147
1040
0.375
1070
   271
1070
     3
1070
   272
1070
     3
1070
   288
1070
     1
1002
}
  0
CIRCLE
  5
75C
330
1F
100
AcDbEntity
  8
TEMPLATE
100
AcDbCircle
 10
57.54487803857486
 20
42.59462939861861
 30
0.0
 40
0.1875
  0
LINE
  5
75D
330
1F
100
AcDbEntity
  8
DIM
100
AcDbLine
 10
50.51437803857479
 20
72.25632554093199
 30
0.0
 11
50.51437803857479
 21
86.59462939861864
 31
0.0
  0
LEADER
  5
75E
330
1F
100
AcDbEntity
  8
DIM
100
AcDbLeader
  3
Standard
 73
     0
 40
1.25
 41
10.0
 76
     3
 10
54.02695567022457
 20
78.86258513315887
 30
0.0
 10
55.96990243153365
 20
75.14260900399399
 30
0.0
 10
56.61755089480156
 20
75.14260900399399
 30
0.0
340
73F
213
0.0
223
-0.625
233
0.0
1001
ACAD
1000
DSTYLE
1002
{
1070
    77
1070
     0
1070
    41
1040
1.25
1070
    42
1040
0.375
1070
   140
1040
1.25
1070
   147
1040
0.375
1070
   271
1070
     3
1070
   272
1070
     3
1070
   288
1070
     1
1002
}
  0
LINE
  5
75F
330
1F
100
AcDbEntity
  8
TEMPLATE
100
AcDbLine
 10
53.4193780385747
 20
66.96962939861863
 30
0.0
 11
53.4193780385747
 21
62.2196293986186
 31
0.0
  0
CIRCLE
  5
760
330
1F
100
AcDbEntity
  8
TEMPLATE
100
AcDbCircle
 10
57.54487803857469
 20
60.09462939861861
 30
0.0
 40
0.1875
  0
CIRCLE
  5
761
330
1F
100
AcDbEntity
  8
TEMPLATE
100
AcDbCircle
 10
53.54387803857466
 20
70.09462939861824
 30
0.0
 40
0.1875
  0
LEADER
  5
762
330
1F
100
AcDbEntity
  8
DIM
100
AcDbLeader
  3
Standard
 73
     0
 40
1.25
 41
10.41666666666666
 76
     3
 10
54.13489730935359
 20
70.56002991529592
 30
0.0
 10
56.50960925567253
 20
72.60871252163913
 30
0.0
 10
57.15725771894014
 20
72.60871252163913
 30
0.0
340
73E
213
0.0
223
-0.625
233
0.0
1001
ACAD
1000
DSTYLE
1002
{
1070
    77
1070
     0
1070
    41
1040
1.25
1070
    42
1040
0.375
1070
   140
1040
1.25
1070
   147
1040
0.375
1070
   271
1070
     3
1070
   272
1070
     3
1070
   288
1070
     1
1002
}
  0
LINE
  5
763
330
1F
100
AcDbEntity
  8
DIM
100
AcDbLine
 10
53.4193780385747
 20
67.34462939861863
 30
0.0
 11
53.4193780385747
 21
68.96962939861864
 31
0.0
  0
LINE
  5
764
330
1F
100
AcDbEntity
  8
DIM
100
AcDbLine
 10
50.51437803857479
 20
72.25632554093199
 30
0.0
 11
53.4193780385747
 21
68.96962939861864
 31
0.0
  0
TEXT
  5
765
330
1F
100
AcDbEntity
  8
DIM
100
AcDbText
 10
51.13937803857479
 20
86.96962939861863
 30
0.0
 40
1.25
  1
0.905
 50
90.0
 11
50.51437803857479
 21
86.96962939861863
 31
0.0
100
AcDbText
 73
     2
  0
LINE
  5
766
330
1F
100
AcDbEntity
  8
TEMPLATE
100
AcDbLine
 10
58.26337803857476
 20
81.686629398618
 30
0.0
 11
58.26337803857476
 21
77.06162939861811
 31
0.0
  0
CIRCLE
  5
767
330
1F
100
AcDbEntity
  8
TEMPLATE
100
AcDbCircle
 10
53.54387803857466
 20
79.59462939861824
 30
0.0
 40
0.25
  0
LINE
  5
768
330
1F
100
AcDbEntity
  8
TEMPLATE
  6
DASHED
100
AcDbLine
 10
72.57437803857468
 20
82.59462939861863
 30
0.0
 11
72.57437803857468
 21
26.59462939861872
 31
0.0
  0
CIRCLE
  5
769
330
1F
100
AcDbEntity
  8
TEMPLATE
100
AcDbCircle
 10
71.54487803857486
 20
30.0946293986186
 30
0.0
 40
0.1875
  0
CIRCLE
  5
76A
330
1F
100
AcDbEntity
  8
TEMPLATE
100
AcDbCircle
 10
67.54487803857486
 20
42.59462939861861
 30
0.0
 40
0.1875
  0
LINE
  5
76B
330
1F
100
AcDbEntity
  8
DIM
100
AcDbLine
 10
74.57437803857473
 20
72.25632554093199
 30
0.0
 11
74.57437803857473
 21
86.59462939861864
 31
0.0
  0
LINE
  5
76C
330
1F
100
AcDbEntity
  8
TEMPLATE
100
AcDbLine
 10
71.66937803857482
 20
66.96962939861892
 30
0.0
 11
71.66937803857482
 21
62.2196293986186
 31
0.0
  0
CIRCLE
  5
76D
330
1F
100
AcDbEntity
  8
TEMPLATE
100
AcDbCircle
 10
71.29620801626137
 20
59.09533136972671
 30
0.0
 40
0.625
  0
CIRCLE
  5
76E
330
1F
100
AcDbEntity
  8
TEMPLATE
100
AcDbCircle
 10
67.54487803857469
 20
60.09462939861861
 30
0.0
 40
0.1875
  0
LINE
  5
76F
330
1F
100
AcDbEntity
  8
DIM
100
AcDbLine
 10
74.57437803857473
 20
72.25632554093199
 30
0.0
 11
71.66937803857482
 21
68.96962939861892
 31
0.0
  0
CIRCLE
  5
770
330
1F
100
AcDbEntity
  8
TEMPLATE
100
AcDbCircle
 10
71.54487803857453
 20
70.0946293986179
 30
0.0
 40
0.1875
  0
LINE
  5
771
330
1F
100
AcDbEntity
  8
DIM
100
AcDbLine
 10
71.66937803857482
 20
67.34462939861881
 30
0.0
 11
71.66937803857482
 21
68.96962939861892
 31
0.0
  0
TEXT
  5
772
330
1F
100
AcDbEntity
  8
DIM
100
AcDbText
 10
75.19937803857473
 20
86.96962939861863
 30
0.0
 40
1.25
  1
19.155
 50
90.0
 11
74.57437803857473
 21
86.96962939861863
 31
0.0
100
AcDbText
 73
     2
  0
CIRCLE
  5
773
330
1F
100
AcDbEntity
  8
TEMPLATE
100
AcDbCircle
 10
71.54487803857453
 20
79.59462939861801
 30
0.0
 40
0.25
  0
LINE
  5
774
330
1F
100
AcDbEntity
  8
TEMPLATE
100
AcDbLine
 10
66.82587803857481
 20
81.68662939861373
 30
0.0
 11
66.82587803857481
 21
77.06162939861811
 31
0.0
  0
CIRCLE
  5
776
330
1F
100
AcDbEntity
  8
TEMPLATE
100
AcDbCircle
 10
71.29620801626137
 20
57.5953313697267
 30
0.0
 40
0.625
  0
DIMENSION
  5
777
330
1F
100
AcDbEntity
  8
DIM
100
AcDbDimension
  2
*D108
 10
52.51441752521632
 20
25.09459940455848
 30
0.0
 11
79.58723674705301
 21
57.5953313697267
 31
0.0
 70
    38
  1
31.000
 71
     5
 42
32.50073196516823
  3
Standard
100
AcDbOrdinateDimension
 13
71.29620801626137
 23
57.5953313697267
 33
0.0
 14
76.60807008038634
 24
57.5953313697267
 34
0.0
1001
ACAD
1000
DSTYLE
1002
{
1070
    41
1040
1.25
1070
    42
1040
0.375
1070
   140
1040
1.25
1070
   147
1040
0.375
1070
   271
1070
     3
1070
   272
1070
     3
1070
   288
1070
     1
1002
}
  0
DIMENSION
  5
778
330
1F
100
AcDbEntity
  8
0
100
AcDbDimension
  2
*D109
 10
71.00402595050249
 20
58.14782991311746
 30
0.0
 11
83.83065709682707
 21
49.5724874709508
 31
0.0
 70
   163
  1
%%C 1.250 (1) \POPTIONAL:\PEXTERNAL \PHEAT OUTPUT
 71
     4
 42
1.249999999999985
  3
Standard
100
AcDbDiametricDimension
 15
71.58839008201986
 25
57.04283282633581
 35
0.0
 40
0.0
  0
TEXT
  5
A3F
330
1F
100
AcDbEntity
  8
TEXT
100
AcDbText
 10
21.13146125286837
 20
1.81277981227823
 30
0.0
 40
0.4454164522054047
  1
1
 72
     1
 11
21.20569732823594
 21
2.035488038380932
 31
0.0
100
AcDbText
 73
     2
  0
TEXT
  5
A40
330
1F
100
AcDbEntity
  8
TEXT
100
AcDbText
 10
24.96204274183515
 20
1.81277981227823
 30
0.0
 40
0.4454164522054047
  1
ADDED ETHERNET CONNECTION PORT
 72
     1
 11
31.49481737418108
 21
2.035488038380932
 31
0.0
100
AcDbText
 73
     2
  0
TEXT
  5
A41
330
1F
100
AcDbEntity
  8
TEXT
100
AcDbText
 10
41.58164411474904
 20
1.81277981227823
 30
0.0
 40
0.4454164522054047
  1
7-11-11
 72
     1
 11
42.76942132063012
 21
2.035488038380932
 31
0.0
100
AcDbText
 73
     2
  0
TEXT
  5
A42
330
1F
100
AcDbEntity
  8
TEXT
100
AcDbText
 10
46.35844151192697
 20
1.81277981227823
 30
0.0
 40
0.4454164522054047
  1
JJH
 72
     1
 11
46.95233011486751
 21
2.035488038380932
 31
0.0
100
AcDbText
 73
     2
  0
LINE
  5
A43
330
1F
100
AcDbEntity
  8
BORDER
100
AcDbLine
 10
49.17540651940112
 20
2.48090449058641
 30
0.0
 11
20.23134883903663
 21
2.48090449058641
 31
0.0
  0
ENDSEC
  0
SECTION
  2
OBJECTS
  0
DICTIONARY
  5
C
330
0
100
AcDbDictionary
281
     1
  3
ACAD_COLOR
350
73
  3
ACAD_GROUP
350
D
  3
ACAD_LAYOUT
350
1A
  3
ACAD_MATERIAL
350
72
  3
ACAD_MLINESTYLE
350
17
  3
ACAD_PLOTSETTINGS
350
19
  3
ACAD_PLOTSTYLENAME
350
E
  3
ACDBHEADERROUNDTRIPXREC
350
A59
  3
AcDbVariableDictionary
350
66
  0
DICTIONARY
  5
160
330
2
100
AcDbDictionary
280
     1
281
     1
  3
ACAD_LAYERSTATES
360
161
  0
DICTIONARY
  5
73
102
{ACAD_REACTORS
330
C
102
}
330
C
100
AcDbDictionary
281
     1
  0
DICTIONARY
  5
D
102
{ACAD_REACTORS
330
C
102
}
330
C
100
AcDbDictionary
281
     1
  0
DICTIONARY
  5
1A
102
{ACAD_REACTORS
330
C
102
}
330
C
100
AcDbDictionary
281
     1
  3
Layout1
350
59
  3
Layout2
350
5E
  3
Model
350
22
  0
DICTIONARY
  5
72
102
{ACAD_REACTORS
330
C
102
}
330
C
100
AcDbDictionary
281
     1
  0
DICTIONARY
  5
17
102
{ACAD_REACTORS
330
C
102
}
330
C
100
AcDbDictionary
281
     1
  3
Standard
350
18
  0
DICTIONARY
  5
19
102
{ACAD_REACTORS
330
C
102
}
330
C
100
AcDbDictionary
281
     1
  0
ACDBDICTIONARYWDFLT
  5
E
102
{ACAD_REACTORS
330
C
102
}
330
C
100
AcDbDictionary
281
     1
  3
Normal
350
F
100
AcDbDictionaryWithDefault
340
F
  0
DICTIONARY
  5
A59
102
{ACAD_REACTORS
330
C
102
}
330
C
100
AcDbDictionary
281
     1
  3
COLORDICT
350
A5B
  3
MATERIALDICT
350
A5A
  0
DICTIONARY
  5
66
102
{ACAD_REACTORS
330
C
102
}
330
C
100
AcDbDictionary
281
     1
  3
DIMASSOC
350
67
  3
HIDETEXT
350
6B
  3
PROJECTNAME
350
5C3
  0
DICTIONARY
  5
161
102
{ACAD_REACTORS
330
160
102
}
330
160
100
AcDbDictionary
281
     1
  0
LAYOUT
  5
59
102
{ACAD_XDICTIONARY
360
A5E
102
}
102
{ACAD_REACTORS
330
1A
102
}
330
1A
100
AcDbPlotSettings
  1

  2
None
  4

  6

 40
0.0
 41
0.0
 42
0.0
 43
0.0
 44
0.0
 45
0.0
 46
0.0
 47
0.0
 48
0.0
 49
0.0
140
0.0
141
0.0
142
1.0
143
1.0
 70
   688
 72
     0
 73
     0
 74
     5
  7

 75
    16
147
1.0
148
0.0
149
0.0
100
AcDbLayout
  1
Layout1
 70
     1
 71
     1
 10
0.0
 20
0.0
 11
12.0
 21
9.0
 12
0.0
 22
0.0
 32
0.0
 14
0.0
 24
0.0
 34
0.0
 15
0.0
 25
0.0
 35
0.0
146
0.0
 13
0.0
 23
0.0
 33
0.0
 16
1.0
 26
0.0
 36
0.0
 17
0.0
 27
1.0
 37
0.0
 76
     0
330
58
  0
LAYOUT
  5
5E
102
{ACAD_XDICTIONARY
360
A60
102
}
102
{ACAD_REACTORS
330
1A
102
}
330
1A
100
AcDbPlotSettings
  1

  2
None
  4

  6

 40
0.0
 41
0.0
 42
0.0
 43
0.0
 44
0.0
 45
0.0
 46
0.0
 47
0.0
 48
0.0
 49
0.0
140
0.0
141
0.0
142
1.0
143
1.0
 70
   688
 72
     0
 73
     0
 74
     5
  7

 75
    16
147
1.0
148
0.0
149
0.0
100
AcDbLayout
  1
Layout2
 70
     1
 71
     2
 10
0.0
 20
0.0
 11
12.0
 21
9.0
 12
0.0
 22
0.0
 32
0.0
 14
0.0
 24
0.0
 34
0.0
 15
0.0
 25
0.0
 35
0.0
146
0.0
 13
0.0
 23
0.0
 33
0.0
 16
1.0
 26
0.0
 36
0.0
 17
0.0
 27
1.0
 37
0.0
 76
     0
330
5D
  0
LAYOUT
  5
22
102
{ACAD_XDICTIONARY
360
A5C
102
}
102
{ACAD_REACTORS
330
1A
102
}
330
1A
100
AcDbPlotSettings
  1

  2
none_device
  4
ANSI_A_(8.50_x_11.00_Inches)
  6

 40
6.349999904632567
 41
19.04999923706055
 42
6.350006103515625
 43
19.04998779296875
 44
215.8999938964844
 45
279.3999938964844
 46
0.0
 47
0.0
 48
0.0
 49
0.0
140
0.0
141
0.0
142
1.0
143
2.584895464708373
 70
 11952
 72
     0
 73
     1
 74
     0
  7

 75
     0
147
0.3868628397755418
148
0.0
149
0.0
100
AcDbLayout
  1
Model
 70
     1
 71
     0
 10
0.0
 20
0.0
 11
12.0
 21
9.0
 12
0.0
 22
0.0
 32
0.0
 14
0.0
 24
0.0
 34
0.0
 15
0.0
 25
0.0
 35
0.0
146
0.0
 13
0.0
 23
0.0
 33
0.0
 16
1.0
 26
0.0
 36
0.0
 17
0.0
 27
1.0
 37
0.0
 76
     0
330
1F
  0
MLINESTYLE
  5
18
102
{ACAD_REACTORS
330
17
102
}
330
17
100
AcDbMlineStyle
  2
STANDARD
 70
     0
  3

 62
   256
 51
90.0
 52
90.0
 71
     2
 49
0.5
 62
   256
  6
BYLAYER
 49
-0.5
 62
   256
  6
BYLAYER
  0
ACDBPLACEHOLDER
  5
F
102
{ACAD_REACTORS
330
E
102
}
330
E
  0
XRECORD
  5
A5B
102
{ACAD_REACTORS
330
A59
102
}
330
A59
100
AcDbXrecord
280
     1
340
73
  0
XRECORD
  5
A5A
102
{ACAD_REACTORS
330
A59
102
}
330
A59
100
AcDbXrecord
280
     1
340
72
  0
DICTIONARYVAR
  5
67
102
{ACAD_REACTORS
330
66
102
}
330
66
100
DictionaryVariables
280
     0
  1
2
  0
DICTIONARYVAR
  5
6B
102
{ACAD_REACTORS
330
66
102
}
330
66
100
DictionaryVariables
280
     0
  1
1
  0
DICTIONARYVAR
  5
5C3
102
{ACAD_REACTORS
330
66
102
}
330
66
100
DictionaryVariables
280
     0
  1

  0
DICTIONARY
  5
A5E
330
59
100
AcDbDictionary
280
     1
281
     1
  3
ACAD_XREC_ROUNDTRIP
360
A5F
  0
DICTIONARY
  5
A60
330
5E
100
AcDbDictionary
280
     1
281
     1
  3
ACAD_XREC_ROUNDTRIP
360
A61
  0
DICTIONARY
  5
A5C
330
22
100
AcDbDictionary
280
     1
281
     1
  3
ACAD_XREC_ROUNDTRIP
360
A5D
  0
XRECORD
  5
A5F
102
{ACAD_REACTORS
330
A5E
102
}
330
A5E
100
AcDbXrecord
280
     1
102
SHADEPLOT
 70
     0
102
SHADEPLOTRESLEVEL
 70
     2
102
SHADEPLOTCUSTOMDPI
 70
   300
  0
XRECORD
  5
A61
102
{ACAD_REACTORS
330
A60
102
}
330
A60
100
AcDbXrecord
280
     1
102
SHADEPLOT
 70
     0
102
SHADEPLOTRESLEVEL
 70
     2
102
SHADEPLOTCUSTOMDPI
 70
   300
  0
XRECORD
  5
A5D
102
{ACAD_REACTORS
330
A5C
102
}
330
A5C
100
AcDbXrecord
280
     1
102
SHADEPLOT
 70
     0
102
SHADEPLOTRESLEVEL
 70
     2
102
SHADEPLOTCUSTOMDPI
 70
   300
  0
ENDSEC
  0
EOF
