  0
SECTION
  2
HEADER
  9
$ACADVER
  1
AC1015
  9
$ACADMAINTVER
 70
    20
  9
$DWGCODEPAGE
  3
ANSI_1252
  9
$INSBASE
 10
0.0
 20
0.0
 30
0.0
  9
$EXTMIN
 10
95.46668443965208
 20
-191.5837902706242
 30
0.0
  9
$EXTMAX
 10
172.9052465730704
 20
-132.857540270624
 30
0.0
  9
$LIMMIN
 10
0.0
 20
0.0
  9
$LIMMAX
 10
12.0
 20
9.0
  9
$ORTHOMODE
 70
     0
  9
$REGENMODE
 70
     1
  9
$FILLMODE
 70
     1
  9
$QTEXTMODE
 70
     0
  9
$MIRRTEXT
 70
     0
  9
$LTSCALE
 40
1.0
  9
$ATTMODE
 70
     1
  9
$TEXTSIZE
 40
0.2
  9
$TRACEWID
 40
0.05
  9
$TEXTSTYLE
  7
Standard
  9
$CLAYER
  8
0
  9
$CELTYPE
  6
ByLayer
  9
$CECOLOR
 62
   256
  9
$CELTSCALE
 40
1.0
  9
$DISPSILH
 70
     0
  9
$DIMSCALE
 40
1.0
  9
$DIMASZ
 40
1.0
  9
$DIMEXO
 40
0.375
  9
$DIMDLI
 40
0.38
  9
$DIMRND
 40
0.0
  9
$DIMDLE
 40
0.0
  9
$DIMEXE
 40
0.18
  9
$DIMTP
 40
0.0
  9
$DIMTM
 40
0.0
  9
$DIMTXT
 40
1.0
  9
$DIMCEN
 40
0.09
  9
$DIMTSZ
 40
0.0
  9
$DIMTOL
 70
     0
  9
$DIMLIM
 70
     0
  9
$DIMTIH
 70
     1
  9
$DIMTOH
 70
     1
  9
$DIMSE1
 70
     0
  9
$DIMSE2
 70
     0
  9
$DIMTAD
 70
     0
  9
$DIMZIN
 70
     0
  9
$DIMBLK
  1

  9
$DIMASO
 70
     1
  9
$DIMSHO
 70
     1
  9
$DIMPOST
  1

  9
$DIMAPOST
  1

  9
$DIMALT
 70
     0
  9
$DIMALTD
 70
     2
  9
$DIMALTF
 40
25.4
  9
$DIMLFAC
 40
1.0
  9
$DIMTOFL
 70
     0
  9
$DIMTVP
 40
0.0
  9
$DIMTIX
 70
     0
  9
$DIMSOXD
 70
     0
  9
$DIMSAH
 70
     0
  9
$DIMBLK1
  1

  9
$DIMBLK2
  1

  9
$DIMSTYLE
  2
Standard
  9
$DIMCLRD
 70
     0
  9
$DIMCLRE
 70
     0
  9
$DIMCLRT
 70
     0
  9
$DIMTFAC
 40
1.0
  9
$DIMGAP
 40
0.09
  9
$DIMJUST
 70
     0
  9
$DIMSD1
 70
     0
  9
$DIMSD2
 70
     0
  9
$DIMTOLJ
 70
     1
  9
$DIMTZIN
 70
     0
  9
$DIMALTZ
 70
     0
  9
$DIMALTTZ
 70
     0
  9
$DIMUPT
 70
     0
  9
$DIMDEC
 70
     3
  9
$DIMTDEC
 70
     3
  9
$DIMALTU
 70
     2
  9
$DIMALTTD
 70
     2
  9
$DIMTXSTY
  7
Standard
  9
$DIMAUNIT
 70
     0
  9
$DIMADEC
 70
     0
  9
$DIMALTRND
 40
0.0
  9
$DIMAZIN
 70
     0
  9
$DIMDSEP
 70
    46
  9
$DIMATFIT
 70
     3
  9
$DIMFRAC
 70
     0
  9
$DIMLDRBLK
  1

  9
$DIMLUNIT
 70
     2
  9
$DIMLWD
 70
    -2
  9
$DIMLWE
 70
    -2
  9
$DIMTMOVE
 70
     0
  9
$LUNITS
 70
     2
  9
$LUPREC
 70
     4
  9
$SKETCHINC
 40
0.1
  9
$FILLETRAD
 40
0.0
  9
$AUNITS
 70
     0
  9
$AUPREC
 70
     0
  9
$MENU
  1
.
  9
$ELEVATION
 40
0.0
  9
$PELEVATION
 40
0.0
  9
$THICKNESS
 40
0.0
  9
$LIMCHECK
 70
     0
  9
$CHAMFERA
 40
0.0
  9
$CHAMFERB
 40
0.0
  9
$CHAMFERC
 40
0.0
  9
$CHAMFERD
 40
0.0
  9
$SKPOLY
 70
     0
  9
$TDCREATE
 40
2455096.428774005
  9
$TDUCREATE
 40
2455096.595440672
  9
$TDUPDATE
 40
2456029.352919618
  9
$TDUUPDATE
 40
2456029.519586285
  9
$TDINDWG
 40
0.0184905903
  9
$TDUSRTIMER
 40
0.0184902894
  9
$USRTIMER
 70
     1
  9
$ANGBASE
 50
0.0
  9
$ANGDIR
 70
     0
  9
$PDMODE
 70
     0
  9
$PDSIZE
 40
0.0
  9
$PLINEWID
 40
0.0
  9
$SPLFRAME
 70
     0
  9
$SPLINETYPE
 70
     6
  9
$SPLINESEGS
 70
     8
  9
$HANDSEED
  5
713
  9
$SURFTAB1
 70
     6
  9
$SURFTAB2
 70
     6
  9
$SURFTYPE
 70
     6
  9
$SURFU
 70
     6
  9
$SURFV
 70
     6
  9
$UCSBASE
  2

  9
$UCSNAME
  2

  9
$UCSORG
 10
0.0
 20
0.0
 30
0.0
  9
$UCSXDIR
 10
1.0
 20
0.0
 30
0.0
  9
$UCSYDIR
 10
0.0
 20
1.0
 30
0.0
  9
$UCSORTHOREF
  2

  9
$UCSORTHOVIEW
 70
     0
  9
$UCSORGTOP
 10
0.0
 20
0.0
 30
0.0
  9
$UCSORGBOTTOM
 10
0.0
 20
0.0
 30
0.0
  9
$UCSORGLEFT
 10
0.0
 20
0.0
 30
0.0
  9
$UCSORGRIGHT
 10
0.0
 20
0.0
 30
0.0
  9
$UCSORGFRONT
 10
0.0
 20
0.0
 30
0.0
  9
$UCSORGBACK
 10
0.0
 20
0.0
 30
0.0
  9
$PUCSBASE
  2

  9
$PUCSNAME
  2

  9
$PUCSORG
 10
0.0
 20
0.0
 30
0.0
  9
$PUCSXDIR
 10
1.0
 20
0.0
 30
0.0
  9
$PUCSYDIR
 10
0.0
 20
1.0
 30
0.0
  9
$PUCSORTHOREF
  2

  9
$PUCSORTHOVIEW
 70
     0
  9
$PUCSORGTOP
 10
0.0
 20
0.0
 30
0.0
  9
$PUCSORGBOTTOM
 10
0.0
 20
0.0
 30
0.0
  9
$PUCSORGLEFT
 10
0.0
 20
0.0
 30
0.0
  9
$PUCSORGRIGHT
 10
0.0
 20
0.0
 30
0.0
  9
$PUCSORGFRONT
 10
0.0
 20
0.0
 30
0.0
  9
$PUCSORGBACK
 10
0.0
 20
0.0
 30
0.0
  9
$USERI1
 70
     0
  9
$USERI2
 70
     0
  9
$USERI3
 70
     0
  9
$USERI4
 70
     0
  9
$USERI5
 70
     0
  9
$USERR1
 40
0.0
  9
$USERR2
 40
0.0
  9
$USERR3
 40
0.0
  9
$USERR4
 40
0.0
  9
$USERR5
 40
0.0
  9
$WORLDVIEW
 70
     1
  9
$SHADEDGE
 70
     3
  9
$SHADEDIF
 70
    70
  9
$TILEMODE
 70
     1
  9
$MAXACTVP
 70
    64
  9
$PINSBASE
 10
0.0
 20
0.0
 30
0.0
  9
$PLIMCHECK
 70
     0
  9
$PEXTMIN
 10
0.0
 20
0.0
 30
0.0
  9
$PEXTMAX
 10
0.0
 20
0.0
 30
0.0
  9
$PLIMMIN
 10
0.0
 20
0.0
  9
$PLIMMAX
 10
12.0
 20
9.0
  9
$UNITMODE
 70
     0
  9
$VISRETAIN
 70
     1
  9
$PLINEGEN
 70
     0
  9
$PSLTSCALE
 70
     1
  9
$TREEDEPTH
 70
  3020
  9
$CMLSTYLE
  2
Standard
  9
$CMLJUST
 70
     0
  9
$CMLSCALE
 40
1.0
  9
$PROXYGRAPHICS
 70
     1
  9
$MEASUREMENT
 70
     0
  9
$CELWEIGHT
370
    -1
  9
$ENDCAPS
280
     0
  9
$JOINSTYLE
280
     0
  9
$LWDISPLAY
290
     0
  9
$INSUNITS
 70
     1
  9
$HYPERLINKBASE
  1

  9
$STYLESHEET
  1

  9
$XEDIT
290
     1
  9
$CEPSNTYPE
380
     0
  9
$PSTYLEMODE
290
     1
  9
$FINGERPRINTGUID
  2
{FDEAD576-A652-11D2-9A35-0060089B3A3F}
  9
$VERSIONGUID
  2
{5004DEE9-D1BD-4828-9C66-ECC7E2107324}
  9
$EXTNAMES
290
     1
  9
$PSVPSCALE
 40
0.0
  9
$OLESTARTUP
290
     0
  0
ENDSEC
  0
SECTION
  2
CLASSES
  0
CLASS
  1
ACDBDICTIONARYWDFLT
  2
AcDbDictionaryWithDefault
  3
ObjectDBX Classes
 90
        0
280
     0
281
     0
  0
CLASS
  1
ACDBPLACEHOLDER
  2
AcDbPlaceHolder
  3
ObjectDBX Classes
 90
        0
280
     0
281
     0
  0
CLASS
  1
LAYOUT
  2
AcDbLayout
  3
ObjectDBX Classes
 90
        0
280
     0
281
     0
  0
CLASS
  1
DICTIONARYVAR
  2
AcDbDictionaryVar
  3
ObjectDBX Classes
 90
        0
280
     0
281
     0
  0
CLASS
  1
DIMASSOC
  2
AcDbDimAssoc
  3
"AcDbDimAssoc|Product Desc:     AcDim ARX App For Dimension|Company:          Autodesk, Inc.|WEB Address:      www.autodesk.com"
 90
        0
280
     0
281
     0
  0
ENDSEC
  0
SECTION
  2
TABLES
  0
TABLE
  2
VPORT
  5
8
330
0
100
AcDbSymbolTable
 70
     5
  0
VPORT
  5
709
330
8
100
AcDbSymbolTableRecord
100
AcDbViewportTableRecord
  2
*Active
 70
     0
 10
0.0
 20
0.0
 11
1.0
 21
1.0
 12
103.7281306034643
 22
-168.9134592470334
 13
0.0
 23
0.0
 14
0.5
 24
0.5
 15
0.5
 25
0.5
 16
0.0
 26
0.0
 36
1.0
 17
0.0
 27
0.0
 37
0.0
 40
161.7538595084386
 41
2.060331825037707
 42
50.0
 43
0.0
 44
0.0
 50
0.0
 51
0.0
 71
     0
 72
  1000
 73
     1
 74
     3
 75
     0
 76
     0
 77
     0
 78
     0
281
     0
 65
     1
110
0.0
120
0.0
130
0.0
111
1.0
121
0.0
131
0.0
112
0.0
122
1.0
132
0.0
 79
     0
146
0.0
  0
ENDTAB
  0
TABLE
  2
LTYPE
  5
5
330
0
100
AcDbSymbolTable
 70
     2
  0
LTYPE
  5
14
330
5
100
AcDbSymbolTableRecord
100
AcDbLinetypeTableRecord
  2
ByBlock
 70
     0
  3

 72
    65
 73
     0
 40
0.0
  0
LTYPE
  5
15
330
5
100
AcDbSymbolTableRecord
100
AcDbLinetypeTableRecord
  2
ByLayer
 70
     0
  3

 72
    65
 73
     0
 40
0.0
  0
LTYPE
  5
16
330
5
100
AcDbSymbolTableRecord
100
AcDbLinetypeTableRecord
  2
Continuous
 70
     0
  3
Solid line
 72
    65
 73
     0
 40
0.0
  0
LTYPE
  5
14E
330
5
100
AcDbSymbolTableRecord
100
AcDbLinetypeTableRecord
  2
DASHDOT
 70
     0
  3
__ . __ . __ . __ . __ . __ . __ . __ . __ . __
 72
    65
 73
     4
 40
1.0
 49
0.5
 74
     0
 49
-0.25
 74
     0
 49
0.0
 74
     0
 49
-0.25
 74
     0
  0
ENDTAB
  0
TABLE
  2
LAYER
  5
2
102
{ACAD_XDICTIONARY
360
154
102
}
330
0
100
AcDbSymbolTable
 70
     8
  0
LAYER
  5
10
330
2
100
AcDbSymbolTableRecord
100
AcDbLayerTableRecord
  2
0
 70
     0
 62
     7
  6
Continuous
370
    -3
390
F
  0
LAYER
  5
14F
330
2
100
AcDbSymbolTableRecord
100
AcDbLayerTableRecord
  2
Defpoints
 70
     0
 62
     7
  6
Continuous
290
     0
370
    -3
390
F
  0
LAYER
  5
150
330
2
100
AcDbSymbolTableRecord
100
AcDbLayerTableRecord
  2
DIM
 70
     0
 62
     7
  6
Continuous
370
    -3
390
F
  0
LAYER
  5
151
330
2
100
AcDbSymbolTableRecord
100
AcDbLayerTableRecord
  2
TEXT
 70
     0
 62
     7
  6
Continuous
370
    -3
390
F
  0
LAYER
  5
152
330
2
100
AcDbSymbolTableRecord
100
AcDbLayerTableRecord
  2
TEMPLATE
 70
     0
 62
     7
  6
Continuous
370
    -3
390
F
  0
LAYER
  5
153
330
2
100
AcDbSymbolTableRecord
100
AcDbLayerTableRecord
  2
DIMENSION
 70
     0
 62
     7
  6
Continuous
370
    -3
390
F
  0
LAYER
  5
3AB
330
2
100
AcDbSymbolTableRecord
100
AcDbLayerTableRecord
  2
THERMOSTATCVR
 70
     0
 62
     7
  6
Continuous
370
    -3
390
F
  0
LAYER
  5
3AC
330
2
100
AcDbSymbolTableRecord
100
AcDbLayerTableRecord
  2
BORDER
 70
     0
 62
     7
  6
Continuous
370
    -3
390
F
  0
ENDTAB
  0
TABLE
  2
STYLE
  5
3
330
0
100
AcDbSymbolTable
 70
     1
  0
STYLE
  5
11
330
3
100
AcDbSymbolTableRecord
100
AcDbTextStyleTableRecord
  2
Standard
 70
     0
 40
0.0
 41
1.0
 50
0.0
 71
     0
 42
0.2
  3
txt
  4

  0
ENDTAB
  0
TABLE
  2
VIEW
  5
6
330
0
100
AcDbSymbolTable
 70
     0
  0
ENDTAB
  0
TABLE
  2
UCS
  5
7
330
0
100
AcDbSymbolTable
 70
     0
  0
ENDTAB
  0
TABLE
  2
APPID
  5
9
330
0
100
AcDbSymbolTable
 70
     1
  0
APPID
  5
12
330
9
100
AcDbSymbolTableRecord
100
AcDbRegAppTableRecord
  2
ACAD
 70
     0
  0
ENDTAB
  0
TABLE
  2
DIMSTYLE
  5
A
330
0
100
AcDbSymbolTable
 70
     1
100
AcDbDimStyleTable
 71
     1
340
27
  0
DIMSTYLE
105
27
102
{ACAD_REACTORS
330
1D3
330
1D4
330
1D5
330
1D6
330
1D7
330
1D8
330
1D9
330
1DA
330
1DB
330
1DC
330
1DD
330
1F0
330
1F3
330
1F8
330
1FA
330
1FB
330
1FC
330
1FD
330
1FE
330
1FF
330
204
330
205
330
6CD
102
}
330
A
100
AcDbSymbolTableRecord
100
AcDbDimStyleTableRecord
  2
Standard
 70
     0
 41
1.0
 42
0.375
140
1.0
271
     3
272
     3
340
11
  0
ENDTAB
  0
TABLE
  2
BLOCK_RECORD
  5
1
330
0
100
AcDbSymbolTable
 70
    24
  0
BLOCK_RECORD
  5
1F
330
1
100
AcDbSymbolTableRecord
100
AcDbBlockTableRecord
  2
*Model_Space
340
22
  0
BLOCK_RECORD
  5
58
330
1
100
AcDbSymbolTableRecord
100
AcDbBlockTableRecord
  2
*Paper_Space
340
59
  0
BLOCK_RECORD
  5
5D
330
1
100
AcDbSymbolTableRecord
100
AcDbBlockTableRecord
  2
*Paper_Space0
340
5E
  0
BLOCK_RECORD
  5
206
330
1
100
AcDbSymbolTableRecord
100
AcDbBlockTableRecord
  2
*D1
340
0
  0
BLOCK_RECORD
  5
20E
330
1
100
AcDbSymbolTableRecord
100
AcDbBlockTableRecord
  2
*D2
340
0
  0
BLOCK_RECORD
  5
216
330
1
100
AcDbSymbolTableRecord
100
AcDbBlockTableRecord
  2
*D3
340
0
  0
BLOCK_RECORD
  5
21E
330
1
100
AcDbSymbolTableRecord
100
AcDbBlockTableRecord
  2
*D4
340
0
  0
BLOCK_RECORD
  5
226
330
1
100
AcDbSymbolTableRecord
100
AcDbBlockTableRecord
  2
*D5
340
0
  0
BLOCK_RECORD
  5
22E
330
1
100
AcDbSymbolTableRecord
100
AcDbBlockTableRecord
  2
*D6
340
0
  0
BLOCK_RECORD
  5
238
330
1
100
AcDbSymbolTableRecord
100
AcDbBlockTableRecord
  2
*D7
340
0
  0
BLOCK_RECORD
  5
240
330
1
100
AcDbSymbolTableRecord
100
AcDbBlockTableRecord
  2
*D8
340
0
  0
BLOCK_RECORD
  5
248
330
1
100
AcDbSymbolTableRecord
100
AcDbBlockTableRecord
  2
*D9
340
0
  0
BLOCK_RECORD
  5
250
330
1
100
AcDbSymbolTableRecord
100
AcDbBlockTableRecord
  2
*D10
340
0
  0
BLOCK_RECORD
  5
25A
330
1
100
AcDbSymbolTableRecord
100
AcDbBlockTableRecord
  2
*D11
340
0
  0
BLOCK_RECORD
  5
262
330
1
100
AcDbSymbolTableRecord
100
AcDbBlockTableRecord
  2
*D12
340
0
  0
BLOCK_RECORD
  5
26C
330
1
100
AcDbSymbolTableRecord
100
AcDbBlockTableRecord
  2
*D13
340
0
  0
BLOCK_RECORD
  5
276
330
1
100
AcDbSymbolTableRecord
100
AcDbBlockTableRecord
  2
*D14
340
0
  0
BLOCK_RECORD
  5
27E
330
1
100
AcDbSymbolTableRecord
100
AcDbBlockTableRecord
  2
*D15
340
0
  0
BLOCK_RECORD
  5
286
330
1
100
AcDbSymbolTableRecord
100
AcDbBlockTableRecord
  2
*D16
340
0
  0
BLOCK_RECORD
  5
28E
330
1
100
AcDbSymbolTableRecord
100
AcDbBlockTableRecord
  2
*D17
340
0
  0
BLOCK_RECORD
  5
296
330
1
100
AcDbSymbolTableRecord
100
AcDbBlockTableRecord
  2
*D18
340
0
  0
BLOCK_RECORD
  5
2A0
330
1
100
AcDbSymbolTableRecord
100
AcDbBlockTableRecord
  2
*D19
340
0
  0
BLOCK_RECORD
  5
2A8
330
1
100
AcDbSymbolTableRecord
100
AcDbBlockTableRecord
  2
*D20
340
0
  0
BLOCK_RECORD
  5
2B0
330
1
100
AcDbSymbolTableRecord
100
AcDbBlockTableRecord
  2
*D21
340
0
  0
BLOCK_RECORD
  5
2F3
330
1
100
AcDbSymbolTableRecord
100
AcDbBlockTableRecord
  2
*D22
340
0
  0
BLOCK_RECORD
  5
6CE
330
1
100
AcDbSymbolTableRecord
100
AcDbBlockTableRecord
  2
*D23
340
0
  0
ENDTAB
  0
ENDSEC
  0
SECTION
  2
BLOCKS
  0
BLOCK
  5
20
330
1F
100
AcDbEntity
  8
0
100
AcDbBlockBegin
  2
*Model_Space
 70
     0
 10
0.0
 20
0.0
 30
0.0
  3
*Model_Space
  1

  0
ENDBLK
  5
21
330
1F
100
AcDbEntity
  8
0
100
AcDbBlockEnd
  0
BLOCK
  5
5A
330
58
100
AcDbEntity
 67
     1
  8
0
100
AcDbBlockBegin
  2
*Paper_Space
 70
     0
 10
0.0
 20
0.0
 30
0.0
  3
*Paper_Space
  1

  0
ENDBLK
  5
5B
330
58
100
AcDbEntity
 67
     1
  8
0
100
AcDbBlockEnd
  0
BLOCK
  5
5F
330
5D
100
AcDbEntity
  8
0
100
AcDbBlockBegin
  2
*Paper_Space0
 70
     0
 10
0.0
 20
0.0
 30
0.0
  3
*Paper_Space0
  1

  0
ENDBLK
  5
60
330
5D
100
AcDbEntity
  8
0
100
AcDbBlockEnd
  0
BLOCK
  5
20C
330
206
100
AcDbEntity
  8
0
100
AcDbBlockBegin
  2
*D1
 70
     1
 10
0.0
 20
0.0
 30
0.0
  3
*D1
  1

  0
LINE
  5
333
330
206
100
AcDbEntity
  8
DIM
 62
     0
370
    -2
100
AcDbLine
 10
123.8389655063613
 20
-172.1926652706241
 30
0.0
 11
121.2139655063613
 21
-172.1926652706241
 31
0.0
  0
MTEXT
  5
334
330
206
100
AcDbEntity
  8
DIM
 62
     0
100
AcDbMText
 10
119.1722988396946
 20
-172.1926652706241
 30
0.0
 40
0.9999999999999998
 41
0.0
 71
     5
 72
     1
  1
\A1;0.000
 73
     1
 44
1.0
1001
ACAD
1000
MTEXTBEGIN
1070
    73
1070
     1
1070
    44
1040
1.0
1070
    74
1070
     0
1000
MTEXTEND
  0
POINT
  5
335
330
206
100
AcDbEntity
  8
Defpoints
 62
     0
100
AcDbPoint
 10
124.2139655063613
 20
-172.1926652706241
 30
0.0
  0
POINT
  5
336
330
206
100
AcDbEntity
  8
Defpoints
 62
     0
100
AcDbPoint
 10
121.2139655063613
 20
-172.1926652706241
 30
0.0
  0
POINT
  5
337
330
206
100
AcDbEntity
  8
Defpoints
 62
     0
100
AcDbPoint
 10
124.2139182364113
 20
-172.1926452902121
 30
0.0
  0
ENDBLK
  5
20D
330
206
100
AcDbEntity
  8
0
100
AcDbBlockEnd
  0
BLOCK
  5
214
330
20E
100
AcDbEntity
  8
0
100
AcDbBlockBegin
  2
*D2
 70
     1
 10
0.0
 20
0.0
 30
0.0
  3
*D2
  1

  0
LINE
  5
338
330
20E
100
AcDbEntity
  8
DIM
 62
     0
370
    -2
100
AcDbLine
 10
143.5659655063612
 20
-171.9835087691967
 30
0.0
 11
143.5659655063612
 21
-175.192665270624
 31
0.0
  0
MTEXT
  5
339
330
20E
100
AcDbEntity
  8
DIM
 62
     0
100
AcDbMText
 10
143.5659655063612
 20
-177.7343319372908
 30
0.0
 40
0.9999999999999998
 41
0.0
 71
     5
 72
     1
  1
\A1;19.351
 11
0.0000000000000001
 21
1.0
 31
0.0
 73
     1
 44
1.0
1001
ACAD
1000
MTEXTBEGIN
1070
    73
1070
     1
1070
    44
1040
1.0
1070
    74
1070
     0
1000
MTEXTEND
  0
POINT
  5
33A
330
20E
100
AcDbEntity
  8
Defpoints
 62
     0
100
AcDbPoint
 10
143.5659655063612
 20
-171.6085087691967
 30
0.0
  0
POINT
  5
33B
330
20E
100
AcDbEntity
  8
Defpoints
 62
     0
100
AcDbPoint
 10
143.5659655063612
 20
-175.192665270624
 30
0.0
  0
POINT
  5
33C
330
20E
100
AcDbEntity
  8
Defpoints
 62
     0
100
AcDbPoint
 10
124.2139182364113
 20
-172.1926452902121
 30
0.0
  0
ENDBLK
  5
215
330
20E
100
AcDbEntity
  8
0
100
AcDbBlockEnd
  0
BLOCK
  5
21C
330
216
100
AcDbEntity
  8
0
100
AcDbBlockBegin
  2
*D3
 70
     1
 10
0.0
 20
0.0
 30
0.0
  3
*D3
  1

  0
LINE
  5
33D
330
216
100
AcDbEntity
  8
DIM
 62
     0
370
    -2
100
AcDbLine
 10
123.8389655063613
 20
-152.2486652706241
 30
0.0
 11
121.2139655063613
 21
-152.2486652706241
 31
0.0
  0
MTEXT
  5
33E
330
216
100
AcDbEntity
  8
DIM
 62
     0
100
AcDbMText
 10
118.505632173028
 20
-152.2486652706241
 30
0.0
 40
0.9999999999999998
 41
0.0
 71
     5
 72
     1
  1
\A1;19.944
 73
     1
 44
1.0
1001
ACAD
1000
MTEXTBEGIN
1070
    73
1070
     1
1070
    44
1040
1.0
1070
    74
1070
     0
1000
MTEXTEND
  0
POINT
  5
33F
330
216
100
AcDbEntity
  8
Defpoints
 62
     0
100
AcDbPoint
 10
124.2139655063613
 20
-152.2486652706241
 30
0.0
  0
POINT
  5
340
330
216
100
AcDbEntity
  8
Defpoints
 62
     0
100
AcDbPoint
 10
121.2139655063613
 20
-152.2486652706241
 30
0.0
  0
POINT
  5
341
330
216
100
AcDbEntity
  8
Defpoints
 62
     0
100
AcDbPoint
 10
124.2139182364113
 20
-172.1926452902121
 30
0.0
  0
ENDBLK
  5
21D
330
216
100
AcDbEntity
  8
0
100
AcDbBlockEnd
  0
BLOCK
  5
224
330
21E
100
AcDbEntity
  8
0
100
AcDbBlockBegin
  2
*D4
 70
     1
 10
0.0
 20
0.0
 30
0.0
  3
*D4
  1

  0
LINE
  5
342
330
21E
100
AcDbEntity
  8
DIM
 62
     0
370
    -2
100
AcDbLine
 10
143.9409655063611
 20
-171.6015087691966
 30
0.0
 11
147.1579655063611
 21
-171.6015087691966
 31
0.0
  0
MTEXT
  5
343
330
21E
100
AcDbEntity
  8
DIM
 62
     0
100
AcDbMText
 10
149.2829655063611
 20
-171.6015087691966
 30
0.0
 40
0.9999999999999998
 41
0.0
 71
     5
 72
     1
  1
\A1;0.591
 73
     1
 44
1.0
1001
ACAD
1000
MTEXTBEGIN
1070
    73
1070
     1
1070
    44
1040
1.0
1070
    74
1070
     0
1000
MTEXTEND
  0
POINT
  5
344
330
21E
100
AcDbEntity
  8
Defpoints
 62
     0
100
AcDbPoint
 10
143.5659655063612
 20
-171.6015087691966
 30
0.0
  0
POINT
  5
345
330
21E
100
AcDbEntity
  8
Defpoints
 62
     0
100
AcDbPoint
 10
147.1579655063611
 20
-171.6015087691966
 30
0.0
  0
POINT
  5
346
330
21E
100
AcDbEntity
  8
Defpoints
 62
     0
100
AcDbPoint
 10
124.2139182364113
 20
-172.1926452902121
 30
0.0
  0
ENDBLK
  5
225
330
21E
100
AcDbEntity
  8
0
100
AcDbBlockEnd
  0
BLOCK
  5
22C
330
226
100
AcDbEntity
  8
0
100
AcDbBlockBegin
  2
*D5
 70
     1
 10
0.0
 20
0.0
 30
0.0
  3
*D5
  1

  0
LINE
  5
347
330
226
100
AcDbEntity
  8
DIM
 62
     0
370
    -2
100
AcDbLine
 10
141.0709655063612
 20
-165.3385087691965
 30
0.0
 11
147.1579655063611
 21
-165.3385087691965
 31
0.0
  0
MTEXT
  5
348
330
226
100
AcDbEntity
  8
DIM
 62
     0
100
AcDbMText
 10
149.5329655063611
 20
-165.3385087691965
 30
0.0
 40
0.9999999999999998
 41
0.0
 71
     5
 72
     1
  1
\A1;6.854
 73
     1
 44
1.0
1001
ACAD
1000
MTEXTBEGIN
1070
    73
1070
     1
1070
    44
1040
1.0
1070
    74
1070
     0
1000
MTEXTEND
  0
POINT
  5
349
330
226
100
AcDbEntity
  8
Defpoints
 62
     0
100
AcDbPoint
 10
140.6959655063612
 20
-165.3385087691965
 30
0.0
  0
POINT
  5
34A
330
226
100
AcDbEntity
  8
Defpoints
 62
     0
100
AcDbPoint
 10
147.1579655063611
 20
-165.3385087691965
 30
0.0
  0
POINT
  5
34B
330
226
100
AcDbEntity
  8
Defpoints
 62
     0
100
AcDbPoint
 10
124.2139182364113
 20
-172.1926452902121
 30
0.0
  0
ENDBLK
  5
22D
330
226
100
AcDbEntity
  8
0
100
AcDbBlockEnd
  0
BLOCK
  5
236
330
22E
100
AcDbEntity
  8
0
100
AcDbBlockBegin
  2
*D6
 70
     1
 10
0.0
 20
0.0
 30
0.0
  3
*D6
  1

  0
LINE
  5
34C
330
22E
100
AcDbEntity
  8
DIM
 62
     0
370
    -2
100
AcDbLine
 10
135.6969655063612
 20
-158.4665087691966
 30
0.0
 11
125.2139655063613
 21
-158.4665087691966
 31
0.0
  0
LINE
  5
34D
330
22E
100
AcDbEntity
  8
DIM
 62
     0
370
    -2
100
AcDbLine
 10
125.2139655063613
 20
-158.4665087691966
 30
0.0
 11
123.2139655063613
 21
-157.9665087691967
 31
0.0
  0
LINE
  5
34E
330
22E
100
AcDbEntity
  8
DIM
 62
     0
370
    -2
100
AcDbLine
 10
123.2139655063613
 20
-157.9665087691967
 30
0.0
 11
121.2139655063613
 21
-157.9665087691967
 31
0.0
  0
MTEXT
  5
34F
330
22E
100
AcDbEntity
  8
DIM
 62
     0
100
AcDbMText
 10
118.505632173028
 20
-157.9665087691967
 30
0.0
 40
0.9999999999999998
 41
0.0
 71
     5
 72
     1
  1
\A1;13.726
 73
     1
 44
1.0
1001
ACAD
1000
MTEXTBEGIN
1070
    73
1070
     1
1070
    44
1040
1.0
1070
    74
1070
     0
1000
MTEXTEND
  0
POINT
  5
350
330
22E
100
AcDbEntity
  8
Defpoints
 62
     0
100
AcDbPoint
 10
136.0719655063612
 20
-158.4665087691966
 30
0.0
  0
POINT
  5
351
330
22E
100
AcDbEntity
  8
Defpoints
 62
     0
100
AcDbPoint
 10
121.2139655063613
 20
-157.9665087691967
 30
0.0
  0
POINT
  5
352
330
22E
100
AcDbEntity
  8
Defpoints
 62
     0
100
AcDbPoint
 10
124.2139182364113
 20
-172.1926452902121
 30
0.0
  0
ENDBLK
  5
237
330
22E
100
AcDbEntity
  8
0
100
AcDbBlockEnd
  0
BLOCK
  5
23E
330
238
100
AcDbEntity
  8
0
100
AcDbBlockBegin
  2
*D7
 70
     1
 10
0.0
 20
0.0
 30
0.0
  3
*D7
  1

  0
LINE
  5
353
330
238
100
AcDbEntity
  8
DIM
 62
     0
370
    -2
100
AcDbLine
 10
143.9409655063611
 20
-152.8415087691967
 30
0.0
 11
147.1579655063611
 21
-152.8415087691967
 31
0.0
  0
MTEXT
  5
354
330
238
100
AcDbEntity
  8
DIM
 62
     0
100
AcDbMText
 10
149.6996321730279
 20
-152.8415087691967
 30
0.0
 40
0.9999999999999998
 41
0.0
 71
     5
 72
     1
  1
\A1;19.351
 73
     1
 44
1.0
1001
ACAD
1000
MTEXTBEGIN
1070
    73
1070
     1
1070
    44
1040
1.0
1070
    74
1070
     0
1000
MTEXTEND
  0
POINT
  5
355
330
238
100
AcDbEntity
  8
Defpoints
 62
     0
100
AcDbPoint
 10
143.5659655063612
 20
-152.8415087691967
 30
0.0
  0
POINT
  5
356
330
238
100
AcDbEntity
  8
Defpoints
 62
     0
100
AcDbPoint
 10
147.1579655063611
 20
-152.8415087691967
 30
0.0
  0
POINT
  5
357
330
238
100
AcDbEntity
  8
Defpoints
 62
     0
100
AcDbPoint
 10
124.2139182364113
 20
-172.1926452902121
 30
0.0
  0
ENDBLK
  5
23F
330
238
100
AcDbEntity
  8
0
100
AcDbBlockEnd
  0
BLOCK
  5
246
330
240
100
AcDbEntity
  8
0
100
AcDbBlockBegin
  2
*D8
 70
     1
 10
0.0
 20
0.0
 30
0.0
  3
*D8
  1

  0
LINE
  5
358
330
240
100
AcDbEntity
  8
DIM
 62
     0
370
    -2
100
AcDbLine
 10
124.2139655063613
 20
-172.5676652706241
 30
0.0
 11
124.2139655063613
 21
-175.192665270624
 31
0.0
  0
MTEXT
  5
359
330
240
100
AcDbEntity
  8
DIM
 62
     0
100
AcDbMText
 10
124.2139655063613
 20
-177.2343319372908
 30
0.0
 40
0.9999999999999998
 41
0.0
 71
     5
 72
     1
  1
\A1;0.000
 11
0.0000000000000001
 21
1.0
 31
0.0
 73
     1
 44
1.0
1001
ACAD
1000
MTEXTBEGIN
1070
    73
1070
     1
1070
    44
1040
1.0
1070
    74
1070
     0
1000
MTEXTEND
  0
POINT
  5
35A
330
240
100
AcDbEntity
  8
Defpoints
 62
     0
100
AcDbPoint
 10
124.2139655063613
 20
-172.1926652706241
 30
0.0
  0
POINT
  5
35B
330
240
100
AcDbEntity
  8
Defpoints
 62
     0
100
AcDbPoint
 10
124.2139655063613
 20
-175.192665270624
 30
0.0
  0
POINT
  5
35C
330
240
100
AcDbEntity
  8
Defpoints
 62
     0
100
AcDbPoint
 10
124.2139182364113
 20
-172.1926452902121
 30
0.0
  0
ENDBLK
  5
247
330
240
100
AcDbEntity
  8
0
100
AcDbBlockEnd
  0
BLOCK
  5
24E
330
248
100
AcDbEntity
  8
0
100
AcDbBlockBegin
  2
*D9
 70
     1
 10
0.0
 20
0.0
 30
0.0
  3
*D9
  1

  0
LINE
  5
35D
330
248
100
AcDbEntity
  8
DIM
 62
     0
370
    -2
100
AcDbLine
 10
136.0719655063612
 20
-158.0915087691967
 30
0.0
 11
136.0719655063612
 21
-149.2486652706241
 31
0.0
  0
MTEXT
  5
35E
330
248
100
AcDbEntity
  8
DIM
 62
     0
100
AcDbMText
 10
136.0719655063612
 20
-146.7069986039574
 30
0.0
 40
0.9999999999999998
 41
0.0
 71
     5
 72
     1
  1
\A1;11.858
 11
0.0000000000000001
 21
1.0
 31
0.0
 73
     1
 44
1.0
1001
ACAD
1000
MTEXTBEGIN
1070
    73
1070
     1
1070
    44
1040
1.0
1070
    74
1070
     0
1000
MTEXTEND
  0
POINT
  5
35F
330
248
100
AcDbEntity
  8
Defpoints
 62
     0
100
AcDbPoint
 10
136.0719655063612
 20
-158.4665087691966
 30
0.0
  0
POINT
  5
360
330
248
100
AcDbEntity
  8
Defpoints
 62
     0
100
AcDbPoint
 10
136.0719655063612
 20
-149.2486652706241
 30
0.0
  0
POINT
  5
361
330
248
100
AcDbEntity
  8
Defpoints
 62
     0
100
AcDbPoint
 10
124.2139182364113
 20
-172.1926452902121
 30
0.0
  0
ENDBLK
  5
24F
330
248
100
AcDbEntity
  8
0
100
AcDbBlockEnd
  0
BLOCK
  5
258
330
250
100
AcDbEntity
  8
0
100
AcDbBlockBegin
  2
*D10
 70
     1
 10
0.0
 20
0.0
 30
0.0
  3
*D10
  1

  0
LINE
  5
362
330
250
100
AcDbEntity
  8
DIM
 62
     0
370
    -2
100
AcDbLine
 10
144.1579655063612
 20
-151.8736652706241
 30
0.0
 11
144.1579655063612
 21
-150.2486652706241
 31
0.0
  0
LINE
  5
363
330
250
100
AcDbEntity
  8
DIM
 62
     0
370
    -2
100
AcDbLine
 10
144.1579655063612
 20
-150.2486652706241
 30
0.0
 11
145.0629655063611
 21
-151.2486652706241
 31
0.0
  0
LINE
  5
364
330
250
100
AcDbEntity
  8
DIM
 62
     0
370
    -2
100
AcDbLine
 10
145.0629655063611
 20
-151.2486652706241
 30
0.0
 11
145.0629655063611
 21
-149.2486652706241
 31
0.0
  0
MTEXT
  5
365
330
250
100
AcDbEntity
  8
DIM
 62
     0
100
AcDbMText
 10
145.0629655063611
 20
-146.5403319372907
 30
0.0
 40
0.9999999999999998
 41
0.0
 71
     5
 72
     1
  1
\A1;19.944
 11
0.0000000000000001
 21
1.0
 31
0.0
 73
     1
 44
1.0
1001
ACAD
1000
MTEXTBEGIN
1070
    73
1070
     1
1070
    44
1040
1.0
1070
    74
1070
     0
1000
MTEXTEND
  0
POINT
  5
366
330
250
100
AcDbEntity
  8
Defpoints
 62
     0
100
AcDbPoint
 10
144.1579655063612
 20
-152.2486652706241
 30
0.0
  0
POINT
  5
367
330
250
100
AcDbEntity
  8
Defpoints
 62
     0
100
AcDbPoint
 10
145.0629655063611
 20
-149.2486652706241
 30
0.0
  0
POINT
  5
368
330
250
100
AcDbEntity
  8
Defpoints
 62
     0
100
AcDbPoint
 10
124.2139182364113
 20
-172.1926452902121
 30
0.0
  0
ENDBLK
  5
259
330
250
100
AcDbEntity
  8
0
100
AcDbBlockEnd
  0
BLOCK
  5
260
330
25A
100
AcDbEntity
  8
0
100
AcDbBlockBegin
  2
*D11
 70
     1
 10
0.0
 20
0.0
 30
0.0
  3
*D11
  1

  0
LINE
  5
369
330
25A
100
AcDbEntity
  8
DIM
 62
     0
370
    -2
100
AcDbLine
 10
140.6959655063612
 20
-165.7135087691966
 30
0.0
 11
140.6959655063612
 21
-175.192665270624
 31
0.0
  0
MTEXT
  5
36A
330
25A
100
AcDbEntity
  8
DIM
 62
     0
100
AcDbMText
 10
140.6959655063612
 20
-177.7343319372908
 30
0.0
 40
0.9999999999999998
 41
0.0
 71
     5
 72
     1
  1
\A1;16.481
 11
0.0000000000000001
 21
1.0
 31
0.0
 73
     1
 44
1.0
1001
ACAD
1000
MTEXTBEGIN
1070
    73
1070
     1
1070
    44
1040
1.0
1070
    74
1070
     0
1000
MTEXTEND
  0
POINT
  5
36B
330
25A
100
AcDbEntity
  8
Defpoints
 62
     0
100
AcDbPoint
 10
140.6959655063612
 20
-165.3385087691965
 30
0.0
  0
POINT
  5
36C
330
25A
100
AcDbEntity
  8
Defpoints
 62
     0
100
AcDbPoint
 10
140.6959655063612
 20
-175.192665270624
 30
0.0
  0
POINT
  5
36D
330
25A
100
AcDbEntity
  8
Defpoints
 62
     0
100
AcDbPoint
 10
124.2139182364113
 20
-172.1926452902121
 30
0.0
  0
ENDBLK
  5
261
330
25A
100
AcDbEntity
  8
0
100
AcDbBlockEnd
  0
BLOCK
  5
26A
330
262
100
AcDbEntity
  8
0
100
AcDbBlockBegin
  2
*D12
 70
     1
 10
0.0
 20
0.0
 30
0.0
  3
*D12
  1

  0
LINE
  5
373
330
262
100
AcDbEntity
  8
DIM
 62
     0
370
    -2
100
AcDbLine
 10
141.3759655063613
 20
-162.1515087691967
 30
0.0
 11
144.2437238616181
 21
-162.1515087691967
 31
0.0
  0
LINE
  5
374
330
262
100
AcDbEntity
  8
DIM
 62
     0
370
    -2
100
AcDbLine
 10
144.2437238616181
 20
-162.1515087691967
 30
0.0
 11
146.2437238616181
 21
-161.1264901006683
 31
0.0
  0
LINE
  5
375
330
262
100
AcDbEntity
  8
DIM
 62
     0
370
    -2
100
AcDbLine
 10
146.2437238616181
 20
-161.1264901006683
 30
0.0
 11
148.2437238616181
 21
-161.1264901006683
 31
0.0
  0
MTEXT
  5
376
330
262
100
AcDbEntity
  8
DIM
 62
     0
100
AcDbMText
 10
150.6187238616181
 20
-161.1264901006683
 30
0.0
 40
0.9999999999999998
 41
0.0
 71
     5
 72
     1
  1
\A1;10.041
 73
     1
 44
1.0
1001
ACAD
1000
MTEXTBEGIN
1070
    73
1070
     1
1070
    44
1040
1.0
1070
    74
1070
     0
1000
MTEXTEND
  0
POINT
  5
377
330
262
100
AcDbEntity
  8
Defpoints
 62
     0
100
AcDbPoint
 10
141.0009655063613
 20
-162.1515087691967
 30
0.0
  0
POINT
  5
378
330
262
100
AcDbEntity
  8
Defpoints
 62
     0
100
AcDbPoint
 10
148.2437238616181
 20
-161.1264901006683
 30
0.0
  0
POINT
  5
379
330
262
100
AcDbEntity
  8
Defpoints
 62
     0
100
AcDbPoint
 10
124.2139655063613
 20
-172.1926652706241
 30
0.0
  0
ENDBLK
  5
26B
330
262
100
AcDbEntity
  8
0
100
AcDbBlockEnd
  0
BLOCK
  5
274
330
26C
100
AcDbEntity
  8
0
100
AcDbBlockBegin
  2
*D13
 70
     1
 10
0.0
 20
0.0
 30
0.0
  3
*D13
  1

  0
LINE
  5
37A
330
26C
100
AcDbEntity
  8
DIM
 62
     0
370
    -2
100
AcDbLine
 10
141.0009655063613
 20
-161.7765087691967
 30
0.0
 11
141.0009655063613
 21
-153.3051551142505
 31
0.0
  0
LINE
  5
37B
330
26C
100
AcDbEntity
  8
DIM
 62
     0
370
    -2
100
AcDbLine
 10
141.0009655063613
 20
-153.3051551142505
 30
0.0
 11
139.0576811241872
 21
-151.3051551142505
 31
0.0
  0
LINE
  5
37C
330
26C
100
AcDbEntity
  8
DIM
 62
     0
370
    -2
100
AcDbLine
 10
139.0576811241872
 20
-151.3051551142505
 30
0.0
 11
139.0576811241872
 21
-149.3051551142505
 31
0.0
  0
MTEXT
  5
37D
330
26C
100
AcDbEntity
  8
DIM
 62
     0
100
AcDbMText
 10
139.0576811241873
 20
-146.5968217809171
 30
0.0
 40
0.9999999999999998
 41
0.0
 71
     5
 72
     1
  1
\A1;16.787
 11
0.0000000000000001
 21
1.0
 31
0.0
 73
     1
 44
1.0
1001
ACAD
1000
MTEXTBEGIN
1070
    73
1070
     1
1070
    44
1040
1.0
1070
    74
1070
     0
1000
MTEXTEND
  0
POINT
  5
37E
330
26C
100
AcDbEntity
  8
Defpoints
 62
     0
100
AcDbPoint
 10
141.0009655063613
 20
-162.1515087691967
 30
0.0
  0
POINT
  5
37F
330
26C
100
AcDbEntity
  8
Defpoints
 62
     0
100
AcDbPoint
 10
139.0576811241872
 20
-149.3051551142505
 30
0.0
  0
POINT
  5
380
330
26C
100
AcDbEntity
  8
Defpoints
 62
     0
100
AcDbPoint
 10
124.2139655063613
 20
-172.1926652706241
 30
0.0
  0
ENDBLK
  5
275
330
26C
100
AcDbEntity
  8
0
100
AcDbBlockEnd
  0
BLOCK
  5
27C
330
276
100
AcDbEntity
  8
0
100
AcDbBlockBegin
  2
*D14
 70
     1
 10
0.0
 20
0.0
 30
0.0
  3
*D14
  1

  0
LINE
  5
381
330
276
100
AcDbEntity
  8
0
 62
     0
370
    -2
100
AcDbLine
 10
128.3149655063613
 20
-161.3415087691967
 30
0.0
 11
128.3149655063613
 21
-175.9707797555701
 31
0.0
  0
MTEXT
  5
382
330
276
100
AcDbEntity
  8
0
 62
     0
100
AcDbMText
 10
128.3149655063613
 20
-177.6441130889035
 30
0.0
 40
1.0
 41
0.0
 71
     5
 72
     1
  1
\A1;4.101
 11
0.0000000000000001
 21
1.0
 31
0.0
 73
     1
 44
1.0
1001
ACAD
1000
MTEXTBEGIN
1070
    73
1070
     1
1070
    44
1040
1.0
1070
    74
1070
     0
1000
MTEXTEND
  0
POINT
  5
383
330
276
100
AcDbEntity
  8
Defpoints
 62
     0
100
AcDbPoint
 10
128.3149655063613
 20
-160.9665087691967
 30
0.0
  0
POINT
  5
384
330
276
100
AcDbEntity
  8
Defpoints
 62
     0
100
AcDbPoint
 10
128.3149655063613
 20
-175.9707797555701
 30
0.0
  0
POINT
  5
385
330
276
100
AcDbEntity
  8
Defpoints
 62
     0
100
AcDbPoint
 10
124.2139655063613
 20
-172.1926652706241
 30
0.0
  0
ENDBLK
  5
27D
330
276
100
AcDbEntity
  8
0
100
AcDbBlockEnd
  0
BLOCK
  5
284
330
27E
100
AcDbEntity
  8
0
100
AcDbBlockBegin
  2
*D15
 70
     1
 10
0.0
 20
0.0
 30
0.0
  3
*D15
  1

  0
LINE
  5
386
330
27E
100
AcDbEntity
  8
0
 62
     0
370
    -2
100
AcDbLine
 10
142.3149655063611
 20
-161.3415087691967
 30
0.0
 11
142.3149655063611
 21
-176.0301479624461
 31
0.0
  0
MTEXT
  5
387
330
27E
100
AcDbEntity
  8
0
 62
     0
100
AcDbMText
 10
142.3149655063611
 20
-178.0368146291127
 30
0.0
 40
1.0
 41
0.0
 71
     5
 72
     1
  1
\A1;18.101
 11
0.0000000000000001
 21
1.0
 31
0.0
 73
     1
 44
1.0
1001
ACAD
1000
MTEXTBEGIN
1070
    73
1070
     1
1070
    44
1040
1.0
1070
    74
1070
     0
1000
MTEXTEND
  0
POINT
  5
388
330
27E
100
AcDbEntity
  8
Defpoints
 62
     0
100
AcDbPoint
 10
142.3149655063611
 20
-160.9665087691967
 30
0.0
  0
POINT
  5
389
330
27E
100
AcDbEntity
  8
Defpoints
 62
     0
100
AcDbPoint
 10
142.3149655063611
 20
-176.0301479624461
 30
0.0
  0
POINT
  5
38A
330
27E
100
AcDbEntity
  8
Defpoints
 62
     0
100
AcDbPoint
 10
124.2139655063613
 20
-172.1926652706241
 30
0.0
  0
ENDBLK
  5
285
330
27E
100
AcDbEntity
  8
0
100
AcDbBlockEnd
  0
BLOCK
  5
28C
330
286
100
AcDbEntity
  8
0
100
AcDbBlockBegin
  2
*D16
 70
     1
 10
0.0
 20
0.0
 30
0.0
  3
*D16
  1

  0
LINE
  5
38B
330
286
100
AcDbEntity
  8
0
 62
     0
370
    -2
100
AcDbLine
 10
127.9399655063613
 20
-159.3415087691967
 30
0.0
 11
120.8742493576689
 21
-159.3415087691967
 31
0.0
  0
MTEXT
  5
38C
330
286
100
AcDbEntity
  8
0
 62
     0
100
AcDbMText
 10
118.6175826910022
 20
-159.3415087691967
 30
0.0
 40
1.0
 41
0.0
 71
     5
 72
     1
  1
\A1;12.851
 73
     1
 44
1.0
1001
ACAD
1000
MTEXTBEGIN
1070
    73
1070
     1
1070
    44
1040
1.0
1070
    74
1070
     0
1000
MTEXTEND
  0
POINT
  5
38D
330
286
100
AcDbEntity
  8
Defpoints
 62
     0
100
AcDbPoint
 10
128.3149655063613
 20
-159.3415087691967
 30
0.0
  0
POINT
  5
38E
330
286
100
AcDbEntity
  8
Defpoints
 62
     0
100
AcDbPoint
 10
120.8742493576689
 20
-159.3415087691967
 30
0.0
  0
POINT
  5
38F
330
286
100
AcDbEntity
  8
Defpoints
 62
     0
100
AcDbPoint
 10
124.2139655063613
 20
-172.1926652706241
 30
0.0
  0
ENDBLK
  5
28D
330
286
100
AcDbEntity
  8
0
100
AcDbBlockEnd
  0
BLOCK
  5
294
330
28E
100
AcDbEntity
  8
0
100
AcDbBlockBegin
  2
*D17
 70
     1
 10
0.0
 20
0.0
 30
0.0
  3
*D17
  1

  0
LINE
  5
390
330
28E
100
AcDbEntity
  8
0
 62
     0
370
    -2
100
AcDbLine
 10
127.9399655063613
 20
-161.0915087691967
 30
0.0
 11
120.3807566976824
 21
-161.0915087691967
 31
0.0
  0
MTEXT
  5
391
330
28E
100
AcDbEntity
  8
0
 62
     0
100
AcDbMText
 10
118.5407566976824
 20
-161.0915087691967
 30
0.0
 40
1.0
 41
0.0
 71
     5
 72
     1
  1
\A1;11.101
 73
     1
 44
1.0
1001
ACAD
1000
MTEXTBEGIN
1070
    73
1070
     1
1070
    44
1040
1.0
1070
    74
1070
     0
1000
MTEXTEND
  0
POINT
  5
392
330
28E
100
AcDbEntity
  8
Defpoints
 62
     0
100
AcDbPoint
 10
128.3149655063613
 20
-161.0915087691967
 30
0.0
  0
POINT
  5
393
330
28E
100
AcDbEntity
  8
Defpoints
 62
     0
100
AcDbPoint
 10
120.3807566976824
 20
-161.0915087691967
 30
0.0
  0
POINT
  5
394
330
28E
100
AcDbEntity
  8
Defpoints
 62
     0
100
AcDbPoint
 10
124.2139655063613
 20
-172.1926652706241
 30
0.0
  0
ENDBLK
  5
295
330
28E
100
AcDbEntity
  8
0
100
AcDbBlockEnd
  0
BLOCK
  5
29E
330
296
100
AcDbEntity
  8
0
100
AcDbBlockBegin
  2
*D18
 70
     1
 10
0.0
 20
0.0
 30
0.0
  3
*D18
  1

  0
LINE
  5
395
330
296
100
AcDbEntity
  8
0
 62
     0
370
    -2
100
AcDbLine
 10
124.8059655063612
 20
-171.9765087691967
 30
0.0
 11
124.8059655063612
 21
-173.6015087691967
 31
0.0
  0
LINE
  5
396
330
296
100
AcDbEntity
  8
0
 62
     0
370
    -2
100
AcDbLine
 10
124.8059655063612
 20
-173.6015087691967
 30
0.0
 11
125.8904391912487
 21
-173.5096257166892
 31
0.0
  0
LINE
  5
397
330
296
100
AcDbEntity
  8
0
 62
     0
370
    -2
100
AcDbLine
 10
125.8904391912487
 20
-173.5096257166892
 30
0.0
 11
125.8904391912487
 21
-175.5096257166892
 31
0.0
  0
MTEXT
  5
398
330
296
100
AcDbEntity
  8
0
 62
     0
100
AcDbMText
 10
125.8904391912487
 20
-177.3496257166892
 30
0.0
 40
1.0
 41
0.0
 71
     5
 72
     1
  1
\A1;0.591
 11
0.0000000000000001
 21
1.0
 31
0.0
 73
     1
 44
1.0
1001
ACAD
1000
MTEXTBEGIN
1070
    73
1070
     1
1070
    44
1040
1.0
1070
    74
1070
     0
1000
MTEXTEND
  0
POINT
  5
399
330
296
100
AcDbEntity
  8
Defpoints
 62
     0
100
AcDbPoint
 10
124.8059655063612
 20
-171.6015087691966
 30
0.0
  0
POINT
  5
39A
330
296
100
AcDbEntity
  8
Defpoints
 62
     0
100
AcDbPoint
 10
125.8904391912487
 20
-175.5096257166892
 30
0.0
  0
POINT
  5
39B
330
296
100
AcDbEntity
  8
Defpoints
 62
     0
100
AcDbPoint
 10
124.2139655063613
 20
-172.1926652706241
 30
0.0
  0
ENDBLK
  5
29F
330
296
100
AcDbEntity
  8
0
100
AcDbBlockEnd
  0
BLOCK
  5
2A6
330
2A0
100
AcDbEntity
  8
0
100
AcDbBlockBegin
  2
*D19
 70
     1
 10
0.0
 20
0.0
 30
0.0
  3
*D19
  1

  0
LINE
  5
39C
330
2A0
100
AcDbEntity
  8
0
 62
     0
370
    -2
100
AcDbLine
 10
128.8664655063611
 20
-155.8230087691965
 30
0.0
 11
121.0522940684267
 21
-155.8230087691965
 31
0.0
  0
MTEXT
  5
39D
330
2A0
100
AcDbEntity
  8
0
 62
     0
100
AcDbMText
 10
118.7122940684267
 20
-155.8230087691965
 30
0.0
 40
1.0
 41
0.0
 71
     5
 72
     1
  1
\A1;16.370
 73
     1
 44
1.0
1001
ACAD
1000
MTEXTBEGIN
1070
    73
1070
     1
1070
    44
1040
1.0
1070
    74
1070
     0
1000
MTEXTEND
  0
POINT
  5
39E
330
2A0
100
AcDbEntity
  8
Defpoints
 62
     0
100
AcDbPoint
 10
129.2414655063611
 20
-155.8230087691965
 30
0.0
  0
POINT
  5
39F
330
2A0
100
AcDbEntity
  8
Defpoints
 62
     0
100
AcDbPoint
 10
121.0522940684267
 20
-155.8230087691965
 30
0.0
  0
POINT
  5
3A0
330
2A0
100
AcDbEntity
  8
Defpoints
 62
     0
100
AcDbPoint
 10
124.2139655063613
 20
-172.1926652706241
 30
0.0
  0
ENDBLK
  5
2A7
330
2A0
100
AcDbEntity
  8
0
100
AcDbBlockEnd
  0
BLOCK
  5
2AE
330
2A8
100
AcDbEntity
  8
0
100
AcDbBlockBegin
  2
*D20
 70
     1
 10
0.0
 20
0.0
 30
0.0
  3
*D20
  1

  0
LINE
  5
3A1
330
2A8
100
AcDbEntity
  8
0
 62
     0
370
    -2
100
AcDbLine
 10
129.1144655063613
 20
-152.3595087691967
 30
0.0
 11
129.1144655063613
 21
-149.252174445113
 31
0.0
  0
MTEXT
  5
3A2
330
2A8
100
AcDbEntity
  8
0
 62
     0
100
AcDbMText
 10
129.1144655063613
 20
-147.412174445113
 30
0.0
 40
1.0
 41
0.0
 71
     5
 72
     1
  1
\A1;4.901
 11
0.0000000000000001
 21
1.0
 31
0.0
 73
     1
 44
1.0
1001
ACAD
1000
MTEXTBEGIN
1070
    73
1070
     1
1070
    44
1040
1.0
1070
    74
1070
     0
1000
MTEXTEND
  0
POINT
  5
3A3
330
2A8
100
AcDbEntity
  8
Defpoints
 62
     0
100
AcDbPoint
 10
129.1144655063613
 20
-152.7345087691966
 30
0.0
  0
POINT
  5
3A4
330
2A8
100
AcDbEntity
  8
Defpoints
 62
     0
100
AcDbPoint
 10
129.1144655063613
 20
-149.252174445113
 30
0.0
  0
POINT
  5
3A5
330
2A8
100
AcDbEntity
  8
Defpoints
 62
     0
100
AcDbPoint
 10
124.2139655063613
 20
-172.1926652706241
 30
0.0
  0
ENDBLK
  5
2AF
330
2A8
100
AcDbEntity
  8
0
100
AcDbBlockEnd
  0
BLOCK
  5
2B6
330
2B0
100
AcDbEntity
  8
0
100
AcDbBlockBegin
  2
*D21
 70
     1
 10
0.0
 20
0.0
 30
0.0
  3
*D21
  1

  0
LINE
  5
3A6
330
2B0
100
AcDbEntity
  8
0
 62
     0
370
    -2
100
AcDbLine
 10
142.1889655063611
 20
-152.3595087691967
 30
0.0
 11
142.1889655063611
 21
-149.6834387314576
 31
0.0
  0
MTEXT
  5
3A7
330
2B0
100
AcDbEntity
  8
0
 62
     0
100
AcDbMText
 10
142.1889655063611
 20
-147.2601053981243
 30
0.0
 40
1.0
 41
0.0
 71
     5
 72
     1
  1
\A1;17.975
 11
0.0000000000000001
 21
1.0
 31
0.0
 73
     1
 44
1.0
1001
ACAD
1000
MTEXTBEGIN
1070
    73
1070
     1
1070
    44
1040
1.0
1070
    74
1070
     0
1000
MTEXTEND
  0
POINT
  5
3A8
330
2B0
100
AcDbEntity
  8
Defpoints
 62
     0
100
AcDbPoint
 10
142.1889655063611
 20
-152.7345087691966
 30
0.0
  0
POINT
  5
3A9
330
2B0
100
AcDbEntity
  8
Defpoints
 62
     0
100
AcDbPoint
 10
142.1889655063611
 20
-149.6834387314576
 30
0.0
  0
POINT
  5
3AA
330
2B0
100
AcDbEntity
  8
Defpoints
 62
     0
100
AcDbPoint
 10
124.2139655063613
 20
-172.1926652706241
 30
0.0
  0
ENDBLK
  5
2B7
330
2B0
100
AcDbEntity
  8
0
100
AcDbBlockEnd
  0
BLOCK
  5
2F9
330
2F3
100
AcDbEntity
  8
0
100
AcDbBlockBegin
  2
*D22
 70
     1
 10
0.0
 20
0.0
 30
0.0
  3
*D22
  1

  0
LINE
  5
36E
330
2F3
100
AcDbEntity
  8
DIM
 62
     0
370
    -2
100
AcDbLine
 10
141.0709655063612
 20
-163.3385087691966
 30
0.0
 11
147.7689051424726
 21
-163.3385087691966
 31
0.0
  0
MTEXT
  5
36F
330
2F3
100
AcDbEntity
  8
DIM
 62
     0
100
AcDbMText
 10
150.1439051424727
 20
-163.3385087691966
 30
0.0
 40
0.9999999999999998
 41
0.0
 71
     5
 72
     1
  1
\A1;8.854
 73
     1
 44
1.0
1001
ACAD
1000
MTEXTBEGIN
1070
    73
1070
     1
1070
    44
1040
1.0
1070
    74
1070
     0
1000
MTEXTEND
  0
POINT
  5
370
330
2F3
100
AcDbEntity
  8
Defpoints
 62
     0
100
AcDbPoint
 10
140.6959655063612
 20
-163.3385087691966
 30
0.0
  0
POINT
  5
371
330
2F3
100
AcDbEntity
  8
Defpoints
 62
     0
100
AcDbPoint
 10
147.7689051424726
 20
-163.3385087691966
 30
0.0
  0
POINT
  5
372
330
2F3
100
AcDbEntity
  8
Defpoints
 62
     0
100
AcDbPoint
 10
124.2139655063613
 20
-172.1926652706241
 30
0.0
  0
ENDBLK
  5
2FA
330
2F3
100
AcDbEntity
  8
0
100
AcDbBlockEnd
  0
BLOCK
  5
6D6
330
6CE
100
AcDbEntity
  8
0
100
AcDbBlockBegin
  2
*D23
 70
     1
 10
0.0
 20
0.0
 30
0.0
  3
*D23
  1

  0
LINE
  5
6E8
330
6CE
100
AcDbEntity
  8
0
 62
     0
370
    -2
100
AcDbLine
 10
120.7738210583649
 20
-163.7478507335757
 30
0.0
 11
139.5056151641717
 21
-162.2695229806848
 31
0.0
  0
MTEXT
  5
6E9
330
6CE
100
AcDbEntity
  8
0
 62
     0
100
AcDbMText
 10
111.8504877250315
 20
-163.7478507335757
 30
0.0
 40
1.0
 41
0.0
 71
     5
 72
     1
  1
\A1;\U+22051.000 (1)\POPTIONAL: ETHERNET/\PALARM CONNECTION \PPORT
 73
     1
 44
1.0
1001
ACAD
1000
MTEXTBEGIN
1070
    73
1070
     1
1070
    44
1040
1.0
1070
    74
1070
     0
1000
MTEXTEND
  0
SOLID
  5
6EA
330
6CE
100
AcDbEntity
  8
0
 62
     0
100
AcDbTrace
 10
139.4925024740063
 20
-162.1033729426637
 30
0.0
 11
139.518727854337
 21
-162.4356730187059
 31
0.0
 12
140.5025153922981
 22
-162.1908468396927
 32
0.0
 13
140.5025153922981
 23
-162.1908468396927
 33
0.0
  0
LINE
  5
6EB
330
6CE
100
AcDbEntity
  8
0
 62
     0
370
    -2
100
AcDbLine
 10
140.9109655063614
 20
-162.1515087691967
 30
0.0
 11
141.0909655063614
 21
-162.1515087691967
 31
0.0
  0
LINE
  5
6EC
330
6CE
100
AcDbEntity
  8
0
 62
     0
370
    -2
100
AcDbLine
 10
141.0009655063614
 20
-162.2415087691967
 30
0.0
 11
141.0009655063614
 21
-162.0615087691967
 31
0.0
  0
POINT
  5
6ED
330
6CE
100
AcDbEntity
  8
Defpoints
 62
     0
100
AcDbPoint
 10
140.5025153922981
 20
-162.1908468396927
 30
0.0
  0
POINT
  5
6EE
330
6CE
100
AcDbEntity
  8
Defpoints
 62
     0
100
AcDbPoint
 10
141.4994156204246
 20
-162.1121706987007
 30
0.0
  0
ENDBLK
  5
6D7
330
6CE
100
AcDbEntity
  8
0
100
AcDbBlockEnd
  0
ENDSEC
  0
SECTION
  2
ENTITIES
  0
CIRCLE
  5
1B0
330
1F
100
AcDbEntity
  8
TEMPLATE
100
AcDbCircle
 10
136.0719655063612
 20
-158.4665087691966
 30
0.0
 40
0.625
  0
CIRCLE
  5
1B1
330
1F
100
AcDbEntity
  8
TEMPLATE
100
AcDbCircle
 10
140.6959655063612
 20
-165.3385087691965
 30
0.0
 40
0.625
  0
CIRCLE
  5
1B2
330
1F
100
AcDbEntity
  8
TEMPLATE
100
AcDbCircle
 10
124.8059655063612
 20
-152.8415087691967
 30
0.0
 40
0.1875
  0
CIRCLE
  5
1B3
330
1F
100
AcDbEntity
  8
TEMPLATE
100
AcDbCircle
 10
143.5659655063612
 20
-152.8415087691967
 30
0.0
 40
0.1875
  0
CIRCLE
  5
1B4
330
1F
100
AcDbEntity
  8
TEMPLATE
100
AcDbCircle
 10
124.8059655063612
 20
-171.6015087691966
 30
0.0
 40
0.1875
  0
CIRCLE
  5
1B5
330
1F
100
AcDbEntity
  8
TEMPLATE
100
AcDbCircle
 10
143.5659655063612
 20
-171.6015087691966
 30
0.0
 40
0.1875
  0
LINE
  5
1B6
330
1F
100
AcDbEntity
  8
TEMPLATE
100
AcDbLine
 10
128.3149655063613
 20
-161.0915087691967
 30
0.0
 11
128.3149655063613
 21
-159.3415087691967
 31
0.0
  0
LINE
  5
1B7
330
1F
100
AcDbEntity
  8
TEMPLATE
100
AcDbLine
 10
142.3149655063611
 20
-159.4665087691967
 30
0.0
 11
142.3149655063611
 21
-160.9665087691967
 31
0.0
  0
LINE
  5
1B8
330
1F
100
AcDbEntity
  8
TEMPLATE
  6
DASHDOT
100
AcDbLine
 10
124.2139655063613
 20
-172.1926652706241
 30
0.0
 11
124.2139655063613
 21
-152.2486652706241
 31
0.0
  0
LINE
  5
1B9
330
1F
100
AcDbEntity
  8
TEMPLATE
  6
DASHDOT
100
AcDbLine
 10
144.1579655063612
 20
-152.2486652706241
 30
0.0
 11
144.1579655063612
 21
-172.1926652706241
 31
0.0
  0
LINE
  5
1BA
330
1F
100
AcDbEntity
  8
TEMPLATE
  6
DASHDOT
100
AcDbLine
 10
144.1579655063612
 20
-152.2486652706241
 30
0.0
 11
124.2139655063613
 21
-152.2486652706241
 31
0.0
  0
LINE
  5
1BB
330
1F
100
AcDbEntity
  8
TEMPLATE
  6
DASHDOT
100
AcDbLine
 10
144.1579655063612
 20
-172.1926652706241
 30
0.0
 11
124.2139655063613
 21
-172.1926652706241
 31
0.0
  0
LINE
  5
1BC
330
1F
100
AcDbEntity
  8
TEMPLATE
100
AcDbLine
 10
144.1579655063612
 20
-158.2230087691967
 30
0.0
 11
145.0069655063612
 21
-158.2230087691967
 31
0.0
  0
LINE
  5
1BD
330
1F
100
AcDbEntity
  8
TEMPLATE
100
AcDbLine
 10
144.1579655063612
 20
-157.8480087691967
 30
0.0
 11
145.0069655063612
 21
-157.8480087691967
 31
0.0
  0
LINE
  5
1BE
330
1F
100
AcDbEntity
  8
TEMPLATE
100
AcDbLine
 10
145.0069655063611
 20
-158.2230087691967
 30
0.0
 11
145.0069655063612
 21
-157.8480087691967
 31
0.0
  0
LINE
  5
1BF
330
1F
100
AcDbEntity
  8
TEMPLATE
100
AcDbLine
 10
145.0069655063611
 20
-158.2230087691967
 30
0.0
 11
145.0069655063612
 21
-157.8480087691967
 31
0.0
  0
LINE
  5
1C0
330
1F
100
AcDbEntity
  8
TEMPLATE
100
AcDbLine
 10
144.1579655063612
 20
-157.8480087691967
 30
0.0
 11
145.0069655063612
 21
-157.8480087691967
 31
0.0
  0
LINE
  5
1C1
330
1F
100
AcDbEntity
  8
TEMPLATE
100
AcDbLine
 10
144.1579655063612
 20
-158.2230087691967
 30
0.0
 11
145.0069655063612
 21
-158.2230087691967
 31
0.0
  0
LINE
  5
1C2
330
1F
100
AcDbEntity
  8
TEMPLATE
  6
DASHDOT
100
AcDbLine
 10
144.1579655063612
 20
-172.1926652706241
 30
0.0
 11
124.2139655063613
 21
-172.1926652706241
 31
0.0
  0
LINE
  5
1C3
330
1F
100
AcDbEntity
  8
TEMPLATE
  6
DASHDOT
100
AcDbLine
 10
144.1579655063612
 20
-152.2486652706241
 30
0.0
 11
124.2139655063613
 21
-152.2486652706241
 31
0.0
  0
LINE
  5
1C4
330
1F
100
AcDbEntity
  8
TEMPLATE
  6
DASHDOT
100
AcDbLine
 10
144.1579655063612
 20
-152.2486652706241
 30
0.0
 11
144.1579655063612
 21
-172.1926652706241
 31
0.0
  0
LINE
  5
1C5
330
1F
100
AcDbEntity
  8
TEMPLATE
  6
DASHDOT
100
AcDbLine
 10
124.2139655063613
 20
-172.1926652706241
 30
0.0
 11
124.2139655063613
 21
-152.2486652706241
 31
0.0
  0
LINE
  5
1C6
330
1F
100
AcDbEntity
  8
TEMPLATE
100
AcDbLine
 10
128.3149655063613
 20
-161.0915087691967
 30
0.0
 11
142.3149655063611
 21
-161.0915087691967
 31
0.0
  0
LINE
  5
1C7
330
1F
100
AcDbEntity
  8
TEMPLATE
100
AcDbLine
 10
142.3149655063611
 20
-159.3415087691967
 30
0.0
 11
142.3149655063611
 21
-161.0915087691967
 31
0.0
  0
LINE
  5
1C8
330
1F
100
AcDbEntity
  8
TEMPLATE
100
AcDbLine
 10
142.3149655063611
 20
-159.3415087691967
 30
0.0
 11
128.3149655063613
 21
-159.3415087691967
 31
0.0
  0
LINE
  5
1C9
330
1F
100
AcDbEntity
  8
TEMPLATE
100
AcDbLine
 10
142.1889655063613
 20
-155.8230087691965
 30
0.0
 11
142.1889655063611
 21
-152.7345087691966
 31
0.0
  0
LINE
  5
1CA
330
1F
100
AcDbEntity
  8
TEMPLATE
100
AcDbLine
 10
142.1889655063613
 20
-155.8230087691967
 30
0.0
 11
129.1144655063611
 21
-155.8230087691965
 31
0.0
  0
LINE
  5
1CB
330
1F
100
AcDbEntity
  8
TEMPLATE
100
AcDbLine
 10
129.1144655063613
 20
-152.7345087691966
 30
0.0
 11
142.1889655063611
 21
-152.7345087691966
 31
0.0
  0
LINE
  5
1CC
330
1F
100
AcDbEntity
  8
TEMPLATE
100
AcDbLine
 10
129.1144655063613
 20
-152.7345087691966
 30
0.0
 11
129.1144655063611
 21
-155.8230087691965
 31
0.0
  0
CIRCLE
  5
1CD
330
1F
100
AcDbEntity
  8
TEMPLATE
100
AcDbCircle
 10
143.5659655063612
 20
-171.6015087691966
 30
0.0
 40
0.1875
  0
CIRCLE
  5
1CE
330
1F
100
AcDbEntity
  8
TEMPLATE
100
AcDbCircle
 10
124.8059655063612
 20
-171.6015087691966
 30
0.0
 40
0.1875
  0
CIRCLE
  5
1CF
330
1F
100
AcDbEntity
  8
TEMPLATE
100
AcDbCircle
 10
143.5659655063612
 20
-152.8415087691967
 30
0.0
 40
0.1875
  0
CIRCLE
  5
1D0
330
1F
100
AcDbEntity
  8
TEMPLATE
100
AcDbCircle
 10
124.8059655063612
 20
-152.8415087691967
 30
0.0
 40
0.1875
  0
CIRCLE
  5
1D1
330
1F
100
AcDbEntity
  8
TEMPLATE
100
AcDbCircle
 10
140.6959655063612
 20
-165.3385087691965
 30
0.0
 40
0.625
  0
CIRCLE
  5
1D2
330
1F
100
AcDbEntity
  8
TEMPLATE
100
AcDbCircle
 10
136.0719655063612
 20
-158.4665087691966
 30
0.0
 40
0.625
  0
DIMENSION
  5
1D3
330
1F
100
AcDbEntity
  8
DIM
100
AcDbDimension
  2
*D1
 10
124.2139182364113
 20
-172.1926452902121
 30
0.0
 11
119.1722988396946
 21
-172.1926652706241
 31
0.0
 70
    38
 71
     5
 42
0.0000199804119916
  3
Standard
100
AcDbOrdinateDimension
 13
124.2139655063613
 23
-172.1926652706241
 33
0.0
 14
121.2139655063613
 24
-172.1926652706241
 34
0.0
1001
ACAD
1000
DSTYLE
1002
{
1070
    41
1040
0.9999999999999998
1070
    42
1040
0.375
1070
    44
1040
0.9999999999999998
1070
   140
1040
0.9999999999999998
1070
   141
1040
0.5
1070
   147
1040
0.375
1070
   271
1070
     3
1070
   272
1070
     3
1070
   288
1070
     1
1002
}
  0
DIMENSION
  5
1D4
330
1F
100
AcDbEntity
  8
DIM
100
AcDbDimension
  2
*D2
 10
124.2139182364113
 20
-172.1926452902121
 30
0.0
 11
143.5659655063612
 21
-177.7343319372908
 31
0.0
 70
   102
  1
19.351
 71
     5
 42
19.35204726994992
  3
Standard
100
AcDbOrdinateDimension
 13
143.5659655063612
 23
-171.6085087691967
 33
0.0
 14
143.5659655063612
 24
-175.192665270624
 34
0.0
1001
ACAD
1000
DSTYLE
1002
{
1070
    41
1040
0.9999999999999998
1070
    42
1040
0.375
1070
    44
1040
0.9999999999999998
1070
   140
1040
0.9999999999999998
1070
   141
1040
0.5
1070
   147
1040
0.375
1070
   271
1070
     3
1070
   272
1070
     3
1070
   288
1070
     1
1002
}
  0
DIMENSION
  5
1D5
330
1F
100
AcDbEntity
  8
DIM
100
AcDbDimension
  2
*D3
 10
124.2139182364113
 20
-172.1926452902121
 30
0.0
 11
118.505632173028
 21
-152.2486652706241
 31
0.0
 70
    38
 71
     5
 42
19.94398001958808
  3
Standard
100
AcDbOrdinateDimension
 13
124.2139655063613
 23
-152.2486652706241
 33
0.0
 14
121.2139655063613
 24
-152.2486652706241
 34
0.0
1001
ACAD
1000
DSTYLE
1002
{
1070
    41
1040
0.9999999999999998
1070
    42
1040
0.375
1070
    44
1040
0.9999999999999998
1070
   140
1040
0.9999999999999998
1070
   141
1040
0.5
1070
   147
1040
0.375
1070
   271
1070
     3
1070
   272
1070
     3
1070
   288
1070
     1
1002
}
  0
DIMENSION
  5
1D6
330
1F
100
AcDbEntity
  8
DIM
100
AcDbDimension
  2
*D4
 10
124.2139182364113
 20
-172.1926452902121
 30
0.0
 11
149.2829655063611
 21
-171.6015087691966
 31
0.0
 70
    38
 71
     5
 42
0.5911365210154145
  3
Standard
100
AcDbOrdinateDimension
 13
143.5659655063612
 23
-171.6015087691966
 33
0.0
 14
147.1579655063611
 24
-171.6015087691966
 34
0.0
1001
ACAD
1000
DSTYLE
1002
{
1070
    41
1040
0.9999999999999998
1070
    42
1040
0.375
1070
    44
1040
0.9999999999999998
1070
   140
1040
0.9999999999999998
1070
   141
1040
0.5
1070
   147
1040
0.375
1070
   271
1070
     3
1070
   272
1070
     3
1070
   288
1070
     1
1002
}
  0
DIMENSION
  5
1D7
330
1F
100
AcDbEntity
  8
DIM
100
AcDbDimension
  2
*D5
 10
124.2139182364113
 20
-172.1926452902121
 30
0.0
 11
149.5329655063611
 21
-165.3385087691965
 31
0.0
 70
    38
 71
     5
 42
6.854136521015503
  3
Standard
100
AcDbOrdinateDimension
 13
140.6959655063612
 23
-165.3385087691965
 33
0.0
 14
147.1579655063611
 24
-165.3385087691965
 34
0.0
1001
ACAD
1000
DSTYLE
1002
{
1070
    41
1040
0.9999999999999998
1070
    42
1040
0.375
1070
    44
1040
0.9999999999999998
1070
   140
1040
0.9999999999999998
1070
   141
1040
0.5
1070
   147
1040
0.375
1070
   271
1070
     3
1070
   272
1070
     3
1070
   288
1070
     1
1002
}
  0
DIMENSION
  5
1D8
330
1F
100
AcDbEntity
  8
DIM
100
AcDbDimension
  2
*D6
 10
124.2139182364113
 20
-172.1926452902121
 30
0.0
 11
118.505632173028
 21
-157.9665087691967
 31
0.0
 70
    38
 71
     5
 42
13.72613652101549
  3
Standard
100
AcDbOrdinateDimension
 13
136.0719655063612
 23
-158.4665087691966
 33
0.0
 14
121.2139655063613
 24
-157.9665087691967
 34
0.0
1001
ACAD
1000
DSTYLE
1002
{
1070
    41
1040
0.9999999999999998
1070
    42
1040
0.375
1070
    44
1040
0.9999999999999998
1070
   140
1040
0.9999999999999998
1070
   141
1040
0.5
1070
   147
1040
0.375
1070
   271
1070
     3
1070
   272
1070
     3
1070
   288
1070
     1
1002
}
  0
DIMENSION
  5
1D9
330
1F
100
AcDbEntity
  8
DIM
100
AcDbDimension
  2
*D7
 10
124.2139182364113
 20
-172.1926452902121
 30
0.0
 11
149.6996321730279
 21
-152.8415087691967
 31
0.0
 70
    38
 71
     5
 42
19.35113652101543
  3
Standard
100
AcDbOrdinateDimension
 13
143.5659655063612
 23
-152.8415087691967
 33
0.0
 14
147.1579655063611
 24
-152.8415087691967
 34
0.0
1001
ACAD
1000
DSTYLE
1002
{
1070
    41
1040
0.9999999999999998
1070
    42
1040
0.375
1070
    44
1040
0.9999999999999998
1070
   140
1040
0.9999999999999998
1070
   141
1040
0.5
1070
   147
1040
0.375
1070
   271
1070
     3
1070
   272
1070
     3
1070
   288
1070
     1
1002
}
  0
DIMENSION
  5
1DA
330
1F
100
AcDbEntity
  8
DIM
100
AcDbDimension
  2
*D8
 10
124.2139182364113
 20
-172.1926452902121
 30
0.0
 11
124.2139655063613
 21
-177.2343319372908
 31
0.0
 70
   102
 71
     5
 42
0.0000472699500165
  3
Standard
100
AcDbOrdinateDimension
 13
124.2139655063613
 23
-172.1926652706241
 33
0.0
 14
124.2139655063613
 24
-175.192665270624
 34
0.0
1001
ACAD
1000
DSTYLE
1002
{
1070
    41
1040
0.9999999999999998
1070
    42
1040
0.375
1070
    44
1040
0.9999999999999998
1070
   140
1040
0.9999999999999998
1070
   141
1040
0.5
1070
   147
1040
0.375
1070
   271
1070
     3
1070
   272
1070
     3
1070
   288
1070
     1
1002
}
  0
DIMENSION
  5
1DB
330
1F
100
AcDbEntity
  8
DIM
100
AcDbDimension
  2
*D9
 10
124.2139182364113
 20
-172.1926452902121
 30
0.0
 11
136.0719655063612
 21
-146.7069986039574
 31
0.0
 70
   102
 71
     5
 42
11.85804726994989
  3
Standard
100
AcDbOrdinateDimension
 13
136.0719655063612
 23
-158.4665087691966
 33
0.0
 14
136.0719655063612
 24
-149.2486652706241
 34
0.0
1001
ACAD
1000
DSTYLE
1002
{
1070
    41
1040
0.9999999999999998
1070
    42
1040
0.375
1070
    44
1040
0.9999999999999998
1070
   140
1040
0.9999999999999998
1070
   141
1040
0.5
1070
   147
1040
0.375
1070
   271
1070
     3
1070
   272
1070
     3
1070
   288
1070
     1
1002
}
  0
DIMENSION
  5
1DC
330
1F
100
AcDbEntity
  8
DIM
100
AcDbDimension
  2
*D10
 10
124.2139182364113
 20
-172.1926452902121
 30
0.0
 11
145.0629655063611
 21
-146.5403319372907
 31
0.0
 70
   102
 71
     5
 42
19.9440472699499
  3
Standard
100
AcDbOrdinateDimension
 13
144.1579655063612
 23
-152.2486652706241
 33
0.0
 14
145.0629655063611
 24
-149.2486652706241
 34
0.0
1001
ACAD
1000
DSTYLE
1002
{
1070
    41
1040
0.9999999999999998
1070
    42
1040
0.375
1070
    44
1040
0.9999999999999998
1070
   140
1040
0.9999999999999998
1070
   141
1040
0.5
1070
   147
1040
0.375
1070
   271
1070
     3
1070
   272
1070
     3
1070
   288
1070
     1
1002
}
  0
DIMENSION
  5
1DD
330
1F
100
AcDbEntity
  8
DIM
100
AcDbDimension
  2
*D11
 10
124.2139182364113
 20
-172.1926452902121
 30
0.0
 11
140.6959655063612
 21
-177.7343319372908
 31
0.0
 70
   102
  1
16.481
 71
     5
 42
16.48204726994991
  3
Standard
100
AcDbOrdinateDimension
 13
140.6959655063612
 23
-165.3385087691965
 33
0.0
 14
140.6959655063612
 24
-175.192665270624
 34
0.0
1001
ACAD
1000
DSTYLE
1002
{
1070
    41
1040
0.9999999999999998
1070
    42
1040
0.375
1070
    44
1040
0.9999999999999998
1070
   140
1040
0.9999999999999998
1070
   141
1040
0.5
1070
   147
1040
0.375
1070
   271
1070
     3
1070
   272
1070
     3
1070
   288
1070
     1
1002
}
  0
MTEXT
  5
1DE
330
1F
100
AcDbEntity
  8
DIM
100
AcDbMText
 10
148.5773259021732
 20
-156.4665087691967
 30
0.0
 40
0.9999999999999998
 41
0.0
 71
     1
 72
     1
  1
%%C1.250 (1) \POPTIONAL: BOTTOM DRAIN
 73
     1
 44
1.0
1001
ACAD
1000
MTEXTBEGIN
1070
    73
1070
     1
1070
    44
1040
1.0
1070
    74
1070
     0
1000
MTEXTEND
  0
MTEXT
  5
1DF
330
1F
100
AcDbEntity
  8
DIM
100
AcDbMText
 10
114.7471472953815
 20
-170.2483609872433
 30
0.0
 40
0.9999999999999998
 41
0.0
 71
     9
 72
     1
  1
%%C1.250 (1)\P POWER CORD
 73
     1
 44
1.0
1001
ACAD
1000
MTEXTBEGIN
1070
    73
1070
     1
1070
    44
1040
1.0
1070
    74
1070
     0
1000
MTEXTEND
  0
MTEXT
  5
1E0
330
1F
100
AcDbEntity
  8
DIM
100
AcDbMText
 10
154.5523309015326
 20
-168.8962608500453
 30
0.0
 40
0.9999999999999998
 41
0.0
 71
     1
 72
     1
  1
%%C1.250 (1)\POPTIONAL: EXTERNAL\PHEAT OUTPUT
 73
     1
 44
1.0
1001
ACAD
1000
MTEXTBEGIN
1070
    73
1070
     1
1070
    44
1040
1.0
1070
    74
1070
     0
1000
MTEXTEND
  0
TEXT
  5
1E1
330
1F
100
AcDbEntity
  8
DIM
100
AcDbText
 10
125.5895776495521
 20
-139.9693187055145
 30
0.0
 40
0.9999999999999998
  1
CUTOUT DRAWING
 72
     1
 11
132.4229109828855
 21
-139.9693187055145
 31
0.0
100
AcDbText
  0
TEXT
  5
1E2
330
1F
100
AcDbEntity
  8
DIM
100
AcDbText
 10
126.4164615497275
 20
-137.9809926064168
 30
0.0
 40
0.9999999999999998
  1
IQ3-4-5-6000T
100
AcDbText
  0
SOLID
  5
1E3
330
1F
100
AcDbEntity
  8
DIM
100
AcDbTrace
 10
139.0686300749475
 20
-164.5935680947791
 30
0.0
 11
139.898204032031
 21
-164.0108290215168
 31
0.0
 12
139.3024683666587
 22
-164.8311196985216
 32
0.0
 13
139.3024683666587
 23
-164.8311196985216
 33
0.0
1001
ACAD
1000
DSTYLE
1002
{
1070
    77
1070
     0
1070
    41
1040
0.9999999999999998
1070
    42
1040
0.375
1070
    44
1040
0.9999999999999998
1070
   140
1040
0.9999999999999998
1070
   141
1040
0.5
1070
   147
1040
0.375
1070
   271
1070
     3
1070
   272
1070
     3
1070
   288
1070
     1
1002
}
  0
LINE
  5
1E4
330
1F
100
AcDbEntity
  8
DIM
100
AcDbLine
 10
139.1855492208032
 20
-164.7123438966503
 30
0.0
 11
136.6184707522339
 21
-167.2392948172972
 31
0.0
1001
ACAD
1000
DSTYLE
1002
{
1070
    77
1070
     0
1070
    41
1040
0.9999999999999998
1070
    42
1040
0.375
1070
    44
1040
0.9999999999999998
1070
   140
1040
0.9999999999999998
1070
   141
1040
0.5
1070
   147
1040
0.375
1070
   271
1070
     3
1070
   272
1070
     3
1070
   288
1070
     1
1002
}
  0
LINE
  5
1E5
330
1F
100
AcDbEntity
  8
DIM
100
AcDbLine
 10
136.6184707522339
 20
-167.2392948172972
 30
0.0
 11
114.7471472953815
 21
-167.2392948172972
 31
0.0
1001
ACAD
1000
DSTYLE
1002
{
1070
    77
1070
     0
1070
    41
1040
0.9999999999999998
1070
    42
1040
0.375
1070
    44
1040
0.9999999999999998
1070
   140
1040
0.9999999999999998
1070
   141
1040
0.5
1070
   147
1040
0.375
1070
   271
1070
     3
1070
   272
1070
     3
1070
   288
1070
     1
1002
}
  0
CIRCLE
  5
1E6
102
{ACAD_REACTORS
330
1F2
102
}
330
1F
100
AcDbEntity
  8
TEMPLATE
100
AcDbCircle
 10
140.6959655063612
 20
-163.3385087691966
 30
0.0
 40
0.625
  0
SOLID
  5
1E7
330
1F
100
AcDbEntity
  8
DIM
100
AcDbTrace
 10
142.4457464433057
 20
-167.1386241709545
 30
0.0
 11
141.7918580201704
 21
-166.3638934384626
 31
0.0
 12
142.6616651444849
 22
-166.8846749130461
 32
0.0
 13
142.6616651444849
 23
-166.8846749130461
 33
0.0
1001
ACAD
1000
DSTYLE
1002
{
1070
    77
1070
     0
1070
    41
1040
0.9999999999999998
1070
    42
1040
0.375
1070
    44
1040
0.9999999999999998
1070
   140
1040
0.9999999999999998
1070
   141
1040
0.5
1070
   147
1040
0.375
1070
   271
1070
     3
1070
   272
1070
     3
1070
   288
1070
     1
1002
}
  0
LINE
  5
1E8
330
1F
100
AcDbEntity
  8
DIM
100
AcDbLine
 10
142.5537057938953
 20
-167.0116495420001
 30
0.0
 11
145.3583274814592
 21
-169.3962608500455
 31
0.0
1001
ACAD
1000
DSTYLE
1002
{
1070
    77
1070
     0
1070
    41
1040
0.9999999999999998
1070
    42
1040
0.375
1070
    44
1040
0.9999999999999998
1070
   140
1040
0.9999999999999998
1070
   141
1040
0.5
1070
   147
1040
0.375
1070
   271
1070
     3
1070
   272
1070
     3
1070
   288
1070
     1
1002
}
  0
LINE
  5
1E9
330
1F
100
AcDbEntity
  8
DIM
100
AcDbLine
 10
145.3583274814592
 20
-169.3962608500455
 30
0.0
 11
154.1773309015327
 21
-169.3962608500455
 31
0.0
1001
ACAD
1000
DSTYLE
1002
{
1070
    77
1070
     0
1070
    41
1040
0.9999999999999998
1070
    42
1040
0.375
1070
    44
1040
0.9999999999999998
1070
   140
1040
0.9999999999999998
1070
   141
1040
0.5
1070
   147
1040
0.375
1070
   271
1070
     3
1070
   272
1070
     3
1070
   288
1070
     1
1002
}
  0
LINE
  5
1EA
330
1F
100
AcDbEntity
  8
DIM
100
AcDbLine
 10
121.3933954356883
 20
-147.5206743556045
 30
0.0
 11
122.3933954356882
 21
-147.5206743556045
 31
0.0
  0
LINE
  5
1EB
330
1F
100
AcDbEntity
  8
DIM
100
AcDbLine
 10
122.3933954356882
 20
-147.5206743556045
 30
0.0
 11
123.9616375350966
 21
-151.0088207904215
 31
0.0
  0
MTEXT
  5
1EC
330
1F
100
AcDbEntity
  8
DIM
100
AcDbMText
 10
116.9350621023548
 20
-147.5206743556045
 30
0.0
 40
0.9999999999999998
 41
0.0
 71
     5
 72
     1
  1
\A1;\U+22050.375 (4)
 73
     1
 44
1.0
1001
ACAD
1000
MTEXTBEGIN
1070
    73
1070
     1
1070
    44
1040
1.0
1070
    74
1070
     0
1000
MTEXTEND
  0
SOLID
  5
1ED
330
1F
100
AcDbEntity
  8
DIM
100
AcDbTrace
 10
124.1136476633792
 20
-150.9404782803911
 30
0.0
 11
123.8096274068139
 21
-151.0771633004521
 31
0.0
 12
124.3716925952796
 22
-151.9208815601175
 32
0.0
 13
124.3716925952796
 23
-151.9208815601175
 33
0.0
  0
SOLID
  5
1EE
330
1F
100
AcDbEntity
  8
DIM
100
AcDbTrace
 10
137.9311656426619
 20
-157.8149830954993
 30
0.0
 11
136.9183719615737
 21
-157.8600023949787
 31
0.0
 12
137.8618191843936
 22
-157.4889429448479
 32
0.0
 13
137.8618191843936
 23
-157.4889429448479
 33
0.0
1001
ACAD
1000
DSTYLE
1002
{
1070
    77
1070
     0
1070
    41
1040
0.9999999999999998
1070
    42
1040
0.375
1070
    44
1040
0.9999999999999998
1070
   140
1040
0.9999999999999998
1070
   141
1040
0.5
1070
   147
1040
0.375
1070
   271
1070
     3
1070
   272
1070
     3
1070
   288
1070
     1
1002
}
  0
LWPOLYLINE
  5
1EF
330
1F
100
AcDbEntity
  8
DIM
100
AcDbPolyline
 90
        3
 70
     0
 43
0.0
 10
137.8964924135278
 20
-157.6519630201737
 10
141.119232447176
 20
-156.9665087691967
 10
147.3166081131904
 20
-156.9665087691967
1001
ACAD
1000
DSTYLE
1002
{
1070
    77
1070
     0
1070
    41
1040
0.9999999999999998
1070
    42
1040
0.375
1070
    44
1040
0.9999999999999998
1070
   140
1040
0.9999999999999998
1070
   141
1040
0.5
1070
   147
1040
0.375
1070
   271
1070
     3
1070
   272
1070
     3
1070
   288
1070
     1
1002
}
  0
DIMENSION
  5
1F0
102
{ACAD_XDICTIONARY
360
1F1
102
}
102
{ACAD_REACTORS
330
1F2
102
}
330
1F
100
AcDbEntity
  8
DIM
100
AcDbDimension
  2
*D22
 10
124.2139655063613
 20
-172.1926652706241
 30
0.0
 11
150.1439051424727
 21
-163.3385087691966
 31
0.0
 70
    38
 71
     5
 42
8.854156501427496
  3
Standard
100
AcDbOrdinateDimension
 13
140.6959655063612
 23
-163.3385087691966
 33
0.0
 14
147.7689051424726
 24
-163.3385087691966
 34
0.0
1001
ACAD
1000
DSTYLE
1002
{
1070
    41
1040
0.9999999999999998
1070
    42
1040
0.375
1070
    44
1040
0.9999999999999998
1070
   140
1040
0.9999999999999998
1070
   141
1040
0.5
1070
   147
1040
0.375
1002
}
  0
DIMENSION
  5
1F3
330
1F
100
AcDbEntity
  8
DIM
100
AcDbDimension
  2
*D12
 10
124.2139655063613
 20
-172.1926652706241
 30
0.0
 11
150.6187238616181
 21
-161.1264901006683
 31
0.0
 70
    38
 71
     5
 42
10.04115650142748
  3
Standard
100
AcDbOrdinateDimension
 13
141.0009655063613
 23
-162.1515087691967
 33
0.0
 14
148.2437238616181
 24
-161.1264901006683
 34
0.0
1001
ACAD
1000
DSTYLE
1002
{
1070
    41
1040
0.9999999999999998
1070
    42
1040
0.375
1070
    44
1040
0.9999999999999998
1070
   140
1040
0.9999999999999998
1070
   141
1040
0.5
1070
   147
1040
0.375
1002
}
  0
DIMENSION
  5
1F8
330
1F
100
AcDbEntity
  8
DIM
100
AcDbDimension
  2
*D13
 10
124.2139655063613
 20
-172.1926652706241
 30
0.0
 11
139.0576811241873
 21
-146.5968217809171
 31
0.0
 70
   102
 71
     5
 42
16.78699999999996
  3
Standard
100
AcDbOrdinateDimension
 13
141.0009655063613
 23
-162.1515087691967
 33
0.0
 14
139.0576811241872
 24
-149.3051551142505
 34
0.0
1001
ACAD
1000
DSTYLE
1002
{
1070
    41
1040
0.9999999999999998
1070
    42
1040
0.375
1070
    44
1040
0.9999999999999998
1070
   140
1040
0.9999999999999998
1070
   141
1040
0.5
1070
   147
1040
0.375
1002
}
  0
CIRCLE
  5
1F9
102
{ACAD_REACTORS
330
6E0
102
}
330
1F
100
AcDbEntity
  8
0
100
AcDbCircle
 10
141.0009655063613
 20
-162.1515087691967
 30
0.0
 40
0.5
  0
DIMENSION
  5
1FA
330
1F
100
AcDbEntity
  8
0
100
AcDbDimension
  2
*D14
 10
124.2139655063613
 20
-172.1926652706241
 30
0.0
 11
128.3149655063613
 21
-177.6441130889035
 31
0.0
 70
   102
 71
     5
 42
4.100999999999983
  3
Standard
100
AcDbOrdinateDimension
 13
128.3149655063613
 23
-160.9665087691967
 33
0.0
 14
128.3149655063613
 24
-175.9707797555701
 34
0.0
  0
DIMENSION
  5
1FB
330
1F
100
AcDbEntity
  8
0
100
AcDbDimension
  2
*D15
 10
124.2139655063613
 20
-172.1926652706241
 30
0.0
 11
142.3149655063611
 21
-178.0368146291127
 31
0.0
 70
   102
 71
     5
 42
18.10099999999987
  3
Standard
100
AcDbOrdinateDimension
 13
142.3149655063611
 23
-160.9665087691967
 33
0.0
 14
142.3149655063611
 24
-176.0301479624461
 34
0.0
  0
DIMENSION
  5
1FC
330
1F
100
AcDbEntity
  8
0
100
AcDbDimension
  2
*D16
 10
124.2139655063613
 20
-172.1926652706241
 30
0.0
 11
118.6175826910022
 21
-159.3415087691967
 31
0.0
 70
    38
 71
     5
 42
12.85115650142742
  3
Standard
100
AcDbOrdinateDimension
 13
128.3149655063613
 23
-159.3415087691967
 33
0.0
 14
120.8742493576689
 24
-159.3415087691967
 34
0.0
  0
DIMENSION
  5
1FD
330
1F
100
AcDbEntity
  8
0
100
AcDbDimension
  2
*D17
 10
124.2139655063613
 20
-172.1926652706241
 30
0.0
 11
118.5407566976824
 21
-161.0915087691967
 31
0.0
 70
    38
 71
     5
 42
11.10115650142742
  3
Standard
100
AcDbOrdinateDimension
 13
128.3149655063613
 23
-161.0915087691967
 33
0.0
 14
120.3807566976824
 24
-161.0915087691967
 34
0.0
  0
DIMENSION
  5
1FE
330
1F
100
AcDbEntity
  8
0
100
AcDbDimension
  2
*D18
 10
124.2139655063613
 20
-172.1926652706241
 30
0.0
 11
125.8904391912487
 21
-177.3496257166892
 31
0.0
 70
   102
  1
0.591
 71
     5
 42
0.5919999999998709
  3
Standard
100
AcDbOrdinateDimension
 13
124.8059655063612
 23
-171.6015087691966
 33
0.0
 14
125.8904391912487
 24
-175.5096257166892
 34
0.0
  0
DIMENSION
  5
1FF
330
1F
100
AcDbEntity
  8
0
100
AcDbDimension
  2
*D19
 10
124.2139655063613
 20
-172.1926652706241
 30
0.0
 11
118.7122940684267
 21
-155.8230087691965
 31
0.0
 70
    38
 71
     5
 42
16.36965650142755
  3
Standard
100
AcDbOrdinateDimension
 13
129.2414655063611
 23
-155.8230087691965
 33
0.0
 14
121.0522940684267
 24
-155.8230087691965
 34
0.0
  0
LINE
  5
200
330
1F
100
AcDbEntity
  8
0
100
AcDbLine
 10
123.1097570196579
 20
-154.1753744797747
 30
0.0
 11
126.9881112630096
 21
-152.7345087691966
 31
0.0
  0
LINE
  5
201
330
1F
100
AcDbEntity
  8
0
100
AcDbLine
 10
128.8664655063613
 20
-152.7345087691966
 30
0.0
 11
126.9881112630096
 21
-152.7345087691966
 31
0.0
  0
LINE
  5
202
330
1F
100
AcDbEntity
  8
0
100
AcDbLine
 10
123.1097570196579
 20
-154.1753744797747
 30
0.0
 11
121.1097570196579
 21
-154.1753744797747
 31
0.0
  0
MTEXT
  5
203
330
1F
100
AcDbEntity
  8
0
100
AcDbMText
 10
118.4014236863246
 20
-154.1753744797747
 30
0.0
 40
1.0
 41
0.0
 71
     5
 72
     1
  1
\A1;19.458
 73
     1
 44
1.0
1001
ACAD
1000
MTEXTBEGIN
1070
    73
1070
     1
1070
    44
1040
1.0
1070
    74
1070
     0
1000
MTEXTEND
  0
DIMENSION
  5
204
330
1F
100
AcDbEntity
  8
0
100
AcDbDimension
  2
*D20
 10
124.2139655063613
 20
-172.1926652706241
 30
0.0
 11
129.1144655063613
 21
-147.412174445113
 31
0.0
 70
   102
 71
     5
 42
4.900500000000008
  3
Standard
100
AcDbOrdinateDimension
 13
129.1144655063613
 23
-152.7345087691966
 33
0.0
 14
129.1144655063613
 24
-149.252174445113
 34
0.0
  0
DIMENSION
  5
205
330
1F
100
AcDbEntity
  8
0
100
AcDbDimension
  2
*D21
 10
124.2139655063613
 20
-172.1926652706241
 30
0.0
 11
142.1889655063611
 21
-147.2601053981243
 31
0.0
 70
   102
 71
     5
 42
17.97499999999984
  3
Standard
100
AcDbOrdinateDimension
 13
142.1889655063611
 23
-152.7345087691966
 33
0.0
 14
142.1889655063611
 24
-149.6834387314576
 34
0.0
  0
LINE
  5
50C
330
1F
100
AcDbEntity
  8
0
100
AcDbLine
 10
172.9052465730704
 20
-191.5831652706241
 30
0.0
 11
95.46668443965208
 21
-191.5831652706241
 31
0.0
  0
LINE
  5
50D
330
1F
100
AcDbEntity
  8
0
100
AcDbLine
 10
172.9052465730704
 20
-132.8581652706241
 30
0.0
 11
172.9052465730704
 21
-191.5831652706241
 31
0.0
  0
LINE
  5
50E
330
1F
100
AcDbEntity
  8
0
100
AcDbLine
 10
95.46668443965208
 20
-132.8581652706241
 30
0.0
 11
95.46668443965208
 21
-191.5831652706241
 31
0.0
  0
TEXT
  5
510
330
1F
100
AcDbEntity
  8
TEXT
100
AcDbText
 10
95.95105943965208
 20
-190.458165270624
 30
0.0
 40
0.25
  1
0
 72
     1
 11
96.01355943965209
 21
-190.333165270624
 31
0.0
100
AcDbText
 73
     2
  0
TEXT
  5
511
330
1F
100
AcDbEntity
  8
TEXT
100
AcDbText
 10
95.63855943965208
 20
-190.9581652706242
 30
0.0
 40
0.25
  1
REV
 72
     1
 11
96.01355943965209
 21
-190.8331652706242
 31
0.0
100
AcDbText
 73
     2
  0
TEXT
  5
512
330
1F
100
AcDbEntity
  8
TEXT
100
AcDbText
 10
95.63855943965208
 20
-190.9581652706242
 30
0.0
 40
0.25
  1
REV
 72
     1
 11
96.01355943965209
 21
-190.8331652706242
 31
0.0
100
AcDbText
 73
     2
  0
TEXT
  5
513
330
1F
100
AcDbEntity
  8
TEXT
100
AcDbText
 10
95.63855943965208
 20
-190.9581652706242
 30
0.0
 40
0.25
  1
REV
 72
     1
 11
96.01355943965209
 21
-190.8331652706242
 31
0.0
100
AcDbText
 73
     2
  0
LINE
  5
514
330
1F
100
AcDbEntity
  8
BORDER
100
AcDbLine
 10
111.7121876855767
 20
-188.0831652706236
 30
0.0
 11
111.7121876855767
 21
-191.5831652706241
 31
0.0
  0
TEXT
  5
516
330
1F
100
AcDbEntity
  8
TEXT
100
AcDbText
 10
110.131102729281
 20
-190.458165270624
 30
0.0
 40
0.25
  1
JJH
 72
     1
 11
110.4644360626144
 21
-190.333165270624
 31
0.0
100
AcDbText
 73
     2
  0
TEXT
  5
517
330
1F
100
AcDbEntity
  8
TEXT
100
AcDbText
 10
109.631102729281
 20
-190.9581652706242
 30
0.0
 40
0.25
  1
CHECKED
 72
     1
 11
110.4644360626144
 21
-190.8331652706242
 31
0.0
100
AcDbText
 73
     2
  0
LINE
  5
518
330
1F
100
AcDbEntity
  8
BORDER
100
AcDbLine
 10
109.2166844396521
 20
-191.0831652706242
 30
0.0
 11
109.2166844396521
 21
-190.5831652706241
 31
0.0
  0
LINE
  5
519
330
1F
100
AcDbEntity
  8
BORDER
100
AcDbLine
 10
109.2166844396521
 20
-190.5831652706241
 30
0.0
 11
109.2166844396521
 21
-188.0831652706236
 31
0.0
  0
LINE
  5
51C
330
1F
100
AcDbEntity
  8
BORDER
100
AcDbLine
 10
107.016684439652
 20
-190.5831652706241
 30
0.0
 11
107.016684439652
 21
-188.0831652706236
 31
0.0
  0
LINE
  5
51D
330
1F
100
AcDbEntity
  8
BORDER
100
AcDbLine
 10
107.016684439652
 20
-191.0831652706242
 30
0.0
 11
107.016684439652
 21
-190.5831652706241
 31
0.0
  0
LINE
  5
51E
330
1F
100
AcDbEntity
  8
BORDER
100
AcDbLine
 10
95.46668443965208
 20
-191.0831652706242
 30
0.0
 11
111.7121876855767
 21
-191.0831652706242
 31
0.0
  0
TEXT
  5
51F
330
1F
100
AcDbEntity
  8
TEXT
100
AcDbText
 10
107.6583511063188
 20
-190.9581652706242
 30
0.0
 40
0.25
  1
DATE
 72
     1
 11
108.1166844396521
 21
-190.8331652706242
 31
0.0
100
AcDbText
 73
     2
  0
TEXT
  5
520
330
1F
100
AcDbEntity
  8
TEXT
100
AcDbText
 10
107.3250177729854
 20
-190.458165270624
 30
0.0
 40
0.25
  1
3-20-03
 72
     1
 11
108.1166844396521
 21
-190.333165270624
 31
0.0
100
AcDbText
 73
     2
  0
TEXT
  5
522
330
1F
100
AcDbEntity
  8
TEXT
100
AcDbText
 10
100.0802261063187
 20
-190.458165270624
 30
0.0
 40
0.25
  1
INITIAL RELEASE
 72
     1
 11
101.7885594396521
 21
-190.333165270624
 31
0.0
100
AcDbText
 73
     2
  0
LINE
  5
525
330
1F
100
AcDbEntity
  8
BORDER
100
AcDbLine
 10
111.7121876855767
 20
-190.083165270624
 30
0.0
 11
95.46668443965208
 21
-190.083165270624
 31
0.0
  0
LINE
  5
526
330
1F
100
AcDbEntity
  8
BORDER
100
AcDbLine
 10
111.7121876855767
 20
-190.5831652706241
 30
0.0
 11
95.46668443965208
 21
-190.5831652706241
 31
0.0
  0
LINE
  5
528
330
1F
100
AcDbEntity
  8
BORDER
100
AcDbLine
 10
96.56043443965209
 20
-190.5831652706241
 30
0.0
 11
96.56043443965209
 21
-188.0831652706236
 31
0.0
  0
LINE
  5
529
330
1F
100
AcDbEntity
  8
BORDER
100
AcDbLine
 10
96.56043443965209
 20
-191.0831652706242
 30
0.0
 11
96.56043443965209
 21
-190.5831652706241
 31
0.0
  0
TEXT
  5
52A
330
1F
100
AcDbEntity
  8
TEXT
100
AcDbText
 10
95.63855943965208
 20
-190.9581652706242
 30
0.0
 40
0.25
  1
REV
 72
     1
 11
96.01355943965209
 21
-190.8331652706242
 31
0.0
100
AcDbText
 73
     2
  0
TEXT
  5
52B
330
1F
100
AcDbEntity
  8
TEXT
100
AcDbText
 10
100.5385594396521
 20
-190.9581652706242
 30
0.0
 40
0.25
  1
DESCRIPTION
 72
     1
 11
101.7885594396521
 21
-190.8331652706242
 31
0.0
100
AcDbText
 73
     2
  0
TEXT
  5
52C
330
1F
100
AcDbEntity
  8
TEXT
100
AcDbText
 10
100.7468927729854
 20
-191.4581652706242
 30
0.0
 40
0.25
  1
REVISIONS
 72
     1
 11
101.7885594396521
 21
-191.3331652706242
 31
0.0
100
AcDbText
 73
     2
  0
TEXT
  5
52D
330
1F
100
AcDbEntity
  8
TEXT
100
AcDbText
 10
167.9877233326223
 20
-188.6604655722705
 30
0.0
 40
0.15625
  1
724-837-2204  *  1-888-867-8234
 72
     1
 11
170.3444941659557
 21
-188.5823405722705
 31
0.0
100
AcDbText
 73
     2
  0
LINE
  5
52E
330
1F
100
AcDbEntity
  8
DIMENSION
100
AcDbLine
 10
160.4399917588408
 20
-189.6526530722704
 30
0.0
 11
160.4399917588408
 21
-191.5837902706241
 31
0.0
  0
LINE
  5
52F
330
1F
100
AcDbEntity
  8
BORDER
100
AcDbLine
 10
160.4399917588408
 20
-191.5837902706241
 30
0.0
 11
160.4399917588408
 21
-189.8650402706241
 31
0.0
  0
LINE
  5
530
330
1F
100
AcDbEntity
  8
THERMOSTATCVR
100
AcDbLine
 10
154.1523664559355
 20
-189.6526530722704
 30
0.0
 11
154.1523664559355
 21
-191.5837902706241
 31
0.0
  0
LINE
  5
531
330
1F
100
AcDbEntity
  8
BORDER
100
AcDbLine
 10
171.191744454274
 20
-190.2776530722705
 30
0.0
 11
171.191744454274
 21
-191.5837902706241
 31
0.0
  0
LINE
  5
532
330
1F
100
AcDbEntity
  8
BORDER
100
AcDbLine
 10
164.8149917588409
 20
-190.2776530722705
 30
0.0
 11
172.9052465730704
 21
-190.2776530722705
 31
0.0
  0
LINE
  5
533
330
1F
100
AcDbEntity
  8
BORDER
100
AcDbLine
 10
164.8149917588409
 20
-191.5837902706242
 30
0.0
 11
164.8149917588409
 21
-187.4651530722704
 31
0.0
  0
LINE
  5
534
330
1F
100
AcDbEntity
  8
BORDER
100
AcDbLine
 10
164.8149917588409
 20
-187.4651530722704
 30
0.0
 11
172.9052465730704
 21
-187.4651530722704
 31
0.0
  0
LINE
  5
535
330
1F
100
AcDbEntity
  8
BORDER
100
AcDbLine
 10
164.8149917588409
 20
-189.0276530722704
 30
0.0
 11
172.9052465730704
 21
-189.0276530722704
 31
0.0
  0
TEXT
  5
536
330
1F
100
AcDbEntity
  8
TEXT
100
AcDbText
 10
171.8401621803389
 20
-191.2429091714473
 30
0.0
 40
0.625
  1
3
 72
     1
 11
172.0484955136723
 21
-190.9304091714473
 31
0.0
100
AcDbText
 73
     2
  0
TEXT
  5
537
330
1F
100
AcDbEntity
  8
TEXT
100
AcDbText
 10
165.7637847732241
 20
-191.2429091714473
 30
0.0
 40
0.625
  1
IQ290927
 72
     1
 11
168.0033681065574
 21
-190.9304091714473
 31
0.0
100
AcDbText
 73
     2
  0
TEXT
  5
538
330
1F
100
AcDbEntity
  8
TEXT
100
AcDbText
 10
165.162202499289
 20
-189.9651530722704
 30
0.0
 40
0.625
  1
IQ3-4-5-6000T
 72
     1
 11
168.8601191659557
 21
-189.6526530722704
 31
0.0
100
AcDbText
 73
     2
  0
TEXT
  5
539
330
1F
100
AcDbEntity
  8
TEXT
100
AcDbText
 10
168.834077499289
 20
-188.3479655722705
 30
0.0
 40
0.15625
  1
GREENSBURG, PA  15601
 72
     1
 11
170.3444941659557
 21
-188.2698405722705
 31
0.0
100
AcDbText
 73
     2
  0
TEXT
  5
53A
330
1F
100
AcDbEntity
  8
TEXT
100
AcDbText
 10
169.068452499289
 20
-188.0354655722705
 30
0.0
 40
0.15625
  1
141 WILSON AVENUE
 72
     1
 11
170.3444941659557
 21
-187.9573405722705
 31
0.0
100
AcDbText
 73
     2
  0
TEXT
  5
53B
330
1F
100
AcDbEntity
  8
TEXT
100
AcDbText
 10
168.287202499289
 20
-187.7385905722704
 30
0.0
 40
0.15625
  1
INDUSTRIAL COOLING EQUIPMENT
 72
     1
 11
170.3444941659557
 21
-187.6604655722704
 31
0.0
100
AcDbText
 73
     2
  0
TEXT
  5
53C
330
1F
100
AcDbEntity
  8
TEXT
100
AcDbText
 10
169.0424108326223
 20
-188.9729655722705
 30
0.0
 40
0.15625
  1
FAX  724-837-3386
 72
     1
 11
170.3444941659557
 21
-188.8948405722705
 31
0.0
100
AcDbText
 73
     2
  0
TEXT
  5
53D
330
1F
100
AcDbEntity
  8
TEXT
100
AcDbText
 10
160.924793330463
 20
-191.396972626299
 30
0.0
 40
0.3125
  1
SHEET 1 OF 1
 72
     1
 11
162.643543330463
 21
-191.240722626299
 31
0.0
100
AcDbText
 73
     2
  0
LINE
  5
53E
330
1F
100
AcDbEntity
  8
BORDER
100
AcDbLine
 10
160.4399917588408
 20
-190.9026530722705
 30
0.0
 11
164.8149917588409
 21
-190.9026530722705
 31
0.0
  0
TEXT
  5
53F
330
1F
100
AcDbEntity
  8
TEXT
100
AcDbText
 10
161.6639500921742
 20
-190.7413680355728
 30
0.0
 40
0.3125
  1
9-21-09
 72
     1
 11
162.6274917588409
 21
-190.5851180355728
 31
0.0
100
AcDbText
 73
     2
  0
TEXT
  5
540
330
1F
100
AcDbEntity
  8
TEXT
100
AcDbText
 10
160.5962417588408
 20
-190.5120280722704
 30
0.0
 40
0.15625
  1
DATE
100
AcDbText
  0
TEXT
  5
541
330
1F
100
AcDbEntity
  8
TEXT
100
AcDbText
 10
161.1884292588408
 20
-190.2220280722705
 30
0.0
 40
0.234375
  1
JJH
 72
     1
 11
161.5009292588408
 21
-190.1048405722705
 31
0.0
100
AcDbText
 73
     2
  0
TEXT
  5
542
330
1F
100
AcDbEntity
  8
TEXT
100
AcDbText
 10
160.5306167588409
 20
-189.8870280722704
 30
0.0
 40
0.15625
  1
DRAWN
100
AcDbText
  0
TEXT
  5
543
330
1F
100
AcDbEntity
  8
TEXT
100
AcDbText
 10
162.7837417588409
 20
-189.8870280722704
 30
0.0
 40
0.15625
  1
SCALE
100
AcDbText
  0
TEXT
  5
544
330
1F
100
AcDbEntity
  8
TEXT
100
AcDbText
 10
163.3243667588409
 20
-190.2220280722705
 30
0.0
 40
0.234375
  1
NONE
 72
     1
 11
163.7540542588409
 21
-190.1048405722705
 31
0.0
100
AcDbText
 73
     2
  0
LINE
  5
545
330
1F
100
AcDbEntity
  8
BORDER
100
AcDbLine
 10
160.4399917588408
 20
-189.6526530722704
 30
0.0
 11
164.8149917588409
 21
-189.6526530722704
 31
0.0
  0
LINE
  5
546
330
1F
100
AcDbEntity
  8
BORDER
100
AcDbLine
 10
160.4399917588408
 20
-190.2776530722705
 30
0.0
 11
164.8149917588409
 21
-190.2776530722705
 31
0.0
  0
LINE
  5
547
330
1F
100
AcDbEntity
  8
TEXT
100
AcDbLine
 10
165.7092112595139
 20
-188.7730030562398
 30
0.0
 11
165.7359423454185
 21
-188.789920542489
 31
0.0
  0
ARC
  5
548
330
1F
100
AcDbEntity
  8
TEXT
100
AcDbCircle
 10
165.8837210478634
 20
-188.5933694412857
 30
0.0
 40
0.1029739000996109
100
AcDbArc
 50
287.1920036507392
 51
335.8997504051592
  0
ARC
  5
549
330
1F
100
AcDbEntity
  8
TEXT
100
AcDbCircle
 10
166.0897339027685
 20
-188.73209930488
 30
0.0
 40
0.047902564587344
100
AcDbArc
 50
67.37252950711826
 51
112.6274704928676
  0
ARC
  5
54A
330
1F
100
AcDbEntity
  8
TEXT
100
AcDbCircle
 10
166.0746430489307
 20
-188.6493389561334
 30
0.0
 40
0.0676602827344026
100
AcDbArc
 50
330.1916644163832
 51
19.91318758187391
  0
ARC
  5
54B
330
1F
100
AcDbEntity
  8
TEXT
100
AcDbCircle
 10
165.9846238341625
 20
-188.6114490687336
 30
0.0
 40
0.0249429364567843
100
AcDbArc
 50
253.9290889125597
 51
38.65267477511391
  0
ARC
  5
54C
330
1F
100
AcDbEntity
  8
TEXT
100
AcDbCircle
 10
166.4085429292493
 20
-188.6372666300742
 30
0.0
 40
0.0518260868541633
100
AcDbArc
 50
188.1927496775764
 51
244.8496170020148
  0
ARC
  5
54D
330
1F
100
AcDbEntity
  8
TEXT
100
AcDbCircle
 10
166.4079091478321
 20
-188.5871000265717
 30
0.0
 40
0.0994083459973538
100
AcDbArc
 50
257.5730930866256
 51
314.4273867462357
  0
LINE
  5
54E
330
1F
100
AcDbEntity
  8
TEXT
100
AcDbLine
 10
166.5811317470905
 20
-188.6976186646359
 30
0.0
 11
166.5827139573233
 21
-188.6794360900633
 31
0.0
  0
LINE
  5
54F
330
1F
100
AcDbEntity
  8
TEXT
100
AcDbLine
 10
166.5827139573233
 20
-188.6794360900633
 30
0.0
 11
166.5558160182611
 21
-188.6810171875391
 31
0.0
  0
ARC
  5
550
330
1F
100
AcDbEntity
  8
TEXT
100
AcDbCircle
 10
166.5552721006381
 20
-188.6591031035252
 30
0.0
 40
0.0219208331170951
100
AcDbArc
 50
155.996471174624
 51
271.4218156194853
  0
ARC
  5
551
330
1F
100
AcDbEntity
  8
TEXT
100
AcDbCircle
 10
166.7456979967542
 20
-188.6483844064178
 30
0.0
 40
0.0513752098052219
100
AcDbArc
 50
203.9135879631474
 51
286.1701931802475
  0
ARC
  5
552
330
1F
100
AcDbEntity
  8
TEXT
100
AcDbCircle
 10
166.770279296704
 20
-188.6259209409248
 30
0.0
 40
0.0725374442393223
100
AcDbArc
 50
261.8576121462839
 51
331.2394802847467
  0
ARC
  5
553
330
1F
100
AcDbEntity
  8
TEXT
100
AcDbCircle
 10
166.7672031983146
 20
-188.6146506377814
 30
0.0
 40
0.0810929943736197
100
AcDbArc
 50
325.2939034707312
 51
356.4132772462205
  0
LINE
  5
554
330
1F
100
AcDbEntity
  8
TEXT
100
AcDbLine
 10
166.0585907548941
 20
-187.8818208063336
 30
0.0
 11
166.2665823630814
 21
-187.8818208063336
 31
0.0
  0
ARC
  5
555
330
1F
100
AcDbEntity
  8
TEXT
100
AcDbCircle
 10
166.172104159204
 20
-187.8774275032868
 30
0.0
 40
0.0945802945625412
100
AcDbArc
 50
357.3376237443687
 51
85.63084243886233
  0
ARC
  5
556
330
1F
100
AcDbEntity
  8
TEXT
100
AcDbCircle
 10
166.1426201726051
 20
-187.9580759777624
 30
0.0
 40
0.1787595523837168
100
AcDbArc
 50
78.15621523984882
 51
106.612240852029
  0
LINE
  5
557
330
1F
100
AcDbEntity
  8
TEXT
100
AcDbLine
 10
166.0585907548941
 20
-187.8593655436633
 30
0.0
 11
166.194987267971
 21
-187.8593655436633
 31
0.0
  0
ARC
  5
558
330
1F
100
AcDbEntity
  8
TEXT
100
AcDbCircle
 10
166.125046319536
 20
-187.8723450667552
 30
0.0
 40
0.0677112257424498
100
AcDbArc
 50
103.9179608005917
 51
168.9486088950437
  0
ARC
  5
559
330
1F
100
AcDbEntity
  8
TEXT
100
AcDbCircle
 10
166.1406258136449
 20
-187.8576485066833
 30
0.0
 40
0.0543885643533876
100
AcDbArc
 50
358.1908821763629
 51
69.74957583402241
  0
ARC
  5
55A
330
1F
100
AcDbEntity
  8
TEXT
100
AcDbCircle
 10
166.1341052910687
 20
-188.0130372767143
 30
0.0
 40
0.2079657856617219
100
AcDbArc
 50
82.99970676552133
 51
97.00029323447871
  0
ARC
  5
55B
330
1F
100
AcDbEntity
  8
TEXT
100
AcDbCircle
 10
166.1326046560667
 20
-187.9092883412485
 30
0.0
 40
0.1292181297135794
100
AcDbArc
 50
108.5416613320869
 51
149.7652339536253
  0
ARC
  5
55C
330
1F
100
AcDbEntity
  8
TEXT
100
AcDbCircle
 10
166.1334316747464
 20
-187.9132246690359
 30
0.0
 40
0.1319485192661753
100
AcDbArc
 50
148.4692011102813
 51
195.5802361373331
  0
ARC
  5
55D
330
1F
100
AcDbEntity
  8
TEXT
100
AcDbCircle
 10
166.1309908415835
 20
-187.9171560815591
 30
0.0
 40
0.1285795811377622
100
AcDbArc
 50
194.1847393568156
 51
248.6586767321129
  0
ARC
  5
55E
330
1F
100
AcDbEntity
  8
TEXT
100
AcDbCircle
 10
166.1838056462113
 20
-187.8833594790879
 30
0.0
 40
0.1252243447630968
100
AcDbArc
 50
179.2959701761241
 51
227.591548494084
  0
ARC
  5
55F
330
1F
100
AcDbEntity
  8
TEXT
100
AcDbCircle
 10
166.1564964995508
 20
-187.9056505945244
 30
0.0
 40
0.0904935239504756
100
AcDbArc
 50
230.8416488637647
 51
280.5326941523482
  0
ARC
  5
560
330
1F
100
AcDbEntity
  8
TEXT
100
AcDbCircle
 10
166.168323086687
 20
-187.8811310596774
 30
0.0
 40
0.1135862276716573
100
AcDbArc
 50
272.3792098458871
 51
327.3581874363137
  0
ARC
  5
561
330
1F
100
AcDbEntity
  8
TEXT
100
AcDbCircle
 10
166.1347435529784
 20
-187.8572796107331
 30
0.0
 40
0.1866149158157418
100
AcDbArc
 50
254.2847830849465
 51
294.1819270465993
  0
ARC
  5
562
330
1F
100
AcDbEntity
  8
TEXT
100
AcDbCircle
 10
166.1498922036128
 20
-187.9036244920371
 30
0.0
 40
0.1382279414268217
100
AcDbArc
 50
296.3233923707219
 51
339.8348331475731
  0
ARC
  5
563
330
1F
100
AcDbEntity
  8
TEXT
100
AcDbCircle
 10
166.270295767357
 20
-187.9495077010686
 30
0.0
 40
0.0095170105473448
100
AcDbArc
 50
349.2952029716974
 51
131.6626905469445
  0
ARC
  5
564
330
1F
100
AcDbEntity
  8
TEXT
100
AcDbCircle
 10
165.8666776325236
 20
-188.1778366370435
 30
0.0
 40
0.3987988710058952
100
AcDbArc
 50
84.62122141578795
 51
95.37877858421206
  0
ARC
  5
565
330
1F
100
AcDbEntity
  8
TEXT
100
AcDbCircle
 10
165.8905899874681
 20
-187.8717258049031
 30
0.0
 40
0.091924416877587
100
AcDbArc
 50
43.16761867319026
 51
81.57335966332
  0
ARC
  5
566
330
1F
100
AcDbEntity
  8
TEXT
100
AcDbCircle
 10
165.9257240597093
 20
-187.8328336779352
 30
0.0
 40
0.0399271801820827
100
AcDbArc
 50
321.1558234807585
 51
36.94217904230014
  0
ARC
  5
567
330
1F
100
AcDbEntity
  8
TEXT
100
AcDbCircle
 10
165.9333068238785
 20
-187.8274165394288
 30
0.0
 40
0.0384802722134761
100
AcDbArc
 50
205.1359642898989
 51
307.6679722285764
  0
ARC
  5
568
330
1F
100
AcDbEntity
  8
TEXT
100
AcDbCircle
 10
165.941345438428
 20
-187.8265911185719
 30
0.0
 40
0.046185345798517
100
AcDbArc
 50
180.010674400693
 51
201.8251852718047
  0
ARC
  5
569
330
1F
100
AcDbEntity
  8
TEXT
100
AcDbCircle
 10
165.8497462894841
 20
-187.8402390714262
 30
0.0
 40
0.0474177752828994
100
AcDbArc
 50
16.71684440730722
 51
45.97719400400643
  0
ARC
  5
56A
330
1F
100
AcDbEntity
  8
TEXT
100
AcDbCircle
 10
165.8579109310815
 20
-188.1909542364006
 30
0.0
 40
0.3856090945596675
100
AcDbArc
 50
86.31431733544657
 51
93.90381943515908
  0
ARC
  5
56B
330
1F
100
AcDbEntity
  8
TEXT
100
AcDbCircle
 10
165.8440122964063
 20
-187.8995362956899
 30
0.0
 40
0.1196511698431431
100
AcDbArc
 50
97.06566064011505
 51
142.4986334312158
  0
ARC
  5
56C
330
1F
100
AcDbEntity
  8
TEXT
100
AcDbCircle
 10
165.8429294674418
 20
-187.9182407157197
 30
0.0
 40
0.1310983043162969
100
AcDbArc
 50
135.7093780000566
 51
195.2317137751479
  0
ARC
  5
56D
330
1F
100
AcDbEntity
  8
TEXT
100
AcDbCircle
 10
165.8305299109244
 20
-187.9222163809439
 30
0.0
 40
0.1180912454887081
100
AcDbArc
 50
194.9511061487621
 51
259.610313586206
  0
ARC
  5
56E
330
1F
100
AcDbEntity
  8
TEXT
100
AcDbCircle
 10
165.84938901248
 20
-187.9174132028783
 30
0.0
 40
0.1274495304475066
100
AcDbArc
 50
251.6347706403379
 51
316.4182924463556
  0
ARC
  5
56F
330
1F
100
AcDbEntity
  8
TEXT
100
AcDbCircle
 10
165.8333693667935
 20
-187.8771379486885
 30
0.0
 40
0.1678017612198071
100
AcDbArc
 50
310.2152586008289
 51
331.3072507285812
  0
ARC
  5
570
330
1F
100
AcDbEntity
  8
TEXT
100
AcDbCircle
 10
165.8818395328119
 20
-187.9031646337246
 30
0.0
 40
0.1091448673447349
100
AcDbArc
 50
117.3722826858102
 51
160.0902491401811
  0
ARC
  5
571
330
1F
100
AcDbEntity
  8
TEXT
100
AcDbCircle
 10
165.8959375815523
 20
-187.8928510163843
 30
0.0
 40
0.1197688266097961
100
AcDbArc
 50
167.0430028911463
 51
212.1309371309445
  0
ARC
  5
572
330
1F
100
AcDbEntity
  8
TEXT
100
AcDbCircle
 10
165.870352514516
 20
-187.9070245170584
 30
0.0
 40
0.0905784598489114
100
AcDbArc
 50
213.1462108998042
 51
285.6537258536326
  0
ARC
  5
573
330
1F
100
AcDbEntity
  8
TEXT
100
AcDbCircle
 10
165.8711757386434
 20
-187.8846668725754
 30
0.0
 40
0.1120927222252192
100
AcDbArc
 50
282.1628426667851
 51
326.5593609179236
  0
ARC
  5
574
330
1F
100
AcDbEntity
  8
TEXT
100
AcDbCircle
 10
165.9681305590309
 20
-187.9584160992663
 30
0.0
 40
0.0124561803706211
100
AcDbArc
 50
3.288025410275718
 51
105.9275278804377
  0
LINE
  5
575
330
1F
100
AcDbEntity
  8
TEXT
100
AcDbLine
 10
165.3810963767778
 20
-187.5125138166405
 30
0.0
 11
165.3851665193693
 21
-187.8460251309366
 31
0.0
  0
LINE
  5
576
330
1F
100
AcDbEntity
  8
TEXT
100
AcDbLine
 10
165.4136575175098
 20
-187.5531859360619
 30
0.0
 11
165.4156925888055
 21
-187.8460251309366
 31
0.0
  0
ARC
  5
577
330
1F
100
AcDbEntity
  8
TEXT
100
AcDbCircle
 10
165.4004295540874
 20
-187.8465849390588
 30
0.0
 40
0.0152732974154362
100
AcDbArc
 50
177.899482485688
 51
2.100517514311817
  0
LINE
  5
578
330
1F
100
AcDbEntity
  8
TEXT
100
AcDbLine
 10
165.4836263903086
 20
-187.5678924872907
 30
0.0
 11
165.4836263903086
 21
-188.0777085123135
 31
0.0
  0
LINE
  5
579
330
1F
100
AcDbEntity
  8
TEXT
100
AcDbLine
 10
165.6314636601717
 20
-187.5678924872907
 30
0.0
 11
165.6314636601717
 21
-188.0777085123135
 31
0.0
  0
ARC
  5
57A
330
1F
100
AcDbEntity
  8
TEXT
100
AcDbCircle
 10
165.428482057106
 20
-187.5538980009235
 30
0.0
 40
0.0148416309955998
100
AcDbArc
 50
38.20381851856357
 51
177.2500340797979
  0
LINE
  5
57B
330
1F
100
AcDbEntity
  8
TEXT
100
AcDbLine
 10
165.4401448434171
 20
-187.5447190344198
 30
0.0
 11
165.4836263903086
 21
-187.5678924872907
 31
0.0
  0
LINE
  5
57C
330
1F
100
AcDbEntity
  8
TEXT
100
AcDbLine
 10
165.6749452070634
 20
-187.5447190344198
 30
0.0
 11
165.6314636601717
 21
-187.5678924872907
 31
0.0
  0
LINE
  5
57D
330
1F
100
AcDbEntity
  8
TEXT
100
AcDbLine
 10
165.7014325329706
 20
-187.5531859360619
 30
0.0
 11
165.7012648826648
 21
-187.5773101919101
 31
0.0
  0
LINE
  5
57E
330
1F
100
AcDbEntity
  8
TEXT
100
AcDbLine
 10
165.7339936737027
 20
-187.5125138166405
 30
0.0
 11
165.7332029044678
 21
-187.5773101919101
 31
0.0
  0
ARC
  5
57F
330
1F
100
AcDbEntity
  8
TEXT
100
AcDbCircle
 10
165.6866079933742
 20
-187.5538980009235
 30
0.0
 40
0.0148416309955998
100
AcDbArc
 50
2.749965920202087
 51
141.7961814814359
  0
ARC
  5
580
330
1F
100
AcDbEntity
  8
TEXT
100
AcDbCircle
 10
165.7172338935662
 20
-187.5878604096438
 30
0.0
 40
0.019139394018822
100
AcDbArc
 50
146.5485285753526
 51
33.45147142464738
  0
ARC
  5
581
330
1F
100
AcDbEntity
  8
TEXT
100
AcDbCircle
 10
167.2214914290965
 20
-188.6297866444865
 30
0.0
 40
0.0095170105473448
100
AcDbArc
 50
349.2952029716974
 51
131.6626905469445
  0
ARC
  5
582
330
1F
100
AcDbEntity
  8
TEXT
100
AcDbCircle
 10
167.1010878653525
 20
-188.583903435455
 30
0.0
 40
0.1382279414268217
100
AcDbArc
 50
296.3233923707219
 51
339.8348331475731
  0
ARC
  5
583
330
1F
100
AcDbEntity
  8
TEXT
100
AcDbCircle
 10
167.0859392147181
 20
-188.537558554151
 30
0.0
 40
0.1866149158157418
100
AcDbArc
 50
254.2847830849465
 51
294.1819270465993
  0
ARC
  5
584
330
1F
100
AcDbEntity
  8
TEXT
100
AcDbCircle
 10
167.1195187484265
 20
-188.5614100030953
 30
0.0
 40
0.1135862276716573
100
AcDbArc
 50
272.3792098458871
 51
327.3581874363137
  0
ARC
  5
585
330
1F
100
AcDbEntity
  8
TEXT
100
AcDbCircle
 10
167.1076921612904
 20
-188.5859295379422
 30
0.0
 40
0.0904935239504756
100
AcDbArc
 50
230.8416488637647
 51
280.5326941523482
  0
ARC
  5
586
330
1F
100
AcDbEntity
  8
TEXT
100
AcDbCircle
 10
167.1350013079509
 20
-188.5636384225058
 30
0.0
 40
0.1252243447630968
100
AcDbArc
 50
179.2959701761241
 51
227.591548494084
  0
ARC
  5
587
330
1F
100
AcDbEntity
  8
TEXT
100
AcDbCircle
 10
167.0821865033232
 20
-188.5974350249771
 30
0.0
 40
0.1285795811377622
100
AcDbArc
 50
194.1847393568156
 51
248.6586767321129
  0
ARC
  5
588
330
1F
100
AcDbEntity
  8
TEXT
100
AcDbCircle
 10
167.0846273364862
 20
-188.5935036124537
 30
0.0
 40
0.1319485192661753
100
AcDbArc
 50
148.4692011102813
 51
195.5802361373331
  0
ARC
  5
589
330
1F
100
AcDbEntity
  8
TEXT
100
AcDbCircle
 10
167.0838003178064
 20
-188.5895672846664
 30
0.0
 40
0.1292181297135794
100
AcDbArc
 50
108.5416613320869
 51
149.7652339536253
  0
ARC
  5
58A
330
1F
100
AcDbEntity
  8
TEXT
100
AcDbCircle
 10
167.0853009528084
 20
-188.6933162201321
 30
0.0
 40
0.2079657856617219
100
AcDbArc
 50
82.99970676552133
 51
97.00029323447871
  0
ARC
  5
58B
330
1F
100
AcDbEntity
  8
TEXT
100
AcDbCircle
 10
167.0918214753847
 20
-188.5379274501012
 30
0.0
 40
0.0543885643533876
100
AcDbArc
 50
358.1908821763629
 51
69.74957583402241
  0
ARC
  5
58C
330
1F
100
AcDbEntity
  8
TEXT
100
AcDbCircle
 10
167.0762419812756
 20
-188.552624010173
 30
0.0
 40
0.0677112257424498
100
AcDbArc
 50
103.9179608005917
 51
168.9486088950437
  0
LINE
  5
58D
330
1F
100
AcDbEntity
  8
TEXT
100
AcDbLine
 10
167.0097864166339
 20
-188.5396444870811
 30
0.0
 11
167.1461829297105
 21
-188.5396444870811
 31
0.0
  0
ARC
  5
58E
330
1F
100
AcDbEntity
  8
TEXT
100
AcDbCircle
 10
167.0938158343447
 20
-188.6383549211804
 30
0.0
 40
0.1787595523837168
100
AcDbArc
 50
78.15621523984882
 51
106.612240852029
  0
ARC
  5
58F
330
1F
100
AcDbEntity
  8
TEXT
100
AcDbCircle
 10
167.1232998209436
 20
-188.5577064467047
 30
0.0
 40
0.0945802945625412
100
AcDbArc
 50
357.3376237443687
 51
85.63084243886233
  0
LINE
  5
590
330
1F
100
AcDbEntity
  8
TEXT
100
AcDbLine
 10
167.0097864166339
 20
-188.5620997497515
 30
0.0
 11
167.217778024821
 21
-188.5620997497515
 31
0.0
  0
ARC
  5
591
330
1F
100
AcDbEntity
  8
TEXT
100
AcDbCircle
 10
165.4946658301249
 20
-188.1089556502468
 30
0.0
 40
0.0331398983173351
100
AcDbArc
 50
109.4580308571273
 51
191.0341765877008
  0
ARC
  5
592
330
1F
100
AcDbEntity
  8
TEXT
100
AcDbCircle
 10
165.4523078526399
 20
-188.1171497571411
 30
0.0
 40
0.0100035300295991
100
AcDbArc
 50
155.9249042338253
 51
10.66497725509148
  0
ARC
  5
593
330
1F
100
AcDbEntity
  8
TEXT
100
AcDbCircle
 10
165.4245084607425
 20
-188.1249540172408
 30
0.0
 40
0.0221286157777855
100
AcDbArc
 50
32.48569494743553
 51
175.1979664789355
  0
ARC
  5
594
330
1F
100
AcDbEntity
  8
TEXT
100
AcDbCircle
 10
165.3950479573901
 20
-188.1266305277158
 30
0.0
 40
0.0082070223616514
100
AcDbArc
 50
158.7719549350954
 51
25.46716058584761
  0
ARC
  5
595
330
1F
100
AcDbEntity
  8
TEXT
100
AcDbCircle
 10
165.3758469275265
 20
-188.1212291171967
 30
0.0
 40
0.0118036776942274
100
AcDbArc
 50
348.1206509806774
 51
136.2651890953702
  0
ARC
  5
596
330
1F
100
AcDbEntity
  8
TEXT
100
AcDbCircle
 10
165.374429776785
 20
-188.1274485521132
 30
0.0
 40
0.0160420204804056
100
AcDbArc
 50
116.3151684036785
 51
258.4674100382152
  0
ARC
  5
597
330
1F
100
AcDbEntity
  8
TEXT
100
AcDbCircle
 10
165.3799084177773
 20
-188.1514042870843
 30
0.0
 40
0.0119708699890584
100
AcDbArc
 50
356.742363050675
 51
136.5172760690071
  0
ARC
  5
598
330
1F
100
AcDbEntity
  8
TEXT
100
AcDbCircle
 10
165.39611725055
 20
-188.1583450348611
 30
0.0
 40
0.0075708934653655
100
AcDbArc
 50
124.2167745950253
 51
319.7988197133695
  0
ARC
  5
599
330
1F
100
AcDbEntity
  8
TEXT
100
AcDbCircle
 10
165.4264367148821
 20
-188.1720353321591
 30
0.0
 40
0.0260684316724221
100
AcDbArc
 50
160.2627782819585
 51
255.1333022011724
  0
ARC
  5
59A
330
1F
100
AcDbEntity
  8
TEXT
100
AcDbCircle
 10
165.4262583884541
 20
-188.194664714391
 30
0.0
 40
0.0069976873342193
100
AcDbArc
 50
201.5154657473924
 51
41.96660508022751
  0
ARC
  5
59B
330
1F
100
AcDbEntity
  8
TEXT
100
AcDbCircle
 10
165.4506330984981
 20
-188.1773087898654
 30
0.0
 40
0.0229836788276261
100
AcDbArc
 50
121.2424246402128
 51
213.4732397083668
  0
ARC
  5
59C
330
1F
100
AcDbEntity
  8
TEXT
100
AcDbCircle
 10
165.4451002052508
 20
-188.1689175047981
 30
0.0
 40
0.0129451309621158
100
AcDbArc
 50
332.2921775479048
 51
119.5678571759902
  0
ARC
  5
59D
330
1F
100
AcDbEntity
  8
TEXT
100
AcDbCircle
 10
165.4475263398023
 20
-188.1962115460304
 30
0.0
 40
0.0231138652678936
100
AcDbArc
 50
312.9867785858949
 51
66.9911842292735
  0
ARC
  5
59E
330
1F
100
AcDbEntity
  8
TEXT
100
AcDbCircle
 10
165.5470661871252
 20
-188.3752862977018
 30
0.0
 40
0.1825298605922834
100
AcDbArc
 50
117.322218089242
 51
179.3383492613259
  0
ARC
  5
59F
330
1F
100
AcDbEntity
  8
TEXT
100
AcDbCircle
 10
166.136121710496
 20
-188.4350933741608
 30
0.0
 40
0.7740534065258921
100
AcDbArc
 50
175.4121316267021
 51
191.7939289657088
  0
ARC
  5
5A0
330
1F
100
AcDbEntity
  8
TEXT
100
AcDbCircle
 10
165.3768969867153
 20
-188.6286377944492
 30
0.0
 40
0.0353661901713158
100
AcDbArc
 50
15.17145974978895
 51
87.54918714298277
  0
ARC
  5
5A1
330
1F
100
AcDbEntity
  8
TEXT
100
AcDbCircle
 10
168.5698217155733
 20
-188.7271266780421
 30
0.0
 40
3.160628174278595
100
AcDbArc
 50
178.0464319449979
 51
181.7502526685598
  0
LINE
  5
5A2
330
1F
100
AcDbEntity
  8
TEXT
100
AcDbLine
 10
165.4445249343952
 20
-188.6672345207423
 30
0.0
 11
165.4432572885242
 21
-188.8198754014358
 31
0.0
  0
ARC
  5
5A3
330
1F
100
AcDbEntity
  8
TEXT
100
AcDbCircle
 10
165.4498159684663
 20
-188.6661029018303
 30
0.0
 40
0.0054106933848193
100
AcDbArc
 50
333.687900136725
 51
192.0722457553347
  0
LINE
  5
5A4
330
1F
100
AcDbEntity
  8
TEXT
100
AcDbLine
 10
165.4546660752842
 20
-188.6685012485024
 30
0.0
 11
165.4546660752842
 21
-188.6913023791177
 31
0.0
  0
ARC
  5
5A5
330
1F
100
AcDbEntity
  8
TEXT
100
AcDbCircle
 10
165.4618338695556
 20
-188.689649317145
 30
0.0
 40
0.0073559424006224
100
AcDbArc
 50
192.9866902548971
 51
33.38063139741115
  0
ARC
  5
5A6
330
1F
100
AcDbEntity
  8
TEXT
100
AcDbCircle
 10
165.4810169748997
 20
-188.6941320346839
 30
0.0
 40
0.0155826305602638
100
AcDbArc
 50
17.66955929970885
 51
146.8111142491874
  0
ARC
  5
5A7
330
1F
100
AcDbEntity
  8
TEXT
100
AcDbCircle
 10
165.5298360210706
 20
-188.6702757423953
 30
0.0
 40
0.0389857867394515
100
AcDbArc
 50
209.3802246625986
 51
263.8421008682747
  0
LINE
  5
5A8
330
1F
100
AcDbEntity
  8
TEXT
100
AcDbLine
 10
165.5256540615076
 20
-188.7090365832261
 30
0.0
 11
165.5294569730417
 21
-188.7622392264838
 31
0.0
  0
ARC
  5
5A9
330
1F
100
AcDbEntity
  8
TEXT
100
AcDbCircle
 10
165.5454938191338
 20
-188.7644800141807
 30
0.0
 40
0.0161926391326401
100
AcDbArc
 50
172.0457056516364
 51
14.8166101479387
  0
LINE
  5
5AA
330
1F
100
AcDbEntity
  8
TEXT
100
AcDbLine
 10
165.56114804158
 20
-188.7603391348436
 30
0.0
 11
165.563683333322
 21
-188.7381713681085
 31
0.0
  0
ARC
  5
5AB
330
1F
100
AcDbEntity
  8
TEXT
100
AcDbCircle
 10
165.5694591039409
 20
-188.7374965074686
 30
0.0
 40
0.0058150634670569
100
AcDbArc
 50
318.6510821797497
 51
186.6644145786488
  0
LINE
  5
5AC
330
1F
100
AcDbEntity
  8
TEXT
100
AcDbLine
 10
165.573824474211
 20
-188.7413381875088
 30
0.0
 11
165.5769935628096
 21
-188.7704729569248
 31
0.0
  0
ARC
  5
5AD
330
1F
100
AcDbEntity
  8
TEXT
100
AcDbCircle
 10
165.587843775175
 20
-188.7727165735169
 30
0.0
 40
0.0110797528757836
100
AcDbArc
 50
168.3169857564351
 51
15.04995211451573
  0
LINE
  5
5AE
330
1F
100
AcDbEntity
  8
TEXT
100
AcDbLine
 10
165.5985434904588
 20
-188.7698395930447
 30
0.0
 11
165.5985434904588
 21
-188.7457717346693
 31
0.0
  0
ARC
  5
5AF
330
1F
100
AcDbEntity
  8
TEXT
100
AcDbCircle
 10
165.6129794311019
 20
-188.7582982477839
 30
0.0
 40
0.0191130822490872
100
AcDbArc
 50
65.19241843011467
 51
139.0508106988865
  0
ARC
  5
5B0
330
1F
100
AcDbEntity
  8
TEXT
100
AcDbCircle
 10
165.625294842871
 20
-188.7594962165202
 30
0.0
 40
0.0190383821988919
100
AcDbArc
 50
7.606980527161955
 51
103.0413594591621
  0
LINE
  5
5B1
330
1F
100
AcDbEntity
  8
TEXT
100
AcDbLine
 10
165.6441656762582
 20
-188.7569759697019
 30
0.0
 11
165.6521849811664
 21
-188.8673848069776
 31
0.0
  0
LINE
  5
5B2
330
1F
100
AcDbEntity
  8
TEXT
100
AcDbLine
 10
165.6869353719793
 20
-188.8638232390653
 30
0.0
 11
165.6896084910014
 21
-188.7765646396184
 31
0.0
  0
ARC
  5
5B3
330
1F
100
AcDbEntity
  8
TEXT
100
AcDbCircle
 10
165.6992557692658
 20
-188.7739356566155
 30
0.0
 40
0.0099990764344
100
AcDbArc
 50
5.351678383089363
 51
195.2435488026395
  0
LINE
  5
5B4
330
1F
100
AcDbEntity
  8
TEXT
100
AcDbLine
 10
165.7359423454185
 20
-188.789920542489
 30
0.0
 11
165.7377244247667
 21
-188.84512496886
 31
0.0
  0
ARC
  5
5B5
330
1F
100
AcDbEntity
  8
TEXT
100
AcDbCircle
 10
165.7863573832193
 20
-188.8023860611146
 30
0.0
 40
0.0093269579312538
100
AcDbArc
 50
354.5219056877824
 51
214.9448543763831
  0
ARC
  5
5B6
330
1F
100
AcDbEntity
  8
TEXT
100
AcDbCircle
 10
165.8121662002033
 20
-188.8039147973972
 30
0.0
 40
0.0165367822276326
100
AcDbArc
 50
177.787775166229
 51
326.3805826419441
  0
ARC
  5
5B7
330
1F
100
AcDbEntity
  8
TEXT
100
AcDbCircle
 10
165.9830284611977
 20
-188.7841873823424
 30
0.0
 40
0.0090446670445143
100
AcDbArc
 50
144.5711585108378
 51
21.75301147886438
  0
LINE
  5
5B8
330
1F
100
AcDbEntity
  8
TEXT
100
AcDbLine
 10
165.9914290581803
 20
-188.7808353721574
 30
0.0
 11
165.9920598820359
 21
-188.7329274597726
 31
0.0
  0
ARC
  5
5B9
330
1F
100
AcDbEntity
  8
TEXT
100
AcDbCircle
 10
165.9830490620691
 20
-188.7383912716939
 30
0.0
 40
0.0105379370460883
100
AcDbArc
 50
31.23099864076719
 51
160.1819529381846
  0
ARC
  5
5BA
330
1F
100
AcDbEntity
  8
TEXT
100
AcDbCircle
 10
166.017727124643
 20
-188.7544036019651
 30
0.0
 40
0.0487032855846518
100
AcDbArc
 50
156.288597549796
 51
210.2571046136517
  0
ARC
  5
5BB
330
1F
100
AcDbEntity
  8
TEXT
100
AcDbCircle
 10
166.1555204645299
 20
-188.8314090427961
 30
0.0
 40
0.0300701126135258
100
AcDbArc
 50
341.5477100758307
 51
84.99888070834812
  0
ARC
  5
5BC
330
1F
100
AcDbEntity
  8
TEXT
100
AcDbCircle
 10
166.1686123184767
 20
-188.8663049658359
 30
0.0
 40
0.0656913671942501
100
AcDbArc
 50
99.17143729877864
 51
127.7955283291021
  0
ARC
  5
5BD
330
1F
100
AcDbEntity
  8
TEXT
100
AcDbCircle
 10
166.041163800592
 20
-188.8077572469395
 30
0.0
 40
0.0072833212418134
100
AcDbArc
 50
312.7998628402736
 51
120.0581864533373
  0
ARC
  5
5BE
330
1F
100
AcDbEntity
  8
TEXT
100
AcDbCircle
 10
166.0418368730218
 20
-188.7854529523275
 30
0.0
 40
0.0165736773362276
100
AcDbArc
 50
129.1527393458021
 51
254.8870408388572
  0
ARC
  5
5BF
330
1F
100
AcDbEntity
  8
TEXT
100
AcDbCircle
 10
165.9785754071157
 20
-188.7323665892767
 30
0.0
 40
0.0663799911478199
100
AcDbArc
 50
322.6907301981537
 51
8.220255073937892
  0
ARC
  5
5C0
330
1F
100
AcDbEntity
  8
TEXT
100
AcDbCircle
 10
166.0502797554
 20
-188.7170928195592
 30
0.0
 40
0.0083377203270588
100
AcDbArc
 50
89.05883162362073
 51
223.9137905962934
  0
ARC
  5
5C1
330
1F
100
AcDbEntity
  8
TEXT
100
AcDbCircle
 10
165.8837491076136
 20
-188.5210812893756
 30
0.0
 40
0.2509979489351848
100
AcDbArc
 50
311.6071689301102
 51
318.3515702307968
  0
ARC
  5
5C2
330
1F
100
AcDbEntity
  8
TEXT
100
AcDbCircle
 10
166.0493145905683
 20
-188.7124395511064
 30
0.0
 40
0.0637668312167232
100
AcDbArc
 50
337.3510782224558
 51
22.64892177754409
  0
ARC
  5
5C3
330
1F
100
AcDbEntity
  8
TEXT
100
AcDbCircle
 10
166.1534342510648
 20
-188.7454112359229
 30
0.0
 40
0.0460460836471324
100
AcDbArc
 50
169.4684867573224
 51
223.1418439421425
  0
ARC
  5
5C4
330
1F
100
AcDbEntity
  8
TEXT
100
AcDbCircle
 10
166.1137455213442
 20
-188.7504560639411
 30
0.0
 40
0.0271341882191743
100
AcDbArc
 50
282.9712622283103
 51
25.3544137864024
  0
ARC
  5
5C5
330
1F
100
AcDbEntity
  8
TEXT
100
AcDbCircle
 10
166.4226683697994
 20
-188.6856683132162
 30
0.0
 40
0.2893295131371159
100
AcDbArc
 50
179.4662202071271
 51
190.589099784035
  0
ARC
  5
5C6
330
1F
100
AcDbEntity
  8
TEXT
100
AcDbCircle
 10
165.9212219641838
 20
-188.4306907894751
 30
0.0
 40
0.2921733560609443
100
AcDbArc
 50
317.9732863042448
 51
40.61894937559284
  0
ARC
  5
5C7
330
1F
100
AcDbEntity
  8
TEXT
100
AcDbCircle
 10
166.1150930660984
 20
-188.2749515702052
 30
0.0
 40
0.0443516632740007
100
AcDbArc
 50
51.01090143870322
 51
107.577946053111
  0
ARC
  5
5C8
330
1F
100
AcDbEntity
  8
TEXT
100
AcDbCircle
 10
166.0389945682818
 20
-188.2291422058065
 30
0.0
 40
0.0628033698317426
100
AcDbArc
 50
356.7791343814142
 51
50.82801334298125
  0
ARC
  5
5C9
330
1F
100
AcDbEntity
  8
TEXT
100
AcDbCircle
 10
166.0547669914272
 20
-188.2994721046866
 30
0.0
 40
0.1213938581589665
100
AcDbArc
 50
78.64671940115953
 51
92.8865786316482
  0
ARC
  5
5CA
330
1F
100
AcDbEntity
  8
TEXT
100
AcDbCircle
 10
166.0410695300471
 20
-188.163204738932
 30
0.0
 40
0.0168329057250599
100
AcDbArc
 50
296.7794474250892
 51
150.4674482996525
  0
ARC
  5
5CB
330
1F
100
AcDbEntity
  8
TEXT
100
AcDbCircle
 10
166.0140908885776
 20
-188.1391582991573
 30
0.0
 40
0.0200033413087927
100
AcDbArc
 50
174.1982733486934
 51
308.0634596483535
  0
ARC
  5
5CC
330
1F
100
AcDbEntity
  8
TEXT
100
AcDbCircle
 10
165.9570451073392
 20
-188.1697378765034
 30
0.0
 40
0.0494227766538583
100
AcDbArc
 50
41.27304036069129
 51
94.61991284103847
  0
ARC
  5
5CD
330
1F
100
AcDbEntity
  8
TEXT
100
AcDbCircle
 10
165.9372564890154
 20
-188.1251245092462
 30
0.0
 40
0.0164772438173263
100
AcDbArc
 50
136.6395135700862
 51
16.38775991618531
  0
ARC
  5
5CE
330
1F
100
AcDbEntity
  8
TEXT
100
AcDbCircle
 10
165.9118463164072
 20
-188.1285284431517
 30
0.0
 40
0.019923999934833
100
AcDbArc
 50
47.61705801860752
 51
152.6179806586007
  0
ARC
  5
5CF
330
1F
100
AcDbEntity
  8
TEXT
100
AcDbCircle
 10
165.8708833379888
 20
-188.1300969878076
 30
0.0
 40
0.0256267055491746
100
AcDbArc
 50
24.75773987532579
 51
121.5483884163469
  0
ARC
  5
5D0
330
1F
100
AcDbEntity
  8
TEXT
100
AcDbCircle
 10
165.8380236444404
 20
-188.1156829215609
 30
0.0
 40
0.0208202889485251
100
AcDbArc
 50
20.89289471577903
 51
159.1071052842209
  0
ARC
  5
5D1
330
1F
100
AcDbEntity
  8
TEXT
100
AcDbCircle
 10
165.8082001970866
 20
-188.1053678300738
 30
0.0
 40
0.0107672478568685
100
AcDbArc
 50
183.5606974541691
 51
344.4298925613501
  0
ARC
  5
5D2
330
1F
100
AcDbEntity
  8
TEXT
100
AcDbCircle
 10
165.7751646844985
 20
-188.1294719512132
 30
0.0
 40
0.0323422366599906
100
AcDbArc
 50
46.43616582623128
 51
130.6283095026749
  0
ARC
  5
5D3
330
1F
100
AcDbEntity
  8
TEXT
100
AcDbCircle
 10
165.7424342710981
 20
-188.1084104349489
 30
0.0
 40
0.0121798952203543
100
AcDbArc
 50
163.375655046461
 51
16.62434495353602
  0
ARC
  5
5D4
330
1F
100
AcDbEntity
  8
TEXT
100
AcDbCircle
 10
165.6964012451946
 20
-188.1996164113007
 30
0.0
 40
0.1007326717255064
100
AcDbArc
 50
70.05468846036278
 51
100.2232656721042
  0
ARC
  5
5D5
330
1F
100
AcDbEntity
  8
TEXT
100
AcDbCircle
 10
165.6701864887693
 20
-188.1542396099549
 30
0.0
 40
0.0543991327960405
100
AcDbArc
 50
81.18509483549036
 51
120.0392913824029
  0
ARC
  5
5D6
330
1F
100
AcDbEntity
  8
TEXT
100
AcDbCircle
 10
165.6297222057167
 20
-188.0953502889751
 30
0.0
 40
0.0177275194936825
100
AcDbArc
 50
318.2823815987275
 51
84.36248438139299
  0
ARC
  5
5D7
330
1F
100
AcDbEntity
  8
TEXT
100
AcDbCircle
 10
165.5499624884674
 20
-188.1741640643687
 30
0.0
 40
0.0254942521042418
100
AcDbArc
 50
35.6067999534591
 51
177.5845513854531
  0
LINE
  5
5D8
330
1F
100
AcDbEntity
  8
TEXT
100
AcDbLine
 10
165.5706901227814
 20
-188.1593208145188
 30
0.0
 11
165.5690691070627
 21
-188.1828087608365
 31
0.0
  0
LINE
  5
5D9
330
1F
100
AcDbEntity
  8
TEXT
100
AcDbLine
 10
165.5244908879326
 20
-188.1730896079695
 30
0.0
 11
165.5236803800733
 21
-188.2338342940551
 31
0.0
  0
ARC
  5
5DA
330
1F
100
AcDbEntity
  8
TEXT
100
AcDbCircle
 10
165.6265525407133
 20
-188.2796420588677
 30
0.0
 40
0.1126100916963402
100
AcDbArc
 50
120.6947626763644
 51
155.9971516553446
  0
ARC
  5
5DB
330
1F
100
AcDbEntity
  8
TEXT
100
AcDbCircle
 10
165.5851207162364
 20
-188.248416627396
 30
0.0
 40
0.0209517503337112
100
AcDbArc
 50
218.6904014524325
 51
353.6659411500759
  0
ARC
  5
5DC
330
1F
100
AcDbEntity
  8
TEXT
100
AcDbCircle
 10
165.5735454157017
 20
-188.2811116778183
 30
0.0
 40
0.020171963693018
100
AcDbArc
 50
103.7022990326946
 51
207.0193065629327
  0
ARC
  5
5DD
330
1F
100
AcDbEntity
  8
TEXT
100
AcDbCircle
 10
165.8728826173464
 20
-188.4482203060841
 30
0.0
 40
0.3544440067106097
100
AcDbArc
 50
153.5374647244186
 51
193.3327646348734
  0
ARC
  5
5DE
330
1F
100
AcDbEntity
  8
TEXT
100
AcDbCircle
 10
165.4596206550192
 20
-188.5760960242733
 30
0.0
 40
0.0824827685733273
100
AcDbArc
 50
346.9852122362372
 51
34.01252680042681
  0
ARC
  5
5DF
330
1F
100
AcDbEntity
  8
TEXT
100
AcDbCircle
 10
165.528597657152
 20
-188.6307023771562
 30
0.0
 40
0.0377875286239628
100
AcDbArc
 50
345.4259909574662
 51
72.46181126870697
  0
ARC
  5
5E0
330
1F
100
AcDbEntity
  8
TEXT
100
AcDbCircle
 10
165.5679156597384
 20
-188.7117705846348
 30
0.0
 40
0.0716123991500209
100
AcDbArc
 50
18.24878221231744
 51
92.19784172829085
  0
ARC
  5
5E1
330
1F
100
AcDbEntity
  8
TEXT
100
AcDbCircle
 10
165.6445693153617
 20
-188.6931829912815
 30
0.0
 40
0.0094565292621038
100
AcDbArc
 50
156.0593073728621
 51
8.762281217119738
  0
ARC
  5
5E2
330
1F
100
AcDbEntity
  8
TEXT
100
AcDbCircle
 10
165.6649713396193
 20
-188.6956772477679
 30
0.0
 40
0.0117351997935574
100
AcDbArc
 50
1.658272028068481
 51
160.4091839300749
  0
ARC
  5
5E3
330
1F
100
AcDbEntity
  8
TEXT
100
AcDbCircle
 10
165.7091119868798
 20
-188.6728173578228
 30
0.0
 40
0.0394663806242486
100
AcDbArc
 50
214.7934494581966
 51
299.0409507876035
  0
ARC
  5
5E4
330
1F
100
AcDbEntity
  8
TEXT
100
AcDbCircle
 10
165.7534920404251
 20
-188.6837769608616
 30
0.0
 40
0.0345034994608953
100
AcDbArc
 50
223.0305625061272
 51
311.2487591160725
  0
ARC
  5
5E5
330
1F
100
AcDbEntity
  8
TEXT
100
AcDbCircle
 10
165.7958081530856
 20
-188.7045287906704
 30
0.0
 40
0.0202434850951048
100
AcDbArc
 50
194.8546182240501
 51
330.4510994340794
  0
ARC
  5
5E6
330
1F
100
AcDbEntity
  8
TEXT
100
AcDbCircle
 10
165.8278099388575
 20
-188.7628559173553
 30
0.0
 40
0.0504403035036899
100
AcDbArc
 50
33.67851647489225
 51
106.5775508010056
  0
ARC
  5
5E7
330
1F
100
AcDbEntity
  8
TEXT
100
AcDbCircle
 10
165.884175715498
 20
-188.7052961952546
 30
0.0
 40
0.0329030971158398
100
AcDbArc
 50
244.0629515517945
 51
24.32612031264171
  0
ARC
  5
5E8
330
1F
100
AcDbEntity
  8
TEXT
100
AcDbCircle
 10
165.9604341741613
 20
-188.5221877239998
 30
0.0
 40
0.0856504748170368
100
AcDbArc
 50
300.6537348898065
 51
16.68245916375877
  0
ARC
  5
5E9
330
1F
100
AcDbEntity
  8
TEXT
100
AcDbCircle
 10
165.7945184473735
 20
-188.4306554677862
 30
0.0
 40
0.2568391883961405
100
AcDbArc
 50
344.8914411173256
 51
24.57723374822258
  0
ARC
  5
5EA
330
1F
100
AcDbEntity
  8
TEXT
100
AcDbCircle
 10
166.0792099130216
 20
-188.2980012823893
 30
0.0
 40
0.0572764194780507
100
AcDbArc
 50
155.9906329013502
 51
206.8057304577021
  0
ARC
  5
5EB
330
1F
100
AcDbEntity
  8
TEXT
100
AcDbCircle
 10
166.0183908186733
 20
-188.2751705043789
 30
0.0
 40
0.0085115103283491
100
AcDbArc
 50
3.193725348484524
 51
193.05487549986
  0
ARC
  5
5EC
330
1F
100
AcDbEntity
  8
TEXT
100
AcDbCircle
 10
165.9987062081716
 20
-188.2899609834929
 30
0.0
 40
0.0171867493656786
100
AcDbArc
 50
131.521380361031
 51
48.47861963898633
  0
ARC
  5
5ED
330
1F
100
AcDbEntity
  8
TEXT
100
AcDbCircle
 10
165.9417465997636
 20
-188.2527462699788
 30
0.0
 40
0.0516631101119713
100
AcDbArc
 50
331.8837666959812
 51
33.32508059325298
  0
ARC
  5
5EE
330
1F
100
AcDbEntity
  8
TEXT
100
AcDbCircle
 10
165.9734202880613
 20
-188.2275431734259
 30
0.0
 40
0.0119260847182272
100
AcDbArc
 50
15.46471151434136
 51
237.0036058083627
  0
ARC
  5
5EF
330
1F
100
AcDbEntity
  8
TEXT
100
AcDbCircle
 10
165.9507000090796
 20
-188.245081266788
 30
0.0
 40
0.0178900098840057
100
AcDbArc
 50
124.5991194751693
 51
24.9116295138042
  0
ARC
  5
5F0
330
1F
100
AcDbEntity
  8
TEXT
100
AcDbCircle
 10
165.8995346932714
 20
-188.2116523767491
 30
0.0
 40
0.0450705442028974
100
AcDbArc
 50
335.482723053158
 51
36.54383594003216
  0
ARC
  5
5F1
330
1F
100
AcDbEntity
  8
TEXT
100
AcDbCircle
 10
165.8423900325056
 20
-188.3520149457374
 30
0.0
 40
0.1914957959123389
100
AcDbArc
 50
60.82353397560634
 51
101.6183182656789
  0
LINE
  5
5F2
330
1F
100
AcDbEntity
  8
TEXT
100
AcDbLine
 10
165.8038244845108
 20
-188.16444272402
 30
0.0
 11
165.8026252176612
 21
-188.2099822535982
 31
0.0
  0
ARC
  5
5F3
330
1F
100
AcDbEntity
  8
TEXT
100
AcDbCircle
 10
165.7849605089394
 20
-188.2108474007909
 30
0.0
 40
0.0176858817674158
100
AcDbArc
 50
165.3922446503649
 51
2.803879044206354
  0
LINE
  5
5F4
330
1F
100
AcDbEntity
  8
TEXT
100
AcDbLine
 10
165.7678463225499
 20
-188.2063870153685
 30
0.0
 11
165.7654477888508
 21
-188.1716331850129
 31
0.0
  0
ARC
  5
5F5
330
1F
100
AcDbEntity
  8
TEXT
100
AcDbCircle
 10
165.7499216288791
 20
-188.179411296848
 30
0.0
 40
0.0173655022151764
100
AcDbArc
 50
26.60941129939763
 51
166.0619000058105
  0
LINE
  5
5F6
330
1F
100
AcDbEntity
  8
TEXT
100
AcDbLine
 10
165.7330674274386
 20
-188.1752284077762
 30
0.0
 11
165.7330674274386
 21
-188.1908077115723
 31
0.0
  0
ARC
  5
5F7
330
1F
100
AcDbEntity
  8
TEXT
100
AcDbCircle
 10
165.7193201817663
 20
-188.1994469674823
 30
0.0
 40
0.0162364868814825
100
AcDbArc
 50
179.1163546128549
 51
32.1467084386666
  0
LINE
  5
5F8
330
1F
100
AcDbEntity
  8
TEXT
100
AcDbLine
 10
165.7030856258045
 20
-188.199196569842
 30
0.0
 11
165.7030856258045
 21
-188.2567201804532
 31
0.0
  0
ARC
  5
5F9
330
1F
100
AcDbEntity
  8
TEXT
100
AcDbCircle
 10
165.6814897885764
 20
-188.256997208386
 30
0.0
 40
0.0215976139899841
100
AcDbArc
 50
182.4450201076249
 51
0.7349407504797644
  0
LINE
  5
5FA
330
1F
100
AcDbEntity
  8
TEXT
100
AcDbLine
 10
165.6599118366673
 20
-188.2579185777301
 30
0.0
 11
165.6695059975428
 21
-188.1860140760659
 31
0.0
  0
ARC
  5
5FB
330
1F
100
AcDbEntity
  8
TEXT
100
AcDbCircle
 10
165.658323915431
 20
-188.187610030795
 30
0.0
 40
0.0112953987026185
100
AcDbArc
 50
8.12264254087343
 51
202.9043136183388
  0
LINE
  5
5FC
330
1F
100
AcDbEntity
  8
TEXT
100
AcDbLine
 10
165.6479190899346
 20
-188.1920061243155
 30
0.0
 11
165.6431220225364
 21
-188.2291567801577
 31
0.0
  0
ARC
  5
5FD
330
1F
100
AcDbEntity
  8
TEXT
100
AcDbCircle
 10
165.6293303885689
 20
-188.2284280447325
 30
0.0
 40
0.0138108733544406
100
AcDbArc
 50
183.0246359049376
 51
356.9753640950624
  0
LINE
  5
5FE
330
1F
100
AcDbEntity
  8
TEXT
100
AcDbLine
 10
165.6155387546014
 20
-188.2291567801577
 30
0.0
 11
165.6059445676469
 21
-188.2507281322034
 31
0.0
  0
LINE
  5
5FF
330
1F
100
AcDbEntity
  8
TEXT
100
AcDbLine
 10
166.2544006137354
 20
-188.4746844773369
 30
0.0
 11
166.3556635290533
 21
-188.4707317491136
 31
0.0
  0
LINE
  5
600
330
1F
100
AcDbEntity
  8
TEXT
100
AcDbLine
 10
166.4324018206581
 20
-188.4746844773369
 30
0.0
 11
166.5336647359761
 21
-188.4707317491136
 31
0.0
  0
LINE
  5
601
330
1F
100
AcDbEntity
  8
TEXT
100
AcDbLine
 10
166.2955386535241
 20
-188.5063063495211
 30
0.0
 11
166.2971208898359
 21
-188.6596724180148
 31
0.0
  0
LINE
  5
602
330
1F
100
AcDbEntity
  8
TEXT
100
AcDbLine
 10
166.3556635290533
 20
-188.4707317491136
 30
0.0
 11
166.357245765365
 21
-188.6446520383938
 31
0.0
  0
LINE
  5
603
330
1F
100
AcDbEntity
  8
TEXT
100
AcDbLine
 10
166.5336647359761
 20
-188.4707317491136
 30
0.0
 11
166.5352469722878
 21
-188.6501858640926
 31
0.0
  0
ARC
  5
604
330
1F
100
AcDbEntity
  8
TEXT
100
AcDbCircle
 10
166.2770329886287
 20
-188.5058807616469
 30
0.0
 40
0.0185105580212536
100
AcDbArc
 50
358.6825606331185
 51
106.4049357729608
  0
LINE
  5
605
330
1F
100
AcDbEntity
  8
TEXT
100
AcDbLine
 10
166.2544006137354
 20
-188.4746844773369
 30
0.0
 11
166.2551917188516
 21
-188.4857521442011
 31
0.0
  0
LINE
  5
606
330
1F
100
AcDbEntity
  8
TEXT
100
AcDbLine
 10
166.2718051610061
 20
-188.4881237749484
 30
0.0
 11
166.2551917188516
 21
-188.4857521442011
 31
0.0
  0
LINE
  5
607
330
1F
100
AcDbEntity
  8
TEXT
100
AcDbLine
 10
166.4324018206581
 20
-188.4746844773369
 30
0.0
 11
166.4316107155418
 21
-188.4897048724242
 31
0.0
  0
LINE
  5
608
330
1F
100
AcDbEntity
  8
TEXT
100
AcDbLine
 10
166.4316107155418
 20
-188.4897048724242
 30
0.0
 11
166.4600909169945
 21
-188.4912859699
 31
0.0
  0
LINE
  5
609
330
1F
100
AcDbEntity
  8
TEXT
100
AcDbLine
 10
166.4774954642656
 20
-188.658091320539
 30
0.0
 11
166.4767043591492
 21
-188.507096898259
 31
0.0
  0
ARC
  5
60A
330
1F
100
AcDbEntity
  8
TEXT
100
AcDbCircle
 10
166.4653983402109
 20
-188.5023429670184
 30
0.0
 40
0.0122648247632313
100
AcDbArc
 50
337.1943218370199
 51
115.6412778855074
  0
ARC
  5
60B
330
1F
100
AcDbEntity
  8
TEXT
100
AcDbCircle
 10
166.3580033541239
 20
-188.6588661742091
 30
0.0
 40
0.0608878024473341
100
AcDbArc
 50
180.7587023263156
 51
270.031539090741
  0
ARC
  5
60C
330
1F
100
AcDbEntity
  8
TEXT
100
AcDbCircle
 10
166.3820652914304
 20
-188.5820840434404
 30
0.0
 40
0.139751110854478
100
AcDbArc
 50
260.0995263030863
 51
313.0673878832553
  0
LINE
  5
60D
330
1F
100
AcDbEntity
  8
TEXT
100
AcDbLine
 10
166.4774954642656
 20
-188.6841793670243
 30
0.0
 11
166.4782865954608
 21
-188.7142201417327
 31
0.0
  0
ARC
  5
60E
330
1F
100
AcDbEntity
  8
TEXT
100
AcDbCircle
 10
166.4876414373594
 20
-188.7104972839985
 30
0.0
 40
0.0100684028850535
100
AcDbArc
 50
201.7006027724296
 51
343.0678677067683
  0
ARC
  5
60F
330
1F
100
AcDbEntity
  8
TEXT
100
AcDbCircle
 10
166.5748977113909
 20
-188.8948448832756
 30
0.0
 40
0.1973247184719365
100
AcDbArc
 50
88.18956599986867
 51
113.1652090520153
  0
LINE
  5
610
330
1F
100
AcDbEntity
  8
TEXT
100
AcDbLine
 10
166.6315849029304
 20
-188.383197384045
 30
0.0
 11
166.6374603612192
 21
-188.687662195577
 31
0.0
  0
LINE
  5
611
330
1F
100
AcDbEntity
  8
TEXT
100
AcDbLine
 10
166.6953661379858
 20
-188.3420895974781
 30
0.0
 11
166.6970542692137
 21
-188.4939118525295
 31
0.0
  0
ARC
  5
612
330
1F
100
AcDbEntity
  8
TEXT
100
AcDbCircle
 10
166.5711908839059
 20
-187.9830024557214
 30
0.0
 40
0.3799514036042447
100
AcDbArc
 50
273.5403564160214
 51
289.0758016785488
  0
LINE
  5
613
330
1F
100
AcDbEntity
  8
TEXT
100
AcDbLine
 10
166.5946534769076
 20
-188.3622287415066
 30
0.0
 11
166.5963321792758
 21
-188.3806811426096
 31
0.0
  0
LINE
  5
614
330
1F
100
AcDbEntity
  8
TEXT
100
AcDbLine
 10
166.5963321792758
 20
-188.3806811426096
 30
0.0
 11
166.6315849029304
 21
-188.383197384045
 31
0.0
  0
LINE
  5
615
330
1F
100
AcDbEntity
  8
TEXT
100
AcDbLine
 10
166.697893594319
 20
-188.5249454608086
 30
0.0
 11
166.6987329455031
 21
-188.6692097790074
 31
0.0
  0
ARC
  5
616
330
1F
100
AcDbEntity
  8
TEXT
100
AcDbCircle
 10
166.7958728516418
 20
-188.6245143872431
 30
0.0
 40
0.1637746448834882
100
AcDbArc
 50
71.07988584761961
 51
127.1124618564783
  0
ARC
  5
617
330
1F
100
AcDbEntity
  8
TEXT
100
AcDbCircle
 10
166.7959933020707
 20
-188.5708169613918
 30
0.0
 40
0.1142562801072371
100
AcDbArc
 50
359.8698564192901
 51
62.37231490188333
  0
ARC
  5
618
330
1F
100
AcDbEntity
  8
TEXT
100
AcDbCircle
 10
166.749723705564
 20
-188.5589047777921
 30
0.0
 40
0.0619644708011938
100
AcDbArc
 50
78.8707586499092
 51
146.7670066549792
  0
ARC
  5
619
330
1F
100
AcDbEntity
  8
TEXT
100
AcDbCircle
 10
166.7684542396114
 20
-188.5699391494117
 30
0.0
 40
0.0721518704931053
100
AcDbArc
 50
21.58325850317726
 51
95.38396011116695
  0
ARC
  5
61A
330
1F
100
AcDbEntity
  8
TEXT
100
AcDbCircle
 10
166.7627982753495
 20
-188.5945994148481
 30
0.0
 40
0.088960611637759
100
AcDbArc
 50
343.5952529167679
 51
35.1383608916705
  0
ARC
  5
61B
330
1F
100
AcDbEntity
  8
TEXT
100
AcDbCircle
 10
166.7340640361005
 20
-188.5653689473408
 30
0.0
 40
0.1558457845586532
100
AcDbArc
 50
231.693569770341
 51
269.6626044169057
  0
ARC
  5
61C
330
1F
100
AcDbEntity
  8
TEXT
100
AcDbCircle
 10
166.750220521875
 20
-188.5383216425758
 30
0.0
 40
0.1836856613538935
100
AcDbArc
 50
264.6664639047584
 51
308.6423664458195
  0
ARC
  5
61D
330
1F
100
AcDbEntity
  8
TEXT
100
AcDbCircle
 10
166.7716728269869
 20
-188.5789802082675
 30
0.0
 40
0.138801672189514
100
AcDbArc
 50
312.2086974257941
 51
3.264333629957773
  0
ARC
  5
61E
330
1F
100
AcDbEntity
  8
TEXT
100
AcDbCircle
 10
165.4012550762414
 20
-187.5091248218201
 30
0.0
 40
0.0204415862877363
100
AcDbArc
 50
32.93635467158811
 51
189.5430854165214
  0
ARC
  5
61F
330
1F
100
AcDbEntity
  8
TEXT
100
AcDbCircle
 10
165.4335284168904
 20
-187.4975007966485
 30
0.0
 40
0.0151258206016299
100
AcDbArc
 50
181.931421762249
 51
21.08009584439722
  0
ARC
  5
620
330
1F
100
AcDbEntity
  8
TEXT
100
AcDbCircle
 10
165.4589041189023
 20
-187.4943487714436
 30
0.0
 40
0.0114922508353156
100
AcDbArc
 50
3.320051391017492
 51
168.5145862198307
  0
ARC
  5
621
330
1F
100
AcDbEntity
  8
TEXT
100
AcDbCircle
 10
165.4833379595168
 20
-187.5006879574368
 30
0.0
 40
0.0147326429050978
100
AcDbArc
 50
151.6108765070523
 51
6.217261201770386
  0
ARC
  5
622
330
1F
100
AcDbEntity
  8
TEXT
100
AcDbCircle
 10
165.5096647765819
 20
-187.4984692499539
 30
0.0
 40
0.0116974376118937
100
AcDbArc
 50
7.567610287758502
 51
183.0538693842452
  0
ARC
  5
623
330
1F
100
AcDbEntity
  8
TEXT
100
AcDbCircle
 10
165.5305882654209
 20
-187.4918735013875
 30
0.0
 40
0.0106097046542174
100
AcDbArc
 50
208.4553291170892
 51
16.75507449313839
  0
ARC
  5
624
330
1F
100
AcDbEntity
  8
TEXT
100
AcDbCircle
 10
165.546699552765
 20
-187.4993303051734
 30
0.0
 40
0.0120830312488348
100
AcDbArc
 50
340.2175703033567
 51
119.5111127021389
  0
ARC
  5
625
330
1F
100
AcDbEntity
  8
TEXT
100
AcDbCircle
 10
165.5754654541422
 20
-187.5034839463264
 30
0.0
 40
0.0173960732958633
100
AcDbArc
 50
179.7887253899368
 51
338.3185482084478
  0
ARC
  5
626
330
1F
100
AcDbEntity
  8
TEXT
100
AcDbCircle
 10
165.6153613593917
 20
-187.5214394287359
 30
0.0
 40
0.026382716840622
100
AcDbArc
 50
51.76909225769374
 51
154.0890012254433
  0
ARC
  5
627
330
1F
100
AcDbEntity
  8
TEXT
100
AcDbCircle
 10
165.648872779398
 20
-187.4971354674754
 30
0.0
 40
0.0175538244621736
100
AcDbArc
 50
191.76678314421
 51
294.1224948725205
  0
ARC
  5
628
330
1F
100
AcDbEntity
  8
TEXT
100
AcDbCircle
 10
165.6694279949672
 20
-187.5088280308913
 30
0.0
 40
0.0140637895856828
100
AcDbArc
 50
13.33841226381384
 51
197.9246330182904
  0
ARC
  5
629
330
1F
100
AcDbEntity
  8
TEXT
100
AcDbCircle
 10
165.6980188898329
 20
-187.5047828082845
 30
0.0
 40
0.0149279721050864
100
AcDbArc
 50
183.0745908828774
 51
5.238726745826141
  0
ARC
  5
62A
330
1F
100
AcDbEntity
  8
TEXT
100
AcDbCircle
 10
165.7262459134573
 20
-187.5014515681118
 30
0.0
 40
0.0135055962967152
100
AcDbArc
 50
305.0065695459044
 51
188.3798152009864
  0
ARC
  5
62B
330
1F
100
AcDbEntity
  8
TEXT
100
AcDbCircle
 10
165.4254129824168
 20
-188.8084290936872
 30
0.0
 40
0.0211999344698838
100
AcDbArc
 50
225.9317407160086
 51
327.3216812937143
  0
ARC
  5
62C
330
1F
100
AcDbEntity
  8
TEXT
100
AcDbCircle
 10
165.6701433859606
 20
-188.8712944252954
 30
0.0
 40
0.0183790483469612
100
AcDbArc
 50
167.7181143692787
 51
23.98551077365507
  0
ARC
  5
62D
330
1F
100
AcDbEntity
  8
TEXT
100
AcDbCircle
 10
165.7597146986688
 20
-188.8487152644495
 30
0.0
 40
0.0222814355173959
100
AcDbArc
 50
170.7272794786002
 51
21.1579410394885
  0
LINE
  5
62E
330
1F
100
AcDbEntity
  8
TEXT
100
AcDbLine
 10
165.7804941204878
 20
-188.8406730012365
 30
0.0
 11
165.7787120411398
 21
-188.8077284284494
 31
0.0
  0
LINE
  5
62F
330
1F
100
AcDbEntity
  8
TEXT
100
AcDbLine
 10
165.825936935231
 20
-188.8130707803178
 30
0.0
 11
165.8348473058923
 21
-188.8593712714418
 31
0.0
  0
ARC
  5
630
330
1F
100
AcDbEntity
  8
TEXT
100
AcDbCircle
 10
165.8457964420958
 20
-188.8615636525801
 30
0.0
 40
0.0111664729730421
100
AcDbArc
 50
168.6772178130463
 51
20.84321825743664
  0
LINE
  5
631
330
1F
100
AcDbEntity
  8
TEXT
100
AcDbLine
 10
165.8562321537528
 20
-188.8575904874857
 30
0.0
 11
165.8562321537528
 21
-188.8264266986547
 31
0.0
  0
ARC
  5
632
330
1F
100
AcDbEntity
  8
TEXT
100
AcDbCircle
 10
165.8704822546438
 20
-188.8278313395882
 30
0.0
 40
0.0143191616917265
100
AcDbArc
 50
354.9255052590717
 51
174.3705062402905
  0
LINE
  5
633
330
1F
100
AcDbEntity
  8
TEXT
100
AcDbLine
 10
165.8847452929266
 20
-188.8290978823221
 30
0.0
 11
165.8883094255437
 21
-188.916356481769
 31
0.0
  0
ARC
  5
634
330
1F
100
AcDbEntity
  8
TEXT
100
AcDbCircle
 10
165.9060933650395
 20
-188.9145301935193
 30
0.0
 40
0.0178774671797511
100
AcDbArc
 50
185.8633287467225
 51
2.708827809510242
  0
LINE
  5
635
330
1F
100
AcDbEntity
  8
TEXT
100
AcDbLine
 10
165.9239508560306
 20
-188.9136852981016
 30
0.0
 11
165.9168225907964
 21
-188.8415633854814
 31
0.0
  0
LINE
  5
636
330
1F
100
AcDbEntity
  8
TEXT
100
AcDbLine
 10
165.9168225907964
 20
-188.8415633854814
 30
0.0
 11
165.9248418957046
 21
-188.8602616556866
 31
0.0
  0
ARC
  5
637
330
1F
100
AcDbEntity
  8
TEXT
100
AcDbCircle
 10
165.9365677355556
 20
-188.8538401317593
 30
0.0
 40
0.0133690422155094
100
AcDbArc
 50
208.706819647671
 51
351.5282258973497
  0
LINE
  5
638
330
1F
100
AcDbEntity
  8
TEXT
100
AcDbLine
 10
165.9497909022612
 20
-188.8558096880631
 30
0.0
 11
165.9488998625873
 21
-188.8424537851926
 31
0.0
  0
ARC
  5
639
330
1F
100
AcDbEntity
  8
TEXT
100
AcDbCircle
 10
165.9668906266206
 20
-188.8475568595584
 30
0.0
 40
0.0187005069045984
100
AcDbArc
 50
7.472141028411232
 51
164.1640293291628
  0
LINE
  5
63A
330
1F
100
AcDbEntity
  8
TEXT
100
AcDbLine
 10
165.985432332748
 20
-188.84512496886
 30
0.0
 11
165.9943426773303
 21
-188.9190276499699
 31
0.0
  0
ARC
  5
63B
330
1F
100
AcDbEntity
  8
TEXT
100
AcDbCircle
 10
166.0117288207413
 20
-188.9234781878088
 30
0.0
 40
0.0179467342367279
100
AcDbArc
 50
165.6416373020915
 51
23.37981978602639
  0
LINE
  5
63C
330
1F
100
AcDbEntity
  8
TEXT
100
AcDbLine
 10
166.0282020284693
 20
-188.916356481769
 30
0.0
 11
166.0254934420676
 21
-188.8501757793951
 31
0.0
  0
ARC
  5
63D
330
1F
100
AcDbEntity
  8
TEXT
100
AcDbCircle
 10
166.030583709462
 20
-188.8446846650604
 30
0.0
 40
0.0074875335580206
100
AcDbArc
 50
60.02231951668144
 51
227.1694577924199
  0
LINE
  5
63E
330
1F
100
AcDbEntity
  8
TEXT
100
AcDbLine
 10
166.0343249499675
 20
-188.8381988128987
 30
0.0
 11
166.0648918851269
 21
-188.8428679904153
 31
0.0
  0
ARC
  5
63F
330
1F
100
AcDbEntity
  8
TEXT
100
AcDbCircle
 10
166.062570405605
 20
-188.8562226137042
 30
0.0
 40
0.0135548969144405
100
AcDbArc
 50
327.1504341221704
 51
80.13862259361689
  0
LINE
  5
640
330
1F
100
AcDbEntity
  8
TEXT
100
AcDbLine
 10
166.0739578428368
 20
-188.863575266535
 30
0.0
 11
166.0784908347314
 21
-188.9923487331862
 31
0.0
  0
LINE
  5
641
330
1F
100
AcDbEntity
  8
TEXT
100
AcDbLine
 10
166.1166974173644
 20
-188.989760310138
 30
0.0
 11
166.1173449839094
 21
-188.8590455494005
 31
0.0
  0
ARC
  5
642
330
1F
100
AcDbEntity
  8
TEXT
100
AcDbCircle
 10
166.127537333083
 20
-188.8581392401896
 30
0.0
 40
0.0102325645886126
100
AcDbArc
 50
32.94435831946155
 51
185.0814072168599
  0
ARC
  5
643
330
1F
100
AcDbEntity
  8
TEXT
100
AcDbCircle
 10
166.156812845629
 20
-188.833290580213
 30
0.0
 40
0.0282821218467122
100
AcDbArc
 50
222.9877626572329
 51
344.3358851615632
  0
ARC
  5
644
330
1F
100
AcDbEntity
  8
TEXT
100
AcDbCircle
 10
166.1175037205216
 20
-188.8088761567591
 30
0.0
 40
0.0121730875667031
100
AcDbArc
 50
193.9319034609789
 51
333.0378283509302
  0
ARC
  5
645
330
1F
100
AcDbEntity
  8
TEXT
100
AcDbCircle
 10
166.0952200922416
 20
-188.8237973245459
 30
0.0
 40
0.0159172569840616
100
AcDbArc
 50
48.87596376792741
 51
143.795352979014
  0
ARC
  5
646
330
1F
100
AcDbEntity
  8
TEXT
100
AcDbCircle
 10
166.0647930969886
 20
-188.7983715516294
 30
0.0
 40
0.0237893523154895
100
AcDbArc
 50
218.2556843178574
 51
317.6564247238758
  0
ARC
  5
647
330
1F
100
AcDbEntity
  8
TEXT
100
AcDbCircle
 10
166.0977451730277
 20
-188.9932840601907
 30
0.0
 40
0.0192770428186735
100
AcDbArc
 50
177.2189023070876
 51
10.53261226457543
  0
TEXT
  5
648
330
1F
100
AcDbEntity
  8
TEXT
100
AcDbText
 10
154.3913221264662
 20
-191.3494152706241
 30
0.0
 40
0.15625
  1
ICE QUBE, INC.
 72
     1
 11
155.3158012931329
 21
-191.2712902706241
 31
0.0
100
AcDbText
 73
     2
  0
TEXT
  5
649
330
1F
100
AcDbEntity
  8
TEXT
100
AcDbText
 10
154.6102452389045
 20
-191.1150402706241
 30
0.0
 40
0.15625
  1
OR ALTERED WITHOUT AUTHORIZATION OF
 72
     1
 11
157.2664952389045
 21
-191.0369152706241
 31
0.0
100
AcDbText
 73
     2
  0
TEXT
  5
64A
330
1F
100
AcDbEntity
  8
TEXT
100
AcDbText
 10
154.4930577389045
 20
-190.8806652706241
 30
0.0
 40
0.15625
  1
QUBE, INC. AND IS NOT TO BE DUPLICATED
 72
     1
 11
157.2664952389045
 21
-190.8025402706241
 31
0.0
100
AcDbText
 73
     2
  0
TEXT
  5
64B
330
1F
100
AcDbEntity
  8
TEXT
100
AcDbText
 10
154.6362869055711
 20
-190.6462902706241
 30
0.0
 40
0.15625
  1
THIS DRAWING IS THE PROPERTY OF ICE
 72
     1
 11
157.2664952389045
 21
-190.5681652706241
 31
0.0
100
AcDbText
 73
     2
  0
TEXT
  5
64C
330
1F
100
AcDbEntity
  8
TEXT
100
AcDbText
 10
154.4019119055711
 20
-190.3337902706241
 30
0.0
 40
0.3125
  1
PROPRIETARY DRAWING
 72
     1
 11
157.2664952389045
 21
-190.1775402706241
 31
0.0
100
AcDbText
 73
     2
  0
LINE
  5
64D
330
1F
100
AcDbEntity
  8
THERMOSTATCVR
100
AcDbLine
 10
160.4399917588408
 20
-189.6526530722704
 30
0.0
 11
154.1523664559355
 21
-189.6526530722704
 31
0.0
  0
CIRCLE
  5
64E
330
1F
100
AcDbEntity
  8
DIM
100
AcDbCircle
 10
169.7802465730705
 20
-191.5831652706241
 30
0.0
 40
0.000625
  0
LINE
  5
64F
330
1F
100
AcDbEntity
  8
0
100
AcDbLine
 10
172.9052465730704
 20
-132.8581652706241
 30
0.0
 11
95.46668443965208
 21
-132.8581652706241
 31
0.0
  0
CIRCLE
  5
650
330
1F
100
AcDbEntity
  8
DIM
100
AcDbCircle
 10
169.7802465730705
 20
-132.8581652706241
 30
0.0
 40
0.000625
  0
TEXT
  5
66C
330
1F
100
AcDbEntity
  8
TEXT
100
AcDbText
 10
110.131102729281
 20
-189.958165270624
 30
0.0
 40
0.25
  1
JJH
 72
     1
 11
110.4644360626144
 21
-189.833165270624
 31
0.0
100
AcDbText
 73
     2
  0
TEXT
  5
66D
330
1F
100
AcDbEntity
  8
TEXT
100
AcDbText
 10
107.3875177729854
 20
-189.958165270624
 30
0.0
 40
0.25
  1
2-16-10
 72
     1
 11
108.1166844396521
 21
-189.833165270624
 31
0.0
100
AcDbText
 73
     2
  0
TEXT
  5
66E
330
1F
100
AcDbEntity
  8
TEXT
100
AcDbText
 10
98.58022610631877
 20
-189.4581652706239
 30
0.0
 40
0.25
  1
ADDED NOTE: CONTROLLER SIDE
 72
     1
 11
101.7885594396521
 21
-189.3331652706239
 31
0.0
100
AcDbText
 73
     2
  0
TEXT
  5
66F
330
1F
100
AcDbEntity
  8
TEXT
100
AcDbText
 10
95.97189277298541
 20
-189.958165270624
 30
0.0
 40
0.25
  1
1
 72
     1
 11
96.01355943965209
 21
-189.833165270624
 31
0.0
100
AcDbText
 73
     2
  0
LINE
  5
670
330
1F
100
AcDbEntity
  8
BORDER
100
AcDbLine
 10
111.7121876855767
 20
-189.5831652706239
 30
0.0
 11
95.46668443965208
 21
-189.5831652706239
 31
0.0
  0
TEXT
  5
671
330
1F
100
AcDbEntity
  8
TEXT
100
AcDbText
 10
97.91355943965211
 20
-189.9581652706238
 30
0.0
 40
0.25
  1
CHANGE POWER CORD & EHO CALLOUT
 72
     1
 11
101.7885594396521
 21
-189.8331652706239
 31
0.0
100
AcDbText
 73
     2
  0
MTEXT
  5
6AC
330
1F
100
AcDbEntity
  8
DIM
100
AcDbMText
 10
121.3229833117503
 20
-144.1532040942926
 30
0.0
 40
0.9999999999999998
 41
0.0
 71
     5
 72
     1
  1
CONTROLLER SIDE
 73
     1
 44
1.0
1001
ACAD
1000
MTEXTBEGIN
1070
    73
1070
     1
1070
    44
1040
1.0
1070
    74
1070
     0
1000
MTEXTEND
  0
LEADER
  5
6AE
330
1F
100
AcDbEntity
  8
0
100
AcDbLeader
  3
Standard
 76
     3
 10
135.0680137611849
 20
-151.4374279948152
 30
0.0
 10
130.0287602028438
 20
-144.1367022219546
 30
0.0
 10
128.623254293166
 20
-144.1367022219546
 30
0.0
1001
ACAD
1000
DSTYLE
1002
{
1070
   147
1040
0.09
1070
    77
1070
     0
1002
}
  0
LINE
  5
6B0
330
1F
100
AcDbEntity
  8
BORDER
100
AcDbLine
 10
111.7121876855767
 20
-189.0831652706237
 30
0.0
 11
95.46668443965208
 21
-189.0831652706237
 31
0.0
  0
TEXT
  5
6B1
330
1F
100
AcDbEntity
  8
TEXT
100
AcDbText
 10
95.93022610631875
 20
-189.4581652706239
 30
0.0
 40
0.25
  1
2
 72
     1
 11
96.01355943965209
 21
-189.3331652706239
 31
0.0
100
AcDbText
 73
     2
  0
TEXT
  5
6B2
330
1F
100
AcDbEntity
  8
TEXT
100
AcDbText
 10
107.3250177729854
 20
-189.4581652706239
 30
0.0
 40
0.25
  1
12-13-11
 72
     1
 11
108.1166844396521
 21
-189.3331652706239
 31
0.0
100
AcDbText
 73
     2
  0
TEXT
  5
6B3
330
1F
100
AcDbEntity
  8
TEXT
100
AcDbText
 10
110.131102729281
 20
-189.4581652706239
 30
0.0
 40
0.25
  1
JMH
 72
     1
 11
110.4644360626144
 21
-189.3331652706239
 31
0.0
100
AcDbText
 73
     2
  0
DIMENSION
  5
6CD
102
{ACAD_XDICTIONARY
360
6D8
102
}
102
{ACAD_REACTORS
330
6E0
102
}
330
1F
100
AcDbEntity
  8
0
100
AcDbDimension
  2
*D23
 10
141.4994156204246
 20
-162.1121706987007
 30
0.0
 11
120.7738210583649
 21
-163.7478507335757
 31
0.0
 70
   163
  1
<> (1)\POPTIONAL: ETHERNET/\PALARM CONNECTION \PPORT
 71
     5
 42
1.000000000000014
  3
Standard
100
AcDbDiametricDimension
 15
140.5025153922981
 25
-162.1908468396927
 35
0.0
 40
0.0
1001
ACAD
1000
DSTYLE
1002
{
1070
   288
1070
     1
1002
}
  0
TEXT
  5
6EF
330
1F
100
AcDbEntity
  8
TEXT
100
AcDbText
 10
95.93022610631875
 20
-188.9581652706238
 30
0.0
 40
0.25
  1
3
 72
     1
 11
96.01355943965209
 21
-188.8331652706238
 31
0.0
100
AcDbText
 73
     2
  0
TEXT
  5
6F0
330
1F
100
AcDbEntity
  8
TEXT
100
AcDbText
 10
96.89272610631878
 20
-188.9581652706238
 30
0.0
 40
0.25
  1
ETHERNET CONNECTION PORT %%C1.000 WAS %%C0.750
 72
     1
 11
101.7885594396521
 21
-188.8331652706238
 31
0.0
100
AcDbText
 73
     2
  0
TEXT
  5
6F1
330
1F
100
AcDbEntity
  8
TEXT
100
AcDbText
 10
107.3875177729854
 20
-188.9581652706238
 30
0.0
 40
0.25
  1
4-10-12
 72
     1
 11
108.1166844396521
 21
-188.8331652706238
 31
0.0
100
AcDbText
 73
     2
  0
TEXT
  5
6F2
330
1F
100
AcDbEntity
  8
TEXT
100
AcDbText
 10
110.131102729281
 20
-188.9581652706238
 30
0.0
 40
0.25
  1
JJH
 72
     1
 11
110.4644360626144
 21
-188.8331652706238
 31
0.0
100
AcDbText
 73
     2
  0
LINE
  5
6F3
330
1F
100
AcDbEntity
  8
BORDER
100
AcDbLine
 10
111.7121876855767
 20
-188.0831652706236
 30
0.0
 11
95.46668443965208
 21
-188.0831652706236
 31
0.0
  0
TEXT
  5
6F4
330
1F
100
AcDbEntity
  8
TEXT
100
AcDbText
 10
97.70522610631878
 20
-188.4581652706236
 30
0.0
 40
0.25
  1
ADDED ALARM TO ETHERNET CONN PORT
 72
     1
 11
101.7885594396521
 21
-188.3331652706236
 31
0.0
100
AcDbText
 73
     2
  0
ENDSEC
  0
SECTION
  2
OBJECTS
  0
DICTIONARY
  5
C
330
0
100
AcDbDictionary
281
     1
  3
ACAD_COLOR
350
73
  3
ACAD_GROUP
350
D
  3
ACAD_LAYOUT
350
1A
  3
ACAD_MATERIAL
350
72
  3
ACAD_MLINESTYLE
350
17
  3
ACAD_PLOTSETTINGS
350
19
  3
ACAD_PLOTSTYLENAME
350
E
  3
AcadDim
350
6AD
  3
ACDBHEADERROUNDTRIPXREC
350
70A
  3
AcDbVariableDictionary
350
66
  0
DICTIONARY
  5
154
330
2
100
AcDbDictionary
280
     1
281
     1
  3
ACAD_LAYERSTATES
360
155
  0
DICTIONARY
  5
1F1
330
1F0
100
AcDbDictionary
280
     1
281
     1
  3
ACAD_DIMASSOC
360
1F2
  0
DICTIONARY
  5
6D8
330
6CD
100
AcDbDictionary
280
     1
281
     1
  3
ACAD_DIMASSOC
360
6E0
  0
DICTIONARY
  5
73
102
{ACAD_REACTORS
330
C
102
}
330
C
100
AcDbDictionary
281
     1
  0
DICTIONARY
  5
D
102
{ACAD_REACTORS
330
C
102
}
330
C
100
AcDbDictionary
281
     1
  0
DICTIONARY
  5
1A
102
{ACAD_REACTORS
330
C
102
}
330
C
100
AcDbDictionary
281
     1
  3
Layout1
350
59
  3
Layout2
350
5E
  3
Model
350
22
  0
DICTIONARY
  5
72
102
{ACAD_REACTORS
330
C
102
}
330
C
100
AcDbDictionary
281
     1
  0
DICTIONARY
  5
17
102
{ACAD_REACTORS
330
C
102
}
330
C
100
AcDbDictionary
281
     1
  3
Standard
350
18
  0
DICTIONARY
  5
19
102
{ACAD_REACTORS
330
C
102
}
330
C
100
AcDbDictionary
281
     1
  0
ACDBDICTIONARYWDFLT
  5
E
102
{ACAD_REACTORS
330
C
102
}
330
C
100
AcDbDictionary
281
     1
  3
Normal
350
F
100
AcDbDictionaryWithDefault
340
F
  0
XRECORD
  5
6AD
102
{ACAD_REACTORS
330
C
102
}
330
C
100
AcDbXrecord
280
     1
 90
   990106
  3

 60
     0
 61
     0
 62
     1
 63
     3
 64
     0
 65
     0
 66
     0
 67
     3
 68
     1
 69
     0
 70
     0
 71
     0
 72
     0
 40
0.0
170
     0
  0
DICTIONARY
  5
70A
102
{ACAD_REACTORS
330
C
102
}
330
C
100
AcDbDictionary
281
     1
  3
COLORDICT
350
70C
  3
MATERIALDICT
350
70B
  0
DICTIONARY
  5
66
102
{ACAD_REACTORS
330
C
102
}
330
C
100
AcDbDictionary
281
     1
  3
DIMASSOC
350
67
  3
HIDETEXT
350
6B
  3
PROJECTNAME
350
89
  0
DICTIONARY
  5
155
102
{ACAD_REACTORS
330
154
102
}
330
154
100
AcDbDictionary
281
     1
  0
DIMASSOC
  5
1F2
102
{ACAD_REACTORS
330
1F1
102
}
330
1F1
100
AcDbDimAssoc
330
1F0
 90
        2
 70
     0
 71
     0
  1
AcDbOsnapPointRef
 72
     3
331
1E6
 73
     2
 91
        0
 40
0.0
 10
0.0
 20
0.0
 30
0.0
 75
     0
  0
DIMASSOC
  5
6E0
102
{ACAD_REACTORS
330
6D8
102
}
330
6D8
100
AcDbDimAssoc
330
6CD
 90
        2
 70
     0
 71
     0
  1
AcDbOsnapPointRef
 72
     3
331
1F9
 73
     2
 91
        0
 40
0.0
 10
0.0
 20
0.0
 30
0.0
 75
     0
  0
LAYOUT
  5
59
102
{ACAD_XDICTIONARY
360
70F
102
}
102
{ACAD_REACTORS
330
1A
102
}
330
1A
100
AcDbPlotSettings
  1

  2
None
  4

  6

 40
0.0
 41
0.0
 42
0.0
 43
0.0
 44
0.0
 45
0.0
 46
0.0
 47
0.0
 48
0.0
 49
0.0
140
0.0
141
0.0
142
1.0
143
1.0
 70
   688
 72
     0
 73
     0
 74
     5
  7

 75
    16
147
1.0
148
0.0
149
0.0
100
AcDbLayout
  1
Layout1
 70
     1
 71
     1
 10
0.0
 20
0.0
 11
12.0
 21
9.0
 12
0.0
 22
0.0
 32
0.0
 14
0.0
 24
0.0
 34
0.0
 15
0.0
 25
0.0
 35
0.0
146
0.0
 13
0.0
 23
0.0
 33
0.0
 16
1.0
 26
0.0
 36
0.0
 17
0.0
 27
1.0
 37
0.0
 76
     0
330
58
  0
LAYOUT
  5
5E
102
{ACAD_XDICTIONARY
360
711
102
}
102
{ACAD_REACTORS
330
1A
102
}
330
1A
100
AcDbPlotSettings
  1

  2
None
  4

  6

 40
0.0
 41
0.0
 42
0.0
 43
0.0
 44
0.0
 45
0.0
 46
0.0
 47
0.0
 48
0.0
 49
0.0
140
0.0
141
0.0
142
1.0
143
1.0
 70
   688
 72
     0
 73
     0
 74
     5
  7

 75
    16
147
1.0
148
0.0
149
0.0
100
AcDbLayout
  1
Layout2
 70
     1
 71
     2
 10
0.0
 20
0.0
 11
12.0
 21
9.0
 12
0.0
 22
0.0
 32
0.0
 14
0.0
 24
0.0
 34
0.0
 15
0.0
 25
0.0
 35
0.0
146
0.0
 13
0.0
 23
0.0
 33
0.0
 16
1.0
 26
0.0
 36
0.0
 17
0.0
 27
1.0
 37
0.0
 76
     0
330
5D
  0
LAYOUT
  5
22
102
{ACAD_XDICTIONARY
360
70D
102
}
102
{ACAD_REACTORS
330
1A
102
}
330
1A
100
AcDbPlotSettings
  1

  2
none_device
  4
ANSI_A_(8.50_x_11.00_Inches)
  6

 40
6.349999904632567
 41
19.04999923706055
 42
6.350006103515625
 43
19.04998779296875
 44
215.8999938964844
 45
279.3999938964844
 46
0.0
 47
0.0
 48
0.0
 49
0.0
140
0.0
141
0.0
142
1.0
143
2.584895464708373
 70
 11952
 72
     0
 73
     1
 74
     0
  7

 75
     0
147
0.3868628397755418
148
0.0
149
0.0
100
AcDbLayout
  1
Model
 70
     1
 71
     0
 10
0.0
 20
0.0
 11
12.0
 21
9.0
 12
0.0
 22
0.0
 32
0.0
 14
0.0
 24
0.0
 34
0.0
 15
0.0
 25
0.0
 35
0.0
146
0.0
 13
0.0
 23
0.0
 33
0.0
 16
1.0
 26
0.0
 36
0.0
 17
0.0
 27
1.0
 37
0.0
 76
     0
330
1F
  0
MLINESTYLE
  5
18
102
{ACAD_REACTORS
330
17
102
}
330
17
100
AcDbMlineStyle
  2
STANDARD
 70
     0
  3

 62
   256
 51
90.0
 52
90.0
 71
     2
 49
0.5
 62
   256
  6
BYLAYER
 49
-0.5
 62
   256
  6
BYLAYER
  0
ACDBPLACEHOLDER
  5
F
102
{ACAD_REACTORS
330
E
102
}
330
E
  0
XRECORD
  5
70C
102
{ACAD_REACTORS
330
70A
102
}
330
70A
100
AcDbXrecord
280
     1
340
73
  0
XRECORD
  5
70B
102
{ACAD_REACTORS
330
70A
102
}
330
70A
100
AcDbXrecord
280
     1
340
72
  0
DICTIONARYVAR
  5
67
102
{ACAD_REACTORS
330
66
102
}
330
66
100
DictionaryVariables
280
     0
  1
2
  0
DICTIONARYVAR
  5
6B
102
{ACAD_REACTORS
330
66
102
}
330
66
100
DictionaryVariables
280
     0
  1
1
  0
DICTIONARYVAR
  5
89
102
{ACAD_REACTORS
330
66
102
}
330
66
100
DictionaryVariables
280
     0
  1

  0
DICTIONARY
  5
70F
330
59
100
AcDbDictionary
280
     1
281
     1
  3
ACAD_XREC_ROUNDTRIP
360
710
  0
DICTIONARY
  5
711
330
5E
100
AcDbDictionary
280
     1
281
     1
  3
ACAD_XREC_ROUNDTRIP
360
712
  0
DICTIONARY
  5
70D
330
22
100
AcDbDictionary
280
     1
281
     1
  3
ACAD_XREC_ROUNDTRIP
360
70E
  0
XRECORD
  5
710
102
{ACAD_REACTORS
330
70F
102
}
330
70F
100
AcDbXrecord
280
     1
102
SHADEPLOT
 70
     0
102
SHADEPLOTRESLEVEL
 70
     2
102
SHADEPLOTCUSTOMDPI
 70
   300
  0
XRECORD
  5
712
102
{ACAD_REACTORS
330
711
102
}
330
711
100
AcDbXrecord
280
     1
102
SHADEPLOT
 70
     0
102
SHADEPLOTRESLEVEL
 70
     2
102
SHADEPLOTCUSTOMDPI
 70
   300
  0
XRECORD
  5
70E
102
{ACAD_REACTORS
330
70D
102
}
330
70D
100
AcDbXrecord
280
     1
102
SHADEPLOT
 70
     0
102
SHADEPLOTRESLEVEL
 70
     2
102
SHADEPLOTCUSTOMDPI
 70
   300
  0
ENDSEC
  0
EOF
