  0
SECTION
  2
HEADER
  9
$ACADVER
  1
AC1015
  9
$ACADMAINTVER
 70
    20
  9
$DWGCODEPAGE
  3
ANSI_1252
  9
$INSBASE
 10
0.0
 20
0.0
 30
0.0
  9
$EXTMIN
 10
-113.2900878081053
 20
-33.63897510969636
 30
0.0
  9
$EXTMAX
 10
119.6297762617083
 20
149.4037982970989
 30
0.0006666841011908
  9
$LIMMIN
 10
0.0
 20
0.0
  9
$LIMMAX
 10
12.0
 20
9.0
  9
$ORTHOMODE
 70
     0
  9
$REGENMODE
 70
     1
  9
$FILLMODE
 70
     1
  9
$QTEXTMODE
 70
     0
  9
$MIRRTEXT
 70
     0
  9
$LTSCALE
 40
1.0
  9
$ATTMODE
 70
     1
  9
$TEXTSIZE
 40
0.2
  9
$TRACEWID
 40
0.05
  9
$TEXTSTYLE
  7
Standard
  9
$CLAYER
  8
0
  9
$CELTYPE
  6
ByLayer
  9
$CECOLOR
 62
   256
  9
$CELTSCALE
 40
1.0
  9
$DISPSILH
 70
     0
  9
$DIMSCALE
 40
1.0
  9
$DIMASZ
 40
1.25
  9
$DIMEXO
 40
0.375
  9
$DIMDLI
 40
0.38
  9
$DIMRND
 40
0.0
  9
$DIMDLE
 40
0.0
  9
$DIMEXE
 40
0.18
  9
$DIMTP
 40
0.0
  9
$DIMTM
 40
0.0
  9
$DIMTXT
 40
1.25
  9
$DIMCEN
 40
0.09
  9
$DIMTSZ
 40
0.0
  9
$DIMTOL
 70
     0
  9
$DIMLIM
 70
     0
  9
$DIMTIH
 70
     1
  9
$DIMTOH
 70
     1
  9
$DIMSE1
 70
     0
  9
$DIMSE2
 70
     0
  9
$DIMTAD
 70
     0
  9
$DIMZIN
 70
     0
  9
$DIMBLK
  1

  9
$DIMASO
 70
     1
  9
$DIMSHO
 70
     1
  9
$DIMPOST
  1

  9
$DIMAPOST
  1

  9
$DIMALT
 70
     0
  9
$DIMALTD
 70
     2
  9
$DIMALTF
 40
25.4
  9
$DIMLFAC
 40
1.0
  9
$DIMTOFL
 70
     0
  9
$DIMTVP
 40
0.0
  9
$DIMTIX
 70
     0
  9
$DIMSOXD
 70
     0
  9
$DIMSAH
 70
     0
  9
$DIMBLK1
  1

  9
$DIMBLK2
  1

  9
$DIMSTYLE
  2
Standard
  9
$DIMCLRD
 70
     0
  9
$DIMCLRE
 70
     0
  9
$DIMCLRT
 70
     0
  9
$DIMTFAC
 40
1.0
  9
$DIMGAP
 40
0.09
  9
$DIMJUST
 70
     0
  9
$DIMSD1
 70
     0
  9
$DIMSD2
 70
     0
  9
$DIMTOLJ
 70
     1
  9
$DIMTZIN
 70
     0
  9
$DIMALTZ
 70
     0
  9
$DIMALTTZ
 70
     0
  9
$DIMUPT
 70
     0
  9
$DIMDEC
 70
     3
  9
$DIMTDEC
 70
     3
  9
$DIMALTU
 70
     2
  9
$DIMALTTD
 70
     2
  9
$DIMTXSTY
  7
Standard
  9
$DIMAUNIT
 70
     0
  9
$DIMADEC
 70
     0
  9
$DIMALTRND
 40
0.0
  9
$DIMAZIN
 70
     0
  9
$DIMDSEP
 70
    46
  9
$DIMATFIT
 70
     3
  9
$DIMFRAC
 70
     0
  9
$DIMLDRBLK
  1

  9
$DIMLUNIT
 70
     2
  9
$DIMLWD
 70
    -2
  9
$DIMLWE
 70
    -2
  9
$DIMTMOVE
 70
     0
  9
$LUNITS
 70
     2
  9
$LUPREC
 70
     4
  9
$SKETCHINC
 40
0.1
  9
$FILLETRAD
 40
0.0
  9
$AUNITS
 70
     0
  9
$AUPREC
 70
     0
  9
$MENU
  1
.
  9
$ELEVATION
 40
0.0
  9
$PELEVATION
 40
0.0
  9
$THICKNESS
 40
0.0
  9
$LIMCHECK
 70
     0
  9
$CHAMFERA
 40
0.0
  9
$CHAMFERB
 40
0.0
  9
$CHAMFERC
 40
0.0
  9
$CHAMFERD
 40
0.0
  9
$SKPOLY
 70
     0
  9
$TDCREATE
 40
2455096.454501759
  9
$TDUCREATE
 40
2455096.621168426
  9
$TDUPDATE
 40
2455786.650922847
  9
$TDUUPDATE
 40
2455786.817589514
  9
$TDINDWG
 40
0.0099984954
  9
$TDUSRTIMER
 40
0.0099975926
  9
$USRTIMER
 70
     1
  9
$ANGBASE
 50
0.0
  9
$ANGDIR
 70
     0
  9
$PDMODE
 70
     0
  9
$PDSIZE
 40
0.0
  9
$PLINEWID
 40
0.0
  9
$SPLFRAME
 70
     0
  9
$SPLINETYPE
 70
     6
  9
$SPLINESEGS
 70
     8
  9
$HANDSEED
  5
B70
  9
$SURFTAB1
 70
     6
  9
$SURFTAB2
 70
     6
  9
$SURFTYPE
 70
     6
  9
$SURFU
 70
     6
  9
$SURFV
 70
     6
  9
$UCSBASE
  2

  9
$UCSNAME
  2

  9
$UCSORG
 10
0.0
 20
0.0
 30
0.0
  9
$UCSXDIR
 10
1.0
 20
0.0
 30
0.0
  9
$UCSYDIR
 10
0.0
 20
1.0
 30
0.0
  9
$UCSORTHOREF
  2

  9
$UCSORTHOVIEW
 70
     0
  9
$UCSORGTOP
 10
0.0
 20
0.0
 30
0.0
  9
$UCSORGBOTTOM
 10
0.0
 20
0.0
 30
0.0
  9
$UCSORGLEFT
 10
0.0
 20
0.0
 30
0.0
  9
$UCSORGRIGHT
 10
0.0
 20
0.0
 30
0.0
  9
$UCSORGFRONT
 10
0.0
 20
0.0
 30
0.0
  9
$UCSORGBACK
 10
0.0
 20
0.0
 30
0.0
  9
$PUCSBASE
  2

  9
$PUCSNAME
  2

  9
$PUCSORG
 10
0.0
 20
0.0
 30
0.0
  9
$PUCSXDIR
 10
1.0
 20
0.0
 30
0.0
  9
$PUCSYDIR
 10
0.0
 20
1.0
 30
0.0
  9
$PUCSORTHOREF
  2

  9
$PUCSORTHOVIEW
 70
     0
  9
$PUCSORGTOP
 10
0.0
 20
0.0
 30
0.0
  9
$PUCSORGBOTTOM
 10
0.0
 20
0.0
 30
0.0
  9
$PUCSORGLEFT
 10
0.0
 20
0.0
 30
0.0
  9
$PUCSORGRIGHT
 10
0.0
 20
0.0
 30
0.0
  9
$PUCSORGFRONT
 10
0.0
 20
0.0
 30
0.0
  9
$PUCSORGBACK
 10
0.0
 20
0.0
 30
0.0
  9
$USERI1
 70
     0
  9
$USERI2
 70
     0
  9
$USERI3
 70
     0
  9
$USERI4
 70
     0
  9
$USERI5
 70
     0
  9
$USERR1
 40
0.0
  9
$USERR2
 40
0.0
  9
$USERR3
 40
0.0
  9
$USERR4
 40
0.0
  9
$USERR5
 40
0.0
  9
$WORLDVIEW
 70
     1
  9
$SHADEDGE
 70
     3
  9
$SHADEDIF
 70
    70
  9
$TILEMODE
 70
     1
  9
$MAXACTVP
 70
    64
  9
$PINSBASE
 10
0.0
 20
0.0
 30
0.0
  9
$PLIMCHECK
 70
     0
  9
$PEXTMIN
 10
0.0
 20
0.0
 30
0.0
  9
$PEXTMAX
 10
0.0
 20
0.0
 30
0.0
  9
$PLIMMIN
 10
0.0
 20
0.0
  9
$PLIMMAX
 10
12.0
 20
9.0
  9
$UNITMODE
 70
     0
  9
$VISRETAIN
 70
     1
  9
$PLINEGEN
 70
     0
  9
$PSLTSCALE
 70
     1
  9
$TREEDEPTH
 70
  3020
  9
$CMLSTYLE
  2
Standard
  9
$CMLJUST
 70
     0
  9
$CMLSCALE
 40
1.0
  9
$PROXYGRAPHICS
 70
     1
  9
$MEASUREMENT
 70
     0
  9
$CELWEIGHT
370
    -1
  9
$ENDCAPS
280
     0
  9
$JOINSTYLE
280
     0
  9
$LWDISPLAY
290
     0
  9
$INSUNITS
 70
     1
  9
$HYPERLINKBASE
  1

  9
$STYLESHEET
  1

  9
$XEDIT
290
     1
  9
$CEPSNTYPE
380
     0
  9
$PSTYLEMODE
290
     1
  9
$FINGERPRINTGUID
  2
{FDEAD576-A652-11D2-9A35-0060089B3A3F}
  9
$VERSIONGUID
  2
{AB943557-63C3-4F1C-971D-431CDDE3FAED}
  9
$EXTNAMES
290
     1
  9
$PSVPSCALE
 40
0.0
  9
$OLESTARTUP
290
     0
  0
ENDSEC
  0
SECTION
  2
CLASSES
  0
CLASS
  1
ACDBDICTIONARYWDFLT
  2
AcDbDictionaryWithDefault
  3
ObjectDBX Classes
 90
        0
280
     0
281
     0
  0
CLASS
  1
ACDBPLACEHOLDER
  2
AcDbPlaceHolder
  3
ObjectDBX Classes
 90
        0
280
     0
281
     0
  0
CLASS
  1
LAYOUT
  2
AcDbLayout
  3
ObjectDBX Classes
 90
        0
280
     0
281
     0
  0
CLASS
  1
DICTIONARYVAR
  2
AcDbDictionaryVar
  3
ObjectDBX Classes
 90
        0
280
     0
281
     0
  0
CLASS
  1
DIMASSOC
  2
AcDbDimAssoc
  3
"AcDbDimAssoc|Product Desc:     AcDim ARX App For Dimension|Company:          Autodesk, Inc.|WEB Address:      www.autodesk.com"
 90
        0
280
     0
281
     0
  0
ENDSEC
  0
SECTION
  2
TABLES
  0
TABLE
  2
VPORT
  5
8
330
0
100
AcDbSymbolTable
 70
     5
  0
VPORT
  5
B66
330
8
100
AcDbSymbolTableRecord
100
AcDbViewportTableRecord
  2
*Active
 70
     0
 10
0.0
 20
0.0
 11
1.0
 21
1.0
 12
56.23446844141665
 22
30.16195683149931
 13
0.0
 23
0.0
 14
0.5
 24
0.5
 15
0.5
 25
0.5
 16
0.0
 26
0.0
 36
1.0
 17
0.0
 27
0.0
 37
0.0
 40
212.8797033480173
 41
2.028571428571428
 42
50.0
 43
0.0
 44
0.0
 50
0.0
 51
0.0
 71
     0
 72
  1000
 73
     1
 74
     3
 75
     0
 76
     0
 77
     0
 78
     0
281
     0
 65
     1
110
0.0
120
0.0
130
0.0
111
1.0
121
0.0
131
0.0
112
0.0
122
1.0
132
0.0
 79
     0
146
0.0
  0
ENDTAB
  0
TABLE
  2
LTYPE
  5
5
330
0
100
AcDbSymbolTable
 70
     2
  0
LTYPE
  5
14
330
5
100
AcDbSymbolTableRecord
100
AcDbLinetypeTableRecord
  2
ByBlock
 70
     0
  3

 72
    65
 73
     0
 40
0.0
  0
LTYPE
  5
15
330
5
100
AcDbSymbolTableRecord
100
AcDbLinetypeTableRecord
  2
ByLayer
 70
     0
  3

 72
    65
 73
     0
 40
0.0
  0
LTYPE
  5
16
330
5
100
AcDbSymbolTableRecord
100
AcDbLinetypeTableRecord
  2
Continuous
 70
     0
  3
Solid line
 72
    65
 73
     0
 40
0.0
  0
LTYPE
  5
179
330
5
100
AcDbSymbolTableRecord
100
AcDbLinetypeTableRecord
  2
DASHED
 70
     0
  3
Dashed __ __ __ __ __ __ __ __ __ __ __ __ __ _
 72
    65
 73
     2
 40
0.75
 49
0.5
 74
     0
 49
-0.25
 74
     0
  0
ENDTAB
  0
TABLE
  2
LAYER
  5
2
102
{ACAD_XDICTIONARY
360
181
102
}
330
0
100
AcDbSymbolTable
 70
     8
  0
LAYER
  5
10
330
2
100
AcDbSymbolTableRecord
100
AcDbLayerTableRecord
  2
0
 70
     0
 62
     7
  6
Continuous
370
    -3
390
F
  0
LAYER
  5
17A
330
2
100
AcDbSymbolTableRecord
100
AcDbLayerTableRecord
  2
Defpoints
 70
     0
 62
     7
  6
Continuous
290
     0
370
    -3
390
F
  0
LAYER
  5
17B
330
2
100
AcDbSymbolTableRecord
100
AcDbLayerTableRecord
  2
TEXT
 70
     0
 62
    -7
  6
Continuous
370
    -3
390
F
  0
LAYER
  5
17C
330
2
100
AcDbSymbolTableRecord
100
AcDbLayerTableRecord
  2
DIM
 70
     0
 62
     7
  6
Continuous
370
    -3
390
F
  0
LAYER
  5
17D
330
2
100
AcDbSymbolTableRecord
100
AcDbLayerTableRecord
  2
TEMPLATE
 70
     0
 62
     7
  6
Continuous
370
    -3
390
F
  0
LAYER
  5
17E
330
2
100
AcDbSymbolTableRecord
100
AcDbLayerTableRecord
  2
Dimension
 70
     0
 62
     7
  6
Continuous
370
    -3
390
F
  0
LAYER
  5
17F
330
2
100
AcDbSymbolTableRecord
100
AcDbLayerTableRecord
  2
THERMOSTATCVR
 70
     0
 62
     7
  6
Continuous
370
    -3
390
F
  0
LAYER
  5
180
330
2
100
AcDbSymbolTableRecord
100
AcDbLayerTableRecord
  2
BORDER
 70
     0
 62
     7
  6
Continuous
370
    -3
390
F
  0
ENDTAB
  0
TABLE
  2
STYLE
  5
3
330
0
100
AcDbSymbolTable
 70
     1
  0
STYLE
  5
11
330
3
100
AcDbSymbolTableRecord
100
AcDbTextStyleTableRecord
  2
Standard
 70
     0
 40
0.0
 41
1.0
 50
0.0
 71
     0
 42
0.2
  3
txt
  4

  0
ENDTAB
  0
TABLE
  2
VIEW
  5
6
330
0
100
AcDbSymbolTable
 70
     0
  0
ENDTAB
  0
TABLE
  2
UCS
  5
7
330
0
100
AcDbSymbolTable
 70
     0
  0
ENDTAB
  0
TABLE
  2
APPID
  5
9
330
0
100
AcDbSymbolTable
 70
     1
  0
APPID
  5
12
330
9
100
AcDbSymbolTableRecord
100
AcDbRegAppTableRecord
  2
ACAD
 70
     0
  0
ENDTAB
  0
TABLE
  2
DIMSTYLE
  5
A
330
0
100
AcDbSymbolTable
 70
     1
100
AcDbDimStyleTable
 71
     1
340
27
  0
DIMSTYLE
105
27
102
{ACAD_REACTORS
330
84D
330
866
330
867
330
868
330
86A
330
86B
330
874
330
875
330
876
330
877
330
878
330
879
330
87C
330
87D
330
87E
330
87F
330
880
330
881
330
882
330
883
330
884
330
885
330
886
330
887
330
888
330
889
330
88A
330
88B
330
88C
330
88D
330
88E
330
88F
330
B36
102
}
330
A
100
AcDbSymbolTableRecord
100
AcDbDimStyleTableRecord
  2
Standard
 70
     0
 41
1.25
 42
0.375
140
1.25
271
     3
272
     3
340
11
  0
ENDTAB
  0
TABLE
  2
BLOCK_RECORD
  5
1
330
0
100
AcDbSymbolTable
 70
   123
  0
BLOCK_RECORD
  5
1F
330
1
100
AcDbSymbolTableRecord
100
AcDbBlockTableRecord
  2
*Model_Space
340
22
  0
BLOCK_RECORD
  5
58
330
1
100
AcDbSymbolTableRecord
100
AcDbBlockTableRecord
  2
*Paper_Space
340
59
  0
BLOCK_RECORD
  5
5D
330
1
100
AcDbSymbolTableRecord
100
AcDbBlockTableRecord
  2
*Paper_Space0
340
5E
  0
BLOCK_RECORD
  5
89
330
1
100
AcDbSymbolTableRecord
100
AcDbBlockTableRecord
  2
*D1
340
0
  0
BLOCK_RECORD
  5
91
330
1
100
AcDbSymbolTableRecord
100
AcDbBlockTableRecord
  2
*D2
340
0
  0
BLOCK_RECORD
  5
99
330
1
100
AcDbSymbolTableRecord
100
AcDbBlockTableRecord
  2
*D3
340
0
  0
BLOCK_RECORD
  5
A1
330
1
100
AcDbSymbolTableRecord
100
AcDbBlockTableRecord
  2
*D4
340
0
  0
BLOCK_RECORD
  5
A9
330
1
100
AcDbSymbolTableRecord
100
AcDbBlockTableRecord
  2
*D5
340
0
  0
BLOCK_RECORD
  5
B1
330
1
100
AcDbSymbolTableRecord
100
AcDbBlockTableRecord
  2
*D6
340
0
  0
BLOCK_RECORD
  5
B9
330
1
100
AcDbSymbolTableRecord
100
AcDbBlockTableRecord
  2
*D7
340
0
  0
BLOCK_RECORD
  5
C1
330
1
100
AcDbSymbolTableRecord
100
AcDbBlockTableRecord
  2
*D8
340
0
  0
BLOCK_RECORD
  5
CB
330
1
100
AcDbSymbolTableRecord
100
AcDbBlockTableRecord
  2
*D9
340
0
  0
BLOCK_RECORD
  5
D5
330
1
100
AcDbSymbolTableRecord
100
AcDbBlockTableRecord
  2
*D10
340
0
  0
BLOCK_RECORD
  5
DF
330
1
100
AcDbSymbolTableRecord
100
AcDbBlockTableRecord
  2
*D11
340
0
  0
BLOCK_RECORD
  5
E9
330
1
100
AcDbSymbolTableRecord
100
AcDbBlockTableRecord
  2
*D12
340
0
  0
BLOCK_RECORD
  5
F1
330
1
100
AcDbSymbolTableRecord
100
AcDbBlockTableRecord
  2
*D13
340
0
  0
BLOCK_RECORD
  5
F9
330
1
100
AcDbSymbolTableRecord
100
AcDbBlockTableRecord
  2
*D14
340
0
  0
BLOCK_RECORD
  5
101
330
1
100
AcDbSymbolTableRecord
100
AcDbBlockTableRecord
  2
*D15
340
0
  0
BLOCK_RECORD
  5
109
330
1
100
AcDbSymbolTableRecord
100
AcDbBlockTableRecord
  2
*D16
340
0
  0
BLOCK_RECORD
  5
113
330
1
100
AcDbSymbolTableRecord
100
AcDbBlockTableRecord
  2
*D17
340
0
  0
BLOCK_RECORD
  5
11D
330
1
100
AcDbSymbolTableRecord
100
AcDbBlockTableRecord
  2
*D18
340
0
  0
BLOCK_RECORD
  5
127
330
1
100
AcDbSymbolTableRecord
100
AcDbBlockTableRecord
  2
*D19
340
0
  0
BLOCK_RECORD
  5
131
330
1
100
AcDbSymbolTableRecord
100
AcDbBlockTableRecord
  2
*D20
340
0
  0
BLOCK_RECORD
  5
139
330
1
100
AcDbSymbolTableRecord
100
AcDbBlockTableRecord
  2
*D21
340
0
  0
BLOCK_RECORD
  5
141
330
1
100
AcDbSymbolTableRecord
100
AcDbBlockTableRecord
  2
*D22
340
0
  0
BLOCK_RECORD
  5
149
330
1
100
AcDbSymbolTableRecord
100
AcDbBlockTableRecord
  2
*D23
340
0
  0
BLOCK_RECORD
  5
151
330
1
100
AcDbSymbolTableRecord
100
AcDbBlockTableRecord
  2
*D24
340
0
  0
BLOCK_RECORD
  5
159
330
1
100
AcDbSymbolTableRecord
100
AcDbBlockTableRecord
  2
*D25
340
0
  0
BLOCK_RECORD
  5
161
330
1
100
AcDbSymbolTableRecord
100
AcDbBlockTableRecord
  2
*D26
340
0
  0
BLOCK_RECORD
  5
169
330
1
100
AcDbSymbolTableRecord
100
AcDbBlockTableRecord
  2
*D27
340
0
  0
BLOCK_RECORD
  5
171
330
1
100
AcDbSymbolTableRecord
100
AcDbBlockTableRecord
  2
*D28
340
0
  0
BLOCK_RECORD
  5
48D
330
1
100
AcDbSymbolTableRecord
100
AcDbBlockTableRecord
  2
*D29
340
0
  0
BLOCK_RECORD
  5
495
330
1
100
AcDbSymbolTableRecord
100
AcDbBlockTableRecord
  2
*D30
340
0
  0
BLOCK_RECORD
  5
49D
330
1
100
AcDbSymbolTableRecord
100
AcDbBlockTableRecord
  2
*D31
340
0
  0
BLOCK_RECORD
  5
4A5
330
1
100
AcDbSymbolTableRecord
100
AcDbBlockTableRecord
  2
*D32
340
0
  0
BLOCK_RECORD
  5
4AD
330
1
100
AcDbSymbolTableRecord
100
AcDbBlockTableRecord
  2
*D33
340
0
  0
BLOCK_RECORD
  5
4B5
330
1
100
AcDbSymbolTableRecord
100
AcDbBlockTableRecord
  2
*D34
340
0
  0
BLOCK_RECORD
  5
4BD
330
1
100
AcDbSymbolTableRecord
100
AcDbBlockTableRecord
  2
*D35
340
0
  0
BLOCK_RECORD
  5
4C5
330
1
100
AcDbSymbolTableRecord
100
AcDbBlockTableRecord
  2
*D36
340
0
  0
BLOCK_RECORD
  5
4CD
330
1
100
AcDbSymbolTableRecord
100
AcDbBlockTableRecord
  2
*D37
340
0
  0
BLOCK_RECORD
  5
4D5
330
1
100
AcDbSymbolTableRecord
100
AcDbBlockTableRecord
  2
*D38
340
0
  0
BLOCK_RECORD
  5
4DF
330
1
100
AcDbSymbolTableRecord
100
AcDbBlockTableRecord
  2
*D39
340
0
  0
BLOCK_RECORD
  5
4E9
330
1
100
AcDbSymbolTableRecord
100
AcDbBlockTableRecord
  2
*D40
340
0
  0
BLOCK_RECORD
  5
4F3
330
1
100
AcDbSymbolTableRecord
100
AcDbBlockTableRecord
  2
*D41
340
0
  0
BLOCK_RECORD
  5
4FD
330
1
100
AcDbSymbolTableRecord
100
AcDbBlockTableRecord
  2
*D42
340
0
  0
BLOCK_RECORD
  5
505
330
1
100
AcDbSymbolTableRecord
100
AcDbBlockTableRecord
  2
*D43
340
0
  0
BLOCK_RECORD
  5
50D
330
1
100
AcDbSymbolTableRecord
100
AcDbBlockTableRecord
  2
*D44
340
0
  0
BLOCK_RECORD
  5
515
330
1
100
AcDbSymbolTableRecord
100
AcDbBlockTableRecord
  2
*D45
340
0
  0
BLOCK_RECORD
  5
51D
330
1
100
AcDbSymbolTableRecord
100
AcDbBlockTableRecord
  2
*D46
340
0
  0
BLOCK_RECORD
  5
527
330
1
100
AcDbSymbolTableRecord
100
AcDbBlockTableRecord
  2
*D47
340
0
  0
BLOCK_RECORD
  5
531
330
1
100
AcDbSymbolTableRecord
100
AcDbBlockTableRecord
  2
*D48
340
0
  0
BLOCK_RECORD
  5
53B
330
1
100
AcDbSymbolTableRecord
100
AcDbBlockTableRecord
  2
*D49
340
0
  0
BLOCK_RECORD
  5
545
330
1
100
AcDbSymbolTableRecord
100
AcDbBlockTableRecord
  2
*D50
340
0
  0
BLOCK_RECORD
  5
54D
330
1
100
AcDbSymbolTableRecord
100
AcDbBlockTableRecord
  2
*D51
340
0
  0
BLOCK_RECORD
  5
555
330
1
100
AcDbSymbolTableRecord
100
AcDbBlockTableRecord
  2
*D52
340
0
  0
BLOCK_RECORD
  5
55D
330
1
100
AcDbSymbolTableRecord
100
AcDbBlockTableRecord
  2
*D53
340
0
  0
BLOCK_RECORD
  5
565
330
1
100
AcDbSymbolTableRecord
100
AcDbBlockTableRecord
  2
*D54
340
0
  0
BLOCK_RECORD
  5
56D
330
1
100
AcDbSymbolTableRecord
100
AcDbBlockTableRecord
  2
*D55
340
0
  0
BLOCK_RECORD
  5
575
330
1
100
AcDbSymbolTableRecord
100
AcDbBlockTableRecord
  2
*D56
340
0
  0
BLOCK_RECORD
  5
6D2
330
1
100
AcDbSymbolTableRecord
100
AcDbBlockTableRecord
  2
*D57
340
0
  0
BLOCK_RECORD
  5
6DA
330
1
100
AcDbSymbolTableRecord
100
AcDbBlockTableRecord
  2
*D58
340
0
  0
BLOCK_RECORD
  5
6E2
330
1
100
AcDbSymbolTableRecord
100
AcDbBlockTableRecord
  2
*D59
340
0
  0
BLOCK_RECORD
  5
6EA
330
1
100
AcDbSymbolTableRecord
100
AcDbBlockTableRecord
  2
*D60
340
0
  0
BLOCK_RECORD
  5
6F2
330
1
100
AcDbSymbolTableRecord
100
AcDbBlockTableRecord
  2
*D61
340
0
  0
BLOCK_RECORD
  5
6FA
330
1
100
AcDbSymbolTableRecord
100
AcDbBlockTableRecord
  2
*D62
340
0
  0
BLOCK_RECORD
  5
702
330
1
100
AcDbSymbolTableRecord
100
AcDbBlockTableRecord
  2
*D63
340
0
  0
BLOCK_RECORD
  5
70A
330
1
100
AcDbSymbolTableRecord
100
AcDbBlockTableRecord
  2
*D64
340
0
  0
BLOCK_RECORD
  5
714
330
1
100
AcDbSymbolTableRecord
100
AcDbBlockTableRecord
  2
*D65
340
0
  0
BLOCK_RECORD
  5
71E
330
1
100
AcDbSymbolTableRecord
100
AcDbBlockTableRecord
  2
*D66
340
0
  0
BLOCK_RECORD
  5
728
330
1
100
AcDbSymbolTableRecord
100
AcDbBlockTableRecord
  2
*D67
340
0
  0
BLOCK_RECORD
  5
732
330
1
100
AcDbSymbolTableRecord
100
AcDbBlockTableRecord
  2
*D68
340
0
  0
BLOCK_RECORD
  5
73A
330
1
100
AcDbSymbolTableRecord
100
AcDbBlockTableRecord
  2
*D69
340
0
  0
BLOCK_RECORD
  5
742
330
1
100
AcDbSymbolTableRecord
100
AcDbBlockTableRecord
  2
*D70
340
0
  0
BLOCK_RECORD
  5
74A
330
1
100
AcDbSymbolTableRecord
100
AcDbBlockTableRecord
  2
*D71
340
0
  0
BLOCK_RECORD
  5
752
330
1
100
AcDbSymbolTableRecord
100
AcDbBlockTableRecord
  2
*D72
340
0
  0
BLOCK_RECORD
  5
75C
330
1
100
AcDbSymbolTableRecord
100
AcDbBlockTableRecord
  2
*D73
340
0
  0
BLOCK_RECORD
  5
766
330
1
100
AcDbSymbolTableRecord
100
AcDbBlockTableRecord
  2
*D74
340
0
  0
BLOCK_RECORD
  5
770
330
1
100
AcDbSymbolTableRecord
100
AcDbBlockTableRecord
  2
*D75
340
0
  0
BLOCK_RECORD
  5
77A
330
1
100
AcDbSymbolTableRecord
100
AcDbBlockTableRecord
  2
*D76
340
0
  0
BLOCK_RECORD
  5
782
330
1
100
AcDbSymbolTableRecord
100
AcDbBlockTableRecord
  2
*D77
340
0
  0
BLOCK_RECORD
  5
78A
330
1
100
AcDbSymbolTableRecord
100
AcDbBlockTableRecord
  2
*D78
340
0
  0
BLOCK_RECORD
  5
792
330
1
100
AcDbSymbolTableRecord
100
AcDbBlockTableRecord
  2
*D79
340
0
  0
BLOCK_RECORD
  5
79A
330
1
100
AcDbSymbolTableRecord
100
AcDbBlockTableRecord
  2
*D80
340
0
  0
BLOCK_RECORD
  5
7A2
330
1
100
AcDbSymbolTableRecord
100
AcDbBlockTableRecord
  2
*D81
340
0
  0
BLOCK_RECORD
  5
7AA
330
1
100
AcDbSymbolTableRecord
100
AcDbBlockTableRecord
  2
*D82
340
0
  0
BLOCK_RECORD
  5
7B2
330
1
100
AcDbSymbolTableRecord
100
AcDbBlockTableRecord
  2
*D83
340
0
  0
BLOCK_RECORD
  5
7BA
330
1
100
AcDbSymbolTableRecord
100
AcDbBlockTableRecord
  2
*D84
340
0
  0
BLOCK_RECORD
  5
7C2
330
1
100
AcDbSymbolTableRecord
100
AcDbBlockTableRecord
  2
*D85
340
0
  0
BLOCK_RECORD
  5
7CA
330
1
100
AcDbSymbolTableRecord
100
AcDbBlockTableRecord
  2
*D86
340
0
  0
BLOCK_RECORD
  5
7D4
330
1
100
AcDbSymbolTableRecord
100
AcDbBlockTableRecord
  2
*D87
340
0
  0
BLOCK_RECORD
  5
7DF
330
1
100
AcDbSymbolTableRecord
100
AcDbBlockTableRecord
  2
*D88
340
0
  0
BLOCK_RECORD
  5
8AA
330
1
100
AcDbSymbolTableRecord
100
AcDbBlockTableRecord
  2
*D90
340
0
  0
BLOCK_RECORD
  5
8B7
330
1
100
AcDbSymbolTableRecord
100
AcDbBlockTableRecord
  2
*D91
340
0
  0
BLOCK_RECORD
  5
8C2
330
1
100
AcDbSymbolTableRecord
100
AcDbBlockTableRecord
  2
*D92
340
0
  0
BLOCK_RECORD
  5
8CC
330
1
100
AcDbSymbolTableRecord
100
AcDbBlockTableRecord
  2
*D93
340
0
  0
BLOCK_RECORD
  5
8D4
330
1
100
AcDbSymbolTableRecord
100
AcDbBlockTableRecord
  2
*D94
340
0
  0
BLOCK_RECORD
  5
8DC
330
1
100
AcDbSymbolTableRecord
100
AcDbBlockTableRecord
  2
*D95
340
0
  0
BLOCK_RECORD
  5
8E4
330
1
100
AcDbSymbolTableRecord
100
AcDbBlockTableRecord
  2
*D96
340
0
  0
BLOCK_RECORD
  5
8EC
330
1
100
AcDbSymbolTableRecord
100
AcDbBlockTableRecord
  2
*D97
340
0
  0
BLOCK_RECORD
  5
8F4
330
1
100
AcDbSymbolTableRecord
100
AcDbBlockTableRecord
  2
*D98
340
0
  0
BLOCK_RECORD
  5
8FC
330
1
100
AcDbSymbolTableRecord
100
AcDbBlockTableRecord
  2
*D99
340
0
  0
BLOCK_RECORD
  5
904
330
1
100
AcDbSymbolTableRecord
100
AcDbBlockTableRecord
  2
*D100
340
0
  0
BLOCK_RECORD
  5
90C
330
1
100
AcDbSymbolTableRecord
100
AcDbBlockTableRecord
  2
*D101
340
0
  0
BLOCK_RECORD
  5
914
330
1
100
AcDbSymbolTableRecord
100
AcDbBlockTableRecord
  2
*D102
340
0
  0
BLOCK_RECORD
  5
91C
330
1
100
AcDbSymbolTableRecord
100
AcDbBlockTableRecord
  2
*D103
340
0
  0
BLOCK_RECORD
  5
926
330
1
100
AcDbSymbolTableRecord
100
AcDbBlockTableRecord
  2
*D104
340
0
  0
BLOCK_RECORD
  5
930
330
1
100
AcDbSymbolTableRecord
100
AcDbBlockTableRecord
  2
*D105
340
0
  0
BLOCK_RECORD
  5
93A
330
1
100
AcDbSymbolTableRecord
100
AcDbBlockTableRecord
  2
*D106
340
0
  0
BLOCK_RECORD
  5
944
330
1
100
AcDbSymbolTableRecord
100
AcDbBlockTableRecord
  2
*D107
340
0
  0
BLOCK_RECORD
  5
94C
330
1
100
AcDbSymbolTableRecord
100
AcDbBlockTableRecord
  2
*D108
340
0
  0
BLOCK_RECORD
  5
954
330
1
100
AcDbSymbolTableRecord
100
AcDbBlockTableRecord
  2
*D109
340
0
  0
BLOCK_RECORD
  5
95C
330
1
100
AcDbSymbolTableRecord
100
AcDbBlockTableRecord
  2
*D110
340
0
  0
BLOCK_RECORD
  5
964
330
1
100
AcDbSymbolTableRecord
100
AcDbBlockTableRecord
  2
*D111
340
0
  0
BLOCK_RECORD
  5
96E
330
1
100
AcDbSymbolTableRecord
100
AcDbBlockTableRecord
  2
*D112
340
0
  0
BLOCK_RECORD
  5
978
330
1
100
AcDbSymbolTableRecord
100
AcDbBlockTableRecord
  2
*D113
340
0
  0
BLOCK_RECORD
  5
982
330
1
100
AcDbSymbolTableRecord
100
AcDbBlockTableRecord
  2
*D114
340
0
  0
BLOCK_RECORD
  5
98C
330
1
100
AcDbSymbolTableRecord
100
AcDbBlockTableRecord
  2
*D115
340
0
  0
BLOCK_RECORD
  5
994
330
1
100
AcDbSymbolTableRecord
100
AcDbBlockTableRecord
  2
*D116
340
0
  0
BLOCK_RECORD
  5
99C
330
1
100
AcDbSymbolTableRecord
100
AcDbBlockTableRecord
  2
*D117
340
0
  0
BLOCK_RECORD
  5
9A4
330
1
100
AcDbSymbolTableRecord
100
AcDbBlockTableRecord
  2
*D118
340
0
  0
BLOCK_RECORD
  5
9AC
330
1
100
AcDbSymbolTableRecord
100
AcDbBlockTableRecord
  2
*D119
340
0
  0
BLOCK_RECORD
  5
9B4
330
1
100
AcDbSymbolTableRecord
100
AcDbBlockTableRecord
  2
*D120
340
0
  0
BLOCK_RECORD
  5
9BC
330
1
100
AcDbSymbolTableRecord
100
AcDbBlockTableRecord
  2
*D121
340
0
  0
BLOCK_RECORD
  5
B37
330
1
100
AcDbSymbolTableRecord
100
AcDbBlockTableRecord
  2
*D122
340
0
  0
ENDTAB
  0
ENDSEC
  0
SECTION
  2
BLOCKS
  0
BLOCK
  5
20
330
1F
100
AcDbEntity
  8
0
100
AcDbBlockBegin
  2
*Model_Space
 70
     0
 10
0.0
 20
0.0
 30
0.0
  3
*Model_Space
  1

  0
ENDBLK
  5
21
330
1F
100
AcDbEntity
  8
0
100
AcDbBlockEnd
  0
BLOCK
  5
5A
330
58
100
AcDbEntity
 67
     1
  8
0
100
AcDbBlockBegin
  2
*Paper_Space
 70
     0
 10
0.0
 20
0.0
 30
0.0
  3
*Paper_Space
  1

  0
ENDBLK
  5
5B
330
58
100
AcDbEntity
 67
     1
  8
0
100
AcDbBlockEnd
  0
BLOCK
  5
5F
330
5D
100
AcDbEntity
  8
0
100
AcDbBlockBegin
  2
*Paper_Space0
 70
     0
 10
0.0
 20
0.0
 30
0.0
  3
*Paper_Space0
  1

  0
ENDBLK
  5
60
330
5D
100
AcDbEntity
  8
0
100
AcDbBlockEnd
  0
BLOCK
  5
8A
330
89
100
AcDbEntity
  8
0
100
AcDbBlockBegin
  2
*D1
 70
     1
 10
0.0
 20
0.0
 30
0.0
  3
*D1
  1

  0
LINE
  5
8B
330
89
100
AcDbEntity
  8
DIM
 62
     0
370
    -2
100
AcDbLine
 10
227.369863877283
 20
212.8518363500145
 30
0.0
 11
225.7345972133478
 21
212.8518363500145
 31
0.0
  0
MTEXT
  5
8C
330
89
100
AcDbEntity
  8
DIM
 62
     0
100
AcDbMText
 10
223.2762638800144
 20
212.8518363500145
 30
0.0
 40
1.25
 41
0.0
 71
     5
 72
     1
  1
\A1;0.000
 73
     1
 44
1.0
1001
ACAD
1000
MTEXTBEGIN
1070
    73
1070
     1
1070
    44
1040
1.0
1070
    74
1070
     0
1000
MTEXTEND
  0
POINT
  5
8D
330
89
100
AcDbEntity
  8
Defpoints
 62
     0
100
AcDbPoint
 10
227.744863877283
 20
212.8518363500145
 30
0.0
  0
POINT
  5
8E
330
89
100
AcDbEntity
  8
Defpoints
 62
     0
100
AcDbPoint
 10
225.7345972133478
 20
212.8518363500145
 30
0.0
  0
POINT
  5
8F
330
89
100
AcDbEntity
  8
Defpoints
 62
     0
100
AcDbPoint
 10
227.7448195323461
 20
212.8518694495319
 30
0.0
  0
ENDBLK
  5
90
330
89
100
AcDbEntity
  8
0
100
AcDbBlockEnd
  0
BLOCK
  5
92
330
91
100
AcDbEntity
  8
0
100
AcDbBlockBegin
  2
*D2
 70
     1
 10
0.0
 20
0.0
 30
0.0
  3
*D2
  1

  0
LINE
  5
93
330
91
100
AcDbEntity
  8
DIM
 62
     0
370
    -2
100
AcDbLine
 10
228.782863877283
 20
222.8518363500145
 30
0.0
 11
225.7167402835686
 21
222.8518363500145
 31
0.0
  0
MTEXT
  5
94
330
91
100
AcDbEntity
  8
DIM
 62
     0
100
AcDbMText
 10
222.8417402835686
 20
222.8518363500145
 30
0.0
 40
1.25
 41
0.0
 71
     5
 72
     1
  1
\A1;10.000
 73
     1
 44
1.0
1001
ACAD
1000
MTEXTBEGIN
1070
    73
1070
     1
1070
    44
1040
1.0
1070
    74
1070
     0
1000
MTEXTEND
  0
POINT
  5
95
330
91
100
AcDbEntity
  8
Defpoints
 62
     0
100
AcDbPoint
 10
229.157863877283
 20
222.8518363500145
 30
0.0
  0
POINT
  5
96
330
91
100
AcDbEntity
  8
Defpoints
 62
     0
100
AcDbPoint
 10
225.7167402835686
 20
222.8518363500145
 30
0.0
  0
POINT
  5
97
330
91
100
AcDbEntity
  8
Defpoints
 62
     0
100
AcDbPoint
 10
227.7448195323461
 20
212.8518694495319
 30
0.0
  0
ENDBLK
  5
98
330
91
100
AcDbEntity
  8
0
100
AcDbBlockEnd
  0
BLOCK
  5
9A
330
99
100
AcDbEntity
  8
0
100
AcDbBlockBegin
  2
*D3
 70
     1
 10
0.0
 20
0.0
 30
0.0
  3
*D3
  1

  0
LINE
  5
9B
330
99
100
AcDbEntity
  8
DIM
 62
     0
370
    -2
100
AcDbLine
 10
231.9458638772831
 20
231.8518363500146
 30
0.0
 11
225.7167402835686
 21
231.8518363500146
 31
0.0
  0
MTEXT
  5
9C
330
99
100
AcDbEntity
  8
DIM
 62
     0
100
AcDbMText
 10
222.737573616902
 20
231.8518363500146
 30
0.0
 40
1.25
 41
0.0
 71
     5
 72
     1
  1
\A1;19.000
 73
     1
 44
1.0
1001
ACAD
1000
MTEXTBEGIN
1070
    73
1070
     1
1070
    44
1040
1.0
1070
    74
1070
     0
1000
MTEXTEND
  0
POINT
  5
9D
330
99
100
AcDbEntity
  8
Defpoints
 62
     0
100
AcDbPoint
 10
232.320863877283
 20
231.8518363500146
 30
0.0
  0
POINT
  5
9E
330
99
100
AcDbEntity
  8
Defpoints
 62
     0
100
AcDbPoint
 10
225.7167402835686
 20
231.8518363500146
 30
0.0
  0
POINT
  5
9F
330
99
100
AcDbEntity
  8
Defpoints
 62
     0
100
AcDbPoint
 10
227.7448195323461
 20
212.8518694495319
 30
0.0
  0
ENDBLK
  5
A0
330
99
100
AcDbEntity
  8
0
100
AcDbBlockEnd
  0
BLOCK
  5
A2
330
A1
100
AcDbEntity
  8
0
100
AcDbBlockBegin
  2
*D4
 70
     1
 10
0.0
 20
0.0
 30
0.0
  3
*D4
  1

  0
LINE
  5
A3
330
A1
100
AcDbEntity
  8
DIM
 62
     0
370
    -2
100
AcDbLine
 10
227.744863877283
 20
212.4768363500145
 30
0.0
 11
227.744863877283
 21
210.7733557620313
 31
0.0
  0
MTEXT
  5
A4
330
A1
100
AcDbEntity
  8
DIM
 62
     0
100
AcDbMText
 10
227.744863877283
 20
208.315022428698
 30
0.0
 40
1.25
 41
0.0
 71
     5
 72
     1
  1
\A1;0.000
 11
0.0000000000000001
 21
1.0
 31
0.0
 73
     1
 44
1.0
1001
ACAD
1000
MTEXTBEGIN
1070
    73
1070
     1
1070
    44
1040
1.0
1070
    74
1070
     0
1000
MTEXTEND
  0
POINT
  5
A5
330
A1
100
AcDbEntity
  8
Defpoints
 62
     0
100
AcDbPoint
 10
227.744863877283
 20
212.8518363500145
 30
0.0
  0
POINT
  5
A6
330
A1
100
AcDbEntity
  8
Defpoints
 62
     0
100
AcDbPoint
 10
227.744863877283
 20
210.7733557620313
 30
0.0
  0
POINT
  5
A7
330
A1
100
AcDbEntity
  8
Defpoints
 62
     0
100
AcDbPoint
 10
227.7448195323461
 20
212.8518694495319
 30
0.0
  0
ENDBLK
  5
A8
330
A1
100
AcDbEntity
  8
0
100
AcDbBlockEnd
  0
BLOCK
  5
AA
330
A9
100
AcDbEntity
  8
0
100
AcDbBlockBegin
  2
*D5
 70
     1
 10
0.0
 20
0.0
 30
0.0
  3
*D5
  1

  0
LINE
  5
AB
330
A9
100
AcDbEntity
  8
DIM
 62
     0
370
    -2
100
AcDbLine
 10
245.3968638772829
 20
212.4768363500145
 30
0.0
 11
245.3968638772829
 21
210.962006890443
 31
0.0
  0
MTEXT
  5
AC
330
A9
100
AcDbEntity
  8
DIM
 62
     0
100
AcDbMText
 10
245.3968638772829
 20
207.6703402237764
 30
0.0
 40
1.25
 41
0.0
 71
     5
 72
     1
  1
\A1;17.652
 11
0.0000000000000001
 21
1.0
 31
0.0
 73
     1
 44
1.0
1001
ACAD
1000
MTEXTBEGIN
1070
    73
1070
     1
1070
    44
1040
1.0
1070
    74
1070
     0
1000
MTEXTEND
  0
POINT
  5
AD
330
A9
100
AcDbEntity
  8
Defpoints
 62
     0
100
AcDbPoint
 10
245.3968638772829
 20
212.8518363500145
 30
0.0
  0
POINT
  5
AE
330
A9
100
AcDbEntity
  8
Defpoints
 62
     0
100
AcDbPoint
 10
245.3968638772829
 20
210.962006890443
 30
0.0
  0
POINT
  5
AF
330
A9
100
AcDbEntity
  8
Defpoints
 62
     0
100
AcDbPoint
 10
227.7448195323461
 20
212.8518694495319
 30
0.0
  0
ENDBLK
  5
B0
330
A9
100
AcDbEntity
  8
0
100
AcDbBlockEnd
  0
BLOCK
  5
B2
330
B1
100
AcDbEntity
  8
0
100
AcDbBlockBegin
  2
*D6
 70
     1
 10
0.0
 20
0.0
 30
0.0
  3
*D6
  1

  0
LINE
  5
B3
330
B1
100
AcDbEntity
  8
DIM
 62
     0
370
    -2
100
AcDbLine
 10
232.320863877283
 20
231.4768363500145
 30
0.0
 11
232.320863877283
 21
210.822366021189
 31
0.0
  0
MTEXT
  5
B4
330
B1
100
AcDbEntity
  8
DIM
 62
     0
100
AcDbMText
 10
232.320863877283
 20
207.947366021189
 30
0.0
 40
1.25
 41
0.0
 71
     5
 72
     1
  1
\A1;4.576
 11
0.0000000000000001
 21
1.0
 31
0.0
 73
     1
 44
1.0
1001
ACAD
1000
MTEXTBEGIN
1070
    73
1070
     1
1070
    44
1040
1.0
1070
    74
1070
     0
1000
MTEXTEND
  0
POINT
  5
B5
330
B1
100
AcDbEntity
  8
Defpoints
 62
     0
100
AcDbPoint
 10
232.320863877283
 20
231.8518363500146
 30
0.0
  0
POINT
  5
B6
330
B1
100
AcDbEntity
  8
Defpoints
 62
     0
100
AcDbPoint
 10
232.320863877283
 20
210.822366021189
 30
0.0
  0
POINT
  5
B7
330
B1
100
AcDbEntity
  8
Defpoints
 62
     0
100
AcDbPoint
 10
227.7448195323461
 20
212.8518694495319
 30
0.0
  0
ENDBLK
  5
B8
330
B1
100
AcDbEntity
  8
0
100
AcDbBlockEnd
  0
BLOCK
  5
BA
330
B9
100
AcDbEntity
  8
0
100
AcDbBlockBegin
  2
*D7
 70
     1
 10
0.0
 20
0.0
 30
0.0
  3
*D7
  1

  0
LINE
  5
BB
330
B9
100
AcDbEntity
  8
DIM
 62
     0
370
    -2
100
AcDbLine
 10
240.820863877283
 20
231.4768363500145
 30
0.0
 11
240.820863877283
 21
210.822366021189
 31
0.0
  0
MTEXT
  5
BC
330
B9
100
AcDbEntity
  8
DIM
 62
     0
100
AcDbMText
 10
240.820863877283
 20
207.634866021189
 30
0.0
 40
1.25
 41
0.0
 71
     5
 72
     1
  1
\A1;13.076
 11
0.0000000000000001
 21
1.0
 31
0.0
 73
     1
 44
1.0
1001
ACAD
1000
MTEXTBEGIN
1070
    73
1070
     1
1070
    44
1040
1.0
1070
    74
1070
     0
1000
MTEXTEND
  0
POINT
  5
BD
330
B9
100
AcDbEntity
  8
Defpoints
 62
     0
100
AcDbPoint
 10
240.820863877283
 20
231.8518363500146
 30
0.0
  0
POINT
  5
BE
330
B9
100
AcDbEntity
  8
Defpoints
 62
     0
100
AcDbPoint
 10
240.820863877283
 20
210.822366021189
 30
0.0
  0
POINT
  5
BF
330
B9
100
AcDbEntity
  8
Defpoints
 62
     0
100
AcDbPoint
 10
227.7448195323461
 20
212.8518694495319
 30
0.0
  0
ENDBLK
  5
C0
330
B9
100
AcDbEntity
  8
0
100
AcDbBlockEnd
  0
BLOCK
  5
C2
330
C1
100
AcDbEntity
  8
0
100
AcDbBlockBegin
  2
*D8
 70
     1
 10
0.0
 20
0.0
 30
0.0
  3
*D8
  1

  0
LINE
  5
C3
330
C1
100
AcDbEntity
  8
DIM
 62
     0
370
    -2
100
AcDbLine
 10
229.157863877283
 20
222.4768363500146
 30
0.0
 11
229.157863877283
 21
215.822366021189
 31
0.0
  0
LINE
  5
C4
330
C1
100
AcDbEntity
  8
DIM
 62
     0
370
    -2
100
AcDbLine
 10
229.157863877283
 20
215.822366021189
 30
0.0
 11
230.033545106786
 21
213.322366021189
 31
0.0
  0
LINE
  5
C5
330
C1
100
AcDbEntity
  8
DIM
 62
     0
370
    -2
100
AcDbLine
 10
230.033545106786
 20
213.322366021189
 30
0.0
 11
230.033545106786
 21
210.822366021189
 31
0.0
  0
MTEXT
  5
C6
330
C1
100
AcDbEntity
  8
DIM
 62
     0
100
AcDbMText
 10
230.0335451067859
 20
208.3640326878557
 30
0.0
 40
1.25
 41
0.0
 71
     5
 72
     1
  1
\A1;1.413
 11
0.0000000000000001
 21
1.0
 31
0.0
 73
     1
 44
1.0
1001
ACAD
1000
MTEXTBEGIN
1070
    73
1070
     1
1070
    44
1040
1.0
1070
    74
1070
     0
1000
MTEXTEND
  0
POINT
  5
C7
330
C1
100
AcDbEntity
  8
Defpoints
 62
     0
100
AcDbPoint
 10
229.157863877283
 20
222.8518363500145
 30
0.0
  0
POINT
  5
C8
330
C1
100
AcDbEntity
  8
Defpoints
 62
     0
100
AcDbPoint
 10
230.033545106786
 20
210.822366021189
 30
0.0
  0
POINT
  5
C9
330
C1
100
AcDbEntity
  8
Defpoints
 62
     0
100
AcDbPoint
 10
227.7448195323461
 20
212.8518694495319
 30
0.0
  0
ENDBLK
  5
CA
330
C1
100
AcDbEntity
  8
0
100
AcDbBlockEnd
  0
BLOCK
  5
CC
330
CB
100
AcDbEntity
  8
0
100
AcDbBlockBegin
  2
*D9
 70
     1
 10
0.0
 20
0.0
 30
0.0
  3
*D9
  1

  0
LINE
  5
CD
330
CB
100
AcDbEntity
  8
DIM
 62
     0
370
    -2
100
AcDbLine
 10
244.006863877283
 20
222.4768363500146
 30
0.0
 11
244.006863877283
 21
215.822366021189
 31
0.0
  0
LINE
  5
CE
330
CB
100
AcDbEntity
  8
DIM
 62
     0
370
    -2
100
AcDbLine
 10
244.006863877283
 20
215.822366021189
 30
0.0
 11
242.8904629917771
 21
213.322366021189
 31
0.0
  0
LINE
  5
CF
330
CB
100
AcDbEntity
  8
DIM
 62
     0
370
    -2
100
AcDbLine
 10
242.8904629917771
 20
213.322366021189
 30
0.0
 11
242.8904629917771
 21
210.822366021189
 31
0.0
  0
MTEXT
  5
D0
330
CB
100
AcDbEntity
  8
DIM
 62
     0
100
AcDbMText
 10
242.8904629917771
 20
207.5306993545224
 30
0.0
 40
1.25
 41
0.0
 71
     5
 72
     1
  1
\A1;16.262
 11
0.0000000000000001
 21
1.0
 31
0.0
 73
     1
 44
1.0
1001
ACAD
1000
MTEXTBEGIN
1070
    73
1070
     1
1070
    44
1040
1.0
1070
    74
1070
     0
1000
MTEXTEND
  0
POINT
  5
D1
330
CB
100
AcDbEntity
  8
Defpoints
 62
     0
100
AcDbPoint
 10
244.006863877283
 20
222.8518363500145
 30
0.0
  0
POINT
  5
D2
330
CB
100
AcDbEntity
  8
Defpoints
 62
     0
100
AcDbPoint
 10
242.8904629917771
 20
210.822366021189
 30
0.0
  0
POINT
  5
D3
330
CB
100
AcDbEntity
  8
Defpoints
 62
     0
100
AcDbPoint
 10
227.7448195323461
 20
212.8518694495319
 30
0.0
  0
ENDBLK
  5
D4
330
CB
100
AcDbEntity
  8
0
100
AcDbBlockEnd
  0
BLOCK
  5
D6
330
D5
100
AcDbEntity
  8
0
100
AcDbBlockBegin
  2
*D10
 70
     1
 10
0.0
 20
0.0
 30
0.0
  3
*D10
  1

  0
LINE
  5
D7
330
D5
100
AcDbEntity
  8
DIM
 62
     0
370
    -2
100
AcDbLine
 10
232.695863877283
 20
238.4768363500145
 30
0.0
 11
232.695863877283
 21
215.822366021189
 31
0.0
  0
LINE
  5
D8
330
D5
100
AcDbEntity
  8
DIM
 62
     0
370
    -2
100
AcDbLine
 10
232.695863877283
 20
215.822366021189
 30
0.0
 11
234.2809208447299
 21
213.322366021189
 31
0.0
  0
LINE
  5
D9
330
D5
100
AcDbEntity
  8
DIM
 62
     0
370
    -2
100
AcDbLine
 10
234.2809208447299
 20
213.322366021189
 30
0.0
 11
234.2809208447299
 21
210.822366021189
 31
0.0
  0
MTEXT
  5
DA
330
D5
100
AcDbEntity
  8
DIM
 62
     0
100
AcDbMText
 10
234.2809208447298
 20
208.1556993545224
 30
0.0
 40
1.25
 41
0.0
 71
     5
 72
     1
  1
\A1;4.951
 11
0.0000000000000001
 21
1.0
 31
0.0
 73
     1
 44
1.0
1001
ACAD
1000
MTEXTBEGIN
1070
    73
1070
     1
1070
    44
1040
1.0
1070
    74
1070
     0
1000
MTEXTEND
  0
POINT
  5
DB
330
D5
100
AcDbEntity
  8
Defpoints
 62
     0
100
AcDbPoint
 10
232.695863877283
 20
238.8518363500145
 30
0.0
  0
POINT
  5
DC
330
D5
100
AcDbEntity
  8
Defpoints
 62
     0
100
AcDbPoint
 10
234.2809208447299
 20
210.822366021189
 30
0.0
  0
POINT
  5
DD
330
D5
100
AcDbEntity
  8
Defpoints
 62
     0
100
AcDbPoint
 10
227.7448195323461
 20
212.8518694495319
 30
0.0
  0
ENDBLK
  5
DE
330
D5
100
AcDbEntity
  8
0
100
AcDbBlockEnd
  0
BLOCK
  5
E0
330
DF
100
AcDbEntity
  8
0
100
AcDbBlockBegin
  2
*D11
 70
     1
 10
0.0
 20
0.0
 30
0.0
  3
*D11
  1

  0
LINE
  5
E1
330
DF
100
AcDbEntity
  8
DIM
 62
     0
370
    -2
100
AcDbLine
 10
240.4458638772831
 20
238.4768363500145
 30
0.0
 11
240.4458638772831
 21
215.822366021189
 31
0.0
  0
LINE
  5
E2
330
DF
100
AcDbEntity
  8
DIM
 62
     0
370
    -2
100
AcDbLine
 10
240.4458638772831
 20
215.822366021189
 30
0.0
 11
238.9874691371117
 21
213.322366021189
 31
0.0
  0
LINE
  5
E3
330
DF
100
AcDbEntity
  8
DIM
 62
     0
370
    -2
100
AcDbLine
 10
238.9874691371117
 20
213.322366021189
 30
0.0
 11
238.9874691371117
 21
210.822366021189
 31
0.0
  0
MTEXT
  5
E4
330
DF
100
AcDbEntity
  8
DIM
 62
     0
100
AcDbMText
 10
238.9874691371116
 20
207.8431993545224
 30
0.0
 40
1.25
 41
0.0
 71
     5
 72
     1
  1
\A1;12.701
 11
0.0000000000000001
 21
1.0
 31
0.0
 73
     1
 44
1.0
1001
ACAD
1000
MTEXTBEGIN
1070
    73
1070
     1
1070
    44
1040
1.0
1070
    74
1070
     0
1000
MTEXTEND
  0
POINT
  5
E5
330
DF
100
AcDbEntity
  8
Defpoints
 62
     0
100
AcDbPoint
 10
240.4458638772831
 20
238.8518363500145
 30
0.0
  0
POINT
  5
E6
330
DF
100
AcDbEntity
  8
Defpoints
 62
     0
100
AcDbPoint
 10
238.9874691371117
 20
210.822366021189
 30
0.0
  0
POINT
  5
E7
330
DF
100
AcDbEntity
  8
Defpoints
 62
     0
100
AcDbPoint
 10
227.7448195323461
 20
212.8518694495319
 30
0.0
  0
ENDBLK
  5
E8
330
DF
100
AcDbEntity
  8
0
100
AcDbBlockEnd
  0
BLOCK
  5
EA
330
E9
100
AcDbEntity
  8
0
100
AcDbBlockBegin
  2
*D12
 70
     1
 10
0.0
 20
0.0
 30
0.0
  3
*D12
  1

  0
LINE
  5
EB
330
E9
100
AcDbEntity
  8
DIM
 62
     0
370
    -2
100
AcDbLine
 10
232.320863877283
 20
238.8518363500145
 30
0.0
 11
225.749878126174
 21
238.8518363500145
 31
0.0
  0
MTEXT
  5
EC
330
E9
100
AcDbEntity
  8
DIM
 62
     0
100
AcDbMText
 10
222.562378126174
 20
238.8518363500145
 30
0.0
 40
1.25
 41
0.0
 71
     5
 72
     1
  1
\A1;26.000
 73
     1
 44
1.0
1001
ACAD
1000
MTEXTBEGIN
1070
    73
1070
     1
1070
    44
1040
1.0
1070
    74
1070
     0
1000
MTEXTEND
  0
POINT
  5
ED
330
E9
100
AcDbEntity
  8
Defpoints
 62
     0
100
AcDbPoint
 10
232.695863877283
 20
238.8518363500145
 30
0.0
  0
POINT
  5
EE
330
E9
100
AcDbEntity
  8
Defpoints
 62
     0
100
AcDbPoint
 10
225.749878126174
 20
238.8518363500145
 30
0.0
  0
POINT
  5
EF
330
E9
100
AcDbEntity
  8
Defpoints
 62
     0
100
AcDbPoint
 10
227.7448195323461
 20
212.8518694495319
 30
0.0
  0
ENDBLK
  5
F0
330
E9
100
AcDbEntity
  8
0
100
AcDbBlockEnd
  0
BLOCK
  5
F2
330
F1
100
AcDbEntity
  8
0
100
AcDbBlockBegin
  2
*D13
 70
     1
 10
0.0
 20
0.0
 30
0.0
  3
*D13
  1

  0
LINE
  5
F3
330
F1
100
AcDbEntity
  8
DIM
 62
     0
370
    -2
100
AcDbLine
 10
232.320863877283
 20
245.8518363500145
 30
0.0
 11
225.749878126174
 21
245.8518363500145
 31
0.0
  0
MTEXT
  5
F4
330
F1
100
AcDbEntity
  8
DIM
 62
     0
100
AcDbMText
 10
222.562378126174
 20
245.8518363500145
 30
0.0
 40
1.25
 41
0.0
 71
     5
 72
     1
  1
\A1;33.000
 73
     1
 44
1.0
1001
ACAD
1000
MTEXTBEGIN
1070
    73
1070
     1
1070
    44
1040
1.0
1070
    74
1070
     0
1000
MTEXTEND
  0
POINT
  5
F5
330
F1
100
AcDbEntity
  8
Defpoints
 62
     0
100
AcDbPoint
 10
232.695863877283
 20
245.8518363500145
 30
0.0
  0
POINT
  5
F6
330
F1
100
AcDbEntity
  8
Defpoints
 62
     0
100
AcDbPoint
 10
225.749878126174
 20
245.8518363500145
 30
0.0
  0
POINT
  5
F7
330
F1
100
AcDbEntity
  8
Defpoints
 62
     0
100
AcDbPoint
 10
227.7448195323461
 20
212.8518694495319
 30
0.0
  0
ENDBLK
  5
F8
330
F1
100
AcDbEntity
  8
0
100
AcDbBlockEnd
  0
BLOCK
  5
FA
330
F9
100
AcDbEntity
  8
0
100
AcDbBlockBegin
  2
*D14
 70
     1
 10
0.0
 20
0.0
 30
0.0
  3
*D14
  1

  0
LINE
  5
FB
330
F9
100
AcDbEntity
  8
DIM
 62
     0
370
    -2
100
AcDbLine
 10
230.0988638772831
 20
264.5703363500144
 30
0.0
 11
230.0988638772831
 21
266.8901911487857
 31
0.0
  0
MTEXT
  5
FC
330
F9
100
AcDbEntity
  8
DIM
 62
     0
100
AcDbMText
 10
230.098863877283
 20
269.7651911487858
 30
0.0
 40
1.25
 41
0.0
 71
     5
 72
     1
  1
\A1;2.354
 11
0.0000000000000001
 21
1.0
 31
0.0
 73
     1
 44
1.0
1001
ACAD
1000
MTEXTBEGIN
1070
    73
1070
     1
1070
    44
1040
1.0
1070
    74
1070
     0
1000
MTEXTEND
  0
POINT
  5
FD
330
F9
100
AcDbEntity
  8
Defpoints
 62
     0
100
AcDbPoint
 10
230.0988638772831
 20
264.1953363500144
 30
0.0
  0
POINT
  5
FE
330
F9
100
AcDbEntity
  8
Defpoints
 62
     0
100
AcDbPoint
 10
230.0988638772831
 20
266.8901911487857
 30
0.0
  0
POINT
  5
FF
330
F9
100
AcDbEntity
  8
Defpoints
 62
     0
100
AcDbPoint
 10
227.7448195323461
 20
212.8518694495319
 30
0.0
  0
ENDBLK
  5
100
330
F9
100
AcDbEntity
  8
0
100
AcDbBlockEnd
  0
BLOCK
  5
102
330
101
100
AcDbEntity
  8
0
100
AcDbBlockBegin
  2
*D15
 70
     1
 10
0.0
 20
0.0
 30
0.0
  3
*D15
  1

  0
LINE
  5
103
330
101
100
AcDbEntity
  8
DIM
 62
     0
370
    -2
100
AcDbLine
 10
243.0488638772832
 20
264.5703363500144
 30
0.0
 11
243.0488638772832
 21
266.8074449543562
 31
0.0
  0
MTEXT
  5
104
330
101
100
AcDbEntity
  8
DIM
 62
     0
100
AcDbMText
 10
243.0488638772832
 20
269.9949449543562
 30
0.0
 40
1.25
 41
0.0
 71
     5
 72
     1
  1
\A1;15.304
 11
0.0000000000000001
 21
1.0
 31
0.0
 73
     1
 44
1.0
1001
ACAD
1000
MTEXTBEGIN
1070
    73
1070
     1
1070
    44
1040
1.0
1070
    74
1070
     0
1000
MTEXTEND
  0
POINT
  5
105
330
101
100
AcDbEntity
  8
Defpoints
 62
     0
100
AcDbPoint
 10
243.0488638772832
 20
264.1953363500144
 30
0.0
  0
POINT
  5
106
330
101
100
AcDbEntity
  8
Defpoints
 62
     0
100
AcDbPoint
 10
243.0488638772832
 20
266.8074449543562
 30
0.0
  0
POINT
  5
107
330
101
100
AcDbEntity
  8
Defpoints
 62
     0
100
AcDbPoint
 10
227.7448195323461
 20
212.8518694495319
 30
0.0
  0
ENDBLK
  5
108
330
101
100
AcDbEntity
  8
0
100
AcDbBlockEnd
  0
BLOCK
  5
10A
330
109
100
AcDbEntity
  8
0
100
AcDbBlockBegin
  2
*D16
 70
     1
 10
0.0
 20
0.0
 30
0.0
  3
*D16
  1

  0
LINE
  5
10B
330
109
100
AcDbEntity
  8
DIM
 62
     0
370
    -2
100
AcDbLine
 10
229.1328638772829
 20
261.2268363500145
 30
0.0
 11
229.1328638772829
 21
263.3518363500146
 31
0.0
  0
LINE
  5
10C
330
109
100
AcDbEntity
  8
DIM
 62
     0
370
    -2
100
AcDbLine
 10
229.1328638772829
 20
263.3518363500146
 30
0.0
 11
228.3273187974407
 21
264.3901911487857
 31
0.0
  0
LINE
  5
10D
330
109
100
AcDbEntity
  8
DIM
 62
     0
370
    -2
100
AcDbLine
 10
228.3273187974407
 20
264.3901911487857
 30
0.0
 11
228.3273187974407
 21
266.8901911487857
 31
0.0
  0
MTEXT
  5
10E
330
109
100
AcDbEntity
  8
DIM
 62
     0
100
AcDbMText
 10
228.3273187974407
 20
269.5568578154525
 30
0.0
 40
1.25
 41
0.0
 71
     5
 72
     1
  1
\A1;1.388
 11
0.0000000000000001
 21
1.0
 31
0.0
 73
     1
 44
1.0
1001
ACAD
1000
MTEXTBEGIN
1070
    73
1070
     1
1070
    44
1040
1.0
1070
    74
1070
     0
1000
MTEXTEND
  0
POINT
  5
10F
330
109
100
AcDbEntity
  8
Defpoints
 62
     0
100
AcDbPoint
 10
229.1328638772829
 20
260.8518363500145
 30
0.0
  0
POINT
  5
110
330
109
100
AcDbEntity
  8
Defpoints
 62
     0
100
AcDbPoint
 10
228.3273187974407
 20
266.8901911487857
 30
0.0
  0
POINT
  5
111
330
109
100
AcDbEntity
  8
Defpoints
 62
     0
100
AcDbPoint
 10
227.7448195323461
 20
212.8518694495319
 30
0.0
  0
ENDBLK
  5
112
330
109
100
AcDbEntity
  8
0
100
AcDbBlockEnd
  0
BLOCK
  5
114
330
113
100
AcDbEntity
  8
0
100
AcDbBlockBegin
  2
*D17
 70
     1
 10
0.0
 20
0.0
 30
0.0
  3
*D17
  1

  0
LINE
  5
115
330
113
100
AcDbEntity
  8
DIM
 62
     0
370
    -2
100
AcDbLine
 10
228.4458638772832
 20
256.3518363500145
 30
0.0
 11
228.4458638772832
 21
261.8901911487857
 31
0.0
  0
LINE
  5
116
330
113
100
AcDbEntity
  8
DIM
 62
     0
370
    -2
100
AcDbLine
 10
228.4458638772832
 20
261.8901911487857
 30
0.0
 11
226.5877843914961
 21
264.3901911487857
 31
0.0
  0
LINE
  5
117
330
113
100
AcDbEntity
  8
DIM
 62
     0
370
    -2
100
AcDbLine
 10
226.5877843914961
 20
264.3901911487857
 30
0.0
 11
226.5877843914961
 21
266.8901911487857
 31
0.0
  0
MTEXT
  5
118
330
113
100
AcDbEntity
  8
DIM
 62
     0
100
AcDbMText
 10
226.5877843914961
 20
269.3485244821191
 30
0.0
 40
1.25
 41
0.0
 71
     5
 72
     1
  1
\A1;0.701
 11
0.0000000000000001
 21
1.0
 31
0.0
 73
     1
 44
1.0
1001
ACAD
1000
MTEXTBEGIN
1070
    73
1070
     1
1070
    44
1040
1.0
1070
    74
1070
     0
1000
MTEXTEND
  0
POINT
  5
119
330
113
100
AcDbEntity
  8
Defpoints
 62
     0
100
AcDbPoint
 10
228.4458638772832
 20
255.9768363500146
 30
0.0
  0
POINT
  5
11A
330
113
100
AcDbEntity
  8
Defpoints
 62
     0
100
AcDbPoint
 10
226.5877843914961
 20
266.8901911487857
 30
0.0
  0
POINT
  5
11B
330
113
100
AcDbEntity
  8
Defpoints
 62
     0
100
AcDbPoint
 10
227.7448195323461
 20
212.8518694495319
 30
0.0
  0
ENDBLK
  5
11C
330
113
100
AcDbEntity
  8
0
100
AcDbBlockEnd
  0
BLOCK
  5
11E
330
11D
100
AcDbEntity
  8
0
100
AcDbBlockBegin
  2
*D18
 70
     1
 10
0.0
 20
0.0
 30
0.0
  3
*D18
  1

  0
LINE
  5
11F
330
11D
100
AcDbEntity
  8
DIM
 62
     0
370
    -2
100
AcDbLine
 10
243.996863877283
 20
261.2268363500145
 30
0.0
 11
243.996863877283
 21
263.3518363500146
 31
0.0
  0
LINE
  5
120
330
11D
100
AcDbEntity
  8
DIM
 62
     0
370
    -2
100
AcDbLine
 10
243.996863877283
 20
263.3518363500146
 30
0.0
 11
244.9771526938877
 21
264.3901911487857
 31
0.0
  0
LINE
  5
121
330
11D
100
AcDbEntity
  8
DIM
 62
     0
370
    -2
100
AcDbLine
 10
244.9771526938877
 20
264.3901911487857
 30
0.0
 11
244.9771526938877
 21
266.8901911487857
 31
0.0
  0
MTEXT
  5
122
330
11D
100
AcDbEntity
  8
DIM
 62
     0
100
AcDbMText
 10
244.9771526938877
 20
270.1818578154525
 30
0.0
 40
1.25
 41
0.0
 71
     5
 72
     1
  1
\A1;16.252
 11
0.0000000000000001
 21
1.0
 31
0.0
 73
     1
 44
1.0
1001
ACAD
1000
MTEXTBEGIN
1070
    73
1070
     1
1070
    44
1040
1.0
1070
    74
1070
     0
1000
MTEXTEND
  0
POINT
  5
123
330
11D
100
AcDbEntity
  8
Defpoints
 62
     0
100
AcDbPoint
 10
243.996863877283
 20
260.8518363500145
 30
0.0
  0
POINT
  5
124
330
11D
100
AcDbEntity
  8
Defpoints
 62
     0
100
AcDbPoint
 10
244.9771526938877
 20
266.8901911487857
 30
0.0
  0
POINT
  5
125
330
11D
100
AcDbEntity
  8
Defpoints
 62
     0
100
AcDbPoint
 10
227.7448195323461
 20
212.8518694495319
 30
0.0
  0
ENDBLK
  5
126
330
11D
100
AcDbEntity
  8
0
100
AcDbBlockEnd
  0
BLOCK
  5
128
330
127
100
AcDbEntity
  8
0
100
AcDbBlockBegin
  2
*D19
 70
     1
 10
0.0
 20
0.0
 30
0.0
  3
*D19
  1

  0
LINE
  5
129
330
127
100
AcDbEntity
  8
DIM
 62
     0
370
    -2
100
AcDbLine
 10
244.6958638772831
 20
256.3518363500145
 30
0.0
 11
244.6958638772831
 21
261.9729373432153
 31
0.0
  0
LINE
  5
12A
330
127
100
AcDbEntity
  8
DIM
 62
     0
370
    -2
100
AcDbLine
 10
244.6958638772831
 20
261.9729373432153
 30
0.0
 11
246.8823565732657
 21
264.4729373432153
 31
0.0
  0
LINE
  5
12B
330
127
100
AcDbEntity
  8
DIM
 62
     0
370
    -2
100
AcDbLine
 10
246.8823565732657
 20
264.4729373432153
 30
0.0
 11
246.8823565732657
 21
266.9729373432153
 31
0.0
  0
MTEXT
  5
12C
330
127
100
AcDbEntity
  8
DIM
 62
     0
100
AcDbMText
 10
246.8823565732656
 20
270.0562706765487
 30
0.0
 40
1.25
 41
0.0
 71
     5
 72
     1
  1
\A1;16.951
 11
0.0000000000000001
 21
1.0
 31
0.0
 73
     1
 44
1.0
1001
ACAD
1000
MTEXTBEGIN
1070
    73
1070
     1
1070
    44
1040
1.0
1070
    74
1070
     0
1000
MTEXTEND
  0
POINT
  5
12D
330
127
100
AcDbEntity
  8
Defpoints
 62
     0
100
AcDbPoint
 10
244.6958638772831
 20
255.9768363500146
 30
0.0
  0
POINT
  5
12E
330
127
100
AcDbEntity
  8
Defpoints
 62
     0
100
AcDbPoint
 10
246.8823565732657
 20
266.9729373432153
 30
0.0
  0
POINT
  5
12F
330
127
100
AcDbEntity
  8
Defpoints
 62
     0
100
AcDbPoint
 10
227.7448195323461
 20
212.8518694495319
 30
0.0
  0
ENDBLK
  5
130
330
127
100
AcDbEntity
  8
0
100
AcDbBlockEnd
  0
BLOCK
  5
132
330
131
100
AcDbEntity
  8
0
100
AcDbBlockBegin
  2
*D20
 70
     1
 10
0.0
 20
0.0
 30
0.0
  3
*D20
  1

  0
LINE
  5
133
330
131
100
AcDbEntity
  8
DIM
 62
     0
370
    -2
100
AcDbLine
 10
244.4448638772831
 20
248.3518363500145
 30
0.0
 11
247.3793674610135
 21
248.3518363500145
 31
0.0
  0
MTEXT
  5
134
330
131
100
AcDbEntity
  8
DIM
 62
     0
100
AcDbMText
 10
250.6710341276801
 20
248.3518363500145
 30
0.0
 40
1.25
 41
0.0
 71
     5
 72
     1
  1
\A1;35.500
 73
     1
 44
1.0
1001
ACAD
1000
MTEXTBEGIN
1070
    73
1070
     1
1070
    44
1040
1.0
1070
    74
1070
     0
1000
MTEXTEND
  0
POINT
  5
135
330
131
100
AcDbEntity
  8
Defpoints
 62
     0
100
AcDbPoint
 10
244.0698638772831
 20
248.3518363500145
 30
0.0
  0
POINT
  5
136
330
131
100
AcDbEntity
  8
Defpoints
 62
     0
100
AcDbPoint
 10
247.3793674610135
 20
248.3518363500145
 30
0.0
  0
POINT
  5
137
330
131
100
AcDbEntity
  8
Defpoints
 62
     0
100
AcDbPoint
 10
227.7448195323461
 20
212.8518694495319
 30
0.0
  0
ENDBLK
  5
138
330
131
100
AcDbEntity
  8
0
100
AcDbBlockEnd
  0
BLOCK
  5
13A
330
139
100
AcDbEntity
  8
0
100
AcDbBlockBegin
  2
*D21
 70
     1
 10
0.0
 20
0.0
 30
0.0
  3
*D21
  1

  0
LINE
  5
13B
330
139
100
AcDbEntity
  8
DIM
 62
     0
370
    -2
100
AcDbLine
 10
228.757863877283
 20
260.8518363500145
 30
0.0
 11
225.7703900312801
 21
260.8518363500145
 31
0.0
  0
MTEXT
  5
13C
330
139
100
AcDbEntity
  8
DIM
 62
     0
100
AcDbMText
 10
222.5828900312801
 20
260.8518363500145
 30
0.0
 40
1.25
 41
0.0
 71
     5
 72
     1
  1
\A1;48.000
 73
     1
 44
1.0
1001
ACAD
1000
MTEXTBEGIN
1070
    73
1070
     1
1070
    44
1040
1.0
1070
    74
1070
     0
1000
MTEXTEND
  0
POINT
  5
13D
330
139
100
AcDbEntity
  8
Defpoints
 62
     0
100
AcDbPoint
 10
229.1328638772829
 20
260.8518363500145
 30
0.0
  0
POINT
  5
13E
330
139
100
AcDbEntity
  8
Defpoints
 62
     0
100
AcDbPoint
 10
225.7703900312801
 20
260.8518363500145
 30
0.0
  0
POINT
  5
13F
330
139
100
AcDbEntity
  8
Defpoints
 62
     0
100
AcDbPoint
 10
227.7448195323461
 20
212.8518694495319
 30
0.0
  0
ENDBLK
  5
140
330
139
100
AcDbEntity
  8
0
100
AcDbBlockEnd
  0
BLOCK
  5
142
330
141
100
AcDbEntity
  8
0
100
AcDbBlockBegin
  2
*D22
 70
     1
 10
0.0
 20
0.0
 30
0.0
  3
*D22
  1

  0
LINE
  5
143
330
141
100
AcDbEntity
  8
DIM
 62
     0
370
    -2
100
AcDbLine
 10
227.369863877283
 20
264.9418363500144
 30
0.0
 11
225.7703900312801
 21
264.9418363500144
 31
0.0
  0
MTEXT
  5
144
330
141
100
AcDbEntity
  8
DIM
 62
     0
100
AcDbMText
 10
222.4787233646134
 20
264.9418363500144
 30
0.0
 40
1.25
 41
0.0
 71
     5
 72
     1
  1
\A1;52.090
 73
     1
 44
1.0
1001
ACAD
1000
MTEXTBEGIN
1070
    73
1070
     1
1070
    44
1040
1.0
1070
    74
1070
     0
1000
MTEXTEND
  0
POINT
  5
145
330
141
100
AcDbEntity
  8
Defpoints
 62
     0
100
AcDbPoint
 10
227.744863877283
 20
264.9418363500144
 30
0.0
  0
POINT
  5
146
330
141
100
AcDbEntity
  8
Defpoints
 62
     0
100
AcDbPoint
 10
225.7703900312801
 20
264.9418363500144
 30
0.0
  0
POINT
  5
147
330
141
100
AcDbEntity
  8
Defpoints
 62
     0
100
AcDbPoint
 10
227.7448195323461
 20
212.8518694495319
 30
0.0
  0
ENDBLK
  5
148
330
141
100
AcDbEntity
  8
0
100
AcDbBlockEnd
  0
BLOCK
  5
14A
330
149
100
AcDbEntity
  8
0
100
AcDbBlockBegin
  2
*D23
 70
     1
 10
0.0
 20
0.0
 30
0.0
  3
*D23
  1

  0
LINE
  5
14B
330
149
100
AcDbEntity
  8
DIM
 62
     0
370
    -2
100
AcDbLine
 10
243.4238638772832
 20
264.1953363500144
 30
0.0
 11
247.3959561219096
 21
264.1953363500144
 31
0.0
  0
MTEXT
  5
14C
330
149
100
AcDbEntity
  8
DIM
 62
     0
100
AcDbMText
 10
250.6876227885762
 20
264.1953363500144
 30
0.0
 40
1.25
 41
0.0
 71
     5
 72
     1
  1
\A1;51.343
 73
     1
 44
1.0
1001
ACAD
1000
MTEXTBEGIN
1070
    73
1070
     1
1070
    44
1040
1.0
1070
    74
1070
     0
1000
MTEXTEND
  0
POINT
  5
14D
330
149
100
AcDbEntity
  8
Defpoints
 62
     0
100
AcDbPoint
 10
243.0488638772832
 20
264.1953363500144
 30
0.0
  0
POINT
  5
14E
330
149
100
AcDbEntity
  8
Defpoints
 62
     0
100
AcDbPoint
 10
247.3959561219096
 20
264.1953363500144
 30
0.0
  0
POINT
  5
14F
330
149
100
AcDbEntity
  8
Defpoints
 62
     0
100
AcDbPoint
 10
227.7448195323461
 20
212.8518694495319
 30
0.0
  0
ENDBLK
  5
150
330
149
100
AcDbEntity
  8
0
100
AcDbBlockEnd
  0
BLOCK
  5
152
330
151
100
AcDbEntity
  8
0
100
AcDbBlockBegin
  2
*D24
 70
     1
 10
0.0
 20
0.0
 30
0.0
  3
*D24
  1

  0
LINE
  5
153
330
151
100
AcDbEntity
  8
DIM
 62
     0
370
    -2
100
AcDbLine
 10
243.4238638772831
 20
261.3578363500147
 30
0.0
 11
247.3959561219096
 21
261.3578363500147
 31
0.0
  0
MTEXT
  5
154
330
151
100
AcDbEntity
  8
DIM
 62
     0
100
AcDbMText
 10
250.7917894552429
 20
261.3578363500147
 30
0.0
 40
1.25
 41
0.0
 71
     5
 72
     1
  1
\A1;48.506
 73
     1
 44
1.0
1001
ACAD
1000
MTEXTBEGIN
1070
    73
1070
     1
1070
    44
1040
1.0
1070
    74
1070
     0
1000
MTEXTEND
  0
POINT
  5
155
330
151
100
AcDbEntity
  8
Defpoints
 62
     0
100
AcDbPoint
 10
243.0488638772831
 20
261.3578363500147
 30
0.0
  0
POINT
  5
156
330
151
100
AcDbEntity
  8
Defpoints
 62
     0
100
AcDbPoint
 10
247.3959561219096
 20
261.3578363500147
 30
0.0
  0
POINT
  5
157
330
151
100
AcDbEntity
  8
Defpoints
 62
     0
100
AcDbPoint
 10
227.7448195323461
 20
212.8518694495319
 30
0.0
  0
ENDBLK
  5
158
330
151
100
AcDbEntity
  8
0
100
AcDbBlockEnd
  0
BLOCK
  5
15A
330
159
100
AcDbEntity
  8
0
100
AcDbBlockBegin
  2
*D25
 70
     1
 10
0.0
 20
0.0
 30
0.0
  3
*D25
  1

  0
LINE
  5
15B
330
159
100
AcDbEntity
  8
DIM
 62
     0
370
    -2
100
AcDbLine
 10
245.070863877283
 20
255.9768363500146
 30
0.0
 11
247.3959561219096
 21
255.9768363500146
 31
0.0
  0
MTEXT
  5
15C
330
159
100
AcDbEntity
  8
DIM
 62
     0
100
AcDbMText
 10
250.6876227885762
 20
255.9768363500146
 30
0.0
 40
1.25
 41
0.0
 71
     5
 72
     1
  1
\A1;43.125
 73
     1
 44
1.0
1001
ACAD
1000
MTEXTBEGIN
1070
    73
1070
     1
1070
    44
1040
1.0
1070
    74
1070
     0
1000
MTEXTEND
  0
POINT
  5
15D
330
159
100
AcDbEntity
  8
Defpoints
 62
     0
100
AcDbPoint
 10
244.6958638772831
 20
255.9768363500146
 30
0.0
  0
POINT
  5
15E
330
159
100
AcDbEntity
  8
Defpoints
 62
     0
100
AcDbPoint
 10
247.3959561219096
 20
255.9768363500146
 30
0.0
  0
POINT
  5
15F
330
159
100
AcDbEntity
  8
Defpoints
 62
     0
100
AcDbPoint
 10
227.7448195323461
 20
212.8518694495319
 30
0.0
  0
ENDBLK
  5
160
330
159
100
AcDbEntity
  8
0
100
AcDbBlockEnd
  0
BLOCK
  5
162
330
161
100
AcDbEntity
  8
0
100
AcDbBlockBegin
  2
*D26
 70
     1
 10
0.0
 20
0.0
 30
0.0
  3
*D26
  1

  0
LINE
  5
163
330
161
100
AcDbEntity
  8
DIM
 62
     0
370
    -2
100
AcDbLine
 10
245.070863877283
 20
252.7268363500145
 30
0.0
 11
247.3959561219096
 21
252.7268363500145
 31
0.0
  0
MTEXT
  5
164
330
161
100
AcDbEntity
  8
DIM
 62
     0
100
AcDbMText
 10
250.8959561219096
 20
252.7268363500145
 30
0.0
 40
1.25
 41
0.0
 71
     5
 72
     1
  1
\A1;39.875
 73
     1
 44
1.0
1001
ACAD
1000
MTEXTBEGIN
1070
    73
1070
     1
1070
    44
1040
1.0
1070
    74
1070
     0
1000
MTEXTEND
  0
POINT
  5
165
330
161
100
AcDbEntity
  8
Defpoints
 62
     0
100
AcDbPoint
 10
244.6958638772831
 20
252.7268363500145
 30
0.0
  0
POINT
  5
166
330
161
100
AcDbEntity
  8
Defpoints
 62
     0
100
AcDbPoint
 10
247.3959561219096
 20
252.7268363500145
 30
0.0
  0
POINT
  5
167
330
161
100
AcDbEntity
  8
Defpoints
 62
     0
100
AcDbPoint
 10
227.7448195323461
 20
212.8518694495319
 30
0.0
  0
ENDBLK
  5
168
330
161
100
AcDbEntity
  8
0
100
AcDbBlockEnd
  0
BLOCK
  5
16A
330
169
100
AcDbEntity
  8
0
100
AcDbBlockBegin
  2
*D27
 70
     1
 10
0.0
 20
0.0
 30
0.0
  3
*D27
  1

  0
LINE
  5
16B
330
169
100
AcDbEntity
  8
0
 62
     0
370
    -2
100
AcDbLine
 10
244.0698638772831
 20
246.4768363500145
 30
0.0
 11
244.0698638772831
 21
243.8403741617086
 31
0.0
  0
MTEXT
  5
16C
330
169
100
AcDbEntity
  8
0
 62
     0
100
AcDbMText
 10
244.069863877283
 20
240.5487074950419
 30
0.0
 40
1.25
 41
0.0
 71
     5
 72
     1
  1
\A1;16.325
 11
0.0000000000000001
 21
1.0
 31
0.0
 73
     1
 44
1.0
1001
ACAD
1000
MTEXTBEGIN
1070
    73
1070
     1
1070
    44
1040
1.0
1070
    74
1070
     0
1000
MTEXTEND
  0
POINT
  5
16D
330
169
100
AcDbEntity
  8
Defpoints
 62
     0
100
AcDbPoint
 10
244.0698638772831
 20
246.8518363500145
 30
0.0
  0
POINT
  5
16E
330
169
100
AcDbEntity
  8
Defpoints
 62
     0
100
AcDbPoint
 10
244.0698638772831
 20
243.8403741617086
 30
0.0
  0
POINT
  5
16F
330
169
100
AcDbEntity
  8
Defpoints
 62
     0
100
AcDbPoint
 10
227.7448195323461
 20
212.8518694495319
 30
0.0
  0
ENDBLK
  5
170
330
169
100
AcDbEntity
  8
0
100
AcDbBlockEnd
  0
BLOCK
  5
172
330
171
100
AcDbEntity
  8
0
100
AcDbBlockBegin
  2
*D28
 70
     1
 10
0.0
 20
0.0
 30
0.0
  3
*D28
  1

  0
LINE
  5
173
330
171
100
AcDbEntity
  8
0
 62
     0
370
    -2
100
AcDbLine
 10
244.4448638772831
 20
246.8518363500145
 30
0.0
 11
247.4235519808042
 21
246.8518363500145
 31
0.0
  0
MTEXT
  5
174
330
171
100
AcDbEntity
  8
0
 62
     0
100
AcDbMText
 10
250.6110519808042
 20
246.8518363500145
 30
0.0
 40
1.25
 41
0.0
 71
     5
 72
     1
  1
\A1;34.000
 73
     1
 44
1.0
1001
ACAD
1000
MTEXTBEGIN
1070
    73
1070
     1
1070
    44
1040
1.0
1070
    74
1070
     0
1000
MTEXTEND
  0
POINT
  5
175
330
171
100
AcDbEntity
  8
Defpoints
 62
     0
100
AcDbPoint
 10
244.0698638772831
 20
246.8518363500145
 30
0.0
  0
POINT
  5
176
330
171
100
AcDbEntity
  8
Defpoints
 62
     0
100
AcDbPoint
 10
247.4235519808042
 20
246.8518363500145
 30
0.0
  0
POINT
  5
177
330
171
100
AcDbEntity
  8
Defpoints
 62
     0
100
AcDbPoint
 10
227.7448195323461
 20
212.8518694495319
 30
0.0
  0
ENDBLK
  5
178
330
171
100
AcDbEntity
  8
0
100
AcDbBlockEnd
  0
BLOCK
  5
493
330
48D
100
AcDbEntity
  8
0
100
AcDbBlockBegin
  2
*D29
 70
     1
 10
0.0
 20
0.0
 30
0.0
  3
*D29
  1

  0
LINE
  5
6CD
330
48D
100
AcDbEntity
  8
0
 62
     0
370
    -2
100
AcDbLine
 10
94.01215278529646
 20
31.17548575210587
 30
0.0
 11
96.99084088881756
 21
31.17548575210587
 31
0.0
  0
MTEXT
  5
6CE
330
48D
100
AcDbEntity
  8
0
 62
     0
100
AcDbMText
 10
99.89334088881756
 20
31.17548575210587
 30
0.0
 40
1.25
 41
0.0
 71
     5
 72
     1
  1
\A1;34.000
 73
     1
 44
1.0
1001
ACAD
1000
MTEXTBEGIN
1070
    73
1070
     1
1070
    44
1040
1.0
1070
    74
1070
     0
1000
MTEXTEND
  0
POINT
  5
6CF
330
48D
100
AcDbEntity
  8
Defpoints
 62
     0
100
AcDbPoint
 10
93.63715278529646
 20
31.17548575210587
 30
0.0
  0
POINT
  5
6D0
330
48D
100
AcDbEntity
  8
Defpoints
 62
     0
100
AcDbPoint
 10
96.99084088881756
 20
31.17548575210587
 30
0.0
  0
POINT
  5
6D1
330
48D
100
AcDbEntity
  8
Defpoints
 62
     0
100
AcDbPoint
 10
77.31210844035944
 20
-2.824481148376733
 30
0.0
  0
ENDBLK
  5
494
330
48D
100
AcDbEntity
  8
0
100
AcDbBlockEnd
  0
BLOCK
  5
49B
330
495
100
AcDbEntity
  8
0
100
AcDbBlockBegin
  2
*D30
 70
     1
 10
0.0
 20
0.0
 30
0.0
  3
*D30
  1

  0
LINE
  5
6C8
330
495
100
AcDbEntity
  8
0
 62
     0
370
    -2
100
AcDbLine
 10
93.63715278529646
 20
30.80048575210587
 30
0.0
 11
93.63715278529646
 21
28.16402356379997
 31
0.0
  0
MTEXT
  5
6C9
330
495
100
AcDbEntity
  8
0
 62
     0
100
AcDbMText
 10
93.63715278529646
 20
25.15735689713332
 30
0.0
 40
1.25
 41
0.0
 71
     5
 72
     1
  1
\A1;16.325
 11
0.0000000000000001
 21
1.0
 31
0.0
 73
     1
 44
1.0
1001
ACAD
1000
MTEXTBEGIN
1070
    73
1070
     1
1070
    44
1040
1.0
1070
    74
1070
     0
1000
MTEXTEND
  0
POINT
  5
6CA
330
495
100
AcDbEntity
  8
Defpoints
 62
     0
100
AcDbPoint
 10
93.63715278529646
 20
31.17548575210587
 30
0.0
  0
POINT
  5
6CB
330
495
100
AcDbEntity
  8
Defpoints
 62
     0
100
AcDbPoint
 10
93.63715278529646
 20
28.16402356379997
 30
0.0
  0
POINT
  5
6CC
330
495
100
AcDbEntity
  8
Defpoints
 62
     0
100
AcDbPoint
 10
77.31210844035944
 20
-2.824481148376733
 30
0.0
  0
ENDBLK
  5
49C
330
495
100
AcDbEntity
  8
0
100
AcDbBlockEnd
  0
BLOCK
  5
4A3
330
49D
100
AcDbEntity
  8
0
100
AcDbBlockBegin
  2
*D31
 70
     1
 10
0.0
 20
0.0
 30
0.0
  3
*D31
  1

  0
LINE
  5
6C3
330
49D
100
AcDbEntity
  8
DIM
 62
     0
370
    -2
100
AcDbLine
 10
94.63815278529647
 20
37.05048575210586
 30
0.0
 11
96.96324502992297
 21
37.05048575210586
 31
0.0
  0
MTEXT
  5
6C4
330
49D
100
AcDbEntity
  8
DIM
 62
     0
100
AcDbMText
 10
100.1782450299229
 20
37.05048575210586
 30
0.0
 40
1.25
 41
0.0
 71
     5
 72
     1
  1
\A1;39.875
 73
     1
 44
1.0
1001
ACAD
1000
MTEXTBEGIN
1070
    73
1070
     1
1070
    44
1040
1.0
1070
    74
1070
     0
1000
MTEXTEND
  0
POINT
  5
6C5
330
49D
100
AcDbEntity
  8
Defpoints
 62
     0
100
AcDbPoint
 10
94.26315278529648
 20
37.05048575210586
 30
0.0
  0
POINT
  5
6C6
330
49D
100
AcDbEntity
  8
Defpoints
 62
     0
100
AcDbPoint
 10
96.96324502992297
 20
37.05048575210586
 30
0.0
  0
POINT
  5
6C7
330
49D
100
AcDbEntity
  8
Defpoints
 62
     0
100
AcDbPoint
 10
77.31210844035944
 20
-2.824481148376733
 30
0.0
  0
ENDBLK
  5
4A4
330
49D
100
AcDbEntity
  8
0
100
AcDbBlockEnd
  0
BLOCK
  5
4AB
330
4A5
100
AcDbEntity
  8
0
100
AcDbBlockBegin
  2
*D32
 70
     1
 10
0.0
 20
0.0
 30
0.0
  3
*D32
  1

  0
LINE
  5
6BE
330
4A5
100
AcDbEntity
  8
DIM
 62
     0
370
    -2
100
AcDbLine
 10
94.63815278529647
 20
40.30048575210599
 30
0.0
 11
96.96324502992297
 21
40.30048575210599
 31
0.0
  0
MTEXT
  5
6BF
330
4A5
100
AcDbEntity
  8
DIM
 62
     0
100
AcDbMText
 10
99.96991169658961
 20
40.30048575210599
 30
0.0
 40
1.25
 41
0.0
 71
     5
 72
     1
  1
\A1;43.125
 73
     1
 44
1.0
1001
ACAD
1000
MTEXTBEGIN
1070
    73
1070
     1
1070
    44
1040
1.0
1070
    74
1070
     0
1000
MTEXTEND
  0
POINT
  5
6C0
330
4A5
100
AcDbEntity
  8
Defpoints
 62
     0
100
AcDbPoint
 10
94.26315278529648
 20
40.30048575210599
 30
0.0
  0
POINT
  5
6C1
330
4A5
100
AcDbEntity
  8
Defpoints
 62
     0
100
AcDbPoint
 10
96.96324502992297
 20
40.30048575210599
 30
0.0
  0
POINT
  5
6C2
330
4A5
100
AcDbEntity
  8
Defpoints
 62
     0
100
AcDbPoint
 10
77.31210844035944
 20
-2.824481148376733
 30
0.0
  0
ENDBLK
  5
4AC
330
4A5
100
AcDbEntity
  8
0
100
AcDbBlockEnd
  0
BLOCK
  5
4B3
330
4AD
100
AcDbEntity
  8
0
100
AcDbBlockBegin
  2
*D33
 70
     1
 10
0.0
 20
0.0
 30
0.0
  3
*D33
  1

  0
LINE
  5
6B9
330
4AD
100
AcDbEntity
  8
DIM
 62
     0
370
    -2
100
AcDbLine
 10
92.99115278529646
 20
45.68148575210603
 30
0.0
 11
96.96324502992297
 21
45.68148575210603
 31
0.0
  0
MTEXT
  5
6BA
330
4AD
100
AcDbEntity
  8
DIM
 62
     0
100
AcDbMText
 10
100.0740783632563
 20
45.68148575210603
 30
0.0
 40
1.25
 41
0.0
 71
     5
 72
     1
  1
\A1;48.506
 73
     1
 44
1.0
1001
ACAD
1000
MTEXTBEGIN
1070
    73
1070
     1
1070
    44
1040
1.0
1070
    74
1070
     0
1000
MTEXTEND
  0
POINT
  5
6BB
330
4AD
100
AcDbEntity
  8
Defpoints
 62
     0
100
AcDbPoint
 10
92.61615278529644
 20
45.68148575210603
 30
0.0
  0
POINT
  5
6BC
330
4AD
100
AcDbEntity
  8
Defpoints
 62
     0
100
AcDbPoint
 10
96.96324502992297
 20
45.68148575210603
 30
0.0
  0
POINT
  5
6BD
330
4AD
100
AcDbEntity
  8
Defpoints
 62
     0
100
AcDbPoint
 10
77.31210844035944
 20
-2.824481148376733
 30
0.0
  0
ENDBLK
  5
4B4
330
4AD
100
AcDbEntity
  8
0
100
AcDbBlockEnd
  0
BLOCK
  5
4BB
330
4B5
100
AcDbEntity
  8
0
100
AcDbBlockBegin
  2
*D34
 70
     1
 10
0.0
 20
0.0
 30
0.0
  3
*D34
  1

  0
LINE
  5
6B4
330
4B5
100
AcDbEntity
  8
DIM
 62
     0
370
    -2
100
AcDbLine
 10
92.99115278529654
 20
48.51898575210579
 30
0.0
 11
96.96324502992297
 21
48.51898575210579
 31
0.0
  0
MTEXT
  5
6B5
330
4B5
100
AcDbEntity
  8
DIM
 62
     0
100
AcDbMText
 10
99.96991169658961
 20
48.51898575210579
 30
0.0
 40
1.25
 41
0.0
 71
     5
 72
     1
  1
\A1;51.343
 73
     1
 44
1.0
1001
ACAD
1000
MTEXTBEGIN
1070
    73
1070
     1
1070
    44
1040
1.0
1070
    74
1070
     0
1000
MTEXTEND
  0
POINT
  5
6B6
330
4B5
100
AcDbEntity
  8
Defpoints
 62
     0
100
AcDbPoint
 10
92.61615278529655
 20
48.51898575210579
 30
0.0
  0
POINT
  5
6B7
330
4B5
100
AcDbEntity
  8
Defpoints
 62
     0
100
AcDbPoint
 10
96.96324502992297
 20
48.51898575210579
 30
0.0
  0
POINT
  5
6B8
330
4B5
100
AcDbEntity
  8
Defpoints
 62
     0
100
AcDbPoint
 10
77.31210844035944
 20
-2.824481148376733
 30
0.0
  0
ENDBLK
  5
4BC
330
4B5
100
AcDbEntity
  8
0
100
AcDbBlockEnd
  0
BLOCK
  5
4C3
330
4BD
100
AcDbEntity
  8
0
100
AcDbBlockBegin
  2
*D35
 70
     1
 10
0.0
 20
0.0
 30
0.0
  3
*D35
  1

  0
LINE
  5
6AF
330
4BD
100
AcDbEntity
  8
DIM
 62
     0
370
    -2
100
AcDbLine
 10
76.93715278529636
 20
49.26548575210576
 30
0.0
 11
75.33767893929347
 21
49.26548575210576
 31
0.0
  0
MTEXT
  5
6B0
330
4BD
100
AcDbEntity
  8
DIM
 62
     0
100
AcDbMText
 10
72.33101227262681
 20
49.26548575210576
 30
0.0
 40
1.25
 41
0.0
 71
     5
 72
     1
  1
\A1;52.090
 73
     1
 44
1.0
1001
ACAD
1000
MTEXTBEGIN
1070
    73
1070
     1
1070
    44
1040
1.0
1070
    74
1070
     0
1000
MTEXTEND
  0
POINT
  5
6B1
330
4BD
100
AcDbEntity
  8
Defpoints
 62
     0
100
AcDbPoint
 10
77.31215278529636
 20
49.26548575210576
 30
0.0
  0
POINT
  5
6B2
330
4BD
100
AcDbEntity
  8
Defpoints
 62
     0
100
AcDbPoint
 10
75.33767893929347
 20
49.26548575210576
 30
0.0
  0
POINT
  5
6B3
330
4BD
100
AcDbEntity
  8
Defpoints
 62
     0
100
AcDbPoint
 10
77.31210844035944
 20
-2.824481148376733
 30
0.0
  0
ENDBLK
  5
4C4
330
4BD
100
AcDbEntity
  8
0
100
AcDbBlockEnd
  0
BLOCK
  5
4CB
330
4C5
100
AcDbEntity
  8
0
100
AcDbBlockBegin
  2
*D36
 70
     1
 10
0.0
 20
0.0
 30
0.0
  3
*D36
  1

  0
LINE
  5
6AA
330
4C5
100
AcDbEntity
  8
DIM
 62
     0
370
    -2
100
AcDbLine
 10
78.32515278529628
 20
45.17548575210585
 30
0.0
 11
75.33767893929347
 21
45.17548575210585
 31
0.0
  0
MTEXT
  5
6AB
330
4C5
100
AcDbEntity
  8
DIM
 62
     0
100
AcDbMText
 10
72.43517893929347
 20
45.17548575210585
 30
0.0
 40
1.25
 41
0.0
 71
     5
 72
     1
  1
\A1;48.000
 73
     1
 44
1.0
1001
ACAD
1000
MTEXTBEGIN
1070
    73
1070
     1
1070
    44
1040
1.0
1070
    74
1070
     0
1000
MTEXTEND
  0
POINT
  5
6AC
330
4C5
100
AcDbEntity
  8
Defpoints
 62
     0
100
AcDbPoint
 10
78.70015278529628
 20
45.17548575210585
 30
0.0
  0
POINT
  5
6AD
330
4C5
100
AcDbEntity
  8
Defpoints
 62
     0
100
AcDbPoint
 10
75.33767893929347
 20
45.17548575210585
 30
0.0
  0
POINT
  5
6AE
330
4C5
100
AcDbEntity
  8
Defpoints
 62
     0
100
AcDbPoint
 10
77.31210844035944
 20
-2.824481148376733
 30
0.0
  0
ENDBLK
  5
4CC
330
4C5
100
AcDbEntity
  8
0
100
AcDbBlockEnd
  0
BLOCK
  5
4D3
330
4CD
100
AcDbEntity
  8
0
100
AcDbBlockBegin
  2
*D37
 70
     1
 10
0.0
 20
0.0
 30
0.0
  3
*D37
  1

  0
LINE
  5
6A5
330
4CD
100
AcDbEntity
  8
DIM
 62
     0
370
    -2
100
AcDbLine
 10
94.01215278529646
 20
32.67548575210587
 30
0.0
 11
96.94665636902685
 21
32.67548575210587
 31
0.0
  0
MTEXT
  5
6A6
330
4CD
100
AcDbEntity
  8
DIM
 62
     0
100
AcDbMText
 10
99.95332303569352
 20
32.67548575210587
 30
0.0
 40
1.25
 41
0.0
 71
     5
 72
     1
  1
\A1;35.500
 73
     1
 44
1.0
1001
ACAD
1000
MTEXTBEGIN
1070
    73
1070
     1
1070
    44
1040
1.0
1070
    74
1070
     0
1000
MTEXTEND
  0
POINT
  5
6A7
330
4CD
100
AcDbEntity
  8
Defpoints
 62
     0
100
AcDbPoint
 10
93.63715278529646
 20
32.67548575210587
 30
0.0
  0
POINT
  5
6A8
330
4CD
100
AcDbEntity
  8
Defpoints
 62
     0
100
AcDbPoint
 10
96.94665636902685
 20
32.67548575210587
 30
0.0
  0
POINT
  5
6A9
330
4CD
100
AcDbEntity
  8
Defpoints
 62
     0
100
AcDbPoint
 10
77.31210844035944
 20
-2.824481148376733
 30
0.0
  0
ENDBLK
  5
4D4
330
4CD
100
AcDbEntity
  8
0
100
AcDbBlockEnd
  0
BLOCK
  5
4DD
330
4D5
100
AcDbEntity
  8
0
100
AcDbBlockBegin
  2
*D38
 70
     1
 10
0.0
 20
0.0
 30
0.0
  3
*D38
  1

  0
LINE
  5
69E
330
4D5
100
AcDbEntity
  8
DIM
 62
     0
370
    -2
100
AcDbLine
 10
94.26315278529648
 20
40.67548575210599
 30
0.0
 11
94.26315278529648
 21
46.29658674530665
 31
0.0
  0
LINE
  5
69F
330
4D5
100
AcDbEntity
  8
DIM
 62
     0
370
    -2
100
AcDbLine
 10
94.26315278529648
 20
46.29658674530665
 30
0.0
 11
96.44964548127907
 21
48.79658674530665
 31
0.0
  0
LINE
  5
6A0
330
4D5
100
AcDbEntity
  8
DIM
 62
     0
370
    -2
100
AcDbLine
 10
96.44964548127907
 20
48.79658674530665
 30
0.0
 11
96.44964548127907
 21
51.29658674530665
 31
0.0
  0
MTEXT
  5
6A1
330
4D5
100
AcDbEntity
  8
DIM
 62
     0
100
AcDbMText
 10
96.44964548127905
 20
54.09492007863999
 30
0.0
 40
1.25
 41
0.0
 71
     5
 72
     1
  1
\A1;16.951
 11
0.0000000000000001
 21
1.0
 31
0.0
 73
     1
 44
1.0
1001
ACAD
1000
MTEXTBEGIN
1070
    73
1070
     1
1070
    44
1040
1.0
1070
    74
1070
     0
1000
MTEXTEND
  0
POINT
  5
6A2
330
4D5
100
AcDbEntity
  8
Defpoints
 62
     0
100
AcDbPoint
 10
94.26315278529648
 20
40.30048575210599
 30
0.0
  0
POINT
  5
6A3
330
4D5
100
AcDbEntity
  8
Defpoints
 62
     0
100
AcDbPoint
 10
96.44964548127907
 20
51.29658674530665
 30
0.0
  0
POINT
  5
6A4
330
4D5
100
AcDbEntity
  8
Defpoints
 62
     0
100
AcDbPoint
 10
77.31210844035944
 20
-2.824481148376733
 30
0.0
  0
ENDBLK
  5
4DE
330
4D5
100
AcDbEntity
  8
0
100
AcDbBlockEnd
  0
BLOCK
  5
4E7
330
4DF
100
AcDbEntity
  8
0
100
AcDbBlockBegin
  2
*D39
 70
     1
 10
0.0
 20
0.0
 30
0.0
  3
*D39
  1

  0
LINE
  5
697
330
4DF
100
AcDbEntity
  8
DIM
 62
     0
370
    -2
100
AcDbLine
 10
93.56415278529635
 20
45.55048575210585
 30
0.0
 11
93.56415278529635
 21
47.67548575210585
 31
0.0
  0
LINE
  5
698
330
4DF
100
AcDbEntity
  8
DIM
 62
     0
370
    -2
100
AcDbLine
 10
93.56415278529635
 20
47.67548575210585
 30
0.0
 11
94.54444160190103
 21
48.71384055087709
 31
0.0
  0
LINE
  5
699
330
4DF
100
AcDbEntity
  8
DIM
 62
     0
370
    -2
100
AcDbLine
 10
94.54444160190103
 20
48.71384055087709
 30
0.0
 11
94.54444160190103
 21
51.21384055087709
 31
0.0
  0
MTEXT
  5
69A
330
4DF
100
AcDbEntity
  8
DIM
 62
     0
100
AcDbMText
 10
94.54444160190101
 20
54.22050721754377
 30
0.0
 40
1.25
 41
0.0
 71
     5
 72
     1
  1
\A1;16.252
 11
0.0000000000000001
 21
1.0
 31
0.0
 73
     1
 44
1.0
1001
ACAD
1000
MTEXTBEGIN
1070
    73
1070
     1
1070
    44
1040
1.0
1070
    74
1070
     0
1000
MTEXTEND
  0
POINT
  5
69B
330
4DF
100
AcDbEntity
  8
Defpoints
 62
     0
100
AcDbPoint
 10
93.56415278529635
 20
45.17548575210585
 30
0.0
  0
POINT
  5
69C
330
4DF
100
AcDbEntity
  8
Defpoints
 62
     0
100
AcDbPoint
 10
94.54444160190103
 20
51.21384055087709
 30
0.0
  0
POINT
  5
69D
330
4DF
100
AcDbEntity
  8
Defpoints
 62
     0
100
AcDbPoint
 10
77.31210844035944
 20
-2.824481148376733
 30
0.0
  0
ENDBLK
  5
4E8
330
4DF
100
AcDbEntity
  8
0
100
AcDbBlockEnd
  0
BLOCK
  5
4F1
330
4E9
100
AcDbEntity
  8
0
100
AcDbBlockBegin
  2
*D40
 70
     1
 10
0.0
 20
0.0
 30
0.0
  3
*D40
  1

  0
LINE
  5
690
330
4E9
100
AcDbEntity
  8
DIM
 62
     0
370
    -2
100
AcDbLine
 10
78.01315278529651
 20
40.67548575210599
 30
0.0
 11
78.01315278529651
 21
46.21384055087709
 31
0.0
  0
LINE
  5
691
330
4E9
100
AcDbEntity
  8
DIM
 62
     0
370
    -2
100
AcDbLine
 10
78.01315278529651
 20
46.21384055087709
 30
0.0
 11
76.15507329950945
 21
48.71384055087709
 31
0.0
  0
LINE
  5
692
330
4E9
100
AcDbEntity
  8
DIM
 62
     0
370
    -2
100
AcDbLine
 10
76.15507329950945
 20
48.71384055087709
 30
0.0
 11
76.15507329950945
 21
51.21384055087709
 31
0.0
  0
MTEXT
  5
693
330
4E9
100
AcDbEntity
  8
DIM
 62
     0
100
AcDbMText
 10
76.15507329950943
 20
53.38717388421043
 30
0.0
 40
1.25
 41
0.0
 71
     5
 72
     1
  1
\A1;0.701
 11
0.0000000000000001
 21
1.0
 31
0.0
 73
     1
 44
1.0
1001
ACAD
1000
MTEXTBEGIN
1070
    73
1070
     1
1070
    44
1040
1.0
1070
    74
1070
     0
1000
MTEXTEND
  0
POINT
  5
694
330
4E9
100
AcDbEntity
  8
Defpoints
 62
     0
100
AcDbPoint
 10
78.01315278529651
 20
40.30048575210599
 30
0.0
  0
POINT
  5
695
330
4E9
100
AcDbEntity
  8
Defpoints
 62
     0
100
AcDbPoint
 10
76.15507329950945
 20
51.21384055087709
 30
0.0
  0
POINT
  5
696
330
4E9
100
AcDbEntity
  8
Defpoints
 62
     0
100
AcDbPoint
 10
77.31210844035944
 20
-2.824481148376733
 30
0.0
  0
ENDBLK
  5
4F2
330
4E9
100
AcDbEntity
  8
0
100
AcDbBlockEnd
  0
BLOCK
  5
4FB
330
4F3
100
AcDbEntity
  8
0
100
AcDbBlockBegin
  2
*D41
 70
     1
 10
0.0
 20
0.0
 30
0.0
  3
*D41
  1

  0
LINE
  5
689
330
4F3
100
AcDbEntity
  8
DIM
 62
     0
370
    -2
100
AcDbLine
 10
78.70015278529628
 20
45.55048575210585
 30
0.0
 11
78.70015278529628
 21
47.67548575210585
 31
0.0
  0
LINE
  5
68A
330
4F3
100
AcDbEntity
  8
DIM
 62
     0
370
    -2
100
AcDbLine
 10
78.70015278529628
 20
47.67548575210585
 30
0.0
 11
77.89460770545405
 21
48.71384055087709
 31
0.0
  0
LINE
  5
68B
330
4F3
100
AcDbEntity
  8
DIM
 62
     0
370
    -2
100
AcDbLine
 10
77.89460770545405
 20
48.71384055087709
 30
0.0
 11
77.89460770545405
 21
51.21384055087709
 31
0.0
  0
MTEXT
  5
68C
330
4F3
100
AcDbEntity
  8
DIM
 62
     0
100
AcDbMText
 10
77.89460770545403
 20
53.59550721754377
 30
0.0
 40
1.25
 41
0.0
 71
     5
 72
     1
  1
\A1;1.388
 11
0.0000000000000001
 21
1.0
 31
0.0
 73
     1
 44
1.0
1001
ACAD
1000
MTEXTBEGIN
1070
    73
1070
     1
1070
    44
1040
1.0
1070
    74
1070
     0
1000
MTEXTEND
  0
POINT
  5
68D
330
4F3
100
AcDbEntity
  8
Defpoints
 62
     0
100
AcDbPoint
 10
78.70015278529628
 20
45.17548575210585
 30
0.0
  0
POINT
  5
68E
330
4F3
100
AcDbEntity
  8
Defpoints
 62
     0
100
AcDbPoint
 10
77.89460770545405
 20
51.21384055087709
 30
0.0
  0
POINT
  5
68F
330
4F3
100
AcDbEntity
  8
Defpoints
 62
     0
100
AcDbPoint
 10
77.31210844035944
 20
-2.824481148376733
 30
0.0
  0
ENDBLK
  5
4FC
330
4F3
100
AcDbEntity
  8
0
100
AcDbBlockEnd
  0
BLOCK
  5
503
330
4FD
100
AcDbEntity
  8
0
100
AcDbBlockBegin
  2
*D42
 70
     1
 10
0.0
 20
0.0
 30
0.0
  3
*D42
  1

  0
LINE
  5
684
330
4FD
100
AcDbEntity
  8
DIM
 62
     0
370
    -2
100
AcDbLine
 10
92.61615278529655
 20
48.89398575210579
 30
0.0
 11
92.61615278529655
 21
51.13109435644754
 31
0.0
  0
MTEXT
  5
685
330
4FD
100
AcDbEntity
  8
DIM
 62
     0
100
AcDbMText
 10
92.61615278529653
 20
54.03359435644755
 30
0.0
 40
1.25
 41
0.0
 71
     5
 72
     1
  1
\A1;15.304
 11
0.0000000000000001
 21
1.0
 31
0.0
 73
     1
 44
1.0
1001
ACAD
1000
MTEXTBEGIN
1070
    73
1070
     1
1070
    44
1040
1.0
1070
    74
1070
     0
1000
MTEXTEND
  0
POINT
  5
686
330
4FD
100
AcDbEntity
  8
Defpoints
 62
     0
100
AcDbPoint
 10
92.61615278529655
 20
48.51898575210579
 30
0.0
  0
POINT
  5
687
330
4FD
100
AcDbEntity
  8
Defpoints
 62
     0
100
AcDbPoint
 10
92.61615278529655
 20
51.13109435644754
 30
0.0
  0
POINT
  5
688
330
4FD
100
AcDbEntity
  8
Defpoints
 62
     0
100
AcDbPoint
 10
77.31210844035944
 20
-2.824481148376733
 30
0.0
  0
ENDBLK
  5
504
330
4FD
100
AcDbEntity
  8
0
100
AcDbBlockEnd
  0
BLOCK
  5
50B
330
505
100
AcDbEntity
  8
0
100
AcDbBlockBegin
  2
*D43
 70
     1
 10
0.0
 20
0.0
 30
0.0
  3
*D43
  1

  0
LINE
  5
67F
330
505
100
AcDbEntity
  8
DIM
 62
     0
370
    -2
100
AcDbLine
 10
79.66615278529646
 20
48.89398575210579
 30
0.0
 11
79.66615278529646
 21
51.21384055087709
 31
0.0
  0
MTEXT
  5
680
330
505
100
AcDbEntity
  8
DIM
 62
     0
100
AcDbMText
 10
79.66615278529644
 20
53.80384055087709
 30
0.0
 40
1.25
 41
0.0
 71
     5
 72
     1
  1
\A1;2.354
 11
0.0000000000000001
 21
1.0
 31
0.0
 73
     1
 44
1.0
1001
ACAD
1000
MTEXTBEGIN
1070
    73
1070
     1
1070
    44
1040
1.0
1070
    74
1070
     0
1000
MTEXTEND
  0
POINT
  5
681
330
505
100
AcDbEntity
  8
Defpoints
 62
     0
100
AcDbPoint
 10
79.66615278529646
 20
48.51898575210579
 30
0.0
  0
POINT
  5
682
330
505
100
AcDbEntity
  8
Defpoints
 62
     0
100
AcDbPoint
 10
79.66615278529646
 20
51.21384055087709
 30
0.0
  0
POINT
  5
683
330
505
100
AcDbEntity
  8
Defpoints
 62
     0
100
AcDbPoint
 10
77.31210844035944
 20
-2.824481148376733
 30
0.0
  0
ENDBLK
  5
50C
330
505
100
AcDbEntity
  8
0
100
AcDbBlockEnd
  0
BLOCK
  5
513
330
50D
100
AcDbEntity
  8
0
100
AcDbBlockBegin
  2
*D44
 70
     1
 10
0.0
 20
0.0
 30
0.0
  3
*D44
  1

  0
LINE
  5
67A
330
50D
100
AcDbEntity
  8
DIM
 62
     0
370
    -2
100
AcDbLine
 10
81.88815278529636
 20
30.17548575210587
 30
0.0
 11
75.31716703418739
 21
30.17548575210587
 31
0.0
  0
MTEXT
  5
67B
330
50D
100
AcDbEntity
  8
DIM
 62
     0
100
AcDbMText
 10
72.41466703418739
 20
30.17548575210587
 30
0.0
 40
1.25
 41
0.0
 71
     5
 72
     1
  1
\A1;33.000
 73
     1
 44
1.0
1001
ACAD
1000
MTEXTBEGIN
1070
    73
1070
     1
1070
    44
1040
1.0
1070
    74
1070
     0
1000
MTEXTEND
  0
POINT
  5
67C
330
50D
100
AcDbEntity
  8
Defpoints
 62
     0
100
AcDbPoint
 10
82.26315278529636
 20
30.17548575210587
 30
0.0
  0
POINT
  5
67D
330
50D
100
AcDbEntity
  8
Defpoints
 62
     0
100
AcDbPoint
 10
75.31716703418739
 20
30.17548575210587
 30
0.0
  0
POINT
  5
67E
330
50D
100
AcDbEntity
  8
Defpoints
 62
     0
100
AcDbPoint
 10
77.31210844035944
 20
-2.824481148376733
 30
0.0
  0
ENDBLK
  5
514
330
50D
100
AcDbEntity
  8
0
100
AcDbBlockEnd
  0
BLOCK
  5
51B
330
515
100
AcDbEntity
  8
0
100
AcDbBlockBegin
  2
*D45
 70
     1
 10
0.0
 20
0.0
 30
0.0
  3
*D45
  1

  0
LINE
  5
675
330
515
100
AcDbEntity
  8
DIM
 62
     0
370
    -2
100
AcDbLine
 10
81.88815278529636
 20
23.17548575210587
 30
0.0
 11
75.31716703418739
 21
23.17548575210587
 31
0.0
  0
MTEXT
  5
676
330
515
100
AcDbEntity
  8
DIM
 62
     0
100
AcDbMText
 10
72.41466703418739
 20
23.17548575210587
 30
0.0
 40
1.25
 41
0.0
 71
     5
 72
     1
  1
\A1;26.000
 73
     1
 44
1.0
1001
ACAD
1000
MTEXTBEGIN
1070
    73
1070
     1
1070
    44
1040
1.0
1070
    74
1070
     0
1000
MTEXTEND
  0
POINT
  5
677
330
515
100
AcDbEntity
  8
Defpoints
 62
     0
100
AcDbPoint
 10
82.26315278529636
 20
23.17548575210587
 30
0.0
  0
POINT
  5
678
330
515
100
AcDbEntity
  8
Defpoints
 62
     0
100
AcDbPoint
 10
75.31716703418739
 20
23.17548575210587
 30
0.0
  0
POINT
  5
679
330
515
100
AcDbEntity
  8
Defpoints
 62
     0
100
AcDbPoint
 10
77.31210844035944
 20
-2.824481148376733
 30
0.0
  0
ENDBLK
  5
51C
330
515
100
AcDbEntity
  8
0
100
AcDbBlockEnd
  0
BLOCK
  5
525
330
51D
100
AcDbEntity
  8
0
100
AcDbBlockBegin
  2
*D46
 70
     1
 10
0.0
 20
0.0
 30
0.0
  3
*D46
  1

  0
LINE
  5
66E
330
51D
100
AcDbEntity
  8
DIM
 62
     0
370
    -2
100
AcDbLine
 10
90.01315278529647
 20
22.80048575210587
 30
0.0
 11
90.01315278529647
 21
0.1460154232803608
 31
0.0
  0
LINE
  5
66F
330
51D
100
AcDbEntity
  8
DIM
 62
     0
370
    -2
100
AcDbLine
 10
90.01315278529647
 20
0.1460154232803608
 30
0.0
 11
88.55475804512506
 21
-2.353984576719638
 31
0.0
  0
LINE
  5
670
330
51D
100
AcDbEntity
  8
DIM
 62
     0
370
    -2
100
AcDbLine
 10
88.55475804512506
 20
-2.353984576719638
 30
0.0
 11
88.55475804512506
 21
-4.853984576719638
 31
0.0
  0
MTEXT
  5
671
330
51D
100
AcDbEntity
  8
DIM
 62
     0
100
AcDbMText
 10
88.55475804512506
 20
-7.54815124338629
 30
0.0
 40
1.25
 41
0.0
 71
     5
 72
     1
  1
\A1;12.701
 11
0.0000000000000001
 21
1.0
 31
0.0
 73
     1
 44
1.0
1001
ACAD
1000
MTEXTBEGIN
1070
    73
1070
     1
1070
    44
1040
1.0
1070
    74
1070
     0
1000
MTEXTEND
  0
POINT
  5
672
330
51D
100
AcDbEntity
  8
Defpoints
 62
     0
100
AcDbPoint
 10
90.01315278529647
 20
23.17548575210587
 30
0.0
  0
POINT
  5
673
330
51D
100
AcDbEntity
  8
Defpoints
 62
     0
100
AcDbPoint
 10
88.55475804512506
 20
-4.853984576719638
 30
0.0
  0
POINT
  5
674
330
51D
100
AcDbEntity
  8
Defpoints
 62
     0
100
AcDbPoint
 10
77.31210844035944
 20
-2.824481148376733
 30
0.0
  0
ENDBLK
  5
526
330
51D
100
AcDbEntity
  8
0
100
AcDbBlockEnd
  0
BLOCK
  5
52F
330
527
100
AcDbEntity
  8
0
100
AcDbBlockBegin
  2
*D47
 70
     1
 10
0.0
 20
0.0
 30
0.0
  3
*D47
  1

  0
LINE
  5
667
330
527
100
AcDbEntity
  8
DIM
 62
     0
370
    -2
100
AcDbLine
 10
82.26315278529636
 20
22.80048575210587
 30
0.0
 11
82.26315278529636
 21
0.1460154232803616
 31
0.0
  0
LINE
  5
668
330
527
100
AcDbEntity
  8
DIM
 62
     0
370
    -2
100
AcDbLine
 10
82.26315278529636
 20
0.1460154232803616
 30
0.0
 11
83.84820975274328
 21
-2.353984576719638
 31
0.0
  0
LINE
  5
669
330
527
100
AcDbEntity
  8
DIM
 62
     0
370
    -2
100
AcDbLine
 10
83.84820975274328
 20
-2.353984576719638
 30
0.0
 11
83.84820975274328
 21
-4.853984576719638
 31
0.0
  0
MTEXT
  5
66A
330
527
100
AcDbEntity
  8
DIM
 62
     0
100
AcDbMText
 10
83.84820975274328
 20
-7.235651243386291
 30
0.0
 40
1.25
 41
0.0
 71
     5
 72
     1
  1
\A1;4.951
 11
0.0000000000000001
 21
1.0
 31
0.0
 73
     1
 44
1.0
1001
ACAD
1000
MTEXTBEGIN
1070
    73
1070
     1
1070
    44
1040
1.0
1070
    74
1070
     0
1000
MTEXTEND
  0
POINT
  5
66B
330
527
100
AcDbEntity
  8
Defpoints
 62
     0
100
AcDbPoint
 10
82.26315278529636
 20
23.17548575210587
 30
0.0
  0
POINT
  5
66C
330
527
100
AcDbEntity
  8
Defpoints
 62
     0
100
AcDbPoint
 10
83.84820975274328
 20
-4.853984576719638
 30
0.0
  0
POINT
  5
66D
330
527
100
AcDbEntity
  8
Defpoints
 62
     0
100
AcDbPoint
 10
77.31210844035944
 20
-2.824481148376733
 30
0.0
  0
ENDBLK
  5
530
330
527
100
AcDbEntity
  8
0
100
AcDbBlockEnd
  0
BLOCK
  5
539
330
531
100
AcDbEntity
  8
0
100
AcDbBlockBegin
  2
*D48
 70
     1
 10
0.0
 20
0.0
 30
0.0
  3
*D48
  1

  0
LINE
  5
660
330
531
100
AcDbEntity
  8
DIM
 62
     0
370
    -2
100
AcDbLine
 10
93.57415278529636
 20
6.800485752105871
 30
0.0
 11
93.57415278529636
 21
0.1460154232803609
 31
0.0
  0
LINE
  5
661
330
531
100
AcDbEntity
  8
DIM
 62
     0
370
    -2
100
AcDbLine
 10
93.57415278529636
 20
0.1460154232803609
 30
0.0
 11
92.45775189979044
 21
-2.353984576719638
 31
0.0
  0
LINE
  5
662
330
531
100
AcDbEntity
  8
DIM
 62
     0
370
    -2
100
AcDbLine
 10
92.45775189979044
 20
-2.353984576719638
 30
0.0
 11
92.45775189979044
 21
-4.853984576719638
 31
0.0
  0
MTEXT
  5
663
330
531
100
AcDbEntity
  8
DIM
 62
     0
100
AcDbMText
 10
92.45775189979044
 20
-7.860651243386289
 30
0.0
 40
1.25
 41
0.0
 71
     5
 72
     1
  1
\A1;16.262
 11
0.0000000000000001
 21
1.0
 31
0.0
 73
     1
 44
1.0
1001
ACAD
1000
MTEXTBEGIN
1070
    73
1070
     1
1070
    44
1040
1.0
1070
    74
1070
     0
1000
MTEXTEND
  0
POINT
  5
664
330
531
100
AcDbEntity
  8
Defpoints
 62
     0
100
AcDbPoint
 10
93.57415278529636
 20
7.175485752105871
 30
0.0
  0
POINT
  5
665
330
531
100
AcDbEntity
  8
Defpoints
 62
     0
100
AcDbPoint
 10
92.45775189979044
 20
-4.853984576719638
 30
0.0
  0
POINT
  5
666
330
531
100
AcDbEntity
  8
Defpoints
 62
     0
100
AcDbPoint
 10
77.31210844035944
 20
-2.824481148376733
 30
0.0
  0
ENDBLK
  5
53A
330
531
100
AcDbEntity
  8
0
100
AcDbBlockEnd
  0
BLOCK
  5
543
330
53B
100
AcDbEntity
  8
0
100
AcDbBlockBegin
  2
*D49
 70
     1
 10
0.0
 20
0.0
 30
0.0
  3
*D49
  1

  0
LINE
  5
659
330
53B
100
AcDbEntity
  8
DIM
 62
     0
370
    -2
100
AcDbLine
 10
78.72515278529634
 20
6.800485752105871
 30
0.0
 11
78.72515278529634
 21
0.1460154232803615
 31
0.0
  0
LINE
  5
65A
330
53B
100
AcDbEntity
  8
DIM
 62
     0
370
    -2
100
AcDbLine
 10
78.72515278529634
 20
0.1460154232803615
 30
0.0
 11
79.60083401479936
 21
-2.353984576719638
 31
0.0
  0
LINE
  5
65B
330
53B
100
AcDbEntity
  8
DIM
 62
     0
370
    -2
100
AcDbLine
 10
79.60083401479936
 20
-2.353984576719638
 30
0.0
 11
79.60083401479936
 21
-4.853984576719638
 31
0.0
  0
MTEXT
  5
65C
330
53B
100
AcDbEntity
  8
DIM
 62
     0
100
AcDbMText
 10
79.60083401479936
 20
-7.027317910052958
 30
0.0
 40
1.25
 41
0.0
 71
     5
 72
     1
  1
\A1;1.413
 11
0.0000000000000001
 21
1.0
 31
0.0
 73
     1
 44
1.0
1001
ACAD
1000
MTEXTBEGIN
1070
    73
1070
     1
1070
    44
1040
1.0
1070
    74
1070
     0
1000
MTEXTEND
  0
POINT
  5
65D
330
53B
100
AcDbEntity
  8
Defpoints
 62
     0
100
AcDbPoint
 10
78.72515278529634
 20
7.175485752105871
 30
0.0
  0
POINT
  5
65E
330
53B
100
AcDbEntity
  8
Defpoints
 62
     0
100
AcDbPoint
 10
79.60083401479936
 20
-4.853984576719638
 30
0.0
  0
POINT
  5
65F
330
53B
100
AcDbEntity
  8
Defpoints
 62
     0
100
AcDbPoint
 10
77.31210844035944
 20
-2.824481148376733
 30
0.0
  0
ENDBLK
  5
544
330
53B
100
AcDbEntity
  8
0
100
AcDbBlockEnd
  0
BLOCK
  5
54B
330
545
100
AcDbEntity
  8
0
100
AcDbBlockBegin
  2
*D50
 70
     1
 10
0.0
 20
0.0
 30
0.0
  3
*D50
  1

  0
LINE
  5
654
330
545
100
AcDbEntity
  8
DIM
 62
     0
370
    -2
100
AcDbLine
 10
90.38815278529636
 20
15.80048575210598
 30
0.0
 11
90.38815278529636
 21
-4.853984576719638
 31
0.0
  0
MTEXT
  5
655
330
545
100
AcDbEntity
  8
DIM
 62
     0
100
AcDbMText
 10
90.38815278529636
 20
-7.756484576719623
 30
0.0
 40
1.25
 41
0.0
 71
     5
 72
     1
  1
\A1;13.076
 11
0.0000000000000001
 21
1.0
 31
0.0
 73
     1
 44
1.0
1001
ACAD
1000
MTEXTBEGIN
1070
    73
1070
     1
1070
    44
1040
1.0
1070
    74
1070
     0
1000
MTEXTEND
  0
POINT
  5
656
330
545
100
AcDbEntity
  8
Defpoints
 62
     0
100
AcDbPoint
 10
90.38815278529636
 20
16.17548575210598
 30
0.0
  0
POINT
  5
657
330
545
100
AcDbEntity
  8
Defpoints
 62
     0
100
AcDbPoint
 10
90.38815278529636
 20
-4.853984576719638
 30
0.0
  0
POINT
  5
658
330
545
100
AcDbEntity
  8
Defpoints
 62
     0
100
AcDbPoint
 10
77.31210844035944
 20
-2.824481148376733
 30
0.0
  0
ENDBLK
  5
54C
330
545
100
AcDbEntity
  8
0
100
AcDbBlockEnd
  0
BLOCK
  5
553
330
54D
100
AcDbEntity
  8
0
100
AcDbBlockBegin
  2
*D51
 70
     1
 10
0.0
 20
0.0
 30
0.0
  3
*D51
  1

  0
LINE
  5
64F
330
54D
100
AcDbEntity
  8
DIM
 62
     0
370
    -2
100
AcDbLine
 10
81.88815278529636
 20
15.80048575210598
 30
0.0
 11
81.88815278529636
 21
-4.853984576719638
 31
0.0
  0
MTEXT
  5
650
330
54D
100
AcDbEntity
  8
DIM
 62
     0
100
AcDbMText
 10
81.88815278529636
 20
-7.443984576719625
 30
0.0
 40
1.25
 41
0.0
 71
     5
 72
     1
  1
\A1;4.576
 11
0.0000000000000001
 21
1.0
 31
0.0
 73
     1
 44
1.0
1001
ACAD
1000
MTEXTBEGIN
1070
    73
1070
     1
1070
    44
1040
1.0
1070
    74
1070
     0
1000
MTEXTEND
  0
POINT
  5
651
330
54D
100
AcDbEntity
  8
Defpoints
 62
     0
100
AcDbPoint
 10
81.88815278529636
 20
16.17548575210598
 30
0.0
  0
POINT
  5
652
330
54D
100
AcDbEntity
  8
Defpoints
 62
     0
100
AcDbPoint
 10
81.88815278529636
 20
-4.853984576719638
 30
0.0
  0
POINT
  5
653
330
54D
100
AcDbEntity
  8
Defpoints
 62
     0
100
AcDbPoint
 10
77.31210844035944
 20
-2.824481148376733
 30
0.0
  0
ENDBLK
  5
554
330
54D
100
AcDbEntity
  8
0
100
AcDbBlockEnd
  0
BLOCK
  5
55B
330
555
100
AcDbEntity
  8
0
100
AcDbBlockBegin
  2
*D52
 70
     1
 10
0.0
 20
0.0
 30
0.0
  3
*D52
  1

  0
LINE
  5
64A
330
555
100
AcDbEntity
  8
DIM
 62
     0
370
    -2
100
AcDbLine
 10
94.96415278529626
 20
-3.199514247894128
 30
0.0
 11
94.96415278529626
 21
-4.71434370746563
 31
0.0
  0
MTEXT
  5
64B
330
555
100
AcDbEntity
  8
DIM
 62
     0
100
AcDbMText
 10
94.96415278529626
 20
-7.721010374132281
 30
0.0
 40
1.25
 41
0.0
 71
     5
 72
     1
  1
\A1;17.652
 11
0.0000000000000001
 21
1.0
 31
0.0
 73
     1
 44
1.0
1001
ACAD
1000
MTEXTBEGIN
1070
    73
1070
     1
1070
    44
1040
1.0
1070
    74
1070
     0
1000
MTEXTEND
  0
POINT
  5
64C
330
555
100
AcDbEntity
  8
Defpoints
 62
     0
100
AcDbPoint
 10
94.96415278529626
 20
-2.824514247894128
 30
0.0
  0
POINT
  5
64D
330
555
100
AcDbEntity
  8
Defpoints
 62
     0
100
AcDbPoint
 10
94.96415278529626
 20
-4.71434370746563
 30
0.0
  0
POINT
  5
64E
330
555
100
AcDbEntity
  8
Defpoints
 62
     0
100
AcDbPoint
 10
77.31210844035944
 20
-2.824481148376733
 30
0.0
  0
ENDBLK
  5
55C
330
555
100
AcDbEntity
  8
0
100
AcDbBlockEnd
  0
BLOCK
  5
563
330
55D
100
AcDbEntity
  8
0
100
AcDbBlockBegin
  2
*D53
 70
     1
 10
0.0
 20
0.0
 30
0.0
  3
*D53
  1

  0
LINE
  5
645
330
55D
100
AcDbEntity
  8
DIM
 62
     0
370
    -2
100
AcDbLine
 10
77.31215278529636
 20
-3.199514247894128
 30
0.0
 11
77.31215278529636
 21
-4.902994835877322
 31
0.0
  0
MTEXT
  5
646
330
55D
100
AcDbEntity
  8
DIM
 62
     0
100
AcDbMText
 10
77.31215278529636
 20
-7.076328169210643
 30
0.0
 40
1.25
 41
0.0
 71
     5
 72
     1
  1
\A1;0.000
 11
0.0000000000000001
 21
1.0
 31
0.0
 73
     1
 44
1.0
1001
ACAD
1000
MTEXTBEGIN
1070
    73
1070
     1
1070
    44
1040
1.0
1070
    74
1070
     0
1000
MTEXTEND
  0
POINT
  5
647
330
55D
100
AcDbEntity
  8
Defpoints
 62
     0
100
AcDbPoint
 10
77.31215278529636
 20
-2.824514247894128
 30
0.0
  0
POINT
  5
648
330
55D
100
AcDbEntity
  8
Defpoints
 62
     0
100
AcDbPoint
 10
77.31215278529636
 20
-4.902994835877322
 30
0.0
  0
POINT
  5
649
330
55D
100
AcDbEntity
  8
Defpoints
 62
     0
100
AcDbPoint
 10
77.31210844035944
 20
-2.824481148376733
 30
0.0
  0
ENDBLK
  5
564
330
55D
100
AcDbEntity
  8
0
100
AcDbBlockEnd
  0
BLOCK
  5
56B
330
565
100
AcDbEntity
  8
0
100
AcDbBlockBegin
  2
*D54
 70
     1
 10
0.0
 20
0.0
 30
0.0
  3
*D54
  1

  0
LINE
  5
640
330
565
100
AcDbEntity
  8
DIM
 62
     0
370
    -2
100
AcDbLine
 10
81.51315278529635
 20
16.17548575210598
 30
0.0
 11
75.28402919158196
 21
16.17548575210598
 31
0.0
  0
MTEXT
  5
641
330
565
100
AcDbEntity
  8
DIM
 62
     0
100
AcDbMText
 10
72.5898625249153
 20
16.17548575210598
 30
0.0
 40
1.25
 41
0.0
 71
     5
 72
     1
  1
\A1;19.000
 73
     1
 44
1.0
1001
ACAD
1000
MTEXTBEGIN
1070
    73
1070
     1
1070
    44
1040
1.0
1070
    74
1070
     0
1000
MTEXTEND
  0
POINT
  5
642
330
565
100
AcDbEntity
  8
Defpoints
 62
     0
100
AcDbPoint
 10
81.88815278529636
 20
16.17548575210598
 30
0.0
  0
POINT
  5
643
330
565
100
AcDbEntity
  8
Defpoints
 62
     0
100
AcDbPoint
 10
75.28402919158196
 20
16.17548575210598
 30
0.0
  0
POINT
  5
644
330
565
100
AcDbEntity
  8
Defpoints
 62
     0
100
AcDbPoint
 10
77.31210844035944
 20
-2.824481148376733
 30
0.0
  0
ENDBLK
  5
56C
330
565
100
AcDbEntity
  8
0
100
AcDbBlockEnd
  0
BLOCK
  5
573
330
56D
100
AcDbEntity
  8
0
100
AcDbBlockBegin
  2
*D55
 70
     1
 10
0.0
 20
0.0
 30
0.0
  3
*D55
  1

  0
LINE
  5
63B
330
56D
100
AcDbEntity
  8
DIM
 62
     0
370
    -2
100
AcDbLine
 10
78.35015278529635
 20
7.175485752105871
 30
0.0
 11
75.28402919158196
 21
7.175485752105871
 31
0.0
  0
MTEXT
  5
63C
330
56D
100
AcDbEntity
  8
DIM
 62
     0
100
AcDbMText
 10
72.69402919158196
 20
7.175485752105871
 30
0.0
 40
1.25
 41
0.0
 71
     5
 72
     1
  1
\A1;10.000
 73
     1
 44
1.0
1001
ACAD
1000
MTEXTBEGIN
1070
    73
1070
     1
1070
    44
1040
1.0
1070
    74
1070
     0
1000
MTEXTEND
  0
POINT
  5
63D
330
56D
100
AcDbEntity
  8
Defpoints
 62
     0
100
AcDbPoint
 10
78.72515278529634
 20
7.175485752105871
 30
0.0
  0
POINT
  5
63E
330
56D
100
AcDbEntity
  8
Defpoints
 62
     0
100
AcDbPoint
 10
75.28402919158196
 20
7.175485752105871
 30
0.0
  0
POINT
  5
63F
330
56D
100
AcDbEntity
  8
Defpoints
 62
     0
100
AcDbPoint
 10
77.31210844035944
 20
-2.824481148376733
 30
0.0
  0
ENDBLK
  5
574
330
56D
100
AcDbEntity
  8
0
100
AcDbBlockEnd
  0
BLOCK
  5
57B
330
575
100
AcDbEntity
  8
0
100
AcDbBlockBegin
  2
*D56
 70
     1
 10
0.0
 20
0.0
 30
0.0
  3
*D56
  1

  0
LINE
  5
636
330
575
100
AcDbEntity
  8
DIM
 62
     0
370
    -2
100
AcDbLine
 10
76.93715278529636
 20
-2.824514247894128
 30
0.0
 11
75.30188612136119
 21
-2.824514247894128
 31
0.0
  0
MTEXT
  5
637
330
575
100
AcDbEntity
  8
DIM
 62
     0
100
AcDbMText
 10
73.12855278802786
 20
-2.824514247894128
 30
0.0
 40
1.25
 41
0.0
 71
     5
 72
     1
  1
\A1;0.000
 73
     1
 44
1.0
1001
ACAD
1000
MTEXTBEGIN
1070
    73
1070
     1
1070
    44
1040
1.0
1070
    74
1070
     0
1000
MTEXTEND
  0
POINT
  5
638
330
575
100
AcDbEntity
  8
Defpoints
 62
     0
100
AcDbPoint
 10
77.31215278529636
 20
-2.824514247894128
 30
0.0
  0
POINT
  5
639
330
575
100
AcDbEntity
  8
Defpoints
 62
     0
100
AcDbPoint
 10
75.30188612136119
 20
-2.824514247894128
 30
0.0
  0
POINT
  5
63A
330
575
100
AcDbEntity
  8
Defpoints
 62
     0
100
AcDbPoint
 10
77.31210844035944
 20
-2.824481148376733
 30
0.0
  0
ENDBLK
  5
57C
330
575
100
AcDbEntity
  8
0
100
AcDbBlockEnd
  0
BLOCK
  5
6D3
330
6D2
100
AcDbEntity
  8
0
100
AcDbBlockBegin
  2
*D57
 70
     1
 10
0.0
 20
0.0
 30
0.0
  3
*D57
  1

  0
LINE
  5
6D4
330
6D2
100
AcDbEntity
  8
DIM
 62
     0
370
    -2
100
AcDbLine
 10
227.369863877283
 20
212.8518363500145
 30
0.0
 11
225.7345972133478
 21
212.8518363500145
 31
0.0
  0
MTEXT
  5
6D5
330
6D2
100
AcDbEntity
  8
DIM
 62
     0
100
AcDbMText
 10
223.2762638800144
 20
212.8518363500145
 30
0.0
 40
1.25
 41
0.0
 71
     5
 72
     1
  1
\A1;0.000
 73
     1
 44
1.0
1001
ACAD
1000
MTEXTBEGIN
1070
    73
1070
     1
1070
    44
1040
1.0
1070
    74
1070
     0
1000
MTEXTEND
  0
POINT
  5
6D6
330
6D2
100
AcDbEntity
  8
Defpoints
 62
     0
100
AcDbPoint
 10
227.744863877283
 20
212.8518363500145
 30
0.0
  0
POINT
  5
6D7
330
6D2
100
AcDbEntity
  8
Defpoints
 62
     0
100
AcDbPoint
 10
225.7345972133478
 20
212.8518363500145
 30
0.0
  0
POINT
  5
6D8
330
6D2
100
AcDbEntity
  8
Defpoints
 62
     0
100
AcDbPoint
 10
227.7448195323461
 20
212.8518694495319
 30
0.0
  0
ENDBLK
  5
6D9
330
6D2
100
AcDbEntity
  8
0
100
AcDbBlockEnd
  0
BLOCK
  5
6DB
330
6DA
100
AcDbEntity
  8
0
100
AcDbBlockBegin
  2
*D58
 70
     1
 10
0.0
 20
0.0
 30
0.0
  3
*D58
  1

  0
LINE
  5
6DC
330
6DA
100
AcDbEntity
  8
DIM
 62
     0
370
    -2
100
AcDbLine
 10
228.782863877283
 20
222.8518363500145
 30
0.0
 11
225.7167402835686
 21
222.8518363500145
 31
0.0
  0
MTEXT
  5
6DD
330
6DA
100
AcDbEntity
  8
DIM
 62
     0
100
AcDbMText
 10
222.8417402835686
 20
222.8518363500145
 30
0.0
 40
1.25
 41
0.0
 71
     5
 72
     1
  1
\A1;10.000
 73
     1
 44
1.0
1001
ACAD
1000
MTEXTBEGIN
1070
    73
1070
     1
1070
    44
1040
1.0
1070
    74
1070
     0
1000
MTEXTEND
  0
POINT
  5
6DE
330
6DA
100
AcDbEntity
  8
Defpoints
 62
     0
100
AcDbPoint
 10
229.157863877283
 20
222.8518363500145
 30
0.0
  0
POINT
  5
6DF
330
6DA
100
AcDbEntity
  8
Defpoints
 62
     0
100
AcDbPoint
 10
225.7167402835686
 20
222.8518363500145
 30
0.0
  0
POINT
  5
6E0
330
6DA
100
AcDbEntity
  8
Defpoints
 62
     0
100
AcDbPoint
 10
227.7448195323461
 20
212.8518694495319
 30
0.0
  0
ENDBLK
  5
6E1
330
6DA
100
AcDbEntity
  8
0
100
AcDbBlockEnd
  0
BLOCK
  5
6E3
330
6E2
100
AcDbEntity
  8
0
100
AcDbBlockBegin
  2
*D59
 70
     1
 10
0.0
 20
0.0
 30
0.0
  3
*D59
  1

  0
LINE
  5
6E4
330
6E2
100
AcDbEntity
  8
DIM
 62
     0
370
    -2
100
AcDbLine
 10
231.9458638772831
 20
231.8518363500146
 30
0.0
 11
225.7167402835686
 21
231.8518363500146
 31
0.0
  0
MTEXT
  5
6E5
330
6E2
100
AcDbEntity
  8
DIM
 62
     0
100
AcDbMText
 10
222.737573616902
 20
231.8518363500146
 30
0.0
 40
1.25
 41
0.0
 71
     5
 72
     1
  1
\A1;19.000
 73
     1
 44
1.0
1001
ACAD
1000
MTEXTBEGIN
1070
    73
1070
     1
1070
    44
1040
1.0
1070
    74
1070
     0
1000
MTEXTEND
  0
POINT
  5
6E6
330
6E2
100
AcDbEntity
  8
Defpoints
 62
     0
100
AcDbPoint
 10
232.320863877283
 20
231.8518363500146
 30
0.0
  0
POINT
  5
6E7
330
6E2
100
AcDbEntity
  8
Defpoints
 62
     0
100
AcDbPoint
 10
225.7167402835686
 20
231.8518363500146
 30
0.0
  0
POINT
  5
6E8
330
6E2
100
AcDbEntity
  8
Defpoints
 62
     0
100
AcDbPoint
 10
227.7448195323461
 20
212.8518694495319
 30
0.0
  0
ENDBLK
  5
6E9
330
6E2
100
AcDbEntity
  8
0
100
AcDbBlockEnd
  0
BLOCK
  5
6EB
330
6EA
100
AcDbEntity
  8
0
100
AcDbBlockBegin
  2
*D60
 70
     1
 10
0.0
 20
0.0
 30
0.0
  3
*D60
  1

  0
LINE
  5
6EC
330
6EA
100
AcDbEntity
  8
DIM
 62
     0
370
    -2
100
AcDbLine
 10
227.744863877283
 20
212.4768363500145
 30
0.0
 11
227.744863877283
 21
210.7733557620313
 31
0.0
  0
MTEXT
  5
6ED
330
6EA
100
AcDbEntity
  8
DIM
 62
     0
100
AcDbMText
 10
227.744863877283
 20
208.315022428698
 30
0.0
 40
1.25
 41
0.0
 71
     5
 72
     1
  1
\A1;0.000
 11
0.0000000000000001
 21
1.0
 31
0.0
 73
     1
 44
1.0
1001
ACAD
1000
MTEXTBEGIN
1070
    73
1070
     1
1070
    44
1040
1.0
1070
    74
1070
     0
1000
MTEXTEND
  0
POINT
  5
6EE
330
6EA
100
AcDbEntity
  8
Defpoints
 62
     0
100
AcDbPoint
 10
227.744863877283
 20
212.8518363500145
 30
0.0
  0
POINT
  5
6EF
330
6EA
100
AcDbEntity
  8
Defpoints
 62
     0
100
AcDbPoint
 10
227.744863877283
 20
210.7733557620313
 30
0.0
  0
POINT
  5
6F0
330
6EA
100
AcDbEntity
  8
Defpoints
 62
     0
100
AcDbPoint
 10
227.7448195323461
 20
212.8518694495319
 30
0.0
  0
ENDBLK
  5
6F1
330
6EA
100
AcDbEntity
  8
0
100
AcDbBlockEnd
  0
BLOCK
  5
6F3
330
6F2
100
AcDbEntity
  8
0
100
AcDbBlockBegin
  2
*D61
 70
     1
 10
0.0
 20
0.0
 30
0.0
  3
*D61
  1

  0
LINE
  5
6F4
330
6F2
100
AcDbEntity
  8
DIM
 62
     0
370
    -2
100
AcDbLine
 10
245.3968638772829
 20
212.4768363500145
 30
0.0
 11
245.3968638772829
 21
210.962006890443
 31
0.0
  0
MTEXT
  5
6F5
330
6F2
100
AcDbEntity
  8
DIM
 62
     0
100
AcDbMText
 10
245.3968638772829
 20
207.6703402237764
 30
0.0
 40
1.25
 41
0.0
 71
     5
 72
     1
  1
\A1;17.652
 11
0.0000000000000001
 21
1.0
 31
0.0
 73
     1
 44
1.0
1001
ACAD
1000
MTEXTBEGIN
1070
    73
1070
     1
1070
    44
1040
1.0
1070
    74
1070
     0
1000
MTEXTEND
  0
POINT
  5
6F6
330
6F2
100
AcDbEntity
  8
Defpoints
 62
     0
100
AcDbPoint
 10
245.3968638772829
 20
212.8518363500145
 30
0.0
  0
POINT
  5
6F7
330
6F2
100
AcDbEntity
  8
Defpoints
 62
     0
100
AcDbPoint
 10
245.3968638772829
 20
210.962006890443
 30
0.0
  0
POINT
  5
6F8
330
6F2
100
AcDbEntity
  8
Defpoints
 62
     0
100
AcDbPoint
 10
227.7448195323461
 20
212.8518694495319
 30
0.0
  0
ENDBLK
  5
6F9
330
6F2
100
AcDbEntity
  8
0
100
AcDbBlockEnd
  0
BLOCK
  5
6FB
330
6FA
100
AcDbEntity
  8
0
100
AcDbBlockBegin
  2
*D62
 70
     1
 10
0.0
 20
0.0
 30
0.0
  3
*D62
  1

  0
LINE
  5
6FC
330
6FA
100
AcDbEntity
  8
DIM
 62
     0
370
    -2
100
AcDbLine
 10
232.320863877283
 20
231.4768363500145
 30
0.0
 11
232.320863877283
 21
210.822366021189
 31
0.0
  0
MTEXT
  5
6FD
330
6FA
100
AcDbEntity
  8
DIM
 62
     0
100
AcDbMText
 10
232.320863877283
 20
207.947366021189
 30
0.0
 40
1.25
 41
0.0
 71
     5
 72
     1
  1
\A1;4.576
 11
0.0000000000000001
 21
1.0
 31
0.0
 73
     1
 44
1.0
1001
ACAD
1000
MTEXTBEGIN
1070
    73
1070
     1
1070
    44
1040
1.0
1070
    74
1070
     0
1000
MTEXTEND
  0
POINT
  5
6FE
330
6FA
100
AcDbEntity
  8
Defpoints
 62
     0
100
AcDbPoint
 10
232.320863877283
 20
231.8518363500146
 30
0.0
  0
POINT
  5
6FF
330
6FA
100
AcDbEntity
  8
Defpoints
 62
     0
100
AcDbPoint
 10
232.320863877283
 20
210.822366021189
 30
0.0
  0
POINT
  5
700
330
6FA
100
AcDbEntity
  8
Defpoints
 62
     0
100
AcDbPoint
 10
227.7448195323461
 20
212.8518694495319
 30
0.0
  0
ENDBLK
  5
701
330
6FA
100
AcDbEntity
  8
0
100
AcDbBlockEnd
  0
BLOCK
  5
703
330
702
100
AcDbEntity
  8
0
100
AcDbBlockBegin
  2
*D63
 70
     1
 10
0.0
 20
0.0
 30
0.0
  3
*D63
  1

  0
LINE
  5
704
330
702
100
AcDbEntity
  8
DIM
 62
     0
370
    -2
100
AcDbLine
 10
240.820863877283
 20
231.4768363500145
 30
0.0
 11
240.820863877283
 21
210.822366021189
 31
0.0
  0
MTEXT
  5
705
330
702
100
AcDbEntity
  8
DIM
 62
     0
100
AcDbMText
 10
240.820863877283
 20
207.634866021189
 30
0.0
 40
1.25
 41
0.0
 71
     5
 72
     1
  1
\A1;13.076
 11
0.0000000000000001
 21
1.0
 31
0.0
 73
     1
 44
1.0
1001
ACAD
1000
MTEXTBEGIN
1070
    73
1070
     1
1070
    44
1040
1.0
1070
    74
1070
     0
1000
MTEXTEND
  0
POINT
  5
706
330
702
100
AcDbEntity
  8
Defpoints
 62
     0
100
AcDbPoint
 10
240.820863877283
 20
231.8518363500146
 30
0.0
  0
POINT
  5
707
330
702
100
AcDbEntity
  8
Defpoints
 62
     0
100
AcDbPoint
 10
240.820863877283
 20
210.822366021189
 30
0.0
  0
POINT
  5
708
330
702
100
AcDbEntity
  8
Defpoints
 62
     0
100
AcDbPoint
 10
227.7448195323461
 20
212.8518694495319
 30
0.0
  0
ENDBLK
  5
709
330
702
100
AcDbEntity
  8
0
100
AcDbBlockEnd
  0
BLOCK
  5
70B
330
70A
100
AcDbEntity
  8
0
100
AcDbBlockBegin
  2
*D64
 70
     1
 10
0.0
 20
0.0
 30
0.0
  3
*D64
  1

  0
LINE
  5
70C
330
70A
100
AcDbEntity
  8
DIM
 62
     0
370
    -2
100
AcDbLine
 10
229.157863877283
 20
222.4768363500146
 30
0.0
 11
229.157863877283
 21
215.822366021189
 31
0.0
  0
LINE
  5
70D
330
70A
100
AcDbEntity
  8
DIM
 62
     0
370
    -2
100
AcDbLine
 10
229.157863877283
 20
215.822366021189
 30
0.0
 11
230.033545106786
 21
213.322366021189
 31
0.0
  0
LINE
  5
70E
330
70A
100
AcDbEntity
  8
DIM
 62
     0
370
    -2
100
AcDbLine
 10
230.033545106786
 20
213.322366021189
 30
0.0
 11
230.033545106786
 21
210.822366021189
 31
0.0
  0
MTEXT
  5
70F
330
70A
100
AcDbEntity
  8
DIM
 62
     0
100
AcDbMText
 10
230.0335451067859
 20
208.3640326878557
 30
0.0
 40
1.25
 41
0.0
 71
     5
 72
     1
  1
\A1;1.413
 11
0.0000000000000001
 21
1.0
 31
0.0
 73
     1
 44
1.0
1001
ACAD
1000
MTEXTBEGIN
1070
    73
1070
     1
1070
    44
1040
1.0
1070
    74
1070
     0
1000
MTEXTEND
  0
POINT
  5
710
330
70A
100
AcDbEntity
  8
Defpoints
 62
     0
100
AcDbPoint
 10
229.157863877283
 20
222.8518363500145
 30
0.0
  0
POINT
  5
711
330
70A
100
AcDbEntity
  8
Defpoints
 62
     0
100
AcDbPoint
 10
230.033545106786
 20
210.822366021189
 30
0.0
  0
POINT
  5
712
330
70A
100
AcDbEntity
  8
Defpoints
 62
     0
100
AcDbPoint
 10
227.7448195323461
 20
212.8518694495319
 30
0.0
  0
ENDBLK
  5
713
330
70A
100
AcDbEntity
  8
0
100
AcDbBlockEnd
  0
BLOCK
  5
715
330
714
100
AcDbEntity
  8
0
100
AcDbBlockBegin
  2
*D65
 70
     1
 10
0.0
 20
0.0
 30
0.0
  3
*D65
  1

  0
LINE
  5
716
330
714
100
AcDbEntity
  8
DIM
 62
     0
370
    -2
100
AcDbLine
 10
244.006863877283
 20
222.4768363500146
 30
0.0
 11
244.006863877283
 21
215.822366021189
 31
0.0
  0
LINE
  5
717
330
714
100
AcDbEntity
  8
DIM
 62
     0
370
    -2
100
AcDbLine
 10
244.006863877283
 20
215.822366021189
 30
0.0
 11
242.8904629917771
 21
213.322366021189
 31
0.0
  0
LINE
  5
718
330
714
100
AcDbEntity
  8
DIM
 62
     0
370
    -2
100
AcDbLine
 10
242.8904629917771
 20
213.322366021189
 30
0.0
 11
242.8904629917771
 21
210.822366021189
 31
0.0
  0
MTEXT
  5
719
330
714
100
AcDbEntity
  8
DIM
 62
     0
100
AcDbMText
 10
242.8904629917771
 20
207.5306993545224
 30
0.0
 40
1.25
 41
0.0
 71
     5
 72
     1
  1
\A1;16.262
 11
0.0000000000000001
 21
1.0
 31
0.0
 73
     1
 44
1.0
1001
ACAD
1000
MTEXTBEGIN
1070
    73
1070
     1
1070
    44
1040
1.0
1070
    74
1070
     0
1000
MTEXTEND
  0
POINT
  5
71A
330
714
100
AcDbEntity
  8
Defpoints
 62
     0
100
AcDbPoint
 10
244.006863877283
 20
222.8518363500145
 30
0.0
  0
POINT
  5
71B
330
714
100
AcDbEntity
  8
Defpoints
 62
     0
100
AcDbPoint
 10
242.8904629917771
 20
210.822366021189
 30
0.0
  0
POINT
  5
71C
330
714
100
AcDbEntity
  8
Defpoints
 62
     0
100
AcDbPoint
 10
227.7448195323461
 20
212.8518694495319
 30
0.0
  0
ENDBLK
  5
71D
330
714
100
AcDbEntity
  8
0
100
AcDbBlockEnd
  0
BLOCK
  5
71F
330
71E
100
AcDbEntity
  8
0
100
AcDbBlockBegin
  2
*D66
 70
     1
 10
0.0
 20
0.0
 30
0.0
  3
*D66
  1

  0
LINE
  5
720
330
71E
100
AcDbEntity
  8
DIM
 62
     0
370
    -2
100
AcDbLine
 10
232.695863877283
 20
238.4768363500145
 30
0.0
 11
232.695863877283
 21
215.822366021189
 31
0.0
  0
LINE
  5
721
330
71E
100
AcDbEntity
  8
DIM
 62
     0
370
    -2
100
AcDbLine
 10
232.695863877283
 20
215.822366021189
 30
0.0
 11
234.2809208447299
 21
213.322366021189
 31
0.0
  0
LINE
  5
722
330
71E
100
AcDbEntity
  8
DIM
 62
     0
370
    -2
100
AcDbLine
 10
234.2809208447299
 20
213.322366021189
 30
0.0
 11
234.2809208447299
 21
210.822366021189
 31
0.0
  0
MTEXT
  5
723
330
71E
100
AcDbEntity
  8
DIM
 62
     0
100
AcDbMText
 10
234.2809208447298
 20
208.1556993545224
 30
0.0
 40
1.25
 41
0.0
 71
     5
 72
     1
  1
\A1;4.951
 11
0.0000000000000001
 21
1.0
 31
0.0
 73
     1
 44
1.0
1001
ACAD
1000
MTEXTBEGIN
1070
    73
1070
     1
1070
    44
1040
1.0
1070
    74
1070
     0
1000
MTEXTEND
  0
POINT
  5
724
330
71E
100
AcDbEntity
  8
Defpoints
 62
     0
100
AcDbPoint
 10
232.695863877283
 20
238.8518363500145
 30
0.0
  0
POINT
  5
725
330
71E
100
AcDbEntity
  8
Defpoints
 62
     0
100
AcDbPoint
 10
234.2809208447299
 20
210.822366021189
 30
0.0
  0
POINT
  5
726
330
71E
100
AcDbEntity
  8
Defpoints
 62
     0
100
AcDbPoint
 10
227.7448195323461
 20
212.8518694495319
 30
0.0
  0
ENDBLK
  5
727
330
71E
100
AcDbEntity
  8
0
100
AcDbBlockEnd
  0
BLOCK
  5
729
330
728
100
AcDbEntity
  8
0
100
AcDbBlockBegin
  2
*D67
 70
     1
 10
0.0
 20
0.0
 30
0.0
  3
*D67
  1

  0
LINE
  5
72A
330
728
100
AcDbEntity
  8
DIM
 62
     0
370
    -2
100
AcDbLine
 10
240.4458638772831
 20
238.4768363500145
 30
0.0
 11
240.4458638772831
 21
215.822366021189
 31
0.0
  0
LINE
  5
72B
330
728
100
AcDbEntity
  8
DIM
 62
     0
370
    -2
100
AcDbLine
 10
240.4458638772831
 20
215.822366021189
 30
0.0
 11
238.9874691371117
 21
213.322366021189
 31
0.0
  0
LINE
  5
72C
330
728
100
AcDbEntity
  8
DIM
 62
     0
370
    -2
100
AcDbLine
 10
238.9874691371117
 20
213.322366021189
 30
0.0
 11
238.9874691371117
 21
210.822366021189
 31
0.0
  0
MTEXT
  5
72D
330
728
100
AcDbEntity
  8
DIM
 62
     0
100
AcDbMText
 10
238.9874691371116
 20
207.8431993545224
 30
0.0
 40
1.25
 41
0.0
 71
     5
 72
     1
  1
\A1;12.701
 11
0.0000000000000001
 21
1.0
 31
0.0
 73
     1
 44
1.0
1001
ACAD
1000
MTEXTBEGIN
1070
    73
1070
     1
1070
    44
1040
1.0
1070
    74
1070
     0
1000
MTEXTEND
  0
POINT
  5
72E
330
728
100
AcDbEntity
  8
Defpoints
 62
     0
100
AcDbPoint
 10
240.4458638772831
 20
238.8518363500145
 30
0.0
  0
POINT
  5
72F
330
728
100
AcDbEntity
  8
Defpoints
 62
     0
100
AcDbPoint
 10
238.9874691371117
 20
210.822366021189
 30
0.0
  0
POINT
  5
730
330
728
100
AcDbEntity
  8
Defpoints
 62
     0
100
AcDbPoint
 10
227.7448195323461
 20
212.8518694495319
 30
0.0
  0
ENDBLK
  5
731
330
728
100
AcDbEntity
  8
0
100
AcDbBlockEnd
  0
BLOCK
  5
733
330
732
100
AcDbEntity
  8
0
100
AcDbBlockBegin
  2
*D68
 70
     1
 10
0.0
 20
0.0
 30
0.0
  3
*D68
  1

  0
LINE
  5
734
330
732
100
AcDbEntity
  8
DIM
 62
     0
370
    -2
100
AcDbLine
 10
232.320863877283
 20
238.8518363500145
 30
0.0
 11
225.749878126174
 21
238.8518363500145
 31
0.0
  0
MTEXT
  5
735
330
732
100
AcDbEntity
  8
DIM
 62
     0
100
AcDbMText
 10
222.562378126174
 20
238.8518363500145
 30
0.0
 40
1.25
 41
0.0
 71
     5
 72
     1
  1
\A1;26.000
 73
     1
 44
1.0
1001
ACAD
1000
MTEXTBEGIN
1070
    73
1070
     1
1070
    44
1040
1.0
1070
    74
1070
     0
1000
MTEXTEND
  0
POINT
  5
736
330
732
100
AcDbEntity
  8
Defpoints
 62
     0
100
AcDbPoint
 10
232.695863877283
 20
238.8518363500145
 30
0.0
  0
POINT
  5
737
330
732
100
AcDbEntity
  8
Defpoints
 62
     0
100
AcDbPoint
 10
225.749878126174
 20
238.8518363500145
 30
0.0
  0
POINT
  5
738
330
732
100
AcDbEntity
  8
Defpoints
 62
     0
100
AcDbPoint
 10
227.7448195323461
 20
212.8518694495319
 30
0.0
  0
ENDBLK
  5
739
330
732
100
AcDbEntity
  8
0
100
AcDbBlockEnd
  0
BLOCK
  5
73B
330
73A
100
AcDbEntity
  8
0
100
AcDbBlockBegin
  2
*D69
 70
     1
 10
0.0
 20
0.0
 30
0.0
  3
*D69
  1

  0
LINE
  5
73C
330
73A
100
AcDbEntity
  8
DIM
 62
     0
370
    -2
100
AcDbLine
 10
232.320863877283
 20
245.8518363500145
 30
0.0
 11
225.749878126174
 21
245.8518363500145
 31
0.0
  0
MTEXT
  5
73D
330
73A
100
AcDbEntity
  8
DIM
 62
     0
100
AcDbMText
 10
222.562378126174
 20
245.8518363500145
 30
0.0
 40
1.25
 41
0.0
 71
     5
 72
     1
  1
\A1;33.000
 73
     1
 44
1.0
1001
ACAD
1000
MTEXTBEGIN
1070
    73
1070
     1
1070
    44
1040
1.0
1070
    74
1070
     0
1000
MTEXTEND
  0
POINT
  5
73E
330
73A
100
AcDbEntity
  8
Defpoints
 62
     0
100
AcDbPoint
 10
232.695863877283
 20
245.8518363500145
 30
0.0
  0
POINT
  5
73F
330
73A
100
AcDbEntity
  8
Defpoints
 62
     0
100
AcDbPoint
 10
225.749878126174
 20
245.8518363500145
 30
0.0
  0
POINT
  5
740
330
73A
100
AcDbEntity
  8
Defpoints
 62
     0
100
AcDbPoint
 10
227.7448195323461
 20
212.8518694495319
 30
0.0
  0
ENDBLK
  5
741
330
73A
100
AcDbEntity
  8
0
100
AcDbBlockEnd
  0
BLOCK
  5
743
330
742
100
AcDbEntity
  8
0
100
AcDbBlockBegin
  2
*D70
 70
     1
 10
0.0
 20
0.0
 30
0.0
  3
*D70
  1

  0
LINE
  5
744
330
742
100
AcDbEntity
  8
DIM
 62
     0
370
    -2
100
AcDbLine
 10
230.0988638772831
 20
264.5703363500144
 30
0.0
 11
230.0988638772831
 21
266.8901911487857
 31
0.0
  0
MTEXT
  5
745
330
742
100
AcDbEntity
  8
DIM
 62
     0
100
AcDbMText
 10
230.098863877283
 20
269.7651911487858
 30
0.0
 40
1.25
 41
0.0
 71
     5
 72
     1
  1
\A1;2.354
 11
0.0000000000000001
 21
1.0
 31
0.0
 73
     1
 44
1.0
1001
ACAD
1000
MTEXTBEGIN
1070
    73
1070
     1
1070
    44
1040
1.0
1070
    74
1070
     0
1000
MTEXTEND
  0
POINT
  5
746
330
742
100
AcDbEntity
  8
Defpoints
 62
     0
100
AcDbPoint
 10
230.0988638772831
 20
264.1953363500144
 30
0.0
  0
POINT
  5
747
330
742
100
AcDbEntity
  8
Defpoints
 62
     0
100
AcDbPoint
 10
230.0988638772831
 20
266.8901911487857
 30
0.0
  0
POINT
  5
748
330
742
100
AcDbEntity
  8
Defpoints
 62
     0
100
AcDbPoint
 10
227.7448195323461
 20
212.8518694495319
 30
0.0
  0
ENDBLK
  5
749
330
742
100
AcDbEntity
  8
0
100
AcDbBlockEnd
  0
BLOCK
  5
74B
330
74A
100
AcDbEntity
  8
0
100
AcDbBlockBegin
  2
*D71
 70
     1
 10
0.0
 20
0.0
 30
0.0
  3
*D71
  1

  0
LINE
  5
74C
330
74A
100
AcDbEntity
  8
DIM
 62
     0
370
    -2
100
AcDbLine
 10
243.0488638772832
 20
264.5703363500144
 30
0.0
 11
243.0488638772832
 21
266.8074449543562
 31
0.0
  0
MTEXT
  5
74D
330
74A
100
AcDbEntity
  8
DIM
 62
     0
100
AcDbMText
 10
243.0488638772832
 20
269.9949449543562
 30
0.0
 40
1.25
 41
0.0
 71
     5
 72
     1
  1
\A1;15.304
 11
0.0000000000000001
 21
1.0
 31
0.0
 73
     1
 44
1.0
1001
ACAD
1000
MTEXTBEGIN
1070
    73
1070
     1
1070
    44
1040
1.0
1070
    74
1070
     0
1000
MTEXTEND
  0
POINT
  5
74E
330
74A
100
AcDbEntity
  8
Defpoints
 62
     0
100
AcDbPoint
 10
243.0488638772832
 20
264.1953363500144
 30
0.0
  0
POINT
  5
74F
330
74A
100
AcDbEntity
  8
Defpoints
 62
     0
100
AcDbPoint
 10
243.0488638772832
 20
266.8074449543562
 30
0.0
  0
POINT
  5
750
330
74A
100
AcDbEntity
  8
Defpoints
 62
     0
100
AcDbPoint
 10
227.7448195323461
 20
212.8518694495319
 30
0.0
  0
ENDBLK
  5
751
330
74A
100
AcDbEntity
  8
0
100
AcDbBlockEnd
  0
BLOCK
  5
753
330
752
100
AcDbEntity
  8
0
100
AcDbBlockBegin
  2
*D72
 70
     1
 10
0.0
 20
0.0
 30
0.0
  3
*D72
  1

  0
LINE
  5
754
330
752
100
AcDbEntity
  8
DIM
 62
     0
370
    -2
100
AcDbLine
 10
229.1328638772829
 20
261.2268363500145
 30
0.0
 11
229.1328638772829
 21
263.3518363500146
 31
0.0
  0
LINE
  5
755
330
752
100
AcDbEntity
  8
DIM
 62
     0
370
    -2
100
AcDbLine
 10
229.1328638772829
 20
263.3518363500146
 30
0.0
 11
228.3273187974407
 21
264.3901911487857
 31
0.0
  0
LINE
  5
756
330
752
100
AcDbEntity
  8
DIM
 62
     0
370
    -2
100
AcDbLine
 10
228.3273187974407
 20
264.3901911487857
 30
0.0
 11
228.3273187974407
 21
266.8901911487857
 31
0.0
  0
MTEXT
  5
757
330
752
100
AcDbEntity
  8
DIM
 62
     0
100
AcDbMText
 10
228.3273187974407
 20
269.5568578154525
 30
0.0
 40
1.25
 41
0.0
 71
     5
 72
     1
  1
\A1;1.388
 11
0.0000000000000001
 21
1.0
 31
0.0
 73
     1
 44
1.0
1001
ACAD
1000
MTEXTBEGIN
1070
    73
1070
     1
1070
    44
1040
1.0
1070
    74
1070
     0
1000
MTEXTEND
  0
POINT
  5
758
330
752
100
AcDbEntity
  8
Defpoints
 62
     0
100
AcDbPoint
 10
229.1328638772829
 20
260.8518363500145
 30
0.0
  0
POINT
  5
759
330
752
100
AcDbEntity
  8
Defpoints
 62
     0
100
AcDbPoint
 10
228.3273187974407
 20
266.8901911487857
 30
0.0
  0
POINT
  5
75A
330
752
100
AcDbEntity
  8
Defpoints
 62
     0
100
AcDbPoint
 10
227.7448195323461
 20
212.8518694495319
 30
0.0
  0
ENDBLK
  5
75B
330
752
100
AcDbEntity
  8
0
100
AcDbBlockEnd
  0
BLOCK
  5
75D
330
75C
100
AcDbEntity
  8
0
100
AcDbBlockBegin
  2
*D73
 70
     1
 10
0.0
 20
0.0
 30
0.0
  3
*D73
  1

  0
LINE
  5
75E
330
75C
100
AcDbEntity
  8
DIM
 62
     0
370
    -2
100
AcDbLine
 10
228.4458638772832
 20
256.3518363500145
 30
0.0
 11
228.4458638772832
 21
261.8901911487857
 31
0.0
  0
LINE
  5
75F
330
75C
100
AcDbEntity
  8
DIM
 62
     0
370
    -2
100
AcDbLine
 10
228.4458638772832
 20
261.8901911487857
 30
0.0
 11
226.5877843914961
 21
264.3901911487857
 31
0.0
  0
LINE
  5
760
330
75C
100
AcDbEntity
  8
DIM
 62
     0
370
    -2
100
AcDbLine
 10
226.5877843914961
 20
264.3901911487857
 30
0.0
 11
226.5877843914961
 21
266.8901911487857
 31
0.0
  0
MTEXT
  5
761
330
75C
100
AcDbEntity
  8
DIM
 62
     0
100
AcDbMText
 10
226.5877843914961
 20
269.3485244821191
 30
0.0
 40
1.25
 41
0.0
 71
     5
 72
     1
  1
\A1;0.701
 11
0.0000000000000001
 21
1.0
 31
0.0
 73
     1
 44
1.0
1001
ACAD
1000
MTEXTBEGIN
1070
    73
1070
     1
1070
    44
1040
1.0
1070
    74
1070
     0
1000
MTEXTEND
  0
POINT
  5
762
330
75C
100
AcDbEntity
  8
Defpoints
 62
     0
100
AcDbPoint
 10
228.4458638772832
 20
255.9768363500146
 30
0.0
  0
POINT
  5
763
330
75C
100
AcDbEntity
  8
Defpoints
 62
     0
100
AcDbPoint
 10
226.5877843914961
 20
266.8901911487857
 30
0.0
  0
POINT
  5
764
330
75C
100
AcDbEntity
  8
Defpoints
 62
     0
100
AcDbPoint
 10
227.7448195323461
 20
212.8518694495319
 30
0.0
  0
ENDBLK
  5
765
330
75C
100
AcDbEntity
  8
0
100
AcDbBlockEnd
  0
BLOCK
  5
767
330
766
100
AcDbEntity
  8
0
100
AcDbBlockBegin
  2
*D74
 70
     1
 10
0.0
 20
0.0
 30
0.0
  3
*D74
  1

  0
LINE
  5
768
330
766
100
AcDbEntity
  8
DIM
 62
     0
370
    -2
100
AcDbLine
 10
243.996863877283
 20
261.2268363500145
 30
0.0
 11
243.996863877283
 21
263.3518363500146
 31
0.0
  0
LINE
  5
769
330
766
100
AcDbEntity
  8
DIM
 62
     0
370
    -2
100
AcDbLine
 10
243.996863877283
 20
263.3518363500146
 30
0.0
 11
244.9771526938877
 21
264.3901911487857
 31
0.0
  0
LINE
  5
76A
330
766
100
AcDbEntity
  8
DIM
 62
     0
370
    -2
100
AcDbLine
 10
244.9771526938877
 20
264.3901911487857
 30
0.0
 11
244.9771526938877
 21
266.8901911487857
 31
0.0
  0
MTEXT
  5
76B
330
766
100
AcDbEntity
  8
DIM
 62
     0
100
AcDbMText
 10
244.9771526938877
 20
270.1818578154525
 30
0.0
 40
1.25
 41
0.0
 71
     5
 72
     1
  1
\A1;16.252
 11
0.0000000000000001
 21
1.0
 31
0.0
 73
     1
 44
1.0
1001
ACAD
1000
MTEXTBEGIN
1070
    73
1070
     1
1070
    44
1040
1.0
1070
    74
1070
     0
1000
MTEXTEND
  0
POINT
  5
76C
330
766
100
AcDbEntity
  8
Defpoints
 62
     0
100
AcDbPoint
 10
243.996863877283
 20
260.8518363500145
 30
0.0
  0
POINT
  5
76D
330
766
100
AcDbEntity
  8
Defpoints
 62
     0
100
AcDbPoint
 10
244.9771526938877
 20
266.8901911487857
 30
0.0
  0
POINT
  5
76E
330
766
100
AcDbEntity
  8
Defpoints
 62
     0
100
AcDbPoint
 10
227.7448195323461
 20
212.8518694495319
 30
0.0
  0
ENDBLK
  5
76F
330
766
100
AcDbEntity
  8
0
100
AcDbBlockEnd
  0
BLOCK
  5
771
330
770
100
AcDbEntity
  8
0
100
AcDbBlockBegin
  2
*D75
 70
     1
 10
0.0
 20
0.0
 30
0.0
  3
*D75
  1

  0
LINE
  5
772
330
770
100
AcDbEntity
  8
DIM
 62
     0
370
    -2
100
AcDbLine
 10
244.6958638772831
 20
256.3518363500145
 30
0.0
 11
244.6958638772831
 21
261.9729373432153
 31
0.0
  0
LINE
  5
773
330
770
100
AcDbEntity
  8
DIM
 62
     0
370
    -2
100
AcDbLine
 10
244.6958638772831
 20
261.9729373432153
 30
0.0
 11
246.8823565732657
 21
264.4729373432153
 31
0.0
  0
LINE
  5
774
330
770
100
AcDbEntity
  8
DIM
 62
     0
370
    -2
100
AcDbLine
 10
246.8823565732657
 20
264.4729373432153
 30
0.0
 11
246.8823565732657
 21
266.9729373432153
 31
0.0
  0
MTEXT
  5
775
330
770
100
AcDbEntity
  8
DIM
 62
     0
100
AcDbMText
 10
246.8823565732656
 20
270.0562706765487
 30
0.0
 40
1.25
 41
0.0
 71
     5
 72
     1
  1
\A1;16.951
 11
0.0000000000000001
 21
1.0
 31
0.0
 73
     1
 44
1.0
1001
ACAD
1000
MTEXTBEGIN
1070
    73
1070
     1
1070
    44
1040
1.0
1070
    74
1070
     0
1000
MTEXTEND
  0
POINT
  5
776
330
770
100
AcDbEntity
  8
Defpoints
 62
     0
100
AcDbPoint
 10
244.6958638772831
 20
255.9768363500146
 30
0.0
  0
POINT
  5
777
330
770
100
AcDbEntity
  8
Defpoints
 62
     0
100
AcDbPoint
 10
246.8823565732657
 20
266.9729373432153
 30
0.0
  0
POINT
  5
778
330
770
100
AcDbEntity
  8
Defpoints
 62
     0
100
AcDbPoint
 10
227.7448195323461
 20
212.8518694495319
 30
0.0
  0
ENDBLK
  5
779
330
770
100
AcDbEntity
  8
0
100
AcDbBlockEnd
  0
BLOCK
  5
77B
330
77A
100
AcDbEntity
  8
0
100
AcDbBlockBegin
  2
*D76
 70
     1
 10
0.0
 20
0.0
 30
0.0
  3
*D76
  1

  0
LINE
  5
77C
330
77A
100
AcDbEntity
  8
DIM
 62
     0
370
    -2
100
AcDbLine
 10
244.4448638772831
 20
248.3518363500145
 30
0.0
 11
247.3793674610135
 21
248.3518363500145
 31
0.0
  0
MTEXT
  5
77D
330
77A
100
AcDbEntity
  8
DIM
 62
     0
100
AcDbMText
 10
250.6710341276801
 20
248.3518363500145
 30
0.0
 40
1.25
 41
0.0
 71
     5
 72
     1
  1
\A1;35.500
 73
     1
 44
1.0
1001
ACAD
1000
MTEXTBEGIN
1070
    73
1070
     1
1070
    44
1040
1.0
1070
    74
1070
     0
1000
MTEXTEND
  0
POINT
  5
77E
330
77A
100
AcDbEntity
  8
Defpoints
 62
     0
100
AcDbPoint
 10
244.0698638772831
 20
248.3518363500145
 30
0.0
  0
POINT
  5
77F
330
77A
100
AcDbEntity
  8
Defpoints
 62
     0
100
AcDbPoint
 10
247.3793674610135
 20
248.3518363500145
 30
0.0
  0
POINT
  5
780
330
77A
100
AcDbEntity
  8
Defpoints
 62
     0
100
AcDbPoint
 10
227.7448195323461
 20
212.8518694495319
 30
0.0
  0
ENDBLK
  5
781
330
77A
100
AcDbEntity
  8
0
100
AcDbBlockEnd
  0
BLOCK
  5
783
330
782
100
AcDbEntity
  8
0
100
AcDbBlockBegin
  2
*D77
 70
     1
 10
0.0
 20
0.0
 30
0.0
  3
*D77
  1

  0
LINE
  5
784
330
782
100
AcDbEntity
  8
DIM
 62
     0
370
    -2
100
AcDbLine
 10
228.757863877283
 20
260.8518363500145
 30
0.0
 11
225.7703900312801
 21
260.8518363500145
 31
0.0
  0
MTEXT
  5
785
330
782
100
AcDbEntity
  8
DIM
 62
     0
100
AcDbMText
 10
222.5828900312801
 20
260.8518363500145
 30
0.0
 40
1.25
 41
0.0
 71
     5
 72
     1
  1
\A1;48.000
 73
     1
 44
1.0
1001
ACAD
1000
MTEXTBEGIN
1070
    73
1070
     1
1070
    44
1040
1.0
1070
    74
1070
     0
1000
MTEXTEND
  0
POINT
  5
786
330
782
100
AcDbEntity
  8
Defpoints
 62
     0
100
AcDbPoint
 10
229.1328638772829
 20
260.8518363500145
 30
0.0
  0
POINT
  5
787
330
782
100
AcDbEntity
  8
Defpoints
 62
     0
100
AcDbPoint
 10
225.7703900312801
 20
260.8518363500145
 30
0.0
  0
POINT
  5
788
330
782
100
AcDbEntity
  8
Defpoints
 62
     0
100
AcDbPoint
 10
227.7448195323461
 20
212.8518694495319
 30
0.0
  0
ENDBLK
  5
789
330
782
100
AcDbEntity
  8
0
100
AcDbBlockEnd
  0
BLOCK
  5
78B
330
78A
100
AcDbEntity
  8
0
100
AcDbBlockBegin
  2
*D78
 70
     1
 10
0.0
 20
0.0
 30
0.0
  3
*D78
  1

  0
LINE
  5
78C
330
78A
100
AcDbEntity
  8
DIM
 62
     0
370
    -2
100
AcDbLine
 10
227.369863877283
 20
264.9418363500144
 30
0.0
 11
225.7703900312801
 21
264.9418363500144
 31
0.0
  0
MTEXT
  5
78D
330
78A
100
AcDbEntity
  8
DIM
 62
     0
100
AcDbMText
 10
222.4787233646134
 20
264.9418363500144
 30
0.0
 40
1.25
 41
0.0
 71
     5
 72
     1
  1
\A1;52.090
 73
     1
 44
1.0
1001
ACAD
1000
MTEXTBEGIN
1070
    73
1070
     1
1070
    44
1040
1.0
1070
    74
1070
     0
1000
MTEXTEND
  0
POINT
  5
78E
330
78A
100
AcDbEntity
  8
Defpoints
 62
     0
100
AcDbPoint
 10
227.744863877283
 20
264.9418363500144
 30
0.0
  0
POINT
  5
78F
330
78A
100
AcDbEntity
  8
Defpoints
 62
     0
100
AcDbPoint
 10
225.7703900312801
 20
264.9418363500144
 30
0.0
  0
POINT
  5
790
330
78A
100
AcDbEntity
  8
Defpoints
 62
     0
100
AcDbPoint
 10
227.7448195323461
 20
212.8518694495319
 30
0.0
  0
ENDBLK
  5
791
330
78A
100
AcDbEntity
  8
0
100
AcDbBlockEnd
  0
BLOCK
  5
793
330
792
100
AcDbEntity
  8
0
100
AcDbBlockBegin
  2
*D79
 70
     1
 10
0.0
 20
0.0
 30
0.0
  3
*D79
  1

  0
LINE
  5
794
330
792
100
AcDbEntity
  8
DIM
 62
     0
370
    -2
100
AcDbLine
 10
243.4238638772832
 20
264.1953363500144
 30
0.0
 11
247.3959561219096
 21
264.1953363500144
 31
0.0
  0
MTEXT
  5
795
330
792
100
AcDbEntity
  8
DIM
 62
     0
100
AcDbMText
 10
250.6876227885762
 20
264.1953363500144
 30
0.0
 40
1.25
 41
0.0
 71
     5
 72
     1
  1
\A1;51.343
 73
     1
 44
1.0
1001
ACAD
1000
MTEXTBEGIN
1070
    73
1070
     1
1070
    44
1040
1.0
1070
    74
1070
     0
1000
MTEXTEND
  0
POINT
  5
796
330
792
100
AcDbEntity
  8
Defpoints
 62
     0
100
AcDbPoint
 10
243.0488638772832
 20
264.1953363500144
 30
0.0
  0
POINT
  5
797
330
792
100
AcDbEntity
  8
Defpoints
 62
     0
100
AcDbPoint
 10
247.3959561219096
 20
264.1953363500144
 30
0.0
  0
POINT
  5
798
330
792
100
AcDbEntity
  8
Defpoints
 62
     0
100
AcDbPoint
 10
227.7448195323461
 20
212.8518694495319
 30
0.0
  0
ENDBLK
  5
799
330
792
100
AcDbEntity
  8
0
100
AcDbBlockEnd
  0
BLOCK
  5
79B
330
79A
100
AcDbEntity
  8
0
100
AcDbBlockBegin
  2
*D80
 70
     1
 10
0.0
 20
0.0
 30
0.0
  3
*D80
  1

  0
LINE
  5
79C
330
79A
100
AcDbEntity
  8
DIM
 62
     0
370
    -2
100
AcDbLine
 10
243.4238638772831
 20
261.3578363500147
 30
0.0
 11
247.3959561219096
 21
261.3578363500147
 31
0.0
  0
MTEXT
  5
79D
330
79A
100
AcDbEntity
  8
DIM
 62
     0
100
AcDbMText
 10
250.7917894552429
 20
261.3578363500147
 30
0.0
 40
1.25
 41
0.0
 71
     5
 72
     1
  1
\A1;48.506
 73
     1
 44
1.0
1001
ACAD
1000
MTEXTBEGIN
1070
    73
1070
     1
1070
    44
1040
1.0
1070
    74
1070
     0
1000
MTEXTEND
  0
POINT
  5
79E
330
79A
100
AcDbEntity
  8
Defpoints
 62
     0
100
AcDbPoint
 10
243.0488638772831
 20
261.3578363500147
 30
0.0
  0
POINT
  5
79F
330
79A
100
AcDbEntity
  8
Defpoints
 62
     0
100
AcDbPoint
 10
247.3959561219096
 20
261.3578363500147
 30
0.0
  0
POINT
  5
7A0
330
79A
100
AcDbEntity
  8
Defpoints
 62
     0
100
AcDbPoint
 10
227.7448195323461
 20
212.8518694495319
 30
0.0
  0
ENDBLK
  5
7A1
330
79A
100
AcDbEntity
  8
0
100
AcDbBlockEnd
  0
BLOCK
  5
7A3
330
7A2
100
AcDbEntity
  8
0
100
AcDbBlockBegin
  2
*D81
 70
     1
 10
0.0
 20
0.0
 30
0.0
  3
*D81
  1

  0
LINE
  5
7A4
330
7A2
100
AcDbEntity
  8
DIM
 62
     0
370
    -2
100
AcDbLine
 10
245.070863877283
 20
255.9768363500146
 30
0.0
 11
247.3959561219096
 21
255.9768363500146
 31
0.0
  0
MTEXT
  5
7A5
330
7A2
100
AcDbEntity
  8
DIM
 62
     0
100
AcDbMText
 10
250.6876227885762
 20
255.9768363500146
 30
0.0
 40
1.25
 41
0.0
 71
     5
 72
     1
  1
\A1;43.125
 73
     1
 44
1.0
1001
ACAD
1000
MTEXTBEGIN
1070
    73
1070
     1
1070
    44
1040
1.0
1070
    74
1070
     0
1000
MTEXTEND
  0
POINT
  5
7A6
330
7A2
100
AcDbEntity
  8
Defpoints
 62
     0
100
AcDbPoint
 10
244.6958638772831
 20
255.9768363500146
 30
0.0
  0
POINT
  5
7A7
330
7A2
100
AcDbEntity
  8
Defpoints
 62
     0
100
AcDbPoint
 10
247.3959561219096
 20
255.9768363500146
 30
0.0
  0
POINT
  5
7A8
330
7A2
100
AcDbEntity
  8
Defpoints
 62
     0
100
AcDbPoint
 10
227.7448195323461
 20
212.8518694495319
 30
0.0
  0
ENDBLK
  5
7A9
330
7A2
100
AcDbEntity
  8
0
100
AcDbBlockEnd
  0
BLOCK
  5
7AB
330
7AA
100
AcDbEntity
  8
0
100
AcDbBlockBegin
  2
*D82
 70
     1
 10
0.0
 20
0.0
 30
0.0
  3
*D82
  1

  0
LINE
  5
7AC
330
7AA
100
AcDbEntity
  8
DIM
 62
     0
370
    -2
100
AcDbLine
 10
245.070863877283
 20
252.7268363500145
 30
0.0
 11
247.3959561219096
 21
252.7268363500145
 31
0.0
  0
MTEXT
  5
7AD
330
7AA
100
AcDbEntity
  8
DIM
 62
     0
100
AcDbMText
 10
250.8959561219096
 20
252.7268363500145
 30
0.0
 40
1.25
 41
0.0
 71
     5
 72
     1
  1
\A1;39.875
 73
     1
 44
1.0
1001
ACAD
1000
MTEXTBEGIN
1070
    73
1070
     1
1070
    44
1040
1.0
1070
    74
1070
     0
1000
MTEXTEND
  0
POINT
  5
7AE
330
7AA
100
AcDbEntity
  8
Defpoints
 62
     0
100
AcDbPoint
 10
244.6958638772831
 20
252.7268363500145
 30
0.0
  0
POINT
  5
7AF
330
7AA
100
AcDbEntity
  8
Defpoints
 62
     0
100
AcDbPoint
 10
247.3959561219096
 20
252.7268363500145
 30
0.0
  0
POINT
  5
7B0
330
7AA
100
AcDbEntity
  8
Defpoints
 62
     0
100
AcDbPoint
 10
227.7448195323461
 20
212.8518694495319
 30
0.0
  0
ENDBLK
  5
7B1
330
7AA
100
AcDbEntity
  8
0
100
AcDbBlockEnd
  0
BLOCK
  5
7B3
330
7B2
100
AcDbEntity
  8
0
100
AcDbBlockBegin
  2
*D83
 70
     1
 10
0.0
 20
0.0
 30
0.0
  3
*D83
  1

  0
LINE
  5
7B4
330
7B2
100
AcDbEntity
  8
DIM
 62
     0
370
    -2
100
AcDbLine
 10
244.4448638772831
 20
246.8518363500145
 30
0.0
 11
247.3793674610135
 21
246.8518363500145
 31
0.0
  0
MTEXT
  5
7B5
330
7B2
100
AcDbEntity
  8
DIM
 62
     0
100
AcDbMText
 10
250.5668674610135
 20
246.8518363500145
 30
0.0
 40
1.25
 41
0.0
 71
     5
 72
     1
  1
\A1;34.000
 73
     1
 44
1.0
1001
ACAD
1000
MTEXTBEGIN
1070
    73
1070
     1
1070
    44
1040
1.0
1070
    74
1070
     0
1000
MTEXTEND
  0
POINT
  5
7B6
330
7B2
100
AcDbEntity
  8
Defpoints
 62
     0
100
AcDbPoint
 10
244.0698638772831
 20
246.8518363500145
 30
0.0
  0
POINT
  5
7B7
330
7B2
100
AcDbEntity
  8
Defpoints
 62
     0
100
AcDbPoint
 10
247.3793674610135
 20
246.8518363500145
 30
0.0
  0
POINT
  5
7B8
330
7B2
100
AcDbEntity
  8
Defpoints
 62
     0
100
AcDbPoint
 10
227.7448195323461
 20
211.3518694495319
 30
0.0
  0
ENDBLK
  5
7B9
330
7B2
100
AcDbEntity
  8
0
100
AcDbBlockEnd
  0
BLOCK
  5
7BB
330
7BA
100
AcDbEntity
  8
0
100
AcDbBlockBegin
  2
*D84
 70
     1
 10
0.0
 20
0.0
 30
0.0
  3
*D84
  1

  0
LINE
  5
7BC
330
7BA
100
AcDbEntity
  8
DIM
 62
     0
370
    -2
100
AcDbLine
 10
244.0698638772831
 20
246.4768363500145
 30
0.0
 11
244.0698638772831
 21
243.5351572593999
 31
0.0
  0
MTEXT
  5
7BD
330
7BA
100
AcDbEntity
  8
DIM
 62
     0
100
AcDbMText
 10
244.069863877283
 20
240.2434905927333
 30
0.0
 40
1.25
 41
0.0
 71
     5
 72
     1
  1
\A1;16.325
 11
0.0000000000000001
 21
1.0
 31
0.0
 73
     1
 44
1.0
1001
ACAD
1000
MTEXTBEGIN
1070
    73
1070
     1
1070
    44
1040
1.0
1070
    74
1070
     0
1000
MTEXTEND
  0
POINT
  5
7BE
330
7BA
100
AcDbEntity
  8
Defpoints
 62
     0
100
AcDbPoint
 10
244.0698638772831
 20
246.8518363500145
 30
0.0
  0
POINT
  5
7BF
330
7BA
100
AcDbEntity
  8
Defpoints
 62
     0
100
AcDbPoint
 10
244.0698638772831
 20
243.5351572593999
 30
0.0
  0
POINT
  5
7C0
330
7BA
100
AcDbEntity
  8
Defpoints
 62
     0
100
AcDbPoint
 10
227.7448195323461
 20
212.8518694495319
 30
0.0
  0
ENDBLK
  5
7C1
330
7BA
100
AcDbEntity
  8
0
100
AcDbBlockEnd
  0
BLOCK
  5
7C3
330
7C2
100
AcDbEntity
  8
0
100
AcDbBlockBegin
  2
*D85
 70
     1
 10
0.0
 20
0.0
 30
0.0
  3
*D85
  1

  0
LINE
  5
7C4
330
7C2
100
AcDbEntity
  8
0
 62
     0
370
    -2
100
AcDbLine
 10
241.1948638772831
 20
249.1018363500145
 30
0.0
 11
226.0586698436055
 21
249.1018363500145
 31
0.0
  0
MTEXT
  5
7C5
330
7C2
100
AcDbEntity
  8
0
 62
     0
100
AcDbMText
 10
222.6628365102721
 20
249.1018363500145
 30
0.0
 40
1.25
 41
0.0
 71
     5
 72
     1
  1
\A1;36.250
 73
     1
 44
1.0
1001
ACAD
1000
MTEXTBEGIN
1070
    73
1070
     1
1070
    44
1040
1.0
1070
    74
1070
     0
1000
MTEXTEND
  0
POINT
  5
7C6
330
7C2
100
AcDbEntity
  8
Defpoints
 62
     0
100
AcDbPoint
 10
241.569863877283
 20
249.1018363500145
 30
0.0
  0
POINT
  5
7C7
330
7C2
100
AcDbEntity
  8
Defpoints
 62
     0
100
AcDbPoint
 10
226.0586698436055
 20
249.1018363500145
 30
0.0
  0
POINT
  5
7C8
330
7C2
100
AcDbEntity
  8
Defpoints
 62
     0
100
AcDbPoint
 10
227.744863877283
 20
212.8518363500145
 30
0.0
  0
ENDBLK
  5
7C9
330
7C2
100
AcDbEntity
  8
0
100
AcDbBlockEnd
  0
BLOCK
  5
7CB
330
7CA
100
AcDbEntity
  8
0
100
AcDbBlockBegin
  2
*D86
 70
     1
 10
0.0
 20
0.0
 30
0.0
  3
*D86
  1

  0
LINE
  5
7CC
330
7CA
100
AcDbEntity
  8
0
 62
     0
370
    -2
100
AcDbLine
 10
241.569863877283
 20
248.7268363500145
 30
0.0
 11
241.569863877283
 21
246.6018363500146
 31
0.0
  0
LINE
  5
7CD
330
7CA
100
AcDbEntity
  8
0
 62
     0
370
    -2
100
AcDbLine
 10
241.569863877283
 20
246.6018363500146
 30
0.0
 11
242.0608266829579
 21
245.7214963812216
 31
0.0
  0
LINE
  5
7CE
330
7CA
100
AcDbEntity
  8
0
 62
     0
370
    -2
100
AcDbLine
 10
242.0608266829579
 20
245.7214963812216
 30
0.0
 11
242.0608266829579
 21
243.2214963812216
 31
0.0
  0
MTEXT
  5
7CF
330
7CA
100
AcDbEntity
  8
0
 62
     0
100
AcDbMText
 10
242.0608266829578
 20
239.9298297145549
 30
0.0
 40
1.25
 41
0.0
 71
     5
 72
     1
  1
\A1;13.825
 11
0.0000000000000001
 21
1.0
 31
0.0
 73
     1
 44
1.0
1001
ACAD
1000
MTEXTBEGIN
1070
    73
1070
     1
1070
    44
1040
1.0
1070
    74
1070
     0
1000
MTEXTEND
  0
POINT
  5
7D0
330
7CA
100
AcDbEntity
  8
Defpoints
 62
     0
100
AcDbPoint
 10
241.569863877283
 20
249.1018363500145
 30
0.0
  0
POINT
  5
7D1
330
7CA
100
AcDbEntity
  8
Defpoints
 62
     0
100
AcDbPoint
 10
242.0608266829579
 20
243.2214963812216
 30
0.0
  0
POINT
  5
7D2
330
7CA
100
AcDbEntity
  8
Defpoints
 62
     0
100
AcDbPoint
 10
227.744863877283
 20
212.8518363500145
 30
0.0
  0
ENDBLK
  5
7D3
330
7CA
100
AcDbEntity
  8
0
100
AcDbBlockEnd
  0
BLOCK
  5
7D5
330
7D4
100
AcDbEntity
  8
0
100
AcDbBlockBegin
  2
*D87
 70
     1
 10
0.0
 20
0.0
 30
0.0
  3
*D87
  1

  0
LINE
  5
7D6
330
7D4
100
AcDbEntity
  8
0
 62
     0
370
    -2
100
AcDbLine
 10
252.8951270808697
 20
233.4137372560342
 30
0.0
 11
251.6451270808698
 21
233.4137372560342
 31
0.0
  0
LINE
  5
7D7
330
7D4
100
AcDbEntity
  8
0
 62
     0
370
    -2
100
AcDbLine
 10
251.6451270808698
 20
233.4137372560342
 30
0.0
 11
242.5830767147144
 21
247.5241720175077
 31
0.0
  0
MTEXT
  5
7D8
330
7D4
100
AcDbEntity
  8
0
 62
     0
100
AcDbMText
 10
253.2701270808698
 20
238.2054039227009
 30
0.0
 40
1.25
 41
0.0
 71
     1
 72
     1
  1
\A1;\U+22051.250 (1)\POPTIONAL:\PETHERNET\PCONNECTION \PPORT
 73
     1
 44
1.0
1001
ACAD
1000
MTEXTBEGIN
1070
    73
1070
     1
1070
    44
1040
1.0
1070
    74
1070
     0
1000
MTEXTEND
  0
SOLID
  5
7D9
330
7D4
100
AcDbEntity
  8
0
 62
     0
100
AcDbTrace
 10
242.7583727516596
 20
247.6367512216667
 30
0.0
 11
242.4077806777692
 21
247.4115928133486
 31
0.0
 12
241.9076014897601
 22
248.5759482391789
 32
0.0
 13
241.9076014897601
 23
248.5759482391789
 33
0.0
  0
LINE
  5
7DA
330
7D4
100
AcDbEntity
  8
0
 62
     0
370
    -2
100
AcDbLine
 10
241.479863877283
 20
249.1018363500145
 30
0.0
 11
241.659863877283
 21
249.1018363500145
 31
0.0
  0
LINE
  5
7DB
330
7D4
100
AcDbEntity
  8
0
 62
     0
370
    -2
100
AcDbLine
 10
241.569863877283
 20
249.0118363500144
 30
0.0
 11
241.569863877283
 21
249.1918363500145
 31
0.0
  0
POINT
  5
7DC
330
7D4
100
AcDbEntity
  8
Defpoints
 62
     0
100
AcDbPoint
 10
241.9076014897601
 20
248.5759482391789
 30
0.0
  0
POINT
  5
7DD
330
7D4
100
AcDbEntity
  8
Defpoints
 62
     0
100
AcDbPoint
 10
241.2321262648059
 20
249.6277244608501
 30
0.0
  0
ENDBLK
  5
7DE
330
7D4
100
AcDbEntity
  8
0
100
AcDbBlockEnd
  0
BLOCK
  5
7E0
330
7DF
100
AcDbEntity
  8
0
100
AcDbBlockBegin
  2
*D88
 70
     1
 10
0.0
 20
0.0
 30
0.0
  3
*D88
  1

  0
LINE
  5
7E1
330
7DF
100
AcDbEntity
  8
DIM
 62
     0
370
    -2
100
AcDbLine
 10
443.8267407794781
 20
387.656806094651
 30
0.0
 11
446.1359788042052
 21
387.656806094651
 31
0.0
  0
LINE
  5
7E2
330
7DF
100
AcDbEntity
  8
DIM
 62
     0
370
    -2
100
AcDbLine
 10
443.8267407794781
 20
361.611806094651
 30
0.0
 11
446.1359788042052
 21
361.611806094651
 31
0.0
  0
LINE
  5
7E3
330
7DF
100
AcDbEntity
  8
DIM
 62
     0
370
    -2
100
AcDbLine
 10
445.9559788042053
 20
386.406806094651
 30
0.0
 11
445.9559788042052
 21
376.8197771420323
 31
0.0
  0
LINE
  5
7E4
330
7DF
100
AcDbEntity
  8
DIM
 62
     0
370
    -2
100
AcDbLine
 10
445.9559788042052
 20
362.861806094651
 30
0.0
 11
445.9559788042052
 21
374.8197771420323
 31
0.0
  0
SOLID
  5
7E5
330
7DF
100
AcDbEntity
  8
DIM
 62
     0
100
AcDbTrace
 10
445.747645470872
 20
386.406806094651
 30
0.0
 11
446.1643121375386
 21
386.406806094651
 31
0.0
 12
445.9559788042053
 22
387.656806094651
 32
0.0
 13
445.9559788042053
 23
387.656806094651
 33
0.0
  0
SOLID
  5
7E6
330
7DF
100
AcDbEntity
  8
DIM
 62
     0
100
AcDbTrace
 10
445.7476454708719
 20
362.861806094651
 30
0.0
 11
446.1643121375385
 21
362.861806094651
 31
0.0
 12
445.9559788042052
 22
361.611806094651
 32
0.0
 13
445.9559788042052
 23
361.611806094651
 33
0.0
  0
MTEXT
  5
7E7
330
7DF
100
AcDbEntity
  8
DIM
 62
     0
100
AcDbMText
 10
445.9559788042051
 20
375.8197771420324
 30
0.0
 40
1.25
 41
0.0
 71
     5
 72
     1
  1
\A1;26.045
 73
     1
 44
1.0
1001
ACAD
1000
MTEXTBEGIN
1070
    73
1070
     1
1070
    44
1040
1.0
1070
    74
1070
     0
1000
MTEXTEND
  0
POINT
  5
7E8
330
7DF
100
AcDbEntity
  8
Defpoints
 62
     0
100
AcDbPoint
 10
443.4517407794782
 20
387.656806094651
 30
0.0
  0
POINT
  5
7E9
330
7DF
100
AcDbEntity
  8
Defpoints
 62
     0
100
AcDbPoint
 10
443.4517407794782
 20
361.611806094651
 30
0.0
  0
POINT
  5
7EA
330
7DF
100
AcDbEntity
  8
Defpoints
 62
     0
100
AcDbPoint
 10
445.9559788042052
 20
361.611806094651
 30
0.0
  0
ENDBLK
  5
7EB
330
7DF
100
AcDbEntity
  8
0
100
AcDbBlockEnd
  0
BLOCK
  5
8B5
330
8AA
100
AcDbEntity
  8
0
100
AcDbBlockBegin
  2
*D90
 70
     1
 10
0.0
 20
0.0
 30
0.0
  3
*D90
  1

  0
LINE
  5
9C4
330
8AA
100
AcDbEntity
  8
DIM
 62
     0
370
    -2
100
AcDbLine
 10
110.974596273426
 20
149.4037982970989
 30
0.0
 11
113.283834298153
 21
149.4037982970989
 31
0.0
  0
LINE
  5
9C5
330
8AA
100
AcDbEntity
  8
DIM
 62
     0
370
    -2
100
AcDbLine
 10
110.974596273426
 20
123.3587982970989
 30
0.0
 11
113.283834298153
 21
123.3587982970989
 31
0.0
  0
LINE
  5
9C6
330
8AA
100
AcDbEntity
  8
DIM
 62
     0
370
    -2
100
AcDbLine
 10
113.103834298153
 20
148.1537982970989
 30
0.0
 11
113.103834298153
 21
138.2817693444803
 31
0.0
  0
LINE
  5
9C7
330
8AA
100
AcDbEntity
  8
DIM
 62
     0
370
    -2
100
AcDbLine
 10
113.103834298153
 20
124.6087982970989
 30
0.0
 11
113.103834298153
 21
136.8517693444803
 31
0.0
  0
SOLID
  5
9C8
330
8AA
100
AcDbEntity
  8
DIM
 62
     0
100
AcDbTrace
 10
112.8955009648197
 20
148.1537982970989
 30
0.0
 11
113.3121676314864
 21
148.1537982970989
 31
0.0
 12
113.103834298153
 22
149.4037982970989
 32
0.0
 13
113.103834298153
 23
149.4037982970989
 33
0.0
  0
SOLID
  5
9C9
330
8AA
100
AcDbEntity
  8
DIM
 62
     0
100
AcDbTrace
 10
112.8955009648197
 20
124.6087982970989
 30
0.0
 11
113.3121676314864
 21
124.6087982970989
 31
0.0
 12
113.103834298153
 22
123.3587982970989
 32
0.0
 13
113.103834298153
 23
123.3587982970989
 33
0.0
  0
MTEXT
  5
9CA
330
8AA
100
AcDbEntity
  8
DIM
 62
     0
100
AcDbMText
 10
113.103834298153
 20
137.5667693444803
 30
0.0
 40
1.25
 41
0.0
 71
     5
 72
     1
  1
\A1;26.045
 73
     1
 44
1.0
1001
ACAD
1000
MTEXTBEGIN
1070
    73
1070
     1
1070
    44
1040
1.0
1070
    74
1070
     0
1000
MTEXTEND
  0
POINT
  5
9CB
330
8AA
100
AcDbEntity
  8
Defpoints
 62
     0
100
AcDbPoint
 10
110.5995962734261
 20
149.4037982970989
 30
0.0
  0
POINT
  5
9CC
330
8AA
100
AcDbEntity
  8
Defpoints
 62
     0
100
AcDbPoint
 10
110.5995962734261
 20
123.3587982970989
 30
0.0
  0
POINT
  5
9CD
330
8AA
100
AcDbEntity
  8
Defpoints
 62
     0
100
AcDbPoint
 10
113.103834298153
 20
123.3587982970989
 30
0.0
  0
ENDBLK
  5
8B6
330
8AA
100
AcDbEntity
  8
0
100
AcDbBlockEnd
  0
BLOCK
  5
8C0
330
8B7
100
AcDbEntity
  8
0
100
AcDbBlockBegin
  2
*D91
 70
     1
 10
0.0
 20
0.0
 30
0.0
  3
*D91
  1

  0
LINE
  5
B2E
330
8B7
100
AcDbEntity
  8
0
 62
     0
370
    -2
100
AcDbLine
 10
37.57854169558548
 20
15.78330625867408
 30
0.0
 11
36.32854169558547
 21
15.78330625867408
 31
0.0
  0
LINE
  5
B2F
330
8B7
100
AcDbEntity
  8
0
 62
     0
370
    -2
100
AcDbLine
 10
36.32854169558547
 20
15.78330625867408
 30
0.0
 11
26.91119280000393
 21
31.80894069143109
 31
0.0
  0
MTEXT
  5
B30
330
8B7
100
AcDbEntity
  8
0
 62
     0
100
AcDbMText
 10
37.66854169558548
 20
20.57497292534075
 30
0.0
 40
1.25
 41
0.0
 71
     1
 72
     1
  1
\A1;\U+22051.250 (1)\POPTIONAL:\PETHERNET\PCONNECTION \PPORT
 73
     1
 44
1.0
1001
ACAD
1000
MTEXTBEGIN
1070
    73
1070
     1
1070
    44
1040
1.0
1070
    74
1070
     0
1000
MTEXTEND
  0
SOLID
  5
B31
330
8B7
100
AcDbEntity
  8
0
 62
     0
100
AcDbTrace
 10
27.09080891785668
 20
31.91449081215715
 30
0.0
 11
26.73157668215118
 21
31.70339057070503
 31
0.0
 12
26.27789207564756
 22
32.88663739854758
 32
0.0
 13
26.27789207564756
 23
32.88663739854758
 33
0.0
  0
LINE
  5
B32
330
8B7
100
AcDbEntity
  8
0
 62
     0
370
    -2
100
AcDbLine
 10
25.8712417134694
 20
33.42548575210579
 30
0.0
 11
26.0512417134694
 21
33.42548575210579
 31
0.0
  0
LINE
  5
B33
330
8B7
100
AcDbEntity
  8
0
 62
     0
370
    -2
100
AcDbLine
 10
25.9612417134694
 20
33.33548575210578
 30
0.0
 11
25.9612417134694
 21
33.51548575210579
 31
0.0
  0
POINT
  5
B34
330
8B7
100
AcDbEntity
  8
Defpoints
 62
     0
100
AcDbPoint
 10
26.27789207564756
 20
32.88663739854758
 30
0.0
  0
POINT
  5
B35
330
8B7
100
AcDbEntity
  8
Defpoints
 62
     0
100
AcDbPoint
 10
25.64459135129123
 20
33.96433410566401
 30
0.0
  0
ENDBLK
  5
8C1
330
8B7
100
AcDbEntity
  8
0
100
AcDbBlockEnd
  0
BLOCK
  5
8CA
330
8C2
100
AcDbEntity
  8
0
100
AcDbBlockBegin
  2
*D92
 70
     1
 10
0.0
 20
0.0
 30
0.0
  3
*D92
  1

  0
LINE
  5
B1F
330
8C2
100
AcDbEntity
  8
0
 62
     0
370
    -2
100
AcDbLine
 10
25.96124171346948
 20
33.05048575210584
 30
0.0
 11
25.96124171346948
 21
30.92548575210584
 31
0.0
  0
LINE
  5
B20
330
8C2
100
AcDbEntity
  8
0
 62
     0
370
    -2
100
AcDbLine
 10
25.96124171346948
 20
30.92548575210584
 30
0.0
 11
26.4522045191443
 21
30.04514578331289
 31
0.0
  0
LINE
  5
B21
330
8C2
100
AcDbEntity
  8
0
 62
     0
370
    -2
100
AcDbLine
 10
26.4522045191443
 20
30.04514578331289
 30
0.0
 11
26.4522045191443
 21
27.54514578331289
 31
0.0
  0
MTEXT
  5
B22
330
8C2
100
AcDbEntity
  8
0
 62
     0
100
AcDbMText
 10
26.4522045191443
 20
24.53847911664623
 30
0.0
 40
1.25
 41
0.0
 71
     5
 72
     1
  1
\A1;13.825
 11
0.0000000000000001
 21
1.0
 31
0.0
 73
     1
 44
1.0
1001
ACAD
1000
MTEXTBEGIN
1070
    73
1070
     1
1070
    44
1040
1.0
1070
    74
1070
     0
1000
MTEXTEND
  0
POINT
  5
B23
330
8C2
100
AcDbEntity
  8
Defpoints
 62
     0
100
AcDbPoint
 10
25.96124171346948
 20
33.42548575210584
 30
0.0
  0
POINT
  5
B24
330
8C2
100
AcDbEntity
  8
Defpoints
 62
     0
100
AcDbPoint
 10
26.4522045191443
 20
27.54514578331289
 30
0.0
  0
POINT
  5
B25
330
8C2
100
AcDbEntity
  8
Defpoints
 62
     0
100
AcDbPoint
 10
12.13624171346943
 20
-2.824514247894157
 30
0.0
  0
ENDBLK
  5
8CB
330
8C2
100
AcDbEntity
  8
0
100
AcDbBlockEnd
  0
BLOCK
  5
8D2
330
8CC
100
AcDbEntity
  8
0
100
AcDbBlockBegin
  2
*D93
 70
     1
 10
0.0
 20
0.0
 30
0.0
  3
*D93
  1

  0
LINE
  5
B1A
330
8CC
100
AcDbEntity
  8
0
 62
     0
370
    -2
100
AcDbLine
 10
25.58624171346948
 20
33.42548575210584
 30
0.0
 11
10.45004767979186
 21
33.42548575210584
 31
0.0
  0
MTEXT
  5
B1B
330
8CC
100
AcDbEntity
  8
0
 62
     0
100
AcDbMText
 10
7.339214346458531
 20
33.42548575210584
 30
0.0
 40
1.25
 41
0.0
 71
     5
 72
     1
  1
\A1;36.250
 73
     1
 44
1.0
1001
ACAD
1000
MTEXTBEGIN
1070
    73
1070
     1
1070
    44
1040
1.0
1070
    74
1070
     0
1000
MTEXTEND
  0
POINT
  5
B1C
330
8CC
100
AcDbEntity
  8
Defpoints
 62
     0
100
AcDbPoint
 10
25.96124171346948
 20
33.42548575210584
 30
0.0
  0
POINT
  5
B1D
330
8CC
100
AcDbEntity
  8
Defpoints
 62
     0
100
AcDbPoint
 10
10.45004767979186
 20
33.42548575210584
 30
0.0
  0
POINT
  5
B1E
330
8CC
100
AcDbEntity
  8
Defpoints
 62
     0
100
AcDbPoint
 10
12.13624171346943
 20
-2.824514247894157
 30
0.0
  0
ENDBLK
  5
8D3
330
8CC
100
AcDbEntity
  8
0
100
AcDbBlockEnd
  0
BLOCK
  5
8DA
330
8D4
100
AcDbEntity
  8
0
100
AcDbBlockBegin
  2
*D94
 70
     1
 10
0.0
 20
0.0
 30
0.0
  3
*D94
  1

  0
LINE
  5
B15
330
8D4
100
AcDbEntity
  8
DIM
 62
     0
370
    -2
100
AcDbLine
 10
28.46124171346948
 20
30.80048575210585
 30
0.0
 11
28.46124171346946
 21
27.57380666149125
 31
0.0
  0
MTEXT
  5
B16
330
8D4
100
AcDbEntity
  8
DIM
 62
     0
100
AcDbMText
 10
28.46124171346945
 20
24.56713999482459
 30
0.0
 40
1.25
 41
0.0
 71
     5
 72
     1
  1
\A1;16.325
 11
0.0000000000000001
 21
1.0
 31
0.0
 73
     1
 44
1.0
1001
ACAD
1000
MTEXTBEGIN
1070
    73
1070
     1
1070
    44
1040
1.0
1070
    74
1070
     0
1000
MTEXTEND
  0
POINT
  5
B17
330
8D4
100
AcDbEntity
  8
Defpoints
 62
     0
100
AcDbPoint
 10
28.46124171346948
 20
31.17548575210584
 30
0.0
  0
POINT
  5
B18
330
8D4
100
AcDbEntity
  8
Defpoints
 62
     0
100
AcDbPoint
 10
28.46124171346946
 20
27.57380666149125
 30
0.0
  0
POINT
  5
B19
330
8D4
100
AcDbEntity
  8
Defpoints
 62
     0
100
AcDbPoint
 10
12.13619736853248
 20
-2.824481148376818
 30
0.0
  0
ENDBLK
  5
8DB
330
8D4
100
AcDbEntity
  8
0
100
AcDbBlockEnd
  0
BLOCK
  5
8E2
330
8DC
100
AcDbEntity
  8
0
100
AcDbBlockBegin
  2
*D95
 70
     1
 10
0.0
 20
0.0
 30
0.0
  3
*D95
  1

  0
LINE
  5
B10
330
8DC
100
AcDbEntity
  8
DIM
 62
     0
370
    -2
100
AcDbLine
 10
28.83624171346948
 20
31.17548575210584
 30
0.0
 11
31.7707452971999
 21
31.17548575210584
 31
0.0
  0
MTEXT
  5
B11
330
8DC
100
AcDbEntity
  8
DIM
 62
     0
100
AcDbMText
 10
34.67324529719989
 20
31.17548575210584
 30
0.0
 40
1.25
 41
0.0
 71
     5
 72
     1
  1
\A1;34.000
 73
     1
 44
1.0
1001
ACAD
1000
MTEXTBEGIN
1070
    73
1070
     1
1070
    44
1040
1.0
1070
    74
1070
     0
1000
MTEXTEND
  0
POINT
  5
B12
330
8DC
100
AcDbEntity
  8
Defpoints
 62
     0
100
AcDbPoint
 10
28.46124171346948
 20
31.17548575210584
 30
0.0
  0
POINT
  5
B13
330
8DC
100
AcDbEntity
  8
Defpoints
 62
     0
100
AcDbPoint
 10
31.7707452971999
 20
31.17548575210584
 30
0.0
  0
POINT
  5
B14
330
8DC
100
AcDbEntity
  8
Defpoints
 62
     0
100
AcDbPoint
 10
12.13619736853248
 20
-4.324481148376818
 30
0.0
  0
ENDBLK
  5
8E3
330
8DC
100
AcDbEntity
  8
0
100
AcDbBlockEnd
  0
BLOCK
  5
8EA
330
8E4
100
AcDbEntity
  8
0
100
AcDbBlockBegin
  2
*D96
 70
     1
 10
0.0
 20
0.0
 30
0.0
  3
*D96
  1

  0
LINE
  5
B0B
330
8E4
100
AcDbEntity
  8
DIM
 62
     0
370
    -2
100
AcDbLine
 10
29.46224171346946
 20
37.05048575210585
 30
0.0
 11
31.787333958096
 21
37.05048575210585
 31
0.0
  0
MTEXT
  5
B0C
330
8E4
100
AcDbEntity
  8
DIM
 62
     0
100
AcDbMText
 10
35.002333958096
 20
37.05048575210585
 30
0.0
 40
1.25
 41
0.0
 71
     5
 72
     1
  1
\A1;39.875
 73
     1
 44
1.0
1001
ACAD
1000
MTEXTBEGIN
1070
    73
1070
     1
1070
    44
1040
1.0
1070
    74
1070
     0
1000
MTEXTEND
  0
POINT
  5
B0D
330
8E4
100
AcDbEntity
  8
Defpoints
 62
     0
100
AcDbPoint
 10
29.08724171346945
 20
37.05048575210585
 30
0.0
  0
POINT
  5
B0E
330
8E4
100
AcDbEntity
  8
Defpoints
 62
     0
100
AcDbPoint
 10
31.787333958096
 20
37.05048575210585
 30
0.0
  0
POINT
  5
B0F
330
8E4
100
AcDbEntity
  8
Defpoints
 62
     0
100
AcDbPoint
 10
12.13619736853248
 20
-2.824481148376818
 30
0.0
  0
ENDBLK
  5
8EB
330
8E4
100
AcDbEntity
  8
0
100
AcDbBlockEnd
  0
BLOCK
  5
8F2
330
8EC
100
AcDbEntity
  8
0
100
AcDbBlockBegin
  2
*D97
 70
     1
 10
0.0
 20
0.0
 30
0.0
  3
*D97
  1

  0
LINE
  5
B06
330
8EC
100
AcDbEntity
  8
DIM
 62
     0
370
    -2
100
AcDbLine
 10
29.46224171346946
 20
40.30048575210584
 30
0.0
 11
31.787333958096
 21
40.30048575210584
 31
0.0
  0
MTEXT
  5
B07
330
8EC
100
AcDbEntity
  8
DIM
 62
     0
100
AcDbMText
 10
34.79400062476267
 20
40.30048575210584
 30
0.0
 40
1.25
 41
0.0
 71
     5
 72
     1
  1
\A1;43.125
 73
     1
 44
1.0
1001
ACAD
1000
MTEXTBEGIN
1070
    73
1070
     1
1070
    44
1040
1.0
1070
    74
1070
     0
1000
MTEXTEND
  0
POINT
  5
B08
330
8EC
100
AcDbEntity
  8
Defpoints
 62
     0
100
AcDbPoint
 10
29.08724171346945
 20
40.30048575210584
 30
0.0
  0
POINT
  5
B09
330
8EC
100
AcDbEntity
  8
Defpoints
 62
     0
100
AcDbPoint
 10
31.787333958096
 20
40.30048575210584
 30
0.0
  0
POINT
  5
B0A
330
8EC
100
AcDbEntity
  8
Defpoints
 62
     0
100
AcDbPoint
 10
12.13619736853248
 20
-2.824481148376818
 30
0.0
  0
ENDBLK
  5
8F3
330
8EC
100
AcDbEntity
  8
0
100
AcDbBlockEnd
  0
BLOCK
  5
8FA
330
8F4
100
AcDbEntity
  8
0
100
AcDbBlockBegin
  2
*D98
 70
     1
 10
0.0
 20
0.0
 30
0.0
  3
*D98
  1

  0
LINE
  5
B01
330
8F4
100
AcDbEntity
  8
DIM
 62
     0
370
    -2
100
AcDbLine
 10
27.81524171346952
 20
45.68148575210599
 30
0.0
 11
31.787333958096
 21
45.68148575210599
 31
0.0
  0
MTEXT
  5
B02
330
8F4
100
AcDbEntity
  8
DIM
 62
     0
100
AcDbMText
 10
34.89816729142933
 20
45.68148575210599
 30
0.0
 40
1.25
 41
0.0
 71
     5
 72
     1
  1
\A1;48.506
 73
     1
 44
1.0
1001
ACAD
1000
MTEXTBEGIN
1070
    73
1070
     1
1070
    44
1040
1.0
1070
    74
1070
     0
1000
MTEXTEND
  0
POINT
  5
B03
330
8F4
100
AcDbEntity
  8
Defpoints
 62
     0
100
AcDbPoint
 10
27.44024171346952
 20
45.68148575210599
 30
0.0
  0
POINT
  5
B04
330
8F4
100
AcDbEntity
  8
Defpoints
 62
     0
100
AcDbPoint
 10
31.787333958096
 20
45.68148575210599
 30
0.0
  0
POINT
  5
B05
330
8F4
100
AcDbEntity
  8
Defpoints
 62
     0
100
AcDbPoint
 10
12.13619736853248
 20
-2.824481148376818
 30
0.0
  0
ENDBLK
  5
8FB
330
8F4
100
AcDbEntity
  8
0
100
AcDbBlockEnd
  0
BLOCK
  5
902
330
8FC
100
AcDbEntity
  8
0
100
AcDbBlockBegin
  2
*D99
 70
     1
 10
0.0
 20
0.0
 30
0.0
  3
*D99
  1

  0
LINE
  5
AFC
330
8FC
100
AcDbEntity
  8
DIM
 62
     0
370
    -2
100
AcDbLine
 10
27.81524171346963
 20
48.51898575210568
 30
0.0
 11
31.787333958096
 21
48.51898575210568
 31
0.0
  0
MTEXT
  5
AFD
330
8FC
100
AcDbEntity
  8
DIM
 62
     0
100
AcDbMText
 10
34.79400062476267
 20
48.51898575210568
 30
0.0
 40
1.25
 41
0.0
 71
     5
 72
     1
  1
\A1;51.343
 73
     1
 44
1.0
1001
ACAD
1000
MTEXTBEGIN
1070
    73
1070
     1
1070
    44
1040
1.0
1070
    74
1070
     0
1000
MTEXTEND
  0
POINT
  5
AFE
330
8FC
100
AcDbEntity
  8
Defpoints
 62
     0
100
AcDbPoint
 10
27.44024171346963
 20
48.51898575210568
 30
0.0
  0
POINT
  5
AFF
330
8FC
100
AcDbEntity
  8
Defpoints
 62
     0
100
AcDbPoint
 10
31.787333958096
 20
48.51898575210568
 30
0.0
  0
POINT
  5
B00
330
8FC
100
AcDbEntity
  8
Defpoints
 62
     0
100
AcDbPoint
 10
12.13619736853248
 20
-2.824481148376818
 30
0.0
  0
ENDBLK
  5
903
330
8FC
100
AcDbEntity
  8
0
100
AcDbBlockEnd
  0
BLOCK
  5
90A
330
904
100
AcDbEntity
  8
0
100
AcDbBlockBegin
  2
*D100
 70
     1
 10
0.0
 20
0.0
 30
0.0
  3
*D100
  1

  0
LINE
  5
AF7
330
904
100
AcDbEntity
  8
DIM
 62
     0
370
    -2
100
AcDbLine
 10
11.76124171346943
 20
49.26548575210576
 30
0.0
 11
10.16176786746651
 21
49.26548575210576
 31
0.0
  0
MTEXT
  5
AF8
330
904
100
AcDbEntity
  8
DIM
 62
     0
100
AcDbMText
 10
7.155101200799842
 20
49.26548575210576
 30
0.0
 40
1.25
 41
0.0
 71
     5
 72
     1
  1
\A1;52.090
 73
     1
 44
1.0
1001
ACAD
1000
MTEXTBEGIN
1070
    73
1070
     1
1070
    44
1040
1.0
1070
    74
1070
     0
1000
MTEXTEND
  0
POINT
  5
AF9
330
904
100
AcDbEntity
  8
Defpoints
 62
     0
100
AcDbPoint
 10
12.13624171346943
 20
49.26548575210576
 30
0.0
  0
POINT
  5
AFA
330
904
100
AcDbEntity
  8
Defpoints
 62
     0
100
AcDbPoint
 10
10.16176786746651
 20
49.26548575210576
 30
0.0
  0
POINT
  5
AFB
330
904
100
AcDbEntity
  8
Defpoints
 62
     0
100
AcDbPoint
 10
12.13619736853248
 20
-2.824481148376818
 30
0.0
  0
ENDBLK
  5
90B
330
904
100
AcDbEntity
  8
0
100
AcDbBlockEnd
  0
BLOCK
  5
912
330
90C
100
AcDbEntity
  8
0
100
AcDbBlockBegin
  2
*D101
 70
     1
 10
0.0
 20
0.0
 30
0.0
  3
*D101
  1

  0
LINE
  5
AF2
330
90C
100
AcDbEntity
  8
DIM
 62
     0
370
    -2
100
AcDbLine
 10
13.14924171346935
 20
45.17548575210584
 30
0.0
 11
10.16176786746651
 21
45.17548575210584
 31
0.0
  0
MTEXT
  5
AF3
330
90C
100
AcDbEntity
  8
DIM
 62
     0
100
AcDbMText
 10
7.259267867466508
 20
45.17548575210584
 30
0.0
 40
1.25
 41
0.0
 71
     5
 72
     1
  1
\A1;48.000
 73
     1
 44
1.0
1001
ACAD
1000
MTEXTBEGIN
1070
    73
1070
     1
1070
    44
1040
1.0
1070
    74
1070
     0
1000
MTEXTEND
  0
POINT
  5
AF4
330
90C
100
AcDbEntity
  8
Defpoints
 62
     0
100
AcDbPoint
 10
13.52424171346935
 20
45.17548575210584
 30
0.0
  0
POINT
  5
AF5
330
90C
100
AcDbEntity
  8
Defpoints
 62
     0
100
AcDbPoint
 10
10.16176786746651
 20
45.17548575210584
 30
0.0
  0
POINT
  5
AF6
330
90C
100
AcDbEntity
  8
Defpoints
 62
     0
100
AcDbPoint
 10
12.13619736853248
 20
-2.824481148376818
 30
0.0
  0
ENDBLK
  5
913
330
90C
100
AcDbEntity
  8
0
100
AcDbBlockEnd
  0
BLOCK
  5
91A
330
914
100
AcDbEntity
  8
0
100
AcDbBlockBegin
  2
*D102
 70
     1
 10
0.0
 20
0.0
 30
0.0
  3
*D102
  1

  0
LINE
  5
AED
330
914
100
AcDbEntity
  8
DIM
 62
     0
370
    -2
100
AcDbLine
 10
28.83624171346948
 20
32.67548575210585
 30
0.0
 11
31.7707452971999
 21
32.67548575210585
 31
0.0
  0
MTEXT
  5
AEE
330
914
100
AcDbEntity
  8
DIM
 62
     0
100
AcDbMText
 10
34.77741196386656
 20
32.67548575210585
 30
0.0
 40
1.25
 41
0.0
 71
     5
 72
     1
  1
\A1;35.500
 73
     1
 44
1.0
1001
ACAD
1000
MTEXTBEGIN
1070
    73
1070
     1
1070
    44
1040
1.0
1070
    74
1070
     0
1000
MTEXTEND
  0
POINT
  5
AEF
330
914
100
AcDbEntity
  8
Defpoints
 62
     0
100
AcDbPoint
 10
28.46124171346948
 20
32.67548575210585
 30
0.0
  0
POINT
  5
AF0
330
914
100
AcDbEntity
  8
Defpoints
 62
     0
100
AcDbPoint
 10
31.7707452971999
 20
32.67548575210585
 30
0.0
  0
POINT
  5
AF1
330
914
100
AcDbEntity
  8
Defpoints
 62
     0
100
AcDbPoint
 10
12.13619736853248
 20
-2.824481148376818
 30
0.0
  0
ENDBLK
  5
91B
330
914
100
AcDbEntity
  8
0
100
AcDbBlockEnd
  0
BLOCK
  5
924
330
91C
100
AcDbEntity
  8
0
100
AcDbBlockBegin
  2
*D103
 70
     1
 10
0.0
 20
0.0
 30
0.0
  3
*D103
  1

  0
LINE
  5
AE6
330
91C
100
AcDbEntity
  8
DIM
 62
     0
370
    -2
100
AcDbLine
 10
29.08724171346945
 20
40.67548575210584
 30
0.0
 11
29.08724171346945
 21
46.29658674530658
 31
0.0
  0
LINE
  5
AE7
330
91C
100
AcDbEntity
  8
DIM
 62
     0
370
    -2
100
AcDbLine
 10
29.08724171346945
 20
46.29658674530658
 30
0.0
 11
31.27373440945208
 21
48.79658674530658
 31
0.0
  0
LINE
  5
AE8
330
91C
100
AcDbEntity
  8
DIM
 62
     0
370
    -2
100
AcDbLine
 10
31.27373440945208
 20
48.79658674530658
 30
0.0
 11
31.27373440945208
 21
51.29658674530658
 31
0.0
  0
MTEXT
  5
AE9
330
91C
100
AcDbEntity
  8
DIM
 62
     0
100
AcDbMText
 10
31.27373440945207
 20
54.09492007863992
 30
0.0
 40
1.25
 41
0.0
 71
     5
 72
     1
  1
\A1;16.951
 11
0.0000000000000001
 21
1.0
 31
0.0
 73
     1
 44
1.0
1001
ACAD
1000
MTEXTBEGIN
1070
    73
1070
     1
1070
    44
1040
1.0
1070
    74
1070
     0
1000
MTEXTEND
  0
POINT
  5
AEA
330
91C
100
AcDbEntity
  8
Defpoints
 62
     0
100
AcDbPoint
 10
29.08724171346945
 20
40.30048575210584
 30
0.0
  0
POINT
  5
AEB
330
91C
100
AcDbEntity
  8
Defpoints
 62
     0
100
AcDbPoint
 10
31.27373440945208
 20
51.29658674530658
 30
0.0
  0
POINT
  5
AEC
330
91C
100
AcDbEntity
  8
Defpoints
 62
     0
100
AcDbPoint
 10
12.13619736853248
 20
-2.824481148376818
 30
0.0
  0
ENDBLK
  5
925
330
91C
100
AcDbEntity
  8
0
100
AcDbBlockEnd
  0
BLOCK
  5
92E
330
926
100
AcDbEntity
  8
0
100
AcDbBlockBegin
  2
*D104
 70
     1
 10
0.0
 20
0.0
 30
0.0
  3
*D104
  1

  0
LINE
  5
ADF
330
926
100
AcDbEntity
  8
DIM
 62
     0
370
    -2
100
AcDbLine
 10
28.38824171346939
 20
45.55048575210584
 30
0.0
 11
28.38824171346939
 21
47.67548575210584
 31
0.0
  0
LINE
  5
AE0
330
926
100
AcDbEntity
  8
DIM
 62
     0
370
    -2
100
AcDbLine
 10
28.38824171346939
 20
47.67548575210584
 30
0.0
 11
29.36853053007413
 21
48.71384055087704
 31
0.0
  0
LINE
  5
AE1
330
926
100
AcDbEntity
  8
DIM
 62
     0
370
    -2
100
AcDbLine
 10
29.36853053007413
 20
48.71384055087704
 30
0.0
 11
29.36853053007413
 21
51.21384055087704
 31
0.0
  0
MTEXT
  5
AE2
330
926
100
AcDbEntity
  8
DIM
 62
     0
100
AcDbMText
 10
29.36853053007412
 20
54.22050721754371
 30
0.0
 40
1.25
 41
0.0
 71
     5
 72
     1
  1
\A1;16.252
 11
0.0000000000000001
 21
1.0
 31
0.0
 73
     1
 44
1.0
1001
ACAD
1000
MTEXTBEGIN
1070
    73
1070
     1
1070
    44
1040
1.0
1070
    74
1070
     0
1000
MTEXTEND
  0
POINT
  5
AE3
330
926
100
AcDbEntity
  8
Defpoints
 62
     0
100
AcDbPoint
 10
28.38824171346939
 20
45.17548575210584
 30
0.0
  0
POINT
  5
AE4
330
926
100
AcDbEntity
  8
Defpoints
 62
     0
100
AcDbPoint
 10
29.36853053007413
 20
51.21384055087704
 30
0.0
  0
POINT
  5
AE5
330
926
100
AcDbEntity
  8
Defpoints
 62
     0
100
AcDbPoint
 10
12.13619736853248
 20
-2.824481148376818
 30
0.0
  0
ENDBLK
  5
92F
330
926
100
AcDbEntity
  8
0
100
AcDbBlockEnd
  0
BLOCK
  5
938
330
930
100
AcDbEntity
  8
0
100
AcDbBlockBegin
  2
*D105
 70
     1
 10
0.0
 20
0.0
 30
0.0
  3
*D105
  1

  0
LINE
  5
AD8
330
930
100
AcDbEntity
  8
DIM
 62
     0
370
    -2
100
AcDbLine
 10
12.83724171346956
 20
40.67548575210584
 30
0.0
 11
12.83724171346957
 21
46.21384055087704
 31
0.0
  0
LINE
  5
AD9
330
930
100
AcDbEntity
  8
DIM
 62
     0
370
    -2
100
AcDbLine
 10
12.83724171346957
 20
46.21384055087704
 30
0.0
 11
10.97916222768249
 21
48.71384055087704
 31
0.0
  0
LINE
  5
ADA
330
930
100
AcDbEntity
  8
DIM
 62
     0
370
    -2
100
AcDbLine
 10
10.97916222768249
 20
48.71384055087704
 30
0.0
 11
10.97916222768249
 21
51.21384055087704
 31
0.0
  0
MTEXT
  5
ADB
330
930
100
AcDbEntity
  8
DIM
 62
     0
100
AcDbMText
 10
10.97916222768248
 20
53.38717388421037
 30
0.0
 40
1.25
 41
0.0
 71
     5
 72
     1
  1
\A1;0.701
 11
0.0000000000000001
 21
1.0
 31
0.0
 73
     1
 44
1.0
1001
ACAD
1000
MTEXTBEGIN
1070
    73
1070
     1
1070
    44
1040
1.0
1070
    74
1070
     0
1000
MTEXTEND
  0
POINT
  5
ADC
330
930
100
AcDbEntity
  8
Defpoints
 62
     0
100
AcDbPoint
 10
12.83724171346956
 20
40.30048575210584
 30
0.0
  0
POINT
  5
ADD
330
930
100
AcDbEntity
  8
Defpoints
 62
     0
100
AcDbPoint
 10
10.97916222768249
 20
51.21384055087704
 30
0.0
  0
POINT
  5
ADE
330
930
100
AcDbEntity
  8
Defpoints
 62
     0
100
AcDbPoint
 10
12.13619736853248
 20
-2.824481148376818
 30
0.0
  0
ENDBLK
  5
939
330
930
100
AcDbEntity
  8
0
100
AcDbBlockEnd
  0
BLOCK
  5
942
330
93A
100
AcDbEntity
  8
0
100
AcDbBlockBegin
  2
*D106
 70
     1
 10
0.0
 20
0.0
 30
0.0
  3
*D106
  1

  0
LINE
  5
AD1
330
93A
100
AcDbEntity
  8
DIM
 62
     0
370
    -2
100
AcDbLine
 10
13.52424171346935
 20
45.55048575210584
 30
0.0
 11
13.52424171346935
 21
47.67548575210584
 31
0.0
  0
LINE
  5
AD2
330
93A
100
AcDbEntity
  8
DIM
 62
     0
370
    -2
100
AcDbLine
 10
13.52424171346935
 20
47.67548575210584
 30
0.0
 11
12.71869663362709
 21
48.71384055087704
 31
0.0
  0
LINE
  5
AD3
330
93A
100
AcDbEntity
  8
DIM
 62
     0
370
    -2
100
AcDbLine
 10
12.71869663362709
 20
48.71384055087704
 30
0.0
 11
12.71869663362709
 21
51.21384055087704
 31
0.0
  0
MTEXT
  5
AD4
330
93A
100
AcDbEntity
  8
DIM
 62
     0
100
AcDbMText
 10
12.71869663362708
 20
53.5955072175437
 30
0.0
 40
1.25
 41
0.0
 71
     5
 72
     1
  1
\A1;1.388
 11
0.0000000000000001
 21
1.0
 31
0.0
 73
     1
 44
1.0
1001
ACAD
1000
MTEXTBEGIN
1070
    73
1070
     1
1070
    44
1040
1.0
1070
    74
1070
     0
1000
MTEXTEND
  0
POINT
  5
AD5
330
93A
100
AcDbEntity
  8
Defpoints
 62
     0
100
AcDbPoint
 10
13.52424171346935
 20
45.17548575210584
 30
0.0
  0
POINT
  5
AD6
330
93A
100
AcDbEntity
  8
Defpoints
 62
     0
100
AcDbPoint
 10
12.71869663362709
 20
51.21384055087704
 30
0.0
  0
POINT
  5
AD7
330
93A
100
AcDbEntity
  8
Defpoints
 62
     0
100
AcDbPoint
 10
12.13619736853248
 20
-2.824481148376818
 30
0.0
  0
ENDBLK
  5
943
330
93A
100
AcDbEntity
  8
0
100
AcDbBlockEnd
  0
BLOCK
  5
94A
330
944
100
AcDbEntity
  8
0
100
AcDbBlockBegin
  2
*D107
 70
     1
 10
0.0
 20
0.0
 30
0.0
  3
*D107
  1

  0
LINE
  5
ACC
330
944
100
AcDbEntity
  8
DIM
 62
     0
370
    -2
100
AcDbLine
 10
27.44024171346963
 20
48.89398575210567
 30
0.0
 11
27.44024171346963
 21
51.13109435644749
 31
0.0
  0
MTEXT
  5
ACD
330
944
100
AcDbEntity
  8
DIM
 62
     0
100
AcDbMText
 10
27.44024171346963
 20
54.03359435644749
 30
0.0
 40
1.25
 41
0.0
 71
     5
 72
     1
  1
\A1;15.304
 11
0.0000000000000001
 21
1.0
 31
0.0
 73
     1
 44
1.0
1001
ACAD
1000
MTEXTBEGIN
1070
    73
1070
     1
1070
    44
1040
1.0
1070
    74
1070
     0
1000
MTEXTEND
  0
POINT
  5
ACE
330
944
100
AcDbEntity
  8
Defpoints
 62
     0
100
AcDbPoint
 10
27.44024171346963
 20
48.51898575210568
 30
0.0
  0
POINT
  5
ACF
330
944
100
AcDbEntity
  8
Defpoints
 62
     0
100
AcDbPoint
 10
27.44024171346963
 20
51.13109435644749
 30
0.0
  0
POINT
  5
AD0
330
944
100
AcDbEntity
  8
Defpoints
 62
     0
100
AcDbPoint
 10
12.13619736853248
 20
-2.824481148376818
 30
0.0
  0
ENDBLK
  5
94B
330
944
100
AcDbEntity
  8
0
100
AcDbBlockEnd
  0
BLOCK
  5
952
330
94C
100
AcDbEntity
  8
0
100
AcDbBlockBegin
  2
*D108
 70
     1
 10
0.0
 20
0.0
 30
0.0
  3
*D108
  1

  0
LINE
  5
AC7
330
94C
100
AcDbEntity
  8
DIM
 62
     0
370
    -2
100
AcDbLine
 10
14.49024171346947
 20
48.89398575210567
 30
0.0
 11
14.49024171346947
 21
51.21384055087704
 31
0.0
  0
MTEXT
  5
AC8
330
94C
100
AcDbEntity
  8
DIM
 62
     0
100
AcDbMText
 10
14.49024171346946
 20
53.80384055087703
 30
0.0
 40
1.25
 41
0.0
 71
     5
 72
     1
  1
\A1;2.354
 11
0.0000000000000001
 21
1.0
 31
0.0
 73
     1
 44
1.0
1001
ACAD
1000
MTEXTBEGIN
1070
    73
1070
     1
1070
    44
1040
1.0
1070
    74
1070
     0
1000
MTEXTEND
  0
POINT
  5
AC9
330
94C
100
AcDbEntity
  8
Defpoints
 62
     0
100
AcDbPoint
 10
14.49024171346947
 20
48.51898575210568
 30
0.0
  0
POINT
  5
ACA
330
94C
100
AcDbEntity
  8
Defpoints
 62
     0
100
AcDbPoint
 10
14.49024171346947
 20
51.21384055087704
 30
0.0
  0
POINT
  5
ACB
330
94C
100
AcDbEntity
  8
Defpoints
 62
     0
100
AcDbPoint
 10
12.13619736853248
 20
-2.824481148376818
 30
0.0
  0
ENDBLK
  5
953
330
94C
100
AcDbEntity
  8
0
100
AcDbBlockEnd
  0
BLOCK
  5
95A
330
954
100
AcDbEntity
  8
0
100
AcDbBlockBegin
  2
*D109
 70
     1
 10
0.0
 20
0.0
 30
0.0
  3
*D109
  1

  0
LINE
  5
AC2
330
954
100
AcDbEntity
  8
DIM
 62
     0
370
    -2
100
AcDbLine
 10
16.71224171346945
 20
30.17548575210585
 30
0.0
 11
10.1412559623604
 21
30.17548575210585
 31
0.0
  0
MTEXT
  5
AC3
330
954
100
AcDbEntity
  8
DIM
 62
     0
100
AcDbMText
 10
7.238755962360404
 20
30.17548575210585
 30
0.0
 40
1.25
 41
0.0
 71
     5
 72
     1
  1
\A1;33.000
 73
     1
 44
1.0
1001
ACAD
1000
MTEXTBEGIN
1070
    73
1070
     1
1070
    44
1040
1.0
1070
    74
1070
     0
1000
MTEXTEND
  0
POINT
  5
AC4
330
954
100
AcDbEntity
  8
Defpoints
 62
     0
100
AcDbPoint
 10
17.08724171346945
 20
30.17548575210585
 30
0.0
  0
POINT
  5
AC5
330
954
100
AcDbEntity
  8
Defpoints
 62
     0
100
AcDbPoint
 10
10.1412559623604
 20
30.17548575210585
 30
0.0
  0
POINT
  5
AC6
330
954
100
AcDbEntity
  8
Defpoints
 62
     0
100
AcDbPoint
 10
12.13619736853248
 20
-2.824481148376818
 30
0.0
  0
ENDBLK
  5
95B
330
954
100
AcDbEntity
  8
0
100
AcDbBlockEnd
  0
BLOCK
  5
962
330
95C
100
AcDbEntity
  8
0
100
AcDbBlockBegin
  2
*D110
 70
     1
 10
0.0
 20
0.0
 30
0.0
  3
*D110
  1

  0
LINE
  5
ABD
330
95C
100
AcDbEntity
  8
DIM
 62
     0
370
    -2
100
AcDbLine
 10
16.71224171346945
 20
23.17548575210584
 30
0.0
 11
10.1412559623604
 21
23.17548575210584
 31
0.0
  0
MTEXT
  5
ABE
330
95C
100
AcDbEntity
  8
DIM
 62
     0
100
AcDbMText
 10
7.238755962360404
 20
23.17548575210584
 30
0.0
 40
1.25
 41
0.0
 71
     5
 72
     1
  1
\A1;26.000
 73
     1
 44
1.0
1001
ACAD
1000
MTEXTBEGIN
1070
    73
1070
     1
1070
    44
1040
1.0
1070
    74
1070
     0
1000
MTEXTEND
  0
POINT
  5
ABF
330
95C
100
AcDbEntity
  8
Defpoints
 62
     0
100
AcDbPoint
 10
17.08724171346945
 20
23.17548575210584
 30
0.0
  0
POINT
  5
AC0
330
95C
100
AcDbEntity
  8
Defpoints
 62
     0
100
AcDbPoint
 10
10.1412559623604
 20
23.17548575210584
 30
0.0
  0
POINT
  5
AC1
330
95C
100
AcDbEntity
  8
Defpoints
 62
     0
100
AcDbPoint
 10
12.13619736853248
 20
-2.824481148376818
 30
0.0
  0
ENDBLK
  5
963
330
95C
100
AcDbEntity
  8
0
100
AcDbBlockEnd
  0
BLOCK
  5
96C
330
964
100
AcDbEntity
  8
0
100
AcDbBlockBegin
  2
*D111
 70
     1
 10
0.0
 20
0.0
 30
0.0
  3
*D111
  1

  0
LINE
  5
AB6
330
964
100
AcDbEntity
  8
DIM
 62
     0
370
    -2
100
AcDbLine
 10
24.83724171346946
 20
22.80048575210584
 30
0.0
 11
24.83724171346945
 21
0.1460154232803033
 31
0.0
  0
LINE
  5
AB7
330
964
100
AcDbEntity
  8
DIM
 62
     0
370
    -2
100
AcDbLine
 10
24.83724171346945
 20
0.1460154232803033
 30
0.0
 11
23.37884697329805
 21
-2.353984576719696
 31
0.0
  0
LINE
  5
AB8
330
964
100
AcDbEntity
  8
DIM
 62
     0
370
    -2
100
AcDbLine
 10
23.37884697329805
 20
-2.353984576719696
 30
0.0
 11
23.37884697329805
 21
-4.853984576719696
 31
0.0
  0
MTEXT
  5
AB9
330
964
100
AcDbEntity
  8
DIM
 62
     0
100
AcDbMText
 10
23.37884697329805
 20
-7.548151243386358
 30
0.0
 40
1.25
 41
0.0
 71
     5
 72
     1
  1
\A1;12.701
 11
0.0000000000000001
 21
1.0
 31
0.0
 73
     1
 44
1.0
1001
ACAD
1000
MTEXTBEGIN
1070
    73
1070
     1
1070
    44
1040
1.0
1070
    74
1070
     0
1000
MTEXTEND
  0
POINT
  5
ABA
330
964
100
AcDbEntity
  8
Defpoints
 62
     0
100
AcDbPoint
 10
24.83724171346946
 20
23.17548575210584
 30
0.0
  0
POINT
  5
ABB
330
964
100
AcDbEntity
  8
Defpoints
 62
     0
100
AcDbPoint
 10
23.37884697329805
 20
-4.853984576719696
 30
0.0
  0
POINT
  5
ABC
330
964
100
AcDbEntity
  8
Defpoints
 62
     0
100
AcDbPoint
 10
12.13619736853248
 20
-2.824481148376818
 30
0.0
  0
ENDBLK
  5
96D
330
964
100
AcDbEntity
  8
0
100
AcDbBlockEnd
  0
BLOCK
  5
976
330
96E
100
AcDbEntity
  8
0
100
AcDbBlockBegin
  2
*D112
 70
     1
 10
0.0
 20
0.0
 30
0.0
  3
*D112
  1

  0
LINE
  5
AAF
330
96E
100
AcDbEntity
  8
DIM
 62
     0
370
    -2
100
AcDbLine
 10
17.08724171346945
 20
22.80048575210584
 30
0.0
 11
17.08724171346945
 21
0.1460154232803041
 31
0.0
  0
LINE
  5
AB0
330
96E
100
AcDbEntity
  8
DIM
 62
     0
370
    -2
100
AcDbLine
 10
17.08724171346945
 20
0.1460154232803041
 30
0.0
 11
18.67229868091631
 21
-2.353984576719696
 31
0.0
  0
LINE
  5
AB1
330
96E
100
AcDbEntity
  8
DIM
 62
     0
370
    -2
100
AcDbLine
 10
18.67229868091631
 20
-2.353984576719696
 30
0.0
 11
18.67229868091631
 21
-4.853984576719696
 31
0.0
  0
MTEXT
  5
AB2
330
96E
100
AcDbEntity
  8
DIM
 62
     0
100
AcDbMText
 10
18.67229868091631
 20
-7.235651243386359
 30
0.0
 40
1.25
 41
0.0
 71
     5
 72
     1
  1
\A1;4.951
 11
0.0000000000000001
 21
1.0
 31
0.0
 73
     1
 44
1.0
1001
ACAD
1000
MTEXTBEGIN
1070
    73
1070
     1
1070
    44
1040
1.0
1070
    74
1070
     0
1000
MTEXTEND
  0
POINT
  5
AB3
330
96E
100
AcDbEntity
  8
Defpoints
 62
     0
100
AcDbPoint
 10
17.08724171346945
 20
23.17548575210584
 30
0.0
  0
POINT
  5
AB4
330
96E
100
AcDbEntity
  8
Defpoints
 62
     0
100
AcDbPoint
 10
18.67229868091631
 20
-4.853984576719696
 30
0.0
  0
POINT
  5
AB5
330
96E
100
AcDbEntity
  8
Defpoints
 62
     0
100
AcDbPoint
 10
12.13619736853248
 20
-2.824481148376818
 30
0.0
  0
ENDBLK
  5
977
330
96E
100
AcDbEntity
  8
0
100
AcDbBlockEnd
  0
BLOCK
  5
980
330
978
100
AcDbEntity
  8
0
100
AcDbBlockBegin
  2
*D113
 70
     1
 10
0.0
 20
0.0
 30
0.0
  3
*D113
  1

  0
LINE
  5
AA8
330
978
100
AcDbEntity
  8
DIM
 62
     0
370
    -2
100
AcDbLine
 10
28.39824171346938
 20
6.800485752105842
 30
0.0
 11
28.39824171346938
 21
0.1460154232803034
 31
0.0
  0
LINE
  5
AA9
330
978
100
AcDbEntity
  8
DIM
 62
     0
370
    -2
100
AcDbLine
 10
28.39824171346938
 20
0.1460154232803034
 30
0.0
 11
27.28184082796357
 21
-2.353984576719696
 31
0.0
  0
LINE
  5
AAA
330
978
100
AcDbEntity
  8
DIM
 62
     0
370
    -2
100
AcDbLine
 10
27.28184082796357
 20
-2.353984576719696
 30
0.0
 11
27.28184082796357
 21
-4.853984576719696
 31
0.0
  0
MTEXT
  5
AAB
330
978
100
AcDbEntity
  8
DIM
 62
     0
100
AcDbMText
 10
27.28184082796357
 20
-7.860651243386358
 30
0.0
 40
1.25
 41
0.0
 71
     5
 72
     1
  1
\A1;16.262
 11
0.0000000000000001
 21
1.0
 31
0.0
 73
     1
 44
1.0
1001
ACAD
1000
MTEXTBEGIN
1070
    73
1070
     1
1070
    44
1040
1.0
1070
    74
1070
     0
1000
MTEXTEND
  0
POINT
  5
AAC
330
978
100
AcDbEntity
  8
Defpoints
 62
     0
100
AcDbPoint
 10
28.39824171346938
 20
7.175485752105842
 30
0.0
  0
POINT
  5
AAD
330
978
100
AcDbEntity
  8
Defpoints
 62
     0
100
AcDbPoint
 10
27.28184082796357
 20
-4.853984576719696
 30
0.0
  0
POINT
  5
AAE
330
978
100
AcDbEntity
  8
Defpoints
 62
     0
100
AcDbPoint
 10
12.13619736853248
 20
-2.824481148376818
 30
0.0
  0
ENDBLK
  5
981
330
978
100
AcDbEntity
  8
0
100
AcDbBlockEnd
  0
BLOCK
  5
98A
330
982
100
AcDbEntity
  8
0
100
AcDbBlockBegin
  2
*D114
 70
     1
 10
0.0
 20
0.0
 30
0.0
  3
*D114
  1

  0
LINE
  5
AA1
330
982
100
AcDbEntity
  8
DIM
 62
     0
370
    -2
100
AcDbLine
 10
13.54924171346944
 20
6.800485752105842
 30
0.0
 11
13.54924171346944
 21
0.146015423280304
 31
0.0
  0
LINE
  5
AA2
330
982
100
AcDbEntity
  8
DIM
 62
     0
370
    -2
100
AcDbLine
 10
13.54924171346944
 20
0.146015423280304
 30
0.0
 11
14.4249229429724
 21
-2.353984576719696
 31
0.0
  0
LINE
  5
AA3
330
982
100
AcDbEntity
  8
DIM
 62
     0
370
    -2
100
AcDbLine
 10
14.4249229429724
 20
-2.353984576719696
 30
0.0
 11
14.4249229429724
 21
-4.853984576719696
 31
0.0
  0
MTEXT
  5
AA4
330
982
100
AcDbEntity
  8
DIM
 62
     0
100
AcDbMText
 10
14.4249229429724
 20
-7.027317910053026
 30
0.0
 40
1.25
 41
0.0
 71
     5
 72
     1
  1
\A1;1.413
 11
0.0000000000000001
 21
1.0
 31
0.0
 73
     1
 44
1.0
1001
ACAD
1000
MTEXTBEGIN
1070
    73
1070
     1
1070
    44
1040
1.0
1070
    74
1070
     0
1000
MTEXTEND
  0
POINT
  5
AA5
330
982
100
AcDbEntity
  8
Defpoints
 62
     0
100
AcDbPoint
 10
13.54924171346944
 20
7.175485752105842
 30
0.0
  0
POINT
  5
AA6
330
982
100
AcDbEntity
  8
Defpoints
 62
     0
100
AcDbPoint
 10
14.4249229429724
 20
-4.853984576719696
 30
0.0
  0
POINT
  5
AA7
330
982
100
AcDbEntity
  8
Defpoints
 62
     0
100
AcDbPoint
 10
12.13619736853248
 20
-2.824481148376818
 30
0.0
  0
ENDBLK
  5
98B
330
982
100
AcDbEntity
  8
0
100
AcDbBlockEnd
  0
BLOCK
  5
992
330
98C
100
AcDbEntity
  8
0
100
AcDbBlockBegin
  2
*D115
 70
     1
 10
0.0
 20
0.0
 30
0.0
  3
*D115
  1

  0
LINE
  5
A9C
330
98C
100
AcDbEntity
  8
DIM
 62
     0
370
    -2
100
AcDbLine
 10
25.21224171346946
 20
15.80048575210584
 30
0.0
 11
25.21224171346946
 21
-4.853984576719696
 31
0.0
  0
MTEXT
  5
A9D
330
98C
100
AcDbEntity
  8
DIM
 62
     0
100
AcDbMText
 10
25.21224171346946
 20
-7.756484576719692
 30
0.0
 40
1.25
 41
0.0
 71
     5
 72
     1
  1
\A1;13.076
 11
0.0000000000000001
 21
1.0
 31
0.0
 73
     1
 44
1.0
1001
ACAD
1000
MTEXTBEGIN
1070
    73
1070
     1
1070
    44
1040
1.0
1070
    74
1070
     0
1000
MTEXTEND
  0
POINT
  5
A9E
330
98C
100
AcDbEntity
  8
Defpoints
 62
     0
100
AcDbPoint
 10
25.21224171346946
 20
16.17548575210584
 30
0.0
  0
POINT
  5
A9F
330
98C
100
AcDbEntity
  8
Defpoints
 62
     0
100
AcDbPoint
 10
25.21224171346946
 20
-4.853984576719696
 30
0.0
  0
POINT
  5
AA0
330
98C
100
AcDbEntity
  8
Defpoints
 62
     0
100
AcDbPoint
 10
12.13619736853248
 20
-2.824481148376818
 30
0.0
  0
ENDBLK
  5
993
330
98C
100
AcDbEntity
  8
0
100
AcDbBlockEnd
  0
BLOCK
  5
99A
330
994
100
AcDbEntity
  8
0
100
AcDbBlockBegin
  2
*D116
 70
     1
 10
0.0
 20
0.0
 30
0.0
  3
*D116
  1

  0
LINE
  5
A97
330
994
100
AcDbEntity
  8
DIM
 62
     0
370
    -2
100
AcDbLine
 10
16.71224171346945
 20
15.80048575210584
 30
0.0
 11
16.71224171346945
 21
-4.853984576719696
 31
0.0
  0
MTEXT
  5
A98
330
994
100
AcDbEntity
  8
DIM
 62
     0
100
AcDbMText
 10
16.71224171346945
 20
-7.443984576719693
 30
0.0
 40
1.25
 41
0.0
 71
     5
 72
     1
  1
\A1;4.576
 11
0.0000000000000001
 21
1.0
 31
0.0
 73
     1
 44
1.0
1001
ACAD
1000
MTEXTBEGIN
1070
    73
1070
     1
1070
    44
1040
1.0
1070
    74
1070
     0
1000
MTEXTEND
  0
POINT
  5
A99
330
994
100
AcDbEntity
  8
Defpoints
 62
     0
100
AcDbPoint
 10
16.71224171346945
 20
16.17548575210584
 30
0.0
  0
POINT
  5
A9A
330
994
100
AcDbEntity
  8
Defpoints
 62
     0
100
AcDbPoint
 10
16.71224171346945
 20
-4.853984576719696
 30
0.0
  0
POINT
  5
A9B
330
994
100
AcDbEntity
  8
Defpoints
 62
     0
100
AcDbPoint
 10
12.13619736853248
 20
-2.824481148376818
 30
0.0
  0
ENDBLK
  5
99B
330
994
100
AcDbEntity
  8
0
100
AcDbBlockEnd
  0
BLOCK
  5
9A2
330
99C
100
AcDbEntity
  8
0
100
AcDbBlockBegin
  2
*D117
 70
     1
 10
0.0
 20
0.0
 30
0.0
  3
*D117
  1

  0
LINE
  5
A92
330
99C
100
AcDbEntity
  8
DIM
 62
     0
370
    -2
100
AcDbLine
 10
29.78824171346936
 20
-3.199514247894157
 30
0.0
 11
29.78824171346936
 21
-4.714343707465715
 31
0.0
  0
MTEXT
  5
A93
330
99C
100
AcDbEntity
  8
DIM
 62
     0
100
AcDbMText
 10
29.78824171346936
 20
-7.721010374132377
 30
0.0
 40
1.25
 41
0.0
 71
     5
 72
     1
  1
\A1;17.652
 11
0.0000000000000001
 21
1.0
 31
0.0
 73
     1
 44
1.0
1001
ACAD
1000
MTEXTBEGIN
1070
    73
1070
     1
1070
    44
1040
1.0
1070
    74
1070
     0
1000
MTEXTEND
  0
POINT
  5
A94
330
99C
100
AcDbEntity
  8
Defpoints
 62
     0
100
AcDbPoint
 10
29.78824171346936
 20
-2.824514247894157
 30
0.0
  0
POINT
  5
A95
330
99C
100
AcDbEntity
  8
Defpoints
 62
     0
100
AcDbPoint
 10
29.78824171346936
 20
-4.714343707465715
 30
0.0
  0
POINT
  5
A96
330
99C
100
AcDbEntity
  8
Defpoints
 62
     0
100
AcDbPoint
 10
12.13619736853248
 20
-2.824481148376818
 30
0.0
  0
ENDBLK
  5
9A3
330
99C
100
AcDbEntity
  8
0
100
AcDbBlockEnd
  0
BLOCK
  5
9AA
330
9A4
100
AcDbEntity
  8
0
100
AcDbBlockBegin
  2
*D118
 70
     1
 10
0.0
 20
0.0
 30
0.0
  3
*D118
  1

  0
LINE
  5
A8D
330
9A4
100
AcDbEntity
  8
DIM
 62
     0
370
    -2
100
AcDbLine
 10
12.13624171346943
 20
-3.199514247894157
 30
0.0
 11
12.13624171346943
 21
-4.902994835877436
 31
0.0
  0
MTEXT
  5
A8E
330
9A4
100
AcDbEntity
  8
DIM
 62
     0
100
AcDbMText
 10
12.13624171346943
 20
-7.076328169210767
 30
0.0
 40
1.25
 41
0.0
 71
     5
 72
     1
  1
\A1;0.000
 11
0.0000000000000001
 21
1.0
 31
0.0
 73
     1
 44
1.0
1001
ACAD
1000
MTEXTBEGIN
1070
    73
1070
     1
1070
    44
1040
1.0
1070
    74
1070
     0
1000
MTEXTEND
  0
POINT
  5
A8F
330
9A4
100
AcDbEntity
  8
Defpoints
 62
     0
100
AcDbPoint
 10
12.13624171346943
 20
-2.824514247894157
 30
0.0
  0
POINT
  5
A90
330
9A4
100
AcDbEntity
  8
Defpoints
 62
     0
100
AcDbPoint
 10
12.13624171346943
 20
-4.902994835877436
 30
0.0
  0
POINT
  5
A91
330
9A4
100
AcDbEntity
  8
Defpoints
 62
     0
100
AcDbPoint
 10
12.13619736853248
 20
-2.824481148376818
 30
0.0
  0
ENDBLK
  5
9AB
330
9A4
100
AcDbEntity
  8
0
100
AcDbBlockEnd
  0
BLOCK
  5
9B2
330
9AC
100
AcDbEntity
  8
0
100
AcDbBlockBegin
  2
*D119
 70
     1
 10
0.0
 20
0.0
 30
0.0
  3
*D119
  1

  0
LINE
  5
A88
330
9AC
100
AcDbEntity
  8
DIM
 62
     0
370
    -2
100
AcDbLine
 10
16.33724171346945
 20
16.17548575210584
 30
0.0
 11
10.10811811975504
 21
16.17548575210584
 31
0.0
  0
MTEXT
  5
A89
330
9AC
100
AcDbEntity
  8
DIM
 62
     0
100
AcDbMText
 10
7.413951453088381
 20
16.17548575210584
 30
0.0
 40
1.25
 41
0.0
 71
     5
 72
     1
  1
\A1;19.000
 73
     1
 44
1.0
1001
ACAD
1000
MTEXTBEGIN
1070
    73
1070
     1
1070
    44
1040
1.0
1070
    74
1070
     0
1000
MTEXTEND
  0
POINT
  5
A8A
330
9AC
100
AcDbEntity
  8
Defpoints
 62
     0
100
AcDbPoint
 10
16.71224171346945
 20
16.17548575210584
 30
0.0
  0
POINT
  5
A8B
330
9AC
100
AcDbEntity
  8
Defpoints
 62
     0
100
AcDbPoint
 10
10.10811811975504
 20
16.17548575210584
 30
0.0
  0
POINT
  5
A8C
330
9AC
100
AcDbEntity
  8
Defpoints
 62
     0
100
AcDbPoint
 10
12.13619736853248
 20
-2.824481148376818
 30
0.0
  0
ENDBLK
  5
9B3
330
9AC
100
AcDbEntity
  8
0
100
AcDbBlockEnd
  0
BLOCK
  5
9BA
330
9B4
100
AcDbEntity
  8
0
100
AcDbBlockBegin
  2
*D120
 70
     1
 10
0.0
 20
0.0
 30
0.0
  3
*D120
  1

  0
LINE
  5
A83
330
9B4
100
AcDbEntity
  8
DIM
 62
     0
370
    -2
100
AcDbLine
 10
13.17424171346944
 20
7.175485752105842
 30
0.0
 11
10.10811811975504
 21
7.175485752105842
 31
0.0
  0
MTEXT
  5
A84
330
9B4
100
AcDbEntity
  8
DIM
 62
     0
100
AcDbMText
 10
7.518118119755047
 20
7.175485752105842
 30
0.0
 40
1.25
 41
0.0
 71
     5
 72
     1
  1
\A1;10.000
 73
     1
 44
1.0
1001
ACAD
1000
MTEXTBEGIN
1070
    73
1070
     1
1070
    44
1040
1.0
1070
    74
1070
     0
1000
MTEXTEND
  0
POINT
  5
A85
330
9B4
100
AcDbEntity
  8
Defpoints
 62
     0
100
AcDbPoint
 10
13.54924171346944
 20
7.175485752105842
 30
0.0
  0
POINT
  5
A86
330
9B4
100
AcDbEntity
  8
Defpoints
 62
     0
100
AcDbPoint
 10
10.10811811975504
 20
7.175485752105842
 30
0.0
  0
POINT
  5
A87
330
9B4
100
AcDbEntity
  8
Defpoints
 62
     0
100
AcDbPoint
 10
12.13619736853248
 20
-2.824481148376818
 30
0.0
  0
ENDBLK
  5
9BB
330
9B4
100
AcDbEntity
  8
0
100
AcDbBlockEnd
  0
BLOCK
  5
9C2
330
9BC
100
AcDbEntity
  8
0
100
AcDbBlockBegin
  2
*D121
 70
     1
 10
0.0
 20
0.0
 30
0.0
  3
*D121
  1

  0
LINE
  5
A7E
330
9BC
100
AcDbEntity
  8
DIM
 62
     0
370
    -2
100
AcDbLine
 10
11.76124171346943
 20
-2.824514247894157
 30
0.0
 11
10.12597504953415
 21
-2.824514247894157
 31
0.0
  0
MTEXT
  5
A7F
330
9BC
100
AcDbEntity
  8
DIM
 62
     0
100
AcDbMText
 10
7.952641716200815
 20
-2.824514247894157
 30
0.0
 40
1.25
 41
0.0
 71
     5
 72
     1
  1
\A1;0.000
 73
     1
 44
1.0
1001
ACAD
1000
MTEXTBEGIN
1070
    73
1070
     1
1070
    44
1040
1.0
1070
    74
1070
     0
1000
MTEXTEND
  0
POINT
  5
A80
330
9BC
100
AcDbEntity
  8
Defpoints
 62
     0
100
AcDbPoint
 10
12.13624171346943
 20
-2.824514247894157
 30
0.0
  0
POINT
  5
A81
330
9BC
100
AcDbEntity
  8
Defpoints
 62
     0
100
AcDbPoint
 10
10.12597504953415
 20
-2.824514247894157
 30
0.0
  0
POINT
  5
A82
330
9BC
100
AcDbEntity
  8
Defpoints
 62
     0
100
AcDbPoint
 10
12.13619736853248
 20
-2.824481148376818
 30
0.0
  0
ENDBLK
  5
9C3
330
9BC
100
AcDbEntity
  8
0
100
AcDbBlockEnd
  0
BLOCK
  5
B40
330
B37
100
AcDbEntity
  8
0
100
AcDbBlockBegin
  2
*D122
 70
     1
 10
0.0
 20
0.0
 30
0.0
  3
*D122
  1

  0
LINE
  5
B43
330
B37
100
AcDbEntity
  8
0
 62
     0
370
    -2
100
AcDbLine
 10
34.88676625877442
 20
0.6784071970245087
 30
0.0
 11
33.63676625877442
 21
0.6784071970245087
 31
0.0
  0
LINE
  5
B44
330
B37
100
AcDbEntity
  8
0
 62
     0
370
    -2
100
AcDbLine
 10
33.63676625877442
 20
0.6784071970245087
 30
0.0
 11
29.30052575953287
 21
6.056428224442816
 31
0.0
  0
MTEXT
  5
B45
330
B37
100
AcDbEntity
  8
0
 62
     0
100
AcDbMText
 10
40.39343292544109
 20
0.6784071970245158
 30
0.0
 40
1.25
 41
0.0
 71
     5
 72
     1
  1
\A1;\U+22050.375 (10)
 73
     1
 44
1.0
1001
ACAD
1000
MTEXTBEGIN
1070
    73
1070
     1
1070
    44
1040
1.0
1070
    74
1070
     0
1000
MTEXTEND
  0
SOLID
  5
B46
330
B37
100
AcDbEntity
  8
0
 62
     0
100
AcDbTrace
 10
29.46270800991881
 20
6.187194028220131
 30
0.0
 11
29.13834350914692
 21
5.925662420665497
 31
0.0
 12
28.51593093686896
 22
7.029521726758492
 32
0.0
 13
28.51593093686896
 23
7.029521726758492
 33
0.0
  0
LINE
  5
B47
330
B37
100
AcDbEntity
  8
0
 62
     0
370
    -2
100
AcDbLine
 10
28.30824171346938
 20
7.17548575210584
 30
0.0
 11
28.48824171346937
 21
7.17548575210584
 31
0.0
  0
LINE
  5
B48
330
B37
100
AcDbEntity
  8
0
 62
     0
370
    -2
100
AcDbLine
 10
28.39824171346938
 20
7.08548575210584
 30
0.0
 11
28.39824171346937
 21
7.265485752105844
 31
0.0
  0
POINT
  5
B49
330
B37
100
AcDbEntity
  8
Defpoints
 62
     0
100
AcDbPoint
 10
28.51593093686896
 20
7.029521726758492
 30
0.0
  0
POINT
  5
B4A
330
B37
100
AcDbEntity
  8
Defpoints
 62
     0
100
AcDbPoint
 10
28.28055249006979
 20
7.321449777453194
 30
0.0
  0
ENDBLK
  5
B41
330
B37
100
AcDbEntity
  8
0
100
AcDbBlockEnd
  0
ENDSEC
  0
SECTION
  2
ENTITIES
  0
LINE
  5
30C
330
1F
100
AcDbEntity
  8
0
100
AcDbLine
 10
0.1185620423639619
 20
-23.76461664567434
 30
0.0
 11
-15.87728460702399
 21
-23.76461664567434
 31
0.0
  0
LINE
  5
30D
330
1F
100
AcDbEntity
  8
0
100
AcDbLine
 10
0.1185620423639619
 20
-24.24608796126576
 30
0.0
 11
-15.87728460702399
 21
-24.24608796126576
 31
0.0
  0
LINE
  5
30E
330
1F
100
AcDbEntity
  8
0
100
AcDbLine
 10
0.1185620423639619
 20
-24.72755927685722
 30
0.0
 11
-15.87728460702399
 21
-24.72755927685722
 31
0.0
  0
LINE
  5
317
330
1F
100
AcDbEntity
  8
0
100
AcDbLine
 10
57.80176803396275
 20
-25.20903059244851
 30
0.0
 11
-15.87728460702399
 21
-25.20903059244866
 31
0.0
  0
LINE
  5
318
330
1F
100
AcDbEntity
  8
0
100
AcDbLine
 10
-15.87728460702399
 20
71.6500020966605
 30
0.0
 11
-15.87728460702399
 21
-25.20903059244866
 31
0.0
  0
TEXT
  5
319
330
1F
100
AcDbEntity
  8
TEXT
100
AcDbText
 10
-11.17860687132921
 20
-25.13496595995061
 30
0.0
 40
0.3333420505952809
  1
REVISIONS
 72
     1
 11
-9.789681660515539
 21
-24.96829493465297
 31
0.0
100
AcDbText
 73
     2
  0
TEXT
  5
31A
330
1F
100
AcDbEntity
  8
TEXT
100
AcDbText
 10
-11.45639191349194
 20
-24.65349464435918
 30
0.0
 40
0.3333420505952809
  1
DESCRIPTION
 72
     1
 11
-9.789681660515539
 21
-24.48682361906154
 31
0.0
100
AcDbText
 73
     2
  0
TEXT
  5
31B
330
1F
100
AcDbEntity
  8
TEXT
100
AcDbText
 10
-15.85068843148879
 20
-24.65349464435918
 30
0.0
 40
0.3333420505952809
  1
REV
 72
     1
 11
-15.35067535559587
 21
-24.48682361906154
 31
0.0
100
AcDbText
 73
     2
  0
LINE
  5
31C
330
1F
100
AcDbEntity
  8
TEXT
100
AcDbLine
 10
-14.82406610416784
 20
-24.72755927685722
 30
0.0
 11
-14.82406610416784
 21
-24.24608796126584
 31
0.0
  0
LINE
  5
31D
330
1F
100
AcDbEntity
  8
TEXT
100
AcDbLine
 10
-14.82406610416784
 20
-24.24608796126584
 30
0.0
 11
-14.82406610416784
 21
-23.28314533008284
 31
0.0
  0
TEXT
  5
31E
330
1F
100
AcDbEntity
  8
TEXT
100
AcDbText
 10
-12.06751900624996
 20
-24.17202332876771
 30
0.0
 40
0.3333420505952809
  1
INITIAL RELEASE
 72
     1
 11
-9.789681660515539
 21
-24.00535230347008
 31
0.0
100
AcDbText
 73
     2
  0
TEXT
  5
31F
330
1F
100
AcDbEntity
  8
TEXT
100
AcDbText
 10
-4.612750961699012
 20
-24.17202332876771
 30
0.0
 40
0.3333420505952809
  1
9-7-06
 72
     1
 11
-3.69606032256199
 21
-24.00535230347008
 31
0.0
100
AcDbText
 73
     2
  0
TEXT
  5
320
330
1F
100
AcDbEntity
  8
TEXT
100
AcDbText
 10
-4.307187415320004
 20
-24.65349464435918
 30
0.0
 40
0.3333420505952809
  1
DATE
 72
     1
 11
-3.69606032256199
 21
-24.48682361906154
 31
0.0
100
AcDbText
 73
     2
  0
LINE
  5
321
330
1F
100
AcDbEntity
  8
TEXT
100
AcDbLine
 10
-5.047049952165351
 20
-24.72755927685722
 30
0.0
 11
-5.047049952165351
 21
-24.24608796126584
 31
0.0
  0
LINE
  5
322
330
1F
100
AcDbEntity
  8
TEXT
100
AcDbLine
 10
-5.047049952165351
 20
-24.24608796126584
 30
0.0
 11
-5.047049952165352
 21
-23.28314533008284
 31
0.0
  0
LINE
  5
323
330
1F
100
AcDbEntity
  8
BORDER
100
AcDbLine
 10
-2.443370891909735
 20
-24.24608796126584
 30
0.0
 11
-2.443370891909736
 21
-23.28314533008284
 31
0.0
  0
LINE
  5
324
330
1F
100
AcDbEntity
  8
BORDER
100
AcDbLine
 10
-2.443370891909735
 20
-24.72755927685722
 30
0.0
 11
-2.443370891909735
 21
-24.24608796126584
 31
0.0
  0
TEXT
  5
325
330
1F
100
AcDbEntity
  8
TEXT
100
AcDbText
 10
-2.249363252259984
 20
-24.65349464435918
 30
0.0
 40
0.3333420505952809
  1
CHECKED
 72
     1
 11
-1.138223083609047
 21
-24.48682361906154
 31
0.0
100
AcDbText
 73
     2
  0
TEXT
  5
326
330
1F
100
AcDbEntity
  8
TEXT
100
AcDbText
 10
-1.582679151069422
 20
-24.17202332876771
 30
0.0
 40
0.3333420505952809
  1
GFD
 72
     1
 11
-1.138223083609047
 21
-24.00535230347008
 31
0.0
100
AcDbText
 73
     2
  0
TEXT
  5
327
330
1F
100
AcDbEntity
  8
TEXT
100
AcDbText
 10
-15.43401086824497
 20
-24.17723227734607
 30
0.0
 40
0.3333420505952809
  1
0
 72
     1
 11
-15.35067535559615
 21
-24.01056125204843
 31
0.0
100
AcDbText
 73
     2
  0
TEXT
  5
328
330
1F
100
AcDbEntity
  8
TEXT
100
AcDbText
 10
-15.85068843148879
 20
-24.65349464435918
 30
0.0
 40
0.3333420505952809
  1
REV
 72
     1
 11
-15.35067535559587
 21
-24.48682361906154
 31
0.0
100
AcDbText
 73
     2
  0
LINE
  5
329
330
1F
100
AcDbEntity
  8
BORDER
100
AcDbLine
 10
0.1185620423638767
 20
-23.28314533008284
 30
0.0
 11
0.1185620423638767
 21
-25.20903059244866
 31
0.0
  0
TEXT
  5
330
330
1F
100
AcDbEntity
  8
DIM
100
AcDbText
 10
12.25253102252316
 20
59.30137146056082
 30
0.0
 40
1.25
  1
CUTOUT DRAWING
 72
     1
 11
20.79419768918983
 21
59.30137146056082
 31
0.0
100
AcDbText
  0
TEXT
  5
367
330
1F
100
AcDbEntity
  8
DIM
100
AcDbText
 10
15.49333756109543
 20
65.15043230636577
 30
0.0
 40
1.25
  1
IQ8000VHA
100
AcDbText
  0
TEXT
  5
368
330
1F
100
AcDbEntity
  8
DIM
100
AcDbText
 10
16.62753102252316
 20
63.46803812722749
 30
0.0
 40
1.25
  1
IQ10000V
 72
     1
 11
20.79419768918983
 21
63.46803812722749
 31
0.0
100
AcDbText
  0
TEXT
  5
369
330
1F
100
AcDbEntity
  8
DIM
100
AcDbText
 10
16.52336435585649
 20
61.38470479389408
 30
0.0
 40
1.25
  1
IQ12000V
 72
     1
 11
20.79419768918983
 21
61.38470479389408
 31
0.0
100
AcDbText
  0
TEXT
  5
36A
330
1F
100
AcDbEntity
  8
TEXT
100
AcDbText
 10
49.35659042734418
 20
-23.54261044922491
 30
0.0006666841011908
 40
0.6662499999999995
  1
IQ10-12000V 8000VHA
 41
0.718138766612217
 72
     5
 11
57.57015295822836
 21
-23.54261044922491
 31
0.0006666841011908
100
AcDbText
  0
LINE
  5
36B
330
1F
100
AcDbEntity
  8
0
100
AcDbLine
 10
57.80176803396275
 20
71.6500020966605
 30
0.0
 11
57.80176803396275
 21
-25.20903059244851
 31
0.0
  0
TEXT
  5
36C
330
1F
100
AcDbEntity
  8
TEXT
100
AcDbText
 10
53.45907412236462
 20
-21.7573939834372
 30
0.0
 40
0.1666710252976404
  1
GREENSBURG, PA  15601
 72
     1
 11
55.07022736690847
 21
-21.67405847078838
 31
0.0
100
AcDbText
 73
     2
  0
TEXT
  5
36D
330
1F
100
AcDbEntity
  8
TEXT
100
AcDbText
 10
53.70908066031108
 20
-21.42405193284191
 30
0.0
 40
0.1666710252976404
  1
141 WILSON AVENUE
 72
     1
 11
55.07022736690847
 21
-21.34071642019309
 31
0.0
100
AcDbText
 73
     2
  0
TEXT
  5
36E
330
1F
100
AcDbEntity
  8
TEXT
100
AcDbText
 10
52.87572553382287
 20
-21.10737698477641
 30
0.0
 40
0.1666710252976404
  1
INDUSTRIAL COOLING EQUIPMENT
 72
     1
 11
55.07022736690847
 21
-21.02404147212759
 31
0.0
100
AcDbText
 73
     2
  0
LINE
  5
36F
330
1F
100
AcDbEntity
  8
BORDER
100
AcDbLine
 10
49.17193721919907
 20
-20.81570269050543
 30
0.0
 11
57.80176803396275
 21
-20.81570269050555
 31
0.0
  0
LINE
  5
370
330
1F
100
AcDbEntity
  8
TEXT
100
AcDbLine
 10
50.49847750547961
 20
-21.26015989655191
 30
0.0
 11
50.72034102285464
 21
-21.26015989655191
 31
0.0
  0
ARC
  5
371
330
1F
100
AcDbEntity
  8
TEXT
100
AcDbCircle
 10
50.61956163655995
 20
-21.25547358408322
 30
0.0
 40
0.1008882858732261
100
AcDbArc
 50
357.337623744369
 51
85.63084243886235
  0
ARC
  5
372
330
1F
100
AcDbEntity
  8
TEXT
100
AcDbCircle
 10
50.58811122839157
 20
-21.34150087323229
 30
0.0
 40
0.1906818424162646
100
AcDbArc
 50
78.15621523986211
 51
106.6122408520289
  0
LINE
  5
373
330
1F
100
AcDbEntity
  8
TEXT
100
AcDbLine
 10
50.49847750547961
 20
-21.23620698997536
 30
0.0
 11
50.64397092424136
 21
-21.23620698997536
 31
0.0
  0
ARC
  5
374
330
1F
100
AcDbEntity
  8
TEXT
100
AcDbCircle
 10
50.56936529489135
 20
-21.25005217667352
 30
0.0
 40
0.0722271962793862
100
AcDbArc
 50
103.9179608006051
 51
168.9486088950471
  0
ARC
  5
375
330
1F
100
AcDbEntity
  8
TEXT
100
AcDbCircle
 10
50.58598385653429
 20
-21.23437543596621
 30
0.0
 40
0.0580159858255731
100
AcDbArc
 50
358.1908821763629
 51
69.74957583403642
  0
ARC
  5
376
330
1F
100
AcDbEntity
  8
TEXT
100
AcDbCircle
 10
50.57902845056172
 20
-21.40012779193934
 30
0.0
 40
0.2218359726276385
100
AcDbArc
 50
82.99970676553448
 51
97.00029323449177
  0
ARC
  5
377
330
1F
100
AcDbEntity
  8
TEXT
100
AcDbCircle
 10
50.57742773136564
 20
-21.28945936667461
 30
0.0
 40
0.137836276264997
100
AcDbArc
 50
108.5416613320869
 51
149.7652339536232
  0
ARC
  5
378
330
1F
100
AcDbEntity
  8
TEXT
100
AcDbCircle
 10
50.57830990769392
 20
-21.29365822611919
 30
0.0
 40
0.1407487679526329
100
AcDbArc
 50
148.4692011102813
 51
195.5802361373329
  0
ARC
  5
379
330
1F
100
AcDbEntity
  8
TEXT
100
AcDbCircle
 10
50.57570628423255
 20
-21.29785184247845
 30
0.0
 40
0.1371551399716607
100
AcDbArc
 50
194.1847393568171
 51
248.658676732099
  0
ARC
  5
37A
330
1F
100
AcDbEntity
  8
TEXT
100
AcDbCircle
 10
50.63204354911697
 20
-21.26180119041146
 30
0.0
 40
0.1335761275768995
100
AcDbArc
 50
179.2959701761241
 51
227.5915484940839
  0
ARC
  5
37B
330
1F
100
AcDbEntity
  8
TEXT
100
AcDbCircle
 10
50.60291303088397
 20
-21.28557900202633
 30
0.0
 40
0.096528949885583
100
AcDbArc
 50
230.841648863782
 51
280.5326941523482
  0
ARC
  5
37C
330
1F
100
AcDbEntity
  8
TEXT
100
AcDbCircle
 10
50.61552838706806
 20
-21.25942414754466
 30
0.0
 40
0.1211618113646486
100
AcDbArc
 50
272.3792098458871
 51
327.3581874363277
  0
ARC
  5
37D
330
1F
100
AcDbEntity
  8
TEXT
100
AcDbCircle
 10
50.57970928106986
 20
-21.23398193666222
 30
0.0
 40
0.1990611158709922
100
AcDbArc
 50
254.2847830849328
 51
294.1819270465997
  0
ARC
  5
37E
330
1F
100
AcDbEntity
  8
TEXT
100
AcDbCircle
 10
50.59586826432157
 20
-21.28341776952135
 30
0.0
 40
0.1474469934232997
100
AcDbArc
 50
296.3233923707215
 51
339.8348331475753
  0
ARC
  5
37F
330
1F
100
AcDbEntity
  8
TEXT
100
AcDbCircle
 10
50.7243020910016
 20
-21.33236113907803
 30
0.0
 40
0.0101517433964443
100
AcDbArc
 50
349.2952029716974
 51
131.662690546928
  0
ARC
  5
380
330
1F
100
AcDbEntity
  8
TEXT
100
AcDbCircle
 10
50.29376482148856
 20
-21.57591837340783
 30
0.0
 40
0.4253965869958016
100
AcDbArc
 50
84.62122141578801
 51
95.37877858421195
  0
ARC
  5
381
330
1F
100
AcDbEntity
  8
TEXT
100
AcDbCircle
 10
50.31927200047025
 20
-21.24939161342353
 30
0.0
 40
0.0980552755896009
100
AcDbArc
 50
43.16761867318999
 51
81.57335966330675
  0
ARC
  5
382
330
1F
100
AcDbEntity
  8
TEXT
100
AcDbCircle
 10
50.35674932426751
 20
-21.2079055930859
 30
0.0
 40
0.0425901059724247
100
AcDbArc
 50
321.1558234807435
 51
36.94217904228354
  0
ARC
  5
383
330
1F
100
AcDbEntity
  8
TEXT
100
AcDbCircle
 10
50.36483781757103
 20
-21.20212716090008
 30
0.0
 40
0.0410466971107351
100
AcDbArc
 50
205.1359642898991
 51
307.6679722285591
  0
ARC
  5
384
330
1F
100
AcDbEntity
  8
TEXT
100
AcDbCircle
 10
50.37341256399624
 20
-21.20124668896085
 30
0.0
 40
0.0492656572029753
100
AcDbArc
 50
180.010674400693
 51
201.8251852717944
  0
ARC
  5
385
330
1F
100
AcDbEntity
  8
TEXT
100
AcDbCircle
 10
50.27570424994255
 20
-21.21580488605159
 30
0.0
 40
0.0505802830318974
100
AcDbArc
 50
16.71684440730718
 51
45.97719400398871
  0
ARC
  5
386
330
1F
100
AcDbEntity
  8
TEXT
100
AcDbCircle
 10
50.28441342873444
 20
-21.58991084530747
 30
0.0
 40
0.4113271241878694
100
AcDbArc
 50
86.31431733543356
 51
93.9038194351591
  0
ARC
  5
387
330
1F
100
AcDbEntity
  8
TEXT
100
AcDbCircle
 10
50.26958783070856
 20
-21.27905691270978
 30
0.0
 40
0.1276312521972402
100
AcDbArc
 50
97.06566064010178
 51
142.4986334312283
  0
ARC
  5
388
330
1F
100
AcDbEntity
  8
TEXT
100
AcDbCircle
 10
50.26843278294044
 20
-21.29900881583914
 30
0.0
 40
0.1398418482891474
100
AcDbArc
 50
135.7093780000566
 51
195.2317137751494
  0
ARC
  5
389
330
1F
100
AcDbEntity
  8
TEXT
100
AcDbCircle
 10
50.25520624343343
 20
-21.30324963631371
 30
0.0
 40
0.1259672893713814
100
AcDbArc
 50
194.9511061487651
 51
259.6103135862061
  0
ARC
  5
38A
330
1F
100
AcDbEntity
  8
TEXT
100
AcDbCircle
 10
50.27532314450517
 20
-21.29812611239135
 30
0.0
 40
0.1359497210456881
100
AcDbArc
 50
251.6347706403379
 51
316.4182924463557
  0
ARC
  5
38B
330
1F
100
AcDbEntity
  8
TEXT
100
AcDbCircle
 10
50.25823507556785
 20
-21.25516471776778
 30
0.0
 40
0.1789932261712325
100
AcDbArc
 50
310.2152586008289
 51
331.3072507285777
  0
ARC
  5
38C
330
1F
100
AcDbEntity
  8
TEXT
100
AcDbCircle
 10
50.30993793807434
 20
-21.28292724116015
 30
0.0
 40
0.1164242364564603
100
AcDbArc
 50
117.3722826858103
 51
160.0902491401914
  0
ARC
  5
38D
330
1F
100
AcDbEntity
  8
TEXT
100
AcDbCircle
 10
50.32497624999919
 20
-21.27192576162966
 30
0.0
 40
0.1277567560304002
100
AcDbArc
 50
167.0430028911461
 51
212.1309371309446
  0
ARC
  5
38E
330
1F
100
AcDbEntity
  8
TEXT
100
AcDbCircle
 10
50.2976847981254
 20
-21.28704455772188
 30
0.0
 40
0.096619550546555
100
AcDbArc
 50
213.1462108998184
 51
285.6537258536326
  0
ARC
  5
38F
330
1F
100
AcDbEntity
  8
TEXT
100
AcDbCircle
 10
50.29856292682527
 20
-21.26319577993482
 30
0.0
 40
0.1195686972267577
100
AcDbArc
 50
282.1628426667716
 51
326.5593609179388
  0
ARC
  5
390
330
1F
100
AcDbEntity
  8
TEXT
100
AcDbCircle
 10
50.40198410648319
 20
-21.34186367899075
 30
0.0
 40
0.013286939863448
100
AcDbArc
 50
3.28802541027571
 51
105.9275278804243
  0
LINE
  5
391
330
1F
100
AcDbEntity
  8
TEXT
100
AcDbLine
 10
49.77579793662168
 20
-20.86622213897284
 30
0.0
 11
49.7801395355901
 21
-21.22197684426628
 31
0.0
  0
LINE
  5
392
330
1F
100
AcDbEntity
  8
TEXT
100
AcDbLine
 10
49.8105307283699
 20
-20.90960686758071
 30
0.0
 11
49.81270152785392
 21
-21.22197684426628
 31
0.0
  0
ARC
  5
393
330
1F
100
AcDbEntity
  8
TEXT
100
AcDbCircle
 10
49.79642053172213
 20
-21.22257398854596
 30
0.0
 40
0.016291943295402
100
AcDbArc
 50
177.899482485688
 51
2.100517514311819
  0
LINE
  5
394
330
1F
100
AcDbEntity
  8
TEXT
100
AcDbLine
 10
49.88516614448704
 20
-20.92529426580089
 30
0.0
 11
49.88516614448704
 21
-21.46911224726471
 31
0.0
  0
LINE
  5
395
330
1F
100
AcDbEntity
  8
TEXT
100
AcDbLine
 10
50.0428633562968
 20
-20.92529426580089
 30
0.0
 11
50.0428633562968
 21
-21.46911224726471
 31
0.0
  0
ARC
  5
396
330
1F
100
AcDbEntity
  8
TEXT
100
AcDbCircle
 10
49.82634398413988
 20
-20.91036642329635
 30
0.0
 40
0.0158314870728055
100
AcDbArc
 50
38.20381851858016
 51
177.2500340797979
  0
LINE
  5
397
330
1F
100
AcDbEntity
  8
TEXT
100
AcDbLine
 10
49.83878461487453
 20
-20.90057526964304
 30
0.0
 11
49.88516614448704
 21
-20.92529426580089
 31
0.0
  0
LINE
  5
398
330
1F
100
AcDbEntity
  8
TEXT
100
AcDbLine
 10
50.0892448859092
 20
-20.90057526964304
 30
0.0
 11
50.0428633562968
 21
-20.92529426580089
 31
0.0
  0
LINE
  5
399
330
1F
100
AcDbEntity
  8
TEXT
100
AcDbLine
 10
50.11749877241394
 20
-20.90960686758071
 30
0.0
 11
50.11731994074441
 21
-20.93534008010395
 31
0.0
  0
LINE
  5
39A
330
1F
100
AcDbEntity
  8
TEXT
100
AcDbLine
 10
50.15223156416206
 20
-20.86622213897284
 30
0.0
 11
50.1513880549198
 21
-20.93534008010395
 31
0.0
  0
ARC
  5
39B
330
1F
100
AcDbEntity
  8
TEXT
100
AcDbCircle
 10
50.10168551664387
 20
-20.91036642329635
 30
0.0
 40
0.0158314870728055
100
AcDbArc
 50
2.749965920202103
 51
141.7961814814198
  0
ARC
  5
39C
330
1F
100
AcDbEntity
  8
TEXT
100
AcDbCircle
 10
50.13435399783211
 20
-20.94659393998752
 30
0.0
 40
0.0204158875180325
100
AcDbArc
 50
146.5485285753371
 51
33.45147142466291
  0
ARC
  5
39D
330
1F
100
AcDbEntity
  8
TEXT
100
AcDbCircle
 10
49.89694185490552
 20
-21.50244339937326
 30
0.0
 40
0.0353501493171827
100
AcDbArc
 50
109.4580308571273
 51
191.0341765876989
  0
ARC
  5
39E
330
1F
100
AcDbEntity
  8
TEXT
100
AcDbCircle
 10
49.85175883066879
 20
-21.51118400863712
 30
0.0
 40
0.0106707110824257
100
AcDbArc
 50
155.9249042338166
 51
10.66497725508797
  0
ARC
  5
39F
330
1F
100
AcDbEntity
  8
TEXT
100
AcDbCircle
 10
49.82210537050757
 20
-21.51950877044514
 30
0.0
 40
0.0236044741126468
100
AcDbArc
 50
32.4856949474344
 51
175.1979664789355
  0
ARC
  5
3A0
330
1F
100
AcDbEntity
  8
TEXT
100
AcDbCircle
 10
49.79068001179078
 20
-21.52129709505178
 30
0.0
 40
0.0087543861226054
100
AcDbArc
 50
158.7719549350954
 51
25.46716058583682
  0
ARC
  5
3A1
330
1F
100
AcDbEntity
  8
TEXT
100
AcDbCircle
 10
49.77019837765229
 20
-21.51553543982446
 30
0.0
 40
0.0125909188069105
100
AcDbArc
 50
348.1206509806772
 51
136.2651890953689
  0
ARC
  5
3A2
330
1F
100
AcDbEntity
  8
TEXT
100
AcDbCircle
 10
49.76868671066275
 20
-21.52216967722804
 30
0.0
 40
0.0171119360084157
100
AcDbArc
 50
116.315168403664
 51
258.4674100382152
  0
ARC
  5
3A3
330
1F
100
AcDbEntity
  8
TEXT
100
AcDbCircle
 10
49.77453074721601
 20
-21.5477231294481
 30
0.0
 40
0.0127692619185991
100
AcDbArc
 50
356.7423630506751
 51
136.5172760689878
  0
ARC
  5
3A4
330
1F
100
AcDbEntity
  8
TEXT
100
AcDbCircle
 10
49.7918206209895
 20
-21.55512678735723
 30
0.0
 40
0.0080758308882667
100
AcDbArc
 50
124.2167745950251
 51
319.7988197133845
  0
ARC
  5
3A5
330
1F
100
AcDbEntity
  8
TEXT
100
AcDbCircle
 10
49.82416222871231
 20
-21.56973015303571
 30
0.0
 40
0.0278070543023621
100
AcDbArc
 50
160.262778281957
 51
255.1333022011589
  0
ARC
  5
3A6
330
1F
100
AcDbEntity
  8
TEXT
100
AcDbCircle
 10
49.82397200888151
 20
-21.59386879200183
 30
0.0
 40
0.0074643950253226
100
AcDbArc
 50
201.5154657474013
 51
41.96660508021276
  0
ARC
  5
3A7
330
1F
100
AcDbEntity
  8
TEXT
100
AcDbCircle
 10
49.84997237953328
 20
-21.57535532169345
 30
0.0
 40
0.0245165652179976
100
AcDbArc
 50
121.2424246402126
 51
213.4732397083809
  0
ARC
  5
3A8
330
1F
100
AcDbEntity
  8
TEXT
100
AcDbCircle
 10
49.84407047239479
 20
-21.56640438354484
 30
0.0
 40
0.0138085008004356
100
AcDbArc
 50
332.2921775479033
 51
119.5678571760054
  0
ARC
  5
3A9
330
1F
100
AcDbEntity
  8
TEXT
100
AcDbCircle
 10
49.84665841692734
 20
-21.59551878889978
 30
0.0
 40
0.0246554343858646
100
AcDbArc
 50
312.9867785858958
 51
66.9911842292879
  0
ARC
  5
3AA
330
1F
100
AcDbEntity
  8
TEXT
100
AcDbCircle
 10
49.95283703075941
 20
-21.7865368526821
 30
0.0
 40
0.1947036096790481
100
AcDbArc
 50
117.3222180892419
 51
179.3383492613259
  0
ARC
  5
3AB
330
1F
100
AcDbEntity
  8
TEXT
100
AcDbCircle
 10
50.55874821357598
 20
-21.67951034449121
 30
0.0
 40
0.0473096780258138
100
AcDbArc
 50
51.01090143870197
 51
107.577946053111
  0
ARC
  5
3AC
330
1F
100
AcDbEntity
  8
TEXT
100
AcDbCircle
 10
50.47757435978585
 20
-21.63064574460283
 30
0.0
 40
0.066992013068822
100
AcDbArc
 50
356.7791343814141
 51
50.82801334296494
  0
ARC
  5
3AD
330
1F
100
AcDbEntity
  8
TEXT
100
AcDbCircle
 10
50.49439871778307
 20
-21.7056662652776
 30
0.0
 40
0.1294901683468242
100
AcDbArc
 50
78.64671940114618
 51
92.88657863164813
  0
ARC
  5
3AE
330
1F
100
AcDbEntity
  8
TEXT
100
AcDbCircle
 10
50.47978771021698
 20
-21.5603106072621
 30
0.0
 40
0.0179555689979793
100
AcDbArc
 50
296.7794474250888
 51
150.4674482996487
  0
ARC
  5
3AF
330
1F
100
AcDbEntity
  8
TEXT
100
AcDbCircle
 10
50.45100974007404
 20
-21.53466040072121
 30
0.0
 40
0.0213374553940168
100
AcDbArc
 50
174.1982733486934
 51
308.0634596483701
  0
ARC
  5
3B0
330
1F
100
AcDbEntity
  8
TEXT
100
AcDbCircle
 10
50.39015931544739
 20
-21.56727946958165
 30
0.0
 40
0.0527190070909111
100
AcDbArc
 50
41.27304036067175
 51
94.61991284102543
  0
ARC
  5
3B1
330
1F
100
AcDbEntity
  8
TEXT
100
AcDbCircle
 10
50.36905090389378
 20
-21.51969063334023
 30
0.0
 40
0.017576186375123
100
AcDbArc
 50
136.6395135700873
 51
16.38775991618318
  0
ARC
  5
3B2
330
1F
100
AcDbEntity
  8
TEXT
100
AcDbCircle
 10
50.34194601095553
 20
-21.52332159112622
 30
0.0
 40
0.0212528223818799
100
AcDbArc
 50
47.61705801860663
 51
152.6179806585846
  0
ARC
  5
3B3
330
1F
100
AcDbEntity
  8
TEXT
100
AcDbCircle
 10
50.2982510246371
 20
-21.52499474918077
 30
0.0
 40
0.0273358674488426
100
AcDbArc
 50
24.75773987532682
 51
121.5483884163314
  0
ARC
  5
3B4
330
1F
100
AcDbEntity
  8
TEXT
100
AcDbCircle
 10
50.26319976822325
 20
-21.50961934310045
 30
0.0
 40
0.0222088889986804
100
AcDbArc
 50
20.89289471577907
 51
159.1071052842209
  0
ARC
  5
3B5
330
1F
100
AcDbEntity
  8
TEXT
100
AcDbCircle
 10
50.23138725911364
 20
-21.49861629110564
 30
0.0
 40
0.0114853647356038
100
AcDbArc
 50
183.5606974541693
 51
344.4298925613362
  0
ARC
  5
3B6
330
1F
100
AcDbEntity
  8
TEXT
100
AcDbCircle
 10
50.19614845748638
 20
-21.5243280260446
 30
0.0
 40
0.0344992879650532
100
AcDbArc
 50
46.43616582623052
 51
130.6283095026912
  0
ARC
  5
3B7
330
1F
100
AcDbEntity
  8
TEXT
100
AcDbCircle
 10
50.16123510350329
 20
-21.50186182117999
 30
0.0
 40
0.0129922279961235
100
AcDbArc
 50
163.375655046461
 51
16.62434495353582
  0
ARC
  5
3B8
330
1F
100
AcDbEntity
  8
TEXT
100
AcDbCircle
 10
50.11213192510378
 20
-21.59915074016753
 30
0.0
 40
0.107450993135749
100
AcDbArc
 50
70.05468846034887
 51
100.2232656721173
  0
ARC
  5
3B9
330
1F
100
AcDbEntity
  8
TEXT
100
AcDbCircle
 10
50.08416878698343
 20
-21.55074755293539
 30
0.0
 40
0.0580272591258788
100
AcDbArc
 50
81.18509483549024
 51
120.0392913824029
  0
ARC
  5
3BA
330
1F
100
AcDbEntity
  8
TEXT
100
AcDbCircle
 10
50.04100575629983
 20
-21.48793063449202
 30
0.0
 40
0.0189098486399742
100
AcDbArc
 50
318.2823815987287
 51
84.36248438137992
  0
ARC
  5
3BB
330
1F
100
AcDbEntity
  8
TEXT
100
AcDbCircle
 10
49.95592649965093
 20
-21.57200086010745
 30
0.0
 40
0.0271945800794272
100
AcDbArc
 50
35.6067999534425
 51
177.5845513854531
  0
LINE
  5
3BC
330
1F
100
AcDbEntity
  8
TEXT
100
AcDbLine
 10
49.97803655445469
 20
-21.55616764621179
 30
0.0
 11
49.97630742580307
 21
-21.58122211081901
 31
0.0
  0
LINE
  5
3BD
330
1F
100
AcDbEntity
  8
TEXT
100
AcDbLine
 10
49.92875608187725
 20
-21.57085474330945
 30
0.0
 11
49.9278915175515
 21
-21.63565076962156
 31
0.0
  0
ARC
  5
3BE
330
1F
100
AcDbEntity
  8
TEXT
100
AcDbCircle
 10
50.03762469187754
 20
-21.68451366324024
 30
0.0
 40
0.1201205724280981
100
AcDbArc
 50
120.6947626763491
 51
155.9971516553446
  0
ARC
  5
3BF
330
1F
100
AcDbEntity
  8
TEXT
100
AcDbCircle
 10
49.9934295900184
 20
-21.6512056652962
 30
0.0
 40
0.0223491181433589
100
AcDbArc
 50
218.6904014524281
 51
353.6659411500793
  0
ARC
  5
3C0
330
1F
100
AcDbEntity
  8
TEXT
100
AcDbCircle
 10
49.98108227988543
 20
-21.68608129778296
 30
0.0
 40
0.0215173239742854
100
AcDbArc
 50
103.7022990326947
 51
207.0193065629202
  0
ARC
  5
3C1
330
1F
100
AcDbEntity
  8
TEXT
100
AcDbCircle
 10
50.52047184932511
 20
-21.70409734713159
 30
0.0
 40
0.0610964451826204
100
AcDbArc
 50
155.9906329013377
 51
206.8057304576913
  0
ARC
  5
3C2
330
1F
100
AcDbEntity
  8
TEXT
100
AcDbCircle
 10
50.45559645212367
 20
-21.67974388038377
 30
0.0
 40
0.0090791817808474
100
AcDbArc
 50
3.193725348484569
 51
193.0548754998713
  0
ARC
  5
3C3
330
1F
100
AcDbEntity
  8
TEXT
100
AcDbCircle
 10
50.43459898514843
 20
-21.69552080402263
 30
0.0
 40
0.0183330120851919
100
AcDbArc
 50
131.521380361031
 51
48.47861963896897
  0
ARC
  5
3C4
330
1F
100
AcDbEntity
  8
TEXT
100
AcDbCircle
 10
50.37384048061145
 20
-21.65582407149428
 30
0.0
 40
0.0551087586075338
100
AcDbArc
 50
331.8837666959971
 51
33.32508059324016
  0
ARC
  5
3C5
330
1F
100
AcDbEntity
  8
TEXT
100
AcDbCircle
 10
50.40762663167399
 20
-21.62894006545825
 30
0.0
 40
0.0127214897137501
100
AcDbArc
 50
15.46471151433316
 51
237.0036058083623
  0
ARC
  5
3C6
330
1F
100
AcDbEntity
  8
TEXT
100
AcDbCircle
 10
50.38339103363913
 20
-21.64764785427373
 30
0.0
 40
0.0190831762556938
100
AcDbArc
 50
124.5991194751853
 51
24.91162951379305
  0
ARC
  5
3C7
330
1F
100
AcDbEntity
  8
TEXT
100
AcDbCircle
 10
50.3288132695085
 20
-21.61198943905858
 30
0.0
 40
0.048076504403325
100
AcDbArc
 50
335.4827230531705
 51
36.54383594003244
  0
ARC
  5
3C8
330
1F
100
AcDbEntity
  8
TEXT
100
AcDbCircle
 10
50.26785737062757
 20
-21.76171342809347
 30
0.0
 40
0.2042675241273422
100
AcDbArc
 50
60.82353397560614
 51
101.6183182656787
  0
LINE
  5
3C9
330
1F
100
AcDbEntity
  8
TEXT
100
AcDbLine
 10
50.22671971030465
 20
-21.56163115922321
 30
0.0
 11
50.2254404588779
 21
-21.61020792777589
 31
0.0
  0
ARC
  5
3CA
330
1F
100
AcDbEntity
  8
TEXT
100
AcDbCircle
 10
50.20659761014663
 20
-21.61113077558159
 30
0.0
 40
0.0188654339037954
100
AcDbArc
 50
165.3922446503752
 51
2.803879044206376
  0
LINE
  5
3CB
330
1F
100
AcDbEntity
  8
TEXT
100
AcDbLine
 10
50.18834200059378
 20
-21.60637290670759
 30
0.0
 11
50.18578349774023
 21
-21.56930118486184
 31
0.0
  0
ARC
  5
3CC
330
1F
100
AcDbEntity
  8
TEXT
100
AcDbCircle
 10
50.16922182733137
 20
-21.57759805445834
 30
0.0
 40
0.0185236867776761
100
AcDbArc
 50
26.60941129939524
 51
166.0619000058104
  0
LINE
  5
3CD
330
1F
100
AcDbEntity
  8
TEXT
100
AcDbLine
 10
50.1512435423093
 20
-21.57313618943228
 30
0.0
 11
50.1512435423093
 21
-21.58975454806991
 31
0.0
  0
ARC
  5
3CE
330
1F
100
AcDbEntity
  8
TEXT
100
AcDbCircle
 10
50.13657943010949
 20
-21.59896999536794
 30
0.0
 40
0.0173193722609176
100
AcDbArc
 50
179.1163546128549
 51
32.14670843866894
  0
LINE
  5
3CF
330
1F
100
AcDbEntity
  8
TEXT
100
AcDbLine
 10
50.11926211755032
 20
-21.59870289756684
 30
0.0
 11
50.11926211755032
 21
-21.66006302018684
 31
0.0
  0
ARC
  5
3D0
330
1F
100
AcDbEntity
  8
TEXT
100
AcDbCircle
 10
50.09622595541916
 20
-21.66035852437628
 30
0.0
 40
0.0230380573932373
100
AcDbArc
 50
182.4450201076249
 51
0.7349407504797704
  0
LINE
  5
3D1
330
1F
100
AcDbEntity
  8
TEXT
100
AcDbLine
 10
50.07320887146076
 20
-21.66134134404508
 30
0.0
 11
50.08344291069257
 21
-21.58464120314346
 31
0.0
  0
ARC
  5
3D2
330
1F
100
AcDbEntity
  8
TEXT
100
AcDbCircle
 10
50.07151504451318
 20
-21.5863435993741
 30
0.0
 40
0.0120487403706308
100
AcDbArc
 50
8.122642540878539
 51
202.9043136183389
  0
LINE
  5
3D3
330
1F
100
AcDbEntity
  8
TEXT
100
AcDbLine
 10
50.06041627373869
 20
-21.59103288842603
 30
0.0
 11
50.0552992680318
 21
-21.63066129098404
 31
0.0
  0
ARC
  5
3D4
330
1F
100
AcDbEntity
  8
TEXT
100
AcDbCircle
 10
50.04058780707899
 20
-21.62988395286891
 30
0.0
 40
0.014731983502339
100
AcDbArc
 50
183.0246359049376
 51
356.9753640950624
  0
LINE
  5
3D5
330
1F
100
AcDbEntity
  8
TEXT
100
AcDbLine
 10
50.02587634612595
 20
-21.63066129098404
 30
0.0
 11
50.01564227907593
 21
-21.65367133490429
 31
0.0
  0
ARC
  5
3D6
330
1F
100
AcDbEntity
  8
TEXT
100
AcDbCircle
 10
51.04526527552806
 20
-21.36808981171833
 30
0.0
 40
0.4052920960127813
100
AcDbArc
 50
273.5403564160084
 51
289.0758016785487
  0
LINE
  5
3D7
330
1F
100
AcDbEntity
  8
TEXT
100
AcDbLine
 10
51.07029269589114
 20
-21.7726084284969
 30
0.0
 11
51.07208335857845
 21
-21.79229150440773
 31
0.0
  0
LINE
  5
3D8
330
1F
100
AcDbEntity
  8
TEXT
100
AcDbLine
 10
51.07208335857845
 20
-21.79229150440773
 30
0.0
 11
51.10968724719318
 21
-21.79497556546316
 31
0.0
  0
ARC
  5
3D9
330
1F
100
AcDbEntity
  8
TEXT
100
AcDbCircle
 10
49.7973011117144
 20
-20.86260711662763
 30
0.0
 40
0.021804928929838
100
AcDbArc
 50
32.93635467158916
 51
189.5430854165199
  0
ARC
  5
3DA
330
1F
100
AcDbEntity
  8
TEXT
100
AcDbCircle
 10
49.83172690867943
 20
-20.8502078321896
 30
0.0
 40
0.0161346305801077
100
AcDbArc
 50
181.931421762249
 51
21.08009584438978
  0
ARC
  5
3DB
330
1F
100
AcDbEntity
  8
TEXT
100
AcDbCircle
 10
49.85879503201991
 20
-20.84684558404452
 30
0.0
 40
0.0122587214700781
100
AcDbArc
 50
3.320051391017451
 51
168.5145862198276
  0
ARC
  5
3DC
330
1F
100
AcDbEntity
  8
TEXT
100
AcDbCircle
 10
49.8848584769299
 20
-20.85360755927039
 30
0.0
 40
0.0157152300693546
100
AcDbArc
 50
151.6108765070486
 51
6.217261201770565
  0
ARC
  5
3DD
330
1F
100
AcDbEntity
  8
TEXT
100
AcDbCircle
 10
49.91294114952545
 20
-20.85124087606384
 30
0.0
 40
0.0124775930888288
100
AcDbArc
 50
7.567610287757028
 51
183.0538693842452
  0
ARC
  5
3DE
330
1F
100
AcDbEntity
  8
TEXT
100
AcDbCircle
 10
49.93526012128619
 20
-20.84420522693652
 30
0.0
 40
0.0113173142580708
100
AcDbArc
 50
208.4553291170855
 51
16.75507449314881
  0
ARC
  5
3DF
330
1F
100
AcDbEntity
  8
TEXT
100
AcDbCircle
 10
49.95244594388121
 20
-20.85215935898403
 30
0.0
 40
0.0128889037244591
100
AcDbArc
 50
340.2175703033647
 51
119.5111127021394
  0
ARC
  5
3E0
330
1F
100
AcDbEntity
  8
TEXT
100
AcDbCircle
 10
49.98313037444868
 20
-20.85659002541402
 30
0.0
 40
0.0185562967831965
100
AcDbArc
 50
179.7887253899368
 51
338.318548208448
  0
ARC
  5
3E1
330
1F
100
AcDbEntity
  8
TEXT
100
AcDbCircle
 10
50.02568711962059
 20
-20.87574304085689
 30
0.0
 40
0.0281423005821683
100
AcDbArc
 50
51.76909225767521
 51
154.0890012254449
  0
ARC
  5
3E2
330
1F
100
AcDbEntity
  8
TEXT
100
AcDbCircle
 10
50.06143356910306
 20
-20.84981813754733
 30
0.0
 40
0.0187245690944338
100
AcDbArc
 50
191.7667831442115
 51
294.1224948725061
  0
ARC
  5
3E3
330
1F
100
AcDbEntity
  8
TEXT
100
AcDbCircle
 10
50.08335970576954
 20
-20.86229053135777
 30
0.0
 40
0.0150017678708226
100
AcDbArc
 50
13.33841226381608
 51
197.9246330183021
  0
ARC
  5
3E4
330
1F
100
AcDbEntity
  8
TEXT
100
AcDbCircle
 10
50.11385745784272
 20
-20.85797551440148
 30
0.0
 40
0.0159235866647637
100
AcDbArc
 50
183.0745908828774
 51
5.238726745824511
  0
ARC
  5
3E5
330
1F
100
AcDbEntity
  8
TEXT
100
AcDbCircle
 10
50.14396707044173
 20
-20.85442209862485
 30
0.0
 40
0.0144063461249891
100
AcDbArc
 50
305.0065695459203
 51
188.379815200993
  0
TEXT
  5
3E6
330
1F
100
AcDbEntity
  8
TEXT
100
AcDbText
 10
56.77676232113125
 20
-24.97075118872437
 30
0.0
 40
0.6666841011905614
  1
1
 72
     1
 11
56.88787633799634
 21
-24.63740913812909
 31
0.0
100
AcDbText
 73
     2
  0
TEXT
  5
3E7
330
1F
100
AcDbEntity
  8
TEXT
100
AcDbText
 10
50.184009568015
 20
-24.97075118872437
 30
0.0
 40
0.6666841011905614
  1
IQ290929
 72
     1
 11
52.57296093061452
 21
-24.63740913812909
 31
0.0
100
AcDbText
 73
     2
  0
TEXT
  5
3E8
330
1F
100
AcDbEntity
  8
TEXT
100
AcDbText
 10
52.55627273533573
 20
-22.09073603403255
 30
0.0
 40
0.1666710252976404
  1
724-837-2204  *  1-888-867-8234
 72
     1
 11
55.07022736690847
 21
-22.00740052138373
 31
0.0
100
AcDbText
 73
     2
  0
TEXT
  5
3E9
330
1F
100
AcDbEntity
  8
TEXT
100
AcDbText
 10
53.68130215609481
 20
-22.42407808462778
 30
0.0
 40
0.1666710252976404
  1
FAX  724-837-3386
 72
     1
 11
55.07022736690847
 21
-22.34074257197896
 31
0.0
100
AcDbText
 73
     2
  0
LINE
  5
3EA
330
1F
100
AcDbEntity
  8
BORDER
100
AcDbLine
 10
49.17193721919907
 20
-22.48241294348195
 30
0.0
 11
57.80176803396275
 21
-22.48241294348195
 31
0.0
  0
LINE
  5
3EB
330
1F
100
AcDbEntity
  8
BORDER
100
AcDbLine
 10
49.17193721919907
 20
-23.81578114586301
 30
0.0
 11
57.80176803396275
 21
-23.81578114586301
 31
0.0
  0
LINE
  5
3EC
330
1F
100
AcDbEntity
  8
BORDER
100
AcDbLine
 10
55.97398464202989
 20
-23.81578114586301
 30
0.0
 11
55.97398464202989
 21
-25.20903059244866
 31
0.0
  0
TEXT
  5
3ED
330
1F
100
AcDbEntity
  8
TEXT
100
AcDbText
 10
45.02228371091731
 20
-25.00975322717911
 30
0.0
 40
0.3333420505952809
  1
SHEET 1 OF 1
 72
     1
 11
46.85566498919135
 21
-24.84308220188147
 31
0.0
100
AcDbText
 73
     2
  0
LINE
  5
3EE
330
1F
100
AcDbEntity
  8
BORDER
100
AcDbLine
 10
44.50514851086516
 20
-24.48246524705358
 30
0.0
 11
49.17193721919907
 21
-24.48246524705358
 31
0.0
  0
LINE
  5
3EF
330
1F
100
AcDbEntity
  8
BORDER
100
AcDbLine
 10
44.50514851086516
 20
-23.14909704467252
 30
0.0
 11
49.17193721919907
 21
-23.14909704467252
 31
0.0
  0
LINE
  5
3F0
330
1F
100
AcDbEntity
  8
BORDER
100
AcDbLine
 10
44.50514851086516
 20
-23.81578114586301
 30
0.0
 11
49.17193721919907
 21
-23.81578114586301
 31
0.0
  0
LINE
  5
3F1
330
1F
100
AcDbEntity
  8
BORDER
100
AcDbLine
 10
49.17193721919907
 20
-25.20903059244871
 30
0.0
 11
49.17193721919907
 21
-20.81570269050555
 31
0.0
  0
LINE
  5
3F2
330
1F
100
AcDbEntity
  8
TEXT
100
AcDbLine
 10
50.12579629771629
 20
-22.21077915619303
 30
0.0
 11
50.15431020168463
 21
-22.22882494677616
 31
0.0
  0
ARC
  5
3F3
330
1F
100
AcDbEntity
  8
TEXT
100
AcDbCircle
 10
50.31194493994782
 20
-22.01916495598627
 30
0.0
 40
0.1098416992543933
100
AcDbArc
 50
287.1920036507257
 51
335.8997504051576
  0
ARC
  5
3F4
330
1F
100
AcDbEntity
  8
TEXT
100
AcDbCircle
 10
50.53169773195751
 20
-22.16714734705609
 30
0.0
 40
0.0510974051466179
100
AcDbArc
 50
67.37252950710406
 51
112.6274704928675
  0
ARC
  5
3F5
330
1F
100
AcDbEntity
  8
TEXT
100
AcDbCircle
 10
50.51560040023449
 20
-22.0788673331067
 30
0.0
 40
0.0721728556497352
100
AcDbArc
 50
330.1916644163664
 51
19.9131875818813
  0
ARC
  5
3F6
330
1F
100
AcDbEntity
  8
TEXT
100
AcDbCircle
 10
50.41957739337423
 20
-22.03845039626627
 30
0.0
 40
0.0266064946763913
100
AcDbArc
 50
253.9290889125734
 51
38.65267477509898
  0
ARC
  5
3F7
330
1F
100
AcDbEntity
  8
TEXT
100
AcDbCircle
 10
50.87176958679085
 20
-22.06598984854972
 30
0.0
 40
0.055282605012147
100
AcDbArc
 50
188.1927496775747
 51
244.8496170020291
  0
ARC
  5
3F8
330
1F
100
AcDbEntity
  8
TEXT
100
AcDbCircle
 10
50.87109353559978
 20
-22.01247740540447
 30
0.0
 40
0.1060383420833379
100
AcDbArc
 50
257.5730930866254
 51
314.4273867462179
  0
LINE
  5
3F9
330
1F
100
AcDbEntity
  8
TEXT
100
AcDbLine
 10
51.0558691402277
 20
-22.13036703561666
 30
0.0
 11
51.05755687527866
 21
-22.11097178219858
 31
0.0
  0
LINE
  5
3FA
330
1F
100
AcDbEntity
  8
TEXT
100
AcDbLine
 10
51.05755687527866
 20
-22.11097178219858
 30
0.0
 11
51.02886498995459
 21
-22.11265833027789
 31
0.0
  0
ARC
  5
3FB
330
1F
100
AcDbEntity
  8
TEXT
100
AcDbCircle
 10
51.02828479598404
 20
-22.08928269603116
 30
0.0
 40
0.0233828334784301
100
AcDbArc
 50
155.9964711746264
 51
271.4218156194983
  0
ARC
  5
3FC
330
1F
100
AcDbEntity
  8
TEXT
100
AcDbCircle
 10
51.23141106381703
 20
-22.07784912011604
 30
0.0
 40
0.0548016569159534
100
AcDbArc
 50
203.9135879631578
 51
286.1701931802609
  0
ARC
  5
3FD
330
1F
100
AcDbEntity
  8
TEXT
100
AcDbCircle
 10
51.25763180279793
 20
-22.05388746363302
 30
0.0
 40
0.0773752973045649
100
AcDbArc
 50
261.8576121462839
 51
331.2394802847501
  0
ARC
  5
3FE
330
1F
100
AcDbEntity
  8
TEXT
100
AcDbCircle
 10
51.25435054537425
 20
-22.04186549255904
 30
0.0
 40
0.0865014561069247
100
AcDbArc
 50
325.2939034707159
 51
356.4132772462207
  0
ARC
  5
3FF
330
1F
100
AcDbEntity
  8
TEXT
100
AcDbCircle
 10
51.7389373306868
 20
-22.05801098860023
 30
0.0
 40
0.0101517433964443
100
AcDbArc
 50
349.2952029716974
 51
131.662690546928
  0
ARC
  5
400
330
1F
100
AcDbEntity
  8
TEXT
100
AcDbCircle
 10
51.61050350400708
 20
-22.00906761904358
 30
0.0
 40
0.1474469934232997
100
AcDbArc
 50
296.3233923707215
 51
339.8348331475753
  0
ARC
  5
401
330
1F
100
AcDbEntity
  8
TEXT
100
AcDbCircle
 10
51.59434452075501
 20
-21.95963178618446
 30
0.0
 40
0.1990611158709922
100
AcDbArc
 50
254.2847830849328
 51
294.1819270465997
  0
ARC
  5
402
330
1F
100
AcDbEntity
  8
TEXT
100
AcDbCircle
 10
51.63016362675321
 20
-21.98507399706696
 30
0.0
 40
0.1211618113646486
100
AcDbArc
 50
272.3792098458871
 51
327.3581874363277
  0
ARC
  5
403
330
1F
100
AcDbEntity
  8
TEXT
100
AcDbCircle
 10
51.61754827056913
 20
-22.01122885154858
 30
0.0
 40
0.096528949885583
100
AcDbArc
 50
230.841648863782
 51
280.5326941523482
  0
ARC
  5
404
330
1F
100
AcDbEntity
  8
TEXT
100
AcDbCircle
 10
51.64667878880212
 20
-21.98745103993372
 30
0.0
 40
0.1335761275768995
100
AcDbArc
 50
179.2959701761241
 51
227.5915484940839
  0
ARC
  5
405
330
1F
100
AcDbEntity
  8
TEXT
100
AcDbCircle
 10
51.59034152391777
 20
-22.02350169200085
 30
0.0
 40
0.1371551399716607
100
AcDbArc
 50
194.1847393568171
 51
248.658676732099
  0
ARC
  5
406
330
1F
100
AcDbEntity
  8
TEXT
100
AcDbCircle
 10
51.59294514737919
 20
-22.01930807564147
 30
0.0
 40
0.1407487679526329
100
AcDbArc
 50
148.4692011102813
 51
195.5802361373329
  0
ARC
  5
407
330
1F
100
AcDbEntity
  8
TEXT
100
AcDbCircle
 10
51.59206297105082
 20
-22.01510921619691
 30
0.0
 40
0.137836276264997
100
AcDbArc
 50
108.5416613320869
 51
149.7652339536232
  0
ARC
  5
408
330
1F
100
AcDbEntity
  8
TEXT
100
AcDbCircle
 10
51.59366369024687
 20
-22.12577764146154
 30
0.0
 40
0.2218359726276385
100
AcDbArc
 50
82.99970676553448
 51
97.00029323449177
  0
ARC
  5
409
330
1F
100
AcDbEntity
  8
TEXT
100
AcDbCircle
 10
51.60061909621962
 20
-21.96002528548844
 30
0.0
 40
0.0580159858255731
100
AcDbArc
 50
358.1908821763629
 51
69.74957583403642
  0
ARC
  5
40A
330
1F
100
AcDbEntity
  8
TEXT
100
AcDbCircle
 10
51.58400053457651
 20
-21.97570202619585
 30
0.0
 40
0.0722271962793862
100
AcDbArc
 50
103.9179608006051
 51
168.9486088950471
  0
LINE
  5
40B
330
1F
100
AcDbEntity
  8
TEXT
100
AcDbLine
 10
51.51311274516483
 20
-21.96185683949757
 30
0.0
 11
51.65860616392645
 21
-21.96185683949757
 31
0.0
  0
ARC
  5
40C
330
1F
100
AcDbEntity
  8
TEXT
100
AcDbCircle
 10
51.60274646807678
 20
-22.06715072275452
 30
0.0
 40
0.1906818424162646
100
AcDbArc
 50
78.15621523986211
 51
106.6122408520289
  0
ARC
  5
40D
330
1F
100
AcDbEntity
  8
TEXT
100
AcDbCircle
 10
51.63419687624518
 20
-21.98112343360532
 30
0.0
 40
0.1008882858732261
100
AcDbArc
 50
357.337623744369
 51
85.63084243886235
  0
LINE
  5
40E
330
1F
100
AcDbEntity
  8
TEXT
100
AcDbLine
 10
51.51311274516483
 20
-21.98580974607414
 30
0.0
 11
51.73497626253984
 21
-21.98580974607414
 31
0.0
  0
ARC
  5
40F
330
1F
100
AcDbEntity
  8
TEXT
100
AcDbCircle
 10
50.58117935419918
 20
-21.85033273590446
 30
0.0
 40
0.8256785593651303
100
AcDbArc
 50
175.4121316267021
 51
191.7939289656974
  0
ARC
  5
410
330
1F
100
AcDbEntity
  8
TEXT
100
AcDbCircle
 10
49.77131847007857
 20
-22.05678551651302
 30
0.0
 40
0.0377249227310371
100
AcDbArc
 50
15.17145974977861
 51
87.54918714298279
  0
ARC
  5
411
330
1F
100
AcDbEntity
  8
TEXT
100
AcDbCircle
 10
53.17719391492293
 20
-22.16184307304965
 30
0.0
 40
3.371424885706388
100
AcDbArc
 50
178.0464319449979
 51
181.7502526685598
  0
LINE
  5
412
330
1F
100
AcDbEntity
  8
TEXT
100
AcDbLine
 10
49.84345683410133
 20
-22.09795643455716
 30
0.0
 11
49.84210464314438
 21
-22.26077763191732
 31
0.0
  0
ARC
  5
413
330
1F
100
AcDbEntity
  8
TEXT
100
AcDbCircle
 10
49.84910075137199
 20
-22.09674934281759
 30
0.0
 40
0.0057715572097216
100
AcDbArc
 50
333.6879001367248
 51
192.0722457553461
  0
LINE
  5
414
330
1F
100
AcDbEntity
  8
TEXT
100
AcDbLine
 10
49.8542743339394
 20
-22.09930764617034
 30
0.0
 11
49.8542743339394
 21
-22.12362948820304
 31
0.0
  0
ARC
  5
415
330
1F
100
AcDbEntity
  8
TEXT
100
AcDbCircle
 10
49.86192018110947
 20
-22.12186617598616
 30
0.0
 40
0.0078465437564296
100
AcDbArc
 50
192.9866902548889
 51
33.38063139741083
  0
ARC
  5
416
330
1F
100
AcDbEntity
  8
TEXT
100
AcDbCircle
 10
49.88238269526064
 20
-22.12664786640765
 30
0.0
 40
0.0166219072788065
100
AcDbArc
 50
17.6695592997087
 51
146.811114249189
  0
ARC
  5
417
330
1F
100
AcDbEntity
  8
TEXT
100
AcDbCircle
 10
49.93445770632852
 20
-22.10120048915602
 30
0.0
 40
0.041585926706557
100
AcDbArc
 50
209.3802246625998
 51
263.8421008682745
  0
LINE
  5
418
330
1F
100
AcDbEntity
  8
TEXT
100
AcDbLine
 10
49.92999683280439
 20
-22.14254646728507
 30
0.0
 11
49.93405337785734
 21
-22.19929743752715
 31
0.0
  0
ARC
  5
419
330
1F
100
AcDbEntity
  8
TEXT
100
AcDbCircle
 10
49.95115979437368
 20
-22.20168767357764
 30
0.0
 40
0.0172726001056756
100
AcDbArc
 50
172.045705651638
 51
14.81661014794035
  0
LINE
  5
41A
330
1F
100
AcDbEntity
  8
TEXT
100
AcDbLine
 10
49.96785806832797
 20
-22.1972706201074
 30
0.0
 11
49.97056245024221
 21
-22.17362438388139
 31
0.0
  0
ARC
  5
41B
330
1F
100
AcDbEntity
  8
TEXT
100
AcDbCircle
 10
49.97672343335202
 20
-22.17290451370691
 30
0.0
 40
0.0062028965774414
100
AcDbArc
 50
318.6510821797497
 51
186.6644145786487
  0
LINE
  5
41C
330
1F
100
AcDbEntity
  8
TEXT
100
AcDbLine
 10
49.98137995007986
 20
-22.17700241291429
 30
0.0
 11
49.98476039965433
 21
-22.20808031301263
 31
0.0
  0
ARC
  5
41D
330
1F
100
AcDbEntity
  8
TEXT
100
AcDbCircle
 10
49.99633426218004
 20
-22.21047356663046
 30
0.0
 40
0.0118187121398486
100
AcDbArc
 50
168.3169857564318
 51
15.04995211452411
  0
LINE
  5
41E
330
1F
100
AcDbEntity
  8
TEXT
100
AcDbLine
 10
50.00774759028698
 20
-22.20740470720603
 30
0.0
 11
50.00774759028698
 21
-22.18173165356028
 31
0.0
  0
ARC
  5
41F
330
1F
100
AcDbEntity
  8
TEXT
100
AcDbCircle
 10
50.02314632966701
 20
-22.19509361697928
 30
0.0
 40
0.0203878208963423
100
AcDbArc
 50
65.19241843010028
 51
139.0508106988865
  0
ARC
  5
420
330
1F
100
AcDbEntity
  8
TEXT
100
AcDbCircle
 10
50.03628311242855
 20
-22.19637148371564
 30
0.0
 40
0.020308138759025
100
AcDbArc
 50
7.606980527162151
 51
103.0413594591753
  0
LINE
  5
421
330
1F
100
AcDbEntity
  8
TEXT
100
AcDbLine
 10
50.05641252778125
 20
-22.19368315013992
 30
0.0
 11
50.06496667671743
 21
-22.31145565644808
 31
0.0
  0
LINE
  5
422
330
1F
100
AcDbEntity
  8
TEXT
100
AcDbLine
 10
50.10203472962141
 20
-22.30765655132414
 30
0.0
 11
50.10488613114554
 21
-22.21457827781482
 31
0.0
  0
ARC
  5
423
330
1F
100
AcDbEntity
  8
TEXT
100
AcDbCircle
 10
50.11517683040742
 20
-22.21177395594226
 30
0.0
 40
0.0106659604566459
100
AcDbArc
 50
5.351678383090961
 51
195.2435488026483
  0
LINE
  5
424
330
1F
100
AcDbEntity
  8
TEXT
100
AcDbLine
 10
50.15431020168463
 20
-22.22882494677616
 30
0.0
 11
50.15621113603392
 21
-22.28771120817921
 31
0.0
  0
ARC
  5
425
330
1F
100
AcDbEntity
  8
TEXT
100
AcDbCircle
 10
50.20808764834479
 20
-22.24212184770545
 30
0.0
 40
0.0099490153043841
100
AcDbArc
 50
354.5219056877808
 51
214.9448543763667
  0
ARC
  5
426
330
1F
100
AcDbEntity
  8
TEXT
100
AcDbCircle
 10
50.23561777307096
 20
-22.24375254238466
 30
0.0
 40
0.0176396956736213
100
AcDbArc
 50
177.787775166229
 51
326.3805826419286
  0
ARC
  5
427
330
1F
100
AcDbEntity
  8
TEXT
100
AcDbCircle
 10
50.41787561770829
 20
-22.22270941602527
 30
0.0
 40
0.0096478971506238
100
AcDbArc
 50
144.5711585108377
 51
21.75301147887703
  0
LINE
  5
428
330
1F
100
AcDbEntity
  8
TEXT
100
AcDbLine
 10
50.42683648882652
 20
-22.21913384498946
 30
0.0
 11
50.4275093852029
 21
-22.16803073537628
 31
0.0
  0
ARC
  5
429
330
1F
100
AcDbEntity
  8
TEXT
100
AcDbCircle
 10
50.41789759254587
 20
-22.17385895384008
 30
0.0
 40
0.0112407601407586
100
AcDbArc
 50
31.23099864076698
 51
160.1819529381848
  0
ARC
  5
42A
330
1F
100
AcDbEntity
  8
TEXT
100
AcDbCircle
 10
50.45488849331086
 20
-22.19093921946384
 30
0.0
 40
0.0519515298800493
100
AcDbArc
 50
156.2885975497959
 51
210.2571046136516
  0
ARC
  5
42B
330
1F
100
AcDbEntity
  8
TEXT
100
AcDbCircle
 10
50.60187189963492
 20
-22.27308050443534
 30
0.0
 40
0.0320756256007159
100
AcDbArc
 50
341.547710075844
 51
84.99888070834805
  0
ARC
  5
42C
330
1F
100
AcDbEntity
  8
TEXT
100
AcDbCircle
 10
50.61583690904527
 20
-22.31030379577459
 30
0.0
 40
0.0700726241502045
100
AcDbArc
 50
99.17143729877857
 51
127.7955283290849
  0
ARC
  5
42D
330
1F
100
AcDbEntity
  8
TEXT
100
AcDbCircle
 10
50.47988826809469
 20
-22.24785126241584
 30
0.0
 40
0.0077690791612488
100
AcDbArc
 50
312.7998628402727
 51
120.0581864533225
  0
ARC
  5
42E
330
1F
100
AcDbEntity
  8
TEXT
100
AcDbCircle
 10
50.48060623079525
 20
-22.22405939264601
 30
0.0
 40
0.0176790514853205
100
AcDbArc
 50
129.1527393458192
 51
254.8870408388438
  0
ARC
  5
42F
330
1F
100
AcDbEntity
  8
TEXT
100
AcDbCircle
 10
50.41312556913519
 20
-22.16743245786847
 30
0.0
 40
0.0708071755766748
100
AcDbArc
 50
322.6907301981537
 51
8.220255073940986
  0
ARC
  5
430
330
1F
100
AcDbEntity
  8
TEXT
100
AcDbCircle
 10
50.48961220751497
 20
-22.15114001077107
 30
0.0
 40
0.0088938009315575
100
AcDbArc
 50
89.05883162362073
 51
223.9137905963107
  0
ARC
  5
431
330
1F
100
AcDbEntity
  8
TEXT
100
AcDbCircle
 10
50.31197487113072
 20
-21.94205557745359
 30
0.0
 40
0.2677381471784451
100
AcDbArc
 50
311.6071689301273
 51
318.3515702307968
  0
ARC
  5
432
330
1F
100
AcDbEntity
  8
TEXT
100
AcDbCircle
 10
50.48858267143774
 20
-22.14617639461733
 30
0.0
 40
0.0680197320887861
100
AcDbArc
 50
337.3510782224707
 51
22.64892177752932
  0
ARC
  5
433
330
1F
100
AcDbEntity
  8
TEXT
100
AcDbCircle
 10
50.59964654707673
 20
-22.18134711150795
 30
0.0
 40
0.0491171070234143
100
AcDbArc
 50
169.4684867573188
 51
223.1418439421619
  0
ARC
  5
434
330
1F
100
AcDbEntity
  8
TEXT
100
AcDbCircle
 10
50.55731079491462
 20
-22.18672840212077
 30
0.0
 40
0.0289438910150972
100
AcDbArc
 50
282.971262228297
 51
25.35441378640237
  0
ARC
  5
435
330
1F
100
AcDbEntity
  8
TEXT
100
AcDbCircle
 10
50.88683711741035
 20
-22.11761966074447
 30
0.0
 40
0.3086262182619536
100
AcDbArc
 50
179.4662202071271
 51
190.5890997840366
  0
ARC
  5
436
330
1F
100
AcDbEntity
  8
TEXT
100
AcDbCircle
 10
50.35194696345322
 20
-21.84563652276183
 30
0.0
 40
0.3116597300437131
100
AcDbArc
 50
317.9732863042448
 51
40.618949375607
  0
ARC
  5
437
330
1F
100
AcDbEntity
  8
TEXT
100
AcDbCircle
 10
50.30038364505575
 20
-21.8643351628014
 30
0.0
 40
0.3780834944579909
100
AcDbArc
 50
153.5374647244083
 51
193.3327646348718
  0
ARC
  5
438
330
1F
100
AcDbEntity
  8
TEXT
100
AcDbCircle
 10
49.85955935719918
 20
-22.00073949599353
 30
0.0
 40
0.0879839206880285
100
AcDbArc
 50
346.9852122362371
 51
34.01252680044434
  0
ARC
  5
439
330
1F
100
AcDbEntity
  8
TEXT
100
AcDbCircle
 10
49.93313675027073
 20
-22.05898779565921
 30
0.0
 40
0.0403077512910068
100
AcDbArc
 50
345.4259909574746
 51
72.46181126870709
  0
ARC
  5
43A
330
1F
100
AcDbEntity
  8
TEXT
100
AcDbCircle
 10
49.97507704981458
 20
-22.1454628117199
 30
0.0
 40
0.0763885567382903
100
AcDbArc
 50
18.24878221231895
 51
92.19784172829085
  0
ARC
  5
43B
330
1F
100
AcDbEntity
  8
TEXT
100
AcDbCircle
 10
50.05684308741805
 20
-22.12563552697117
 30
0.0
 40
0.0100872283383806
100
AcDbArc
 50
156.0593073728619
 51
8.762281217113367
  0
ARC
  5
43C
330
1F
100
AcDbEntity
  8
TEXT
100
AcDbCircle
 10
50.0786058157457
 20
-22.12829613680117
 30
0.0
 40
0.0125178738026551
100
AcDbArc
 50
1.65827202806849
 51
160.4091839300646
  0
ARC
  5
43D
330
1F
100
AcDbEntity
  8
TEXT
100
AcDbCircle
 10
50.1256904041372
 20
-22.10391161651101
 30
0.0
 40
0.0420985735899548
100
AcDbArc
 50
214.7934494581787
 51
299.0409507876034
  0
ARC
  5
43E
330
1F
100
AcDbEntity
  8
TEXT
100
AcDbCircle
 10
50.17303036591105
 20
-22.11560216547309
 30
0.0
 40
0.0368046952416256
100
AcDbArc
 50
223.0305625061271
 51
311.2487591160714
  0
ARC
  5
43F
330
1F
100
AcDbEntity
  8
TEXT
100
AcDbCircle
 10
50.21816873316701
 20
-22.13773802947966
 30
0.0
 40
0.0215936154649512
100
AcDbArc
 50
194.854618224045
 51
330.4510994340958
  0
ARC
  5
440
330
1F
100
AcDbEntity
  8
TEXT
100
AcDbCircle
 10
50.25230486402128
 20
-22.1999552583261
 30
0.0
 40
0.0538043974482186
100
AcDbArc
 50
33.67851647489461
 51
106.5775508009921
  0
ARC
  5
441
330
1F
100
AcDbEntity
  8
TEXT
100
AcDbCircle
 10
50.31242993144108
 20
-22.13855661577648
 30
0.0
 40
0.0350975547632951
100
AcDbArc
 50
244.0629515517947
 51
24.32612031265398
  0
ARC
  5
442
330
1F
100
AcDbEntity
  8
TEXT
100
AcDbCircle
 10
50.39377441459643
 20
-21.94323580525027
 30
0.0
 40
0.0913628957119057
100
AcDbArc
 50
300.6537348898064
 51
16.6824591637609
  0
ARC
  5
443
330
1F
100
AcDbEntity
  8
TEXT
100
AcDbCircle
 10
50.21679301109739
 20
-21.84559884530826
 30
0.0
 40
0.2739689655462309
100
AcDbArc
 50
344.891441117324
 51
24.57723374822275
  0
LINE
  5
444
330
1F
100
AcDbEntity
  8
TEXT
100
AcDbLine
 10
50.70734681707282
 20
-21.8925643503621
 30
0.0
 11
50.81536341816494
 21
-21.88834799666171
 31
0.0
  0
LINE
  5
445
330
1F
100
AcDbEntity
  8
TEXT
100
AcDbLine
 10
50.89721973650981
 20
-21.8925643503621
 30
0.0
 11
51.00523633760193
 21
-21.88834799666171
 31
0.0
  0
LINE
  5
446
330
1F
100
AcDbEntity
  8
TEXT
100
AcDbLine
 10
50.75122854040293
 20
-21.92629522945826
 30
0.0
 11
50.75291630327209
 21
-22.08988998070122
 31
0.0
  0
LINE
  5
447
330
1F
100
AcDbEntity
  8
TEXT
100
AcDbLine
 10
50.81536341816494
 20
-21.88834799666171
 30
0.0
 11
50.81705118103449
 21
-22.0738678234417
 31
0.0
  0
LINE
  5
448
330
1F
100
AcDbEntity
  8
TEXT
100
AcDbLine
 10
51.00523633760193
 20
-21.88834799666171
 30
0.0
 11
51.00692410047148
 21
-22.07977072522134
 31
0.0
  0
ARC
  5
449
330
1F
100
AcDbEntity
  8
TEXT
100
AcDbCircle
 10
50.73148864829446
 20
-21.92584125718722
 30
0.0
 40
0.0197451115790963
100
AcDbArc
 50
358.6825606331185
 51
106.4049357729609
  0
LINE
  5
44A
330
1F
100
AcDbEntity
  8
TEXT
100
AcDbLine
 10
50.70734681707282
 20
-21.8925643503621
 30
0.0
 11
50.70819068459822
 21
-21.90437017041914
 31
0.0
  0
LINE
  5
44B
330
1F
100
AcDbEntity
  8
TEXT
100
AcDbLine
 10
50.7259121529989
 20
-21.90689997604014
 30
0.0
 11
50.70819068459822
 21
-21.90437017041914
 31
0.0
  0
LINE
  5
44C
330
1F
100
AcDbEntity
  8
TEXT
100
AcDbLine
 10
50.89721973650981
 20
-21.8925643503621
 30
0.0
 11
50.89637586898415
 21
-21.90858652411947
 31
0.0
  0
LINE
  5
44D
330
1F
100
AcDbEntity
  8
TEXT
100
AcDbLine
 10
50.89637586898415
 20
-21.90858652411947
 30
0.0
 11
50.92675554499582
 21
-21.91027307219872
 31
0.0
  0
LINE
  5
44E
330
1F
100
AcDbEntity
  8
TEXT
100
AcDbLine
 10
50.94532088092226
 20
-22.08820343262198
 30
0.0
 11
50.94447701339678
 21
-21.92713850349783
 31
0.0
  0
ARC
  5
44F
330
1F
100
AcDbEntity
  8
TEXT
100
AcDbCircle
 10
50.93241694447854
 20
-21.92206751089596
 30
0.0
 40
0.0130828218776554
100
AcDbArc
 50
337.19432183702
 51
115.6412778855215
  0
ARC
  5
450
330
1F
100
AcDbEntity
  8
TEXT
100
AcDbCircle
 10
50.81785929684365
 20
-22.08902996481808
 30
0.0
 40
0.064948687756911
100
AcDbArc
 50
180.7587023263156
 51
270.031539090728
  0
ARC
  5
451
330
1F
100
AcDbEntity
  8
TEXT
100
AcDbCircle
 10
50.84352603451741
 20
-22.00712688347564
 30
0.0
 40
0.1490717499686403
100
AcDbArc
 50
260.0995263030861
 51
313.0673878832376
  0
LINE
  5
452
330
1F
100
AcDbEntity
  8
TEXT
100
AcDbLine
 10
50.94532088092226
 20
-22.11603140993851
 30
0.0
 11
50.94616477626605
 21
-22.14807574095539
 31
0.0
  0
ARC
  5
453
330
1F
100
AcDbEntity
  8
TEXT
100
AcDbCircle
 10
50.9561435352467
 20
-22.1441045888556
 30
0.0
 40
0.0107399106045541
100
AcDbArc
 50
201.7006027724313
 51
343.0678677067634
  0
ARC
  5
454
330
1F
100
AcDbEntity
  8
TEXT
100
AcDbCircle
 10
51.04921932824826
 20
-22.3407471705047
 30
0.0
 40
0.2104852041234298
100
AcDbArc
 50
88.1895659998687
 51
113.1652090520296
  0
LINE
  5
455
330
1F
100
AcDbEntity
  8
TEXT
100
AcDbLine
 10
51.10968724719318
 20
-21.79497556546316
 30
0.0
 11
51.11595456659839
 21
-22.11974652421575
 31
0.0
  0
LINE
  5
456
330
1F
100
AcDbEntity
  8
TEXT
100
AcDbLine
 10
51.17772234377818
 20
-21.75112611308041
 30
0.0
 11
51.17952306417882
 21
-21.91307408691978
 31
0.0
  0
LINE
  5
457
330
1F
100
AcDbEntity
  8
TEXT
100
AcDbLine
 10
51.18041836770416
 20
-21.94617746810739
 30
0.0
 11
51.18131369904782
 21
-22.10006343180696
 31
0.0
  0
ARC
  5
458
330
1F
100
AcDbEntity
  8
TEXT
100
AcDbCircle
 10
51.28493230867011
 20
-22.05238710046973
 30
0.0
 40
0.1746975230751228
100
AcDbArc
 50
71.07988584763323
 51
127.1124618564783
  0
ARC
  5
459
330
1F
100
AcDbEntity
  8
TEXT
100
AcDbCircle
 10
51.2850607924876
 20
-21.99510834832592
 30
0.0
 40
0.1218765526538726
100
AcDbArc
 50
359.8698564192901
 51
62.37231490186815
  0
ARC
  5
45A
330
1F
100
AcDbEntity
  8
TEXT
100
AcDbCircle
 10
51.23570526551239
 20
-21.98240168685972
 30
0.0
 40
0.0660971640349483
100
AcDbArc
 50
78.87075864990912
 51
146.7670066549806
  0
ARC
  5
45B
330
1F
100
AcDbEntity
  8
TEXT
100
AcDbCircle
 10
51.25568502432209
 20
-21.99417199106034
 30
0.0
 40
0.076964007886262
100
AcDbArc
 50
21.58325850317762
 51
95.38396011115379
  0
ARC
  5
45C
330
1F
100
AcDbEntity
  8
TEXT
100
AcDbCircle
 10
51.24965183800171
 20
-22.02047696209645
 30
0.0
 40
0.0948938006577311
100
AcDbArc
 50
343.5952529167678
 51
35.13836089168466
  0
ARC
  5
45D
330
1F
100
AcDbEntity
  8
TEXT
100
AcDbCircle
 10
51.21900118125418
 20
-21.98929698136452
 30
0.0
 40
0.1662398508845179
100
AcDbArc
 50
231.6935697703574
 51
269.6626044169057
  0
ARC
  5
45E
330
1F
100
AcDbEntity
  8
TEXT
100
AcDbCircle
 10
51.23623521676941
 20
-21.96044576845748
 30
0.0
 40
0.195936496066103
100
AcDbArc
 50
264.6664639047714
 51
308.6423664458046
  0
ARC
  5
45F
330
1F
100
AcDbEntity
  8
TEXT
100
AcDbCircle
 10
51.25911827397263
 20
-22.00381603937576
 30
0.0
 40
0.148058988907861
100
AcDbArc
 50
312.2086974257938
 51
3.26433362995777
  0
ARC
  5
460
330
1F
100
AcDbEntity
  8
TEXT
100
AcDbCircle
 10
49.82307021885866
 20
-22.24856791768802
 30
0.0
 40
0.0226138548117653
100
AcDbArc
 50
225.9317407160084
 51
327.3216812937284
  0
ARC
  5
461
330
1F
100
AcDbEntity
  8
TEXT
100
AcDbCircle
 10
50.08412280945183
 20
-22.31562602504684
 30
0.0
 40
0.0196048309246907
100
AcDbArc
 50
167.7181143692785
 51
23.98551077366601
  0
ARC
  5
462
330
1F
100
AcDbEntity
  8
TEXT
100
AcDbCircle
 10
50.17966804162025
 20
-22.29154095696022
 30
0.0
 40
0.0237674860978408
100
AcDbArc
 50
170.7272794785954
 51
21.15794103947608
  0
LINE
  5
463
330
1F
100
AcDbEntity
  8
TEXT
100
AcDbLine
 10
50.20183333787421
 20
-22.28296231852544
 30
0.0
 11
50.1999324035248
 21
-22.24782052188908
 31
0.0
  0
LINE
  5
464
330
1F
100
AcDbEntity
  8
TEXT
100
AcDbLine
 10
50.25030694123839
 20
-22.25351917957495
 30
0.0
 11
50.25981158516723
 21
-22.30290766167039
 31
0.0
  0
ARC
  5
465
330
1F
100
AcDbEntity
  8
TEXT
100
AcDbCircle
 10
50.27149096921315
 20
-22.30524626270828
 30
0.0
 40
0.0119112159960021
100
AcDbArc
 50
168.6772178130361
 51
20.84321825743645
  0
LINE
  5
466
330
1F
100
AcDbEntity
  8
TEXT
100
AcDbLine
 10
50.28262268608719
 20
-22.30100810910845
 30
0.0
 11
50.28262268608719
 21
-22.26776586503421
 31
0.0
  0
ARC
  5
467
330
1F
100
AcDbEntity
  8
TEXT
100
AcDbCircle
 10
50.29782319121418
 20
-22.26926418787934
 30
0.0
 40
0.0152741719076016
100
AcDbArc
 50
354.9255052590734
 51
174.3705062402905
  0
LINE
  5
468
330
1F
100
AcDbEntity
  8
TEXT
100
AcDbLine
 10
50.3130374965867
 20
-22.27061520212602
 30
0.0
 11
50.31683933746744
 21
-22.3636934756354
 31
0.0
  0
ARC
  5
469
330
1F
100
AcDbEntity
  8
TEXT
100
AcDbCircle
 10
50.33580936901667
 20
-22.36174538389098
 30
0.0
 40
0.0190697970212738
100
AcDbArc
 50
185.8633287467241
 51
2.708827809510279
  0
LINE
  5
46A
330
1F
100
AcDbEntity
  8
TEXT
100
AcDbLine
 10
50.35485785754636
 20
-22.36084413854353
 30
0.0
 11
50.34725417578507
 21
-22.2839120865574
 31
0.0
  0
LINE
  5
46B
330
1F
100
AcDbEntity
  8
TEXT
100
AcDbLine
 10
50.34725417578507
 20
-22.2839120865574
 30
0.0
 11
50.35580832472081
 21
-22.30385742970247
 31
0.0
  0
ARC
  5
46C
330
1F
100
AcDbEntity
  8
TEXT
100
AcDbCircle
 10
50.36831621432364
 20
-22.29700762505003
 30
0.0
 40
0.0142606846291609
100
AcDbArc
 50
208.7068196476594
 51
351.528225897345
  0
LINE
  5
46D
330
1F
100
AcDbEntity
  8
TEXT
100
AcDbLine
 10
50.38242129433989
 20
-22.29910854004867
 30
0.0
 11
50.38147082716509
 21
-22.2848618710874
 31
0.0
  0
ARC
  5
46E
330
1F
100
AcDbEntity
  8
TEXT
100
AcDbCircle
 10
50.40066147732389
 20
-22.29030529276234
 30
0.0
 40
0.0199477290200001
100
AcDbArc
 50
7.472141028409423
 51
164.1640293291664
  0
LINE
  5
46F
330
1F
100
AcDbEntity
  8
TEXT
100
AcDbLine
 10
50.42043981441882
 20
-22.28771120817921
 30
0.0
 11
50.42994443052926
 21
-22.36654279622941
 31
0.0
  0
ARC
  5
470
330
1F
100
AcDbEntity
  8
TEXT
100
AcDbCircle
 10
50.44849013515825
 20
-22.37129016073962
 30
0.0
 40
0.0191436838142701
100
AcDbArc
 50
165.6416373020998
 51
23.37981978601531
  0
LINE
  5
471
330
1F
100
AcDbEntity
  8
TEXT
100
AcDbLine
 10
50.46606201625897
 20
-22.3636934756354
 30
0.0
 11
50.46317278187386
 21
-22.29309888031021
 31
0.0
  0
ARC
  5
472
330
1F
100
AcDbEntity
  8
TEXT
100
AcDbCircle
 10
50.46860254242186
 20
-22.28724153851059
 30
0.0
 40
0.007986911328421
100
AcDbArc
 50
60.02231951668123
 51
227.1694577924197
  0
LINE
  5
473
330
1F
100
AcDbEntity
  8
TEXT
100
AcDbLine
 10
50.47259330332386
 20
-22.28032311528028
 30
0.0
 11
50.5051988868324
 21
-22.2853037015459
 31
0.0
  0
ARC
  5
474
330
1F
100
AcDbEntity
  8
TEXT
100
AcDbCircle
 10
50.50272257725092
 20
-22.29954900558452
 30
0.0
 40
0.0144589348258151
100
AcDbArc
 50
327.1504341221716
 51
80.13862259361699
  0
LINE
  5
475
330
1F
100
AcDbEntity
  8
TEXT
100
AcDbLine
 10
50.51486949462011
 20
-22.30739204037465
 30
0.0
 11
50.5197048124231
 21
-22.44475399696908
 31
0.0
  0
LINE
  5
476
330
1F
100
AcDbEntity
  8
TEXT
100
AcDbLine
 10
50.5604595663469
 20
-22.44199294017986
 30
0.0
 11
50.56115032205886
 21
-22.3025602157403
 31
0.0
  0
ARC
  5
477
330
1F
100
AcDbEntity
  8
TEXT
100
AcDbCircle
 10
50.57202244549532
 20
-22.30159346063364
 30
0.0
 40
0.0109150210010138
100
AcDbArc
 50
32.94435831944401
 51
185.0814072168599
  0
ARC
  5
478
330
1F
100
AcDbEntity
  8
TEXT
100
AcDbCircle
 10
50.60325047552513
 20
-22.27508753016609
 30
0.0
 40
0.0301683855730196
100
AcDbArc
 50
222.9877626572469
 51
344.33588516155
  0
ARC
  5
479
330
1F
100
AcDbEntity
  8
TEXT
100
AcDbCircle
 10
50.56131964554001
 20
-22.24904479743566
 30
0.0
 40
0.0129849663089943
100
AcDbArc
 50
193.9319034609807
 51
333.0378283509288
  0
ARC
  5
47A
330
1F
100
AcDbEntity
  8
TEXT
100
AcDbCircle
 10
50.53754982043395
 20
-22.26496112597109
 30
0.0
 40
0.0169788514653413
100
AcDbArc
 50
48.87596376792741
 51
143.795352979014
  0
ARC
  5
47B
330
1F
100
AcDbEntity
  8
TEXT
100
AcDbCircle
 10
50.50509351006272
 20
-22.23783959226876
 30
0.0
 40
0.0253759727461723
100
AcDbArc
 50
218.2556843178699
 51
317.656424723876
  0
ARC
  5
47C
330
1F
100
AcDbEntity
  8
TEXT
100
AcDbCircle
 10
50.54024331037712
 20
-22.44575170519841
 30
0.0
 40
0.0205627167442868
100
AcDbArc
 50
177.2189023070876
 51
10.53261226458181
  0
TEXT
  5
47D
330
1F
100
AcDbEntity
  8
TEXT
100
AcDbText
 10
45.81073820902999
 20
-24.31042337549168
 30
0.0
 40
0.3333420505952809
  1
9-21-09
 72
     1
 11
46.83854286503211
 21
-24.14375235019404
 31
0.0
100
AcDbText
 73
     2
  0
TEXT
  5
47E
330
1F
100
AcDbEntity
  8
TEXT
100
AcDbText
 10
44.67181953616274
 20
-24.0657876838095
 30
0.0
 40
0.1666710252976404
  1
DATE
100
AcDbText
  0
TEXT
  5
47F
330
1F
100
AcDbEntity
  8
TEXT
100
AcDbText
 10
45.30350272204061
 20
-23.75644626085712
 30
0.0
 40
0.2500065379464606
  1
JJH
 72
     1
 11
45.63684477263588
 21
-23.63144299188389
 31
0.0
100
AcDbText
 73
     2
  0
TEXT
  5
480
330
1F
100
AcDbEntity
  8
TEXT
100
AcDbText
 10
44.60181770553774
 20
-23.39910358261896
 30
0.0
 40
0.1666710252976404
  1
DRAWN
100
AcDbText
  0
TEXT
  5
481
330
1F
100
AcDbEntity
  8
TEXT
100
AcDbText
 10
47.00521389032959
 20
-23.39910358261896
 30
0.0
 40
0.1666710252976404
  1
SCALE
100
AcDbText
  0
TEXT
  5
482
330
1F
100
AcDbEntity
  8
TEXT
100
AcDbText
 10
47.58189563785943
 20
-23.75644626085712
 30
0.0
 40
0.2500065379464606
  1
NONE
 72
     1
 11
48.04024095742793
 21
-23.63144299188389
 31
0.0
100
AcDbText
 73
     2
  0
LINE
  5
483
330
1F
100
AcDbEntity
  8
Dimension
100
AcDbLine
 10
44.50514851086516
 20
-23.14909704467252
 30
0.0
 11
44.50514851086516
 21
-25.20903059244866
 31
0.0
  0
TEXT
  5
484
330
1F
100
AcDbEntity
  8
TEXT
100
AcDbText
 10
40.05311781082336
 20
-24.95902405450217
 30
0.0
 40
0.1666710252976404
  1
ICE QUBE, INC.
 72
     1
 11
41.03925471050106
 21
-24.87568854185335
 31
0.0
100
AcDbText
 73
     2
  0
TEXT
  5
485
330
1F
100
AcDbEntity
  8
TEXT
100
AcDbText
 10
38.28658960076481
 20
-24.70901751655572
 30
0.0
 40
0.1666710252976404
  1
OR ALTERED WITHOUT AUTHORIZATION OF
 72
     1
 11
41.11999703082469
 21
-24.6256820039069
 31
0.0
100
AcDbText
 73
     2
  0
TEXT
  5
486
330
1F
100
AcDbEntity
  8
TEXT
100
AcDbText
 10
38.16158633179158
 20
-24.45901097860926
 30
0.0
 40
0.1666710252976404
  1
QUBE, INC. AND IS NOT TO BE DUPLICATED
 72
     1
 11
41.11999703082469
 21
-24.37567546596044
 31
0.0
100
AcDbText
 73
     2
  0
TEXT
  5
487
330
1F
100
AcDbEntity
  8
TEXT
100
AcDbText
 10
38.31436810498108
 20
-24.2090044406628
 30
0.0
 40
0.1666710252976404
  1
THIS DRAWING IS THE PROPERTY OF ICE
 72
     1
 11
41.11999703082469
 21
-24.12566892801399
 31
0.0
100
AcDbText
 73
     2
  0
TEXT
  5
488
330
1F
100
AcDbEntity
  8
TEXT
100
AcDbText
 10
38.06436156703462
 20
-23.87566239006754
 30
0.0
 40
0.3333420505952809
  1
PROPRIETARY DRAWING
 72
     1
 11
41.11999703082469
 21
-23.7089913647699
 31
0.0
100
AcDbText
 73
     2
  0
LINE
  5
489
330
1F
100
AcDbEntity
  8
BORDER
100
AcDbLine
 10
44.50514851086516
 20
-25.20903059244866
 30
0.0
 11
44.50514851086516
 21
-23.3756493141746
 31
0.0
  0
LINE
  5
48A
330
1F
100
AcDbEntity
  8
THERMOSTATCVR
100
AcDbLine
 10
44.50514851086516
 20
-23.14909704467252
 30
0.0
 11
37.79817279296023
 21
-23.14909704467252
 31
0.0
  0
LINE
  5
48B
330
1F
100
AcDbEntity
  8
THERMOSTATCVR
100
AcDbLine
 10
37.79817279296023
 20
-23.14909704467252
 30
0.0
 11
37.79817279296023
 21
-25.20903059244866
 31
0.0
  0
LINE
  5
48C
330
1F
100
AcDbEntity
  8
0
100
AcDbLine
 10
57.80176803396275
 20
71.6500020966605
 30
0.0
 11
-15.87728460702399
 21
71.65000209666036
 31
0.0
  0
DIMENSION
  5
84D
330
1F
100
AcDbEntity
  8
DIM
100
AcDbDimension
  2
*D90
 10
113.103834298153
 20
123.3587982970989
 30
0.0
 11
113.103834298153
 21
137.5667693444803
 31
0.0
 70
   160
 71
     5
 42
26.04500000000002
  3
Standard
100
AcDbAlignedDimension
 13
110.5995962734261
 23
149.4037982970989
 33
0.0
 14
110.5995962734261
 24
123.3587982970989
 34
0.0
 50
90.0
100
AcDbRotatedDimension
  0
LINE
  5
84E
330
1F
100
AcDbEntity
  8
0
100
AcDbLine
 10
13.52424171346935
 20
45.08548575210581
 30
0.0
 11
13.52424171346935
 21
45.26548575210587
 31
0.0
  0
LINE
  5
84F
330
1F
100
AcDbEntity
  8
0
100
AcDbLine
 10
13.43424171346935
 20
45.17548575210584
 30
0.0
 11
13.61424171346935
 21
45.17548575210584
 31
0.0
  0
LINE
  5
850
330
1F
100
AcDbEntity
  8
0
100
AcDbLine
 10
28.38824171346939
 20
45.08548575210581
 30
0.0
 11
28.38824171346939
 21
45.26548575210587
 31
0.0
  0
LINE
  5
851
330
1F
100
AcDbEntity
  8
0
100
AcDbLine
 10
28.29824171346938
 20
45.17548575210584
 30
0.0
 11
28.47824171346939
 21
45.17548575210584
 31
0.0
  0
LINE
  5
852
330
1F
100
AcDbEntity
  8
0
100
AcDbLine
 10
28.46124171346948
 20
32.58548575210584
 30
0.0
 11
28.46124171346948
 21
32.76548575210585
 31
0.0
  0
LINE
  5
853
330
1F
100
AcDbEntity
  8
0
100
AcDbLine
 10
28.37124171346948
 20
32.67548575210585
 30
0.0
 11
28.55124171346948
 21
32.67548575210585
 31
0.0
  0
LINE
  5
854
330
1F
100
AcDbEntity
  8
0
100
AcDbLine
 10
28.46124171346948
 20
31.08548575210584
 30
0.0
 11
28.46124171346948
 21
31.26548575210585
 31
0.0
  0
LINE
  5
855
330
1F
100
AcDbEntity
  8
0
100
AcDbLine
 10
28.37124171346948
 20
31.17548575210584
 30
0.0
 11
28.55124171346948
 21
31.17548575210584
 31
0.0
  0
LINE
  5
856
330
1F
100
AcDbEntity
  8
0
100
AcDbLine
 10
28.39824171346938
 20
7.085485752105839
 30
0.0
 11
28.39824171346938
 21
7.265485752105846
 31
0.0
  0
LINE
  5
857
330
1F
100
AcDbEntity
  8
0
100
AcDbLine
 10
28.30824171346937
 20
7.175485752105842
 30
0.0
 11
28.48824171346938
 21
7.175485752105842
 31
0.0
  0
LINE
  5
858
330
1F
100
AcDbEntity
  8
0
100
AcDbLine
 10
13.54924171346944
 20
7.085485752105839
 30
0.0
 11
13.54924171346944
 21
7.265485752105846
 31
0.0
  0
LINE
  5
859
330
1F
100
AcDbEntity
  8
0
100
AcDbLine
 10
13.45924171346944
 20
7.175485752105842
 30
0.0
 11
13.63924171346944
 21
7.175485752105842
 31
0.0
  0
LINE
  5
85A
330
1F
100
AcDbEntity
  8
0
100
AcDbLine
 10
16.71224171346945
 20
16.08548575210584
 30
0.0
 11
16.71224171346945
 21
16.26548575210584
 31
0.0
  0
LINE
  5
85B
330
1F
100
AcDbEntity
  8
0
100
AcDbLine
 10
16.62224171346945
 20
16.17548575210584
 30
0.0
 11
16.80224171346945
 21
16.17548575210584
 31
0.0
  0
LINE
  5
85C
330
1F
100
AcDbEntity
  8
0
100
AcDbLine
 10
25.21224171346946
 20
16.08548575210584
 30
0.0
 11
25.21224171346946
 21
16.26548575210584
 31
0.0
  0
LINE
  5
85D
330
1F
100
AcDbEntity
  8
0
100
AcDbLine
 10
25.12224171346945
 20
16.17548575210584
 30
0.0
 11
25.30224171346946
 21
16.17548575210584
 31
0.0
  0
LINE
  5
85E
330
1F
100
AcDbEntity
  8
0
100
AcDbLine
 10
24.83724171346946
 20
23.08548575210584
 30
0.0
 11
24.83724171346946
 21
23.26548575210585
 31
0.0
  0
LINE
  5
85F
330
1F
100
AcDbEntity
  8
0
100
AcDbLine
 10
24.74724171346945
 20
23.17548575210584
 30
0.0
 11
24.92724171346946
 21
23.17548575210584
 31
0.0
  0
LINE
  5
860
330
1F
100
AcDbEntity
  8
0
100
AcDbLine
 10
17.08724171346945
 20
23.08548575210584
 30
0.0
 11
17.08724171346945
 21
23.26548575210585
 31
0.0
  0
LINE
  5
861
330
1F
100
AcDbEntity
  8
0
100
AcDbLine
 10
16.99724171346945
 20
23.17548575210584
 30
0.0
 11
17.17724171346945
 21
23.17548575210584
 31
0.0
  0
LINE
  5
862
330
1F
100
AcDbEntity
  8
0
100
AcDbLine
 10
24.83724171346946
 20
30.08548575210584
 30
0.0
 11
24.83724171346946
 21
30.26548575210585
 31
0.0
  0
LINE
  5
863
330
1F
100
AcDbEntity
  8
0
100
AcDbLine
 10
24.74724171346945
 20
30.17548575210585
 30
0.0
 11
24.92724171346946
 21
30.17548575210585
 31
0.0
  0
LINE
  5
864
330
1F
100
AcDbEntity
  8
0
100
AcDbLine
 10
17.08724171346945
 20
30.08548575210584
 30
0.0
 11
17.08724171346945
 21
30.26548575210585
 31
0.0
  0
LINE
  5
865
330
1F
100
AcDbEntity
  8
0
100
AcDbLine
 10
16.99724171346945
 20
30.17548575210585
 30
0.0
 11
17.17724171346945
 21
30.17548575210585
 31
0.0
  0
DIMENSION
  5
866
330
1F
100
AcDbEntity
  8
0
100
AcDbDimension
  2
*D91
 10
25.64459135129123
 20
33.96433410566401
 30
0.0
 11
43.5018750289188
 21
15.78330625867408
 31
0.0
 70
   163
  1
<> (1)\POPTIONAL:\PETHERNET\PCONNECTION \PPORT
 42
1.249999999999939
  3
Standard
100
AcDbDiametricDimension
 15
26.27789207564756
 25
32.88663739854758
 35
0.0
 40
0.0
  0
DIMENSION
  5
867
330
1F
100
AcDbEntity
  8
0
100
AcDbDimension
  2
*D92
 10
12.13624171346943
 20
-2.824514247894157
 30
0.0
 11
26.4522045191443
 21
24.53847911664623
 31
0.0
 70
   102
 71
     5
 42
13.82500000000004
  3
Standard
100
AcDbOrdinateDimension
 13
25.96124171346948
 23
33.42548575210584
 33
0.0
 14
26.4522045191443
 24
27.54514578331289
 34
0.0
  0
DIMENSION
  5
868
330
1F
100
AcDbEntity
  8
0
100
AcDbDimension
  2
*D93
 10
12.13624171346943
 20
-2.824514247894157
 30
0.0
 11
7.339214346458531
 21
33.42548575210584
 31
0.0
 70
    38
 71
     5
 42
36.25
  3
Standard
100
AcDbOrdinateDimension
 13
25.96124171346948
 23
33.42548575210584
 33
0.0
 14
10.45004767979186
 24
33.42548575210584
 34
0.0
  0
CIRCLE
  5
869
330
1F
100
AcDbEntity
  8
TEMPLATE
100
AcDbCircle
 10
25.96124171346948
 20
33.42548575210584
 30
0.0
 40
0.625
  0
DIMENSION
  5
86A
330
1F
100
AcDbEntity
  8
DIM
100
AcDbDimension
  2
*D94
 10
12.13619736853248
 20
-2.824481148376818
 30
0.0
 11
28.46124171346945
 21
24.56713999482459
 31
0.0
 70
   230
  1
16.325
 71
     5
 42
16.32504434493699
  3
Standard
100
AcDbOrdinateDimension
 13
28.46124171346948
 23
31.17548575210584
 33
0.0
 14
28.46124171346946
 24
27.57380666149125
 34
0.0
  0
DIMENSION
  5
86B
330
1F
100
AcDbEntity
  8
DIM
100
AcDbDimension
  2
*D95
 10
12.13619736853248
 20
-4.324481148376818
 30
0.0
 11
34.67324529719989
 21
31.17548575210584
 31
0.0
 70
    38
  1
34.000
 71
     5
 42
35.49996690048266
  3
Standard
100
AcDbOrdinateDimension
 13
28.46124171346948
 23
31.17548575210584
 33
0.0
 14
31.7707452971999
 24
31.17548575210584
 34
0.0
  0
MTEXT
  5
86C
102
{ACAD_REACTORS
330
86D
102
}
330
1F
100
AcDbEntity
  8
DIM
100
AcDbMText
 10
33.82886518988132
 20
28.83330854234691
 30
0.0
 40
1.25
 41
0.0
 71
     1
 72
     1
  1
%%C 1.250 (1) \POPTIONAL:\PEXTERNAL \PHEAT OUTPUT
 73
     1
 44
1.0
1001
ACAD
1000
MTEXTBEGIN
1070
    73
1070
     1
1070
    44
1040
1.0
1070
    74
1070
     0
1000
MTEXTEND
  0
LEADER
  5
86D
330
1F
100
AcDbEntity
  8
0
100
AcDbLeader
  3
Standard
 73
     0
 40
7.499999999999999
 41
13.33333333333333
 76
     3
 10
29.34094817323991
 20
30.62539597510802
 30
0.0
 10
32.04818430345041
 20
28.20830854234691
 30
0.0
 10
33.45386518988131
 20
28.20830854234691
 30
0.0
340
86C
213
0.0
223
-0.625
233
0.0
1001
ACAD
1000
DSTYLE
1002
{
1070
   147
1040
0.375
1070
    77
1070
     0
1002
}
  0
LEADER
  5
86E
330
1F
100
AcDbEntity
  8
0
100
AcDbLeader
  3
Standard
 76
     3
 10
29.13269943616412
 20
33.2782802057338
 30
0.0
 10
31.68374837651119
 20
34.89081798056164
 30
0.0
 10
38.21352464791539
 20
34.89081798056164
 30
0.0
1001
ACAD
1000
DSTYLE
1002
{
1070
   147
1040
0.375
1070
    77
1070
     0
1002
}
  0
CIRCLE
  5
86F
330
1F
100
AcDbEntity
  8
TEMPLATE
100
AcDbCircle
 10
28.46124171346948
 20
31.17548575210584
 30
0.0
 40
0.625
  0
MTEXT
  5
871
330
1F
100
AcDbEntity
  8
DIM
100
AcDbMText
 10
38.76365116149305
 20
35.68434090536312
 30
0.0
 40
1.25
 41
0.0
 71
     1
 72
     1
  1
%%C 1.250 (1) \PPOWER SUPPLY
 73
     1
 44
1.0
1001
ACAD
1000
MTEXTBEGIN
1070
    73
1070
     1
1070
    44
1040
1.0
1070
    74
1070
     0
1000
MTEXTEND
  0
DIMENSION
  5
874
330
1F
100
AcDbEntity
  8
DIM
100
AcDbDimension
  2
*D96
 10
12.13619736853248
 20
-2.824481148376818
 30
0.0
 11
35.002333958096
 21
37.05048575210585
 31
0.0
 70
    38
 71
     5
 42
39.87496690048266
  3
Standard
100
AcDbOrdinateDimension
 13
29.08724171346945
 23
37.05048575210585
 33
0.0
 14
31.787333958096
 24
37.05048575210585
 34
0.0
  0
DIMENSION
  5
875
330
1F
100
AcDbEntity
  8
DIM
100
AcDbDimension
  2
*D97
 10
12.13619736853248
 20
-2.824481148376818
 30
0.0
 11
34.79400062476267
 21
40.30048575210584
 31
0.0
 70
    38
 71
     5
 42
43.12496690048265
  3
Standard
100
AcDbOrdinateDimension
 13
29.08724171346945
 23
40.30048575210584
 33
0.0
 14
31.787333958096
 24
40.30048575210584
 34
0.0
  0
DIMENSION
  5
876
330
1F
100
AcDbEntity
  8
DIM
100
AcDbDimension
  2
*D98
 10
12.13619736853248
 20
-2.824481148376818
 30
0.0
 11
34.89816729142933
 21
45.68148575210599
 31
0.0
 70
    38
 71
     5
 42
48.50596690048281
  3
Standard
100
AcDbOrdinateDimension
 13
27.44024171346952
 23
45.68148575210599
 33
0.0
 14
31.787333958096
 24
45.68148575210599
 34
0.0
  0
DIMENSION
  5
877
330
1F
100
AcDbEntity
  8
DIM
100
AcDbDimension
  2
*D99
 10
12.13619736853248
 20
-2.824481148376818
 30
0.0
 11
34.79400062476267
 21
48.51898575210568
 31
0.0
 70
    38
 71
     5
 42
51.3434669004825
  3
Standard
100
AcDbOrdinateDimension
 13
27.44024171346963
 23
48.51898575210568
 33
0.0
 14
31.787333958096
 24
48.51898575210568
 34
0.0
  0
DIMENSION
  5
878
330
1F
100
AcDbEntity
  8
DIM
100
AcDbDimension
  2
*D100
 10
12.13619736853248
 20
-2.824481148376818
 30
0.0
 11
7.155101200799842
 21
49.26548575210576
 31
0.0
 70
    38
 71
     5
 42
52.08996690048258
  3
Standard
100
AcDbOrdinateDimension
 13
12.13624171346943
 23
49.26548575210576
 33
0.0
 14
10.16176786746651
 24
49.26548575210576
 34
0.0
  0
DIMENSION
  5
879
330
1F
100
AcDbEntity
  8
DIM
100
AcDbDimension
  2
*D101
 10
12.13619736853248
 20
-2.824481148376818
 30
0.0
 11
7.259267867466508
 21
45.17548575210584
 31
0.0
 70
    38
 71
     5
 42
47.99996690048266
  3
Standard
100
AcDbOrdinateDimension
 13
13.52424171346935
 23
45.17548575210584
 33
0.0
 14
10.16176786746651
 24
45.17548575210584
 34
0.0
  0
LINE
  5
87A
330
1F
100
AcDbEntity
  8
DIM
100
AcDbLine
 10
24.83724171346946
 20
29.80048575210584
 30
0.0
 11
24.83724171346946
 21
23.55048575210584
 31
0.0
  0
LINE
  5
87B
330
1F
100
AcDbEntity
  8
DIM
100
AcDbLine
 10
17.08724171346945
 20
29.80048575210584
 30
0.0
 11
17.08724171346945
 21
23.55048575210584
 31
0.0
  0
DIMENSION
  5
87C
330
1F
100
AcDbEntity
  8
DIM
100
AcDbDimension
  2
*D102
 10
12.13619736853248
 20
-2.824481148376818
 30
0.0
 11
34.77741196386656
 21
32.67548575210585
 31
0.0
 70
    38
 71
     5
 42
35.49996690048266
  3
Standard
100
AcDbOrdinateDimension
 13
28.46124171346948
 23
32.67548575210585
 33
0.0
 14
31.7707452971999
 24
32.67548575210585
 34
0.0
  0
DIMENSION
  5
87D
330
1F
100
AcDbEntity
  8
DIM
100
AcDbDimension
  2
*D103
 10
12.13619736853248
 20
-2.824481148376818
 30
0.0
 11
31.27373440945207
 21
54.09492007863992
 31
0.0
 70
   102
 71
     5
 42
16.95104434493696
  3
Standard
100
AcDbOrdinateDimension
 13
29.08724171346945
 23
40.30048575210584
 33
0.0
 14
31.27373440945208
 24
51.29658674530658
 34
0.0
  0
DIMENSION
  5
87E
330
1F
100
AcDbEntity
  8
DIM
100
AcDbDimension
  2
*D104
 10
12.13619736853248
 20
-2.824481148376818
 30
0.0
 11
29.36853053007412
 21
54.22050721754371
 31
0.0
 70
   102
 71
     5
 42
16.25204434493689
  3
Standard
100
AcDbOrdinateDimension
 13
28.38824171346939
 23
45.17548575210584
 33
0.0
 14
29.36853053007413
 24
51.21384055087704
 34
0.0
  0
DIMENSION
  5
87F
330
1F
100
AcDbEntity
  8
DIM
100
AcDbDimension
  2
*D105
 10
12.13619736853248
 20
-2.824481148376818
 30
0.0
 11
10.97916222768248
 21
53.38717388421037
 31
0.0
 70
   102
 71
     5
 42
0.7010443449370794
  3
Standard
100
AcDbOrdinateDimension
 13
12.83724171346956
 23
40.30048575210584
 33
0.0
 14
10.97916222768249
 24
51.21384055087704
 34
0.0
  0
DIMENSION
  5
880
330
1F
100
AcDbEntity
  8
DIM
100
AcDbDimension
  2
*D106
 10
12.13619736853248
 20
-2.824481148376818
 30
0.0
 11
12.71869663362708
 21
53.5955072175437
 31
0.0
 70
   102
 71
     5
 42
1.388044344936862
  3
Standard
100
AcDbOrdinateDimension
 13
13.52424171346935
 23
45.17548575210584
 33
0.0
 14
12.71869663362709
 24
51.21384055087704
 34
0.0
  0
DIMENSION
  5
881
330
1F
100
AcDbEntity
  8
DIM
100
AcDbDimension
  2
*D107
 10
12.13619736853248
 20
-2.824481148376818
 30
0.0
 11
27.44024171346963
 21
54.03359435644749
 31
0.0
 70
   102
 71
     5
 42
15.30404434493714
  3
Standard
100
AcDbOrdinateDimension
 13
27.44024171346963
 23
48.51898575210568
 33
0.0
 14
27.44024171346963
 24
51.13109435644749
 34
0.0
  0
DIMENSION
  5
882
330
1F
100
AcDbEntity
  8
DIM
100
AcDbDimension
  2
*D108
 10
12.13619736853248
 20
-2.824481148376818
 30
0.0
 11
14.49024171346946
 21
53.80384055087703
 31
0.0
 70
   102
 71
     5
 42
2.354044344936983
  3
Standard
100
AcDbOrdinateDimension
 13
14.49024171346947
 23
48.51898575210568
 33
0.0
 14
14.49024171346947
 24
51.21384055087704
 34
0.0
  0
DIMENSION
  5
883
330
1F
100
AcDbEntity
  8
DIM
100
AcDbDimension
  2
*D109
 10
12.13619736853248
 20
-2.824481148376818
 30
0.0
 11
7.238755962360404
 21
30.17548575210585
 31
0.0
 70
    38
 71
     5
 42
32.99996690048266
  3
Standard
100
AcDbOrdinateDimension
 13
17.08724171346945
 23
30.17548575210585
 33
0.0
 14
10.1412559623604
 24
30.17548575210585
 34
0.0
  0
DIMENSION
  5
884
330
1F
100
AcDbEntity
  8
DIM
100
AcDbDimension
  2
*D110
 10
12.13619736853248
 20
-2.824481148376818
 30
0.0
 11
7.238755962360404
 21
23.17548575210584
 31
0.0
 70
    38
 71
     5
 42
25.99996690048266
  3
Standard
100
AcDbOrdinateDimension
 13
17.08724171346945
 23
23.17548575210584
 33
0.0
 14
10.1412559623604
 24
23.17548575210584
 34
0.0
  0
DIMENSION
  5
885
330
1F
100
AcDbEntity
  8
DIM
100
AcDbDimension
  2
*D111
 10
12.13619736853248
 20
-2.824481148376818
 30
0.0
 11
23.37884697329805
 21
-7.548151243386358
 31
0.0
 70
   102
 71
     5
 42
12.70104434493697
  3
Standard
100
AcDbOrdinateDimension
 13
24.83724171346946
 23
23.17548575210584
 33
0.0
 14
23.37884697329805
 24
-4.853984576719696
 34
0.0
  0
DIMENSION
  5
886
330
1F
100
AcDbEntity
  8
DIM
100
AcDbDimension
  2
*D112
 10
12.13619736853248
 20
-2.824481148376818
 30
0.0
 11
18.67229868091631
 21
-7.235651243386359
 31
0.0
 70
   102
 71
     5
 42
4.95104434493697
  3
Standard
100
AcDbOrdinateDimension
 13
17.08724171346945
 23
23.17548575210584
 33
0.0
 14
18.67229868091631
 24
-4.853984576719696
 34
0.0
  0
DIMENSION
  5
887
330
1F
100
AcDbEntity
  8
DIM
100
AcDbDimension
  2
*D113
 10
12.13619736853248
 20
-2.824481148376818
 30
0.0
 11
27.28184082796357
 21
-7.860651243386358
 31
0.0
 70
   102
 71
     5
 42
16.26204434493689
  3
Standard
100
AcDbOrdinateDimension
 13
28.39824171346938
 23
7.175485752105842
 33
0.0
 14
27.28184082796357
 24
-4.853984576719696
 34
0.0
  0
DIMENSION
  5
888
330
1F
100
AcDbEntity
  8
DIM
100
AcDbDimension
  2
*D114
 10
12.13619736853248
 20
-2.824481148376818
 30
0.0
 11
14.4249229429724
 21
-7.027317910053026
 31
0.0
 70
   102
 71
     5
 42
1.413044344936961
  3
Standard
100
AcDbOrdinateDimension
 13
13.54924171346944
 23
7.175485752105842
 33
0.0
 14
14.4249229429724
 24
-4.853984576719696
 34
0.0
  0
DIMENSION
  5
889
330
1F
100
AcDbEntity
  8
DIM
100
AcDbDimension
  2
*D115
 10
12.13619736853248
 20
-2.824481148376818
 30
0.0
 11
25.21224171346946
 21
-7.756484576719692
 31
0.0
 70
   102
 71
     5
 42
13.07604434493697
  3
Standard
100
AcDbOrdinateDimension
 13
25.21224171346946
 23
16.17548575210584
 33
0.0
 14
25.21224171346946
 24
-4.853984576719696
 34
0.0
  0
DIMENSION
  5
88A
330
1F
100
AcDbEntity
  8
DIM
100
AcDbDimension
  2
*D116
 10
12.13619736853248
 20
-2.824481148376818
 30
0.0
 11
16.71224171346945
 21
-7.443984576719693
 31
0.0
 70
   102
 71
     5
 42
4.57604434493697
  3
Standard
100
AcDbOrdinateDimension
 13
16.71224171346945
 23
16.17548575210584
 33
0.0
 14
16.71224171346945
 24
-4.853984576719696
 34
0.0
  0
DIMENSION
  5
88B
330
1F
100
AcDbEntity
  8
DIM
100
AcDbDimension
  2
*D117
 10
12.13619736853248
 20
-2.824481148376818
 30
0.0
 11
29.78824171346936
 21
-7.721010374132377
 31
0.0
 70
   102
 71
     5
 42
17.65204434493688
  3
Standard
100
AcDbOrdinateDimension
 13
29.78824171346936
 23
-2.824514247894157
 33
0.0
 14
29.78824171346936
 24
-4.714343707465715
 34
0.0
  0
DIMENSION
  5
88C
330
1F
100
AcDbEntity
  8
DIM
100
AcDbDimension
  2
*D118
 10
12.13619736853248
 20
-2.824481148376818
 30
0.0
 11
12.13624171346943
 21
-7.076328169210767
 31
0.0
 70
   102
 71
     5
 42
0.0000443449369527
  3
Standard
100
AcDbOrdinateDimension
 13
12.13624171346943
 23
-2.824514247894157
 33
0.0
 14
12.13624171346943
 24
-4.902994835877436
 34
0.0
  0
DIMENSION
  5
88D
330
1F
100
AcDbEntity
  8
DIM
100
AcDbDimension
  2
*D119
 10
12.13619736853248
 20
-2.824481148376818
 30
0.0
 11
7.413951453088381
 21
16.17548575210584
 31
0.0
 70
    38
 71
     5
 42
18.99996690048266
  3
Standard
100
AcDbOrdinateDimension
 13
16.71224171346945
 23
16.17548575210584
 33
0.0
 14
10.10811811975504
 24
16.17548575210584
 34
0.0
  0
DIMENSION
  5
88E
330
1F
100
AcDbEntity
  8
DIM
100
AcDbDimension
  2
*D120
 10
12.13619736853248
 20
-2.824481148376818
 30
0.0
 11
7.518118119755047
 21
7.175485752105842
 31
0.0
 70
    38
 71
     5
 42
9.999966900482661
  3
Standard
100
AcDbOrdinateDimension
 13
13.54924171346944
 23
7.175485752105842
 33
0.0
 14
10.10811811975504
 24
7.175485752105842
 34
0.0
  0
DIMENSION
  5
88F
330
1F
100
AcDbEntity
  8
DIM
100
AcDbDimension
  2
*D121
 10
12.13619736853248
 20
-2.824481148376818
 30
0.0
 11
7.952641716200815
 21
-2.824514247894157
 31
0.0
 70
    38
 71
     5
 42
0.0000330995173385
  3
Standard
100
AcDbOrdinateDimension
 13
12.13624171346943
 23
-2.824514247894157
 33
0.0
 14
10.12597504953415
 24
-2.824514247894157
 34
0.0
  0
CIRCLE
  5
890
330
1F
100
AcDbEntity
  8
TEMPLATE
100
AcDbCircle
 10
28.38824171346939
 20
45.17548575210584
 30
0.0
 40
0.1875
  0
LINE
  5
891
330
1F
100
AcDbEntity
  8
TEMPLATE
100
AcDbLine
 10
27.44024171346963
 20
48.51898575210568
 30
0.0
 11
27.44024171346952
 21
45.68148575210599
 31
0.0
  0
LINE
  5
892
330
1F
100
AcDbEntity
  8
TEMPLATE
100
AcDbLine
 10
29.08724171346945
 20
40.30048575210584
 30
0.0
 11
29.08724171346945
 21
37.05048575210585
 31
0.0
  0
CIRCLE
  5
893
330
1F
100
AcDbEntity
  8
TEMPLATE
100
AcDbCircle
 10
28.46124171346948
 20
32.67548575210585
 30
0.0
 40
0.625
  0
CIRCLE
  5
894
330
1F
100
AcDbEntity
  8
TEMPLATE
100
AcDbCircle
 10
13.52424171346935
 20
45.17548575210584
 30
0.0
 40
0.1875
  0
LINE
  5
895
330
1F
100
AcDbEntity
  8
TEMPLATE
100
AcDbLine
 10
14.49024171346947
 20
45.68148575210592
 30
0.0
 11
14.49024171346947
 21
48.51898575210568
 31
0.0
  0
CIRCLE
  5
896
330
1F
100
AcDbEntity
  8
TEMPLATE
100
AcDbCircle
 10
17.08724171346945
 20
30.17548575210585
 30
0.0
 40
0.1875
  0
CIRCLE
  5
897
330
1F
100
AcDbEntity
  8
TEMPLATE
100
AcDbCircle
 10
24.83724171346946
 20
30.17548575210585
 30
0.0
 40
0.1875
  0
LINE
  5
898
330
1F
100
AcDbEntity
  8
TEMPLATE
100
AcDbLine
 10
12.83724171346934
 20
37.05048575210585
 30
0.0
 11
12.83724171346956
 21
40.30048575210584
 31
0.0
  0
LINE
  5
899
330
1F
100
AcDbEntity
  8
TEMPLATE
  6
DASHED
100
AcDbLine
 10
12.13624171346943
 20
49.26548575210576
 30
0.0
 11
29.78824171346936
 21
49.26548575210587
 31
0.0
  0
LINE
  5
89A
330
1F
100
AcDbEntity
  8
TEMPLATE
100
AcDbLine
 10
27.44024171346963
 20
48.51898575210568
 30
0.0
 11
14.49024171346947
 21
48.51898575210568
 31
0.0
  0
LINE
  5
89B
330
1F
100
AcDbEntity
  8
TEMPLATE
100
AcDbLine
 10
14.49024171346947
 20
45.68148575210592
 30
0.0
 11
27.44024171346952
 21
45.68148575210599
 31
0.0
  0
LINE
  5
89C
330
1F
100
AcDbEntity
  8
TEMPLATE
100
AcDbLine
 10
29.08724171346945
 20
40.30048575210584
 30
0.0
 11
12.83724171346956
 21
40.30048575210584
 31
0.0
  0
LINE
  5
89D
330
1F
100
AcDbEntity
  8
TEMPLATE
100
AcDbLine
 10
12.83724171346934
 20
37.05048575210585
 30
0.0
 11
29.08724171346945
 21
37.05048575210585
 31
0.0
  0
CIRCLE
  5
89E
102
{ACAD_REACTORS
330
B4B
102
}
330
1F
100
AcDbEntity
  8
TEMPLATE
100
AcDbCircle
 10
28.39824171346938
 20
7.175485752105842
 30
0.0
 40
0.1875
  0
CIRCLE
  5
89F
330
1F
100
AcDbEntity
  8
TEMPLATE
100
AcDbCircle
 10
17.08724171346945
 20
23.17548575210584
 30
0.0
 40
0.1875
  0
CIRCLE
  5
8A0
330
1F
100
AcDbEntity
  8
TEMPLATE
100
AcDbCircle
 10
24.83724171346946
 20
23.17548575210584
 30
0.0
 40
0.1875
  0
CIRCLE
  5
8A1
330
1F
100
AcDbEntity
  8
TEMPLATE
100
AcDbCircle
 10
16.71224171346945
 20
16.17548575210584
 30
0.0
 40
0.1875
  0
CIRCLE
  5
8A2
330
1F
100
AcDbEntity
  8
TEMPLATE
100
AcDbCircle
 10
13.54924171346944
 20
7.175485752105842
 30
0.0
 40
0.1875
  0
LINE
  5
8A3
330
1F
100
AcDbEntity
  8
TEMPLATE
  6
DASHED
100
AcDbLine
 10
12.13624171346943
 20
-2.824514247894157
 30
0.0
 11
29.78824171346936
 21
-2.824514247894157
 31
0.0
  0
CIRCLE
  5
8A4
330
1F
100
AcDbEntity
  8
TEMPLATE
100
AcDbCircle
 10
25.21224171346946
 20
16.17548575210584
 30
0.0
 40
0.1875
  0
LINE
  5
8A5
330
1F
100
AcDbEntity
  8
TEMPLATE
  6
DASHED
100
AcDbLine
 10
29.78824171346936
 20
49.26548575210587
 30
0.0
 11
29.78824171346936
 21
-2.824514247894157
 31
0.0
  0
LINE
  5
8A6
330
1F
100
AcDbEntity
  8
TEMPLATE
  6
DASHED
100
AcDbLine
 10
12.13624171346943
 20
49.26548575210576
 30
0.0
 11
12.13624171346943
 21
-2.824514247894157
 31
0.0
  0
DIMENSION
  5
B36
102
{ACAD_XDICTIONARY
360
B42
102
}
102
{ACAD_REACTORS
330
B4B
102
}
330
1F
100
AcDbEntity
  8
0
100
AcDbDimension
  2
*D122
 10
28.28055249006979
 20
7.321449777453194
 30
0.0
 11
40.39343292544109
 21
0.6784071970245158
 31
0.0
 70
   163
  1
<> (10)
 71
     5
 42
0.3749999999999982
  3
Standard
100
AcDbDiametricDimension
 15
28.51593093686896
 25
7.029521726758492
 35
0.0
 40
0.0
1001
ACAD
1000
DSTYLE
1002
{
1070
   288
1070
     1
1002
}
  0
TEXT
  5
B4C
330
1F
100
AcDbEntity
  8
TEXT
100
AcDbText
 10
-15.4062323640287
 20
-23.69576096175457
 30
0.0
 40
0.3333420505952809
  1
1
 72
     1
 11
-15.35067535559615
 21
-23.52908993645693
 31
0.0
100
AcDbText
 73
     2
  0
TEXT
  5
B4D
330
1F
100
AcDbEntity
  8
TEXT
100
AcDbText
 10
-13.73422925922636
 20
-23.69055201317622
 30
0.0
 40
0.3333420505952809
  1
ADDED ETHERNET CONN PORT
 72
     1
 11
-9.789681660515539
 21
-23.52388098787858
 31
0.0
100
AcDbText
 73
     2
  0
TEXT
  5
B4E
330
1F
100
AcDbEntity
  8
TEXT
100
AcDbText
 10
-4.584972457482739
 20
-23.69055201317622
 30
0.0
 40
0.3333420505952809
  1
8-11-11
 72
     1
 11
-3.69606032256199
 21
-23.52388098787858
 31
0.0
100
AcDbText
 73
     2
  0
TEXT
  5
B4F
330
1F
100
AcDbEntity
  8
TEXT
100
AcDbText
 10
-1.582679151069422
 20
-23.69055201317622
 30
0.0
 40
0.3333420505952809
  1
JJH
 72
     1
 11
-1.138223083609048
 21
-23.52388098787858
 31
0.0
100
AcDbText
 73
     2
  0
LINE
  5
B50
330
1F
100
AcDbEntity
  8
0
100
AcDbLine
 10
0.1185620423639615
 20
-23.28314533008284
 30
0.0
 11
-15.87728460702399
 21
-23.28314533008284
 31
0.0
  0
ENDSEC
  0
SECTION
  2
OBJECTS
  0
DICTIONARY
  5
C
330
0
100
AcDbDictionary
281
     1
  3
ACAD_COLOR
350
73
  3
ACAD_GROUP
350
D
  3
ACAD_LAYOUT
350
1A
  3
ACAD_MATERIAL
350
72
  3
ACAD_MLINESTYLE
350
17
  3
ACAD_PLOTSETTINGS
350
19
  3
ACAD_PLOTSTYLENAME
350
E
  3
ACDBHEADERROUNDTRIPXREC
350
B67
  3
AcDbVariableDictionary
350
66
  0
DICTIONARY
  5
181
330
2
100
AcDbDictionary
280
     1
281
     1
  3
ACAD_LAYERSTATES
360
182
  0
DICTIONARY
  5
B42
330
B36
100
AcDbDictionary
280
     1
281
     1
  3
ACAD_DIMASSOC
360
B4B
  0
DICTIONARY
  5
73
102
{ACAD_REACTORS
330
C
102
}
330
C
100
AcDbDictionary
281
     1
  0
DICTIONARY
  5
D
102
{ACAD_REACTORS
330
C
102
}
330
C
100
AcDbDictionary
281
     1
  0
DICTIONARY
  5
1A
102
{ACAD_REACTORS
330
C
102
}
330
C
100
AcDbDictionary
281
     1
  3
Layout1
350
59
  3
Layout2
350
5E
  3
Model
350
22
  0
DICTIONARY
  5
72
102
{ACAD_REACTORS
330
C
102
}
330
C
100
AcDbDictionary
281
     1
  0
DICTIONARY
  5
17
102
{ACAD_REACTORS
330
C
102
}
330
C
100
AcDbDictionary
281
     1
  3
Standard
350
18
  0
DICTIONARY
  5
19
102
{ACAD_REACTORS
330
C
102
}
330
C
100
AcDbDictionary
281
     1
  0
ACDBDICTIONARYWDFLT
  5
E
102
{ACAD_REACTORS
330
C
102
}
330
C
100
AcDbDictionary
281
     1
  3
Normal
350
F
100
AcDbDictionaryWithDefault
340
F
  0
DICTIONARY
  5
B67
102
{ACAD_REACTORS
330
C
102
}
330
C
100
AcDbDictionary
281
     1
  3
COLORDICT
350
B69
  3
MATERIALDICT
350
B68
  0
DICTIONARY
  5
66
102
{ACAD_REACTORS
330
C
102
}
330
C
100
AcDbDictionary
281
     1
  3
DIMASSOC
350
67
  3
HIDETEXT
350
6B
  3
PROJECTNAME
350
61C
  0
DICTIONARY
  5
182
102
{ACAD_REACTORS
330
181
102
}
330
181
100
AcDbDictionary
281
     1
  0
DIMASSOC
  5
B4B
102
{ACAD_REACTORS
330
B42
102
}
330
B42
100
AcDbDimAssoc
330
B36
 90
        2
 70
     0
 71
     0
  1
AcDbOsnapPointRef
 72
     3
331
89E
 73
     2
 91
        0
 40
0.0
 10
0.0
 20
0.0
 30
0.0
 75
     0
  0
LAYOUT
  5
59
102
{ACAD_XDICTIONARY
360
B6C
102
}
102
{ACAD_REACTORS
330
1A
102
}
330
1A
100
AcDbPlotSettings
  1

  2
None
  4

  6

 40
0.0
 41
0.0
 42
0.0
 43
0.0
 44
0.0
 45
0.0
 46
0.0
 47
0.0
 48
0.0
 49
0.0
140
0.0
141
0.0
142
1.0
143
1.0
 70
   688
 72
     0
 73
     0
 74
     5
  7

 75
    16
147
1.0
148
0.0
149
0.0
100
AcDbLayout
  1
Layout1
 70
     1
 71
     1
 10
0.0
 20
0.0
 11
12.0
 21
9.0
 12
0.0
 22
0.0
 32
0.0
 14
0.0
 24
0.0
 34
0.0
 15
0.0
 25
0.0
 35
0.0
146
0.0
 13
0.0
 23
0.0
 33
0.0
 16
1.0
 26
0.0
 36
0.0
 17
0.0
 27
1.0
 37
0.0
 76
     0
330
58
  0
LAYOUT
  5
5E
102
{ACAD_XDICTIONARY
360
B6E
102
}
102
{ACAD_REACTORS
330
1A
102
}
330
1A
100
AcDbPlotSettings
  1

  2
None
  4

  6

 40
0.0
 41
0.0
 42
0.0
 43
0.0
 44
0.0
 45
0.0
 46
0.0
 47
0.0
 48
0.0
 49
0.0
140
0.0
141
0.0
142
1.0
143
1.0
 70
   688
 72
     0
 73
     0
 74
     5
  7

 75
    16
147
1.0
148
0.0
149
0.0
100
AcDbLayout
  1
Layout2
 70
     1
 71
     2
 10
0.0
 20
0.0
 11
12.0
 21
9.0
 12
0.0
 22
0.0
 32
0.0
 14
0.0
 24
0.0
 34
0.0
 15
0.0
 25
0.0
 35
0.0
146
0.0
 13
0.0
 23
0.0
 33
0.0
 16
1.0
 26
0.0
 36
0.0
 17
0.0
 27
1.0
 37
0.0
 76
     0
330
5D
  0
LAYOUT
  5
22
102
{ACAD_XDICTIONARY
360
B6A
102
}
102
{ACAD_REACTORS
330
1A
102
}
330
1A
100
AcDbPlotSettings
  1

  2
none_device
  4
ANSI_A_(8.50_x_11.00_Inches)
  6

 40
6.349999904632567
 41
19.04999923706055
 42
6.350006103515625
 43
19.04998779296875
 44
215.8999938964844
 45
279.3999938964844
 46
0.0
 47
0.0
 48
0.0
 49
0.0
140
0.0
141
0.0
142
1.0
143
2.584895464708373
 70
 11952
 72
     0
 73
     1
 74
     0
  7

 75
     0
147
0.3868628397755418
148
0.0
149
0.0
100
AcDbLayout
  1
Model
 70
     1
 71
     0
 10
0.0
 20
0.0
 11
12.0
 21
9.0
 12
0.0
 22
0.0
 32
0.0
 14
0.0
 24
0.0
 34
0.0
 15
0.0
 25
0.0
 35
0.0
146
0.0
 13
0.0
 23
0.0
 33
0.0
 16
1.0
 26
0.0
 36
0.0
 17
0.0
 27
1.0
 37
0.0
 76
     0
330
1F
  0
MLINESTYLE
  5
18
102
{ACAD_REACTORS
330
17
102
}
330
17
100
AcDbMlineStyle
  2
STANDARD
 70
     0
  3

 62
   256
 51
90.0
 52
90.0
 71
     2
 49
0.5
 62
   256
  6
BYLAYER
 49
-0.5
 62
   256
  6
BYLAYER
  0
ACDBPLACEHOLDER
  5
F
102
{ACAD_REACTORS
330
E
102
}
330
E
  0
XRECORD
  5
B69
102
{ACAD_REACTORS
330
B67
102
}
330
B67
100
AcDbXrecord
280
     1
340
73
  0
XRECORD
  5
B68
102
{ACAD_REACTORS
330
B67
102
}
330
B67
100
AcDbXrecord
280
     1
340
72
  0
DICTIONARYVAR
  5
67
102
{ACAD_REACTORS
330
66
102
}
330
66
100
DictionaryVariables
280
     0
  1
2
  0
DICTIONARYVAR
  5
6B
102
{ACAD_REACTORS
330
66
102
}
330
66
100
DictionaryVariables
280
     0
  1
1
  0
DICTIONARYVAR
  5
61C
102
{ACAD_REACTORS
330
66
102
}
330
66
100
DictionaryVariables
280
     0
  1

  0
DICTIONARY
  5
B6C
330
59
100
AcDbDictionary
280
     1
281
     1
  3
ACAD_XREC_ROUNDTRIP
360
B6D
  0
DICTIONARY
  5
B6E
330
5E
100
AcDbDictionary
280
     1
281
     1
  3
ACAD_XREC_ROUNDTRIP
360
B6F
  0
DICTIONARY
  5
B6A
330
22
100
AcDbDictionary
280
     1
281
     1
  3
ACAD_XREC_ROUNDTRIP
360
B6B
  0
XRECORD
  5
B6D
102
{ACAD_REACTORS
330
B6C
102
}
330
B6C
100
AcDbXrecord
280
     1
102
SHADEPLOT
 70
     0
102
SHADEPLOTRESLEVEL
 70
     2
102
SHADEPLOTCUSTOMDPI
 70
   300
  0
XRECORD
  5
B6F
102
{ACAD_REACTORS
330
B6E
102
}
330
B6E
100
AcDbXrecord
280
     1
102
SHADEPLOT
 70
     0
102
SHADEPLOTRESLEVEL
 70
     2
102
SHADEPLOTCUSTOMDPI
 70
   300
  0
XRECORD
  5
B6B
102
{ACAD_REACTORS
330
B6A
102
}
330
B6A
100
AcDbXrecord
280
     1
102
SHADEPLOT
 70
     0
102
SHADEPLOTRESLEVEL
 70
     2
102
SHADEPLOTCUSTOMDPI
 70
   300
  0
ENDSEC
  0
EOF
