  0
SECTION
  2
HEADER
  9
$ACADVER
  1
AC1015
  9
$ACADMAINTVER
 70
    20
  9
$DWGCODEPAGE
  3
ANSI_1252
  9
$INSBASE
 10
0.0
 20
0.0
 30
0.0
  9
$EXTMIN
 10
-2.156982737354919
 20
-38.87132578291151
 30
0.0
  9
$EXTMAX
 10
62.45155636939561
 20
23.63200487794991
 30
0.0
  9
$LIMMIN
 10
0.0
 20
0.0
  9
$LIMMAX
 10
12.0
 20
9.0
  9
$ORTHOMODE
 70
     1
  9
$REGENMODE
 70
     1
  9
$FILLMODE
 70
     1
  9
$QTEXTMODE
 70
     0
  9
$MIRRTEXT
 70
     0
  9
$LTSCALE
 40
1.0
  9
$ATTMODE
 70
     1
  9
$TEXTSIZE
 40
0.2
  9
$TRACEWID
 40
0.05
  9
$TEXTSTYLE
  7
Standard
  9
$CLAYER
  8
0
  9
$CELTYPE
  6
ByLayer
  9
$CECOLOR
 62
   256
  9
$CELTSCALE
 40
1.0
  9
$DISPSILH
 70
     0
  9
$DIMSCALE
 40
1.0
  9
$DIMASZ
 40
0.5
  9
$DIMEXO
 40
0.0625
  9
$DIMDLI
 40
0.38
  9
$DIMRND
 40
0.0
  9
$DIMDLE
 40
0.0
  9
$DIMEXE
 40
0.18
  9
$DIMTP
 40
0.0
  9
$DIMTM
 40
0.0
  9
$DIMTXT
 40
0.5
  9
$DIMCEN
 40
0.09
  9
$DIMTSZ
 40
0.0
  9
$DIMTOL
 70
     0
  9
$DIMLIM
 70
     0
  9
$DIMTIH
 70
     1
  9
$DIMTOH
 70
     1
  9
$DIMSE1
 70
     0
  9
$DIMSE2
 70
     0
  9
$DIMTAD
 70
     0
  9
$DIMZIN
 70
     0
  9
$DIMBLK
  1

  9
$DIMASO
 70
     1
  9
$DIMSHO
 70
     1
  9
$DIMPOST
  1

  9
$DIMAPOST
  1

  9
$DIMALT
 70
     0
  9
$DIMALTD
 70
     2
  9
$DIMALTF
 40
25.4
  9
$DIMLFAC
 40
1.0
  9
$DIMTOFL
 70
     0
  9
$DIMTVP
 40
0.0
  9
$DIMTIX
 70
     0
  9
$DIMSOXD
 70
     0
  9
$DIMSAH
 70
     0
  9
$DIMBLK1
  1

  9
$DIMBLK2
  1

  9
$DIMSTYLE
  2
Standard
  9
$DIMCLRD
 70
     0
  9
$DIMCLRE
 70
     0
  9
$DIMCLRT
 70
     0
  9
$DIMTFAC
 40
1.0
  9
$DIMGAP
 40
0.09
  9
$DIMJUST
 70
     0
  9
$DIMSD1
 70
     0
  9
$DIMSD2
 70
     0
  9
$DIMTOLJ
 70
     1
  9
$DIMTZIN
 70
     0
  9
$DIMALTZ
 70
     0
  9
$DIMALTTZ
 70
     0
  9
$DIMUPT
 70
     0
  9
$DIMDEC
 70
     3
  9
$DIMTDEC
 70
     3
  9
$DIMALTU
 70
     2
  9
$DIMALTTD
 70
     2
  9
$DIMTXSTY
  7
Standard
  9
$DIMAUNIT
 70
     0
  9
$DIMADEC
 70
     0
  9
$DIMALTRND
 40
0.0
  9
$DIMAZIN
 70
     0
  9
$DIMDSEP
 70
    46
  9
$DIMATFIT
 70
     3
  9
$DIMFRAC
 70
     0
  9
$DIMLDRBLK
  1

  9
$DIMLUNIT
 70
     2
  9
$DIMLWD
 70
    -2
  9
$DIMLWE
 70
    -2
  9
$DIMTMOVE
 70
     0
  9
$LUNITS
 70
     2
  9
$LUPREC
 70
     4
  9
$SKETCHINC
 40
0.1
  9
$FILLETRAD
 40
0.0
  9
$AUNITS
 70
     0
  9
$AUPREC
 70
     0
  9
$MENU
  1
.
  9
$ELEVATION
 40
0.0
  9
$PELEVATION
 40
0.0
  9
$THICKNESS
 40
0.0
  9
$LIMCHECK
 70
     0
  9
$CHAMFERA
 40
0.0
  9
$CHAMFERB
 40
0.0
  9
$CHAMFERC
 40
0.0
  9
$CHAMFERD
 40
0.0
  9
$SKPOLY
 70
     0
  9
$TDCREATE
 40
2454314.352654259
  9
$TDUCREATE
 40
2454314.519320926
  9
$TDUPDATE
 40
2455097.596745509
  9
$TDUUPDATE
 40
2455097.763412176
  9
$TDINDWG
 40
0.1110228819
  9
$TDUSRTIMER
 40
0.1110223495
  9
$USRTIMER
 70
     1
  9
$ANGBASE
 50
0.0
  9
$ANGDIR
 70
     0
  9
$PDMODE
 70
     0
  9
$PDSIZE
 40
0.0
  9
$PLINEWID
 40
0.0
  9
$SPLFRAME
 70
     0
  9
$SPLINETYPE
 70
     6
  9
$SPLINESEGS
 70
     8
  9
$HANDSEED
  5
EB7
  9
$SURFTAB1
 70
     6
  9
$SURFTAB2
 70
     6
  9
$SURFTYPE
 70
     6
  9
$SURFU
 70
     6
  9
$SURFV
 70
     6
  9
$UCSBASE
  2

  9
$UCSNAME
  2

  9
$UCSORG
 10
22.93545079162933
 20
-15.64238256092145
 30
0.0
  9
$UCSXDIR
 10
1.0
 20
0.0
 30
0.0
  9
$UCSYDIR
 10
0.0
 20
1.0
 30
0.0
  9
$UCSORTHOREF
  2

  9
$UCSORTHOVIEW
 70
     0
  9
$UCSORGTOP
 10
0.0
 20
0.0
 30
0.0
  9
$UCSORGBOTTOM
 10
0.0
 20
0.0
 30
0.0
  9
$UCSORGLEFT
 10
0.0
 20
0.0
 30
0.0
  9
$UCSORGRIGHT
 10
0.0
 20
0.0
 30
0.0
  9
$UCSORGFRONT
 10
0.0
 20
0.0
 30
0.0
  9
$UCSORGBACK
 10
0.0
 20
0.0
 30
0.0
  9
$PUCSBASE
  2

  9
$PUCSNAME
  2

  9
$PUCSORG
 10
0.0
 20
0.0
 30
0.0
  9
$PUCSXDIR
 10
1.0
 20
0.0
 30
0.0
  9
$PUCSYDIR
 10
0.0
 20
1.0
 30
0.0
  9
$PUCSORTHOREF
  2

  9
$PUCSORTHOVIEW
 70
     0
  9
$PUCSORGTOP
 10
0.0
 20
0.0
 30
0.0
  9
$PUCSORGBOTTOM
 10
0.0
 20
0.0
 30
0.0
  9
$PUCSORGLEFT
 10
0.0
 20
0.0
 30
0.0
  9
$PUCSORGRIGHT
 10
0.0
 20
0.0
 30
0.0
  9
$PUCSORGFRONT
 10
0.0
 20
0.0
 30
0.0
  9
$PUCSORGBACK
 10
0.0
 20
0.0
 30
0.0
  9
$USERI1
 70
     0
  9
$USERI2
 70
     0
  9
$USERI3
 70
     0
  9
$USERI4
 70
     0
  9
$USERI5
 70
     0
  9
$USERR1
 40
0.0
  9
$USERR2
 40
0.0
  9
$USERR3
 40
0.0
  9
$USERR4
 40
0.0
  9
$USERR5
 40
0.0
  9
$WORLDVIEW
 70
     1
  9
$SHADEDGE
 70
     3
  9
$SHADEDIF
 70
    70
  9
$TILEMODE
 70
     1
  9
$MAXACTVP
 70
    64
  9
$PINSBASE
 10
0.0
 20
0.0
 30
0.0
  9
$PLIMCHECK
 70
     0
  9
$PEXTMIN
 10
0.0
 20
0.0
 30
0.0
  9
$PEXTMAX
 10
0.0
 20
0.0
 30
0.0
  9
$PLIMMIN
 10
0.0
 20
0.0
  9
$PLIMMAX
 10
12.0
 20
9.0
  9
$UNITMODE
 70
     0
  9
$VISRETAIN
 70
     1
  9
$PLINEGEN
 70
     0
  9
$PSLTSCALE
 70
     1
  9
$TREEDEPTH
 70
  3020
  9
$CMLSTYLE
  2
Standard
  9
$CMLJUST
 70
     0
  9
$CMLSCALE
 40
1.0
  9
$PROXYGRAPHICS
 70
     1
  9
$MEASUREMENT
 70
     0
  9
$CELWEIGHT
370
    -1
  9
$ENDCAPS
280
     0
  9
$JOINSTYLE
280
     0
  9
$LWDISPLAY
290
     0
  9
$INSUNITS
 70
     1
  9
$HYPERLINKBASE
  1

  9
$STYLESHEET
  1
MONOCHROME.CTB
  9
$XEDIT
290
     1
  9
$CEPSNTYPE
380
     0
  9
$PSTYLEMODE
290
     1
  9
$FINGERPRINTGUID
  2
{FDEAD576-A652-11D2-9A35-0060089B3A3F}
  9
$VERSIONGUID
  2
{5B9A2822-1E22-4205-8C4B-CD9747161E64}
  9
$EXTNAMES
290
     1
  9
$PSVPSCALE
 40
0.0
  9
$OLESTARTUP
290
     0
  0
ENDSEC
  0
SECTION
  2
CLASSES
  0
CLASS
  1
ACDBDICTIONARYWDFLT
  2
AcDbDictionaryWithDefault
  3
ObjectDBX Classes
 90
        0
280
     0
281
     0
  0
CLASS
  1
DICTIONARYVAR
  2
AcDbDictionaryVar
  3
ObjectDBX Classes
 90
        0
280
     0
281
     0
  0
CLASS
  1
SORTENTSTABLE
  2
AcDbSortentsTable
  3
ObjectDBX Classes
 90
        0
280
     0
281
     0
  0
CLASS
  1
DIMASSOC
  2
AcDbDimAssoc
  3
"AcDbDimAssoc|Product Desc:     AcDim ARX App For Dimension|Company:          Autodesk, Inc.|WEB Address:      www.autodesk.com"
 90
        0
280
     0
281
     0
  0
CLASS
  1
ACDBPLACEHOLDER
  2
AcDbPlaceHolder
  3
ObjectDBX Classes
 90
        0
280
     0
281
     0
  0
CLASS
  1
LAYOUT
  2
AcDbLayout
  3
ObjectDBX Classes
 90
        0
280
     0
281
     0
  0
ENDSEC
  0
SECTION
  2
TABLES
  0
TABLE
  2
VPORT
  5
8
330
0
100
AcDbSymbolTable
 70
     4
  0
VPORT
  5
EAC
330
8
100
AcDbSymbolTableRecord
100
AcDbViewportTableRecord
  2
*Active
 70
     0
 10
0.0
 20
0.0
 11
1.0
 21
1.0
 12
28.10374469106008
 22
-25.243876224749
 13
0.0
 23
0.0
 14
0.5
 24
0.5
 15
0.5
 25
0.5
 16
0.0
 26
0.0
 36
1.0
 17
0.0
 27
0.0
 37
0.0
 40
41.30438408177766
 41
1.484472049689441
 42
50.0
 43
0.0
 44
0.0
 50
0.0
 51
0.0
 71
     0
 72
  1000
 73
     1
 74
     3
 75
     0
 76
     0
 77
     0
 78
     0
281
     0
 65
     1
110
22.93545079162933
120
-15.64238256092145
130
0.0
111
1.0
121
0.0
131
0.0
112
0.0
122
1.0
132
0.0
 79
     0
146
0.0
  0
ENDTAB
  0
TABLE
  2
LTYPE
  5
5
330
0
100
AcDbSymbolTable
 70
     3
  0
LTYPE
  5
14
330
5
100
AcDbSymbolTableRecord
100
AcDbLinetypeTableRecord
  2
ByBlock
 70
     0
  3

 72
    65
 73
     0
 40
0.0
  0
LTYPE
  5
15
330
5
100
AcDbSymbolTableRecord
100
AcDbLinetypeTableRecord
  2
ByLayer
 70
     0
  3

 72
    65
 73
     0
 40
0.0
  0
LTYPE
  5
16
330
5
100
AcDbSymbolTableRecord
100
AcDbLinetypeTableRecord
  2
Continuous
 70
     0
  3
Solid line
 72
    65
 73
     0
 40
0.0
  0
LTYPE
  5
9A
330
5
100
AcDbSymbolTableRecord
100
AcDbLinetypeTableRecord
  2
HIDDEN
 70
     0
  3
Hidden __ __ __ __ __ __ __ __ __ __ __ __ __ _
 72
    65
 73
     2
 40
0.375
 49
0.25
 74
     0
 49
-0.125
 74
     0
  0
LTYPE
  5
9B
330
5
100
AcDbSymbolTableRecord
100
AcDbLinetypeTableRecord
  2
DASHED
 70
     0
  3
Dashed __ __ __ __ __ __ __ __ __ __ __ __ __ _
 72
    65
 73
     2
 40
0.75
 49
0.5
 74
     0
 49
-0.25
 74
     0
  0
ENDTAB
  0
TABLE
  2
LAYER
  5
2
102
{ACAD_XDICTIONARY
360
AEA
102
}
330
0
100
AcDbSymbolTable
 70
    14
  0
LAYER
  5
10
330
2
100
AcDbSymbolTableRecord
100
AcDbLayerTableRecord
  2
0
 70
     0
 62
     7
  6
Continuous
370
    -3
390
F
  0
LAYER
  5
89
330
2
100
AcDbSymbolTableRecord
100
AcDbLayerTableRecord
  2
DIMENSION
 70
     0
 62
     7
  6
Continuous
370
    -3
390
F
  0
LAYER
  5
9C
330
2
100
AcDbSymbolTableRecord
100
AcDbLayerTableRecord
  2
FILTER
 70
     0
 62
     7
  6
Continuous
370
    -3
390
F
  0
LAYER
  5
9D
330
2
100
AcDbSymbolTableRecord
100
AcDbLayerTableRecord
  2
100FPWIREBOX
 70
     0
 62
     7
  6
Continuous
370
    -3
390
F
  0
LAYER
  5
9E
330
2
100
AcDbSymbolTableRecord
100
AcDbLayerTableRecord
  2
100FPBASE
 70
     0
 62
     7
  6
Continuous
370
    -3
390
F
  0
LAYER
  5
9F
330
2
100
AcDbSymbolTableRecord
100
AcDbLayerTableRecord
  2
4INFAN
 70
     0
 62
     7
  6
Continuous
370
    -3
390
F
  0
LAYER
  5
A0
330
2
100
AcDbSymbolTableRecord
100
AcDbLayerTableRecord
  2
100 filter cover
 70
     0
 62
     7
  6
Continuous
370
    -3
390
F
  0
LAYER
  5
A1
330
2
100
AcDbSymbolTableRecord
100
AcDbLayerTableRecord
  2
shroud
 70
     0
 62
     7
  6
Continuous
370
    -3
390
F
  0
LAYER
  5
A2
330
2
100
AcDbSymbolTableRecord
100
AcDbLayerTableRecord
  2
4FNGRGD
 70
     0
 62
     7
  6
Continuous
370
    -3
390
F
  0
LAYER
  5
446
330
2
100
AcDbSymbolTableRecord
100
AcDbLayerTableRecord
  2
Defpoints
 70
     0
 62
     7
  6
Continuous
290
     0
370
    -3
390
F
  0
LAYER
  5
7DA
330
2
100
AcDbSymbolTableRecord
100
AcDbLayerTableRecord
  2
OBJ
 70
     0
 62
     7
  6
Continuous
370
    -3
390
F
  0
LAYER
  5
AE8
330
2
100
AcDbSymbolTableRecord
100
AcDbLayerTableRecord
  2
TEXT
 70
     0
 62
    -7
  6
Continuous
370
    -3
390
F
  0
LAYER
  5
AE9
330
2
100
AcDbSymbolTableRecord
100
AcDbLayerTableRecord
  2
BORDER
 70
     0
 62
     7
  6
Continuous
370
    -3
390
F
  0
LAYER
  5
D51
330
2
100
AcDbSymbolTableRecord
100
AcDbLayerTableRecord
  2
TEMPLATE
 70
     0
 62
     7
  6
Continuous
370
    -3
390
F
  0
ENDTAB
  0
TABLE
  2
STYLE
  5
3
330
0
100
AcDbSymbolTable
 70
     1
  0
STYLE
  5
11
330
3
100
AcDbSymbolTableRecord
100
AcDbTextStyleTableRecord
  2
Standard
 70
     0
 40
0.0
 41
1.0
 50
0.0
 71
     0
 42
0.2
  3
txt
  4

  0
ENDTAB
  0
TABLE
  2
VIEW
  5
6
330
0
100
AcDbSymbolTable
 70
     0
  0
ENDTAB
  0
TABLE
  2
UCS
  5
7
330
0
100
AcDbSymbolTable
 70
     0
  0
ENDTAB
  0
TABLE
  2
APPID
  5
9
330
0
100
AcDbSymbolTable
 70
     1
  0
APPID
  5
12
330
9
100
AcDbSymbolTableRecord
100
AcDbRegAppTableRecord
  2
ACAD
 70
     0
  0
ENDTAB
  0
TABLE
  2
DIMSTYLE
  5
A
330
0
100
AcDbSymbolTable
 70
     1
100
AcDbDimStyleTable
 71
     1
340
27
  0
DIMSTYLE
105
27
102
{ACAD_REACTORS
330
445
330
456
330
46A
330
49A
330
4AA
330
4B3
330
4BD
330
4CD
330
4DD
330
4E6
330
4F6
330
506
330
E40
102
}
330
A
100
AcDbSymbolTableRecord
100
AcDbDimStyleTableRecord
  2
Standard
 70
     0
 41
0.5
140
0.5
271
     3
272
     3
340
11
  0
ENDTAB
  0
TABLE
  2
BLOCK_RECORD
  5
1
330
0
100
AcDbSymbolTable
 70
    52
  0
BLOCK_RECORD
  5
1F
330
1
100
AcDbSymbolTableRecord
100
AcDbBlockTableRecord
  2
*Model_Space
340
22
  0
BLOCK_RECORD
  5
58
330
1
100
AcDbSymbolTableRecord
100
AcDbBlockTableRecord
  2
*Paper_Space
340
59
  0
BLOCK_RECORD
  5
5D
330
1
100
AcDbSymbolTableRecord
100
AcDbBlockTableRecord
  2
*Paper_Space0
340
5E
  0
BLOCK_RECORD
  5
447
330
1
100
AcDbSymbolTableRecord
100
AcDbBlockTableRecord
  2
*D1
340
0
  0
BLOCK_RECORD
  5
457
330
1
100
AcDbSymbolTableRecord
100
AcDbBlockTableRecord
  2
*D2
340
0
  0
BLOCK_RECORD
  5
46B
330
1
100
AcDbSymbolTableRecord
100
AcDbBlockTableRecord
  2
*D3
340
0
  0
BLOCK_RECORD
  5
49B
330
1
100
AcDbSymbolTableRecord
100
AcDbBlockTableRecord
  2
*D4
340
0
  0
BLOCK_RECORD
  5
4AB
330
1
100
AcDbSymbolTableRecord
100
AcDbBlockTableRecord
  2
*D5
340
0
  0
BLOCK_RECORD
  5
4B4
330
1
100
AcDbSymbolTableRecord
100
AcDbBlockTableRecord
  2
*D6
340
0
  0
BLOCK_RECORD
  5
4BE
330
1
100
AcDbSymbolTableRecord
100
AcDbBlockTableRecord
  2
*D7
340
0
  0
BLOCK_RECORD
  5
4CE
330
1
100
AcDbSymbolTableRecord
100
AcDbBlockTableRecord
  2
*D8
340
0
  0
BLOCK_RECORD
  5
4DE
330
1
100
AcDbSymbolTableRecord
100
AcDbBlockTableRecord
  2
*D9
340
0
  0
BLOCK_RECORD
  5
4E7
330
1
100
AcDbSymbolTableRecord
100
AcDbBlockTableRecord
  2
*D10
340
0
  0
BLOCK_RECORD
  5
4F7
330
1
100
AcDbSymbolTableRecord
100
AcDbBlockTableRecord
  2
*D11
340
0
  0
BLOCK_RECORD
  5
507
330
1
100
AcDbSymbolTableRecord
100
AcDbBlockTableRecord
  2
*D12
340
0
  0
BLOCK_RECORD
  5
528
102
{ACAD_XDICTIONARY
360
6F7
102
}
330
1
100
AcDbSymbolTableRecord
100
AcDbBlockTableRecord
  2
A$C1A523781
340
0
  0
BLOCK_RECORD
  5
720
330
1
100
AcDbSymbolTableRecord
100
AcDbBlockTableRecord
  2
*D14
340
0
  0
BLOCK_RECORD
  5
73A
330
1
100
AcDbSymbolTableRecord
100
AcDbBlockTableRecord
  2
*D15
340
0
  0
BLOCK_RECORD
  5
768
330
1
100
AcDbSymbolTableRecord
100
AcDbBlockTableRecord
  2
*D16
340
0
  0
BLOCK_RECORD
  5
782
330
1
100
AcDbSymbolTableRecord
100
AcDbBlockTableRecord
  2
*D17
340
0
  0
BLOCK_RECORD
  5
79D
330
1
100
AcDbSymbolTableRecord
100
AcDbBlockTableRecord
  2
*D18
340
0
  0
BLOCK_RECORD
  5
7B7
330
1
100
AcDbSymbolTableRecord
100
AcDbBlockTableRecord
  2
*D19
340
0
  0
BLOCK_RECORD
  5
AEC
330
1
100
AcDbSymbolTableRecord
100
AcDbBlockTableRecord
  2
A$C707F3AEC
340
0
  0
BLOCK_RECORD
  5
CAB
330
1
100
AcDbSymbolTableRecord
100
AcDbBlockTableRecord
  2
*U21
340
0
  0
BLOCK_RECORD
  5
CBC
330
1
100
AcDbSymbolTableRecord
100
AcDbBlockTableRecord
  2
*U22
340
0
  0
BLOCK_RECORD
  5
CC1
330
1
100
AcDbSymbolTableRecord
100
AcDbBlockTableRecord
  2
*U23
340
0
  0
BLOCK_RECORD
  5
CF1
330
1
100
AcDbSymbolTableRecord
100
AcDbBlockTableRecord
  2
*D24
340
0
  0
BLOCK_RECORD
  5
CF9
330
1
100
AcDbSymbolTableRecord
100
AcDbBlockTableRecord
  2
*D25
340
0
  0
BLOCK_RECORD
  5
D01
330
1
100
AcDbSymbolTableRecord
100
AcDbBlockTableRecord
  2
*D26
340
0
  0
BLOCK_RECORD
  5
D09
330
1
100
AcDbSymbolTableRecord
100
AcDbBlockTableRecord
  2
*D27
340
0
  0
BLOCK_RECORD
  5
D11
330
1
100
AcDbSymbolTableRecord
100
AcDbBlockTableRecord
  2
*D28
340
0
  0
BLOCK_RECORD
  5
D19
330
1
100
AcDbSymbolTableRecord
100
AcDbBlockTableRecord
  2
*D29
340
0
  0
BLOCK_RECORD
  5
D21
330
1
100
AcDbSymbolTableRecord
100
AcDbBlockTableRecord
  2
*D30
340
0
  0
BLOCK_RECORD
  5
D29
330
1
100
AcDbSymbolTableRecord
100
AcDbBlockTableRecord
  2
*D31
340
0
  0
BLOCK_RECORD
  5
D31
330
1
100
AcDbSymbolTableRecord
100
AcDbBlockTableRecord
  2
*D32
340
0
  0
BLOCK_RECORD
  5
D39
330
1
100
AcDbSymbolTableRecord
100
AcDbBlockTableRecord
  2
*D33
340
0
  0
BLOCK_RECORD
  5
D41
330
1
100
AcDbSymbolTableRecord
100
AcDbBlockTableRecord
  2
*D34
340
0
  0
BLOCK_RECORD
  5
D49
330
1
100
AcDbSymbolTableRecord
100
AcDbBlockTableRecord
  2
*D35
340
0
  0
BLOCK_RECORD
  5
D8A
330
1
100
AcDbSymbolTableRecord
100
AcDbBlockTableRecord
  2
*D36
340
0
  0
BLOCK_RECORD
  5
D92
330
1
100
AcDbSymbolTableRecord
100
AcDbBlockTableRecord
  2
*D37
340
0
  0
BLOCK_RECORD
  5
D9A
330
1
100
AcDbSymbolTableRecord
100
AcDbBlockTableRecord
  2
*D38
340
0
  0
BLOCK_RECORD
  5
DA2
330
1
100
AcDbSymbolTableRecord
100
AcDbBlockTableRecord
  2
*D39
340
0
  0
BLOCK_RECORD
  5
DAA
330
1
100
AcDbSymbolTableRecord
100
AcDbBlockTableRecord
  2
*D40
340
0
  0
BLOCK_RECORD
  5
DB2
330
1
100
AcDbSymbolTableRecord
100
AcDbBlockTableRecord
  2
*D41
340
0
  0
BLOCK_RECORD
  5
DBA
330
1
100
AcDbSymbolTableRecord
100
AcDbBlockTableRecord
  2
*D42
340
0
  0
BLOCK_RECORD
  5
DC2
330
1
100
AcDbSymbolTableRecord
100
AcDbBlockTableRecord
  2
*D43
340
0
  0
BLOCK_RECORD
  5
DCA
330
1
100
AcDbSymbolTableRecord
100
AcDbBlockTableRecord
  2
*D44
340
0
  0
BLOCK_RECORD
  5
DD2
330
1
100
AcDbSymbolTableRecord
100
AcDbBlockTableRecord
  2
*D45
340
0
  0
BLOCK_RECORD
  5
DDA
330
1
100
AcDbSymbolTableRecord
100
AcDbBlockTableRecord
  2
*D46
340
0
  0
BLOCK_RECORD
  5
DE2
330
1
100
AcDbSymbolTableRecord
100
AcDbBlockTableRecord
  2
*D47
340
0
  0
BLOCK_RECORD
  5
E27
330
1
100
AcDbSymbolTableRecord
100
AcDbBlockTableRecord
  2
*D48
340
0
  0
BLOCK_RECORD
  5
E41
330
1
100
AcDbSymbolTableRecord
100
AcDbBlockTableRecord
  2
*D49
340
0
  0
BLOCK_RECORD
  5
E5B
330
1
100
AcDbSymbolTableRecord
100
AcDbBlockTableRecord
  2
*D50
340
0
  0
BLOCK_RECORD
  5
E75
330
1
100
AcDbSymbolTableRecord
100
AcDbBlockTableRecord
  2
*D51
340
0
  0
ENDTAB
  0
ENDSEC
  0
SECTION
  2
BLOCKS
  0
BLOCK
  5
20
330
1F
100
AcDbEntity
  8
0
100
AcDbBlockBegin
  2
*Model_Space
 70
     0
 10
0.0
 20
0.0
 30
0.0
  3
*Model_Space
  1

  0
ENDBLK
  5
21
330
1F
100
AcDbEntity
  8
0
100
AcDbBlockEnd
  0
BLOCK
  5
5A
330
58
100
AcDbEntity
 67
     1
  8
0
100
AcDbBlockBegin
  2
*Paper_Space
 70
     0
 10
0.0
 20
0.0
 30
0.0
  3
*Paper_Space
  1

  0
ENDBLK
  5
5B
330
58
100
AcDbEntity
 67
     1
  8
0
100
AcDbBlockEnd
  0
BLOCK
  5
5F
330
5D
100
AcDbEntity
  8
0
100
AcDbBlockBegin
  2
*Paper_Space0
 70
     0
 10
0.0
 20
0.0
 30
0.0
  3
*Paper_Space0
  1

  0
ENDBLK
  5
60
330
5D
100
AcDbEntity
  8
0
100
AcDbBlockEnd
  0
BLOCK
  5
44D
330
447
100
AcDbEntity
  8
0
100
AcDbBlockBegin
  2
*D1
 70
     1
 10
0.0
 20
0.0
 30
0.0
  3
*D1
  1

  0
LINE
  5
A56
330
447
100
AcDbEntity
  8
0
 62
     0
370
    -2
100
AcDbLine
 10
22.87295079162932
 20
-28.3094853773855
 30
0.0
 11
21.93545079162932
 21
-28.30948537738633
 31
0.0
  0
MTEXT
  5
A57
330
447
100
AcDbEntity
  8
0
 62
     0
100
AcDbMText
 10
21.012117458296
 20
-28.30948537738633
 30
0.0
 40
0.5
 41
0.0
 71
     5
 72
     1
  1
\A1;0.000
 73
     1
 44
1.0
1001
ACAD
1000
MTEXTBEGIN
1070
    73
1070
     1
1070
    44
1040
1.0
1070
    74
1070
     0
1000
MTEXTEND
  0
POINT
  5
A58
330
447
100
AcDbEntity
  8
Defpoints
 62
     0
100
AcDbPoint
 10
22.93545079162933
 20
-28.3094853773855
 30
0.0
  0
POINT
  5
A59
330
447
100
AcDbEntity
  8
Defpoints
 62
     0
100
AcDbPoint
 10
21.93545079162932
 20
-28.30948537738633
 30
0.0
  0
POINT
  5
A5A
330
447
100
AcDbEntity
  8
Defpoints
 62
     0
100
AcDbPoint
 10
22.93545079162933
 20
-28.3094853773855
 30
0.0
  0
ENDBLK
  5
44E
330
447
100
AcDbEntity
  8
0
100
AcDbBlockEnd
  0
BLOCK
  5
45D
330
457
100
AcDbEntity
  8
0
100
AcDbBlockBegin
  2
*D2
 70
     1
 10
0.0
 20
0.0
 30
0.0
  3
*D2
  1

  0
LINE
  5
A5B
330
457
100
AcDbEntity
  8
0
 62
     0
370
    -2
100
AcDbLine
 10
22.93545079162949
 20
-28.37198537738574
 30
0.0
 11
22.93545079162949
 21
-29.30948537738574
 31
0.0
  0
MTEXT
  5
A5C
330
457
100
AcDbEntity
  8
0
 62
     0
100
AcDbMText
 10
22.93545079162949
 20
-30.23281871071907
 30
0.0
 40
0.5
 41
0.0
 71
     5
 72
     1
  1
\A1;0.000
 11
0.0000000000000001
 21
1.0
 31
0.0
 73
     1
 44
1.0
1001
ACAD
1000
MTEXTBEGIN
1070
    73
1070
     1
1070
    44
1040
1.0
1070
    74
1070
     0
1000
MTEXTEND
  0
POINT
  5
A5D
330
457
100
AcDbEntity
  8
Defpoints
 62
     0
100
AcDbPoint
 10
22.93545079162949
 20
-28.30948537738574
 30
0.0
  0
POINT
  5
A5E
330
457
100
AcDbEntity
  8
Defpoints
 62
     0
100
AcDbPoint
 10
22.93545079162949
 20
-29.30948537738574
 30
0.0
  0
POINT
  5
A5F
330
457
100
AcDbEntity
  8
Defpoints
 62
     0
100
AcDbPoint
 10
22.93545079162933
 20
-28.3094853773855
 30
0.0
  0
ENDBLK
  5
45E
330
457
100
AcDbEntity
  8
0
100
AcDbBlockEnd
  0
BLOCK
  5
471
330
46B
100
AcDbEntity
  8
0
100
AcDbBlockBegin
  2
*D3
 70
     1
 10
0.0
 20
0.0
 30
0.0
  3
*D3
  1

  0
LINE
  5
A60
330
46B
100
AcDbEntity
  8
0
 62
     0
370
    -2
100
AcDbLine
 10
23.94795079162935
 20
-27.10448537738552
 30
0.0
 11
21.93545079162933
 21
-27.10448537738552
 31
0.0
  0
MTEXT
  5
A61
330
46B
100
AcDbEntity
  8
0
 62
     0
100
AcDbMText
 10
20.137117458296
 20
-27.10448537738552
 30
0.0
 40
0.5
 41
0.0
 71
     5
 72
     1
  1
\A1;(2) 1.205
 73
     1
 44
1.0
1001
ACAD
1000
MTEXTBEGIN
1070
    73
1070
     1
1070
    44
1040
1.0
1070
    74
1070
     0
1000
MTEXTEND
  0
POINT
  5
A62
330
46B
100
AcDbEntity
  8
Defpoints
 62
     0
100
AcDbPoint
 10
24.01045079162936
 20
-27.10448537738552
 30
0.0
  0
POINT
  5
A63
330
46B
100
AcDbEntity
  8
Defpoints
 62
     0
100
AcDbPoint
 10
21.93545079162933
 20
-27.10448537738552
 30
0.0
  0
POINT
  5
A64
330
46B
100
AcDbEntity
  8
Defpoints
 62
     0
100
AcDbPoint
 10
22.93545079162933
 20
-28.3094853773855
 30
0.0
  0
ENDBLK
  5
472
330
46B
100
AcDbEntity
  8
0
100
AcDbBlockEnd
  0
BLOCK
  5
4A1
330
49B
100
AcDbEntity
  8
0
100
AcDbBlockBegin
  2
*D4
 70
     1
 10
0.0
 20
0.0
 30
0.0
  3
*D4
  1

  0
LINE
  5
A65
330
49B
100
AcDbEntity
  8
0
 62
     0
370
    -2
100
AcDbLine
 10
23.94795079162935
 20
-19.82448537738548
 30
0.0
 11
21.93545079162933
 21
-19.82448537738548
 31
0.0
  0
MTEXT
  5
A66
330
49B
100
AcDbEntity
  8
0
 62
     0
100
AcDbMText
 10
20.012117458296
 20
-19.82448537738548
 30
0.0
 40
0.5
 41
0.0
 71
     5
 72
     1
  1
\A1;(2) 8.485
 73
     1
 44
1.0
1001
ACAD
1000
MTEXTBEGIN
1070
    73
1070
     1
1070
    44
1040
1.0
1070
    74
1070
     0
1000
MTEXTEND
  0
POINT
  5
A67
330
49B
100
AcDbEntity
  8
Defpoints
 62
     0
100
AcDbPoint
 10
24.01045079162936
 20
-19.82448537738548
 30
0.0
  0
POINT
  5
A68
330
49B
100
AcDbEntity
  8
Defpoints
 62
     0
100
AcDbPoint
 10
21.93545079162933
 20
-19.82448537738548
 30
0.0
  0
POINT
  5
A69
330
49B
100
AcDbEntity
  8
Defpoints
 62
     0
100
AcDbPoint
 10
22.93545079162933
 20
-28.3094853773855
 30
0.0
  0
ENDBLK
  5
4A2
330
49B
100
AcDbEntity
  8
0
100
AcDbBlockEnd
  0
BLOCK
  5
4B1
330
4AB
100
AcDbEntity
  8
0
100
AcDbBlockBegin
  2
*D5
 70
     1
 10
0.0
 20
0.0
 30
0.0
  3
*D5
  1

  0
LINE
  5
A6A
330
4AB
100
AcDbEntity
  8
0
 62
     0
370
    -2
100
AcDbLine
 10
24.01045079162936
 20
-27.16698537738551
 30
0.0
 11
24.01045079162936
 21
-29.30948537738574
 31
0.0
  0
MTEXT
  5
A6B
330
4AB
100
AcDbEntity
  8
0
 62
     0
100
AcDbMText
 10
24.01045079162937
 20
-31.10781871071907
 30
0.0
 40
0.5
 41
0.0
 71
     5
 72
     1
  1
\A1;(2) 1.075
 11
0.0000000000000001
 21
1.0
 31
0.0
 73
     1
 44
1.0
1001
ACAD
1000
MTEXTBEGIN
1070
    73
1070
     1
1070
    44
1040
1.0
1070
    74
1070
     0
1000
MTEXTEND
  0
POINT
  5
A6C
330
4AB
100
AcDbEntity
  8
Defpoints
 62
     0
100
AcDbPoint
 10
24.01045079162936
 20
-27.10448537738552
 30
0.0
  0
POINT
  5
A6D
330
4AB
100
AcDbEntity
  8
Defpoints
 62
     0
100
AcDbPoint
 10
24.01045079162936
 20
-29.30948537738574
 30
0.0
  0
POINT
  5
A6E
330
4AB
100
AcDbEntity
  8
Defpoints
 62
     0
100
AcDbPoint
 10
22.93545079162933
 20
-28.3094853773855
 30
0.0
  0
ENDBLK
  5
4B2
330
4AB
100
AcDbEntity
  8
0
100
AcDbBlockEnd
  0
BLOCK
  5
4BA
330
4B4
100
AcDbEntity
  8
0
100
AcDbBlockBegin
  2
*D6
 70
     1
 10
0.0
 20
0.0
 30
0.0
  3
*D6
  1

  0
LINE
  5
A6F
330
4B4
100
AcDbEntity
  8
0
 62
     0
370
    -2
100
AcDbLine
 10
24.38545079162942
 20
-20.1369853773855
 30
0.0
 11
24.38545079162942
 21
-18.49948537738525
 31
0.0
  0
MTEXT
  5
A70
330
4B4
100
AcDbEntity
  8
0
 62
     0
100
AcDbMText
 10
24.38545079162942
 20
-17.53448537738525
 30
0.0
 40
0.5
 41
0.0
 71
     5
 72
     1
  1
\A1;1.450
 11
0.0000000000000001
 21
1.0
 31
0.0
 73
     1
 44
1.0
1001
ACAD
1000
MTEXTBEGIN
1070
    73
1070
     1
1070
    44
1040
1.0
1070
    74
1070
     0
1000
MTEXTEND
  0
POINT
  5
A71
330
4B4
100
AcDbEntity
  8
Defpoints
 62
     0
100
AcDbPoint
 10
24.38545079162942
 20
-20.1994853773855
 30
0.0
  0
POINT
  5
A72
330
4B4
100
AcDbEntity
  8
Defpoints
 62
     0
100
AcDbPoint
 10
24.38545079162942
 20
-18.49948537738525
 30
0.0
  0
POINT
  5
A73
330
4B4
100
AcDbEntity
  8
Defpoints
 62
     0
100
AcDbPoint
 10
22.93545079162933
 20
-28.3094853773855
 30
0.0
  0
ENDBLK
  5
4BB
330
4B4
100
AcDbEntity
  8
0
100
AcDbBlockEnd
  0
BLOCK
  5
4C4
330
4BE
100
AcDbEntity
  8
0
100
AcDbBlockBegin
  2
*D7
 70
     1
 10
0.0
 20
0.0
 30
0.0
  3
*D7
  1

  0
LINE
  5
A74
330
4BE
100
AcDbEntity
  8
0
 62
     0
370
    -2
100
AcDbLine
 10
30.91545079162953
 20
-20.1369853773855
 30
0.0
 11
30.91545079162953
 21
-18.49948537738525
 31
0.0
  0
MTEXT
  5
A75
330
4BE
100
AcDbEntity
  8
0
 62
     0
100
AcDbMText
 10
30.91545079162954
 20
-17.45115204405192
 30
0.0
 40
0.5
 41
0.0
 71
     5
 72
     1
  1
\A1;7.980
 11
0.0000000000000001
 21
1.0
 31
0.0
 73
     1
 44
1.0
1001
ACAD
1000
MTEXTBEGIN
1070
    73
1070
     1
1070
    44
1040
1.0
1070
    74
1070
     0
1000
MTEXTEND
  0
POINT
  5
A76
330
4BE
100
AcDbEntity
  8
Defpoints
 62
     0
100
AcDbPoint
 10
30.91545079162953
 20
-20.1994853773855
 30
0.0
  0
POINT
  5
A77
330
4BE
100
AcDbEntity
  8
Defpoints
 62
     0
100
AcDbPoint
 10
30.91545079162953
 20
-18.49948537738525
 30
0.0
  0
POINT
  5
A78
330
4BE
100
AcDbEntity
  8
Defpoints
 62
     0
100
AcDbPoint
 10
22.93545079162933
 20
-28.3094853773855
 30
0.0
  0
ENDBLK
  5
4C5
330
4BE
100
AcDbEntity
  8
0
100
AcDbBlockEnd
  0
BLOCK
  5
4D4
330
4CE
100
AcDbEntity
  8
0
100
AcDbBlockBegin
  2
*D8
 70
     1
 10
0.0
 20
0.0
 30
0.0
  3
*D8
  1

  0
LINE
  5
A79
330
4CE
100
AcDbEntity
  8
0
 62
     0
370
    -2
100
AcDbLine
 10
31.29045079162934
 20
-27.16698537738551
 30
0.0
 11
31.29045079162934
 21
-29.30948537738574
 31
0.0
  0
MTEXT
  5
A7A
330
4CE
100
AcDbEntity
  8
0
 62
     0
100
AcDbMText
 10
31.29045079162934
 20
-31.23281871071907
 30
0.0
 40
0.5
 41
0.0
 71
     5
 72
     1
  1
\A1;(2) 8.355
 11
0.0000000000000001
 21
1.0
 31
0.0
 73
     1
 44
1.0
1001
ACAD
1000
MTEXTBEGIN
1070
    73
1070
     1
1070
    44
1040
1.0
1070
    74
1070
     0
1000
MTEXTEND
  0
POINT
  5
A7B
330
4CE
100
AcDbEntity
  8
Defpoints
 62
     0
100
AcDbPoint
 10
31.29045079162934
 20
-27.10448537738552
 30
0.0
  0
POINT
  5
A7C
330
4CE
100
AcDbEntity
  8
Defpoints
 62
     0
100
AcDbPoint
 10
31.29045079162934
 20
-29.30948537738574
 30
0.0
  0
POINT
  5
A7D
330
4CE
100
AcDbEntity
  8
Defpoints
 62
     0
100
AcDbPoint
 10
22.93545079162933
 20
-28.3094853773855
 30
0.0
  0
ENDBLK
  5
4D5
330
4CE
100
AcDbEntity
  8
0
100
AcDbBlockEnd
  0
BLOCK
  5
4E4
330
4DE
100
AcDbEntity
  8
0
100
AcDbBlockBegin
  2
*D9
 70
     1
 10
0.0
 20
0.0
 30
0.0
  3
*D9
  1

  0
LINE
  5
A7E
330
4DE
100
AcDbEntity
  8
0
 62
     0
370
    -2
100
AcDbLine
 10
30.97795079162954
 20
-20.1994853773855
 30
0.0
 11
33.36545079162942
 21
-20.1994853773855
 31
0.0
  0
MTEXT
  5
A7F
330
4DE
100
AcDbEntity
  8
0
 62
     0
100
AcDbMText
 10
34.24711745829609
 20
-20.1994853773855
 30
0.0
 40
0.5
 41
0.0
 71
     5
 72
     1
  1
\A1;8.110
 73
     1
 44
1.0
1001
ACAD
1000
MTEXTBEGIN
1070
    73
1070
     1
1070
    44
1040
1.0
1070
    74
1070
     0
1000
MTEXTEND
  0
POINT
  5
A80
330
4DE
100
AcDbEntity
  8
Defpoints
 62
     0
100
AcDbPoint
 10
30.91545079162953
 20
-20.1994853773855
 30
0.0
  0
POINT
  5
A81
330
4DE
100
AcDbEntity
  8
Defpoints
 62
     0
100
AcDbPoint
 10
33.36545079162942
 20
-20.1994853773855
 30
0.0
  0
POINT
  5
A82
330
4DE
100
AcDbEntity
  8
Defpoints
 62
     0
100
AcDbPoint
 10
22.93545079162933
 20
-28.3094853773855
 30
0.0
  0
ENDBLK
  5
4E5
330
4DE
100
AcDbEntity
  8
0
100
AcDbBlockEnd
  0
BLOCK
  5
4ED
330
4E7
100
AcDbEntity
  8
0
100
AcDbBlockBegin
  2
*D10
 70
     1
 10
0.0
 20
0.0
 30
0.0
  3
*D10
  1

  0
LINE
  5
A83
330
4E7
100
AcDbEntity
  8
0
 62
     0
370
    -2
100
AcDbLine
 10
30.97795079162951
 20
-26.7294853773855
 30
0.0
 11
33.36545079162942
 21
-26.7294853773855
 31
0.0
  0
MTEXT
  5
A84
330
4E7
100
AcDbEntity
  8
0
 62
     0
100
AcDbMText
 10
34.33045079162943
 20
-26.7294853773855
 30
0.0
 40
0.5
 41
0.0
 71
     5
 72
     1
  1
\A1;1.580
 73
     1
 44
1.0
1001
ACAD
1000
MTEXTBEGIN
1070
    73
1070
     1
1070
    44
1040
1.0
1070
    74
1070
     0
1000
MTEXTEND
  0
POINT
  5
A85
330
4E7
100
AcDbEntity
  8
Defpoints
 62
     0
100
AcDbPoint
 10
30.91545079162951
 20
-26.7294853773855
 30
0.0
  0
POINT
  5
A86
330
4E7
100
AcDbEntity
  8
Defpoints
 62
     0
100
AcDbPoint
 10
33.36545079162942
 20
-26.7294853773855
 30
0.0
  0
POINT
  5
A87
330
4E7
100
AcDbEntity
  8
Defpoints
 62
     0
100
AcDbPoint
 10
22.93545079162933
 20
-28.3094853773855
 30
0.0
  0
ENDBLK
  5
4EE
330
4E7
100
AcDbEntity
  8
0
100
AcDbBlockEnd
  0
BLOCK
  5
4FD
330
4F7
100
AcDbEntity
  8
0
100
AcDbBlockBegin
  2
*D11
 70
     1
 10
0.0
 20
0.0
 30
0.0
  3
*D11
  1

  0
LINE
  5
A88
330
4F7
100
AcDbEntity
  8
0
 62
     0
370
    -2
100
AcDbLine
 10
32.36545079162933
 20
-19.4369853773855
 30
0.0
 11
32.36545079162933
 21
-18.49948537738525
 31
0.0
  0
MTEXT
  5
A89
330
4F7
100
AcDbEntity
  8
0
 62
     0
100
AcDbMText
 10
32.36545079162935
 20
-17.45115204405192
 30
0.0
 40
0.5
 41
0.0
 71
     5
 72
     1
  1
\A1;9.430
 11
0.0000000000000001
 21
1.0
 31
0.0
 73
     1
 44
1.0
1001
ACAD
1000
MTEXTBEGIN
1070
    73
1070
     1
1070
    44
1040
1.0
1070
    74
1070
     0
1000
MTEXTEND
  0
POINT
  5
A8A
330
4F7
100
AcDbEntity
  8
Defpoints
 62
     0
100
AcDbPoint
 10
32.36545079162933
 20
-19.49948537738548
 30
0.0
  0
POINT
  5
A8B
330
4F7
100
AcDbEntity
  8
Defpoints
 62
     0
100
AcDbPoint
 10
32.36545079162933
 20
-18.49948537738525
 30
0.0
  0
POINT
  5
A8C
330
4F7
100
AcDbEntity
  8
Defpoints
 62
     0
100
AcDbPoint
 10
22.93545079162933
 20
-28.3094853773855
 30
0.0
  0
ENDBLK
  5
4FE
330
4F7
100
AcDbEntity
  8
0
100
AcDbBlockEnd
  0
BLOCK
  5
50D
330
507
100
AcDbEntity
  8
0
100
AcDbBlockBegin
  2
*D12
 70
     1
 10
0.0
 20
0.0
 30
0.0
  3
*D12
  1

  0
LINE
  5
A8D
330
507
100
AcDbEntity
  8
0
 62
     0
370
    -2
100
AcDbLine
 10
32.42795079162934
 20
-19.49948537738548
 30
0.0
 11
33.36545079162942
 21
-19.49948537738548
 31
0.0
  0
MTEXT
  5
A8E
330
507
100
AcDbEntity
  8
0
 62
     0
100
AcDbMText
 10
34.33045079162943
 20
-19.49948537738548
 30
0.0
 40
0.5
 41
0.0
 71
     5
 72
     1
  1
\A1;8.810
 73
     1
 44
1.0
1001
ACAD
1000
MTEXTBEGIN
1070
    73
1070
     1
1070
    44
1040
1.0
1070
    74
1070
     0
1000
MTEXTEND
  0
POINT
  5
A8F
330
507
100
AcDbEntity
  8
Defpoints
 62
     0
100
AcDbPoint
 10
32.36545079162933
 20
-19.49948537738548
 30
0.0
  0
POINT
  5
A90
330
507
100
AcDbEntity
  8
Defpoints
 62
     0
100
AcDbPoint
 10
33.36545079162942
 20
-19.49948537738548
 30
0.0
  0
POINT
  5
A91
330
507
100
AcDbEntity
  8
Defpoints
 62
     0
100
AcDbPoint
 10
22.93545079162933
 20
-28.3094853773855
 30
0.0
  0
ENDBLK
  5
50E
330
507
100
AcDbEntity
  8
0
100
AcDbBlockEnd
  0
BLOCK
  5
6F9
330
528
100
AcDbEntity
  8
0
100
AcDbBlockBegin
  2
A$C1A523781
 70
     0
 10
0.0
 20
0.0
 30
0.0
  3
A$C1A523781
  1

  0
LINE
  5
529
330
528
100
AcDbEntity
  8
4FNGRGD
100
AcDbLine
 10
2.077499999999794
 20
-5.345000000000012
 30
0.0
 11
2.077499999999794
 21
-4.775000000000011
 31
0.0
  0
LINE
  5
52A
330
528
100
AcDbEntity
  8
4FNGRGD
100
AcDbLine
 10
-2.062500000000189
 20
-5.345000000000012
 30
0.0
 11
-2.062500000000189
 21
-4.775000000000027
 31
0.0
  0
LINE
  5
52B
330
528
100
AcDbEntity
  8
4FNGRGD
100
AcDbLine
 10
-1.560004794979242
 20
-5.190000000000011
 30
0.0
 11
1.575004794978831
 21
-5.190000000000011
 31
0.0
  0
LINE
  5
52C
330
528
100
AcDbEntity
  8
4FNGRGD
100
AcDbLine
 10
-1.626717753737985
 20
-5.120000000000018
 30
0.0
 11
1.641717753737587
 21
-5.120000000000018
 31
0.0
  0
LINE
  5
52D
330
528
100
AcDbEntity
  8
4FNGRGD
100
AcDbLine
 10
1.718843945663698
 20
-5.120000000000018
 30
0.0
 11
2.288499999999806
 21
-5.120000000000018
 31
0.0
  0
LINE
  5
52E
330
528
100
AcDbEntity
  8
4FNGRGD
100
AcDbLine
 10
1.693009802767994
 20
-5.190000000000011
 30
0.0
 11
2.288499999999806
 21
-5.190000000000011
 31
0.0
  0
LINE
  5
52F
330
528
100
AcDbEntity
  8
4FNGRGD
100
AcDbLine
 10
-2.273500000000204
 20
-5.190000000000011
 30
0.0
 11
-1.678009802768393
 21
-5.190000000000011
 31
0.0
  0
ARC
  5
530
330
528
100
AcDbEntity
  8
4FNGRGD
100
AcDbCircle
 10
-1.753843945664094
 20
-5.157500000000012
 30
0.0
 40
0.0625
100
AcDbArc
 50
14.9967902546371
 51
90.0
  0
ARC
  5
531
330
528
100
AcDbEntity
  8
4FNGRGD
100
AcDbCircle
 10
-1.560004794979242
 20
-5.127500000000011
 30
0.0
 40
0.0625
100
AcDbArc
 50
194.9967902546371
 51
270.0
  0
ARC
  5
532
330
528
100
AcDbEntity
  8
4FNGRGD
100
AcDbCircle
 10
1.575004794978831
 20
-5.127500000000011
 30
0.0
 40
0.0625
100
AcDbArc
 50
270.0
 51
345.0032097453629
  0
ARC
  5
533
330
528
100
AcDbEntity
  8
4FNGRGD
100
AcDbCircle
 10
1.768843945663696
 20
-5.157500000000012
 30
0.0
 40
0.0625
100
AcDbArc
 50
90.00000000000083
 51
165.0032097453637
  0
ARC
  5
534
330
528
100
AcDbEntity
  8
4FNGRGD
100
AcDbCircle
 10
1.763088659477751
 20
-5.150000000000018
 30
0.0
 40
0.125
100
AcDbArc
 50
90.00000000000083
 51
165.0032097453637
  0
ARC
  5
535
330
528
100
AcDbEntity
  8
4FNGRGD
100
AcDbCircle
 10
1.580760081164774
 20
-5.135000000000005
 30
0.0
 40
0.125
100
AcDbArc
 50
270.0
 51
345.0032097453637
  0
ARC
  5
536
330
528
100
AcDbEntity
  8
4FNGRGD
100
AcDbCircle
 10
-1.748088659478149
 20
-5.150000000000018
 30
0.0
 40
0.125
100
AcDbArc
 50
14.99679025463797
 51
89.9999999999992
  0
ARC
  5
537
330
528
100
AcDbEntity
  8
4FNGRGD
100
AcDbCircle
 10
-1.565760081165186
 20
-5.135000000000005
 30
0.0
 40
0.125
100
AcDbArc
 50
194.9967902546371
 51
270.0
  0
LINE
  5
538
330
528
100
AcDbEntity
  8
4FNGRGD
100
AcDbLine
 10
-1.620376065227864
 20
-5.143672808308012
 30
0.0
 11
-1.6273461189809
 21
-5.117654383383992
 31
0.0
  0
LINE
  5
539
330
528
100
AcDbEntity
  8
4FNGRGD
100
AcDbLine
 10
1.635376065227454
 20
-5.143672808308012
 30
0.0
 11
1.642346118980504
 21
-5.117654383383992
 31
0.0
  0
LINE
  5
53A
330
528
100
AcDbEntity
  8
4FNGRGD
100
AcDbLine
 10
1.768843945663696
 20
-5.095000000000012
 30
0.0
 11
2.077499999999794
 21
-5.095000000000012
 31
0.0
  0
LINE
  5
53B
330
528
100
AcDbEntity
  8
4FNGRGD
100
AcDbLine
 10
1.763088659477751
 20
-5.025000000000018
 30
0.0
 11
2.077499999999794
 21
-5.025000000000018
 31
0.0
  0
LINE
  5
53C
330
528
100
AcDbEntity
  8
4FNGRGD
100
AcDbLine
 10
1.701502621662021
 20
-5.167345616616032
 30
0.0
 11
1.708472675415073
 21
-5.141327191692012
 31
0.0
  0
LINE
  5
53D
330
528
100
AcDbEntity
  8
4FNGRGD
100
AcDbLine
 10
-1.686502621662418
 20
-5.167345616616032
 30
0.0
 11
-1.69347267541547
 21
-5.141327191692012
 31
0.0
  0
LINE
  5
53E
330
528
100
AcDbEntity
  8
4FNGRGD
100
AcDbLine
 10
-2.062500000000189
 20
-5.025000000000018
 30
0.0
 11
-1.748088659478149
 21
-5.025000000000018
 31
0.0
  0
LINE
  5
53F
330
528
100
AcDbEntity
  8
4FNGRGD
100
AcDbLine
 10
-2.062500000000189
 20
-5.095000000000012
 30
0.0
 11
-1.753843945664094
 21
-5.095000000000012
 31
0.0
  0
LINE
  5
540
330
528
100
AcDbEntity
  8
4FNGRGD
100
AcDbLine
 10
-2.250500000000193
 20
-5.095000000000012
 30
0.0
 11
-2.062500000000189
 21
-5.095000000000012
 31
0.0
  0
LINE
  5
541
330
528
100
AcDbEntity
  8
4FNGRGD
100
AcDbLine
 10
2.077499999999794
 20
-5.095000000000012
 30
0.0
 11
2.265499999999796
 21
-5.095000000000012
 31
0.0
  0
LINE
  5
542
330
528
100
AcDbEntity
  8
4FNGRGD
100
AcDbLine
 10
2.077499999999794
 20
-5.025000000000018
 30
0.0
 11
2.265499999999796
 21
-5.025000000000018
 31
0.0
  0
LINE
  5
543
330
528
100
AcDbEntity
  8
4FNGRGD
100
AcDbLine
 10
-2.250500000000193
 20
-5.025000000000018
 30
0.0
 11
-2.062500000000189
 21
-5.025000000000018
 31
0.0
  0
LINE
  5
544
330
528
100
AcDbEntity
  8
4FNGRGD
100
AcDbLine
 10
-1.565760081165173
 20
-5.260000000000005
 30
0.0
 11
-0.0939466094069346
 21
-5.260000000000005
 31
0.0
  0
LINE
  5
545
330
528
100
AcDbEntity
  8
4FNGRGD
100
AcDbLine
 10
-2.273500000000204
 20
-5.120000000000018
 30
0.0
 11
-1.703843945664097
 21
-5.120000000000018
 31
0.0
  0
LINE
  5
546
330
528
100
AcDbEntity
  8
4FNGRGD
100
AcDbLine
 10
2.288499999999806
 20
-5.190000000000011
 30
0.0
 11
2.288499999999806
 21
-5.120000000000018
 31
0.0
  0
LINE
  5
547
330
528
100
AcDbEntity
  8
4FNGRGD
100
AcDbLine
 10
-2.273500000000204
 20
-5.190000000000011
 30
0.0
 11
-2.273500000000204
 21
-5.120000000000018
 31
0.0
  0
LINE
  5
548
330
528
100
AcDbEntity
  8
4FNGRGD
100
AcDbLine
 10
2.265499999999796
 20
-5.095000000000012
 30
0.0
 11
2.265499999999796
 21
-5.025000000000018
 31
0.0
  0
LINE
  5
549
330
528
100
AcDbEntity
  8
4FNGRGD
100
AcDbLine
 10
-2.250500000000208
 20
-5.095000000000012
 30
0.0
 11
-2.250500000000208
 21
-5.025000000000018
 31
0.0
  0
LINE
  5
54A
330
528
100
AcDbEntity
  8
4FNGRGD
100
AcDbLine
 10
-1.560004794979242
 20
-5.190000000000011
 30
0.0
 11
1.575004794978831
 21
-5.190000000000011
 31
0.0
  0
LINE
  5
54B
330
528
100
AcDbEntity
  8
4FNGRGD
100
AcDbLine
 10
-0.0939466094069346
 20
-5.260000000000005
 30
0.0
 11
-0.0939466094069346
 21
-5.190000000000011
 31
0.0
  0
LINE
  5
54C
330
528
100
AcDbEntity
  8
4FNGRGD
100
AcDbLine
 10
0.1088942865085229
 20
-5.260000000000005
 30
0.0
 11
0.1088942865085229
 21
-5.190000000000011
 31
0.0
  0
LINE
  5
54D
330
528
100
AcDbEntity
  8
4FNGRGD
100
AcDbLine
 10
0.1088942865085087
 20
-5.260000000000005
 30
0.0
 11
1.580760081164774
 21
-5.260000000000005
 31
0.0
  0
LINE
  5
54E
330
528
100
AcDbEntity
  8
4INFAN
100
AcDbLine
 10
-2.062500000000189
 20
-3.725000000000013
 30
0.0
 11
-2.062500000000189
 21
-3.524999999999998
 31
0.0
  0
LINE
  5
54F
330
528
100
AcDbEntity
  8
4INFAN
100
AcDbLine
 10
-2.062500000000189
 20
-4.125000000000021
 30
0.0
 11
-2.062500000000189
 21
-3.925000000000018
 31
0.0
  0
LINE
  5
550
330
528
100
AcDbEntity
  8
4INFAN
100
AcDbLine
 10
-2.062500000000189
 20
-4.625000000000006
 30
0.0
 11
-2.062500000000189
 21
-4.425000000000004
 31
0.0
  0
LINE
  5
551
330
528
100
AcDbEntity
  8
4INFAN
100
AcDbLine
 10
-2.062500000000189
 20
-5.025000000000018
 30
0.0
 11
-2.062500000000189
 21
-4.825000000000009
 31
0.0
  0
LINE
  5
552
330
528
100
AcDbEntity
  8
4INFAN
100
AcDbLine
 10
-2.337500000000195
 20
-5.025000000000018
 30
0.0
 11
-2.337500000000195
 21
-3.525000000000011
 31
0.0
  0
LINE
  5
553
330
528
100
AcDbEntity
  8
4INFAN
100
AcDbLine
 10
2.077499999999794
 20
-3.725000000000013
 30
0.0
 11
2.077499999999794
 21
-3.525000000000011
 31
0.0
  0
LINE
  5
554
330
528
100
AcDbEntity
  8
4INFAN
100
AcDbLine
 10
2.077499999999794
 20
-4.125000000000021
 30
0.0
 11
2.077499999999794
 21
-3.925000000000018
 31
0.0
  0
LINE
  5
555
330
528
100
AcDbEntity
  8
4INFAN
100
AcDbLine
 10
2.077499999999794
 20
-4.625000000000006
 30
0.0
 11
2.077499999999794
 21
-4.425000000000004
 31
0.0
  0
LINE
  5
556
330
528
100
AcDbEntity
  8
4INFAN
100
AcDbLine
 10
2.077499999999794
 20
-5.025000000000018
 30
0.0
 11
2.077499999999794
 21
-4.825000000000009
 31
0.0
  0
LINE
  5
557
330
528
100
AcDbEntity
  8
4INFAN
100
AcDbLine
 10
2.352499999999798
 20
-5.025000000000018
 30
0.0
 11
2.352499999999798
 21
-3.525000000000011
 31
0.0
  0
LINE
  5
558
330
528
100
AcDbEntity
  8
4INFAN
100
AcDbLine
 10
-2.337500000000195
 20
-5.025000000000018
 30
0.0
 11
2.352499999999798
 21
-5.025000000000018
 31
0.0
  0
LINE
  5
559
330
528
100
AcDbEntity
  8
4INFAN
100
AcDbLine
 10
-2.337500000000195
 20
-3.525000000000011
 30
0.0
 11
2.352499999999798
 21
-3.525000000000011
 31
0.0
  0
LINE
  5
55A
330
528
100
AcDbEntity
  8
4INFAN
100
AcDbLine
 10
-2.337500000000195
 20
-4.825000000000009
 30
0.0
 11
2.352499999999798
 21
-4.825000000000009
 31
0.0
  0
LINE
  5
55B
330
528
100
AcDbEntity
  8
4INFAN
100
AcDbLine
 10
-2.337500000000195
 20
-3.725000000000013
 30
0.0
 11
2.352499999999798
 21
-3.725000000000013
 31
0.0
  0
ARC
  5
55C
330
528
100
AcDbEntity
  8
100FPWIREBOX
100
AcDbCircle
 10
-1.593750000000069
 20
-4.243750000000011
 30
0.0
 40
0.3125
100
AcDbArc
 50
298.3576365763212
 51
61.64236342367882
  0
LINE
  5
55D
330
528
100
AcDbEntity
  8
100FPWIREBOX
100
AcDbLine
 10
-2.843750000000182
 20
-3.525000000000011
 30
0.0
 11
2.843749999999815
 21
-3.525000000000011
 31
0.0
  0
LINE
  5
55E
330
528
100
AcDbEntity
  8
100FPWIREBOX
100
AcDbLine
 10
2.281249999999813
 20
-4.900000000000018
 30
0.0
 11
-2.281250000000184
 21
-4.900000000000018
 31
0.0
  0
LINE
  5
55F
330
528
100
AcDbEntity
  8
100FPWIREBOX
100
AcDbLine
 10
-2.343750000000184
 20
-4.962500000000018
 30
0.0
 11
2.343749999999813
 21
-4.962500000000018
 31
0.0
  0
LINE
  5
560
330
528
100
AcDbEntity
  8
100FPBASE
100
AcDbLine
 10
-3.845000000000212
 20
-3.525000000000011
 30
0.0
 11
3.844999999999842
 21
-3.525000000000011
 31
0.0
  0
LINE
  5
561
330
528
100
AcDbEntity
  8
100FPBASE
100
AcDbLine
 10
-3.845000000000212
 20
-3.465000000000008
 30
0.0
 11
3.844999999999842
 21
-3.465000000000008
 31
0.0
  0
ARC
  5
562
330
528
100
AcDbEntity
  8
100FPWIREBOX
100
AcDbCircle
 10
-1.593750000000069
 20
-4.243750000000011
 30
0.0
 40
0.3125
100
AcDbArc
 50
118.3576365763211
 51
241.6423634236789
  0
LINE
  5
563
330
528
100
AcDbEntity
  8
100FPWIREBOX
100
AcDbLine
 10
-2.281250000000184
 20
-4.900000000000018
 30
0.0
 11
-2.281250000000184
 21
-3.525000000000011
 31
0.0
  0
LINE
  5
564
330
528
100
AcDbEntity
  8
100FPWIREBOX
100
AcDbLine
 10
-2.343750000000184
 20
-3.587500000000011
 30
0.0
 11
-2.343750000000184
 21
-4.962500000000018
 31
0.0
  0
LINE
  5
565
330
528
100
AcDbEntity
  8
100FPWIREBOX
100
AcDbLine
 10
-2.843750000000071
 20
-3.587500000000011
 30
0.0
 11
-2.843750000000182
 21
-3.525000000000011
 31
0.0
  0
LINE
  5
566
330
528
100
AcDbEntity
  8
100FPWIREBOX
100
AcDbLine
 10
-2.343750000000184
 20
-3.587500000000011
 30
0.0
 11
-2.843750000000182
 21
-3.587500000000011
 31
0.0
  0
LINE
  5
567
330
528
100
AcDbEntity
  8
100FPWIREBOX
100
AcDbLine
 10
-1.445320723912074
 20
-3.968749999999976
 30
0.0
 11
-1.742179276088064
 21
-3.968749999999976
 31
0.0
  0
LINE
  5
568
330
528
100
AcDbEntity
  8
100FPWIREBOX
100
AcDbLine
 10
-1.445320723912074
 20
-4.518750000000046
 30
0.0
 11
-1.742179276088064
 21
-4.518750000000046
 31
0.0
  0
LINE
  5
569
330
528
100
AcDbEntity
  8
100FPBASE
100
AcDbLine
 10
-3.845000000000212
 20
-3.525000000000011
 30
0.0
 11
-3.845000000000212
 21
-3.465000000000008
 31
0.0
  0
LINE
  5
56A
330
528
100
AcDbEntity
  8
100FPBASE
100
AcDbLine
 10
-3.640000000000171
 20
-3.595000000000004
 30
0.0
 11
-3.360000000000084
 21
-3.595000000000004
 31
0.0
  0
LINE
  5
56B
330
528
100
AcDbEntity
  8
100FPBASE
100
AcDbLine
 10
-3.640000000000056
 20
-3.595000000000004
 30
0.0
 11
-3.640000000000056
 21
-3.525000000000011
 31
0.0
  0
LINE
  5
56C
330
528
100
AcDbEntity
  8
100FPBASE
100
AcDbLine
 10
-3.360000000000084
 20
-3.595000000000004
 30
0.0
 11
-3.360000000000084
 21
-3.525000000000011
 31
0.0
  0
LINE
  5
56D
330
528
100
AcDbEntity
  8
100FPWIREBOX
100
AcDbLine
 10
2.281249999999813
 20
-4.900000000000018
 30
0.0
 11
2.281249999999813
 21
-3.525000000000011
 31
0.0
  0
LINE
  5
56E
330
528
100
AcDbEntity
  8
100FPWIREBOX
100
AcDbLine
 10
2.343749999999813
 20
-3.587500000000011
 30
0.0
 11
2.343749999999813
 21
-4.962500000000018
 31
0.0
  0
LINE
  5
56F
330
528
100
AcDbEntity
  8
100FPWIREBOX
100
AcDbLine
 10
2.843749999999815
 20
-3.587500000000011
 30
0.0
 11
2.843749999999815
 21
-3.525000000000011
 31
0.0
  0
LINE
  5
570
330
528
100
AcDbEntity
  8
100FPWIREBOX
100
AcDbLine
 10
2.843749999999815
 20
-3.587500000000011
 30
0.0
 11
2.343749999999813
 21
-3.587500000000011
 31
0.0
  0
LINE
  5
571
330
528
100
AcDbEntity
  8
100FPBASE
100
AcDbLine
 10
3.844999999999842
 20
-3.525000000000011
 30
0.0
 11
3.844999999999842
 21
-3.465000000000008
 31
0.0
  0
LINE
  5
572
330
528
100
AcDbEntity
  8
100FPBASE
100
AcDbLine
 10
3.359999999999942
 20
-3.595000000000004
 30
0.0
 11
3.639999999999801
 21
-3.595000000000004
 31
0.0
  0
LINE
  5
573
330
528
100
AcDbEntity
  8
100FPBASE
100
AcDbLine
 10
3.359999999999942
 20
-3.595000000000004
 30
0.0
 11
3.359999999999942
 21
-3.525000000000011
 31
0.0
  0
LINE
  5
574
330
528
100
AcDbEntity
  8
100FPBASE
100
AcDbLine
 10
3.639999999999913
 20
-3.595000000000004
 30
0.0
 11
3.639999999999801
 21
-3.525000000000011
 31
0.0
  0
LINE
  5
575
330
528
100
AcDbEntity
  8
shroud
  6
HIDDEN
100
AcDbLine
 10
4.654999999999943
 20
3.677657220291308
 30
0.0
 11
4.654999999999943
 21
12.36765722029131
 31
0.0
  0
LINE
  5
576
330
528
100
AcDbEntity
  8
shroud
  6
HIDDEN
100
AcDbLine
 10
4.654999999999937
 20
12.36765722029131
 30
0.0
 11
-4.655000000000036
 21
12.36765722029131
 31
0.0
  0
LINE
  5
577
330
528
100
AcDbEntity
  8
shroud
  6
HIDDEN
100
AcDbLine
 10
-4.655000000000036
 20
12.36765722029131
 30
0.0
 11
-4.655000000000036
 21
3.677657220291308
 31
0.0
  0
LINE
  5
578
330
528
100
AcDbEntity
  8
shroud
100
AcDbLine
 10
4.714999999999918
 20
12.42765722029131
 30
0.0
 11
-4.715000000000008
 21
12.42765722029131
 31
0.0
  0
LINE
  5
579
330
528
100
AcDbEntity
  8
shroud
100
AcDbLine
 10
-4.715000000000008
 20
12.42765722029131
 30
0.0
 11
-4.715000000000094
 21
3.617657220291306
 31
0.0
  0
LINE
  5
57A
330
528
100
AcDbEntity
  8
shroud
100
AcDbLine
 10
4.714999999999946
 20
3.617657220291306
 30
0.0
 11
4.714999999999918
 21
12.42765722029131
 31
0.0
  0
LINE
  5
57B
330
528
100
AcDbEntity
  8
shroud
100
AcDbLine
 10
-4.715000000000094
 20
3.617657220291306
 30
0.0
 11
4.714999999999938
 21
3.617657220291306
 31
0.0
  0
LINE
  5
57C
330
528
100
AcDbEntity
  8
shroud
  6
HIDDEN
100
AcDbLine
 10
-4.655000000000036
 20
3.677657220291308
 30
0.0
 11
4.654999999999937
 21
3.677657220291308
 31
0.0
  0
LINE
  5
57D
330
528
100
AcDbEntity
  8
shroud
100
AcDbLine
 10
-4.480000000000028
 20
3.747657220291245
 30
0.0
 11
-4.480000000000028
 21
3.677657220291308
 31
0.0
  0
LINE
  5
57E
330
528
100
AcDbEntity
  8
shroud
100
AcDbLine
 10
-4.200000000000056
 20
3.747657220291245
 30
0.0
 11
-4.480000000000028
 21
3.747657220291245
 31
0.0
  0
LINE
  5
57F
330
528
100
AcDbEntity
  8
shroud
100
AcDbLine
 10
-4.200000000000056
 20
3.747657220291245
 30
0.0
 11
-4.200000000000056
 21
3.677657220291308
 31
0.0
  0
LINE
  5
580
330
528
100
AcDbEntity
  8
shroud
100
AcDbLine
 10
4.479999999999924
 20
3.747657220291245
 30
0.0
 11
4.199999999999953
 21
3.747657220291245
 31
0.0
  0
LINE
  5
581
330
528
100
AcDbEntity
  8
shroud
100
AcDbLine
 10
4.199999999999953
 20
3.747657220291245
 30
0.0
 11
4.199999999999953
 21
3.677657220291308
 31
0.0
  0
LINE
  5
582
330
528
100
AcDbEntity
  8
shroud
100
AcDbLine
 10
4.479999999999924
 20
3.747657220291245
 30
0.0
 11
4.479999999999924
 21
3.677657220291308
 31
0.0
  0
HATCH
  5
583
330
528
100
AcDbEntity
  8
FILTER
100
AcDbHatch
 10
0.0
 20
0.0
 30
0.0
210
0.0
220
0.0
230
1.0
  2
ESCHER
 70
     0
 71
     1
 91
        1
 92
        7
 72
     0
 73
     1
 93
        4
 10
3.43499999999997
 20
-2.875000000000001
 10
3.43499999999997
 20
-0.6799999999999926
 10
-3.435000000000023
 20
-0.6800000000000051
 10
-3.435000000000027
 20
-2.875000000000007
 97
        4
330
587
330
584
330
585
330
586
 75
     0
 76
     1
 52
0.0
 41
0.5
 77
     0
 78
    21
 53
300.0
 43
-65.13275915257789
 44
-10.43679621714237
 45
-0.5999999997655987
 46
0.0000000001353315
 79
     2
 49
0.55
 49
-0.05
 53
180.0
 43
-65.13275915257789
 44
-10.43679621714237
 45
0.2999999999999999
 46
0.519615242
 79
     2
 49
0.55
 49
-0.05
 53
60.0
 43
-65.13275915257789
 44
-10.43679621714237
 45
0.5999999997655987
 46
0.0000000001353315
 79
     2
 49
0.55
 49
-0.05
 53
300.0
 43
-65.08275915257789
 44
-10.43679621714237
 45
-0.5999999997655987
 46
0.0000000001353315
 79
     2
 49
0.1
 49
-0.5
 53
60.0
 43
-65.08275915257789
 44
-10.43679621714237
 45
0.5999999997655987
 46
0.0000000001353315
 79
     2
 49
0.1
 49
-0.5
 53
300.0
 43
-65.15775915257788
 44
-10.48009748714237
 45
-0.5999999997655987
 46
0.0000000001353315
 79
     2
 49
0.1
 49
-0.5
 53
180.0
 43
-65.15775915257788
 44
-10.48009748714237
 45
0.2999999999999999
 46
0.519615242
 79
     2
 49
0.1
 49
-0.5
 53
60.0
 43
-65.15775915257788
 44
-10.39349494714237
 45
0.5999999997655987
 46
0.0000000001353315
 79
     2
 49
0.1
 49
-0.5
 53
180.0
 43
-65.15775915257788
 44
-10.39349494714237
 45
0.2999999999999999
 46
0.519615242
 79
     2
 49
0.1
 49
-0.5
 53
300.0
 43
-65.33275915257789
 44
-10.43679621714237
 45
-0.5999999997655987
 46
0.0000000001353315
 79
     2
 49
0.1
 49
-0.5
 53
60.0
 43
-65.33275915257789
 44
-10.43679621714237
 45
0.5999999997655987
 46
0.0000000001353315
 79
     2
 49
0.1
 49
-0.5
 53
300.0
 43
-65.03275915257788
 44
-10.26359113664237
 45
-0.5999999997655987
 46
0.0000000001353315
 79
     2
 49
0.1
 49
-0.5
 53
180.0
 43
-65.03275915257788
 44
-10.26359113664237
 45
0.2999999999999999
 46
0.519615242
 79
     2
 49
0.1
 49
-0.5
 53
60.0
 43
-65.03275915257788
 44
-10.61000129764237
 45
0.5999999997655987
 46
0.0000000001353315
 79
     2
 49
0.1
 49
-0.5
 53
180.0
 43
-65.03275915257788
 44
-10.61000129764237
 45
0.2999999999999999
 46
0.519615242
 79
     2
 49
0.1
 49
-0.5
 53
0.0
 43
-65.03275915257788
 44
-10.52339875764237
 45
-0.3
 46
-0.519615242
 79
     2
 49
0.35
 49
-0.25
 53
0.0
 43
-65.03275915257788
 44
-10.35019367664237
 45
-0.3
 46
-0.519615242
 79
     2
 49
0.35
 49
-0.25
 53
240.0
 43
-65.1077591525779
 44
-10.56670002764237
 45
-0.5999999997655987
 46
-0.0000000001353317
 79
     2
 49
0.3499999999999994
 49
-0.2499999999999997
 53
240.0
 43
-65.25775915257788
 44
-10.48009748714237
 45
-0.5999999997655987
 46
-0.0000000001353317
 79
     2
 49
0.3499999999999994
 49
-0.2499999999999997
 53
120.0
 43
-65.25775915257788
 44
-10.39349494714237
 45
0.2999999997655985
 46
0.519615242135332
 79
     2
 49
0.3499999999999999
 49
-0.25
 53
120.0
 43
-65.1077591525779
 44
-10.30689240664237
 45
0.2999999997655985
 46
0.519615242135332
 79
     2
 49
0.3499999999999999
 49
-0.25
 47
0.0288139894978391
 98
        1
 10
0.1834714421147829
 20
-1.462318229519075
  0
LINE
  5
584
102
{ACAD_REACTORS
330
583
102
}
330
528
100
AcDbEntity
  8
FILTER
100
AcDbLine
 10
-3.43500000000002
 20
-0.6800000000000069
 30
0.0
 11
-3.435000000000026
 21
-2.875000000000006
 31
0.0
  0
LINE
  5
585
102
{ACAD_REACTORS
330
583
102
}
330
528
100
AcDbEntity
  8
FILTER
100
AcDbLine
 10
-3.43500000000002
 20
-0.6800000000000069
 30
0.0
 11
3.434999999999971
 21
-0.6799999999999926
 31
0.0
  0
LINE
  5
586
102
{ACAD_REACTORS
330
583
102
}
330
528
100
AcDbEntity
  8
FILTER
100
AcDbLine
 10
3.434999999999971
 20
-0.6799999999999926
 30
0.0
 11
3.434999999999971
 21
-2.875
 31
0.0
  0
LINE
  5
587
102
{ACAD_REACTORS
330
583
102
}
330
528
100
AcDbEntity
  8
FILTER
100
AcDbLine
 10
3.434999999999971
 20
-2.875
 30
0.0
 11
-3.435000000000026
 21
-2.875000000000006
 31
0.0
  0
LINE
  5
588
330
528
100
AcDbEntity
  8
FILTER
100
AcDbLine
 10
-3.93500000000002
 20
-0.1800000000000139
 30
0.0
 11
3.934999999999971
 21
-0.1799999999999997
 31
0.0
  0
LINE
  5
589
330
528
100
AcDbEntity
  8
FILTER
100
AcDbLine
 10
3.934999999999971
 20
-0.1799999999999997
 30
0.0
 11
3.934999999999971
 21
-3.375
 31
0.0
  0
LINE
  5
58A
330
528
100
AcDbEntity
  8
FILTER
100
AcDbLine
 10
3.934999999999971
 20
-3.375
 30
0.0
 11
-3.93500000000002
 21
-3.375000000000006
 31
0.0
  0
LINE
  5
58B
330
528
100
AcDbEntity
  8
FILTER
100
AcDbLine
 10
-3.93500000000002
 20
-0.1800000000000139
 30
0.0
 11
-3.93500000000002
 21
-3.375000000000006
 31
0.0
  0
CIRCLE
  5
58C
330
528
100
AcDbEntity
  8
100 filter cover
100
AcDbCircle
 10
-4.340000000000022
 20
-1.871249999999953
 30
0.0
 40
0.09375
  0
CIRCLE
  5
58D
330
528
100
AcDbEntity
  8
100 filter cover
100
AcDbCircle
 10
4.339999999999951
 20
-1.871250000000015
 30
0.0
 40
0.09375
  0
LINE
  5
58E
330
528
100
AcDbEntity
  8
100 filter cover
  6
HIDDEN
100
AcDbLine
 10
-3.965000000000023
 20
-0.1500000000000128
 30
0.0
 11
3.964999999999973
 21
-0.1500000000000057
 31
0.0
  0
LINE
  5
58F
330
528
100
AcDbEntity
  8
100 filter cover
100
AcDbLine
 10
3.524999999999976
 20
-0.5900000000000034
 30
0.0
 11
3.524999999999976
 21
-2.965000000000008
 31
0.0
  0
LINE
  5
590
330
528
100
AcDbEntity
  8
100 filter cover
100
AcDbLine
 10
-3.525000000000027
 20
-0.5900000000000034
 30
0.0
 11
3.524999999999976
 21
-0.5900000000000106
 31
0.0
  0
LINE
  5
591
330
528
100
AcDbEntity
  8
100 filter cover
100
AcDbLine
 10
3.524999999999976
 20
-2.965000000000008
 30
0.0
 11
-3.525000000000027
 21
-2.965000000000008
 31
0.0
  0
LINE
  5
592
330
528
100
AcDbEntity
  8
100 filter cover
100
AcDbLine
 10
-3.525000000000027
 20
-0.5900000000000106
 30
0.0
 11
-3.525000000000027
 21
-2.965000000000008
 31
0.0
  0
LINE
  5
593
330
528
100
AcDbEntity
  8
100 filter cover
  6
HIDDEN
100
AcDbLine
 10
3.964999999999973
 20
-0.1500000000000057
 30
0.0
 11
3.964999999999982
 21
-3.405000000000001
 31
0.0
  0
LINE
  5
594
330
528
100
AcDbEntity
  8
100 filter cover
  6
HIDDEN
100
AcDbLine
 10
-3.965000000000023
 20
-0.1500000000000128
 30
0.0
 11
-3.965000000000023
 21
-3.405000000000008
 31
0.0
  0
LINE
  5
595
330
528
100
AcDbEntity
  8
100 filter cover
100
AcDbLine
 10
4.024999999999976
 20
-0.0900000000000034
 30
0.0
 11
4.024999999999976
 21
-3.465000000000001
 31
0.0
  0
LINE
  5
596
330
528
100
AcDbEntity
  8
100 filter cover
100
AcDbLine
 10
-4.025000000000027
 20
-0.0900000000000034
 30
0.0
 11
-4.025000000000027
 21
-3.465000000000001
 31
0.0
  0
LINE
  5
597
330
528
100
AcDbEntity
  8
100 filter cover
100
AcDbLine
 10
-4.714999999999988
 20
-0.0900000000000034
 30
0.0
 11
4.714999999999995
 21
-0.0900000000000034
 31
0.0
  0
LINE
  5
598
330
528
100
AcDbEntity
  8
100 filter cover
100
AcDbLine
 10
4.714999999999938
 20
-3.465000000000001
 30
0.0
 11
-4.715000000000038
 21
-3.465000000000001
 31
0.0
  0
LINE
  5
599
330
528
100
AcDbEntity
  8
100 filter cover
100
AcDbLine
 10
-4.714999999999988
 20
-0.0900000000000034
 30
0.0
 11
-4.715000000000038
 21
-3.465000000000008
 31
0.0
  0
LINE
  5
59A
330
528
100
AcDbEntity
  8
100 filter cover
100
AcDbLine
 10
4.714999999999966
 20
-0.0900000000000034
 30
0.0
 11
4.714999999999938
 21
-3.465000000000001
 31
0.0
  0
LINE
  5
59B
330
528
100
AcDbEntity
  8
100 filter cover
  6
HIDDEN
100
AcDbLine
 10
3.964999999999982
 20
-3.405000000000001
 30
0.0
 11
-3.965000000000023
 21
-3.405000000000008
 31
0.0
  0
LINE
  5
59C
330
528
100
AcDbEntity
  8
100 filter cover
100
AcDbLine
 10
-4.025000000000027
 20
3.290657220291406
 30
0.0
 11
4.024999999999976
 21
3.290657220291365
 31
0.0
  0
LINE
  5
59D
330
528
100
AcDbEntity
  8
100 filter cover
  6
HIDDEN
100
AcDbLine
 10
-3.965000000000023
 20
3.35065722029131
 30
0.0
 11
3.964999999999982
 21
3.35065722029131
 31
0.0
  0
LINE
  5
59E
330
528
100
AcDbEntity
  8
100 filter cover
100
AcDbLine
 10
-4.02499999999997
 20
3.557657220291287
 30
0.0
 11
-4.025000000000027
 21
3.290657220291406
 31
0.0
  0
LINE
  5
59F
330
528
100
AcDbEntity
  8
100 filter cover
  6
HIDDEN
100
AcDbLine
 10
-3.965000000000023
 20
3.617657220291233
 30
0.0
 11
-3.965000000000023
 21
3.350657220291296
 31
0.0
  0
LINE
  5
5A0
330
528
100
AcDbEntity
  8
100 filter cover
100
AcDbLine
 10
-4.714999999999931
 20
3.617657220291348
 30
0.0
 11
-4.714999999999988
 21
3.557657220291346
 31
0.0
  0
LINE
  5
5A1
330
528
100
AcDbEntity
  8
100 filter cover
100
AcDbLine
 10
-4.714999999999988
 20
3.557657220291233
 30
0.0
 11
-4.025000000000027
 21
3.557657220291287
 31
0.0
  0
LINE
  5
5A2
330
528
100
AcDbEntity
  8
100 filter cover
100
AcDbLine
 10
4.024999999999925
 20
3.557657220291346
 30
0.0
 11
4.024999999999982
 21
3.290657220291348
 31
0.0
  0
LINE
  5
5A3
330
528
100
AcDbEntity
  8
100 filter cover
  6
HIDDEN
100
AcDbLine
 10
3.964999999999982
 20
3.617657220291292
 30
0.0
 11
3.964999999999982
 21
3.350657220291296
 31
0.0
  0
LINE
  5
5A4
330
528
100
AcDbEntity
  8
100 filter cover
100
AcDbLine
 10
4.714999999999938
 20
3.617657220291306
 30
0.0
 11
4.714999999999938
 21
3.557657220291304
 31
0.0
  0
LINE
  5
5A5
330
528
100
AcDbEntity
  8
100 filter cover
100
AcDbLine
 10
4.714999999999938
 20
3.617657220291306
 30
0.0
 11
-4.714999999999931
 21
3.617657220291063
 31
0.0
  0
LINE
  5
5A6
330
528
100
AcDbEntity
  8
100 filter cover
100
AcDbLine
 10
4.024999999999976
 20
3.557657220291431
 30
0.0
 11
4.714999999999938
 21
3.557657220291304
 31
0.0
  0
CIRCLE
  5
5A7
330
528
100
AcDbEntity
  8
shroud
  6
HIDDEN
100
AcDbCircle
 10
4.339999999999951
 20
-1.871250000000015
 30
0.0
 40
0.14
  0
CIRCLE
  5
5A8
330
528
100
AcDbEntity
  8
shroud
100
AcDbCircle
 10
4.339999999999951
 20
-1.871250000000015
 30
0.0
 40
0.069
  0
LINE
  5
5A9
330
528
100
AcDbEntity
  8
shroud
100
AcDbLine
 10
4.714999999999946
 20
-3.465000000000001
 30
0.0
 11
-4.715000000000038
 21
-3.465000000000001
 31
0.0
  0
LINE
  5
5AA
330
528
100
AcDbEntity
  8
shroud
100
AcDbLine
 10
-4.714999999999988
 20
0.0
 30
0.0
 11
4.714999999999988
 21
0.0
 31
0.0
  0
LINE
  5
5AB
330
528
100
AcDbEntity
  8
shroud
100
AcDbLine
 10
-4.714999999999988
 20
0.0
 30
0.0
 11
-4.715000000000038
 21
-3.465000000000008
 31
0.0
  0
LINE
  5
5AC
330
528
100
AcDbEntity
  8
shroud
100
AcDbLine
 10
4.714999999999966
 20
0.0
 30
0.0
 11
4.714999999999946
 21
-3.465000000000001
 31
0.0
  0
LINE
  5
5AD
330
528
100
AcDbEntity
  8
shroud
100
AcDbLine
 10
3.654999999999943
 20
-2.964999999999987
 30
0.0
 11
-3.654999999999997
 21
-2.965000000000023
 31
0.0
  0
LINE
  5
5AE
330
528
100
AcDbEntity
  8
shroud
100
AcDbLine
 10
-3.654999999999943
 20
-0.5900000000000034
 30
0.0
 11
3.65499999999995
 21
-0.5900000000000034
 31
0.0
  0
LINE
  5
5AF
330
528
100
AcDbEntity
  8
shroud
100
AcDbLine
 10
3.65499999999995
 20
-0.5900000000000034
 30
0.0
 11
3.654999999999943
 21
-2.964999999999987
 31
0.0
  0
LINE
  5
5B0
330
528
100
AcDbEntity
  8
shroud
100
AcDbLine
 10
-3.654999999999943
 20
-0.5900000000000034
 30
0.0
 11
-3.654999999999997
 21
-2.965000000000023
 31
0.0
  0
CIRCLE
  5
5B1
330
528
100
AcDbEntity
  8
shroud
  6
HIDDEN
100
AcDbCircle
 10
-4.340000000000028
 20
-1.871249999999953
 30
0.0
 40
0.14
  0
CIRCLE
  5
5B2
330
528
100
AcDbEntity
  8
shroud
100
AcDbCircle
 10
-4.340000000000028
 20
-1.871249999999953
 30
0.0
 40
0.069
  0
LINE
  5
5B3
330
528
100
AcDbEntity
  8
shroud
  6
HIDDEN
100
AcDbLine
 10
4.655000000000013
 20
-0.0599999999999952
 30
0.0
 11
4.654999999999914
 21
-3.405000000000001
 31
0.0
  0
LINE
  5
5B4
330
528
100
AcDbEntity
  8
shroud
  6
HIDDEN
100
AcDbLine
 10
-4.655000000000013
 20
-0.0600000000000023
 30
0.0
 11
4.655000000000006
 21
-0.0599999999999952
 31
0.0
  0
LINE
  5
5B5
330
528
100
AcDbEntity
  8
shroud
  6
HIDDEN
100
AcDbLine
 10
-4.655000000000013
 20
-0.0600000000000023
 30
0.0
 11
-4.655000000000065
 21
-3.405000000000008
 31
0.0
  0
LINE
  5
5B6
330
528
100
AcDbEntity
  8
shroud
  6
HIDDEN
100
AcDbLine
 10
4.654999999999914
 20
-3.405000000000001
 30
0.0
 11
-4.655000000000065
 21
-3.405000000000001
 31
0.0
  0
LINE
  5
5B7
330
528
100
AcDbEntity
  8
shroud
100
AcDbLine
 10
3.735000000000153
 20
-4.405000000000049
 30
0.0
 11
3.545000000000158
 21
-4.404999999999994
 31
0.0
  0
LINE
  5
5B8
330
528
100
AcDbEntity
  8
shroud
100
AcDbLine
 10
3.735000000000153
 20
-4.405000000000049
 30
0.0
 11
3.735000000000153
 21
-3.464999999999995
 31
0.0
  0
LINE
  5
5B9
330
528
100
AcDbEntity
  8
shroud
100
AcDbLine
 10
3.545000000000158
 20
-4.404999999999994
 30
0.0
 11
3.545000000000101
 21
-3.464999999999995
 31
0.0
  0
HATCH
  5
5BA
330
528
100
AcDbEntity
  8
shroud
100
AcDbHatch
 10
0.0
 20
0.0
 30
0.0
210
0.0
220
0.0
230
1.0
  2
ANSI31
 70
     0
 71
     0
 91
        2
 92
        7
 72
     0
 73
     1
 93
        4
 10
3.735000000000153
 20
-3.525000000000055
 10
3.735000000000153
 20
-4.405000000000106
 10
3.545000000000101
 20
-4.404999999999994
 10
3.545000000000101
 20
-3.524999999999998
 97
        0
 92
        7
 72
     0
 73
     1
 93
        4
 10
3.735000000000153
 20
-3.465000000000109
 10
3.735000000000212
 20
-3.524999999999998
 10
3.545000000000101
 20
-3.524999999999941
 10
3.545000000000101
 20
-3.465000000000053
 97
        0
 75
     0
 76
     1
 52
270.0
 41
1.0
 77
     0
 78
     1
 53
45.0
 43
-196.6276200854266
 44
332.5139805391772
 45
0.0883883476483184
 46
-0.0883883476483185
 79
     0
 47
0.0064273479349743
 98
        2
 10
3.656952094475201
 20
-3.75713666232709
 10
3.65052538469493
 20
-3.506281946892292
  0
LINE
  5
5BB
330
528
100
AcDbEntity
  8
shroud
100
AcDbLine
 10
-3.544999999999872
 20
-4.405000000000021
 30
0.0
 11
-3.734999999999928
 21
-4.404999999999963
 31
0.0
  0
LINE
  5
5BC
330
528
100
AcDbEntity
  8
shroud
100
AcDbLine
 10
-3.544999999999872
 20
-4.405000000000021
 30
0.0
 11
-3.544999999999872
 21
-3.464999999999966
 31
0.0
  0
LINE
  5
5BD
330
528
100
AcDbEntity
  8
shroud
100
AcDbLine
 10
-3.734999999999928
 20
-4.404999999999963
 30
0.0
 11
-3.734999999999928
 21
-3.464999999999966
 31
0.0
  0
HATCH
  5
5BE
330
528
100
AcDbEntity
  8
shroud
100
AcDbHatch
 10
0.0
 20
0.0
 30
0.0
210
0.0
220
0.0
230
1.0
  2
ANSI31
 70
     0
 71
     0
 91
        2
 92
        7
 72
     0
 73
     1
 93
        4
 10
-3.544999999999872
 20
-3.525000000000027
 10
-3.544999999999872
 20
-4.405000000000079
 10
-3.734999999999928
 20
-4.404999999999963
 10
-3.734999999999985
 20
-3.52499999999997
 97
        0
 92
        7
 72
     0
 73
     1
 93
        4
 10
-3.544999999999872
 20
-3.465000000000081
 10
-3.544999999999872
 20
-3.52499999999997
 10
-3.734999999999985
 20
-3.524999999999912
 10
-3.734999999999928
 20
-3.465000000000023
 97
        0
 75
     0
 76
     1
 52
270.0
 41
1.0
 77
     0
 78
     1
 53
45.0
 43
-203.9076200854267
 44
332.5139805391772
 45
0.0883883476483184
 46
-0.0883883476483185
 79
     0
 47
0.0064273479349743
 98
        2
 10
-3.623047905524883
 20
-3.757136662327063
 10
-3.629474615305156
 20
-3.506281946892265
  0
LINE
  5
5BF
330
528
100
AcDbEntity
  8
4FNGRGD
100
AcDbLine
 10
-13.74586710316978
 20
10.02266201527031
 30
0.0
 11
-13.74586710316978
 21
6.887652425312237
 31
0.0
  0
LINE
  5
5C0
330
528
100
AcDbEntity
  8
4FNGRGD
100
AcDbLine
 10
-13.6508671031698
 20
10.71315722029128
 30
0.0
 11
-13.58086710316981
 21
10.71315722029128
 31
0.0
  0
LINE
  5
5C1
330
528
100
AcDbEntity
  8
4FNGRGD
100
AcDbLine
 10
-13.6508671031698
 20
6.197157220291272
 30
0.0
 11
-13.58086710316979
 21
6.197157220291272
 31
0.0
  0
LINE
  5
5C2
330
528
100
AcDbEntity
  8
4FNGRGD
100
AcDbLine
 10
-13.7458671031698
 20
10.73615722029127
 30
0.0
 11
-13.67586710316979
 21
10.73615722029127
 31
0.0
  0
LINE
  5
5C3
330
528
100
AcDbEntity
  8
4FNGRGD
100
AcDbLine
 10
-13.7458671031698
 20
6.174157220291276
 30
0.0
 11
-13.67586710316979
 21
6.174157220291276
 31
0.0
  0
LINE
  5
5C4
330
528
100
AcDbEntity
  8
4FNGRGD
100
AcDbLine
 10
-13.67586710316979
 20
10.73615722029127
 30
0.0
 11
-13.67586710316979
 21
10.16650116595518
 31
0.0
  0
LINE
  5
5C5
330
528
100
AcDbEntity
  8
4FNGRGD
100
AcDbLine
 10
-13.81586710316979
 20
10.02841730145626
 30
0.0
 11
-13.81586710316979
 21
6.881897139126292
 31
0.0
  0
LINE
  5
5C6
330
528
100
AcDbEntity
  8
4FNGRGD
100
AcDbLine
 10
-13.58086710316981
 20
10.71315722029128
 30
0.0
 11
-13.58086710316981
 21
10.52515722029127
 31
0.0
  0
LINE
  5
5C7
330
528
100
AcDbEntity
  8
4FNGRGD
100
AcDbLine
 10
-13.58086710316979
 20
6.385157220291276
 30
0.0
 11
-13.58086710316979
 21
6.197157220291272
 31
0.0
  0
LINE
  5
5C8
330
528
100
AcDbEntity
  8
4FNGRGD
100
AcDbLine
 10
-13.6508671031698
 20
6.385157220291276
 30
0.0
 11
-13.6508671031698
 21
6.197157220291272
 31
0.0
  0
LINE
  5
5C9
330
528
100
AcDbEntity
  8
4FNGRGD
100
AcDbLine
 10
-13.6508671031698
 20
10.71315722029126
 30
0.0
 11
-13.6508671031698
 21
10.52515722029127
 31
0.0
  0
LINE
  5
5CA
330
528
100
AcDbEntity
  8
4FNGRGD
100
AcDbLine
 10
-13.6508671031698
 20
10.52515722029127
 30
0.0
 11
-13.6508671031698
 21
10.21650116595518
 31
0.0
  0
LINE
  5
5CB
330
528
100
AcDbEntity
  8
4FNGRGD
100
AcDbLine
 10
-13.58086710316981
 20
10.52515722029127
 30
0.0
 11
-13.58086710316981
 21
10.21074587976922
 31
0.0
  0
LINE
  5
5CC
330
528
100
AcDbEntity
  8
4FNGRGD
100
AcDbLine
 10
-13.72321271978582
 20
10.1491598419535
 30
0.0
 11
-13.69719429486179
 21
10.15612989570655
 31
0.0
  0
LINE
  5
5CD
330
528
100
AcDbEntity
  8
4FNGRGD
100
AcDbLine
 10
-13.72321271978582
 20
6.761154598629047
 30
0.0
 11
-13.69719429486179
 21
6.754184544875997
 31
0.0
  0
LINE
  5
5CE
330
528
100
AcDbEntity
  8
4FNGRGD
100
AcDbLine
 10
-13.58086710316981
 20
6.699568560813315
 30
0.0
 11
-13.58086710316979
 21
6.385157220291276
 31
0.0
  0
LINE
  5
5CF
330
528
100
AcDbEntity
  8
4FNGRGD
100
AcDbLine
 10
-13.6508671031698
 20
6.693813274627371
 30
0.0
 11
-13.6508671031698
 21
6.385157220291276
 31
0.0
  0
LINE
  5
5D0
330
528
100
AcDbEntity
  8
4FNGRGD
100
AcDbLine
 10
-13.6995399114778
 20
6.827281155063616
 30
0.0
 11
-13.67352148655378
 21
6.820311101310565
 31
0.0
  0
LINE
  5
5D1
330
528
100
AcDbEntity
  8
4FNGRGD
100
AcDbLine
 10
-13.6995399114778
 20
10.08303328551893
 30
0.0
 11
-13.67352148655378
 21
10.09000333927197
 31
0.0
  0
ARC
  5
5D2
330
528
100
AcDbEntity
  8
4FNGRGD
100
AcDbCircle
 10
-13.69086710316979
 20
10.02841730145626
 30
0.0
 40
0.125
100
AcDbArc
 50
104.9967902546371
 51
180.0
  0
ARC
  5
5D3
330
528
100
AcDbEntity
  8
4FNGRGD
100
AcDbCircle
 10
-13.70586710316981
 20
10.21074587976922
 30
0.0
 40
0.125
100
AcDbArc
 50
284.9967902546378
 51
359.9999999999992
  0
ARC
  5
5D4
330
528
100
AcDbEntity
  8
4FNGRGD
100
AcDbCircle
 10
-13.69086710316979
 20
6.881897139126292
 30
0.0
 40
0.125
100
AcDbArc
 50
180.0
 51
255.0032097453636
  0
ARC
  5
5D5
330
528
100
AcDbEntity
  8
4FNGRGD
100
AcDbCircle
 10
-13.70586710316981
 20
6.699568560813315
 30
0.0
 40
0.125
100
AcDbArc
 50
0.0000000000008142
 51
75.00320974536371
  0
ARC
  5
5D6
330
528
100
AcDbEntity
  8
4FNGRGD
100
AcDbCircle
 10
-13.7133671031698
 20
6.693813274627371
 30
0.0
 40
0.0625
100
AcDbArc
 50
0.0000000000008142
 51
75.00320974536371
  0
ARC
  5
5D7
330
528
100
AcDbEntity
  8
4FNGRGD
100
AcDbCircle
 10
-13.68336710316979
 20
6.887652425312237
 30
0.0
 40
0.0625
100
AcDbArc
 50
180.0
 51
255.0032097453629
  0
ARC
  5
5D8
330
528
100
AcDbEntity
  8
4FNGRGD
100
AcDbCircle
 10
-13.68336710316979
 20
10.02266201527031
 30
0.0
 40
0.0625
100
AcDbArc
 50
104.9967902546371
 51
180.0
  0
ARC
  5
5D9
330
528
100
AcDbEntity
  8
4FNGRGD
100
AcDbCircle
 10
-13.7133671031698
 20
10.21650116595518
 30
0.0
 40
0.0625
100
AcDbArc
 50
284.9967902546371
 51
0.0
  0
LINE
  5
5DA
330
528
100
AcDbEntity
  8
4FNGRGD
100
AcDbLine
 10
-13.7458671031698
 20
10.73615722029127
 30
0.0
 11
-13.7458671031698
 21
10.14066702305948
 31
0.0
  0
LINE
  5
5DB
330
528
100
AcDbEntity
  8
4FNGRGD
100
AcDbLine
 10
-13.7458671031698
 20
6.769647417523072
 30
0.0
 11
-13.7458671031698
 21
6.174157220291276
 31
0.0
  0
LINE
  5
5DC
330
528
100
AcDbEntity
  8
4FNGRGD
100
AcDbLine
 10
-13.67586710316979
 20
6.74381327462737
 30
0.0
 11
-13.67586710316979
 21
6.174157220291276
 31
0.0
  0
LINE
  5
5DD
330
528
100
AcDbEntity
  8
4FNGRGD
100
AcDbLine
 10
-13.6758671031698
 20
10.08937497402905
 30
0.0
 11
-13.67586710316979
 21
6.820939466553483
 31
0.0
  0
LINE
  5
5DE
330
528
100
AcDbEntity
  8
4FNGRGD
100
AcDbLine
 10
-13.7458671031698
 20
10.02266201527031
 30
0.0
 11
-13.7458671031698
 21
6.887652425312237
 31
0.0
  0
LINE
  5
5DF
330
528
100
AcDbEntity
  8
4FNGRGD
100
AcDbLine
 10
-13.9008671031698
 20
10.52515722029127
 30
0.0
 11
-13.33086710316981
 21
10.52515722029127
 31
0.0
  0
LINE
  5
5E0
330
528
100
AcDbEntity
  8
4FNGRGD
100
AcDbLine
 10
-13.9008671031698
 20
6.385157220291276
 30
0.0
 11
-13.33086710316979
 21
6.385157220291276
 31
0.0
  0
LINE
  5
5E1
330
528
100
AcDbEntity
  8
4INFAN
100
AcDbLine
 10
-12.28086710316979
 20
10.52515722029127
 30
0.0
 11
-12.08086710316978
 21
10.52515722029127
 31
0.0
  0
LINE
  5
5E2
330
528
100
AcDbEntity
  8
4INFAN
100
AcDbLine
 10
-12.6808671031698
 20
10.52515722029127
 30
0.0
 11
-12.48086710316981
 21
10.52515722029127
 31
0.0
  0
LINE
  5
5E3
330
528
100
AcDbEntity
  8
4INFAN
100
AcDbLine
 10
-13.1808671031698
 20
10.52515722029127
 30
0.0
 11
-12.98086710316978
 21
10.52515722029127
 31
0.0
  0
LINE
  5
5E4
330
528
100
AcDbEntity
  8
4INFAN
100
AcDbLine
 10
-13.58086710316981
 20
10.52515722029127
 30
0.0
 11
-13.38086710316979
 21
10.52515722029127
 31
0.0
  0
LINE
  5
5E5
330
528
100
AcDbEntity
  8
4INFAN
100
AcDbLine
 10
-13.58086710316981
 20
10.80015722029128
 30
0.0
 11
-12.08086710316981
 21
10.80015722029128
 31
0.0
  0
LINE
  5
5E6
330
528
100
AcDbEntity
  8
4INFAN
100
AcDbLine
 10
-12.28086710316979
 20
6.385157220291276
 30
0.0
 11
-12.08086710316981
 21
6.385157220291276
 31
0.0
  0
LINE
  5
5E7
330
528
100
AcDbEntity
  8
4INFAN
100
AcDbLine
 10
-12.6808671031698
 20
6.385157220291276
 30
0.0
 11
-12.48086710316981
 21
6.385157220291276
 31
0.0
  0
LINE
  5
5E8
330
528
100
AcDbEntity
  8
4INFAN
100
AcDbLine
 10
-13.1808671031698
 20
6.385157220291276
 30
0.0
 11
-12.98086710316978
 21
6.385157220291276
 31
0.0
  0
LINE
  5
5E9
330
528
100
AcDbEntity
  8
4INFAN
100
AcDbLine
 10
-13.58086710316981
 20
6.385157220291276
 30
0.0
 11
-13.38086710316979
 21
6.385157220291276
 31
0.0
  0
LINE
  5
5EA
330
528
100
AcDbEntity
  8
4INFAN
100
AcDbLine
 10
-13.58086710316981
 20
6.110157220291268
 30
0.0
 11
-12.08086710316981
 21
6.110157220291268
 31
0.0
  0
LINE
  5
5EB
330
528
100
AcDbEntity
  8
4INFAN
100
AcDbLine
 10
-13.58086710316981
 20
10.80015722029128
 30
0.0
 11
-13.58086710316981
 21
6.110157220291268
 31
0.0
  0
LINE
  5
5EC
330
528
100
AcDbEntity
  8
4INFAN
100
AcDbLine
 10
-12.08086710316981
 20
10.80015722029128
 30
0.0
 11
-12.08086710316981
 21
6.110157220291268
 31
0.0
  0
LINE
  5
5ED
330
528
100
AcDbEntity
  8
4INFAN
100
AcDbLine
 10
-13.38086710316979
 20
10.80015722029128
 30
0.0
 11
-13.38086710316979
 21
6.110157220291268
 31
0.0
  0
LINE
  5
5EE
330
528
100
AcDbEntity
  8
4INFAN
100
AcDbLine
 10
-12.28086710316979
 20
10.80015722029128
 30
0.0
 11
-12.28086710316979
 21
6.110157220291268
 31
0.0
  0
LINE
  5
5EF
330
528
100
AcDbEntity
  8
100FPBASE
100
AcDbLine
 10
-12.02086710316986
 20
12.3076572202913
 30
0.0
 11
-12.02086710316975
 21
4.617657220291306
 31
0.0
  0
LINE
  5
5F0
330
528
100
AcDbEntity
  8
100FPBASE
100
AcDbLine
 10
-12.08086710316981
 20
12.3076572202913
 30
0.0
 11
-12.08086710316981
 21
4.617657220291306
 31
0.0
  0
LINE
  5
5F1
330
528
100
AcDbEntity
  8
100FPWIREBOX
100
AcDbLine
 10
-13.51836710316981
 20
5.993657220291337
 30
0.0
 11
-13.51836710316981
 21
5.493657220291337
 31
0.0
  0
LINE
  5
5F2
330
528
100
AcDbEntity
  8
100FPWIREBOX
  6
DASHED
100
AcDbLine
 10
-13.45586710316958
 20
5.993657220291452
 30
0.0
 11
-13.45586710316958
 21
5.553657220291398
 31
0.0
  0
LINE
  5
5F3
330
528
100
AcDbEntity
  8
100FPWIREBOX
100
AcDbLine
 10
-12.08086710316981
 20
5.993657220291337
 30
0.0
 11
-12.08086710316981
 21
5.493657220291337
 31
0.0
  0
LINE
  5
5F4
330
528
100
AcDbEntity
  8
100FPWIREBOX
100
AcDbLine
 10
-12.14336710316958
 20
5.993657220291337
 30
0.0
 11
-12.14336710316958
 21
5.493657220291337
 31
0.0
  0
LINE
  5
5F5
330
528
100
AcDbEntity
  8
100FPWIREBOX
100
AcDbLine
 10
-13.51836710316981
 20
5.993657220291337
 30
0.0
 11
-12.08086710316981
 21
5.993657220291337
 31
0.0
  0
LINE
  5
5F6
330
528
100
AcDbEntity
  8
100FPWIREBOX
100
AcDbLine
 10
-13.51836710316981
 20
5.493657220291337
 30
0.0
 11
-12.08086710316981
 21
5.493657220291337
 31
0.0
  0
LINE
  5
5F7
330
528
100
AcDbEntity
  8
100FPWIREBOX
  6
DASHED
100
AcDbLine
 10
-12.08086710316981
 20
5.553657220291398
 30
0.0
 11
-13.45586710316958
 21
5.553657220291398
 31
0.0
  0
LINE
  5
5F8
330
528
100
AcDbEntity
  8
100FPBASE
100
AcDbLine
 10
-12.15086710316974
 20
8.60265722029132
 30
0.0
 11
-12.15086710316974
 21
8.32265722029129
 31
0.0
  0
LINE
  5
5F9
330
528
100
AcDbEntity
  8
100FPBASE
100
AcDbLine
 10
-12.15086710316974
 20
8.32265722029129
 30
0.0
 11
-12.08086710316981
 21
8.32265722029129
 31
0.0
  0
LINE
  5
5FA
330
528
100
AcDbEntity
  8
100FPBASE
100
AcDbLine
 10
-12.15086710316974
 20
8.60265722029132
 30
0.0
 11
-12.08086710316981
 21
8.602657220291263
 31
0.0
  0
LINE
  5
5FB
330
528
100
AcDbEntity
  8
100FPBASE
100
AcDbLine
 10
-12.08086710316981
 20
4.617657220291306
 30
0.0
 11
-12.02086710316963
 21
4.617657220291306
 31
0.0
  0
LINE
  5
5FC
330
528
100
AcDbEntity
  8
100FPBASE
100
AcDbLine
 10
-12.08086710316981
 20
12.3076572202913
 30
0.0
 11
-12.02086710316975
 21
12.3076572202913
 31
0.0
  0
LINE
  5
5FD
330
528
100
AcDbEntity
  8
100 filter cover
  6
HIDDEN
100
AcDbLine
 10
-11.9608671031695
 20
3.617657220291306
 30
0.0
 11
-11.9608671031695
 21
3.350657220291252
 31
0.0
  0
LINE
  5
5FE
330
528
100
AcDbEntity
  8
100 filter cover
100
AcDbLine
 10
-12.02086710316951
 20
3.617657220291306
 30
0.0
 11
-8.645867103169507
 21
3.617657220291292
 31
0.0
  0
LINE
  5
5FF
330
528
100
AcDbEntity
  8
100 filter cover
100
AcDbLine
 10
-12.02086710316951
 20
3.557657220291233
 30
0.0
 11
-8.645867103169507
 21
3.557657220291247
 31
0.0
  0
LINE
  5
600
330
528
100
AcDbEntity
  8
100 filter cover
  6
HIDDEN
100
AcDbLine
 10
-11.9608671031695
 20
3.350657220291239
 30
0.0
 11
-8.705867103169451
 21
3.350657220291267
 31
0.0
  0
LINE
  5
601
330
528
100
AcDbEntity
  8
100 filter cover
100
AcDbLine
 10
-12.02086710316951
 20
3.290657220291278
 30
0.0
 11
-8.645867103169507
 21
3.290657220291294
 31
0.0
  0
LINE
  5
602
330
528
100
AcDbEntity
  8
100 filter cover
100
AcDbLine
 10
-12.02086710316951
 20
3.617657220291306
 30
0.0
 11
-12.02086710316951
 21
3.290657220291365
 31
0.0
  0
LINE
  5
603
330
528
100
AcDbEntity
  8
100 filter cover
100
AcDbLine
 10
-8.645867103169507
 20
3.617657220291306
 30
0.0
 11
-8.645867103169507
 21
3.290657220291308
 31
0.0
  0
LINE
  5
604
330
528
100
AcDbEntity
  8
100 filter cover
  6
HIDDEN
100
AcDbLine
 10
-8.705867103169509
 20
3.617657220291306
 30
0.0
 11
-8.705867103169451
 21
3.350657220291252
 31
0.0
  0
LINE
  5
605
330
528
100
AcDbEntity
  8
shroud
  6
HIDDEN
100
AcDbLine
 10
-10.56896484058568
 20
12.3726572202913
 30
0.0
 11
-8.63071469878194
 21
3.677657220291308
 31
0.0
  0
LINE
  5
606
330
528
100
AcDbEntity
  8
shroud
100
AcDbLine
 10
-12.02086710316951
 20
3.617657220291306
 30
0.0
 11
-8.555867103169504
 21
3.617657220291306
 31
0.0
  0
LINE
  5
607
330
528
100
AcDbEntity
  8
shroud
100
AcDbLine
 10
-10.52086710316951
 20
12.4326572202913
 30
0.0
 11
-8.555867103169504
 21
3.61765722029132
 31
0.0
  0
LINE
  5
608
330
528
100
AcDbEntity
  8
shroud
100
AcDbLine
 10
-12.02086710316951
 20
12.4326572202913
 30
0.0
 11
-10.52086710316951
 21
12.4326572202913
 31
0.0
  0
LINE
  5
609
330
528
100
AcDbEntity
  8
shroud
100
AcDbLine
 10
-12.96086710316973
 20
4.727657220291289
 30
0.0
 11
-12.96086710316967
 21
4.917657220291289
 31
0.0
  0
LINE
  5
60A
330
528
100
AcDbEntity
  8
shroud
100
AcDbLine
 10
-12.96086710316973
 20
4.727657220291289
 30
0.0
 11
-12.02086710316968
 21
4.727657220291289
 31
0.0
  0
LINE
  5
60B
330
528
100
AcDbEntity
  8
shroud
100
AcDbLine
 10
-12.96086710316967
 20
4.917657220291289
 30
0.0
 11
-12.02086710316968
 21
4.917657220291347
 31
0.0
  0
HATCH
  5
60C
330
528
100
AcDbEntity
  8
shroud
100
AcDbHatch
 10
0.0
 20
0.0
 30
0.0
210
0.0
220
0.0
230
1.0
  2
ANSI31
 70
     0
 71
     0
 91
        2
 92
        7
 72
     0
 73
     1
 93
        4
 10
-12.08086710316974
 20
4.727657220291289
 10
-12.96086710316979
 20
4.727657220291289
 10
-12.96086710316967
 20
4.917657220291347
 10
-12.08086710316968
 20
4.917657220291347
 97
        0
 92
        7
 72
     0
 73
     1
 93
        4
 10
-12.02086710316979
 20
4.727657220291289
 10
-12.08086710316968
 20
4.727657220291233
 10
-12.08086710316962
 20
4.917657220291347
 10
-12.02086710316973
 20
4.917657220291347
 97
        0
 75
     0
 76
     1
 52
180.0
 41
1.0
 77
     0
 78
     1
 53
315.0
 43
323.9581134360073
 44
205.0902773057181
 45
-0.0883883476483185
 46
-0.0883883476483184
 79
     0
 47
0.0064273479349743
 98
        2
 10
-12.31300376549677
 20
4.805705125816245
 10
-12.06214905006197
 20
4.812131835596516
  0
LINE
  5
60D
330
528
100
AcDbEntity
  8
shroud
100
AcDbLine
 10
-12.9608671031697
 20
12.00765722029129
 30
0.0
 11
-12.96086710316965
 21
12.19765722029135
 31
0.0
  0
LINE
  5
60E
330
528
100
AcDbEntity
  8
shroud
100
AcDbLine
 10
-12.9608671031697
 20
12.00765722029129
 30
0.0
 11
-12.02086710316965
 21
12.00765722029129
 31
0.0
  0
LINE
  5
60F
330
528
100
AcDbEntity
  8
shroud
100
AcDbLine
 10
-12.96086710316965
 20
12.19765722029135
 30
0.0
 11
-12.02086710316965
 21
12.19765722029135
 31
0.0
  0
HATCH
  5
610
330
528
100
AcDbEntity
  8
shroud
100
AcDbHatch
 10
0.0
 20
0.0
 30
0.0
210
0.0
220
0.0
230
1.0
  2
ANSI31
 70
     0
 71
     0
 91
        2
 92
        7
 72
     0
 73
     1
 93
        4
 10
-12.08086710316971
 20
12.00765722029129
 10
-12.96086710316976
 20
12.00765722029129
 10
-12.96086710316965
 20
12.19765722029135
 10
-12.08086710316965
 20
12.1976572202914
 97
        0
 92
        7
 72
     0
 73
     1
 93
        4
 10
-12.02086710316976
 20
12.00765722029129
 10
-12.08086710316965
 20
12.00765722029129
 10
-12.08086710316959
 20
12.1976572202914
 10
-12.02086710316971
 20
12.19765722029135
 97
        0
 75
     0
 76
     1
 52
180.0
 41
1.0
 77
     0
 78
     1
 53
315.0
 43
323.9581134360073
 44
212.3702773057181
 45
-0.0883883476483185
 46
-0.0883883476483184
 79
     0
 47
0.0064273479349743
 98
        2
 10
-12.31300376549674
 20
12.0857051258163
 10
-12.06214905006194
 20
12.09213183559657
  0
LINE
  5
611
330
528
100
AcDbEntity
  8
shroud
  6
HIDDEN
100
AcDbLine
 10
-11.96086710316928
 20
12.3726572202913
 30
0.0
 11
-10.56896484058569
 21
12.3726572202913
 31
0.0
  0
LINE
  5
612
330
528
100
AcDbEntity
  8
shroud
  6
HIDDEN
100
AcDbLine
 10
-11.96086710316953
 20
3.677657220291308
 30
0.0
 11
-8.63071469878194
 21
3.677657220291308
 31
0.0
  0
LINE
  5
613
330
528
100
AcDbEntity
  8
shroud
  6
HIDDEN
100
AcDbLine
 10
-11.96086710316928
 20
12.3726572202913
 30
0.0
 11
-11.96086710316953
 21
3.677657220291308
 31
0.0
  0
LINE
  5
614
330
528
100
AcDbEntity
  8
shroud
100
AcDbLine
 10
-10.28711710316954
 20
3.756767981791142
 30
0.0
 11
-10.28711710316954
 21
3.686767981791204
 31
0.0
  0
LINE
  5
615
330
528
100
AcDbEntity
  8
shroud
100
AcDbLine
 10
-10.56711710316951
 20
3.756767981791142
 30
0.0
 11
-10.28711710316954
 21
3.756767981791142
 31
0.0
  0
LINE
  5
616
330
528
100
AcDbEntity
  8
shroud
100
AcDbLine
 10
-10.56711710316951
 20
3.756767981791142
 30
0.0
 11
-10.56711710316951
 21
3.686767981791204
 31
0.0
  0
LINE
  5
617
330
528
100
AcDbEntity
  8
shroud
100
AcDbLine
 10
-12.02086710316951
 20
12.4326572202913
 30
0.0
 11
-12.02086710316951
 21
3.617657220291306
 31
0.0
  0
CIRCLE
  5
618
330
528
100
AcDbEntity
  8
4INFAN
100
AcDbCircle
 10
14.31750691994323
 20
10.52515722029127
 30
0.0
 40
0.085
  0
LINE
  5
619
330
528
100
AcDbEntity
  8
4INFAN
100
AcDbLine
 10
13.48085348472473
 20
8.904058658406212
 30
0.0
 11
14.24435373911329
 21
9.181950024858323
 31
0.0
  0
LINE
  5
61A
330
528
100
AcDbEntity
  8
4INFAN
100
AcDbLine
 10
13.56000691994323
 20
8.455157220291269
 30
0.0
 11
14.37250691994323
 21
8.455157220291269
 31
0.0
  0
LINE
  5
61B
330
528
100
AcDbEntity
  8
4INFAN
100
AcDbLine
 10
12.65309172506035
 20
9.703418897928656
 30
0.0
 11
12.90416803299
 21
10.47615231741847
 31
0.0
  0
LINE
  5
61C
330
528
100
AcDbEntity
  8
4INFAN
100
AcDbLine
 10
12.2017013305212
 20
9.766857680753844
 30
0.0
 11
12.17334548945042
 21
10.57886272770685
 31
0.0
  0
LINE
  5
61D
330
528
100
AcDbEntity
  8
4INFAN
100
AcDbLine
 10
12.24750691994323
 20
8.955157220291269
 30
0.0
 11
12.24750691994323
 21
7.955157220291267
 31
0.0
  0
LINE
  5
61E
330
528
100
AcDbEntity
  8
4INFAN
100
AcDbLine
 10
11.74750691994323
 20
8.455157220291269
 30
0.0
 11
12.74750691994323
 21
8.455157220291269
 31
0.0
  0
CIRCLE
  5
61F
330
528
100
AcDbEntity
  8
4INFAN
100
AcDbCircle
 10
10.17750691994324
 20
10.52515722029127
 30
0.0
 40
0.085
  0
ARC
  5
620
330
528
100
AcDbEntity
  8
4INFAN
100
AcDbCircle
 10
12.24750691994323
 20
8.455157220291269
 30
0.0
 40
2.125
100
AcDbArc
 50
91.99999999999958
 51
143.9999999999997
  0
LINE
  5
621
330
528
100
AcDbEntity
  8
4INFAN
100
AcDbLine
 10
11.18567211482612
 20
9.226625363925135
 30
0.0
 11
10.52834580689647
 21
9.704200881412772
 31
0.0
  0
LINE
  5
622
330
528
100
AcDbEntity
  8
4INFAN
100
AcDbLine
 10
10.98585094402419
 20
8.816931249801086
 30
0.0
 11
10.2048258160743
 21
9.040886601402403
 31
0.0
  0
LINE
  5
623
330
528
100
AcDbEntity
  8
4INFAN
100
AcDbLine
 10
9.902506919943236
 20
10.80015722029128
 30
0.0
 11
14.59250691994323
 21
10.80015722029128
 31
0.0
  0
ARC
  5
624
330
528
100
AcDbEntity
  8
4INFAN
100
AcDbCircle
 10
12.24750691994323
 20
8.455157220291269
 30
0.0
 40
2.125
100
AcDbArc
 50
20.00000000000002
 51
71.9999999999994
  0
CIRCLE
  5
625
330
528
100
AcDbEntity
  8
4INFAN
100
AcDbCircle
 10
14.31750691994323
 20
6.385157220291276
 30
0.0
 40
0.085
  0
LINE
  5
626
330
528
100
AcDbEntity
  8
4INFAN
100
AcDbLine
 10
13.05556260630815
 20
7.420893106182447
 30
0.0
 11
13.55578755501027
 21
6.780634368877002
 31
0.0
  0
LINE
  5
627
330
528
100
AcDbEntity
  8
4INFAN
100
AcDbLine
 10
12.65309172506035
 20
7.206895542653882
 30
0.0
 11
12.90416803299
 21
6.43416212316407
 31
0.0
  0
LINE
  5
628
330
528
100
AcDbEntity
  8
4INFAN
100
AcDbLine
 10
11.51356623413788
 20
7.367045406312782
 30
0.0
 11
11.0592220000679
 21
6.693452378611809
 31
0.0
  0
ARC
  5
629
330
528
100
AcDbEntity
  8
4INFAN
100
AcDbCircle
 10
12.24750691994323
 20
8.455157220291269
 30
0.0
 40
2.125
100
AcDbArc
 50
236.0
 51
287.9999999999999
  0
CIRCLE
  5
62A
330
528
100
AcDbEntity
  8
4INFAN
100
AcDbCircle
 10
10.17750691994324
 20
6.385157220291276
 30
0.0
 40
0.085
  0
LINE
  5
62B
330
528
100
AcDbEntity
  8
4INFAN
100
AcDbLine
 10
11.18567211482612
 20
7.683689076657401
 30
0.0
 11
10.52834580689647
 21
7.206113559169762
 31
0.0
  0
LINE
  5
62C
330
528
100
AcDbEntity
  8
4INFAN
100
AcDbLine
 10
9.902506919943236
 20
6.110157220291268
 30
0.0
 11
14.59250691994323
 21
6.110157220291268
 31
0.0
  0
LINE
  5
62D
330
528
100
AcDbEntity
  8
4INFAN
100
AcDbLine
 10
9.902506919943236
 20
10.80015722029128
 30
0.0
 11
9.902506919943236
 21
6.110157220291268
 31
0.0
  0
LINE
  5
62E
330
528
100
AcDbEntity
  8
4INFAN
100
AcDbLine
 10
14.59250691994323
 20
10.80015722029128
 30
0.0
 11
14.59250691994323
 21
6.110157220291268
 31
0.0
  0
CIRCLE
  5
62F
330
528
100
AcDbEntity
  8
4INFAN
100
AcDbCircle
 10
12.24750691994323
 20
8.455157220291269
 30
0.0
 40
2.25
  0
CIRCLE
  5
630
330
528
100
AcDbEntity
  8
4INFAN
100
AcDbCircle
 10
12.24750691994323
 20
8.455157220291269
 30
0.0
 40
1.3125
  0
ARC
  5
631
330
528
100
AcDbEntity
  8
4INFAN
100
AcDbCircle
 10
12.24750691994323
 20
8.455157220291269
 30
0.0
 40
2.125
100
AcDbArc
 50
308.0000000000008
 51
0.0
  0
ARC
  5
632
330
528
100
AcDbEntity
  8
4INFAN
100
AcDbCircle
 10
12.24750691994323
 20
8.455157220291269
 30
0.0
 40
2.125
100
AcDbArc
 50
164.0000000000001
 51
216.0000000000003
  0
ARC
  5
633
330
528
100
AcDbEntity
  8
4FNGRGD
100
AcDbCircle
 10
12.24750691994323
 20
8.455157220291269
 30
0.0
 40
2.281
100
AcDbArc
 50
136.1304153241532
 51
223.8695846758475
  0
ARC
  5
634
330
528
100
AcDbEntity
  8
4FNGRGD
100
AcDbCircle
 10
12.24750691994323
 20
8.455157220291269
 30
0.0
 40
2.210999999999998
100
AcDbArc
 50
136.1662090076728
 51
223.8337909923272
  0
ARC
  5
635
330
528
100
AcDbEntity
  8
4FNGRGD
100
AcDbCircle
 10
12.24750691994323
 20
8.455157220291269
 30
0.0
 40
2.0
100
AcDbArc
 50
136.2892638362874
 51
223.7107361637125
  0
ARC
  5
636
330
528
100
AcDbEntity
  8
4FNGRGD
100
AcDbCircle
 10
12.24750691994323
 20
8.455157220291269
 30
0.0
 40
1.929999999999999
100
AcDbArc
 50
136.3360330294323
 51
223.6639669705675
  0
ARC
  5
637
330
528
100
AcDbEntity
  8
4FNGRGD
100
AcDbCircle
 10
12.24750691994323
 20
8.455157220291269
 30
0.0
 40
1.729999999999999
100
AcDbArc
 50
136.4905207599048
 51
223.5094792400952
  0
ARC
  5
638
330
528
100
AcDbEntity
  8
4FNGRGD
100
AcDbCircle
 10
12.24750691994323
 20
8.455157220291269
 30
0.0
 40
1.659999999999999
100
AcDbArc
 50
136.5533891376327
 51
223.4466108623673
  0
ARC
  5
639
330
528
100
AcDbEntity
  8
4FNGRGD
100
AcDbCircle
 10
12.24750691994323
 20
8.455157220291269
 30
0.0
 40
1.45
100
AcDbArc
 50
136.7784304387045
 51
223.2215695612955
  0
ARC
  5
63A
330
528
100
AcDbEntity
  8
4FNGRGD
100
AcDbCircle
 10
12.24750691994323
 20
8.455157220291269
 30
0.0
 40
1.379999999999999
100
AcDbArc
 50
136.8686719043484
 51
223.1313280956515
  0
ARC
  5
63B
330
528
100
AcDbEntity
  8
4FNGRGD
100
AcDbCircle
 10
12.24750691994323
 20
8.455157220291269
 30
0.0
 40
0.35
100
AcDbArc
 50
142.3982372955836
 51
217.6017627044164
  0
ARC
  5
63C
330
528
100
AcDbEntity
  8
4FNGRGD
100
AcDbCircle
 10
12.24750691994323
 20
8.455157220291269
 30
0.0
 40
0.28
100
AcDbArc
 50
146.3914436454991
 51
213.6085563545008
  0
ARC
  5
63D
330
528
100
AcDbEntity
  8
4FNGRGD
100
AcDbCircle
 10
12.24750691994323
 20
8.455157220291269
 30
0.0
 40
0.625
100
AcDbArc
 50
139.1288687212375
 51
220.8711312787632
  0
ARC
  5
63E
330
528
100
AcDbEntity
  8
4FNGRGD
100
AcDbCircle
 10
12.24750691994323
 20
8.455157220291269
 30
0.0
 40
0.5550000000000001
100
AcDbArc
 50
139.6507090048792
 51
220.3492909951207
  0
ARC
  5
63F
330
528
100
AcDbEntity
  8
4FNGRGD
100
AcDbCircle
 10
12.24750691994323
 20
8.455157220291269
 30
0.0
 40
0.9059999999999998
100
AcDbArc
 50
137.8469882677721
 51
222.1530117322279
  0
ARC
  5
640
330
528
100
AcDbEntity
  8
4FNGRGD
100
AcDbCircle
 10
12.24750691994323
 20
8.455157220291269
 30
0.0
 40
0.8359999999999999
100
AcDbArc
 50
138.0855942365199
 51
221.91440576348
  0
ARC
  5
641
330
528
100
AcDbEntity
  8
4FNGRGD
100
AcDbCircle
 10
12.24750691994323
 20
8.455157220291269
 30
0.0
 40
1.177
100
AcDbArc
 50
137.191111836003
 51
222.808888163997
  0
ARC
  5
642
330
528
100
AcDbEntity
  8
4FNGRGD
100
AcDbCircle
 10
12.24750691994323
 20
8.455157220291269
 30
0.0
 40
1.106999999999997
100
AcDbArc
 50
137.3297386604342
 51
222.6702613395658
  0
LINE
  5
643
330
528
100
AcDbEntity
  8
4FNGRGD
100
AcDbLine
 10
10.27439463205282
 20
10.3646298978749
 30
0.0
 11
11.96568711478984
 21
8.673337415137877
 31
0.0
  0
LINE
  5
644
330
528
100
AcDbEntity
  8
4FNGRGD
100
AcDbLine
 10
10.33803424235959
 20
10.42826950818168
 30
0.0
 11
12.02932672509662
 21
8.736977025444673
 31
0.0
  0
LINE
  5
645
330
528
100
AcDbEntity
  8
4FNGRGD
100
AcDbLine
 10
14.15697959752687
 20
10.42826950818168
 30
0.0
 11
12.46112040511539
 21
8.732410315770223
 31
0.0
  0
LINE
  5
646
330
528
100
AcDbEntity
  8
4FNGRGD
100
AcDbLine
 10
14.22061920783365
 20
10.3646298978749
 30
0.0
 11
12.52932672509662
 21
8.673337415137877
 31
0.0
  0
ARC
  5
647
330
528
100
AcDbEntity
  8
4FNGRGD
100
AcDbCircle
 10
10.17750691994324
 20
10.52515722029127
 30
0.0
 40
0.1875
100
AcDbArc
 50
328.8865403626293
 51
301.1134596373707
  0
ARC
  5
648
330
528
100
AcDbEntity
  8
4FNGRGD
100
AcDbCircle
 10
14.31750691994323
 20
10.52515722029127
 30
0.0
 40
0.1875
100
AcDbArc
 50
238.8865403626292
 51
211.1134596373717
  0
ARC
  5
649
330
528
100
AcDbEntity
  8
4FNGRGD
100
AcDbCircle
 10
10.17750691994324
 20
6.385157220291276
 30
0.0
 40
0.1875
100
AcDbArc
 50
58.8865403626275
 51
31.1134596373717
  0
ARC
  5
64A
330
528
100
AcDbEntity
  8
4FNGRGD
100
AcDbCircle
 10
14.31750691994323
 20
6.385157220291276
 30
0.0
 40
0.1875
100
AcDbArc
 50
148.8865403626283
 51
121.1134596373708
  0
CIRCLE
  5
64B
330
528
100
AcDbEntity
  8
4FNGRGD
100
AcDbCircle
 10
10.17750691994324
 20
10.52515722029127
 30
0.0
 40
0.1175
  0
CIRCLE
  5
64C
330
528
100
AcDbEntity
  8
4FNGRGD
100
AcDbCircle
 10
14.31750691994323
 20
10.52515722029127
 30
0.0
 40
0.1175
  0
CIRCLE
  5
64D
330
528
100
AcDbEntity
  8
4FNGRGD
100
AcDbCircle
 10
10.17750691994324
 20
6.385157220291276
 30
0.0
 40
0.1175
  0
CIRCLE
  5
64E
330
528
100
AcDbEntity
  8
4FNGRGD
100
AcDbCircle
 10
14.31750691994323
 20
6.385157220291276
 30
0.0
 40
0.1175
  0
ARC
  5
64F
330
528
100
AcDbEntity
  8
4FNGRGD
100
AcDbCircle
 10
12.74750691994323
 20
8.455157220291269
 30
0.0
 40
0.3986057134912808
100
AcDbArc
 50
134.0716397936337
 51
225.9283602063446
  0
ARC
  5
650
330
528
100
AcDbEntity
  8
4FNGRGD
100
AcDbCircle
 10
12.74750691994323
 20
8.455157220291269
 30
0.0
 40
0.308553390593275
100
AcDbArc
 50
134.9999999999995
 51
225.0000000000005
  0
ARC
  5
651
330
528
100
AcDbEntity
  8
4FNGRGD
100
AcDbCircle
 10
11.74750691994323
 20
8.455157220291269
 30
0.0
 40
0.3985533905932713
100
AcDbArc
 50
315.0000000000007
 51
44.99999999999936
  0
ARC
  5
652
330
528
100
AcDbEntity
  8
4FNGRGD
100
AcDbCircle
 10
11.74750691994323
 20
8.455157220291269
 30
0.0
 40
0.308553390593275
100
AcDbArc
 50
314.9999999999995
 51
44.99999999999936
  0
LINE
  5
653
330
528
100
AcDbEntity
  8
4FNGRGD
100
AcDbLine
 10
12.46112040511549
 20
8.177904124812213
 30
0.0
 11
14.15697959752687
 21
6.482044932400866
 31
0.0
  0
LINE
  5
654
330
528
100
AcDbEntity
  8
4FNGRGD
100
AcDbLine
 10
12.52932672509662
 20
8.236977025444673
 30
0.0
 11
14.22061920783365
 21
6.545684542707647
 31
0.0
  0
LINE
  5
655
330
528
100
AcDbEntity
  8
4FNGRGD
100
AcDbLine
 10
11.96568711478984
 20
8.236977025444673
 30
0.0
 11
10.27439463205282
 21
6.545684542707647
 31
0.0
  0
LINE
  5
656
330
528
100
AcDbEntity
  8
4FNGRGD
100
AcDbLine
 10
12.02932672509662
 20
8.173337415137877
 30
0.0
 11
10.33803424235959
 21
6.482044932400866
 31
0.0
  0
ARC
  5
657
330
528
100
AcDbEntity
  8
4FNGRGD
100
AcDbCircle
 10
12.24750691994323
 20
8.455157220291269
 30
0.0
 40
2.281
100
AcDbArc
 50
226.1304153241533
 51
313.8695846758464
  0
ARC
  5
658
330
528
100
AcDbEntity
  8
4FNGRGD
100
AcDbCircle
 10
12.24750691994323
 20
8.455157220291269
 30
0.0
 40
2.210999999999998
100
AcDbArc
 50
226.1662090076725
 51
313.8337909923273
  0
ARC
  5
659
330
528
100
AcDbEntity
  8
4FNGRGD
100
AcDbCircle
 10
12.24750691994323
 20
8.455157220291269
 30
0.0
 40
2.0
100
AcDbArc
 50
226.2892638362882
 51
313.7107361637119
  0
ARC
  5
65A
330
528
100
AcDbEntity
  8
4FNGRGD
100
AcDbCircle
 10
12.24750691994323
 20
8.455157220291269
 30
0.0
 40
1.929999999999999
100
AcDbArc
 50
226.3360330294317
 51
313.6639669705681
  0
ARC
  5
65B
330
528
100
AcDbEntity
  8
4FNGRGD
100
AcDbCircle
 10
12.24750691994323
 20
8.455157220291269
 30
0.0
 40
1.729999999999999
100
AcDbArc
 50
226.490520759905
 51
313.5094792400953
  0
ARC
  5
65C
330
528
100
AcDbEntity
  8
4FNGRGD
100
AcDbCircle
 10
12.24750691994323
 20
8.455157220291269
 30
0.0
 40
1.659999999999999
100
AcDbArc
 50
226.5533891376331
 51
313.4466108623666
  0
ARC
  5
65D
330
528
100
AcDbEntity
  8
4FNGRGD
100
AcDbCircle
 10
12.24750691994323
 20
8.455157220291269
 30
0.0
 40
1.45
100
AcDbArc
 50
226.7784304387046
 51
313.2215695612954
  0
ARC
  5
65E
330
528
100
AcDbEntity
  8
4FNGRGD
100
AcDbCircle
 10
12.24750691994323
 20
8.455157220291269
 30
0.0
 40
1.379999999999999
100
AcDbArc
 50
226.8686719043486
 51
313.1313280956514
  0
ARC
  5
65F
330
528
100
AcDbEntity
  8
4FNGRGD
100
AcDbCircle
 10
12.24750691994323
 20
8.455157220291269
 30
0.0
 40
1.177
100
AcDbArc
 50
227.191111836003
 51
312.8088881639972
  0
ARC
  5
660
330
528
100
AcDbEntity
  8
4FNGRGD
100
AcDbCircle
 10
12.24750691994323
 20
8.455157220291269
 30
0.0
 40
1.106999999999997
100
AcDbArc
 50
227.3297386604351
 51
312.6702613395648
  0
ARC
  5
661
330
528
100
AcDbEntity
  8
4FNGRGD
100
AcDbCircle
 10
12.24750691994323
 20
8.455157220291269
 30
0.0
 40
0.9059999999999998
100
AcDbArc
 50
227.8469882677722
 51
312.1530117322284
  0
ARC
  5
662
330
528
100
AcDbEntity
  8
4FNGRGD
100
AcDbCircle
 10
12.24750691994323
 20
8.455157220291269
 30
0.0
 40
0.8359999999999999
100
AcDbArc
 50
228.0855942365207
 51
311.9144057634793
  0
ARC
  5
663
330
528
100
AcDbEntity
  8
4FNGRGD
100
AcDbCircle
 10
12.24750691994323
 20
8.455157220291269
 30
0.0
 40
0.625
100
AcDbArc
 50
229.1288687212379
 51
310.871131278763
  0
ARC
  5
664
330
528
100
AcDbEntity
  8
4FNGRGD
100
AcDbCircle
 10
12.24750691994323
 20
8.455157220291269
 30
0.0
 40
0.5550000000000001
100
AcDbArc
 50
229.6507090048801
 51
310.349290995121
  0
ARC
  5
665
330
528
100
AcDbEntity
  8
4FNGRGD
100
AcDbCircle
 10
12.24750691994323
 20
8.455157220291269
 30
0.0
 40
0.35
100
AcDbArc
 50
232.3784284177136
 51
307.6129515636994
  0
ARC
  5
666
330
528
100
AcDbEntity
  8
4FNGRGD
100
AcDbCircle
 10
12.24750691994323
 20
8.455157220291269
 30
0.0
 40
0.28
100
AcDbArc
 50
232.7312629137358
 51
307.2580128999029
  0
ARC
  5
667
330
528
100
AcDbEntity
  8
4FNGRGD
100
AcDbCircle
 10
12.24750691994323
 20
8.455157220291269
 30
0.0
 40
0.28
100
AcDbArc
 50
52.74198710009713
 51
127.2687370862641
  0
ARC
  5
668
330
528
100
AcDbEntity
  8
4FNGRGD
100
AcDbCircle
 10
12.24750691994323
 20
8.455157220291269
 30
0.0
 40
0.35
100
AcDbArc
 50
52.38704843630056
 51
127.6215715822864
  0
ARC
  5
669
330
528
100
AcDbEntity
  8
4FNGRGD
100
AcDbCircle
 10
12.24750691994323
 20
8.455157220291269
 30
0.0
 40
0.28
100
AcDbArc
 50
326.3914436454992
 51
33.60855635450085
  0
ARC
  5
66A
330
528
100
AcDbEntity
  8
4FNGRGD
100
AcDbCircle
 10
12.24750691994323
 20
8.455157220291269
 30
0.0
 40
0.35
100
AcDbArc
 50
322.3982372955835
 51
37.60176270441641
  0
ARC
  5
66B
330
528
100
AcDbEntity
  8
4FNGRGD
100
AcDbCircle
 10
12.24750691994323
 20
8.455157220291269
 30
0.0
 40
0.5550000000000001
100
AcDbArc
 50
49.65070900487909
 51
130.3492909951201
  0
ARC
  5
66C
330
528
100
AcDbEntity
  8
4FNGRGD
100
AcDbCircle
 10
12.24750691994323
 20
8.455157220291269
 30
0.0
 40
0.625
100
AcDbArc
 50
49.12886872123692
 51
130.871131278763
  0
ARC
  5
66D
330
528
100
AcDbEntity
  8
4FNGRGD
100
AcDbCircle
 10
12.24750691994323
 20
8.455157220291269
 30
0.0
 40
0.8359999999999999
100
AcDbArc
 50
48.08559423652035
 51
131.9144057634795
  0
ARC
  5
66E
330
528
100
AcDbEntity
  8
4FNGRGD
100
AcDbCircle
 10
12.24750691994323
 20
8.455157220291269
 30
0.0
 40
0.9059999999999998
100
AcDbArc
 50
47.84698826777153
 51
132.1530117322277
  0
ARC
  5
66F
330
528
100
AcDbEntity
  8
4FNGRGD
100
AcDbCircle
 10
12.24750691994323
 20
8.455157220291269
 30
0.0
 40
1.106999999999997
100
AcDbArc
 50
47.32973866043521
 51
132.6702613395647
  0
ARC
  5
670
330
528
100
AcDbEntity
  8
4FNGRGD
100
AcDbCircle
 10
12.24750691994323
 20
8.455157220291269
 30
0.0
 40
1.177
100
AcDbArc
 50
47.19111183600285
 51
132.808888163997
  0
ARC
  5
671
330
528
100
AcDbEntity
  8
4FNGRGD
100
AcDbCircle
 10
12.24750691994323
 20
8.455157220291269
 30
0.0
 40
1.379999999999999
100
AcDbArc
 50
46.86867190434861
 51
133.1313280956514
  0
ARC
  5
672
330
528
100
AcDbEntity
  8
4FNGRGD
100
AcDbCircle
 10
12.24750691994323
 20
8.455157220291269
 30
0.0
 40
1.45
100
AcDbArc
 50
46.77843043870455
 51
133.2215695612955
  0
ARC
  5
673
330
528
100
AcDbEntity
  8
4FNGRGD
100
AcDbCircle
 10
12.24750691994323
 20
8.455157220291269
 30
0.0
 40
1.659999999999999
100
AcDbArc
 50
46.55338913763336
 51
133.4466108623666
  0
ARC
  5
674
330
528
100
AcDbEntity
  8
4FNGRGD
100
AcDbCircle
 10
12.24750691994323
 20
8.455157220291269
 30
0.0
 40
1.729999999999999
100
AcDbArc
 50
46.4905207599047
 51
133.5094792400953
  0
ARC
  5
675
330
528
100
AcDbEntity
  8
4FNGRGD
100
AcDbCircle
 10
12.24750691994323
 20
8.455157220291269
 30
0.0
 40
1.929999999999999
100
AcDbArc
 50
46.33603302943193
 51
133.6639669705671
  0
ARC
  5
676
330
528
100
AcDbEntity
  8
4FNGRGD
100
AcDbCircle
 10
12.24750691994323
 20
8.455157220291269
 30
0.0
 40
2.0
100
AcDbArc
 50
46.28926383628813
 51
133.7107361637118
  0
ARC
  5
677
330
528
100
AcDbEntity
  8
4FNGRGD
100
AcDbCircle
 10
12.24750691994323
 20
8.455157220291269
 30
0.0
 40
2.210999999999998
100
AcDbArc
 50
46.16620900767268
 51
133.8337909923273
  0
ARC
  5
678
330
528
100
AcDbEntity
  8
4FNGRGD
100
AcDbCircle
 10
12.24750691994323
 20
8.455157220291269
 30
0.0
 40
2.281
100
AcDbArc
 50
46.13041532415349
 51
133.8695846758464
  0
ARC
  5
679
330
528
100
AcDbEntity
  8
4FNGRGD
100
AcDbCircle
 10
12.24750691994323
 20
8.455157220291269
 30
0.0
 40
0.5550000000000001
100
AcDbArc
 50
319.6507090048791
 51
40.34929099511974
  0
ARC
  5
67A
330
528
100
AcDbEntity
  8
4FNGRGD
100
AcDbCircle
 10
12.24750691994323
 20
8.455157220291269
 30
0.0
 40
0.625
100
AcDbArc
 50
319.1288687212377
 51
40.87113127876242
  0
ARC
  5
67B
330
528
100
AcDbEntity
  8
4FNGRGD
100
AcDbCircle
 10
12.24750691994323
 20
8.455157220291269
 30
0.0
 40
0.8359999999999999
100
AcDbArc
 50
318.0855942365199
 51
41.91440576347921
  0
ARC
  5
67C
330
528
100
AcDbEntity
  8
4FNGRGD
100
AcDbCircle
 10
12.24750691994323
 20
8.455157220291269
 30
0.0
 40
0.9059999999999998
100
AcDbArc
 50
317.8469882677721
 51
42.1530117322276
  0
ARC
  5
67D
330
528
100
AcDbEntity
  8
4FNGRGD
100
AcDbCircle
 10
12.24750691994323
 20
8.455157220291269
 30
0.0
 40
1.106999999999997
100
AcDbArc
 50
317.3297386604342
 51
42.67026133956551
  0
ARC
  5
67E
330
528
100
AcDbEntity
  8
4FNGRGD
100
AcDbCircle
 10
12.24750691994323
 20
8.455157220291269
 30
0.0
 40
1.177
100
AcDbArc
 50
317.1911118360029
 51
42.808888163997
  0
ARC
  5
67F
330
528
100
AcDbEntity
  8
4FNGRGD
100
AcDbCircle
 10
12.24750691994323
 20
8.455157220291269
 30
0.0
 40
1.379999999999999
100
AcDbArc
 50
316.8686719043486
 51
43.13132809565153
  0
ARC
  5
680
330
528
100
AcDbEntity
  8
4FNGRGD
100
AcDbCircle
 10
12.24750691994323
 20
8.455157220291269
 30
0.0
 40
1.45
100
AcDbArc
 50
316.7784304387045
 51
43.2215695612956
  0
ARC
  5
681
330
528
100
AcDbEntity
  8
4FNGRGD
100
AcDbCircle
 10
12.24750691994323
 20
8.455157220291269
 30
0.0
 40
1.659999999999999
100
AcDbArc
 50
316.5533891376329
 51
43.44661086236722
  0
ARC
  5
682
330
528
100
AcDbEntity
  8
4FNGRGD
100
AcDbCircle
 10
12.24750691994323
 20
8.455157220291269
 30
0.0
 40
1.729999999999999
100
AcDbArc
 50
316.4905207599048
 51
43.50947924009427
  0
ARC
  5
683
330
528
100
AcDbEntity
  8
4FNGRGD
100
AcDbCircle
 10
12.24750691994323
 20
8.455157220291269
 30
0.0
 40
1.929999999999999
100
AcDbArc
 50
316.3360330294322
 51
43.6639669705672
  0
ARC
  5
684
330
528
100
AcDbEntity
  8
4FNGRGD
100
AcDbCircle
 10
12.24750691994323
 20
8.455157220291269
 30
0.0
 40
2.0
100
AcDbArc
 50
316.2892638362874
 51
43.71073616371172
  0
ARC
  5
685
330
528
100
AcDbEntity
  8
4FNGRGD
100
AcDbCircle
 10
12.24750691994323
 20
8.455157220291269
 30
0.0
 40
2.210999999999998
100
AcDbArc
 50
316.1662090076728
 51
43.83379099232717
  0
ARC
  5
686
330
528
100
AcDbEntity
  8
4FNGRGD
100
AcDbCircle
 10
12.24750691994323
 20
8.455157220291269
 30
0.0
 40
2.281
100
AcDbArc
 50
316.1304153241535
 51
43.86958467584665
  0
CIRCLE
  5
687
330
528
100
AcDbEntity
  8
100FPBASE
100
AcDbCircle
 10
15.88000691994334
 20
4.82265722029129
 30
0.0
 40
0.125
  0
ARC
  5
688
330
528
100
AcDbEntity
  8
100FPBASE
100
AcDbCircle
 10
15.96000691994326
 20
4.742657220291306
 30
0.0
 40
0.125
100
AcDbArc
 50
270.0
 51
0.0
  0
CIRCLE
  5
689
330
528
100
AcDbEntity
  8
100FPBASE
100
AcDbCircle
 10
8.600006919943366
 20
4.82265722029129
 30
0.0
 40
0.125
  0
ARC
  5
68A
330
528
100
AcDbEntity
  8
100FPBASE
100
AcDbCircle
 10
8.520006919943213
 20
4.742657220291306
 30
0.0
 40
0.125
100
AcDbArc
 50
180.0
 51
270.0
  0
LINE
  5
68B
330
528
100
AcDbEntity
  8
100FPBASE
100
AcDbLine
 10
8.520006919943213
 20
4.617657220291306
 30
0.0
 11
15.96000691994326
 21
4.617657220291306
 31
0.0
  0
LINE
  5
68C
330
528
100
AcDbEntity
  8
100FPBASE
100
AcDbLine
 10
16.08500691994327
 20
12.1826572202913
 30
0.0
 11
16.08500691994327
 21
4.742657220291306
 31
0.0
  0
CIRCLE
  5
68D
330
528
100
AcDbEntity
  8
100FPBASE
100
AcDbCircle
 10
15.88000691994334
 20
12.10265722029132
 30
0.0
 40
0.125
  0
ARC
  5
68E
330
528
100
AcDbEntity
  8
100FPBASE
100
AcDbCircle
 10
15.96000691994326
 20
12.1826572202913
 30
0.0
 40
0.125
100
AcDbArc
 50
0.0
 51
90.0
  0
CIRCLE
  5
68F
330
528
100
AcDbEntity
  8
100FPBASE
100
AcDbCircle
 10
15.74000691994324
 20
8.462657220291275
 30
0.0
 40
0.069
  0
CIRCLE
  5
690
330
528
100
AcDbEntity
  8
100FPBASE
100
AcDbCircle
 10
15.74000691994324
 20
8.462657220291275
 30
0.0
 40
0.14
  0
CIRCLE
  5
691
330
528
100
AcDbEntity
  8
100FPBASE
100
AcDbCircle
 10
8.740006919943239
 20
8.462657220291275
 30
0.0
 40
0.069
  0
CIRCLE
  5
692
330
528
100
AcDbEntity
  8
100FPBASE
100
AcDbCircle
 10
8.740006919943239
 20
8.462657220291275
 30
0.0
 40
0.14
  0
LINE
  5
693
330
528
100
AcDbEntity
  8
100FPWIREBOX
100
AcDbLine
 10
9.896256919943239
 20
5.993657220291337
 30
0.0
 11
9.896256919943239
 21
5.493657220291337
 31
0.0
  0
LINE
  5
694
330
528
100
AcDbEntity
  8
100FPWIREBOX
100
AcDbLine
 10
9.396256919943239
 20
5.993657220291337
 30
0.0
 11
9.396256919943239
 21
5.493657220291337
 31
0.0
  0
LINE
  5
695
330
528
100
AcDbEntity
  8
100FPWIREBOX
  6
DASHED
100
AcDbLine
 10
9.956256919943186
 20
5.993657220291337
 30
0.0
 11
9.956256919943186
 21
5.553657220291285
 31
0.0
  0
LINE
  5
696
330
528
100
AcDbEntity
  8
100FPWIREBOX
100
AcDbLine
 10
9.396256919943239
 20
5.993657220291337
 30
0.0
 11
15.08375691994324
 21
5.993657220291337
 31
0.0
  0
LINE
  5
697
330
528
100
AcDbEntity
  8
100FPWIREBOX
100
AcDbLine
 10
9.396256919943239
 20
5.493657220291337
 30
0.0
 11
15.08375691994324
 21
5.493657220291337
 31
0.0
  0
LINE
  5
698
330
528
100
AcDbEntity
  8
100FPWIREBOX
  6
DASHED
100
AcDbLine
 10
14.52375691994329
 20
5.553657220291285
 30
0.0
 11
9.956256919943186
 21
5.553657220291285
 31
0.0
  0
LINE
  5
699
330
528
100
AcDbEntity
  8
100FPWIREBOX
100
AcDbLine
 10
15.08375691994324
 20
5.993657220291337
 30
0.0
 11
15.08375691994324
 21
5.493657220291337
 31
0.0
  0
LINE
  5
69A
330
528
100
AcDbEntity
  8
100FPWIREBOX
100
AcDbLine
 10
14.58375691994324
 20
5.993657220291281
 30
0.0
 11
14.58375691994324
 21
5.493657220291337
 31
0.0
  0
LINE
  5
69B
330
528
100
AcDbEntity
  8
100FPWIREBOX
  6
DASHED
100
AcDbLine
 10
14.52375691994329
 20
5.993657220291337
 30
0.0
 11
14.52375691994329
 21
5.553657220291285
 31
0.0
  0
CIRCLE
  5
69C
330
528
100
AcDbEntity
  8
100FPBASE
100
AcDbCircle
 10
10.17750691994324
 20
6.400157220291275
 30
0.0
 40
0.093
  0
CIRCLE
  5
69D
330
528
100
AcDbEntity
  8
100FPBASE
100
AcDbCircle
 10
14.30250691994324
 20
6.400157220291275
 30
0.0
 40
0.093
  0
CIRCLE
  5
69E
330
528
100
AcDbEntity
  8
100FPBASE
100
AcDbCircle
 10
10.17750691994324
 20
10.52515722029127
 30
0.0
 40
0.093
  0
CIRCLE
  5
69F
330
528
100
AcDbEntity
  8
100FPBASE
100
AcDbCircle
 10
14.30250691994324
 20
10.52515722029127
 30
0.0
 40
0.093
  0
CIRCLE
  5
6A0
330
528
100
AcDbEntity
  8
100FPBASE
100
AcDbCircle
 10
12.24000691994324
 20
8.462657220291275
 30
0.0
 40
2.25
  0
LINE
  5
6A1
330
528
100
AcDbEntity
  8
100FPBASE
100
AcDbLine
 10
8.395006919943213
 20
4.742657220291306
 30
0.0
 11
8.395006919943213
 21
12.1826572202913
 31
0.0
  0
LINE
  5
6A2
330
528
100
AcDbEntity
  8
100FPBASE
100
AcDbLine
 10
8.520006919943213
 20
12.3076572202913
 30
0.0
 11
15.96000691994326
 21
12.3076572202913
 31
0.0
  0
CIRCLE
  5
6A3
330
528
100
AcDbEntity
  8
100FPBASE
100
AcDbCircle
 10
8.600006919943366
 20
12.10265722029132
 30
0.0
 40
0.125
  0
ARC
  5
6A4
330
528
100
AcDbEntity
  8
100FPBASE
100
AcDbCircle
 10
8.520006919943213
 20
12.1826572202913
 30
0.0
 40
0.125
100
AcDbArc
 50
90.0
 51
180.0
  0
CIRCLE
  5
6A5
330
528
100
AcDbEntity
  8
shroud
100
AcDbCircle
 10
15.88000691994334
 20
4.82265722029129
 30
0.0
 40
0.125
  0
CIRCLE
  5
6A6
330
528
100
AcDbEntity
  8
shroud
100
AcDbCircle
 10
8.600006919943366
 20
4.82265722029129
 30
0.0
 40
0.125
  0
CIRCLE
  5
6A7
330
528
100
AcDbEntity
  8
shroud
100
AcDbCircle
 10
15.88000691994334
 20
12.10265722029132
 30
0.0
 40
0.125
  0
CIRCLE
  5
6A8
330
528
100
AcDbEntity
  8
shroud
100
AcDbCircle
 10
8.600006919943366
 20
12.10265722029132
 30
0.0
 40
0.125
  0
LINE
  5
6A9
330
528
100
AcDbEntity
  8
shroud
  6
HIDDEN
100
AcDbLine
 10
16.89500691994337
 20
3.677657220291308
 30
0.0
 11
16.89500691994337
 21
12.36765722029131
 31
0.0
  0
LINE
  5
6AA
330
528
100
AcDbEntity
  8
shroud
  6
HIDDEN
100
AcDbLine
 10
16.89500691994336
 20
12.36765722029131
 30
0.0
 11
7.585006919943387
 21
12.36765722029131
 31
0.0
  0
LINE
  5
6AB
330
528
100
AcDbEntity
  8
shroud
  6
HIDDEN
100
AcDbLine
 10
7.585006919943387
 20
12.36765722029131
 30
0.0
 11
7.585006919943387
 21
3.677657220291308
 31
0.0
  0
LINE
  5
6AC
330
528
100
AcDbEntity
  8
shroud
100
AcDbLine
 10
16.95500691994334
 20
12.42765722029131
 30
0.0
 11
7.525006919943415
 21
12.42765722029131
 31
0.0
  0
LINE
  5
6AD
330
528
100
AcDbEntity
  8
shroud
100
AcDbLine
 10
7.525006919943415
 20
12.42765722029131
 30
0.0
 11
7.525006919943327
 21
3.617657220291306
 31
0.0
  0
LINE
  5
6AE
330
528
100
AcDbEntity
  8
shroud
100
AcDbLine
 10
16.95500691994337
 20
3.617657220291306
 30
0.0
 11
16.95500691994334
 21
12.42765722029131
 31
0.0
  0
LINE
  5
6AF
330
528
100
AcDbEntity
  8
shroud
100
AcDbLine
 10
7.525006919943327
 20
3.617657220291306
 30
0.0
 11
16.95500691994336
 21
3.617657220291306
 31
0.0
  0
LINE
  5
6B0
330
528
100
AcDbEntity
  8
shroud
100
AcDbLine
 10
15.50500691994351
 20
5.197657220291302
 30
0.0
 11
15.50500691994354
 21
11.7276572202913
 31
0.0
  0
LINE
  5
6B1
330
528
100
AcDbEntity
  8
shroud
100
AcDbLine
 10
8.975006919943425
 20
11.7276572202913
 30
0.0
 11
8.975006919943453
 21
5.197657220291302
 31
0.0
  0
LINE
  5
6B2
330
528
100
AcDbEntity
  8
shroud
100
AcDbLine
 10
15.50500691994354
 20
11.7276572202913
 30
0.0
 11
8.975006919943425
 21
11.7276572202913
 31
0.0
  0
LINE
  5
6B3
330
528
100
AcDbEntity
  8
shroud
100
AcDbLine
 10
8.975006919943453
 20
5.197657220291302
 30
0.0
 11
15.50500691994351
 21
5.197657220291302
 31
0.0
  0
LINE
  5
6B4
330
528
100
AcDbEntity
  8
shroud
  6
HIDDEN
100
AcDbLine
 10
7.585006919943387
 20
3.677657220291308
 30
0.0
 11
16.89500691994336
 21
3.677657220291308
 31
0.0
  0
LINE
  5
6B5
330
528
100
AcDbEntity
  8
shroud
100
AcDbLine
 10
7.760006919943396
 20
3.747657220291245
 30
0.0
 11
7.760006919943396
 21
3.677657220291308
 31
0.0
  0
LINE
  5
6B6
330
528
100
AcDbEntity
  8
shroud
100
AcDbLine
 10
8.040006919943369
 20
3.747657220291245
 30
0.0
 11
7.760006919943396
 21
3.747657220291245
 31
0.0
  0
LINE
  5
6B7
330
528
100
AcDbEntity
  8
shroud
100
AcDbLine
 10
8.040006919943369
 20
3.747657220291245
 30
0.0
 11
8.040006919943369
 21
3.677657220291308
 31
0.0
  0
LINE
  5
6B8
330
528
100
AcDbEntity
  8
shroud
100
AcDbLine
 10
16.72000691994335
 20
3.747657220291245
 30
0.0
 11
16.44000691994338
 21
3.747657220291245
 31
0.0
  0
LINE
  5
6B9
330
528
100
AcDbEntity
  8
shroud
100
AcDbLine
 10
16.44000691994338
 20
3.747657220291245
 30
0.0
 11
16.44000691994338
 21
3.677657220291308
 31
0.0
  0
LINE
  5
6BA
330
528
100
AcDbEntity
  8
shroud
100
AcDbLine
 10
16.72000691994335
 20
3.747657220291245
 30
0.0
 11
16.72000691994335
 21
3.677657220291308
 31
0.0
  0
LINE
  5
6BB
330
528
100
AcDbEntity
  8
100 filter cover
100
AcDbLine
 10
8.215006919943396
 20
3.290657220291406
 30
0.0
 11
16.2650069199434
 21
3.290657220291365
 31
0.0
  0
LINE
  5
6BC
330
528
100
AcDbEntity
  8
100 filter cover
  6
HIDDEN
100
AcDbLine
 10
8.2750069199434
 20
3.35065722029131
 30
0.0
 11
16.2050069199434
 21
3.35065722029131
 31
0.0
  0
LINE
  5
6BD
330
528
100
AcDbEntity
  8
100 filter cover
100
AcDbLine
 10
8.215006919943455
 20
3.557657220291287
 30
0.0
 11
8.215006919943396
 21
3.290657220291406
 31
0.0
  0
LINE
  5
6BE
330
528
100
AcDbEntity
  8
100 filter cover
  6
HIDDEN
100
AcDbLine
 10
8.2750069199434
 20
3.617657220291233
 30
0.0
 11
8.2750069199434
 21
3.350657220291296
 31
0.0
  0
LINE
  5
6BF
330
528
100
AcDbEntity
  8
100 filter cover
100
AcDbLine
 10
7.525006919943492
 20
3.617657220291348
 30
0.0
 11
7.525006919943436
 21
3.557657220291346
 31
0.0
  0
LINE
  5
6C0
330
528
100
AcDbEntity
  8
100 filter cover
100
AcDbLine
 10
7.525006919943436
 20
3.557657220291233
 30
0.0
 11
8.215006919943396
 21
3.557657220291287
 31
0.0
  0
LINE
  5
6C1
330
528
100
AcDbEntity
  8
100 filter cover
100
AcDbLine
 10
16.26500691994335
 20
3.557657220291346
 30
0.0
 11
16.26500691994341
 21
3.290657220291348
 31
0.0
  0
LINE
  5
6C2
330
528
100
AcDbEntity
  8
100 filter cover
  6
HIDDEN
100
AcDbLine
 10
16.2050069199434
 20
3.617657220291292
 30
0.0
 11
16.2050069199434
 21
3.350657220291296
 31
0.0
  0
LINE
  5
6C3
330
528
100
AcDbEntity
  8
100 filter cover
100
AcDbLine
 10
16.95500691994336
 20
3.617657220291306
 30
0.0
 11
16.95500691994336
 21
3.557657220291304
 31
0.0
  0
LINE
  5
6C4
330
528
100
AcDbEntity
  8
100 filter cover
100
AcDbLine
 10
16.95500691994336
 20
3.617657220291306
 30
0.0
 11
7.525006919943492
 21
3.617657220291063
 31
0.0
  0
LINE
  5
6C5
330
528
100
AcDbEntity
  8
100 filter cover
100
AcDbLine
 10
16.2650069199434
 20
3.557657220291431
 30
0.0
 11
16.95500691994336
 21
3.557657220291304
 31
0.0
  0
CIRCLE
  5
6C6
330
528
100
AcDbEntity
  8
100FPBASE
100
AcDbCircle
 10
-6.128100900496252
 20
-13.77784794236284
 30
0.0
 40
0.125
  0
CIRCLE
  5
6C7
330
528
100
AcDbEntity
  8
100FPBASE
100
AcDbCircle
 10
-13.40810090049622
 20
-13.77784794236284
 30
0.0
 40
0.125
  0
CIRCLE
  5
6C8
330
528
100
AcDbEntity
  8
100FPBASE
100
AcDbCircle
 10
-6.128100900496252
 20
-6.497847942362809
 30
0.0
 40
0.125
  0
CIRCLE
  5
6C9
330
528
100
AcDbEntity
  8
100FPBASE
100
AcDbCircle
 10
-13.40810090049622
 20
-6.497847942362809
 30
0.0
 40
0.125
  0
CIRCLE
  5
6CA
330
528
100
AcDbEntity
  8
shroud
100
AcDbCircle
 10
-6.128100900496252
 20
-13.77784794236284
 30
0.0
 40
0.125
  0
CIRCLE
  5
6CB
330
528
100
AcDbEntity
  8
shroud
100
AcDbCircle
 10
-13.40810090049622
 20
-13.77784794236284
 30
0.0
 40
0.125
  0
CIRCLE
  5
6CC
330
528
100
AcDbEntity
  8
shroud
100
AcDbCircle
 10
-6.128100900496252
 20
-6.497847942362809
 30
0.0
 40
0.125
  0
CIRCLE
  5
6CD
330
528
100
AcDbEntity
  8
shroud
100
AcDbCircle
 10
-13.40810090049622
 20
-6.497847942362809
 30
0.0
 40
0.125
  0
LINE
  5
6CE
330
528
100
AcDbEntity
  8
shroud
100
AcDbLine
 10
-5.053100900496248
 20
-6.172847942362821
 30
0.0
 11
-14.48310090049618
 21
-6.172847942362821
 31
0.0
  0
LINE
  5
6CF
330
528
100
AcDbEntity
  8
shroud
100
AcDbLine
 10
-14.48310090049618
 20
-6.172847942362821
 30
0.0
 11
-14.48310090049626
 21
-14.98284794236282
 31
0.0
  0
LINE
  5
6D0
330
528
100
AcDbEntity
  8
shroud
100
AcDbLine
 10
-5.053100900496222
 20
-14.98284794236282
 30
0.0
 11
-5.053100900496248
 21
-6.172847942362821
 31
0.0
  0
LINE
  5
6D1
330
528
100
AcDbEntity
  8
shroud
100
AcDbLine
 10
-14.48310090049626
 20
-14.98284794236282
 30
0.0
 11
-5.053100900496228
 21
-14.98284794236282
 31
0.0
  0
LINE
  5
6D2
330
528
100
AcDbEntity
  8
shroud
100
AcDbLine
 10
-6.503100900496082
 20
-13.40284794236282
 30
0.0
 11
-6.503100900496052
 21
-6.872847942362824
 31
0.0
  0
LINE
  5
6D3
330
528
100
AcDbEntity
  8
shroud
100
AcDbLine
 10
-13.03310090049617
 20
-6.872847942362824
 30
0.0
 11
-13.03310090049614
 21
-13.40284794236282
 31
0.0
  0
LINE
  5
6D4
330
528
100
AcDbEntity
  8
shroud
100
AcDbLine
 10
-6.503100900496052
 20
-6.872847942362824
 30
0.0
 11
-13.03310090049617
 21
-6.872847942362824
 31
0.0
  0
LINE
  5
6D5
330
528
100
AcDbEntity
  8
shroud
100
AcDbLine
 10
-13.03310090049614
 20
-13.40284794236282
 30
0.0
 11
-6.503100900496082
 21
-13.40284794236282
 31
0.0
  0
LINE
  5
6D6
330
528
100
AcDbEntity
  8
shroud
100
AcDbLine
 10
-5.053100900496228
 20
-14.98284794236282
 30
0.0
 11
-14.4831009004961
 21
-14.98284794236306
 31
0.0
  0
CIRCLE
  5
6D7
330
528
100
AcDbEntity
  8
100FPBASE
100
AcDbCircle
 10
16.81938600902604
 20
-13.77784794236284
 30
0.0
 40
0.125
  0
CIRCLE
  5
6D8
330
528
100
AcDbEntity
  8
100FPBASE
100
AcDbCircle
 10
9.53938600902607
 20
-13.77784794236284
 30
0.0
 40
0.125
  0
CIRCLE
  5
6D9
330
528
100
AcDbEntity
  8
100FPBASE
100
AcDbCircle
 10
16.81938600902604
 20
-6.497847942362809
 30
0.0
 40
0.125
  0
CIRCLE
  5
6DA
330
528
100
AcDbEntity
  8
100FPBASE
100
AcDbCircle
 10
9.53938600902607
 20
-6.497847942362809
 30
0.0
 40
0.125
  0
CIRCLE
  5
6DB
330
528
100
AcDbEntity
  8
shroud
100
AcDbCircle
 10
16.81938600902604
 20
-13.77784794236284
 30
0.0
 40
0.125
  0
CIRCLE
  5
6DC
330
528
100
AcDbEntity
  8
shroud
100
AcDbCircle
 10
9.53938600902607
 20
-13.77784794236284
 30
0.0
 40
0.125
  0
CIRCLE
  5
6DD
330
528
100
AcDbEntity
  8
shroud
100
AcDbCircle
 10
16.81938600902604
 20
-6.497847942362809
 30
0.0
 40
0.125
  0
CIRCLE
  5
6DE
330
528
100
AcDbEntity
  8
shroud
100
AcDbCircle
 10
9.53938600902607
 20
-6.497847942362809
 30
0.0
 40
0.125
  0
LINE
  5
6DF
330
528
100
AcDbEntity
  8
shroud
100
AcDbLine
 10
17.89438600902604
 20
-6.172847942362821
 30
0.0
 11
8.464386009026117
 21
-6.172847942362821
 31
0.0
  0
LINE
  5
6E0
330
528
100
AcDbEntity
  8
shroud
100
AcDbLine
 10
8.464386009026117
 20
-6.172847942362821
 30
0.0
 11
8.464386009026032
 21
-14.98284794236282
 31
0.0
  0
LINE
  5
6E1
330
528
100
AcDbEntity
  8
shroud
100
AcDbLine
 10
17.89438600902607
 20
-14.98284794236282
 30
0.0
 11
17.89438600902604
 21
-6.172847942362821
 31
0.0
  0
LINE
  5
6E2
330
528
100
AcDbEntity
  8
shroud
100
AcDbLine
 10
8.464386009026032
 20
-14.98284794236282
 30
0.0
 11
17.89438600902607
 21
-14.98284794236282
 31
0.0
  0
LINE
  5
6E3
330
528
100
AcDbEntity
  8
shroud
100
AcDbLine
 10
16.44438600902621
 20
-13.40284794236282
 30
0.0
 11
16.44438600902624
 21
-6.872847942362824
 31
0.0
  0
LINE
  5
6E4
330
528
100
AcDbEntity
  8
shroud
100
AcDbLine
 10
9.914386009026122
 20
-6.872847942362824
 30
0.0
 11
9.914386009026156
 21
-13.40284794236282
 31
0.0
  0
LINE
  5
6E5
330
528
100
AcDbEntity
  8
shroud
100
AcDbLine
 10
16.44438600902624
 20
-6.872847942362824
 30
0.0
 11
9.914386009026122
 21
-6.872847942362824
 31
0.0
  0
LINE
  5
6E6
330
528
100
AcDbEntity
  8
shroud
100
AcDbLine
 10
9.914386009026156
 20
-13.40284794236282
 30
0.0
 11
16.44438600902621
 21
-13.40284794236282
 31
0.0
  0
LINE
  5
6E7
330
528
100
AcDbEntity
  8
100 filter cover
100
AcDbLine
 10
9.154386009026099
 20
-15.30984794236272
 30
0.0
 11
17.2043860090261
 21
-15.30984794236276
 31
0.0
  0
LINE
  5
6E8
330
528
100
AcDbEntity
  8
100 filter cover
  6
HIDDEN
100
AcDbLine
 10
9.214386009026103
 20
-15.24984794236282
 30
0.0
 11
17.14438600902611
 21
-15.24984794236282
 31
0.0
  0
LINE
  5
6E9
330
528
100
AcDbEntity
  8
100 filter cover
100
AcDbLine
 10
9.154386009026158
 20
-15.04284794236284
 30
0.0
 11
9.154386009026099
 21
-15.30984794236272
 31
0.0
  0
LINE
  5
6EA
330
528
100
AcDbEntity
  8
100 filter cover
  6
HIDDEN
100
AcDbLine
 10
9.214386009026103
 20
-14.98284794236289
 30
0.0
 11
9.214386009026103
 21
-15.24984794236283
 31
0.0
  0
LINE
  5
6EB
330
528
100
AcDbEntity
  8
100 filter cover
100
AcDbLine
 10
8.464386009026194
 20
-14.98284794236278
 30
0.0
 11
8.464386009026139
 21
-15.04284794236277
 31
0.0
  0
LINE
  5
6EC
330
528
100
AcDbEntity
  8
100 filter cover
100
AcDbLine
 10
8.464386009026139
 20
-15.0428479423629
 30
0.0
 11
9.154386009026099
 21
-15.04284794236284
 31
0.0
  0
LINE
  5
6ED
330
528
100
AcDbEntity
  8
100 filter cover
100
AcDbLine
 10
17.20438600902605
 20
-15.04284794236277
 30
0.0
 11
17.20438600902611
 21
-15.30984794236277
 31
0.0
  0
LINE
  5
6EE
330
528
100
AcDbEntity
  8
100 filter cover
  6
HIDDEN
100
AcDbLine
 10
17.14438600902611
 20
-14.98284794236283
 30
0.0
 11
17.14438600902611
 21
-15.24984794236283
 31
0.0
  0
LINE
  5
6EF
330
528
100
AcDbEntity
  8
100 filter cover
100
AcDbLine
 10
17.89438600902607
 20
-14.98284794236282
 30
0.0
 11
17.89438600902607
 21
-15.04284794236282
 31
0.0
  0
LINE
  5
6F0
330
528
100
AcDbEntity
  8
100 filter cover
100
AcDbLine
 10
17.89438600902607
 20
-14.98284794236282
 30
0.0
 11
8.464386009026194
 21
-14.98284794236306
 31
0.0
  0
LINE
  5
6F1
330
528
100
AcDbEntity
  8
100 filter cover
100
AcDbLine
 10
17.2043860090261
 20
-15.04284794236269
 30
0.0
 11
17.89438600902607
 21
-15.04284794236282
 31
0.0
  0
LINE
  5
6F2
330
528
100
AcDbEntity
  8
shroud
100
AcDbLine
 10
8.964386009026107
 20
-6.672847942362821
 30
0.0
 11
8.964386009026037
 21
-14.48284794236304
 31
0.0
  0
LINE
  5
6F3
330
528
100
AcDbEntity
  8
shroud
100
AcDbLine
 10
17.39438600902605
 20
-6.672847942362821
 30
0.0
 11
8.964386009026107
 21
-6.672847942362821
 31
0.0
  0
LINE
  5
6F4
330
528
100
AcDbEntity
  8
shroud
100
AcDbLine
 10
17.39438600902607
 20
-14.48284794236284
 30
0.0
 11
17.39438600902605
 21
-6.672847942362821
 31
0.0
  0
LINE
  5
6F5
330
528
100
AcDbEntity
  8
shroud
100
AcDbLine
 10
17.39438600902607
 20
-14.48284794236284
 30
0.0
 11
8.964386009026029
 21
-14.48284794236305
 31
0.0
  0
HATCH
  5
6F6
330
528
100
AcDbEntity
  8
0
100
AcDbHatch
 10
0.0
 20
0.0
 30
0.0
210
0.0
220
0.0
230
1.0
  2
ANSI31
 70
     0
 71
     0
 91
        6
 92
        7
 72
     0
 73
     1
 93
        4
 10
8.964386009026101
 20
-6.672847942362821
 10
8.464386009026117
 20
-6.172847942362821
 10
8.464386009026027
 20
-14.98284794236294
 10
8.964386009026043
 20
-14.48284794236305
 97
        0
 92
        7
 72
     0
 73
     1
 93
        4
 10
17.89438600902604
 20
-6.172847942362812
 10
8.464386009026117
 20
-6.172847942362821
 10
8.964386009026114
 20
-6.672847942362821
 10
17.39438600902605
 20
-6.672847942362821
 97
        0
 92
       22
 72
     1
 73
     1
 93
        2
 10
9.41438600902607
 20
-6.497847942362809
 42
-1.0
 10
9.66438600902607
 20
-6.497847942362809
 42
-1.0
 97
        0
 92
       22
 72
     1
 73
     1
 93
        2
 10
16.94438600902604
 20
-6.497847942362809
 42
-1.0
 10
16.69438600902604
 20
-6.497847942362809
 42
-1.0
 97
        0
 92
        7
 72
     0
 73
     1
 93
        4
 10
17.89438600902605
 20
-6.172847942362821
 10
17.39438600902605
 20
-6.672847942362821
 10
17.39438600902607
 20
-14.48284794236285
 10
17.89438600902607
 20
-14.98284794236282
 97
        0
 92
        7
 72
     0
 73
     1
 93
        4
 10
17.39438600902607
 20
-14.48284794236282
 10
8.964386009026037
 20
-14.48284794236306
 10
8.464386009025908
 20
-14.98284794236306
 10
17.89438600902605
 20
-14.98284794236283
 97
        0
 75
     0
 76
     1
 52
0.0
 41
1.0
 77
     0
 78
     1
 53
45.0
 43
35.14804767146208
 44
27.65295731373729
 45
-0.0883883476483184
 46
0.0883883476483185
 79
     0
 47
0.0190815287978327
 98
        6
 10
8.572450956710182
 20
-7.094473107332588
 10
10.67277411693109
 20
-6.445701110759215
 10
10.67277411693109
 20
-6.445701110759215
 10
10.67277411693109
 20
-6.445701110759215
 10
17.7756856868348
 20
-8.353854055020775
 10
15.52261151483023
 20
-14.6125955242255
  0
ENDBLK
  5
6FA
330
528
100
AcDbEntity
  8
0
100
AcDbBlockEnd
  0
BLOCK
  5
72B
330
720
100
AcDbEntity
  8
0
100
AcDbBlockBegin
  2
*D14
 70
     1
 10
0.0
 20
0.0
 30
0.0
  3
*D14
  1

  0
LINE
  5
AD0
330
720
100
AcDbEntity
  8
0
 62
     0
370
    -2
100
AcDbLine
 10
22.66147293554253
 20
9.431382682897632
 30
0.0
 11
22.66147293554253
 21
12.78753628969203
 31
0.0
  0
LINE
  5
AD1
330
720
100
AcDbEntity
  8
0
 62
     0
370
    -2
100
AcDbLine
 10
24.45647293554282
 20
11.83562260173268
 30
0.0
 11
24.45647293554282
 21
12.78753628969203
 31
0.0
  0
LINE
  5
AD2
330
720
100
AcDbEntity
  8
0
 62
     0
370
    -2
100
AcDbLine
 10
23.95647293554282
 20
12.60753628969203
 30
0.0
 11
23.16147293554253
 21
12.60753628969203
 31
0.0
  0
LINE
  5
AD3
330
720
100
AcDbEntity
  8
0
 62
     0
370
    -2
100
AcDbLine
 10
22.66147293554253
 20
12.60753628969203
 30
0.0
 11
22.16147293554254
 21
12.60753628969203
 31
0.0
  0
SOLID
  5
AD4
330
720
100
AcDbEntity
  8
0
 62
     0
100
AcDbTrace
 10
23.95647293554282
 20
12.69086962302536
 30
0.0
 11
23.95647293554282
 21
12.52420295635869
 31
0.0
 12
24.45647293554282
 22
12.60753628969203
 32
0.0
 13
24.45647293554282
 23
12.60753628969203
 33
0.0
  0
SOLID
  5
AD5
330
720
100
AcDbEntity
  8
0
 62
     0
100
AcDbTrace
 10
23.16147293554253
 20
12.69086962302536
 30
0.0
 11
23.16147293554253
 21
12.52420295635869
 31
0.0
 12
22.66147293554253
 22
12.60753628969203
 32
0.0
 13
22.66147293554253
 23
12.60753628969203
 33
0.0
  0
MTEXT
  5
AD6
330
720
100
AcDbEntity
  8
0
 62
     0
100
AcDbMText
 10
21.15480626887586
 20
12.60753628969203
 30
0.0
 40
0.5
 41
0.0
 71
     5
 72
     1
  1
\A1;1.795
 73
     1
 44
1.0
1001
ACAD
1000
MTEXTBEGIN
1070
    73
1070
     1
1070
    44
1040
1.0
1070
    74
1070
     0
1000
MTEXTEND
  0
POINT
  5
AD7
330
720
100
AcDbEntity
  8
Defpoints
 62
     0
100
AcDbPoint
 10
22.66147293554253
 20
9.368882682897632
 30
0.0
  0
POINT
  5
AD8
330
720
100
AcDbEntity
  8
Defpoints
 62
     0
100
AcDbPoint
 10
24.45647293554282
 20
11.77312260173268
 30
0.0
  0
POINT
  5
AD9
330
720
100
AcDbEntity
  8
Defpoints
 62
     0
100
AcDbPoint
 10
24.45647293554282
 20
12.60753628969203
 30
0.0
  0
ENDBLK
  5
72C
330
720
100
AcDbEntity
  8
0
100
AcDbBlockEnd
  0
BLOCK
  5
745
330
73A
100
AcDbEntity
  8
0
100
AcDbBlockBegin
  2
*D15
 70
     1
 10
0.0
 20
0.0
 30
0.0
  3
*D15
  1

  0
LINE
  5
A9C
330
73A
100
AcDbEntity
  8
0
 62
     0
370
    -2
100
AcDbLine
 10
24.45647293554282
 20
11.83562260173268
 30
0.0
 11
24.45647293554282
 21
12.78753628969203
 31
0.0
  0
LINE
  5
A9D
330
73A
100
AcDbEntity
  8
0
 62
     0
370
    -2
100
AcDbLine
 10
25.95647293554283
 20
11.83562260173268
 30
0.0
 11
25.95647293554283
 21
12.78753628969203
 31
0.0
  0
LINE
  5
A9E
330
73A
100
AcDbEntity
  8
0
 62
     0
370
    -2
100
AcDbLine
 10
24.95647293554283
 20
12.60753628969203
 30
0.0
 11
25.45647293554282
 21
12.60753628969203
 31
0.0
  0
LINE
  5
A9F
330
73A
100
AcDbEntity
  8
0
 62
     0
370
    -2
100
AcDbLine
 10
25.95647293554283
 20
12.60753628969203
 30
0.0
 11
26.45647293554282
 21
12.60753628969203
 31
0.0
  0
SOLID
  5
AA0
330
73A
100
AcDbEntity
  8
0
 62
     0
100
AcDbTrace
 10
24.95647293554283
 20
12.69086962302536
 30
0.0
 11
24.95647293554283
 21
12.52420295635869
 31
0.0
 12
24.45647293554282
 22
12.60753628969203
 32
0.0
 13
24.45647293554282
 23
12.60753628969203
 33
0.0
  0
SOLID
  5
AA1
330
73A
100
AcDbEntity
  8
0
 62
     0
100
AcDbTrace
 10
25.45647293554282
 20
12.69086962302536
 30
0.0
 11
25.45647293554282
 21
12.52420295635869
 31
0.0
 12
25.95647293554283
 22
12.60753628969203
 32
0.0
 13
25.95647293554283
 23
12.60753628969203
 33
0.0
  0
MTEXT
  5
AA2
330
73A
100
AcDbEntity
  8
0
 62
     0
100
AcDbMText
 10
27.37980626887615
 20
12.60753628969203
 30
0.0
 40
0.5
 41
0.0
 71
     5
 72
     1
  1
\A1;1.500
 73
     1
 44
1.0
1001
ACAD
1000
MTEXTBEGIN
1070
    73
1070
     1
1070
    44
1040
1.0
1070
    74
1070
     0
1000
MTEXTEND
  0
POINT
  5
AA3
330
73A
100
AcDbEntity
  8
Defpoints
 62
     0
100
AcDbPoint
 10
24.45647293554282
 20
11.77312260173268
 30
0.0
  0
POINT
  5
AA4
330
73A
100
AcDbEntity
  8
Defpoints
 62
     0
100
AcDbPoint
 10
25.95647293554283
 20
11.77312260173268
 30
0.0
  0
POINT
  5
AA5
330
73A
100
AcDbEntity
  8
Defpoints
 62
     0
100
AcDbPoint
 10
25.95647293554283
 20
12.60753628969203
 30
0.0
  0
ENDBLK
  5
746
330
73A
100
AcDbEntity
  8
0
100
AcDbBlockEnd
  0
BLOCK
  5
773
330
768
100
AcDbEntity
  8
0
100
AcDbBlockBegin
  2
*D16
 70
     1
 10
0.0
 20
0.0
 30
0.0
  3
*D16
  1

  0
LINE
  5
AA6
330
768
100
AcDbEntity
  8
0
 62
     0
370
    -2
100
AcDbLine
 10
24.45647293554282
 20
2.56862260173274
 30
0.0
 11
24.45647293554282
 21
1.620339829847828
 31
0.0
  0
LINE
  5
AA7
330
768
100
AcDbEntity
  8
0
 62
     0
370
    -2
100
AcDbLine
 10
27.92147293554283
 20
2.895622601732681
 30
0.0
 11
27.92147293554283
 21
1.620339829847828
 31
0.0
  0
LINE
  5
AA8
330
768
100
AcDbEntity
  8
0
 62
     0
370
    -2
100
AcDbLine
 10
24.95647293554283
 20
1.800339829847828
 30
0.0
 11
25.09897293554282
 21
1.800339829847828
 31
0.0
  0
LINE
  5
AA9
330
768
100
AcDbEntity
  8
0
 62
     0
370
    -2
100
AcDbLine
 10
27.42147293554282
 20
1.800339829847828
 30
0.0
 11
27.27897293554282
 21
1.800339829847828
 31
0.0
  0
SOLID
  5
AAA
330
768
100
AcDbEntity
  8
0
 62
     0
100
AcDbTrace
 10
24.95647293554283
 20
1.88367316318116
 30
0.0
 11
24.95647293554283
 21
1.717006496514495
 31
0.0
 12
24.45647293554282
 22
1.800339829847828
 32
0.0
 13
24.45647293554282
 23
1.800339829847828
 33
0.0
  0
SOLID
  5
AAB
330
768
100
AcDbEntity
  8
0
 62
     0
100
AcDbTrace
 10
27.42147293554282
 20
1.88367316318116
 30
0.0
 11
27.42147293554282
 21
1.717006496514495
 31
0.0
 12
27.92147293554283
 22
1.800339829847828
 32
0.0
 13
27.92147293554283
 23
1.800339829847828
 33
0.0
  0
MTEXT
  5
AAC
330
768
100
AcDbEntity
  8
0
 62
     0
100
AcDbMText
 10
26.18897293554282
 20
1.800339829847828
 30
0.0
 40
0.5
 41
0.0
 71
     5
 72
     1
  1
\A1;3.465
 73
     1
 44
1.0
1001
ACAD
1000
MTEXTBEGIN
1070
    73
1070
     1
1070
    44
1040
1.0
1070
    74
1070
     0
1000
MTEXTEND
  0
POINT
  5
AAD
330
768
100
AcDbEntity
  8
Defpoints
 62
     0
100
AcDbPoint
 10
24.45647293554282
 20
2.63112260173274
 30
0.0
  0
POINT
  5
AAE
330
768
100
AcDbEntity
  8
Defpoints
 62
     0
100
AcDbPoint
 10
27.92147293554283
 20
2.958122601732681
 30
0.0
  0
POINT
  5
AAF
330
768
100
AcDbEntity
  8
Defpoints
 62
     0
100
AcDbPoint
 10
27.92147293554283
 20
1.800339829847828
 30
0.0
  0
ENDBLK
  5
774
330
768
100
AcDbEntity
  8
0
100
AcDbBlockEnd
  0
BLOCK
  5
78D
330
782
100
AcDbEntity
  8
0
100
AcDbBlockBegin
  2
*D17
 70
     1
 10
0.0
 20
0.0
 30
0.0
  3
*D17
  1

  0
LINE
  5
AB0
330
782
100
AcDbEntity
  8
0
 62
     0
370
    -2
100
AcDbLine
 10
32.64105169212558
 20
11.76812260173268
 30
0.0
 11
31.43014595616715
 21
11.76812260173268
 31
0.0
  0
LINE
  5
AB1
330
782
100
AcDbEntity
  8
0
 62
     0
370
    -2
100
AcDbLine
 10
32.6410516921255
 20
2.958122601732681
 30
0.0
 11
31.43014595616715
 21
2.958122601732681
 31
0.0
  0
LINE
  5
AB2
330
782
100
AcDbEntity
  8
0
 62
     0
370
    -2
100
AcDbLine
 10
31.61014595616715
 20
11.26812260173268
 30
0.0
 11
31.61014595616715
 21
7.703122601732682
 31
0.0
  0
LINE
  5
AB3
330
782
100
AcDbEntity
  8
0
 62
     0
370
    -2
100
AcDbLine
 10
31.61014595616715
 20
3.458122601732681
 30
0.0
 11
31.61014595616715
 21
7.023122601732683
 31
0.0
  0
SOLID
  5
AB4
330
782
100
AcDbEntity
  8
0
 62
     0
100
AcDbTrace
 10
31.52681262283382
 20
11.26812260173268
 30
0.0
 11
31.69347928950048
 21
11.26812260173268
 31
0.0
 12
31.61014595616715
 22
11.76812260173268
 32
0.0
 13
31.61014595616715
 23
11.76812260173268
 33
0.0
  0
SOLID
  5
AB5
330
782
100
AcDbEntity
  8
0
 62
     0
100
AcDbTrace
 10
31.52681262283381
 20
3.458122601732681
 30
0.0
 11
31.69347928950048
 21
3.458122601732681
 31
0.0
 12
31.61014595616715
 22
2.958122601732681
 32
0.0
 13
31.61014595616715
 23
2.958122601732681
 33
0.0
  0
MTEXT
  5
AB6
330
782
100
AcDbEntity
  8
0
 62
     0
100
AcDbMText
 10
31.61014595616715
 20
7.363122601732688
 30
0.0
 40
0.5
 41
0.0
 71
     5
 72
     1
  1
\A1;8.810
 73
     1
 44
1.0
1001
ACAD
1000
MTEXTBEGIN
1070
    73
1070
     1
1070
    44
1040
1.0
1070
    74
1070
     0
1000
MTEXTEND
  0
POINT
  5
AB7
330
782
100
AcDbEntity
  8
Defpoints
 62
     0
100
AcDbPoint
 10
32.70355169212558
 20
11.76812260173268
 30
0.0
  0
POINT
  5
AB8
330
782
100
AcDbEntity
  8
Defpoints
 62
     0
100
AcDbPoint
 10
32.7035516921255
 20
2.958122601732681
 30
0.0
  0
POINT
  5
AB9
330
782
100
AcDbEntity
  8
Defpoints
 62
     0
100
AcDbPoint
 10
31.61014595616715
 20
2.958122601732681
 30
0.0
  0
ENDBLK
  5
78E
330
782
100
AcDbEntity
  8
0
100
AcDbBlockEnd
  0
BLOCK
  5
7A8
330
79D
100
AcDbEntity
  8
0
100
AcDbBlockBegin
  2
*D18
 70
     1
 10
0.0
 20
0.0
 30
0.0
  3
*D18
  1

  0
LINE
  5
ABA
330
79D
100
AcDbEntity
  8
0
 62
     0
370
    -2
100
AcDbLine
 10
32.70355169212558
 20
11.83062260173268
 30
0.0
 11
32.70355169212558
 21
12.55362386176176
 31
0.0
  0
LINE
  5
ABB
330
79D
100
AcDbEntity
  8
0
 62
     0
370
    -2
100
AcDbLine
 10
42.1335516921255
 20
11.83062260173268
 30
0.0
 11
42.1335516921255
 21
12.55362386176176
 31
0.0
  0
LINE
  5
ABC
330
79D
100
AcDbEntity
  8
0
 62
     0
370
    -2
100
AcDbLine
 10
33.20355169212558
 20
12.37362386176176
 30
0.0
 11
36.37021835879223
 21
12.37362386176176
 31
0.0
  0
LINE
  5
ABD
330
79D
100
AcDbEntity
  8
0
 62
     0
370
    -2
100
AcDbLine
 10
41.63355169212549
 20
12.37362386176176
 30
0.0
 11
38.46688502545889
 21
12.37362386176176
 31
0.0
  0
SOLID
  5
ABE
330
79D
100
AcDbEntity
  8
0
 62
     0
100
AcDbTrace
 10
33.20355169212558
 20
12.4569571950951
 30
0.0
 11
33.20355169212558
 21
12.29029052842843
 31
0.0
 12
32.70355169212558
 22
12.37362386176176
 32
0.0
 13
32.70355169212558
 23
12.37362386176176
 33
0.0
  0
SOLID
  5
ABF
330
79D
100
AcDbEntity
  8
0
 62
     0
100
AcDbTrace
 10
41.63355169212549
 20
12.4569571950951
 30
0.0
 11
41.63355169212549
 21
12.29029052842843
 31
0.0
 12
42.1335516921255
 22
12.37362386176176
 32
0.0
 13
42.1335516921255
 23
12.37362386176176
 33
0.0
  0
MTEXT
  5
AC0
330
79D
100
AcDbEntity
  8
0
 62
     0
100
AcDbMText
 10
37.41855169212555
 20
12.37362386176176
 30
0.0
 40
0.5
 41
0.0
 71
     5
 72
     1
  1
\A1;9.430
 73
     1
 44
1.0
1001
ACAD
1000
MTEXTBEGIN
1070
    73
1070
     1
1070
    44
1040
1.0
1070
    74
1070
     0
1000
MTEXTEND
  0
POINT
  5
AC1
330
79D
100
AcDbEntity
  8
Defpoints
 62
     0
100
AcDbPoint
 10
32.70355169212558
 20
11.76812260173268
 30
0.0
  0
POINT
  5
AC2
330
79D
100
AcDbEntity
  8
Defpoints
 62
     0
100
AcDbPoint
 10
42.1335516921255
 20
11.76812260173268
 30
0.0
  0
POINT
  5
AC3
330
79D
100
AcDbEntity
  8
Defpoints
 62
     0
100
AcDbPoint
 10
42.1335516921255
 20
12.37362386176176
 30
0.0
  0
ENDBLK
  5
7A9
330
79D
100
AcDbEntity
  8
0
100
AcDbBlockEnd
  0
BLOCK
  5
7C2
330
7B7
100
AcDbEntity
  8
0
100
AcDbBlockBegin
  2
*D19
 70
     1
 10
0.0
 20
0.0
 30
0.0
  3
*D19
  1

  0
LINE
  5
AC4
330
7B7
100
AcDbEntity
  8
0
 62
     0
370
    -2
100
AcDbLine
 10
42.19605169212551
 20
11.76812260173268
 30
0.0
 11
43.37297908654437
 21
11.76812260173268
 31
0.0
  0
LINE
  5
AC5
330
7B7
100
AcDbEntity
  8
0
 62
     0
370
    -2
100
AcDbLine
 10
41.50605169212556
 20
2.631122601732727
 30
0.0
 11
43.37297908654437
 21
2.631122601732726
 31
0.0
  0
LINE
  5
AC6
330
7B7
100
AcDbEntity
  8
0
 62
     0
370
    -2
100
AcDbLine
 10
43.19297908654436
 20
11.26812260173268
 30
0.0
 11
43.19297908654436
 21
7.539622601732705
 31
0.0
  0
LINE
  5
AC7
330
7B7
100
AcDbEntity
  8
0
 62
     0
370
    -2
100
AcDbLine
 10
43.19297908654436
 20
3.131122601732726
 30
0.0
 11
43.19297908654436
 21
6.859622601732704
 31
0.0
  0
SOLID
  5
AC8
330
7B7
100
AcDbEntity
  8
0
 62
     0
100
AcDbTrace
 10
43.10964575321103
 20
11.26812260173268
 30
0.0
 11
43.27631241987769
 21
11.26812260173268
 31
0.0
 12
43.19297908654436
 22
11.76812260173268
 32
0.0
 13
43.19297908654436
 23
11.76812260173268
 33
0.0
  0
SOLID
  5
AC9
330
7B7
100
AcDbEntity
  8
0
 62
     0
100
AcDbTrace
 10
43.10964575321103
 20
3.131122601732726
 30
0.0
 11
43.27631241987769
 21
3.131122601732726
 31
0.0
 12
43.19297908654436
 22
2.631122601732726
 32
0.0
 13
43.19297908654436
 23
2.631122601732726
 33
0.0
  0
MTEXT
  5
ACA
330
7B7
100
AcDbEntity
  8
0
 62
     0
100
AcDbMText
 10
43.19297908654436
 20
7.199622601732713
 30
0.0
 40
0.5
 41
0.0
 71
     5
 72
     1
  1
\A1;9.137
 73
     1
 44
1.0
1001
ACAD
1000
MTEXTBEGIN
1070
    73
1070
     1
1070
    44
1040
1.0
1070
    74
1070
     0
1000
MTEXTEND
  0
POINT
  5
ACB
330
7B7
100
AcDbEntity
  8
Defpoints
 62
     0
100
AcDbPoint
 10
42.1335516921255
 20
11.76812260173268
 30
0.0
  0
POINT
  5
ACC
330
7B7
100
AcDbEntity
  8
Defpoints
 62
     0
100
AcDbPoint
 10
41.44355169212556
 20
2.631122601732727
 30
0.0
  0
POINT
  5
ACD
330
7B7
100
AcDbEntity
  8
Defpoints
 62
     0
100
AcDbPoint
 10
43.19297908654436
 20
2.631122601732726
 30
0.0
  0
ENDBLK
  5
7C3
330
7B7
100
AcDbEntity
  8
0
100
AcDbBlockEnd
  0
BLOCK
  5
B7C
330
AEC
100
AcDbEntity
  8
0
100
AcDbBlockBegin
  2
A$C707F3AEC
 70
     0
 10
0.0
 20
0.0
 30
0.0
  3
A$C707F3AEC
  1

  0
LINE
  5
AED
330
AEC
100
AcDbEntity
  8
BORDER
100
AcDbLine
 10
2.673162904242161
 20
-22.51597209543907
 30
0.0
 11
7.750308150625818
 21
-22.51597209543907
 31
0.0
  0
TEXT
  5
AEE
330
AEC
100
AcDbEntity
  8
TEXT
100
AcDbText
 10
2.920271591309249
 20
-22.8909389213504
 30
0.0
 40
0.2499778839408801
  1
PROPRIETARY DRAWING
 72
     1
 11
5.211735527433983
 21
-22.76594997937996
 31
0.0
100
AcDbText
 73
     2
  0
TEXT
  5
AEF
330
AEC
100
AcDbEntity
  8
TEXT
100
AcDbText
 10
3.086923513936526
 20
-23.5158836312026
 30
0.0
 40
0.1249889419704401
  1
OR ALTERED WITHOUT AUTHORIZATION OF
 72
     1
 11
5.211735527434006
 21
-23.45338916021738
 31
0.0
100
AcDbText
 73
     2
  0
TEXT
  5
AF0
330
AEC
100
AcDbEntity
  8
TEXT
100
AcDbText
 10
2.993181807458696
 20
-23.32840021824693
 30
0.0
 40
0.1249889419704401
  1
QUBE, INC. AND IS NOT TO BE DUPLICATED
 72
     1
 11
5.211735527434006
 21
-23.26590574726171
 31
0.0
100
AcDbText
 73
     2
  0
TEXT
  5
AF1
330
AEC
100
AcDbEntity
  8
TEXT
100
AcDbText
 10
3.107755004264932
 20
-23.14091680529127
 30
0.0
 40
0.1249889419704401
  1
THIS DRAWING IS THE PROPERTY OF ICE
 72
     1
 11
5.211735527434006
 21
-23.07842233430605
 31
0.0
100
AcDbText
 73
     2
  0
LINE
  5
AF2
330
AEC
100
AcDbEntity
  8
BORDER
100
AcDbLine
 10
11.35498923705331
 20
-20.67413504656265
 30
0.0
 11
18.02019196765781
 21
-20.67413504656265
 31
0.0
  0
TEXT
  5
AF3
330
AEC
100
AcDbEntity
  8
TEXT
100
AcDbText
 10
4.472217620775595
 20
-23.70336704415825
 30
0.0
 40
0.1249889419704401
  1
ICE QUBE, INC.
 72
     1
 11
5.211735527434033
 21
-23.64087257317303
 31
0.0
100
AcDbText
 73
     2
  0
LINE
  5
AF4
330
AEC
100
AcDbEntity
  8
BORDER
100
AcDbLine
 10
2.673162904242161
 20
-22.51597209543907
 30
0.0
 11
2.673162904242161
 21
-23.89085045711391
 31
0.0
  0
TEXT
  5
AF5
330
AEC
100
AcDbEntity
  8
TEXT
100
AcDbText
 10
13.27104926002389
 20
-22.7876980552828
 30
0.0
 40
0.4999557678817605
  1
IQ100FP
 72
     1
 11
14.68759060235555
 21
-22.53772017134192
 31
0.0
100
AcDbText
 73
     2
  0
LINE
  5
AF6
330
AEC
100
AcDbEntity
  8
BORDER
100
AcDbLine
 10
11.35498923705331
 20
-22.92643578087002
 30
0.0
 11
18.02019196765781
 21
-22.92643578087002
 31
0.0
  0
LINE
  5
AF7
330
AEC
100
AcDbEntity
  8
BORDER
100
AcDbLine
 10
11.35498923705331
 20
-21.96152114885819
 30
0.0
 11
18.02019196765781
 21
-21.96152114885819
 31
0.0
  0
TEXT
  5
AF8
330
AEC
100
AcDbEntity
  8
TEXT
100
AcDbText
 10
11.47997817902374
 20
-22.14900456181385
 30
0.0
 40
0.1249889419704401
  1
PART NAME
100
AcDbText
  0
TEXT
  5
AF9
330
AEC
100
AcDbEntity
  8
TEXT
100
AcDbText
 10
11.47997817902374
 20
-23.11391919382568
 30
0.0
 40
0.1249889419704401
  1
DWG NO
100
AcDbText
  0
LINE
  5
AFA
330
AEC
100
AcDbEntity
  8
BORDER
100
AcDbLine
 10
11.35498923705331
 20
-23.89085045711391
 30
0.0
 11
11.35498923705331
 21
-20.67413504656265
 31
0.0
  0
TEXT
  5
AFB
330
AEC
100
AcDbEntity
  8
TEXT
100
AcDbText
 10
10.11009937502771
 20
-22.73845241214643
 30
0.0
 40
0.1874834129556601
  1
NONE
 72
     1
 11
10.45381896544642
 21
-22.6447107056686
 31
0.0
100
AcDbText
 73
     2
  0
TEXT
  5
AFC
330
AEC
100
AcDbEntity
  8
TEXT
100
AcDbText
 10
7.875297092596292
 20
-23.00642870373108
 30
0.0
 40
0.1249889419704401
  1
DATE
100
AcDbText
  0
LINE
  5
AFD
330
AEC
100
AcDbEntity
  8
BORDER
100
AcDbLine
 10
7.750308150625856
 20
-23.89085045711391
 30
0.0
 11
7.750308150625818
 21
-22.28299270760617
 31
0.0
  0
TEXT
  5
AFE
330
AEC
100
AcDbEntity
  8
TEXT
100
AcDbText
 10
7.875297092596232
 20
-22.47047612056177
 30
0.0
 40
0.1249889419704401
  1
DRAWN
100
AcDbText
  0
LINE
  5
AFF
330
AEC
100
AcDbEntity
  8
BORDER
100
AcDbLine
 10
9.55264869383955
 20
-22.28299270760611
 30
0.0
 11
9.55264869383955
 21
-22.81894529077542
 31
0.0
  0
TEXT
  5
B00
330
AEC
100
AcDbEntity
  8
TEXT
100
AcDbText
 10
9.67763763580999
 20
-22.47047612056177
 30
0.0
 40
0.1249889419704401
  1
SCALE
100
AcDbText
  0
TEXT
  5
B01
330
AEC
100
AcDbEntity
  8
TEXT
100
AcDbText
 10
8.177770332164739
 20
-23.7478631074997
 30
0.0
 40
0.2499778839408801
  1
SHEET 1 OF 1
 72
     1
 11
9.552648693839579
 21
-23.62287416552926
 31
0.0
100
AcDbText
 73
     2
  0
LINE
  5
B02
330
AEC
100
AcDbEntity
  8
BORDER
100
AcDbLine
 10
7.750308150625856
 20
-22.81894529077542
 30
0.0
 11
11.35498923705331
 21
-22.81894529077542
 31
0.0
  0
LINE
  5
B03
330
AEC
100
AcDbEntity
  8
BORDER
100
AcDbLine
 10
7.750308150625856
 20
-23.35489787394466
 30
0.0
 11
11.35498923705331
 21
-23.35489787394466
 31
0.0
  0
LINE
  5
B04
330
AEC
100
AcDbEntity
  8
BORDER
100
AcDbLine
 10
7.750308150625818
 20
-22.28299270760617
 30
0.0
 11
11.35498923705331
 21
-22.28299270760617
 31
0.0
  0
LINE
  5
B05
330
AEC
100
AcDbEntity
  8
BORDER
100
AcDbLine
 10
16.60896862769386
 20
-22.92643578087002
 30
0.0
 11
16.60896862769386
 21
-23.89085045711391
 31
0.0
  0
TEXT
  5
B06
330
AEC
100
AcDbEntity
  8
TEXT
100
AcDbText
 10
16.7339575696643
 20
-23.11391919382568
 30
0.0
 40
0.1249889419704401
  1
REV
100
AcDbText
  0
ARC
  5
B07
330
AEC
100
AcDbEntity
  8
TEXT
100
AcDbCircle
 10
14.29081089722585
 20
-21.54517068580637
 30
0.0
 40
0.1474999446478557
100
AcDbArc
 50
180.0
 51
0.0000000000004071
  0
ARC
  5
B08
330
AEC
100
AcDbEntity
  8
TEXT
100
AcDbCircle
 10
14.29081089722585
 20
-21.30989808250953
 30
0.0
 40
0.1474999446478557
100
AcDbArc
 50
357.1912576066922
 51
182.8087423933078
  0
LINE
  5
B09
330
AEC
100
AcDbEntity
  8
TEXT
100
AcDbLine
 10
14.43820644784474
 20
-21.51032410054989
 30
0.0
 11
14.43820644784474
 21
-21.55071913864205
 31
0.0
  0
LINE
  5
B0A
330
AEC
100
AcDbEntity
  8
TEXT
100
AcDbLine
 10
14.24845942797051
 20
-21.46334285600777
 30
0.0
 11
14.24845942797054
 21
-21.58382679760229
 31
0.0
  0
LINE
  5
B0B
330
AEC
100
AcDbEntity
  8
TEXT
100
AcDbLine
 10
14.33305797245222
 20
-21.51032410054989
 30
0.0
 11
14.33305797245222
 21
-21.58679859552632
 31
0.0
  0
LINE
  5
B0C
330
AEC
100
AcDbEntity
  8
TEXT
100
AcDbLine
 10
14.2484594279705
 20
-21.39467815910744
 30
0.0
 11
14.3330579724522
 21
-21.39467815910744
 31
0.0
  0
LINE
  5
B0D
330
AEC
100
AcDbEntity
  8
TEXT
100
AcDbLine
 10
14.33305797245222
 20
-21.51032410054989
 30
0.0
 11
14.43820644784474
 21
-21.51032410054989
 31
0.0
  0
LINE
  5
B0E
330
AEC
100
AcDbEntity
  8
TEXT
100
AcDbLine
 10
14.24845942797051
 20
-21.46334285600774
 30
0.0
 11
14.43820644784474
 21
-21.46334285600774
 31
0.0
  0
ARC
  5
B0F
330
AEC
100
AcDbEntity
  8
TEXT
100
AcDbCircle
 10
14.29081089722585
 20
-21.58382679760229
 30
0.0
 40
0.0423514692553249
100
AcDbArc
 50
179.9999999999984
 51
4.023745172363636
  0
ARC
  5
B10
330
AEC
100
AcDbEntity
  8
TEXT
100
AcDbCircle
 10
14.29081089722585
 20
-21.27297680172254
 30
0.0
 40
0.0423514692553249
100
AcDbArc
 50
355.9762548274009
 51
180.0
  0
LINE
  5
B11
330
AEC
100
AcDbEntity
  8
TEXT
100
AcDbLine
 10
13.44170069678073
 20
-21.65906888089604
 30
0.0
 11
13.44170069678073
 21
-21.69267063045423
 31
0.0
  0
LINE
  5
B12
330
AEC
100
AcDbEntity
  8
TEXT
100
AcDbLine
 10
13.37018820791209
 20
-21.16962595531434
 30
0.0
 11
13.37018820791209
 21
-21.59054461686348
 31
0.0
  0
LINE
  5
B13
330
AEC
100
AcDbEntity
  8
TEXT
100
AcDbLine
 10
13.2665530916601
 20
-21.16962595531433
 30
0.0
 11
13.37018820791209
 21
-21.16962595531433
 31
0.0
  0
LINE
  5
B14
330
AEC
100
AcDbEntity
  8
TEXT
100
AcDbLine
 10
13.44170069678073
 20
-21.69267063045423
 30
0.0
 11
13.54684917217326
 21
-21.69267063045423
 31
0.0
  0
LINE
  5
B15
330
AEC
100
AcDbEntity
  8
TEXT
100
AcDbLine
 10
13.2665530916601
 20
-21.16962595531434
 30
0.0
 11
13.26655309166008
 21
-21.6207320442338
 31
0.0
  0
LINE
  5
B16
330
AEC
100
AcDbEntity
  8
TEXT
100
AcDbLine
 10
13.37018820791209
 20
-21.26625898246137
 30
0.0
 11
13.37018820791209
 21
-21.59054461686348
 31
0.0
  0
LINE
  5
B17
330
AEC
100
AcDbEntity
  8
TEXT
100
AcDbLine
 10
13.44170069678072
 20
-21.16962595531434
 30
0.0
 11
13.44170069678072
 21
-21.59054461686348
 31
0.0
  0
LINE
  5
B18
330
AEC
100
AcDbEntity
  8
TEXT
100
AcDbLine
 10
13.54684917217326
 20
-21.16962595531434
 30
0.0
 11
13.54684917217326
 21
-21.69267063045423
 31
0.0
  0
LINE
  5
B19
330
AEC
100
AcDbEntity
  8
TEXT
100
AcDbLine
 10
13.35324762020996
 20
-21.69267063045424
 30
0.0
 11
13.37242731712384
 21
-21.69267063045424
 31
0.0
  0
LINE
  5
B1A
330
AEC
100
AcDbEntity
  8
TEXT
100
AcDbLine
 10
13.44170069678072
 20
-21.16962595531433
 30
0.0
 11
13.54684917217326
 21
-21.16962595531433
 31
0.0
  0
ARC
  5
B1B
330
AEC
100
AcDbEntity
  8
TEXT
100
AcDbCircle
 10
13.40582185790621
 20
-21.59054461686348
 30
0.0
 40
0.0356336499941355
100
AcDbArc
 50
180.0000000000016
 51
359.9999999999984
  0
ARC
  5
B1C
330
AEC
100
AcDbEntity
  8
TEXT
100
AcDbCircle
 10
13.35324762020996
 20
-21.60446274276383
 30
0.0
 40
0.0882078876904009
100
AcDbArc
 50
180.0
 51
270.0
  0
ARC
  5
B1D
330
AEC
100
AcDbEntity
  8
TEXT
100
AcDbCircle
 10
13.37242731712384
 20
-21.60446274276383
 30
0.0
 40
0.0882078876904009
100
AcDbArc
 50
270.0
 51
321.7523418942988
  0
LINE
  5
B1E
330
AEC
100
AcDbEntity
  8
TEXT
100
AcDbLine
 10
13.98825403439713
 20
-21.60374626775634
 30
0.0
 11
13.98825403439713
 21
-21.25234085656101
 31
0.0
  0
LINE
  5
B1F
330
AEC
100
AcDbEntity
  8
TEXT
100
AcDbLine
 10
13.8831055590046
 20
-21.59054461686348
 30
0.0
 11
13.88310555900459
 21
-21.26625898246137
 31
0.0
  0
LINE
  5
B20
330
AEC
100
AcDbEntity
  8
TEXT
100
AcDbLine
 10
13.81159307013593
 20
-21.59054461686348
 30
0.0
 11
13.81159307013593
 21
-21.26625898246137
 31
0.0
  0
LINE
  5
B21
330
AEC
100
AcDbEntity
  8
TEXT
100
AcDbLine
 10
13.70644459474341
 20
-21.6871776440105
 30
0.0
 11
13.70644459474341
 21
-20.94298556496661
 31
0.0
  0
LINE
  5
B22
330
AEC
100
AcDbEntity
  8
TEXT
100
AcDbLine
 10
13.79850701452288
 20
-21.6871776440105
 30
0.0
 11
13.79850701452288
 21
-21.64026186130736
 31
0.0
  0
LINE
  5
B23
330
AEC
100
AcDbEntity
  8
TEXT
100
AcDbLine
 10
13.90004614670671
 20
-21.16413296887058
 30
0.0
 11
13.88086644979281
 21
-21.16413296887058
 31
0.0
  0
LINE
  5
B24
330
AEC
100
AcDbEntity
  8
TEXT
100
AcDbLine
 10
13.79850701452288
 20
-21.6871776440105
 30
0.0
 11
13.70644459474341
 21
-21.6871776440105
 31
0.0
  0
ARC
  5
B25
330
AEC
100
AcDbEntity
  8
TEXT
100
AcDbCircle
 10
13.84747190901046
 20
-21.59054461686348
 30
0.0
 40
0.0356336499941355
100
AcDbArc
 50
180.0
 51
0.0
  0
ARC
  5
B26
330
AEC
100
AcDbEntity
  8
TEXT
100
AcDbCircle
 10
13.84747190901046
 20
-21.26625898246135
 30
0.0
 40
0.0356336499941355
100
AcDbArc
 50
0.0000000000016284
 51
179.9999999999984
  0
ARC
  5
B27
330
AEC
100
AcDbEntity
  8
TEXT
100
AcDbCircle
 10
13.89332832744553
 20
-21.60374626775634
 30
0.0
 40
0.0949257069515904
100
AcDbArc
 50
202.6235962336631
 51
0.0
  0
LINE
  5
B28
330
AEC
100
AcDbEntity
  8
TEXT
100
AcDbLine
 10
13.81159307013593
 20
-21.19773471842877
 30
0.0
 11
13.81159307013593
 21
-20.94298556496658
 31
0.0
  0
LINE
  5
B29
330
AEC
100
AcDbEntity
  8
TEXT
100
AcDbLine
 10
13.80570697577895
 20
-21.64026186130736
 30
0.0
 11
13.79850701452288
 21
-21.64026186130736
 31
0.0
  0
ARC
  5
B2A
330
AEC
100
AcDbEntity
  8
TEXT
100
AcDbCircle
 10
13.90004614670671
 20
-21.25234085656098
 30
0.0
 40
0.0882078876904009
100
AcDbArc
 50
0.0
 51
90.0
  0
ARC
  5
B2B
330
AEC
100
AcDbEntity
  8
TEXT
100
AcDbCircle
 10
13.88086644979281
 20
-21.25234085656098
 30
0.0
 40
0.0882078876904009
100
AcDbArc
 50
90.0
 51
141.7523418942987
  0
LINE
  5
B2C
330
AEC
100
AcDbEntity
  8
TEXT
100
AcDbLine
 10
12.26266661225965
 20
-21.46883025131671
 30
0.0
 11
12.26266661225965
 21
-21.54312613211818
 31
0.0
  0
LINE
  5
B2D
330
AEC
100
AcDbEntity
  8
TEXT
100
AcDbLine
 10
12.1575181368671
 20
-21.46883025131671
 30
0.0
 11
12.1575181368671
 21
-21.54312613211818
 31
0.0
  0
LINE
  5
B2E
330
AEC
100
AcDbEntity
  8
TEXT
100
AcDbLine
 10
12.26266661225965
 20
-21.46883025131671
 30
0.0
 11
12.1575181368671
 21
-21.46883025131671
 31
0.0
  0
LINE
  5
B2F
330
AEC
100
AcDbEntity
  8
TEXT
100
AcDbLine
 10
12.26266661225965
 20
-21.15375383600746
 30
0.0
 11
12.15751813686709
 21
-21.15375383600746
 31
0.0
  0
ARC
  5
B30
330
AEC
100
AcDbEntity
  8
TEXT
100
AcDbCircle
 10
12.92901793148258
 20
-21.60446274276383
 30
0.0
 40
0.0882078876904009
100
AcDbArc
 50
270.0
 51
321.7523418942988
  0
ARC
  5
B31
330
AEC
100
AcDbEntity
  8
TEXT
100
AcDbCircle
 10
12.90983823456872
 20
-21.60446274276383
 30
0.0
 40
0.0882078876904009
100
AcDbArc
 50
180.0
 51
270.0
  0
LINE
  5
B32
330
AEC
100
AcDbEntity
  8
TEXT
100
AcDbLine
 10
13.00417740549646
 20
-21.21654173801745
 30
0.0
 11
13.01137736675254
 21
-21.21654173801745
 31
0.0
  0
LINE
  5
B33
330
AEC
100
AcDbEntity
  8
TEXT
100
AcDbLine
 10
12.99829131113949
 20
-21.65906888089605
 30
0.0
 11
12.99829131113949
 21
-21.86604230534269
 31
0.0
  0
ARC
  5
B34
330
AEC
100
AcDbEntity
  8
TEXT
100
AcDbCircle
 10
12.91655605382989
 20
-21.25305733156848
 30
0.0
 40
0.0949257069515904
100
AcDbArc
 50
22.62359623366325
 51
180.0
  0
LINE
  5
B35
330
AEC
100
AcDbEntity
  8
TEXT
100
AcDbLine
 10
13.70644459474341
 20
-20.94298556496658
 30
0.0
 11
13.81159307013593
 21
-20.94298556496658
 31
0.0
  0
ARC
  5
B36
330
AEC
100
AcDbEntity
  8
TEXT
100
AcDbCircle
 10
12.96241247226498
 20
-21.59054461686348
 30
0.0
 40
0.0356336499941355
100
AcDbArc
 50
180.0000000000016
 51
359.9999999999984
  0
ARC
  5
B37
330
AEC
100
AcDbEntity
  8
TEXT
100
AcDbCircle
 10
12.96241247226498
 20
-21.26625898246135
 30
0.0
 40
0.0356336499941355
100
AcDbArc
 50
0.0
 51
180.0
  0
LINE
  5
B38
330
AEC
100
AcDbEntity
  8
TEXT
100
AcDbLine
 10
12.99829131113949
 20
-21.86604230534269
 30
0.0
 11
13.10343978653205
 21
-21.86604230534269
 31
0.0
  0
LINE
  5
B39
330
AEC
100
AcDbEntity
  8
TEXT
100
AcDbLine
 10
13.01137736675254
 20
-21.16962595531433
 30
0.0
 11
13.10343978653205
 21
-21.16962595531433
 31
0.0
  0
LINE
  5
B3A
330
AEC
100
AcDbEntity
  8
TEXT
100
AcDbLine
 10
12.68749945661801
 20
-21.03232636161068
 30
0.0
 11
12.68749945661801
 21
-20.94298556496658
 31
0.0
  0
LINE
  5
B3B
330
AEC
100
AcDbEntity
  8
TEXT
100
AcDbLine
 10
12.51130009587688
 20
-21.34942250849963
 30
0.0
 11
12.51130009587688
 21
-21.60329442637058
 31
0.0
  0
LINE
  5
B3C
330
AEC
100
AcDbEntity
  8
TEXT
100
AcDbLine
 10
12.67464797629225
 20
-21.3494225084996
 30
0.0
 11
12.67464797629225
 21
-21.2600817118555
 31
0.0
  0
LINE
  5
B3D
330
AEC
100
AcDbEntity
  8
TEXT
100
AcDbLine
 10
12.68749945661801
 20
-21.69267063045423
 30
0.0
 11
12.68749945661801
 21
-21.60329442637058
 31
0.0
  0
LINE
  5
B3E
330
AEC
100
AcDbEntity
  8
TEXT
100
AcDbLine
 10
12.51130009587688
 20
-21.3494225084996
 30
0.0
 11
12.67464797629225
 21
-21.3494225084996
 31
0.0
  0
LINE
  5
B3F
330
AEC
100
AcDbEntity
  8
TEXT
100
AcDbLine
 10
12.51130009587691
 20
-21.2600817118555
 30
0.0
 11
12.67464797629225
 21
-21.2600817118555
 31
0.0
  0
ARC
  5
B40
330
AEC
100
AcDbEntity
  8
TEXT
100
AcDbCircle
 10
12.09710319999232
 20
-21.54312613211818
 30
0.0
 40
0.1653167696449235
100
AcDbArc
 50
180.0
 51
0.0
  0
ARC
  5
B41
330
AEC
100
AcDbEntity
  8
TEXT
100
AcDbCircle
 10
12.09710319999232
 20
-21.09249465586307
 30
0.0
 40
0.1653167696449235
100
AcDbArc
 50
0.0
 51
180.0
  0
LINE
  5
B42
330
AEC
100
AcDbEntity
  8
TEXT
100
AcDbLine
 10
12.90983823456872
 20
-21.69267063045424
 30
0.0
 11
12.92901793148258
 21
-21.69267063045424
 31
0.0
  0
LINE
  5
B43
330
AEC
100
AcDbEntity
  8
TEXT
100
AcDbLine
 10
12.40615162048434
 20
-20.94298556496658
 30
0.0
 11
12.68749945661801
 21
-20.94298556496658
 31
0.0
  0
LINE
  5
B44
330
AEC
100
AcDbEntity
  8
TEXT
100
AcDbLine
 10
12.51130009587688
 20
-21.03232636161068
 30
0.0
 11
12.68749945661801
 21
-21.03232636161068
 31
0.0
  0
LINE
  5
B45
330
AEC
100
AcDbEntity
  8
TEXT
100
AcDbLine
 10
12.51130009587688
 20
-21.60329442637058
 30
0.0
 11
12.68749945661801
 21
-21.60329442637058
 31
0.0
  0
LINE
  5
B46
330
AEC
100
AcDbEntity
  8
TEXT
100
AcDbLine
 10
12.40615162048434
 20
-21.69267063045423
 30
0.0
 11
12.68749945661801
 21
-21.69267063045423
 31
0.0
  0
ARC
  5
B47
330
AEC
100
AcDbEntity
  8
TEXT
100
AcDbCircle
 10
12.09710319999232
 20
-21.54312613211818
 30
0.0
 40
0.0601682942523927
100
AcDbArc
 50
180.0
 51
0.0
  0
ARC
  5
B48
330
AEC
100
AcDbEntity
  8
TEXT
100
AcDbCircle
 10
12.09710319999232
 20
-21.09249465586307
 30
0.0
 40
0.0601682942523927
100
AcDbArc
 50
0.0
 51
180.0
  0
LINE
  5
B49
330
AEC
100
AcDbEntity
  8
TEXT
100
AcDbLine
 10
14.43820644784474
 20
-21.30434962967376
 30
0.0
 11
14.43820644784474
 21
-21.46334285600774
 31
0.0
  0
LINE
  5
B4A
330
AEC
100
AcDbEntity
  8
TEXT
100
AcDbLine
 10
14.3330579724522
 20
-21.27000500379832
 30
0.0
 11
14.3330579724522
 21
-21.39467815910744
 31
0.0
  0
LINE
  5
B4B
330
AEC
100
AcDbEntity
  8
TEXT
100
AcDbLine
 10
14.24845942797051
 20
-21.27297680172254
 30
0.0
 11
14.2484594279705
 21
-21.39467815910744
 31
0.0
  0
LINE
  5
B4C
330
AEC
100
AcDbEntity
  8
TEXT
100
AcDbLine
 10
14.14331095257803
 20
-21.30989808250955
 30
0.0
 11
14.143310952578
 21
-21.54517068580637
 31
0.0
  0
LINE
  5
B4D
330
AEC
100
AcDbEntity
  8
TEXT
100
AcDbLine
 10
13.01137736675254
 20
-21.16962595531433
 30
0.0
 11
13.01137736675256
 21
-21.21654173801745
 31
0.0
  0
LINE
  5
B4E
330
AEC
100
AcDbEntity
  8
TEXT
100
AcDbLine
 10
13.10343978653205
 20
-21.16962595531434
 30
0.0
 11
13.10343978653205
 21
-21.86604230534269
 31
0.0
  0
LINE
  5
B4F
330
AEC
100
AcDbEntity
  8
TEXT
100
AcDbLine
 10
12.99829131113949
 20
-21.26625898246137
 30
0.0
 11
12.99829131113949
 21
-21.59054461686348
 31
0.0
  0
LINE
  5
B50
330
AEC
100
AcDbEntity
  8
TEXT
100
AcDbLine
 10
12.92677882227083
 20
-21.26625898246137
 30
0.0
 11
12.92677882227083
 21
-21.59054461686348
 31
0.0
  0
LINE
  5
B51
330
AEC
100
AcDbEntity
  8
TEXT
100
AcDbLine
 10
12.82163034687831
 20
-21.2530573315685
 30
0.0
 11
12.82163034687831
 21
-21.60446274276383
 31
0.0
  0
LINE
  5
B52
330
AEC
100
AcDbEntity
  8
TEXT
100
AcDbLine
 10
12.51130009587688
 20
-21.03232636161068
 30
0.0
 11
12.51130009587691
 21
-21.2600817118555
 31
0.0
  0
LINE
  5
B53
330
AEC
100
AcDbEntity
  8
TEXT
100
AcDbLine
 10
12.40615162048434
 20
-20.94298556496661
 30
0.0
 11
12.40615162048434
 21
-21.69267063045423
 31
0.0
  0
LINE
  5
B54
330
AEC
100
AcDbEntity
  8
TEXT
100
AcDbLine
 10
12.15751813686709
 20
-21.09249465586307
 30
0.0
 11
12.15751813686709
 21
-21.15375383600746
 31
0.0
  0
LINE
  5
B55
330
AEC
100
AcDbEntity
  8
TEXT
100
AcDbLine
 10
12.26266661225965
 20
-21.09249465586307
 30
0.0
 11
12.26266661225965
 21
-21.15375383600746
 31
0.0
  0
LINE
  5
B56
330
AEC
100
AcDbEntity
  8
TEXT
100
AcDbLine
 10
12.03693490573992
 20
-21.0924946558631
 30
0.0
 11
12.03693490573992
 21
-21.54312613211818
 31
0.0
  0
LINE
  5
B57
330
AEC
100
AcDbEntity
  8
TEXT
100
AcDbLine
 10
11.93178643034739
 20
-21.0924946558631
 30
0.0
 11
11.93178643034739
 21
-21.54312613211818
 31
0.0
  0
LINE
  5
B58
330
AEC
100
AcDbEntity
  8
TEXT
100
AcDbLine
 10
11.77194345934812
 20
-20.94298556496661
 30
0.0
 11
11.77194345934812
 21
-21.69267063045423
 31
0.0
  0
LINE
  5
B59
330
AEC
100
AcDbEntity
  8
TEXT
100
AcDbLine
 10
11.66679498395559
 20
-20.94298556496661
 30
0.0
 11
11.66679498395559
 21
-21.69267063045423
 31
0.0
  0
LINE
  5
B5A
330
AEC
100
AcDbEntity
  8
TEXT
100
AcDbLine
 10
11.66679498395559
 20
-21.69267063045423
 30
0.0
 11
11.77194345934812
 21
-21.69267063045423
 31
0.0
  0
LINE
  5
B5B
330
AEC
100
AcDbEntity
  8
TEXT
100
AcDbLine
 10
11.66679498395559
 20
-20.94298556496658
 30
0.0
 11
11.77194345934812
 21
-20.94298556496658
 31
0.0
  0
TEXT
  5
B5C
330
AEC
100
AcDbEntity
  8
TEXT
100
AcDbText
 10
15.44161890483334
 20
-21.84919871780959
 30
0.0
 40
0.0937417064778301
  1
FAX  724-837-3386
 72
     1
 11
16.22279979214859
 21
-21.80232786457068
 31
0.0
100
AcDbText
 73
     2
  0
TEXT
  5
B5D
330
AEC
100
AcDbEntity
  8
TEXT
100
AcDbText
 10
15.45724252257964
 20
-21.09926506598693
 30
0.0
 40
0.0937417064778301
  1
141 WILSON AVENUE
 72
     1
 11
16.22279979214859
 21
-21.05239421274802
 31
0.0
100
AcDbText
 73
     2
  0
TEXT
  5
B5E
330
AEC
100
AcDbEntity
  8
TEXT
100
AcDbText
 10
15.31662996286289
 20
-21.34924294992782
 30
0.0
 40
0.0937417064778301
  1
GREENSBURG, PA  15601
 72
     1
 11
16.22279979214859
 21
-21.3023720966889
 31
0.0
100
AcDbText
 73
     2
  0
TEXT
  5
B5F
330
AEC
100
AcDbEntity
  8
TEXT
100
AcDbText
 10
14.98853399019049
 20
-20.86178607624312
 30
0.0
 40
0.0937417064778301
  1
INDUSTRIAL COOLING EQUIPMENT
 72
     1
 11
16.22279979214859
 21
-20.8149152230042
 31
0.0
100
AcDbText
 73
     2
  0
TEXT
  5
B60
330
AEC
100
AcDbEntity
  8
TEXT
100
AcDbText
 10
14.80886238610798
 20
-21.59922083386872
 30
0.0
 40
0.0937417064778301
  1
724-837-2204  *  1-888-867-8234
 72
     1
 11
16.22279979214859
 21
-21.5523499806298
 31
0.0
100
AcDbText
 73
     2
  0
LWPOLYLINE
  5
B61
330
AEC
100
AcDbEntity
  8
BORDER
100
AcDbPolyline
 90
        4
 70
     1
 43
0.0
 10
-19.97843066070027
 20
26.10914954288609
 10
18.0201919676578
 20
26.10914954288609
 10
18.0201919676578
 20
-23.89085045711391
 10
-19.97843066070027
 20
-23.89085045711391
  0
TEXT
  5
B62
330
AEC
100
AcDbEntity
  8
TEXT
100
AcDbText
 10
8.511453843734955
 20
-22.73455909668296
 30
0.0
 40
0.1875
  1
GFD
 72
     1
 11
8.761453843734955
 21
-22.64080909668296
 31
0.0
100
AcDbText
 73
     2
  0
TEXT
  5
B63
330
AEC
100
AcDbEntity
  8
TEXT
100
AcDbText
 10
9.027154782940753
 20
-23.21691266907289
 30
0.0
 40
0.25
  1
5-15-08
 72
     1
 11
9.797988116274087
 21
-23.09191266907289
 31
0.0
100
AcDbText
 73
     2
  0
TEXT
  5
B64
330
AEC
100
AcDbEntity
  8
TEXT
100
AcDbText
 10
12.34868919444738
 20
-23.71214557777245
 30
0.0
 40
0.5
  1
IQ280304
 72
     1
 11
14.09868919444738
 21
-23.46214557777245
 31
0.0
100
AcDbText
 73
     2
  0
TEXT
  5
B65
330
AEC
100
AcDbEntity
  8
TEXT
100
AcDbText
 10
17.20979112013923
 20
-23.71214557777245
 30
0.0
 40
0.5
  1
0
 72
     1
 11
17.33479112013923
 21
-23.46214557777245
 31
0.0
100
AcDbText
 73
     2
  0
TEXT
  5
B66
330
AEC
100
AcDbEntity
  8
TEXT
100
AcDbText
 10
-15.75426399403353
 20
-23.79085045711399
 30
0.0
 40
0.2
  1
REVISIONS
 72
     1
 11
-14.9209306607002
 21
-23.69085045711398
 31
0.0
100
AcDbText
 73
     2
  0
LINE
  5
B67
330
AEC
100
AcDbEntity
  8
BORDER
100
AcDbLine
 10
-6.982028063960562
 20
-23.89085045711391
 30
0.0
 11
-19.97843066070026
 21
-23.89085045711391
 31
0.0
  0
LINE
  5
B68
330
AEC
100
AcDbEntity
  8
BORDER
100
AcDbLine
 10
-6.982028063960562
 20
-22.69085045711387
 30
0.0
 11
-6.982028063960562
 21
-23.89085045711391
 31
0.0
  0
LINE
  5
B69
330
AEC
100
AcDbEntity
  8
BORDER
100
AcDbLine
 10
-19.97843066070026
 20
-23.49085045711394
 30
0.0
 11
-6.982028063960562
 21
-23.49085045711394
 31
0.0
  0
LINE
  5
B6A
330
AEC
100
AcDbEntity
  8
BORDER
100
AcDbLine
 10
-10.73843066070025
 20
-23.49085045711394
 30
0.0
 11
-10.73843066070025
 21
-23.0908504571139
 31
0.0
  0
TEXT
  5
B6B
330
AEC
100
AcDbEntity
  8
TEXT
100
AcDbText
 10
-10.22509732736692
 20
-23.39085045711395
 30
0.0
 40
0.2
  1
DATE
 72
     1
 11
-9.858430660700255
 21
-23.29085045711395
 31
0.0
100
AcDbText
 73
     2
  0
LINE
  5
B6C
330
AEC
100
AcDbEntity
  8
BORDER
100
AcDbLine
 10
-8.978430660700261
 20
-23.49085045711394
 30
0.0
 11
-8.978430660700261
 21
-23.0908504571139
 31
0.0
  0
TEXT
  5
B6D
330
AEC
100
AcDbEntity
  8
TEXT
100
AcDbText
 10
-8.646896028997078
 20
-23.39085045711395
 30
0.0
 40
0.2
  1
CHECKED
 72
     1
 11
-7.980229362330411
 21
-23.29085045711395
 31
0.0
100
AcDbText
 73
     2
  0
TEXT
  5
B6E
330
AEC
100
AcDbEntity
  8
TEXT
100
AcDbText
 10
-15.9209306607002
 20
-23.39085045711395
 30
0.0
 40
0.2
  1
DESCRIPTION
 72
     1
 11
-14.9209306607002
 21
-23.29085045711395
 31
0.0
100
AcDbText
 73
     2
  0
LINE
  5
B6F
330
AEC
100
AcDbEntity
  8
BORDER
100
AcDbLine
 10
-19.10343066070026
 20
-23.49085045711394
 30
0.0
 11
-19.10343066070026
 21
-23.0908504571139
 31
0.0
  0
LINE
  5
B70
330
AEC
100
AcDbEntity
  8
BORDER
100
AcDbLine
 10
-19.97843066070026
 20
-23.89085045711391
 30
0.0
 11
-19.97843066070026
 21
-21.49085045711374
 31
0.0
  0
TEXT
  5
B71
330
AEC
100
AcDbEntity
  8
TEXT
100
AcDbText
 10
-19.84093066070026
 20
-23.39085045711395
 30
0.0
 40
0.2
  1
REV
 72
     1
 11
-19.54093066070026
 21
-23.29085045711395
 31
0.0
100
AcDbText
 73
     2
  0
LINE
  5
B72
330
AEC
100
AcDbEntity
  8
BORDER
100
AcDbLine
 10
-6.982028063960562
 20
-23.0908504571139
 30
0.0
 11
-19.97843066070026
 21
-23.0908504571139
 31
0.0
  0
LINE
  5
B73
330
AEC
100
AcDbEntity
  8
BORDER
100
AcDbLine
 10
-6.982028063960562
 20
-23.49085045711394
 30
0.0
 11
-19.97843066070026
 21
-23.49085045711394
 31
0.0
  0
LINE
  5
B74
330
AEC
100
AcDbEntity
  8
BORDER
100
AcDbLine
 10
-10.73843066070025
 20
-23.0908504571139
 30
0.0
 11
-10.73843066070025
 21
-22.69085045711387
 31
0.0
  0
TEXT
  5
B75
330
AEC
100
AcDbEntity
  8
TEXT
100
AcDbText
 10
-10.47509732736692
 20
-22.99085045711393
 30
0.0
 40
0.2
  1
5-15-08
 72
     1
 11
-9.858430660700255
 21
-22.89085045711392
 31
0.0
100
AcDbText
 73
     2
  0
LINE
  5
B76
330
AEC
100
AcDbEntity
  8
BORDER
100
AcDbLine
 10
-8.978430660700261
 20
-23.0908504571139
 30
0.0
 11
-8.978430660700261
 21
-22.69085045711387
 31
0.0
  0
TEXT
  5
B77
330
AEC
100
AcDbEntity
  8
TEXT
100
AcDbText
 10
-8.246896028997078
 20
-22.99085045711393
 30
0.0
 40
0.2
  1
JJH
 72
     1
 11
-7.980229362330411
 21
-22.89085045711392
 31
0.0
100
AcDbText
 73
     2
  0
TEXT
  5
B78
330
AEC
100
AcDbEntity
  8
TEXT
100
AcDbText
 10
-16.28759732736687
 20
-22.99085045711393
 30
0.0
 40
0.2
  1
INITIAL RELEASE
 72
     1
 11
-14.9209306607002
 21
-22.89085045711392
 31
0.0
100
AcDbText
 73
     2
  0
LINE
  5
B79
330
AEC
100
AcDbEntity
  8
BORDER
100
AcDbLine
 10
-19.10343066070026
 20
-23.0908504571139
 30
0.0
 11
-19.10343066070026
 21
-22.69085045711387
 31
0.0
  0
TEXT
  5
B7A
330
AEC
100
AcDbEntity
  8
TEXT
100
AcDbText
 10
-19.59093066070026
 20
-22.99085045711393
 30
0.0
 40
0.2
  1
0
 72
     1
 11
-19.54093066070026
 21
-22.89085045711392
 31
0.0
100
AcDbText
 73
     2
  0
LINE
  5
B7B
330
AEC
100
AcDbEntity
  8
BORDER
100
AcDbLine
 10
-6.982028063960562
 20
-22.69085045711387
 30
0.0
 11
-19.97843066070026
 21
-22.69085045711387
 31
0.0
  0
ENDBLK
  5
B7D
330
AEC
100
AcDbEntity
  8
0
100
AcDbBlockEnd
  0
BLOCK
  5
CAC
330
CAB
100
AcDbEntity
  8
0
100
AcDbBlockBegin
  2
*U21
 70
     1
 10
0.0
 20
0.0
 30
0.0
  3
*U21
  1

  0
SOLID
  5
CAD
330
CAB
100
AcDbEntity
  8
DIMENSION
100
AcDbTrace
 10
46.85178788213455
 20
25.98373489812932
 30
0.0
 11
46.28951511770146
 21
26.82731483871262
 31
0.0
 12
47.094988253976
 22
26.21169254824726
 32
0.0
 13
47.094988253976
 23
26.21169254824726
 33
0.0
  0
LWPOLYLINE
  5
CAE
330
CAB
100
AcDbEntity
  8
DIMENSION
100
AcDbPolyline
 90
        2
 70
     0
 43
0.0
 10
46.97338806805528
 20
26.09771372318828
 10
48.48008496630939
 20
24.49026933288965
  0
ENDBLK
  5
CAF
330
CAB
100
AcDbEntity
  8
0
100
AcDbBlockEnd
  0
BLOCK
  5
CBD
330
CBC
100
AcDbEntity
  8
0
100
AcDbBlockBegin
  2
*U22
 70
     1
 10
0.0
 20
0.0
 30
0.0
  3
*U22
  1

  0
SOLID
  5
CBE
330
CBC
100
AcDbEntity
  8
DIMENSION
100
AcDbTrace
 10
71.37934741805112
 20
9.863042575215779
 30
0.0
 11
71.21268075138445
 21
8.863042575215779
 31
0.0
 12
71.04601408471778
 22
9.863042575215779
 32
0.0
 13
71.04601408471778
 23
9.863042575215779
 33
0.0
  0
LWPOLYLINE
  5
CBF
330
CBC
100
AcDbEntity
  8
DIMENSION
100
AcDbPolyline
 90
        2
 70
     0
 43
0.0
 10
71.21268075138445
 20
9.863042575215779
 10
71.21268075138445
 20
12.04119979680455
  0
ENDBLK
  5
CC0
330
CBC
100
AcDbEntity
  8
0
100
AcDbBlockEnd
  0
BLOCK
  5
CC2
330
CC1
100
AcDbEntity
  8
0
100
AcDbBlockBegin
  2
*U23
 70
     1
 10
0.0
 20
0.0
 30
0.0
  3
*U23
  1

  0
SOLID
  5
CC3
330
CC1
100
AcDbEntity
  8
DIMENSION
100
AcDbTrace
 10
-66.47483097369944
 20
9.863042575215779
 30
0.0
 11
-66.64149764036611
 21
8.863042575215779
 31
0.0
 12
-66.80816430703278
 22
9.863042575215779
 32
0.0
 13
-66.80816430703278
 23
9.863042575215779
 33
0.0
210
0.0
220
0.0
230
-1.0
  0
LWPOLYLINE
  5
CC4
330
CC1
100
AcDbEntity
  8
DIMENSION
100
AcDbPolyline
 90
        2
 70
     0
 43
0.0
 10
-66.64149764036611
 20
9.863042575215779
 10
-66.64149764036611
 20
12.04119979680455
210
0.0
220
0.0
230
-1.0
  0
ENDBLK
  5
CC5
330
CC1
100
AcDbEntity
  8
0
100
AcDbBlockEnd
  0
BLOCK
  5
CF2
330
CF1
100
AcDbEntity
  8
0
100
AcDbBlockBegin
  2
*D24
 70
     1
 10
0.0
 20
0.0
 30
0.0
  3
*D24
  1

  0
LINE
  5
CF3
330
CF1
100
AcDbEntity
  8
DIMENSION
 62
     0
370
    -2
100
AcDbLine
 10
-0.2499609951951811
 20
0.0000077166469623
 30
0.0
 11
-0.9999609951951807
 21
0.0000077166469623
 31
0.0
  0
MTEXT
  5
CF4
330
CF1
100
AcDbEntity
  8
DIMENSION
 62
     0
100
AcDbMText
 10
-2.083294328528514
 20
0.0000077166469623
 30
0.0
 40
0.5
 41
0.0
 71
     5
 72
     1
  1
\A1;0.000
 73
     1
 44
1.0
1001
ACAD
1000
MTEXTBEGIN
1070
    73
1070
     1
1070
    44
1040
1.0
1070
    74
1070
     0
1000
MTEXTEND
  0
POINT
  5
CF5
330
CF1
100
AcDbEntity
  8
Defpoints
 62
     0
100
AcDbPoint
 10
0.0000390048048189
 20
0.0000077166469623
 30
0.0
  0
POINT
  5
CF6
330
CF1
100
AcDbEntity
  8
Defpoints
 62
     0
100
AcDbPoint
 10
-0.9999609951951807
 20
0.0000077166469623
 30
0.0
  0
POINT
  5
CF7
330
CF1
100
AcDbEntity
  8
Defpoints
 62
     0
100
AcDbPoint
 10
0.0
 20
0.0
 30
0.0
  0
ENDBLK
  5
CF8
330
CF1
100
AcDbEntity
  8
0
100
AcDbBlockEnd
  0
BLOCK
  5
CFA
330
CF9
100
AcDbEntity
  8
0
100
AcDbBlockBegin
  2
*D25
 70
     1
 10
0.0
 20
0.0
 30
0.0
  3
*D25
  1

  0
LINE
  5
CFB
330
CF9
100
AcDbEntity
  8
DIMENSION
 62
     0
370
    -2
100
AcDbLine
 10
1.062539004804704
 20
0.7975077166469761
 30
0.0
 11
-0.9999609951951812
 21
0.7975077166469761
 31
0.0
  0
MTEXT
  5
CFC
330
CF9
100
AcDbEntity
  8
DIMENSION
 62
     0
100
AcDbMText
 10
-2.208294328528514
 20
0.7975077166469761
 30
0.0
 40
0.5
 41
0.0
 71
     5
 72
     1
  1
\A1;0.798
 73
     1
 44
1.0
1001
ACAD
1000
MTEXTBEGIN
1070
    73
1070
     1
1070
    44
1040
1.0
1070
    74
1070
     0
1000
MTEXTEND
  0
POINT
  5
CFD
330
CF9
100
AcDbEntity
  8
Defpoints
 62
     0
100
AcDbPoint
 10
1.312539004804704
 20
0.7975077166469761
 30
0.0
  0
POINT
  5
CFE
330
CF9
100
AcDbEntity
  8
Defpoints
 62
     0
100
AcDbPoint
 10
-0.9999609951951812
 20
0.7975077166469761
 30
0.0
  0
POINT
  5
CFF
330
CF9
100
AcDbEntity
  8
Defpoints
 62
     0
100
AcDbPoint
 10
0.0
 20
0.0
 30
0.0
  0
ENDBLK
  5
D00
330
CF9
100
AcDbEntity
  8
0
100
AcDbBlockEnd
  0
BLOCK
  5
D02
330
D01
100
AcDbEntity
  8
0
100
AcDbBlockBegin
  2
*D26
 70
     1
 10
0.0
 20
0.0
 30
0.0
  3
*D26
  1

  0
LINE
  5
D03
330
D01
100
AcDbEntity
  8
DIMENSION
 62
     0
370
    -2
100
AcDbLine
 10
7.827539004804689
 20
0.2975077166469759
 30
0.0
 11
8.87503900480482
 21
0.2975077166469759
 31
0.0
  0
MTEXT
  5
D04
330
D01
100
AcDbEntity
  8
DIMENSION
 62
     0
100
AcDbMText
 10
10.08337233813815
 20
0.2975077166469759
 30
0.0
 40
0.5
 41
0.0
 71
     5
 72
     1
  1
\A1;0.298
 73
     1
 44
1.0
1001
ACAD
1000
MTEXTBEGIN
1070
    73
1070
     1
1070
    44
1040
1.0
1070
    74
1070
     0
1000
MTEXTEND
  0
POINT
  5
D05
330
D01
100
AcDbEntity
  8
Defpoints
 62
     0
100
AcDbPoint
 10
7.577539004804689
 20
0.2975077166469759
 30
0.0
  0
POINT
  5
D06
330
D01
100
AcDbEntity
  8
Defpoints
 62
     0
100
AcDbPoint
 10
8.87503900480482
 20
0.2975077166469759
 30
0.0
  0
POINT
  5
D07
330
D01
100
AcDbEntity
  8
Defpoints
 62
     0
100
AcDbPoint
 10
0.0
 20
0.0
 30
0.0
  0
ENDBLK
  5
D08
330
D01
100
AcDbEntity
  8
0
100
AcDbBlockEnd
  0
BLOCK
  5
D0A
330
D09
100
AcDbEntity
  8
0
100
AcDbBlockBegin
  2
*D27
 70
     1
 10
0.0
 20
0.0
 30
0.0
  3
*D27
  1

  0
LINE
  5
D0B
330
D09
100
AcDbEntity
  8
DIMENSION
 62
     0
370
    -2
100
AcDbLine
 10
1.062539004804704
 20
6.547507716646974
 30
0.0
 11
-0.9999609951951812
 21
6.547507716646974
 31
0.0
  0
MTEXT
  5
D0C
330
D09
100
AcDbEntity
  8
DIMENSION
 62
     0
100
AcDbMText
 10
-2.249960995195181
 20
6.547507716646974
 30
0.0
 40
0.5
 41
0.0
 71
     5
 72
     1
  1
\A1;6.548
 73
     1
 44
1.0
1001
ACAD
1000
MTEXTBEGIN
1070
    73
1070
     1
1070
    44
1040
1.0
1070
    74
1070
     0
1000
MTEXTEND
  0
POINT
  5
D0D
330
D09
100
AcDbEntity
  8
Defpoints
 62
     0
100
AcDbPoint
 10
1.312539004804704
 20
6.547507716646974
 30
0.0
  0
POINT
  5
D0E
330
D09
100
AcDbEntity
  8
Defpoints
 62
     0
100
AcDbPoint
 10
-0.9999609951951812
 20
6.547507716646974
 30
0.0
  0
POINT
  5
D0F
330
D09
100
AcDbEntity
  8
Defpoints
 62
     0
100
AcDbPoint
 10
0.0
 20
0.0
 30
0.0
  0
ENDBLK
  5
D10
330
D09
100
AcDbEntity
  8
0
100
AcDbBlockEnd
  0
BLOCK
  5
D12
330
D11
100
AcDbEntity
  8
0
100
AcDbBlockBegin
  2
*D28
 70
     1
 10
0.0
 20
0.0
 30
0.0
  3
*D28
  1

  0
LINE
  5
D13
330
D11
100
AcDbEntity
  8
DIMENSION
 62
     0
370
    -2
100
AcDbLine
 10
-0.2499609951951811
 20
7.875007716646963
 30
0.0
 11
-0.9999609951951807
 21
7.875007716646963
 31
0.0
  0
MTEXT
  5
D14
330
D11
100
AcDbEntity
  8
DIMENSION
 62
     0
100
AcDbMText
 10
-2.249960995195181
 20
7.875007716646963
 30
0.0
 40
0.5
 41
0.0
 71
     5
 72
     1
  1
\A1;7.875
 73
     1
 44
1.0
1001
ACAD
1000
MTEXTBEGIN
1070
    73
1070
     1
1070
    44
1040
1.0
1070
    74
1070
     0
1000
MTEXTEND
  0
POINT
  5
D15
330
D11
100
AcDbEntity
  8
Defpoints
 62
     0
100
AcDbPoint
 10
0.0000390048048189
 20
7.875007716646963
 30
0.0
  0
POINT
  5
D16
330
D11
100
AcDbEntity
  8
Defpoints
 62
     0
100
AcDbPoint
 10
-0.9999609951951807
 20
7.875007716646963
 30
0.0
  0
POINT
  5
D17
330
D11
100
AcDbEntity
  8
Defpoints
 62
     0
100
AcDbPoint
 10
0.0
 20
0.0
 30
0.0
  0
ENDBLK
  5
D18
330
D11
100
AcDbEntity
  8
0
100
AcDbBlockEnd
  0
BLOCK
  5
D1A
330
D19
100
AcDbEntity
  8
0
100
AcDbBlockBegin
  2
*D29
 70
     1
 10
0.0
 20
0.0
 30
0.0
  3
*D29
  1

  0
LINE
  5
D1B
330
D19
100
AcDbEntity
  8
DIMENSION
 62
     0
370
    -2
100
AcDbLine
 10
0.0000390048048188
 20
-0.2499922833530377
 30
0.0
 11
0.0000390048048189
 21
-0.9999922833530375
 31
0.0
  0
MTEXT
  5
D1C
330
D19
100
AcDbEntity
  8
DIMENSION
 62
     0
100
AcDbMText
 10
0.000039004804819
 20
-2.08332561668637
 30
0.0
 40
0.5
 41
0.0
 71
     5
 72
     1
  1
\A1;0.000
 11
0.0000000000000001
 21
1.0
 31
0.0
 73
     1
 44
1.0
1001
ACAD
1000
MTEXTBEGIN
1070
    73
1070
     1
1070
    44
1040
1.0
1070
    74
1070
     0
1000
MTEXTEND
  0
POINT
  5
D1D
330
D19
100
AcDbEntity
  8
Defpoints
 62
     0
100
AcDbPoint
 10
0.0000390048048189
 20
0.0000077166469623
 30
0.0
  0
POINT
  5
D1E
330
D19
100
AcDbEntity
  8
Defpoints
 62
     0
100
AcDbPoint
 10
0.0000390048048189
 20
-0.9999922833530375
 30
0.0
  0
POINT
  5
D1F
330
D19
100
AcDbEntity
  8
Defpoints
 62
     0
100
AcDbPoint
 10
0.0
 20
0.0
 30
0.0
  0
ENDBLK
  5
D20
330
D19
100
AcDbEntity
  8
0
100
AcDbBlockEnd
  0
BLOCK
  5
D22
330
D21
100
AcDbEntity
  8
0
100
AcDbBlockBegin
  2
*D30
 70
     1
 10
0.0
 20
0.0
 30
0.0
  3
*D30
  1

  0
LINE
  5
D23
330
D21
100
AcDbEntity
  8
DIMENSION
 62
     0
370
    -2
100
AcDbLine
 10
1.312539004804704
 20
0.5475077166469761
 30
0.0
 11
1.312539004804704
 21
-0.9999922833530375
 31
0.0
  0
MTEXT
  5
D24
330
D21
100
AcDbEntity
  8
DIMENSION
 62
     0
100
AcDbMText
 10
1.312539004804704
 20
-2.08332561668637
 30
0.0
 40
0.5
 41
0.0
 71
     5
 72
     1
  1
\A1;1.313
 11
0.0000000000000001
 21
1.0
 31
0.0
 73
     1
 44
1.0
1001
ACAD
1000
MTEXTBEGIN
1070
    73
1070
     1
1070
    44
1040
1.0
1070
    74
1070
     0
1000
MTEXTEND
  0
POINT
  5
D25
330
D21
100
AcDbEntity
  8
Defpoints
 62
     0
100
AcDbPoint
 10
1.312539004804704
 20
0.7975077166469761
 30
0.0
  0
POINT
  5
D26
330
D21
100
AcDbEntity
  8
Defpoints
 62
     0
100
AcDbPoint
 10
1.312539004804704
 20
-0.9999922833530375
 30
0.0
  0
POINT
  5
D27
330
D21
100
AcDbEntity
  8
Defpoints
 62
     0
100
AcDbPoint
 10
0.0
 20
0.0
 30
0.0
  0
ENDBLK
  5
D28
330
D21
100
AcDbEntity
  8
0
100
AcDbBlockEnd
  0
BLOCK
  5
D2A
330
D29
100
AcDbEntity
  8
0
100
AcDbBlockBegin
  2
*D31
 70
     1
 10
0.0
 20
0.0
 30
0.0
  3
*D31
  1

  0
LINE
  5
D2B
330
D29
100
AcDbEntity
  8
DIMENSION
 62
     0
370
    -2
100
AcDbLine
 10
6.562539004804705
 20
0.5475077166469761
 30
0.0
 11
6.562539004804705
 21
-0.9999922833530378
 31
0.0
  0
MTEXT
  5
D2C
330
D29
100
AcDbEntity
  8
DIMENSION
 62
     0
100
AcDbMText
 10
6.562539004804705
 20
-2.249992283353037
 30
0.0
 40
0.5
 41
0.0
 71
     5
 72
     1
  1
\A1;6.563
 11
0.0000000000000001
 21
1.0
 31
0.0
 73
     1
 44
1.0
1001
ACAD
1000
MTEXTBEGIN
1070
    73
1070
     1
1070
    44
1040
1.0
1070
    74
1070
     0
1000
MTEXTEND
  0
POINT
  5
D2D
330
D29
100
AcDbEntity
  8
Defpoints
 62
     0
100
AcDbPoint
 10
6.562539004804705
 20
0.7975077166469761
 30
0.0
  0
POINT
  5
D2E
330
D29
100
AcDbEntity
  8
Defpoints
 62
     0
100
AcDbPoint
 10
6.562539004804705
 20
-0.9999922833530378
 30
0.0
  0
POINT
  5
D2F
330
D29
100
AcDbEntity
  8
Defpoints
 62
     0
100
AcDbPoint
 10
0.0
 20
0.0
 30
0.0
  0
ENDBLK
  5
D30
330
D29
100
AcDbEntity
  8
0
100
AcDbBlockEnd
  0
BLOCK
  5
D32
330
D31
100
AcDbEntity
  8
0
100
AcDbBlockBegin
  2
*D32
 70
     1
 10
0.0
 20
0.0
 30
0.0
  3
*D32
  1

  0
LINE
  5
D33
330
D31
100
AcDbEntity
  8
DIMENSION
 62
     0
370
    -2
100
AcDbLine
 10
7.875039004804817
 20
-0.2499922833530377
 30
0.0
 11
7.875039004804817
 21
-0.9999922833530378
 31
0.0
  0
MTEXT
  5
D34
330
D31
100
AcDbEntity
  8
DIMENSION
 62
     0
100
AcDbMText
 10
7.875039004804817
 20
-2.249992283353035
 30
0.0
 40
0.5
 41
0.0
 71
     5
 72
     1
  1
\A1;7.875
 11
0.0000000000000001
 21
1.0
 31
0.0
 73
     1
 44
1.0
1001
ACAD
1000
MTEXTBEGIN
1070
    73
1070
     1
1070
    44
1040
1.0
1070
    74
1070
     0
1000
MTEXTEND
  0
POINT
  5
D35
330
D31
100
AcDbEntity
  8
Defpoints
 62
     0
100
AcDbPoint
 10
7.875039004804817
 20
0.0000077166469623
 30
0.0
  0
POINT
  5
D36
330
D31
100
AcDbEntity
  8
Defpoints
 62
     0
100
AcDbPoint
 10
7.875039004804817
 20
-0.9999922833530378
 30
0.0
  0
POINT
  5
D37
330
D31
100
AcDbEntity
  8
Defpoints
 62
     0
100
AcDbPoint
 10
0.0
 20
0.0
 30
0.0
  0
ENDBLK
  5
D38
330
D31
100
AcDbEntity
  8
0
100
AcDbBlockEnd
  0
BLOCK
  5
D3A
330
D39
100
AcDbEntity
  8
0
100
AcDbBlockBegin
  2
*D33
 70
     1
 10
0.0
 20
0.0
 30
0.0
  3
*D33
  1

  0
LINE
  5
D3B
330
D39
100
AcDbEntity
  8
DIMENSION
 62
     0
370
    -2
100
AcDbLine
 10
7.827539004804689
 20
7.577507716646947
 30
0.0
 11
8.87503900480482
 21
7.577507716646947
 31
0.0
  0
MTEXT
  5
D3C
330
D39
100
AcDbEntity
  8
DIMENSION
 62
     0
100
AcDbMText
 10
10.12503900480482
 20
7.577507716646947
 30
0.0
 40
0.5
 41
0.0
 71
     5
 72
     1
  1
\A1;7.578
 73
     1
 44
1.0
1001
ACAD
1000
MTEXTBEGIN
1070
    73
1070
     1
1070
    44
1040
1.0
1070
    74
1070
     0
1000
MTEXTEND
  0
POINT
  5
D3D
330
D39
100
AcDbEntity
  8
Defpoints
 62
     0
100
AcDbPoint
 10
7.577539004804689
 20
7.577507716646947
 30
0.0
  0
POINT
  5
D3E
330
D39
100
AcDbEntity
  8
Defpoints
 62
     0
100
AcDbPoint
 10
8.87503900480482
 20
7.577507716646947
 30
0.0
  0
POINT
  5
D3F
330
D39
100
AcDbEntity
  8
Defpoints
 62
     0
100
AcDbPoint
 10
0.0
 20
0.0
 30
0.0
  0
ENDBLK
  5
D40
330
D39
100
AcDbEntity
  8
0
100
AcDbBlockEnd
  0
BLOCK
  5
D42
330
D41
100
AcDbEntity
  8
0
100
AcDbBlockBegin
  2
*D34
 70
     1
 10
0.0
 20
0.0
 30
0.0
  3
*D34
  1

  0
LINE
  5
D43
330
D41
100
AcDbEntity
  8
DIMENSION
 62
     0
370
    -2
100
AcDbLine
 10
0.2975390048047189
 20
7.827507716646947
 30
0.0
 11
0.2975390048047188
 21
8.875007716646964
 31
0.0
  0
MTEXT
  5
D44
330
D41
100
AcDbEntity
  8
DIMENSION
 62
     0
100
AcDbMText
 10
0.2975390048047175
 20
10.08334104998029
 30
0.0
 40
0.5
 41
0.0
 71
     5
 72
     1
  1
\A1;0.298
 11
0.0000000000000001
 21
1.0
 31
0.0
 73
     1
 44
1.0
1001
ACAD
1000
MTEXTBEGIN
1070
    73
1070
     1
1070
    44
1040
1.0
1070
    74
1070
     0
1000
MTEXTEND
  0
POINT
  5
D45
330
D41
100
AcDbEntity
  8
Defpoints
 62
     0
100
AcDbPoint
 10
0.2975390048047188
 20
7.577507716646947
 30
0.0
  0
POINT
  5
D46
330
D41
100
AcDbEntity
  8
Defpoints
 62
     0
100
AcDbPoint
 10
0.2975390048047188
 20
8.875007716646964
 30
0.0
  0
POINT
  5
D47
330
D41
100
AcDbEntity
  8
Defpoints
 62
     0
100
AcDbPoint
 10
0.0
 20
0.0
 30
0.0
  0
ENDBLK
  5
D48
330
D41
100
AcDbEntity
  8
0
100
AcDbBlockEnd
  0
BLOCK
  5
D4A
330
D49
100
AcDbEntity
  8
0
100
AcDbBlockBegin
  2
*D35
 70
     1
 10
0.0
 20
0.0
 30
0.0
  3
*D35
  1

  0
LINE
  5
D4B
330
D49
100
AcDbEntity
  8
DIMENSION
 62
     0
370
    -2
100
AcDbLine
 10
7.577539004804689
 20
7.827507716646947
 30
0.0
 11
7.577539004804689
 21
8.875007716646964
 31
0.0
  0
MTEXT
  5
D4C
330
D49
100
AcDbEntity
  8
DIMENSION
 62
     0
100
AcDbMText
 10
7.577539004804688
 20
10.12500771664696
 30
0.0
 40
0.5
 41
0.0
 71
     5
 72
     1
  1
\A1;7.578
 11
0.0000000000000001
 21
1.0
 31
0.0
 73
     1
 44
1.0
1001
ACAD
1000
MTEXTBEGIN
1070
    73
1070
     1
1070
    44
1040
1.0
1070
    74
1070
     0
1000
MTEXTEND
  0
POINT
  5
D4D
330
D49
100
AcDbEntity
  8
Defpoints
 62
     0
100
AcDbPoint
 10
7.577539004804689
 20
7.577507716646947
 30
0.0
  0
POINT
  5
D4E
330
D49
100
AcDbEntity
  8
Defpoints
 62
     0
100
AcDbPoint
 10
7.577539004804689
 20
8.875007716646964
 30
0.0
  0
POINT
  5
D4F
330
D49
100
AcDbEntity
  8
Defpoints
 62
     0
100
AcDbPoint
 10
0.0
 20
0.0
 30
0.0
  0
ENDBLK
  5
D50
330
D49
100
AcDbEntity
  8
0
100
AcDbBlockEnd
  0
BLOCK
  5
D90
330
D8A
100
AcDbEntity
  8
0
100
AcDbBlockBegin
  2
*D36
 70
     1
 10
0.0
 20
0.0
 30
0.0
  3
*D36
  1

  0
LINE
  5
DEA
330
D8A
100
AcDbEntity
  8
DIMENSION
 62
     0
370
    -2
100
AcDbLine
 10
8.510517262644953
 20
-19.69840627929938
 30
0.0
 11
8.510517262644953
 21
-18.46340627929936
 31
0.0
  0
MTEXT
  5
DEB
330
D8A
100
AcDbEntity
  8
DIMENSION
 62
     0
100
AcDbMText
 10
8.510517262644953
 20
-17.37340627929936
 30
0.0
 40
0.5
 41
0.0
 71
     5
 72
     1
  1
\A1;7.578
 11
0.0000000000000001
 21
1.0
 31
0.0
 73
     1
 44
1.0
1001
ACAD
1000
MTEXTBEGIN
1070
    73
1070
     1
1070
    44
1040
1.0
1070
    74
1070
     0
1000
MTEXTEND
  0
POINT
  5
DEC
330
D8A
100
AcDbEntity
  8
Defpoints
 62
     0
100
AcDbPoint
 10
8.510517262644953
 20
-19.76090627929938
 30
0.0
  0
POINT
  5
DED
330
D8A
100
AcDbEntity
  8
Defpoints
 62
     0
100
AcDbPoint
 10
8.510517262644953
 20
-18.46340627929936
 30
0.0
  0
POINT
  5
DEE
330
D8A
100
AcDbEntity
  8
Defpoints
 62
     0
100
AcDbPoint
 10
0.9329782578402614
 20
-27.33841399594633
 30
0.0
  0
ENDBLK
  5
D91
330
D8A
100
AcDbEntity
  8
0
100
AcDbBlockEnd
  0
BLOCK
  5
D98
330
D92
100
AcDbEntity
  8
0
100
AcDbBlockBegin
  2
*D37
 70
     1
 10
0.0
 20
0.0
 30
0.0
  3
*D37
  1

  0
LINE
  5
DEF
330
D92
100
AcDbEntity
  8
DIMENSION
 62
     0
370
    -2
100
AcDbLine
 10
1.230517262644979
 20
-19.69840627929938
 30
0.0
 11
1.230517262644979
 21
-18.46340627929936
 31
0.0
  0
MTEXT
  5
DF0
330
D92
100
AcDbEntity
  8
DIMENSION
 62
     0
100
AcDbMText
 10
1.230517262644982
 20
-17.41507294596603
 30
0.0
 40
0.5
 41
0.0
 71
     5
 72
     1
  1
\A1;0.298
 11
0.0000000000000001
 21
1.0
 31
0.0
 73
     1
 44
1.0
1001
ACAD
1000
MTEXTBEGIN
1070
    73
1070
     1
1070
    44
1040
1.0
1070
    74
1070
     0
1000
MTEXTEND
  0
POINT
  5
DF1
330
D92
100
AcDbEntity
  8
Defpoints
 62
     0
100
AcDbPoint
 10
1.230517262644979
 20
-19.76090627929938
 30
0.0
  0
POINT
  5
DF2
330
D92
100
AcDbEntity
  8
Defpoints
 62
     0
100
AcDbPoint
 10
1.230517262644979
 20
-18.46340627929936
 30
0.0
  0
POINT
  5
DF3
330
D92
100
AcDbEntity
  8
Defpoints
 62
     0
100
AcDbPoint
 10
0.9329782578402614
 20
-27.33841399594633
 30
0.0
  0
ENDBLK
  5
D99
330
D92
100
AcDbEntity
  8
0
100
AcDbBlockEnd
  0
BLOCK
  5
DA0
330
D9A
100
AcDbEntity
  8
0
100
AcDbBlockBegin
  2
*D38
 70
     1
 10
0.0
 20
0.0
 30
0.0
  3
*D38
  1

  0
LINE
  5
DF4
330
D9A
100
AcDbEntity
  8
DIMENSION
 62
     0
370
    -2
100
AcDbLine
 10
8.573017262644953
 20
-19.76090627929938
 30
0.0
 11
9.808017262645082
 21
-19.76090627929938
 31
0.0
  0
MTEXT
  5
DF5
330
D9A
100
AcDbEntity
  8
DIMENSION
 62
     0
100
AcDbMText
 10
10.89801726264508
 20
-19.76090627929938
 30
0.0
 40
0.5
 41
0.0
 71
     5
 72
     1
  1
\A1;7.578
 73
     1
 44
1.0
1001
ACAD
1000
MTEXTBEGIN
1070
    73
1070
     1
1070
    44
1040
1.0
1070
    74
1070
     0
1000
MTEXTEND
  0
POINT
  5
DF6
330
D9A
100
AcDbEntity
  8
Defpoints
 62
     0
100
AcDbPoint
 10
8.510517262644953
 20
-19.76090627929938
 30
0.0
  0
POINT
  5
DF7
330
D9A
100
AcDbEntity
  8
Defpoints
 62
     0
100
AcDbPoint
 10
9.808017262645082
 20
-19.76090627929938
 30
0.0
  0
POINT
  5
DF8
330
D9A
100
AcDbEntity
  8
Defpoints
 62
     0
100
AcDbPoint
 10
0.9329782578402614
 20
-27.33841399594633
 30
0.0
  0
ENDBLK
  5
DA1
330
D9A
100
AcDbEntity
  8
0
100
AcDbBlockEnd
  0
BLOCK
  5
DA8
330
DA2
100
AcDbEntity
  8
0
100
AcDbBlockBegin
  2
*D39
 70
     1
 10
0.0
 20
0.0
 30
0.0
  3
*D39
  1

  0
LINE
  5
DF9
330
DA2
100
AcDbEntity
  8
DIMENSION
 62
     0
370
    -2
100
AcDbLine
 10
8.808017262645078
 20
-27.40090627929936
 30
0.0
 11
8.808017262645078
 21
-28.33840627929936
 31
0.0
  0
MTEXT
  5
DFA
330
DA2
100
AcDbEntity
  8
DIMENSION
 62
     0
100
AcDbMText
 10
8.808017262645082
 20
-29.42840627929936
 30
0.0
 40
0.5
 41
0.0
 71
     5
 72
     1
  1
\A1;7.875
 11
0.0000000000000001
 21
1.0
 31
0.0
 73
     1
 44
1.0
1001
ACAD
1000
MTEXTBEGIN
1070
    73
1070
     1
1070
    44
1040
1.0
1070
    74
1070
     0
1000
MTEXTEND
  0
POINT
  5
DFB
330
DA2
100
AcDbEntity
  8
Defpoints
 62
     0
100
AcDbPoint
 10
8.808017262645078
 20
-27.33840627929936
 30
0.0
  0
POINT
  5
DFC
330
DA2
100
AcDbEntity
  8
Defpoints
 62
     0
100
AcDbPoint
 10
8.808017262645078
 20
-28.33840627929936
 30
0.0
  0
POINT
  5
DFD
330
DA2
100
AcDbEntity
  8
Defpoints
 62
     0
100
AcDbPoint
 10
0.9329782578402614
 20
-27.33841399594633
 30
0.0
  0
ENDBLK
  5
DA9
330
DA2
100
AcDbEntity
  8
0
100
AcDbBlockEnd
  0
BLOCK
  5
DB0
330
DAA
100
AcDbEntity
  8
0
100
AcDbBlockBegin
  2
*D40
 70
     1
 10
0.0
 20
0.0
 30
0.0
  3
*D40
  1

  0
LINE
  5
DFE
330
DAA
100
AcDbEntity
  8
DIMENSION
 62
     0
370
    -2
100
AcDbLine
 10
7.495517262644965
 20
-26.60340627929935
 30
0.0
 11
7.495517262644965
 21
-28.33840627929936
 31
0.0
  0
MTEXT
  5
DFF
330
DAA
100
AcDbEntity
  8
DIMENSION
 62
     0
100
AcDbMText
 10
7.495517262644971
 20
-29.42840627929936
 30
0.0
 40
0.5
 41
0.0
 71
     5
 72
     1
  1
\A1;6.563
 11
0.0000000000000001
 21
1.0
 31
0.0
 73
     1
 44
1.0
1001
ACAD
1000
MTEXTBEGIN
1070
    73
1070
     1
1070
    44
1040
1.0
1070
    74
1070
     0
1000
MTEXTEND
  0
POINT
  5
E00
330
DAA
100
AcDbEntity
  8
Defpoints
 62
     0
100
AcDbPoint
 10
7.495517262644965
 20
-26.54090627929935
 30
0.0
  0
POINT
  5
E01
330
DAA
100
AcDbEntity
  8
Defpoints
 62
     0
100
AcDbPoint
 10
7.495517262644965
 20
-28.33840627929936
 30
0.0
  0
POINT
  5
E02
330
DAA
100
AcDbEntity
  8
Defpoints
 62
     0
100
AcDbPoint
 10
0.9329782578402614
 20
-27.33841399594633
 30
0.0
  0
ENDBLK
  5
DB1
330
DAA
100
AcDbEntity
  8
0
100
AcDbBlockEnd
  0
BLOCK
  5
DB8
330
DB2
100
AcDbEntity
  8
0
100
AcDbBlockBegin
  2
*D41
 70
     1
 10
0.0
 20
0.0
 30
0.0
  3
*D41
  1

  0
LINE
  5
E03
330
DB2
100
AcDbEntity
  8
DIMENSION
 62
     0
370
    -2
100
AcDbLine
 10
2.245517262644965
 20
-26.60340627929935
 30
0.0
 11
2.245517262644965
 21
-28.33840627929936
 31
0.0
  0
MTEXT
  5
E04
330
DB2
100
AcDbEntity
  8
DIMENSION
 62
     0
100
AcDbMText
 10
2.24551726264497
 20
-29.2617396126327
 30
0.0
 40
0.5
 41
0.0
 71
     5
 72
     1
  1
\A1;1.313
 11
0.0000000000000001
 21
1.0
 31
0.0
 73
     1
 44
1.0
1001
ACAD
1000
MTEXTBEGIN
1070
    73
1070
     1
1070
    44
1040
1.0
1070
    74
1070
     0
1000
MTEXTEND
  0
POINT
  5
E05
330
DB2
100
AcDbEntity
  8
Defpoints
 62
     0
100
AcDbPoint
 10
2.245517262644965
 20
-26.54090627929935
 30
0.0
  0
POINT
  5
E06
330
DB2
100
AcDbEntity
  8
Defpoints
 62
     0
100
AcDbPoint
 10
2.245517262644965
 20
-28.33840627929936
 30
0.0
  0
POINT
  5
E07
330
DB2
100
AcDbEntity
  8
Defpoints
 62
     0
100
AcDbPoint
 10
0.9329782578402614
 20
-27.33841399594633
 30
0.0
  0
ENDBLK
  5
DB9
330
DB2
100
AcDbEntity
  8
0
100
AcDbBlockEnd
  0
BLOCK
  5
DC0
330
DBA
100
AcDbEntity
  8
0
100
AcDbBlockBegin
  2
*D42
 70
     1
 10
0.0
 20
0.0
 30
0.0
  3
*D42
  1

  0
LINE
  5
E08
330
DBA
100
AcDbEntity
  8
DIMENSION
 62
     0
370
    -2
100
AcDbLine
 10
0.9330172626450805
 20
-27.40090627929936
 30
0.0
 11
0.9330172626450805
 21
-28.33840627929936
 31
0.0
  0
MTEXT
  5
E09
330
DBA
100
AcDbEntity
  8
DIMENSION
 62
     0
100
AcDbMText
 10
0.9330172626450847
 20
-29.2617396126327
 30
0.0
 40
0.5
 41
0.0
 71
     5
 72
     1
  1
\A1;0.000
 11
0.0000000000000001
 21
1.0
 31
0.0
 73
     1
 44
1.0
1001
ACAD
1000
MTEXTBEGIN
1070
    73
1070
     1
1070
    44
1040
1.0
1070
    74
1070
     0
1000
MTEXTEND
  0
POINT
  5
E0A
330
DBA
100
AcDbEntity
  8
Defpoints
 62
     0
100
AcDbPoint
 10
0.9330172626450805
 20
-27.33840627929936
 30
0.0
  0
POINT
  5
E0B
330
DBA
100
AcDbEntity
  8
Defpoints
 62
     0
100
AcDbPoint
 10
0.9330172626450805
 20
-28.33840627929936
 30
0.0
  0
POINT
  5
E0C
330
DBA
100
AcDbEntity
  8
Defpoints
 62
     0
100
AcDbPoint
 10
0.9329782578402614
 20
-27.33841399594633
 30
0.0
  0
ENDBLK
  5
DC1
330
DBA
100
AcDbEntity
  8
0
100
AcDbBlockEnd
  0
BLOCK
  5
DC8
330
DC2
100
AcDbEntity
  8
0
100
AcDbBlockBegin
  2
*D43
 70
     1
 10
0.0
 20
0.0
 30
0.0
  3
*D43
  1

  0
LINE
  5
E0D
330
DC2
100
AcDbEntity
  8
DIMENSION
 62
     0
370
    -2
100
AcDbLine
 10
0.8705172626450803
 20
-19.46340627929936
 30
0.0
 11
-0.0669827373549192
 21
-19.46340627929936
 31
0.0
  0
MTEXT
  5
E0E
330
DC2
100
AcDbEntity
  8
DIMENSION
 62
     0
100
AcDbMText
 10
-1.156982737354919
 20
-19.46340627929936
 30
0.0
 40
0.5
 41
0.0
 71
     5
 72
     1
  1
\A1;7.875
 73
     1
 44
1.0
1001
ACAD
1000
MTEXTBEGIN
1070
    73
1070
     1
1070
    44
1040
1.0
1070
    74
1070
     0
1000
MTEXTEND
  0
POINT
  5
E0F
330
DC2
100
AcDbEntity
  8
Defpoints
 62
     0
100
AcDbPoint
 10
0.9330172626450805
 20
-19.46340627929936
 30
0.0
  0
POINT
  5
E10
330
DC2
100
AcDbEntity
  8
Defpoints
 62
     0
100
AcDbPoint
 10
-0.0669827373549192
 20
-19.46340627929936
 30
0.0
  0
POINT
  5
E11
330
DC2
100
AcDbEntity
  8
Defpoints
 62
     0
100
AcDbPoint
 10
0.9329782578402614
 20
-27.33841399594633
 30
0.0
  0
ENDBLK
  5
DC9
330
DC2
100
AcDbEntity
  8
0
100
AcDbBlockEnd
  0
BLOCK
  5
DD0
330
DCA
100
AcDbEntity
  8
0
100
AcDbBlockBegin
  2
*D44
 70
     1
 10
0.0
 20
0.0
 30
0.0
  3
*D44
  1

  0
LINE
  5
E12
330
DCA
100
AcDbEntity
  8
DIMENSION
 62
     0
370
    -2
100
AcDbLine
 10
2.183017262644965
 20
-20.79090627929935
 30
0.0
 11
-0.0669827373549197
 21
-20.79090627929935
 31
0.0
  0
MTEXT
  5
E13
330
DCA
100
AcDbEntity
  8
DIMENSION
 62
     0
100
AcDbMText
 10
-1.156982737354919
 20
-20.79090627929935
 30
0.0
 40
0.5
 41
0.0
 71
     5
 72
     1
  1
\A1;6.548
 73
     1
 44
1.0
1001
ACAD
1000
MTEXTBEGIN
1070
    73
1070
     1
1070
    44
1040
1.0
1070
    74
1070
     0
1000
MTEXTEND
  0
POINT
  5
E14
330
DCA
100
AcDbEntity
  8
Defpoints
 62
     0
100
AcDbPoint
 10
2.245517262644965
 20
-20.79090627929935
 30
0.0
  0
POINT
  5
E15
330
DCA
100
AcDbEntity
  8
Defpoints
 62
     0
100
AcDbPoint
 10
-0.0669827373549197
 20
-20.79090627929935
 30
0.0
  0
POINT
  5
E16
330
DCA
100
AcDbEntity
  8
Defpoints
 62
     0
100
AcDbPoint
 10
0.9329782578402614
 20
-27.33841399594633
 30
0.0
  0
ENDBLK
  5
DD1
330
DCA
100
AcDbEntity
  8
0
100
AcDbBlockEnd
  0
BLOCK
  5
DD8
330
DD2
100
AcDbEntity
  8
0
100
AcDbBlockBegin
  2
*D45
 70
     1
 10
0.0
 20
0.0
 30
0.0
  3
*D45
  1

  0
LINE
  5
E17
330
DD2
100
AcDbEntity
  8
DIMENSION
 62
     0
370
    -2
100
AcDbLine
 10
8.573017262644953
 20
-27.04090627929935
 30
0.0
 11
9.808017262645082
 21
-27.04090627929935
 31
0.0
  0
MTEXT
  5
E18
330
DD2
100
AcDbEntity
  8
DIMENSION
 62
     0
100
AcDbMText
 10
10.85635059597841
 20
-27.04090627929935
 30
0.0
 40
0.5
 41
0.0
 71
     5
 72
     1
  1
\A1;0.298
 73
     1
 44
1.0
1001
ACAD
1000
MTEXTBEGIN
1070
    73
1070
     1
1070
    44
1040
1.0
1070
    74
1070
     0
1000
MTEXTEND
  0
POINT
  5
E19
330
DD2
100
AcDbEntity
  8
Defpoints
 62
     0
100
AcDbPoint
 10
8.510517262644953
 20
-27.04090627929935
 30
0.0
  0
POINT
  5
E1A
330
DD2
100
AcDbEntity
  8
Defpoints
 62
     0
100
AcDbPoint
 10
9.808017262645082
 20
-27.04090627929935
 30
0.0
  0
POINT
  5
E1B
330
DD2
100
AcDbEntity
  8
Defpoints
 62
     0
100
AcDbPoint
 10
0.9329782578402614
 20
-27.33841399594633
 30
0.0
  0
ENDBLK
  5
DD9
330
DD2
100
AcDbEntity
  8
0
100
AcDbBlockEnd
  0
BLOCK
  5
DE0
330
DDA
100
AcDbEntity
  8
0
100
AcDbBlockBegin
  2
*D46
 70
     1
 10
0.0
 20
0.0
 30
0.0
  3
*D46
  1

  0
LINE
  5
E1C
330
DDA
100
AcDbEntity
  8
DIMENSION
 62
     0
370
    -2
100
AcDbLine
 10
2.183017262644965
 20
-26.54090627929935
 30
0.0
 11
-0.0669827373549197
 21
-26.54090627929935
 31
0.0
  0
MTEXT
  5
E1D
330
DDA
100
AcDbEntity
  8
DIMENSION
 62
     0
100
AcDbMText
 10
-1.115316070688253
 20
-26.54090627929935
 30
0.0
 40
0.5
 41
0.0
 71
     5
 72
     1
  1
\A1;0.798
 73
     1
 44
1.0
1001
ACAD
1000
MTEXTBEGIN
1070
    73
1070
     1
1070
    44
1040
1.0
1070
    74
1070
     0
1000
MTEXTEND
  0
POINT
  5
E1E
330
DDA
100
AcDbEntity
  8
Defpoints
 62
     0
100
AcDbPoint
 10
2.245517262644965
 20
-26.54090627929935
 30
0.0
  0
POINT
  5
E1F
330
DDA
100
AcDbEntity
  8
Defpoints
 62
     0
100
AcDbPoint
 10
-0.0669827373549197
 20
-26.54090627929935
 30
0.0
  0
POINT
  5
E20
330
DDA
100
AcDbEntity
  8
Defpoints
 62
     0
100
AcDbPoint
 10
0.9329782578402614
 20
-27.33841399594633
 30
0.0
  0
ENDBLK
  5
DE1
330
DDA
100
AcDbEntity
  8
0
100
AcDbBlockEnd
  0
BLOCK
  5
DE8
330
DE2
100
AcDbEntity
  8
0
100
AcDbBlockBegin
  2
*D47
 70
     1
 10
0.0
 20
0.0
 30
0.0
  3
*D47
  1

  0
LINE
  5
E21
330
DE2
100
AcDbEntity
  8
DIMENSION
 62
     0
370
    -2
100
AcDbLine
 10
0.8705172626450803
 20
-27.33840627929936
 30
0.0
 11
-0.0669827373549192
 21
-27.33840627929936
 31
0.0
  0
MTEXT
  5
E22
330
DE2
100
AcDbEntity
  8
DIMENSION
 62
     0
100
AcDbMText
 10
-0.9903160706882523
 20
-27.33840627929936
 30
0.0
 40
0.5
 41
0.0
 71
     5
 72
     1
  1
\A1;0.000
 73
     1
 44
1.0
1001
ACAD
1000
MTEXTBEGIN
1070
    73
1070
     1
1070
    44
1040
1.0
1070
    74
1070
     0
1000
MTEXTEND
  0
POINT
  5
E23
330
DE2
100
AcDbEntity
  8
Defpoints
 62
     0
100
AcDbPoint
 10
0.9330172626450805
 20
-27.33840627929936
 30
0.0
  0
POINT
  5
E24
330
DE2
100
AcDbEntity
  8
Defpoints
 62
     0
100
AcDbPoint
 10
-0.0669827373549192
 20
-27.33840627929936
 30
0.0
  0
POINT
  5
E25
330
DE2
100
AcDbEntity
  8
Defpoints
 62
     0
100
AcDbPoint
 10
0.9329782578402614
 20
-27.33841399594633
 30
0.0
  0
ENDBLK
  5
DE9
330
DE2
100
AcDbEntity
  8
0
100
AcDbBlockEnd
  0
BLOCK
  5
E32
330
E27
100
AcDbEntity
  8
0
100
AcDbBlockBegin
  2
*D48
 70
     1
 10
0.0
 20
0.0
 30
0.0
  3
*D48
  1

  0
LINE
  5
E35
330
E27
100
AcDbEntity
  8
0
 62
     0
370
    -2
100
AcDbLine
 10
4.808017262644965
 20
-20.79090627929935
 30
0.0
 11
4.492373812376066
 21
-20.79090627929935
 31
0.0
  0
LINE
  5
E36
330
E27
100
AcDbEntity
  8
0
 62
     0
370
    -2
100
AcDbLine
 10
4.808017262644965
 20
-26.54090627929935
 30
0.0
 11
4.492373812376063
 21
-26.54090627929935
 31
0.0
  0
LINE
  5
E37
330
E27
100
AcDbEntity
  8
0
 62
     0
370
    -2
100
AcDbLine
 10
4.672373812376066
 20
-21.29090627929935
 30
0.0
 11
4.672373812376065
 21
-23.32590627929935
 31
0.0
  0
LINE
  5
E38
330
E27
100
AcDbEntity
  8
0
 62
     0
370
    -2
100
AcDbLine
 10
4.672373812376063
 20
-26.04090627929935
 30
0.0
 11
4.672373812376065
 21
-24.00590627929935
 31
0.0
  0
SOLID
  5
E39
330
E27
100
AcDbEntity
  8
0
 62
     0
100
AcDbTrace
 10
4.589040479042733
 20
-21.29090627929935
 30
0.0
 11
4.755707145709398
 21
-21.29090627929935
 31
0.0
 12
4.672373812376066
 22
-20.79090627929935
 32
0.0
 13
4.672373812376066
 23
-20.79090627929935
 33
0.0
  0
SOLID
  5
E3A
330
E27
100
AcDbEntity
  8
0
 62
     0
100
AcDbTrace
 10
4.589040479042731
 20
-26.04090627929935
 30
0.0
 11
4.755707145709396
 21
-26.04090627929935
 31
0.0
 12
4.672373812376063
 22
-26.54090627929935
 32
0.0
 13
4.672373812376063
 23
-26.54090627929935
 33
0.0
  0
MTEXT
  5
E3B
330
E27
100
AcDbEntity
  8
0
 62
     0
100
AcDbMText
 10
4.672373812376068
 20
-23.66590627929935
 30
0.0
 40
0.5
 41
0.0
 71
     5
 72
     1
  1
\A1;5.750
 73
     1
 44
1.0
1001
ACAD
1000
MTEXTBEGIN
1070
    73
1070
     1
1070
    44
1040
1.0
1070
    74
1070
     0
1000
MTEXTEND
  0
POINT
  5
E3C
330
E27
100
AcDbEntity
  8
Defpoints
 62
     0
100
AcDbPoint
 10
4.870517262644965
 20
-20.79090627929935
 30
0.0
  0
POINT
  5
E3D
330
E27
100
AcDbEntity
  8
Defpoints
 62
     0
100
AcDbPoint
 10
4.870517262644965
 20
-26.54090627929935
 30
0.0
  0
POINT
  5
E3E
330
E27
100
AcDbEntity
  8
Defpoints
 62
     0
100
AcDbPoint
 10
4.672373812376063
 20
-26.54090627929935
 30
0.0
  0
ENDBLK
  5
E33
330
E27
100
AcDbEntity
  8
0
100
AcDbBlockEnd
  0
BLOCK
  5
E4C
330
E41
100
AcDbEntity
  8
0
100
AcDbBlockBegin
  2
*D49
 70
     1
 10
0.0
 20
0.0
 30
0.0
  3
*D49
  1

  0
LINE
  5
E4F
330
E41
100
AcDbEntity
  8
0
 62
     0
370
    -2
100
AcDbLine
 10
30.91545079162952
 20
-23.5269853773855
 30
0.0
 11
30.91545079162952
 21
-24.09603610069885
 31
0.0
  0
LINE
  5
E50
330
E41
100
AcDbEntity
  8
0
 62
     0
370
    -2
100
AcDbLine
 10
24.38545079162944
 20
-23.52698537738552
 30
0.0
 11
24.38545079162944
 21
-24.09603610069885
 31
0.0
  0
LINE
  5
E51
330
E41
100
AcDbEntity
  8
0
 62
     0
370
    -2
100
AcDbLine
 10
30.41545079162952
 20
-23.91603610069886
 30
0.0
 11
28.6987841249628
 21
-23.91603610069886
 31
0.0
  0
LINE
  5
E52
330
E41
100
AcDbEntity
  8
0
 62
     0
370
    -2
100
AcDbLine
 10
24.88545079162943
 20
-23.91603610069886
 30
0.0
 11
26.60211745829614
 21
-23.91603610069886
 31
0.0
  0
SOLID
  5
E53
330
E41
100
AcDbEntity
  8
0
 62
     0
100
AcDbTrace
 10
30.41545079162952
 20
-23.83270276736551
 30
0.0
 11
30.41545079162952
 21
-23.99936943403218
 31
0.0
 12
30.91545079162952
 22
-23.91603610069886
 32
0.0
 13
30.91545079162952
 23
-23.91603610069886
 33
0.0
  0
SOLID
  5
E54
330
E41
100
AcDbEntity
  8
0
 62
     0
100
AcDbTrace
 10
24.88545079162943
 20
-23.83270276736551
 30
0.0
 11
24.88545079162943
 21
-23.99936943403218
 31
0.0
 12
24.38545079162944
 22
-23.91603610069886
 32
0.0
 13
24.38545079162944
 23
-23.91603610069886
 33
0.0
  0
MTEXT
  5
E55
330
E41
100
AcDbEntity
  8
0
 62
     0
100
AcDbMText
 10
27.65045079162947
 20
-23.91603610069886
 30
0.0
 40
0.5
 41
0.0
 71
     5
 72
     1
  1
\A1;6.530
 73
     1
 44
1.0
1001
ACAD
1000
MTEXTBEGIN
1070
    73
1070
     1
1070
    44
1040
1.0
1070
    74
1070
     0
1000
MTEXTEND
  0
POINT
  5
E56
330
E41
100
AcDbEntity
  8
Defpoints
 62
     0
100
AcDbPoint
 10
30.91545079162952
 20
-23.4644853773855
 30
0.0
  0
POINT
  5
E57
330
E41
100
AcDbEntity
  8
Defpoints
 62
     0
100
AcDbPoint
 10
24.38545079162944
 20
-23.46448537738552
 30
0.0
  0
POINT
  5
E58
330
E41
100
AcDbEntity
  8
Defpoints
 62
     0
100
AcDbPoint
 10
24.38545079162944
 20
-23.91603610069886
 30
0.0
  0
ENDBLK
  5
E4D
330
E41
100
AcDbEntity
  8
0
100
AcDbBlockEnd
  0
BLOCK
  5
E66
330
E5B
100
AcDbEntity
  8
0
100
AcDbBlockBegin
  2
*D50
 70
     1
 10
0.0
 20
0.0
 30
0.0
  3
*D50
  1

  0
LINE
  5
E69
330
E5B
100
AcDbEntity
  8
0
 62
     0
370
    -2
100
AcDbLine
 10
27.71295079162948
 20
-20.1994853773855
 30
0.0
 11
37.79526918332049
 21
-20.1994853773855
 31
0.0
  0
LINE
  5
E6A
330
E5B
100
AcDbEntity
  8
0
 62
     0
370
    -2
100
AcDbLine
 10
27.71295079162948
 20
-26.7294853773855
 30
0.0
 11
37.79526918332049
 21
-26.7294853773855
 31
0.0
  0
LINE
  5
E6B
330
E5B
100
AcDbEntity
  8
0
 62
     0
370
    -2
100
AcDbLine
 10
37.61526918332049
 20
-20.6994853773855
 30
0.0
 11
37.61526918332049
 21
-23.1244853773855
 31
0.0
  0
LINE
  5
E6C
330
E5B
100
AcDbEntity
  8
0
 62
     0
370
    -2
100
AcDbLine
 10
37.61526918332049
 20
-26.2294853773855
 30
0.0
 11
37.61526918332049
 21
-23.8044853773855
 31
0.0
  0
SOLID
  5
E6D
330
E5B
100
AcDbEntity
  8
0
 62
     0
100
AcDbTrace
 10
37.53193584998716
 20
-20.6994853773855
 30
0.0
 11
37.69860251665383
 21
-20.6994853773855
 31
0.0
 12
37.61526918332049
 22
-20.1994853773855
 32
0.0
 13
37.61526918332049
 23
-20.1994853773855
 33
0.0
  0
SOLID
  5
E6E
330
E5B
100
AcDbEntity
  8
0
 62
     0
100
AcDbTrace
 10
37.53193584998716
 20
-26.2294853773855
 30
0.0
 11
37.69860251665383
 21
-26.2294853773855
 31
0.0
 12
37.61526918332049
 22
-26.7294853773855
 32
0.0
 13
37.61526918332049
 23
-26.7294853773855
 33
0.0
  0
MTEXT
  5
E6F
330
E5B
100
AcDbEntity
  8
0
 62
     0
100
AcDbMText
 10
37.6152691833205
 20
-23.4644853773855
 30
0.0
 40
0.5
 41
0.0
 71
     5
 72
     1
  1
\A1;6.530
 73
     1
 44
1.0
1001
ACAD
1000
MTEXTBEGIN
1070
    73
1070
     1
1070
    44
1040
1.0
1070
    74
1070
     0
1000
MTEXTEND
  0
POINT
  5
E70
330
E5B
100
AcDbEntity
  8
Defpoints
 62
     0
100
AcDbPoint
 10
27.65045079162947
 20
-20.1994853773855
 30
0.0
  0
POINT
  5
E71
330
E5B
100
AcDbEntity
  8
Defpoints
 62
     0
100
AcDbPoint
 10
27.65045079162947
 20
-26.7294853773855
 30
0.0
  0
POINT
  5
E72
330
E5B
100
AcDbEntity
  8
Defpoints
 62
     0
100
AcDbPoint
 10
37.61526918332049
 20
-26.7294853773855
 30
0.0
  0
ENDBLK
  5
E67
330
E5B
100
AcDbEntity
  8
0
100
AcDbBlockEnd
  0
BLOCK
  5
E80
330
E75
100
AcDbEntity
  8
0
100
AcDbBlockBegin
  2
*D51
 70
     1
 10
0.0
 20
0.0
 30
0.0
  3
*D51
  1

  0
LINE
  5
E83
330
E75
100
AcDbEntity
  8
0
 62
     0
370
    -2
100
AcDbLine
 10
7.495517262644965
 20
-20.72840627929935
 30
0.0
 11
7.495517262644968
 21
-13.52712384630096
 31
0.0
  0
LINE
  5
E84
330
E75
100
AcDbEntity
  8
0
 62
     0
370
    -2
100
AcDbLine
 10
2.245517262644965
 20
-20.72840627929935
 30
0.0
 11
2.245517262644966
 21
-13.52712384630096
 31
0.0
  0
LINE
  5
E85
330
E75
100
AcDbEntity
  8
0
 62
     0
370
    -2
100
AcDbLine
 10
6.995517262644965
 20
-13.70712384630096
 30
0.0
 11
5.918850595978299
 21
-13.70712384630096
 31
0.0
  0
LINE
  5
E86
330
E75
100
AcDbEntity
  8
0
 62
     0
370
    -2
100
AcDbLine
 10
2.745517262644966
 20
-13.70712384630096
 30
0.0
 11
3.822183929311633
 21
-13.70712384630096
 31
0.0
  0
SOLID
  5
E87
330
E75
100
AcDbEntity
  8
0
 62
     0
100
AcDbTrace
 10
6.995517262644965
 20
-13.62379051296762
 30
0.0
 11
6.995517262644965
 21
-13.79045717963429
 31
0.0
 12
7.495517262644965
 22
-13.70712384630096
 32
0.0
 13
7.495517262644965
 23
-13.70712384630096
 33
0.0
  0
SOLID
  5
E88
330
E75
100
AcDbEntity
  8
0
 62
     0
100
AcDbTrace
 10
2.745517262644966
 20
-13.62379051296762
 30
0.0
 11
2.745517262644966
 21
-13.79045717963429
 31
0.0
 12
2.245517262644966
 22
-13.70712384630096
 32
0.0
 13
2.245517262644966
 23
-13.70712384630096
 33
0.0
  0
MTEXT
  5
E89
330
E75
100
AcDbEntity
  8
0
 62
     0
100
AcDbMText
 10
4.870517262644965
 20
-13.70712384630096
 30
0.0
 40
0.5
 41
0.0
 71
     5
 72
     1
  1
\A1;5.250
 73
     1
 44
1.0
1001
ACAD
1000
MTEXTBEGIN
1070
    73
1070
     1
1070
    44
1040
1.0
1070
    74
1070
     0
1000
MTEXTEND
  0
POINT
  5
E8A
330
E75
100
AcDbEntity
  8
Defpoints
 62
     0
100
AcDbPoint
 10
7.495517262644965
 20
-20.79090627929935
 30
0.0
  0
POINT
  5
E8B
330
E75
100
AcDbEntity
  8
Defpoints
 62
     0
100
AcDbPoint
 10
2.245517262644965
 20
-20.79090627929935
 30
0.0
  0
POINT
  5
E8C
330
E75
100
AcDbEntity
  8
Defpoints
 62
     0
100
AcDbPoint
 10
2.245517262644966
 20
-13.70712384630096
 30
0.0
  0
ENDBLK
  5
E81
330
E75
100
AcDbEntity
  8
0
100
AcDbBlockEnd
  0
ENDSEC
  0
SECTION
  2
ENTITIES
  0
CIRCLE
  5
414
330
1F
100
AcDbEntity
  8
100FPBASE
100
AcDbCircle
 10
31.29045079162934
 20
-27.10448537738552
 30
0.0
 40
0.125
  0
CIRCLE
  5
415
330
1F
100
AcDbEntity
  8
100FPBASE
100
AcDbCircle
 10
24.01045079162936
 20
-27.10448537738552
 30
0.0
 40
0.125
  0
CIRCLE
  5
416
330
1F
100
AcDbEntity
  8
100FPBASE
100
AcDbCircle
 10
31.29045079162934
 20
-19.82448537738548
 30
0.0
 40
0.125
  0
CIRCLE
  5
417
330
1F
100
AcDbEntity
  8
100FPBASE
100
AcDbCircle
 10
24.01045079162936
 20
-19.82448537738548
 30
0.0
 40
0.125
  0
CIRCLE
  5
418
102
{ACAD_REACTORS
330
4DC
102
}
330
1F
100
AcDbEntity
  8
shroud
100
AcDbCircle
 10
31.29045079162934
 20
-27.10448537738552
 30
0.0
 40
0.125
  0
CIRCLE
  5
419
102
{ACAD_REACTORS
330
479
102
}
330
1F
100
AcDbEntity
  8
shroud
100
AcDbCircle
 10
24.01045079162936
 20
-27.10448537738552
 30
0.0
 40
0.125
  0
CIRCLE
  5
41A
330
1F
100
AcDbEntity
  8
shroud
100
AcDbCircle
 10
31.29045079162934
 20
-19.82448537738548
 30
0.0
 40
0.125
  0
CIRCLE
  5
41B
102
{ACAD_REACTORS
330
4A9
102
}
330
1F
100
AcDbEntity
  8
shroud
100
AcDbCircle
 10
24.01045079162936
 20
-19.82448537738548
 30
0.0
 40
0.125
  0
LINE
  5
41C
330
1F
100
AcDbEntity
  8
shroud
  6
HIDDEN
100
AcDbLine
 10
32.36545079162933
 20
-19.49948537738548
 30
0.0
 11
22.93545079162941
 21
-19.49948537738548
 31
0.0
  0
LINE
  5
41D
330
1F
100
AcDbEntity
  8
shroud
  6
HIDDEN
100
AcDbLine
 10
22.93545079162941
 20
-19.49948537738548
 30
0.0
 11
22.93545079162933
 21
-28.3094853773855
 31
0.0
  0
LINE
  5
41E
102
{ACAD_REACTORS
330
505
102
}
330
1F
100
AcDbEntity
  8
shroud
  6
HIDDEN
100
AcDbLine
 10
32.36545079162937
 20
-28.3094853773855
 30
0.0
 11
32.36545079162933
 21
-19.49948537738548
 31
0.0
  0
LINE
  5
41F
330
1F
100
AcDbEntity
  8
shroud
  6
HIDDEN
100
AcDbLine
 10
22.93545079162933
 20
-28.3094853773855
 30
0.0
 11
32.36545079162936
 21
-28.3094853773855
 31
0.0
  0
LINE
  5
420
102
{ACAD_REACTORS
330
E59
102
}
330
1F
100
AcDbEntity
  8
shroud
100
AcDbLine
 10
30.91545079162951
 20
-26.7294853773855
 30
0.0
 11
30.91545079162953
 21
-20.1994853773855
 31
0.0
  0
LINE
  5
421
102
{ACAD_REACTORS
330
E59
102
}
330
1F
100
AcDbEntity
  8
shroud
100
AcDbLine
 10
24.38545079162942
 20
-20.1994853773855
 30
0.0
 11
24.38545079162945
 21
-26.7294853773855
 31
0.0
  0
LINE
  5
422
102
{ACAD_REACTORS
330
4CC
102
}
330
1F
100
AcDbEntity
  8
shroud
100
AcDbLine
 10
30.91545079162953
 20
-20.1994853773855
 30
0.0
 11
24.38545079162942
 21
-20.1994853773855
 31
0.0
  0
LINE
  5
423
102
{ACAD_REACTORS
330
4F5
102
}
330
1F
100
AcDbEntity
  8
shroud
100
AcDbLine
 10
24.38545079162945
 20
-26.7294853773855
 30
0.0
 11
30.91545079162951
 21
-26.7294853773855
 31
0.0
  0
LINE
  5
424
102
{ACAD_REACTORS
330
465
102
}
330
1F
100
AcDbEntity
  8
shroud
  6
HIDDEN
100
AcDbLine
 10
32.36545079162936
 20
-28.3094853773855
 30
0.0
 11
22.93545079162949
 21
-28.30948537738574
 31
0.0
  0
DIMENSION
  5
445
330
1F
100
AcDbEntity
  8
0
100
AcDbDimension
  2
*D1
 10
22.93545079162933
 20
-28.3094853773855
 30
0.0
 11
21.012117458296
 21
-28.30948537738633
 31
0.0
 70
    38
 71
     5
 42
0.0
  3
Standard
100
AcDbOrdinateDimension
 13
22.93545079162933
 23
-28.3094853773855
 33
0.0
 14
21.93545079162932
 24
-28.30948537738633
 34
0.0
  0
DIMENSION
  5
456
102
{ACAD_XDICTIONARY
360
45F
102
}
102
{ACAD_REACTORS
330
465
102
}
330
1F
100
AcDbEntity
  8
0
100
AcDbDimension
  2
*D2
 10
22.93545079162933
 20
-28.3094853773855
 30
0.0
 11
22.93545079162949
 21
-30.23281871071907
 31
0.0
 70
   102
 71
     5
 42
0.0000000000001634
  3
Standard
100
AcDbOrdinateDimension
 13
22.93545079162949
 23
-28.30948537738574
 33
0.0
 14
22.93545079162949
 24
-29.30948537738574
 34
0.0
  0
DIMENSION
  5
46A
102
{ACAD_XDICTIONARY
360
473
102
}
102
{ACAD_REACTORS
330
479
102
}
330
1F
100
AcDbEntity
  8
0
100
AcDbDimension
  2
*D3
 10
22.93545079162933
 20
-28.3094853773855
 30
0.0
 11
20.137117458296
 21
-27.10448537738552
 31
0.0
 70
    38
  1
(2) <>
 71
     5
 42
1.204999999999984
  3
Standard
100
AcDbOrdinateDimension
 13
24.01045079162936
 23
-27.10448537738552
 33
0.0
 14
21.93545079162933
 24
-27.10448537738552
 34
0.0
  0
DIMENSION
  5
49A
102
{ACAD_XDICTIONARY
360
4A3
102
}
102
{ACAD_REACTORS
330
4A9
102
}
330
1F
100
AcDbEntity
  8
0
100
AcDbDimension
  2
*D4
 10
22.93545079162933
 20
-28.3094853773855
 30
0.0
 11
20.012117458296
 21
-19.82448537738548
 31
0.0
 70
    38
  1
(2) <>
 71
     5
 42
8.485000000000013
  3
Standard
100
AcDbOrdinateDimension
 13
24.01045079162936
 23
-19.82448537738548
 33
0.0
 14
21.93545079162933
 24
-19.82448537738548
 34
0.0
  0
DIMENSION
  5
4AA
330
1F
100
AcDbEntity
  8
0
100
AcDbDimension
  2
*D5
 10
22.93545079162933
 20
-28.3094853773855
 30
0.0
 11
24.01045079162937
 21
-31.10781871071907
 31
0.0
 70
   102
  1
(2) <>
 71
     5
 42
1.075000000000037
  3
Standard
100
AcDbOrdinateDimension
 13
24.01045079162936
 23
-27.10448537738552
 33
0.0
 14
24.01045079162936
 24
-29.30948537738574
 34
0.0
  0
DIMENSION
  5
4B3
330
1F
100
AcDbEntity
  8
0
100
AcDbDimension
  2
*D6
 10
22.93545079162933
 20
-28.3094853773855
 30
0.0
 11
24.38545079162942
 21
-17.53448537738525
 31
0.0
 70
   102
 71
     5
 42
1.45000000000009
  3
Standard
100
AcDbOrdinateDimension
 13
24.38545079162942
 23
-20.1994853773855
 33
0.0
 14
24.38545079162942
 24
-18.49948537738525
 34
0.0
1001
ACAD
1000
DSTYLE
1002
{
1070
    41
1040
0.5
1070
   140
1040
0.5
1002
}
  0
DIMENSION
  5
4BD
102
{ACAD_XDICTIONARY
360
4C6
102
}
102
{ACAD_REACTORS
330
4CC
102
}
330
1F
100
AcDbEntity
  8
0
100
AcDbDimension
  2
*D7
 10
22.93545079162933
 20
-28.3094853773855
 30
0.0
 11
30.91545079162954
 21
-17.45115204405192
 31
0.0
 70
   102
 71
     5
 42
7.980000000000206
  3
Standard
100
AcDbOrdinateDimension
 13
30.91545079162953
 23
-20.1994853773855
 33
0.0
 14
30.91545079162953
 24
-18.49948537738525
 34
0.0
  0
DIMENSION
  5
4CD
102
{ACAD_XDICTIONARY
360
4D6
102
}
102
{ACAD_REACTORS
330
4DC
102
}
330
1F
100
AcDbEntity
  8
0
100
AcDbDimension
  2
*D8
 10
22.93545079162933
 20
-28.3094853773855
 30
0.0
 11
31.29045079162934
 21
-31.23281871071907
 31
0.0
 70
   102
  1
(2) <>
 71
     5
 42
8.355000000000011
  3
Standard
100
AcDbOrdinateDimension
 13
31.29045079162934
 23
-27.10448537738552
 33
0.0
 14
31.29045079162934
 24
-29.30948537738574
 34
0.0
  0
DIMENSION
  5
4DD
330
1F
100
AcDbEntity
  8
0
100
AcDbDimension
  2
*D9
 10
22.93545079162933
 20
-28.3094853773855
 30
0.0
 11
34.24711745829609
 21
-20.1994853773855
 31
0.0
 70
    38
 71
     5
 42
8.109999999999999
  3
Standard
100
AcDbOrdinateDimension
 13
30.91545079162953
 23
-20.1994853773855
 33
0.0
 14
33.36545079162942
 24
-20.1994853773855
 34
0.0
  0
DIMENSION
  5
4E6
102
{ACAD_XDICTIONARY
360
4EF
102
}
102
{ACAD_REACTORS
330
4F5
102
}
330
1F
100
AcDbEntity
  8
0
100
AcDbDimension
  2
*D10
 10
22.93545079162933
 20
-28.3094853773855
 30
0.0
 11
34.33045079162943
 21
-26.7294853773855
 31
0.0
 70
    38
 71
     5
 42
1.579999999999996
  3
Standard
100
AcDbOrdinateDimension
 13
30.91545079162951
 23
-26.7294853773855
 33
0.0
 14
33.36545079162942
 24
-26.7294853773855
 34
0.0
  0
DIMENSION
  5
4F6
102
{ACAD_XDICTIONARY
360
4FF
102
}
102
{ACAD_REACTORS
330
505
102
}
330
1F
100
AcDbEntity
  8
0
100
AcDbDimension
  2
*D11
 10
22.93545079162933
 20
-28.3094853773855
 30
0.0
 11
32.36545079162935
 21
-17.45115204405192
 31
0.0
 70
   102
 71
     5
 42
9.430000000000015
  3
Standard
100
AcDbOrdinateDimension
 13
32.36545079162933
 23
-19.49948537738548
 33
0.0
 14
32.36545079162933
 24
-18.49948537738525
 34
0.0
  0
DIMENSION
  5
506
330
1F
100
AcDbEntity
  8
0
100
AcDbDimension
  2
*D12
 10
22.93545079162933
 20
-28.3094853773855
 30
0.0
 11
34.33045079162943
 21
-19.49948537738548
 31
0.0
 70
    38
 71
     5
 42
8.810000000000002
  3
Standard
100
AcDbOrdinateDimension
 13
32.36545079162933
 23
-19.49948537738548
 33
0.0
 14
33.36545079162942
 24
-19.49948537738548
 34
0.0
  0
TEXT
  5
718
330
1F
100
AcDbEntity
  8
DIMENSION
100
AcDbText
 10
24.28003800089694
 20
-15.85346143671393
 30
0.0
 40
0.5
  1
CUTOUT DRAWING
 72
     1
 11
27.69670466756361
 21
-15.60346143671393
 31
0.0
100
AcDbText
 73
     2
  0
TEXT
  5
719
330
1F
100
AcDbEntity
  8
DIMENSION
100
AcDbText
 10
25.78003800089694
 20
-14.85346143671393
 30
0.0
 40
0.5
  1
IQ100FP-H
 72
     1
 11
27.69670466756361
 21
-14.60346143671393
 31
0.0
100
AcDbText
 73
     2
  0
LINE
  5
B7F
330
1F
100
AcDbEntity
  8
BORDER
100
AcDbLine
 10
29.47668923311944
 20
-35.71767569469197
 30
0.0
 11
32.01539713830295
 21
-35.71767569469197
 31
0.0
  0
TEXT
  5
B80
330
1F
100
AcDbEntity
  8
TEXT
100
AcDbText
 10
29.60025016093485
 20
-35.90516909874628
 30
0.0
 40
0.1249956027028741
  1
PROPRIETARY DRAWING
 72
     1
 11
30.74604318571119
 21
-35.84267129739485
 31
0.0
100
AcDbText
 73
     2
  0
TEXT
  5
B81
330
1F
100
AcDbEntity
  8
TEXT
100
AcDbText
 10
29.68358056273677
 20
-36.21765810550347
 30
0.0
 40
0.0624978013514371
  1
OR ALTERED WITHOUT AUTHORIZATION OF
 72
     1
 11
30.7460431857112
 21
-36.18640920482775
 31
0.0
100
AcDbText
 73
     2
  0
TEXT
  5
B82
330
1F
100
AcDbEntity
  8
TEXT
100
AcDbText
 10
29.6367072117232
 20
-36.12391140347631
 30
0.0
 40
0.0624978013514371
  1
QUBE, INC. AND IS NOT TO BE DUPLICATED
 72
     1
 11
30.7460431857112
 21
-36.09266250280059
 31
0.0
100
AcDbText
 73
     2
  0
TEXT
  5
B83
330
1F
100
AcDbEntity
  8
TEXT
100
AcDbText
 10
29.69399686296201
 20
-36.03016470144915
 30
0.0
 40
0.0624978013514371
  1
THIS DRAWING IS THE PROPERTY OF ICE
 72
     1
 11
30.7460431857112
 21
-35.99891580077343
 31
0.0
100
AcDbText
 73
     2
  0
LINE
  5
B84
330
1F
100
AcDbEntity
  8
BORDER
100
AcDbLine
 10
33.81783372927839
 20
-34.79670809397718
 30
0.0
 11
37.15061269081959
 21
-34.79670809397718
 31
0.0
  0
TEXT
  5
B85
330
1F
100
AcDbEntity
  8
TEXT
100
AcDbText
 10
30.37626452771521
 20
-36.31140480753062
 30
0.0
 40
0.0624978013514371
  1
ICE QUBE, INC.
 72
     1
 11
30.74604318571121
 21
-36.2801559068549
 31
0.0
100
AcDbText
 73
     2
  0
LINE
  5
B86
330
1F
100
AcDbEntity
  8
BORDER
100
AcDbLine
 10
29.47668923311944
 20
-35.71767569469197
 30
0.0
 11
29.47668923311944
 21
-36.40515150955778
 31
0.0
  0
TEXT
  5
B87
330
1F
100
AcDbEntity
  8
TEXT
100
AcDbText
 10
34.52592358932696
 20
-35.85354591482999
 30
0.0
 40
0.2499912054057483
  1
IQ100FP-H
 72
     1
 11
35.48422321004899
 21
-35.72855031212711
 31
0.0
100
AcDbText
 73
     2
  0
LINE
  5
B88
330
1F
100
AcDbEntity
  8
BORDER
100
AcDbLine
 10
33.81783372927839
 20
-35.9229184743301
 30
0.0
 11
37.15061269081959
 21
-35.9229184743301
 31
0.0
  0
LINE
  5
B89
330
1F
100
AcDbEntity
  8
BORDER
100
AcDbLine
 10
33.81783372927839
 20
-35.44043544789699
 30
0.0
 11
37.15061269081959
 21
-35.44043544789699
 31
0.0
  0
TEXT
  5
B8A
330
1F
100
AcDbEntity
  8
TEXT
100
AcDbText
 10
33.88033153062983
 20
-35.53418214992414
 30
0.0
 40
0.0624978013514371
  1
PART NAME
100
AcDbText
  0
TEXT
  5
B8B
330
1F
100
AcDbEntity
  8
TEXT
100
AcDbText
 10
33.88033153062983
 20
-36.01666517635726
 30
0.0
 40
0.0624978013514371
  1
DWG NO
100
AcDbText
  0
LINE
  5
B8C
330
1F
100
AcDbEntity
  8
BORDER
100
AcDbLine
 10
33.81783372927839
 20
-36.40515150955778
 30
0.0
 11
33.81783372927839
 21
-34.79670809397718
 31
0.0
  0
TEXT
  5
B8D
330
1F
100
AcDbEntity
  8
TEXT
100
AcDbText
 10
33.19535562781807
 20
-35.82892178109752
 30
0.0
 40
0.0937467020271556
  1
NONE
 72
     1
 11
33.36722458153453
 21
-35.78204843008393
 31
0.0
100
AcDbText
 73
     2
  0
TEXT
  5
B8E
330
1F
100
AcDbEntity
  8
TEXT
100
AcDbText
 10
32.0778949396544
 20
-35.962917067195
 30
0.0
 40
0.0624978013514371
  1
DATE
100
AcDbText
  0
LINE
  5
B8F
330
1F
100
AcDbEntity
  8
BORDER
100
AcDbLine
 10
32.01539713830297
 20
-36.40515150955778
 30
0.0
 11
32.01539713830295
 21
-35.60117979297289
 31
0.0
  0
TEXT
  5
B90
330
1F
100
AcDbEntity
  8
TEXT
100
AcDbText
 10
32.07789493965437
 20
-35.69492649500001
 30
0.0
 40
0.0624978013514371
  1
DRAWN
100
AcDbText
  0
LINE
  5
B91
330
1F
100
AcDbEntity
  8
BORDER
100
AcDbLine
 10
32.91661543379067
 20
-35.60117979297286
 30
0.0
 11
32.91661543379067
 21
-35.86917036516785
 31
0.0
  0
TEXT
  5
B92
330
1F
100
AcDbEntity
  8
TEXT
100
AcDbText
 10
32.97911323514211
 20
-35.69492649500001
 30
0.0
 40
0.0624978013514371
  1
SCALE
100
AcDbText
  0
TEXT
  5
B93
330
1F
100
AcDbEntity
  8
TEXT
100
AcDbText
 10
32.22913961892488
 20
-36.33365402481171
 30
0.0
 40
0.1249956027028741
  1
SHEET 1 OF 1
 72
     1
 11
32.91661543379068
 21
-36.27115622346028
 31
0.0
100
AcDbText
 73
     2
  0
LINE
  5
B94
330
1F
100
AcDbEntity
  8
BORDER
100
AcDbLine
 10
32.01539713830297
 20
-35.86917036516785
 30
0.0
 11
33.81783372927839
 21
-35.86917036516785
 31
0.0
  0
LINE
  5
B95
330
1F
100
AcDbEntity
  8
BORDER
100
AcDbLine
 10
32.01539713830297
 20
-36.13716093736281
 30
0.0
 11
33.81783372927839
 21
-36.13716093736281
 31
0.0
  0
LINE
  5
B96
330
1F
100
AcDbEntity
  8
BORDER
100
AcDbLine
 10
32.01539713830295
 20
-35.60117979297289
 30
0.0
 11
33.81783372927839
 21
-35.60117979297289
 31
0.0
  0
LINE
  5
B97
330
1F
100
AcDbEntity
  8
BORDER
100
AcDbLine
 10
36.44496341838686
 20
-35.9229184743301
 30
0.0
 11
36.44496341838686
 21
-36.40515150955778
 31
0.0
  0
TEXT
  5
B98
330
1F
100
AcDbEntity
  8
TEXT
100
AcDbText
 10
36.50746121973829
 20
-36.01666517635726
 30
0.0
 40
0.0624978013514371
  1
REV
100
AcDbText
  0
ARC
  5
B99
330
1F
100
AcDbEntity
  8
TEXT
100
AcDbCircle
 10
35.28582278517506
 20
-35.23224912259354
 30
0.0
 40
0.0737539025022695
100
AcDbArc
 50
180.0
 51
0.0000000000004071
  0
ARC
  5
B9A
330
1F
100
AcDbEntity
  8
TEXT
100
AcDbCircle
 10
35.28582278517506
 20
-35.11460655203912
 30
0.0
 40
0.0737539025022695
100
AcDbArc
 50
357.1912576066922
 51
182.8087423933078
  0
LINE
  5
B9B
330
1F
100
AcDbEntity
  8
TEXT
100
AcDbLine
 10
35.35952448788125
 20
-35.21482490146804
 30
0.0
 11
35.35952448788125
 21
-35.23502349685151
 31
0.0
  0
LINE
  5
B9C
330
1F
100
AcDbEntity
  8
TEXT
100
AcDbLine
 10
35.26464592208035
 20
-35.19133302736825
 30
0.0
 11
35.26464592208036
 21
-35.25157820849468
 31
0.0
  0
LINE
  5
B9D
330
1F
100
AcDbEntity
  8
TEXT
100
AcDbLine
 10
35.3069474484737
 20
-35.21482490146804
 30
0.0
 11
35.3069474484737
 21
-35.25306418664111
 31
0.0
  0
LINE
  5
B9E
330
1F
100
AcDbEntity
  8
TEXT
100
AcDbLine
 10
35.26464592208033
 20
-35.15699884932753
 30
0.0
 11
35.30694744847368
 21
-35.15699884932753
 31
0.0
  0
LINE
  5
B9F
330
1F
100
AcDbEntity
  8
TEXT
100
AcDbLine
 10
35.3069474484737
 20
-35.21482490146804
 30
0.0
 11
35.35952448788125
 21
-35.21482490146804
 31
0.0
  0
LINE
  5
BA0
330
1F
100
AcDbEntity
  8
TEXT
100
AcDbLine
 10
35.26464592208035
 20
-35.19133302736823
 30
0.0
 11
35.35952448788125
 21
-35.19133302736823
 31
0.0
  0
ARC
  5
BA1
330
1F
100
AcDbEntity
  8
TEXT
100
AcDbCircle
 10
35.28582278517506
 20
-35.25157820849468
 30
0.0
 40
0.0211768630947111
100
AcDbArc
 50
179.9999999999984
 51
4.023745172363674
  0
ARC
  5
BA2
330
1F
100
AcDbEntity
  8
TEXT
100
AcDbCircle
 10
35.28582278517506
 20
-35.09614492786749
 30
0.0
 40
0.0211768630947111
100
AcDbArc
 50
355.9762548274008
 51
180.0
  0
LINE
  5
BA3
330
1F
100
AcDbEntity
  8
TEXT
100
AcDbLine
 10
34.86124506016762
 20
-35.28920125498846
 30
0.0
 11
34.86124506016762
 21
-35.30600302509582
 31
0.0
  0
LINE
  5
BA4
330
1F
100
AcDbEntity
  8
TEXT
100
AcDbLine
 10
34.82548691026251
 20
-35.04446675085045
 30
0.0
 11
34.82548691026251
 21
-35.2549372971235
 31
0.0
  0
LINE
  5
BA5
330
1F
100
AcDbEntity
  8
TEXT
100
AcDbLine
 10
34.7736665907491
 20
-35.04446675085044
 30
0.0
 11
34.82548691026251
 21
-35.04446675085044
 31
0.0
  0
LINE
  5
BA6
330
1F
100
AcDbEntity
  8
TEXT
100
AcDbLine
 10
34.86124506016762
 20
-35.30600302509582
 30
0.0
 11
34.91382209957517
 21
-35.30600302509582
 31
0.0
  0
LINE
  5
BA7
330
1F
100
AcDbEntity
  8
TEXT
100
AcDbLine
 10
34.7736665907491
 20
-35.04446675085045
 30
0.0
 11
34.7736665907491
 21
-35.27003181516133
 31
0.0
  0
LINE
  5
BA8
330
1F
100
AcDbEntity
  8
TEXT
100
AcDbLine
 10
34.82548691026251
 20
-35.09278583923869
 30
0.0
 11
34.82548691026251
 21
-35.2549372971235
 31
0.0
  0
LINE
  5
BA9
330
1F
100
AcDbEntity
  8
TEXT
100
AcDbLine
 10
34.86124506016761
 20
-35.04446675085045
 30
0.0
 11
34.86124506016761
 21
-35.2549372971235
 31
0.0
  0
LINE
  5
BAA
330
1F
100
AcDbEntity
  8
TEXT
100
AcDbLine
 10
34.91382209957517
 20
-35.04446675085045
 30
0.0
 11
34.91382209957517
 21
-35.30600302509582
 31
0.0
  0
LINE
  5
BAB
330
1F
100
AcDbEntity
  8
TEXT
100
AcDbLine
 10
34.81701616502463
 20
-35.30600302509582
 30
0.0
 11
34.82660652453008
 21
-35.30600302509582
 31
0.0
  0
LINE
  5
BAC
330
1F
100
AcDbEntity
  8
TEXT
100
AcDbLine
 10
34.86124506016761
 20
-35.04446675085044
 30
0.0
 11
34.91382209957517
 21
-35.04446675085044
 31
0.0
  0
ARC
  5
BAD
330
1F
100
AcDbEntity
  8
TEXT
100
AcDbCircle
 10
34.8433046847284
 20
-35.2549372971235
 30
0.0
 40
0.0178177744658948
100
AcDbArc
 50
180.0000000000016
 51
359.9999999999984
  0
ARC
  5
BAE
330
1F
100
AcDbEntity
  8
TEXT
100
AcDbCircle
 10
34.81701616502463
 20
-35.26189673092614
 30
0.0
 40
0.044106294169674
100
AcDbArc
 50
180.0
 51
270.0
  0
ARC
  5
BAF
330
1F
100
AcDbEntity
  8
TEXT
100
AcDbCircle
 10
34.82660652453008
 20
-35.26189673092614
 30
0.0
 40
0.044106294169674
100
AcDbArc
 50
270.0
 51
321.7523418942988
  0
LINE
  5
BB0
330
1F
100
AcDbEntity
  8
TEXT
100
AcDbLine
 10
35.13453629204629
 20
-35.26153847433171
 30
0.0
 11
35.13453629204629
 21
-35.08582640543604
 31
0.0
  0
LINE
  5
BB1
330
1F
100
AcDbEntity
  8
TEXT
100
AcDbLine
 10
35.08195925263873
 20
-35.2549372971235
 30
0.0
 11
35.08195925263873
 21
-35.09278583923869
 31
0.0
  0
LINE
  5
BB2
330
1F
100
AcDbEntity
  8
TEXT
100
AcDbLine
 10
35.04620110273362
 20
-35.2549372971235
 30
0.0
 11
35.04620110273362
 21
-35.09278583923869
 31
0.0
  0
LINE
  5
BB3
330
1F
100
AcDbEntity
  8
TEXT
100
AcDbLine
 10
34.99362406332607
 20
-35.30325638551175
 30
0.0
 11
34.99362406332607
 21
-34.93114051677836
 31
0.0
  0
LINE
  5
BB4
330
1F
100
AcDbEntity
  8
TEXT
100
AcDbLine
 10
35.03965772624538
 20
-35.30325638551175
 30
0.0
 11
35.03965772624538
 21
-35.27979724407569
 31
0.0
  0
LINE
  5
BB5
330
1F
100
AcDbEntity
  8
TEXT
100
AcDbLine
 10
35.09042999787661
 20
-35.04172011126637
 30
0.0
 11
35.08083963837113
 21
-35.04172011126637
 31
0.0
  0
LINE
  5
BB6
330
1F
100
AcDbEntity
  8
TEXT
100
AcDbLine
 10
35.03965772624538
 20
-35.30325638551175
 30
0.0
 11
34.99362406332607
 21
-35.30325638551175
 31
0.0
  0
ARC
  5
BB7
330
1F
100
AcDbEntity
  8
TEXT
100
AcDbCircle
 10
35.06414147817283
 20
-35.2549372971235
 30
0.0
 40
0.0178177744658948
100
AcDbArc
 50
180.0
 51
0.0
  0
ARC
  5
BB8
330
1F
100
AcDbEntity
  8
TEXT
100
AcDbCircle
 10
35.06414147817283
 20
-35.09278583923868
 30
0.0
 40
0.0178177744658948
100
AcDbArc
 50
0.0000000000016284
 51
179.9999999999984
  0
ARC
  5
BB9
330
1F
100
AcDbEntity
  8
TEXT
100
AcDbCircle
 10
35.0870709092478
 20
-35.26153847433171
 30
0.0
 40
0.0474653827984903
100
AcDbArc
 50
202.6235962336631
 51
0.0
  0
LINE
  5
BBA
330
1F
100
AcDbEntity
  8
TEXT
100
AcDbLine
 10
35.04620110273362
 20
-35.05852188137371
 30
0.0
 11
35.04620110273362
 21
-34.93114051677834
 31
0.0
  0
LINE
  5
BBB
330
1F
100
AcDbEntity
  8
TEXT
100
AcDbLine
 10
35.04325789871845
 20
-35.27979724407569
 30
0.0
 11
35.03965772624538
 21
-35.27979724407569
 31
0.0
  0
ARC
  5
BBC
330
1F
100
AcDbEntity
  8
TEXT
100
AcDbCircle
 10
35.09042999787661
 20
-35.08582640543604
 30
0.0
 40
0.044106294169674
100
AcDbArc
 50
0.0
 51
90.0
  0
ARC
  5
BBD
330
1F
100
AcDbEntity
  8
TEXT
100
AcDbCircle
 10
35.08083963837113
 20
-35.08582640543604
 30
0.0
 40
0.044106294169674
100
AcDbArc
 50
90.0
 51
141.7523418942988
  0
LINE
  5
BBE
330
1F
100
AcDbEntity
  8
TEXT
100
AcDbLine
 10
34.27169660220564
 20
-35.19407687123594
 30
0.0
 11
34.27169660220564
 21
-35.23122679127173
 31
0.0
  0
LINE
  5
BBF
330
1F
100
AcDbEntity
  8
TEXT
100
AcDbLine
 10
34.21911956279807
 20
-35.19407687123594
 30
0.0
 11
34.21911956279807
 21
-35.23122679127173
 31
0.0
  0
LINE
  5
BC0
330
1F
100
AcDbEntity
  8
TEXT
100
AcDbLine
 10
34.27169660220564
 20
-35.19407687123594
 30
0.0
 11
34.21911956279807
 21
-35.19407687123594
 31
0.0
  0
LINE
  5
BC1
330
1F
100
AcDbEntity
  8
TEXT
100
AcDbLine
 10
34.27169660220564
 20
-35.03653026827983
 30
0.0
 11
34.21911956279806
 21
-35.03653026827983
 31
0.0
  0
ARC
  5
BC2
330
1F
100
AcDbEntity
  8
TEXT
100
AcDbCircle
 10
34.60489001693917
 20
-35.26189673092614
 30
0.0
 40
0.044106294169674
100
AcDbArc
 50
270.0
 51
321.7523418942988
  0
ARC
  5
BC3
330
1F
100
AcDbEntity
  8
TEXT
100
AcDbCircle
 10
34.59529965743371
 20
-35.26189673092614
 30
0.0
 40
0.044106294169674
100
AcDbArc
 50
180.0
 51
270.0
  0
LINE
  5
BC4
330
1F
100
AcDbEntity
  8
TEXT
100
AcDbLine
 10
34.64247175659186
 20
-35.06792589228649
 30
0.0
 11
34.64607192906493
 21
-35.06792589228649
 31
0.0
  0
LINE
  5
BC5
330
1F
100
AcDbEntity
  8
TEXT
100
AcDbLine
 10
34.63952855257669
 20
-35.28920125498846
 30
0.0
 11
34.63952855257669
 21
-35.39269348207806
 31
0.0
  0
ARC
  5
BC6
330
1F
100
AcDbEntity
  8
TEXT
100
AcDbCircle
 10
34.59865874606251
 20
-35.08618466203047
 30
0.0
 40
0.0474653827984903
100
AcDbArc
 50
22.62359623366323
 51
180.0
  0
LINE
  5
BC7
330
1F
100
AcDbEntity
  8
TEXT
100
AcDbLine
 10
34.99362406332607
 20
-34.93114051677834
 30
0.0
 11
35.04620110273362
 21
-34.93114051677834
 31
0.0
  0
ARC
  5
BC8
330
1F
100
AcDbEntity
  8
TEXT
100
AcDbCircle
 10
34.62158817713748
 20
-35.2549372971235
 30
0.0
 40
0.0178177744658948
100
AcDbArc
 50
180.0000000000016
 51
359.9999999999984
  0
ARC
  5
BC9
330
1F
100
AcDbEntity
  8
TEXT
100
AcDbCircle
 10
34.62158817713748
 20
-35.09278583923868
 30
0.0
 40
0.0178177744658948
100
AcDbArc
 50
0.0
 51
180.0
  0
LINE
  5
BCA
330
1F
100
AcDbEntity
  8
TEXT
100
AcDbLine
 10
34.63952855257669
 20
-35.39269348207806
 30
0.0
 11
34.69210559198427
 21
-35.39269348207806
 31
0.0
  0
LINE
  5
BCB
330
1F
100
AcDbEntity
  8
TEXT
100
AcDbLine
 10
34.64607192906493
 20
-35.04446675085044
 30
0.0
 11
34.69210559198427
 21
-35.04446675085044
 31
0.0
  0
LINE
  5
BCC
330
1F
100
AcDbEntity
  8
TEXT
100
AcDbLine
 10
34.48412434417783
 20
-34.97581329561155
 30
0.0
 11
34.48412434417783
 21
-34.93114051677834
 31
0.0
  0
LINE
  5
BCD
330
1F
100
AcDbEntity
  8
TEXT
100
AcDbLine
 10
34.39601996892475
 20
-35.13436981817383
 30
0.0
 11
34.39601996892475
 21
-35.26131254159939
 31
0.0
  0
LINE
  5
BCE
330
1F
100
AcDbEntity
  8
TEXT
100
AcDbLine
 10
34.47769826158357
 20
-35.13436981817382
 30
0.0
 11
34.47769826158357
 21
-35.08969703934061
 31
0.0
  0
LINE
  5
BCF
330
1F
100
AcDbEntity
  8
TEXT
100
AcDbLine
 10
34.48412434417783
 20
-35.30600302509582
 30
0.0
 11
34.48412434417783
 21
-35.26131254159939
 31
0.0
  0
LINE
  5
BD0
330
1F
100
AcDbEntity
  8
TEXT
100
AcDbLine
 10
34.39601996892475
 20
-35.13436981817382
 30
0.0
 11
34.47769826158357
 21
-35.13436981817382
 31
0.0
  0
LINE
  5
BD1
330
1F
100
AcDbEntity
  8
TEXT
100
AcDbLine
 10
34.39601996892476
 20
-35.08969703934061
 30
0.0
 11
34.47769826158357
 21
-35.08969703934061
 31
0.0
  0
ARC
  5
BD2
330
1F
100
AcDbEntity
  8
TEXT
100
AcDbCircle
 10
34.18891048458736
 20
-35.23122679127173
 30
0.0
 40
0.0826627897352169
100
AcDbArc
 50
180.0
 51
0.0
  0
ARC
  5
BD3
330
1F
100
AcDbEntity
  8
TEXT
100
AcDbCircle
 10
34.18891048458736
 20
-35.00589904593921
 30
0.0
 40
0.0826627897352169
100
AcDbArc
 50
0.0
 51
180.0
  0
LINE
  5
BD4
330
1F
100
AcDbEntity
  8
TEXT
100
AcDbLine
 10
34.59529965743371
 20
-35.30600302509582
 30
0.0
 11
34.60489001693917
 21
-35.30600302509582
 31
0.0
  0
LINE
  5
BD5
330
1F
100
AcDbEntity
  8
TEXT
100
AcDbLine
 10
34.34344292951718
 20
-34.93114051677834
 30
0.0
 11
34.48412434417783
 21
-34.93114051677834
 31
0.0
  0
LINE
  5
BD6
330
1F
100
AcDbEntity
  8
TEXT
100
AcDbLine
 10
34.39601996892475
 20
-34.97581329561155
 30
0.0
 11
34.48412434417783
 21
-34.97581329561155
 31
0.0
  0
LINE
  5
BD7
330
1F
100
AcDbEntity
  8
TEXT
100
AcDbLine
 10
34.39601996892475
 20
-35.26131254159939
 30
0.0
 11
34.48412434417783
 21
-35.26131254159939
 31
0.0
  0
LINE
  5
BD8
330
1F
100
AcDbEntity
  8
TEXT
100
AcDbLine
 10
34.34344292951718
 20
-35.30600302509582
 30
0.0
 11
34.48412434417783
 21
-35.30600302509582
 31
0.0
  0
ARC
  5
BD9
330
1F
100
AcDbEntity
  8
TEXT
100
AcDbCircle
 10
34.18891048458736
 20
-35.23122679127173
 30
0.0
 40
0.0300857503276585
100
AcDbArc
 50
180.0
 51
0.0
  0
ARC
  5
BDA
330
1F
100
AcDbEntity
  8
TEXT
100
AcDbCircle
 10
34.18891048458736
 20
-35.00589904593921
 30
0.0
 40
0.0300857503276585
100
AcDbArc
 50
0.0
 51
180.0
  0
LINE
  5
BDB
330
1F
100
AcDbEntity
  8
TEXT
100
AcDbLine
 10
35.35952448788125
 20
-35.11183217778111
 30
0.0
 11
35.35952448788125
 21
-35.19133302736823
 31
0.0
  0
LINE
  5
BDC
330
1F
100
AcDbEntity
  8
TEXT
100
AcDbLine
 10
35.30694744847368
 20
-35.09465894972099
 30
0.0
 11
35.30694744847368
 21
-35.15699884932753
 31
0.0
  0
LINE
  5
BDD
330
1F
100
AcDbEntity
  8
TEXT
100
AcDbLine
 10
35.26464592208035
 20
-35.09614492786749
 30
0.0
 11
35.26464592208033
 21
-35.15699884932753
 31
0.0
  0
LINE
  5
BDE
330
1F
100
AcDbEntity
  8
TEXT
100
AcDbLine
 10
35.21206888267281
 20
-35.11460655203912
 30
0.0
 11
35.2120688826728
 21
-35.23224912259354
 31
0.0
  0
LINE
  5
BDF
330
1F
100
AcDbEntity
  8
TEXT
100
AcDbLine
 10
34.64607192906493
 20
-35.04446675085044
 30
0.0
 11
34.64607192906495
 21
-35.06792589228649
 31
0.0
  0
LINE
  5
BE0
330
1F
100
AcDbEntity
  8
TEXT
100
AcDbLine
 10
34.69210559198427
 20
-35.04446675085045
 30
0.0
 11
34.69210559198427
 21
-35.39269348207806
 31
0.0
  0
LINE
  5
BE1
330
1F
100
AcDbEntity
  8
TEXT
100
AcDbLine
 10
34.63952855257669
 20
-35.09278583923869
 30
0.0
 11
34.63952855257669
 21
-35.2549372971235
 31
0.0
  0
LINE
  5
BE2
330
1F
100
AcDbEntity
  8
TEXT
100
AcDbLine
 10
34.60377040267159
 20
-35.09278583923869
 30
0.0
 11
34.60377040267159
 21
-35.2549372971235
 31
0.0
  0
LINE
  5
BE3
330
1F
100
AcDbEntity
  8
TEXT
100
AcDbLine
 10
34.55119336326403
 20
-35.08618466203048
 30
0.0
 11
34.55119336326403
 21
-35.26189673092614
 31
0.0
  0
LINE
  5
BE4
330
1F
100
AcDbEntity
  8
TEXT
100
AcDbLine
 10
34.39601996892475
 20
-34.97581329561155
 30
0.0
 11
34.39601996892476
 21
-35.08969703934061
 31
0.0
  0
LINE
  5
BE5
330
1F
100
AcDbEntity
  8
TEXT
100
AcDbLine
 10
34.34344292951718
 20
-34.93114051677836
 30
0.0
 11
34.34344292951718
 21
-35.30600302509582
 31
0.0
  0
LINE
  5
BE6
330
1F
100
AcDbEntity
  8
TEXT
100
AcDbLine
 10
34.21911956279806
 20
-35.00589904593921
 30
0.0
 11
34.21911956279806
 21
-35.03653026827983
 31
0.0
  0
LINE
  5
BE7
330
1F
100
AcDbEntity
  8
TEXT
100
AcDbLine
 10
34.27169660220564
 20
-35.00589904593921
 30
0.0
 11
34.27169660220564
 21
-35.03653026827983
 31
0.0
  0
LINE
  5
BE8
330
1F
100
AcDbEntity
  8
TEXT
100
AcDbLine
 10
34.15882473425968
 20
-35.00589904593923
 30
0.0
 11
34.15882473425968
 21
-35.23122679127173
 31
0.0
  0
LINE
  5
BE9
330
1F
100
AcDbEntity
  8
TEXT
100
AcDbLine
 10
34.10624769485213
 20
-35.00589904593923
 30
0.0
 11
34.10624769485213
 21
-35.23122679127173
 31
0.0
  0
LINE
  5
BEA
330
1F
100
AcDbEntity
  8
TEXT
100
AcDbLine
 10
34.02632195029068
 20
-34.93114051677836
 30
0.0
 11
34.02632195029068
 21
-35.30600302509582
 31
0.0
  0
LINE
  5
BEB
330
1F
100
AcDbEntity
  8
TEXT
100
AcDbLine
 10
33.97374491088311
 20
-34.93114051677836
 30
0.0
 11
33.97374491088311
 21
-35.30600302509582
 31
0.0
  0
LINE
  5
BEC
330
1F
100
AcDbEntity
  8
TEXT
100
AcDbLine
 10
33.97374491088311
 20
-35.30600302509582
 30
0.0
 11
34.02632195029068
 21
-35.30600302509582
 31
0.0
  0
LINE
  5
BED
330
1F
100
AcDbEntity
  8
TEXT
100
AcDbLine
 10
33.97374491088311
 20
-34.93114051677834
 30
0.0
 11
34.02632195029068
 21
-34.93114051677834
 31
0.0
  0
TEXT
  5
BEE
330
1F
100
AcDbEntity
  8
TEXT
100
AcDbText
 10
35.86125745258832
 20
-35.38427123950929
 30
0.0
 40
0.0468733510135778
  1
FAX  724-837-3386
 72
     1
 11
36.2518687110348
 21
-35.36083456400251
 31
0.0
100
AcDbText
 73
     2
  0
TEXT
  5
BEF
330
1F
100
AcDbEntity
  8
TEXT
100
AcDbText
 10
35.86906967775725
 20
-35.00928443140065
 30
0.0
 40
0.0468733510135778
  1
141 WILSON AVENUE
 72
     1
 11
36.2518687110348
 21
-34.98584775589387
 31
0.0
100
AcDbText
 73
     2
  0
TEXT
  5
BF0
330
1F
100
AcDbEntity
  8
TEXT
100
AcDbText
 10
35.79875965123689
 20
-35.13428003410353
 30
0.0
 40
0.0468733510135778
  1
GREENSBURG, PA  15601
 72
     1
 11
36.2518687110348
 21
-35.11084335859675
 31
0.0
100
AcDbText
 73
     2
  0
TEXT
  5
BF1
330
1F
100
AcDbEntity
  8
TEXT
100
AcDbText
 10
35.63470292268937
 20
-34.89053860883294
 30
0.0
 40
0.0468733510135778
  1
INDUSTRIAL COOLING EQUIPMENT
 72
     1
 11
36.2518687110348
 21
-34.86710193332615
 31
0.0
100
AcDbText
 73
     2
  0
TEXT
  5
BF2
330
1F
100
AcDbEntity
  8
TEXT
100
AcDbText
 10
35.54486233324667
 20
-35.25927563680641
 30
0.0
 40
0.0468733510135778
  1
724-837-2204  *  1-888-867-8234
 72
     1
 11
36.2518687110348
 21
-35.23583896129963
 31
0.0
100
AcDbText
 73
     2
  0
LWPOLYLINE
  5
BF3
330
1F
100
AcDbEntity
  8
BORDER
100
AcDbPolyline
 90
        4
 70
     1
 43
0.0
 10
18.15028889243914
 20
-11.40381924521321
 10
37.15061269081959
 20
-11.40381924521321
 10
37.15061269081959
 20
-36.40515150955778
 10
18.15028889243914
 20
-36.40515150955778
  0
TEXT
  5
BF4
330
1F
100
AcDbEntity
  8
TEXT
100
AcDbText
 10
32.41161609846809
 20
-35.82697501962727
 30
0.0
 40
0.0937549959912921
  1
jjh
 72
     1
 11
32.5209969271246
 21
-35.78009752163163
 31
0.0
100
AcDbText
 73
     2
  0
TEXT
  5
BF5
330
1F
100
AcDbEntity
  8
TEXT
100
AcDbText
 10
32.63302003285164
 20
-36.06816465827155
 30
0.0
 40
0.1250066613217229
  1
9-22-09
 72
     1
 11
33.03929168214724
 21
-36.00566132761069
 31
0.0
100
AcDbText
 73
     2
  0
TEXT
  5
BF6
330
1F
100
AcDbEntity
  8
TEXT
100
AcDbText
 10
34.31471018539588
 20
-36.31579430824427
 30
0.0
 40
0.2500133226434457
  1
IQ290940
 72
     1
 11
35.18975681464794
 21
-36.19078764692254
 31
0.0
100
AcDbText
 73
     2
  0
TEXT
  5
BF7
330
1F
100
AcDbEntity
  8
TEXT
100
AcDbText
 10
36.74539067369723
 20
-36.31579430824427
 30
0.0
 40
0.2500133226434457
  1
0
 72
     1
 11
36.80789400435809
 21
-36.19078764692254
 31
0.0
100
AcDbText
 73
     2
  0
TEXT
  5
BF8
330
1F
100
AcDbEntity
  8
TEXT
100
AcDbText
 10
20.26248477990522
 20
-36.35514884502913
 30
0.0
 40
0.1000053290573783
  1
REVISIONS
 72
     1
 11
20.67917365097763
 21
-36.30514618050044
 31
0.0
100
AcDbText
 73
     2
  0
LINE
  5
BF9
330
1F
100
AcDbEntity
  8
BORDER
100
AcDbLine
 10
24.64883648368474
 20
-36.40515150955778
 30
0.0
 11
18.15028889243914
 21
-36.40515150955778
 31
0.0
  0
LINE
  5
BFA
330
1F
100
AcDbEntity
  8
BORDER
100
AcDbLine
 10
24.64883648368474
 20
-35.80511953521348
 30
0.0
 11
24.64883648368474
 21
-36.40515150955778
 31
0.0
  0
LINE
  5
BFB
330
1F
100
AcDbEntity
  8
BORDER
100
AcDbLine
 10
18.15028889243914
 20
-36.20514085144303
 30
0.0
 11
24.64883648368474
 21
-36.20514085144303
 31
0.0
  0
LINE
  5
BFC
330
1F
100
AcDbEntity
  8
BORDER
100
AcDbLine
 10
22.77053509489002
 20
-36.20514085144303
 30
0.0
 11
22.77053509489002
 21
-36.00513019332826
 31
0.0
  0
TEXT
  5
BFD
330
1F
100
AcDbEntity
  8
TEXT
100
AcDbText
 10
23.02721543947063
 20
-36.15513818691435
 30
0.0
 40
0.1000053290573783
  1
DATE
 72
     1
 11
23.21055854274248
 21
-36.10513552238566
 31
0.0
100
AcDbText
 73
     2
  0
LINE
  5
BFE
330
1F
100
AcDbEntity
  8
BORDER
100
AcDbLine
 10
23.65058199059495
 20
-36.20514085144303
 30
0.0
 11
23.65058199059495
 21
-36.00513019332826
 31
0.0
  0
TEXT
  5
BFF
330
1F
100
AcDbEntity
  8
TEXT
100
AcDbText
 10
23.81635814028192
 20
-36.15513818691435
 30
0.0
 40
0.1000053290573783
  1
CHECKED
 72
     1
 11
24.14970923713985
 21
-36.10513552238566
 31
0.0
100
AcDbText
 73
     2
  0
TEXT
  5
C00
330
1F
100
AcDbEntity
  8
TEXT
100
AcDbText
 10
20.17914700569074
 20
-36.15513818691435
 30
0.0
 40
0.1000053290573783
  1
DESCRIPTION
 72
     1
 11
20.67917365097763
 21
-36.10513552238566
 31
0.0
100
AcDbText
 73
     2
  0
LINE
  5
C01
330
1F
100
AcDbEntity
  8
BORDER
100
AcDbLine
 10
18.58781220706517
 20
-36.20514085144303
 30
0.0
 11
18.58781220706517
 21
-36.00513019332826
 31
0.0
  0
LINE
  5
C02
330
1F
100
AcDbEntity
  8
BORDER
100
AcDbLine
 10
18.15028889243914
 20
-36.40515150955778
 30
0.0
 11
18.15028889243914
 21
-35.20508756086915
 31
0.0
  0
TEXT
  5
C03
330
1F
100
AcDbEntity
  8
TEXT
100
AcDbText
 10
18.21904255616609
 20
-36.15513818691435
 30
0.0
 40
0.1000053290573783
  1
REV
 72
     1
 11
18.36905054975216
 21
-36.10513552238566
 31
0.0
100
AcDbText
 73
     2
  0
LINE
  5
C04
330
1F
100
AcDbEntity
  8
BORDER
100
AcDbLine
 10
24.64883648368474
 20
-36.00513019332826
 30
0.0
 11
18.15028889243914
 21
-36.00513019332826
 31
0.0
  0
LINE
  5
C05
330
1F
100
AcDbEntity
  8
BORDER
100
AcDbLine
 10
24.64883648368474
 20
-36.20514085144303
 30
0.0
 11
18.15028889243914
 21
-36.20514085144303
 31
0.0
  0
LINE
  5
C06
330
1F
100
AcDbEntity
  8
BORDER
100
AcDbLine
 10
22.77053509489002
 20
-36.00513019332826
 30
0.0
 11
22.77053509489002
 21
-35.80511953521348
 31
0.0
  0
TEXT
  5
C07
330
1F
100
AcDbEntity
  8
TEXT
100
AcDbText
 10
22.9022087781489
 20
-35.95512752879958
 30
0.0
 40
0.1000053290573783
  1
5-17-08
 72
     1
 11
23.21055854274248
 21
-35.90512486427089
 31
0.0
100
AcDbText
 73
     2
  0
LINE
  5
C08
330
1F
100
AcDbEntity
  8
BORDER
100
AcDbLine
 10
23.65058199059495
 20
-36.00513019332826
 30
0.0
 11
23.65058199059495
 21
-35.80511953521348
 31
0.0
  0
TEXT
  5
C09
330
1F
100
AcDbEntity
  8
TEXT
100
AcDbText
 10
24.01636879839668
 20
-35.95512752879958
 30
0.0
 40
0.1000053290573783
  1
JJH
 72
     1
 11
24.14970923713985
 21
-35.90512486427089
 31
0.0
100
AcDbText
 73
     2
  0
TEXT
  5
C0A
330
1F
100
AcDbEntity
  8
TEXT
100
AcDbText
 10
19.99580390241888
 20
-35.95512752879958
 30
0.0
 40
0.1000053290573783
  1
INITIAL RELEASE
 72
     1
 11
20.67917365097763
 21
-35.90512486427089
 31
0.0
100
AcDbText
 73
     2
  0
LINE
  5
C0B
330
1F
100
AcDbEntity
  8
BORDER
100
AcDbLine
 10
18.58781220706517
 20
-36.00513019332826
 30
0.0
 11
18.58781220706517
 21
-35.80511953521348
 31
0.0
  0
TEXT
  5
C0C
330
1F
100
AcDbEntity
  8
TEXT
100
AcDbText
 10
18.34404921748781
 20
-35.95512752879958
 30
0.0
 40
0.1000053290573783
  1
0
 72
     1
 11
18.36905054975216
 21
-35.90512486427089
 31
0.0
100
AcDbText
 73
     2
  0
LINE
  5
C0D
330
1F
100
AcDbEntity
  8
BORDER
100
AcDbLine
 10
24.64883648368474
 20
-35.80511953521348
 30
0.0
 11
18.15028889243914
 21
-35.80511953521348
 31
0.0
  0
DIMENSION
  5
E40
102
{ACAD_XDICTIONARY
360
E4E
102
}
102
{ACAD_REACTORS
330
E59
102
}
330
1F
100
AcDbEntity
  8
0
100
AcDbDimension
  2
*D49
 10
24.38545079162944
 20
-23.91603610069886
 30
0.0
 11
27.65045079162947
 21
-23.91603610069886
 31
0.0
 70
    32
 71
     5
 42
6.530000000000081
  3
Standard
100
AcDbAlignedDimension
 13
30.91545079162952
 23
-23.4644853773855
 33
0.0
 14
24.38545079162944
 24
-23.46448537738552
 34
0.0
100
AcDbRotatedDimension
  0
ENDSEC
  0
SECTION
  2
OBJECTS
  0
DICTIONARY
  5
C
330
0
100
AcDbDictionary
281
     1
  3
ACAD_COLOR
350
73
  3
ACAD_GROUP
350
D
  3
ACAD_LAYOUT
350
1A
  3
ACAD_MATERIAL
350
72
  3
ACAD_MLINESTYLE
350
17
  3
ACAD_PLOTSETTINGS
350
19
  3
ACAD_PLOTSTYLENAME
350
E
  3
ACDBHEADERROUNDTRIPXREC
350
EAE
  3
AcDbVariableDictionary
350
66
  3
DWGPROPS
350
EAD
  0
DICTIONARY
  5
AEA
330
2
100
AcDbDictionary
280
     1
281
     1
  3
ACAD_LAYERFILTERS
360
C0E
  3
ACAD_LAYERSTATES
360
AEB
  0
DICTIONARY
  5
6F7
330
528
100
AcDbDictionary
280
     1
281
     1
  3
ACAD_SORTENTS
360
6F8
  0
DICTIONARY
  5
45F
330
456
100
AcDbDictionary
280
     1
281
     1
  3
ACAD_DIMASSOC
360
465
  0
DICTIONARY
  5
473
330
46A
100
AcDbDictionary
280
     1
281
     1
  3
ACAD_DIMASSOC
360
479
  0
DICTIONARY
  5
4A3
330
49A
100
AcDbDictionary
280
     1
281
     1
  3
ACAD_DIMASSOC
360
4A9
  0
DICTIONARY
  5
4C6
330
4BD
100
AcDbDictionary
280
     1
281
     1
  3
ACAD_DIMASSOC
360
4CC
  0
DICTIONARY
  5
4D6
330
4CD
100
AcDbDictionary
280
     1
281
     1
  3
ACAD_DIMASSOC
360
4DC
  0
DICTIONARY
  5
4EF
330
4E6
100
AcDbDictionary
280
     1
281
     1
  3
ACAD_DIMASSOC
360
4F5
  0
DICTIONARY
  5
4FF
330
4F6
100
AcDbDictionary
280
     1
281
     1
  3
ACAD_DIMASSOC
360
505
  0
DICTIONARY
  5
E4E
330
E40
100
AcDbDictionary
280
     1
281
     1
  3
ACAD_DIMASSOC
360
E59
  0
DICTIONARY
  5
73
102
{ACAD_REACTORS
330
C
102
}
330
C
100
AcDbDictionary
281
     1
  0
DICTIONARY
  5
D
102
{ACAD_REACTORS
330
C
102
}
330
C
100
AcDbDictionary
281
     1
  0
DICTIONARY
  5
1A
102
{ACAD_REACTORS
330
C
102
}
330
C
100
AcDbDictionary
281
     1
  3
Layout1
350
59
  3
Layout2
350
5E
  3
Model
350
22
  0
DICTIONARY
  5
72
102
{ACAD_REACTORS
330
C
102
}
330
C
100
AcDbDictionary
281
     1
  0
DICTIONARY
  5
17
102
{ACAD_REACTORS
330
C
102
}
330
C
100
AcDbDictionary
281
     1
  3
Standard
350
18
  0
DICTIONARY
  5
19
102
{ACAD_REACTORS
330
C
102
}
330
C
100
AcDbDictionary
281
     1
  0
ACDBDICTIONARYWDFLT
  5
E
102
{ACAD_REACTORS
330
C
102
}
330
C
100
AcDbDictionary
281
     1
  3
Normal
350
F
100
AcDbDictionaryWithDefault
340
F
  0
DICTIONARY
  5
EAE
102
{ACAD_REACTORS
330
C
102
}
330
C
100
AcDbDictionary
281
     1
  3
COLORDICT
350
EB0
  3
MATERIALDICT
350
EAF
  0
DICTIONARY
  5
66
102
{ACAD_REACTORS
330
C
102
}
330
C
100
AcDbDictionary
281
     1
  3
DIMASSOC
350
67
  3
HIDETEXT
350
6B
  3
PROJECTNAME
350
CD9
  0
XRECORD
  5
EAD
102
{ACAD_REACTORS
330
C
102
}
330
C
100
AcDbXrecord
280
     1
  1
DWGPROPS COOKIE
  2

  3

  4

  6

  7

  8

  9

300
=
301
=
302
=
303
=
304
=
305
=
306
=
307
=
308
=
309
=
 40
0.1110226967592593
 41
2454314.352654259
 42
2455097.596745509
  1

 90
        0
  0
DICTIONARY
  5
C0E
102
{ACAD_REACTORS
330
AEA
102
}
330
AEA
100
AcDbDictionary
281
     1
  0
DICTIONARY
  5
AEB
102
{ACAD_REACTORS
330
AEA
102
}
330
AEA
100
AcDbDictionary
281
     1
  0
SORTENTSTABLE
  5
6F8
102
{ACAD_REACTORS
330
6F7
102
}
330
6F7
100
AcDbSortentsTable
330
528
  0
DIMASSOC
  5
465
102
{ACAD_REACTORS
330
45F
102
}
330
45F
100
AcDbDimAssoc
330
456
 90
        2
 70
     0
 71
     0
  1
AcDbOsnapPointRef
 72
     1
331
424
 73
     2
 91
        0
 40
1.0
 10
0.0
 20
0.0
 30
2.000000000000000E+50
 75
     0
  0
DIMASSOC
  5
479
102
{ACAD_REACTORS
330
473
102
}
330
473
100
AcDbDimAssoc
330
46A
 90
        2
 70
     0
 71
     0
  1
AcDbOsnapPointRef
 72
     3
331
419
 73
     2
 91
        0
 40
0.0
 10
0.0
 20
0.0
 30
0.0
 75
     0
  0
DIMASSOC
  5
4A9
102
{ACAD_REACTORS
330
4A3
102
}
330
4A3
100
AcDbDimAssoc
330
49A
 90
        2
 70
     0
 71
     0
  1
AcDbOsnapPointRef
 72
     3
331
41B
 73
     2
 91
        0
 40
0.0
 10
0.0
 20
0.0
 30
0.0
 75
     0
  0
DIMASSOC
  5
4CC
102
{ACAD_REACTORS
330
4C6
102
}
330
4C6
100
AcDbDimAssoc
330
4BD
 90
        2
 70
     0
 71
     0
  1
AcDbOsnapPointRef
 72
    13
331
422
 73
     2
 91
        0
 40
0.0
 10
0.0
 20
0.0
 30
2.000000000000000E+50
 75
     0
  0
DIMASSOC
  5
4DC
102
{ACAD_REACTORS
330
4D6
102
}
330
4D6
100
AcDbDimAssoc
330
4CD
 90
        2
 70
     0
 71
     0
  1
AcDbOsnapPointRef
 72
     3
331
418
 73
     2
 91
        0
 40
0.0
 10
0.0
 20
0.0
 30
0.0
 75
     0
  0
DIMASSOC
  5
4F5
102
{ACAD_REACTORS
330
4EF
102
}
330
4EF
100
AcDbDimAssoc
330
4E6
 90
        2
 70
     0
 71
     0
  1
AcDbOsnapPointRef
 72
     1
331
423
 73
     2
 91
        0
 40
0.9999999999999998
 10
0.0
 20
0.0
 30
2.000000000000000E+50
 75
     0
  0
DIMASSOC
  5
505
102
{ACAD_REACTORS
330
4FF
102
}
330
4FF
100
AcDbDimAssoc
330
4F6
 90
        2
 70
     0
 71
     0
  1
AcDbOsnapPointRef
 72
     1
331
41E
 73
     2
 91
        0
 40
1.0
 10
0.0
 20
0.0
 30
2.000000000000000E+50
 75
     0
  0
DIMASSOC
  5
E59
102
{ACAD_REACTORS
330
E4E
102
}
330
E4E
100
AcDbDimAssoc
330
E40
 90
        3
 70
     0
 71
     0
  1
AcDbOsnapPointRef
 72
     2
331
420
 73
     2
 91
        0
 40
0.5
 10
0.0
 20
0.0
 30
0.0
 75
     0
  1
AcDbOsnapPointRef
 72
     8
331
421
 73
     2
 91
        0
 40
0.5000000000000038
 10
0.0
 20
0.0
 30
0.0
 75
     1
  1
AcDbOsnapPointRef
 72
     2
331
420
 73
     2
 91
        0
 40
0.5
 10
0.0
 20
0.0
 30
0.0
 75
     0
  0
LAYOUT
  5
59
102
{ACAD_XDICTIONARY
360
EB3
102
}
102
{ACAD_REACTORS
330
1A
102
}
330
1A
100
AcDbPlotSettings
  1

  2
None
  4

  6

 40
0.0
 41
0.0
 42
0.0
 43
0.0
 44
0.0
 45
0.0
 46
0.0
 47
0.0
 48
0.0
 49
0.0
140
0.0
141
0.0
142
1.0
143
1.0
 70
   688
 72
     0
 73
     0
 74
     5
  7
monochrome.ctb
 75
    16
147
1.0
148
0.0
149
0.0
100
AcDbLayout
  1
Layout1
 70
     1
 71
     1
 10
0.0
 20
0.0
 11
12.0
 21
9.0
 12
0.0
 22
0.0
 32
0.0
 14
0.0
 24
0.0
 34
0.0
 15
0.0
 25
0.0
 35
0.0
146
0.0
 13
0.0
 23
0.0
 33
0.0
 16
1.0
 26
0.0
 36
0.0
 17
0.0
 27
1.0
 37
0.0
 76
     0
330
58
  0
LAYOUT
  5
5E
102
{ACAD_XDICTIONARY
360
EB5
102
}
102
{ACAD_REACTORS
330
1A
102
}
330
1A
100
AcDbPlotSettings
  1

  2
None
  4

  6

 40
0.0
 41
0.0
 42
0.0
 43
0.0
 44
0.0
 45
0.0
 46
0.0
 47
0.0
 48
0.0
 49
0.0
140
0.0
141
0.0
142
1.0
143
1.0
 70
   688
 72
     0
 73
     0
 74
     5
  7
monochrome.ctb
 75
    16
147
1.0
148
0.0
149
0.0
100
AcDbLayout
  1
Layout2
 70
     1
 71
     2
 10
0.0
 20
0.0
 11
12.0
 21
9.0
 12
0.0
 22
0.0
 32
0.0
 14
0.0
 24
0.0
 34
0.0
 15
0.0
 25
0.0
 35
0.0
146
0.0
 13
0.0
 23
0.0
 33
0.0
 16
1.0
 26
0.0
 36
0.0
 17
0.0
 27
1.0
 37
0.0
 76
     0
330
5D
  0
LAYOUT
  5
22
102
{ACAD_XDICTIONARY
360
EB1
102
}
102
{ACAD_REACTORS
330
1A
102
}
330
1A
100
AcDbPlotSettings
  1

  2
Adobe PDF
  4
Letter
  6

 40
3.174999952316282
 41
3.174999952316282
 42
3.175003051757812
 43
3.17498779296875
 44
215.8999938964844
 45
279.3999938964844
 46
1.016
 47
0.0
 48
14.95074687344451
 49
-38.87132578291151
140
62.45155636939561
141
23.63200487794991
142
1.0
143
5.814263186307226
 70
 11956
 72
     0
 73
     0
 74
     4
  7
monochrome.ctb
 75
     0
147
0.1719908383843084
148
-379.7489705854905
149
987.3316748859522
100
AcDbLayout
  1
Model
 70
     1
 71
     0
 10
0.0
 20
0.0
 11
12.0
 21
9.0
 12
0.0
 22
0.0
 32
0.0
 14
0.0
 24
0.0
 34
0.0
 15
0.0
 25
0.0
 35
0.0
146
0.0
 13
0.0
 23
0.0
 33
0.0
 16
1.0
 26
0.0
 36
0.0
 17
0.0
 27
1.0
 37
0.0
 76
     0
330
1F
  0
MLINESTYLE
  5
18
102
{ACAD_REACTORS
330
17
102
}
330
17
100
AcDbMlineStyle
  2
STANDARD
 70
     0
  3

 62
   256
 51
90.0
 52
90.0
 71
     2
 49
0.5
 62
   256
  6
BYLAYER
 49
-0.5
 62
   256
  6
BYLAYER
  0
ACDBPLACEHOLDER
  5
F
102
{ACAD_REACTORS
330
E
102
}
330
E
  0
XRECORD
  5
EB0
102
{ACAD_REACTORS
330
EAE
102
}
330
EAE
100
AcDbXrecord
280
     1
340
73
  0
XRECORD
  5
EAF
102
{ACAD_REACTORS
330
EAE
102
}
330
EAE
100
AcDbXrecord
280
     1
340
72
  0
DICTIONARYVAR
  5
67
102
{ACAD_REACTORS
330
66
102
}
330
66
100
DictionaryVariables
280
     0
  1
2
  0
DICTIONARYVAR
  5
6B
102
{ACAD_REACTORS
330
66
102
}
330
66
100
DictionaryVariables
280
     0
  1
1
  0
DICTIONARYVAR
  5
CD9
102
{ACAD_REACTORS
330
66
102
}
330
66
100
DictionaryVariables
280
     0
  1

  0
DICTIONARY
  5
EB3
330
59
100
AcDbDictionary
280
     1
281
     1
  3
ACAD_XREC_ROUNDTRIP
360
EB4
  0
DICTIONARY
  5
EB5
330
5E
100
AcDbDictionary
280
     1
281
     1
  3
ACAD_XREC_ROUNDTRIP
360
EB6
  0
DICTIONARY
  5
EB1
330
22
100
AcDbDictionary
280
     1
281
     1
  3
ACAD_XREC_ROUNDTRIP
360
EB2
  0
XRECORD
  5
EB4
102
{ACAD_REACTORS
330
EB3
102
}
330
EB3
100
AcDbXrecord
280
     1
102
SHADEPLOT
 70
     0
102
SHADEPLOTRESLEVEL
 70
     2
102
SHADEPLOTCUSTOMDPI
 70
   300
  0
XRECORD
  5
EB6
102
{ACAD_REACTORS
330
EB5
102
}
330
EB5
100
AcDbXrecord
280
     1
102
SHADEPLOT
 70
     0
102
SHADEPLOTRESLEVEL
 70
     2
102
SHADEPLOTCUSTOMDPI
 70
   300
  0
XRECORD
  5
EB2
102
{ACAD_REACTORS
330
EB1
102
}
330
EB1
100
AcDbXrecord
280
     1
102
SHADEPLOT
 70
     0
102
SHADEPLOTRESLEVEL
 70
     2
102
SHADEPLOTCUSTOMDPI
 70
   300
  0
ENDSEC
  0
EOF
