  0
SECTION
  2
HEADER
  9
$ACADVER
  1
AC1015
  9
$ACADMAINTVER
 70
    20
  9
$DWGCODEPAGE
  3
ANSI_1252
  9
$INSBASE
 10
0.0
 20
0.0
 30
0.0
  9
$EXTMIN
 10
2.135124593481699
 20
-6.044893109147324
 30
0.0
  9
$EXTMAX
 10
59.1330585360188
 20
68.95510689085276
 30
0.0
  9
$LIMMIN
 10
0.0
 20
0.0
  9
$LIMMAX
 10
12.0
 20
9.0
  9
$ORTHOMODE
 70
     0
  9
$REGENMODE
 70
     1
  9
$FILLMODE
 70
     1
  9
$QTEXTMODE
 70
     0
  9
$MIRRTEXT
 70
     0
  9
$LTSCALE
 40
1.0
  9
$ATTMODE
 70
     1
  9
$TEXTSIZE
 40
0.2
  9
$TRACEWID
 40
0.05
  9
$TEXTSTYLE
  7
Standard
  9
$CLAYER
  8
0
  9
$CELTYPE
  6
ByLayer
  9
$CECOLOR
 62
   256
  9
$CELTSCALE
 40
1.0
  9
$DISPSILH
 70
     0
  9
$DIMSCALE
 40
1.0
  9
$DIMASZ
 40
0.75
  9
$DIMEXO
 40
0.375
  9
$DIMDLI
 40
0.38
  9
$DIMRND
 40
0.0
  9
$DIMDLE
 40
0.0
  9
$DIMEXE
 40
0.18
  9
$DIMTP
 40
0.0
  9
$DIMTM
 40
0.0
  9
$DIMTXT
 40
0.75
  9
$DIMCEN
 40
0.09
  9
$DIMTSZ
 40
0.0
  9
$DIMTOL
 70
     0
  9
$DIMLIM
 70
     0
  9
$DIMTIH
 70
     1
  9
$DIMTOH
 70
     1
  9
$DIMSE1
 70
     0
  9
$DIMSE2
 70
     0
  9
$DIMTAD
 70
     0
  9
$DIMZIN
 70
     0
  9
$DIMBLK
  1

  9
$DIMASO
 70
     1
  9
$DIMSHO
 70
     1
  9
$DIMPOST
  1

  9
$DIMAPOST
  1

  9
$DIMALT
 70
     0
  9
$DIMALTD
 70
     2
  9
$DIMALTF
 40
25.4
  9
$DIMLFAC
 40
1.0
  9
$DIMTOFL
 70
     0
  9
$DIMTVP
 40
0.0
  9
$DIMTIX
 70
     0
  9
$DIMSOXD
 70
     0
  9
$DIMSAH
 70
     0
  9
$DIMBLK1
  1

  9
$DIMBLK2
  1

  9
$DIMSTYLE
  2
Standard
  9
$DIMCLRD
 70
     0
  9
$DIMCLRE
 70
     0
  9
$DIMCLRT
 70
     0
  9
$DIMTFAC
 40
1.0
  9
$DIMGAP
 40
0.09
  9
$DIMJUST
 70
     0
  9
$DIMSD1
 70
     0
  9
$DIMSD2
 70
     0
  9
$DIMTOLJ
 70
     1
  9
$DIMTZIN
 70
     0
  9
$DIMALTZ
 70
     0
  9
$DIMALTTZ
 70
     0
  9
$DIMUPT
 70
     0
  9
$DIMDEC
 70
     3
  9
$DIMTDEC
 70
     3
  9
$DIMALTU
 70
     2
  9
$DIMALTTD
 70
     2
  9
$DIMTXSTY
  7
Standard
  9
$DIMAUNIT
 70
     0
  9
$DIMADEC
 70
     0
  9
$DIMALTRND
 40
0.0
  9
$DIMAZIN
 70
     0
  9
$DIMDSEP
 70
    46
  9
$DIMATFIT
 70
     3
  9
$DIMFRAC
 70
     0
  9
$DIMLDRBLK
  1

  9
$DIMLUNIT
 70
     2
  9
$DIMLWD
 70
    -2
  9
$DIMLWE
 70
    -2
  9
$DIMTMOVE
 70
     0
  9
$LUNITS
 70
     2
  9
$LUPREC
 70
     4
  9
$SKETCHINC
 40
0.1
  9
$FILLETRAD
 40
0.0
  9
$AUNITS
 70
     0
  9
$AUPREC
 70
     0
  9
$MENU
  1
.
  9
$ELEVATION
 40
0.0
  9
$PELEVATION
 40
0.0
  9
$THICKNESS
 40
0.0
  9
$LIMCHECK
 70
     0
  9
$CHAMFERA
 40
0.0
  9
$CHAMFERB
 40
0.0
  9
$CHAMFERC
 40
0.0
  9
$CHAMFERD
 40
0.0
  9
$SKPOLY
 70
     0
  9
$TDCREATE
 40
2455093.506179907
  9
$TDUCREATE
 40
2455093.672846574
  9
$TDUPDATE
 40
2456028.373775579
  9
$TDUUPDATE
 40
2456028.540442245
  9
$TDINDWG
 40
0.0809818519
  9
$TDUSRTIMER
 40
0.0809812616
  9
$USRTIMER
 70
     1
  9
$ANGBASE
 50
0.0
  9
$ANGDIR
 70
     0
  9
$PDMODE
 70
     0
  9
$PDSIZE
 40
0.0
  9
$PLINEWID
 40
0.0
  9
$SPLFRAME
 70
     0
  9
$SPLINETYPE
 70
     6
  9
$SPLINESEGS
 70
     8
  9
$HANDSEED
  5
CDC
  9
$SURFTAB1
 70
     6
  9
$SURFTAB2
 70
     6
  9
$SURFTYPE
 70
     6
  9
$SURFU
 70
     6
  9
$SURFV
 70
     6
  9
$UCSBASE
  2

  9
$UCSNAME
  2

  9
$UCSORG
 10
0.0
 20
0.0
 30
0.0
  9
$UCSXDIR
 10
1.0
 20
0.0
 30
0.0
  9
$UCSYDIR
 10
0.0
 20
1.0
 30
0.0
  9
$UCSORTHOREF
  2

  9
$UCSORTHOVIEW
 70
     0
  9
$UCSORGTOP
 10
0.0
 20
0.0
 30
0.0
  9
$UCSORGBOTTOM
 10
0.0
 20
0.0
 30
0.0
  9
$UCSORGLEFT
 10
0.0
 20
0.0
 30
0.0
  9
$UCSORGRIGHT
 10
0.0
 20
0.0
 30
0.0
  9
$UCSORGFRONT
 10
0.0
 20
0.0
 30
0.0
  9
$UCSORGBACK
 10
0.0
 20
0.0
 30
0.0
  9
$PUCSBASE
  2

  9
$PUCSNAME
  2

  9
$PUCSORG
 10
0.0
 20
0.0
 30
0.0
  9
$PUCSXDIR
 10
1.0
 20
0.0
 30
0.0
  9
$PUCSYDIR
 10
0.0
 20
1.0
 30
0.0
  9
$PUCSORTHOREF
  2

  9
$PUCSORTHOVIEW
 70
     0
  9
$PUCSORGTOP
 10
0.0
 20
0.0
 30
0.0
  9
$PUCSORGBOTTOM
 10
0.0
 20
0.0
 30
0.0
  9
$PUCSORGLEFT
 10
0.0
 20
0.0
 30
0.0
  9
$PUCSORGRIGHT
 10
0.0
 20
0.0
 30
0.0
  9
$PUCSORGFRONT
 10
0.0
 20
0.0
 30
0.0
  9
$PUCSORGBACK
 10
0.0
 20
0.0
 30
0.0
  9
$USERI1
 70
     0
  9
$USERI2
 70
     0
  9
$USERI3
 70
     0
  9
$USERI4
 70
     0
  9
$USERI5
 70
     0
  9
$USERR1
 40
0.0
  9
$USERR2
 40
0.0
  9
$USERR3
 40
0.0
  9
$USERR4
 40
0.0
  9
$USERR5
 40
0.0
  9
$WORLDVIEW
 70
     1
  9
$SHADEDGE
 70
     3
  9
$SHADEDIF
 70
    70
  9
$TILEMODE
 70
     1
  9
$MAXACTVP
 70
    64
  9
$PINSBASE
 10
0.0
 20
0.0
 30
0.0
  9
$PLIMCHECK
 70
     0
  9
$PEXTMIN
 10
0.0
 20
0.0
 30
0.0
  9
$PEXTMAX
 10
0.0
 20
0.0
 30
0.0
  9
$PLIMMIN
 10
0.0
 20
0.0
  9
$PLIMMAX
 10
12.0
 20
9.0
  9
$UNITMODE
 70
     0
  9
$VISRETAIN
 70
     1
  9
$PLINEGEN
 70
     0
  9
$PSLTSCALE
 70
     1
  9
$TREEDEPTH
 70
  3020
  9
$CMLSTYLE
  2
Standard
  9
$CMLJUST
 70
     0
  9
$CMLSCALE
 40
1.0
  9
$PROXYGRAPHICS
 70
     1
  9
$MEASUREMENT
 70
     0
  9
$CELWEIGHT
370
    -1
  9
$ENDCAPS
280
     0
  9
$JOINSTYLE
280
     0
  9
$LWDISPLAY
290
     0
  9
$INSUNITS
 70
     1
  9
$HYPERLINKBASE
  1

  9
$STYLESHEET
  1

  9
$XEDIT
290
     1
  9
$CEPSNTYPE
380
     0
  9
$PSTYLEMODE
290
     1
  9
$FINGERPRINTGUID
  2
{FDEAD576-A652-11D2-9A35-0060089B3A3F}
  9
$VERSIONGUID
  2
{611E17D7-81E7-4B86-8E96-6F9961DAB654}
  9
$EXTNAMES
290
     1
  9
$PSVPSCALE
 40
0.0
  9
$OLESTARTUP
290
     0
  0
ENDSEC
  0
SECTION
  2
CLASSES
  0
CLASS
  1
ACDBDICTIONARYWDFLT
  2
AcDbDictionaryWithDefault
  3
ObjectDBX Classes
 90
        0
280
     0
281
     0
  0
CLASS
  1
ACDBPLACEHOLDER
  2
AcDbPlaceHolder
  3
ObjectDBX Classes
 90
        0
280
     0
281
     0
  0
CLASS
  1
LAYOUT
  2
AcDbLayout
  3
ObjectDBX Classes
 90
        0
280
     0
281
     0
  0
CLASS
  1
DICTIONARYVAR
  2
AcDbDictionaryVar
  3
ObjectDBX Classes
 90
        0
280
     0
281
     0
  0
CLASS
  1
DIMASSOC
  2
AcDbDimAssoc
  3
"AcDbDimAssoc|Product Desc:     AcDim ARX App For Dimension|Company:          Autodesk, Inc.|WEB Address:      www.autodesk.com"
 90
    32768
280
     0
281
     0
  0
ENDSEC
  0
SECTION
  2
TABLES
  0
TABLE
  2
VPORT
  5
8
330
0
100
AcDbSymbolTable
 70
     6
  0
VPORT
  5
CD2
330
8
100
AcDbSymbolTableRecord
100
AcDbViewportTableRecord
  2
*Active
 70
     0
 10
0.0
 20
0.0
 11
1.0
 21
1.0
 12
31.69081616661043
 22
30.99157214105467
 13
0.0
 23
0.0
 14
0.5
 24
0.5
 15
0.5
 25
0.5
 16
0.0
 26
0.0
 36
1.0
 17
0.0
 27
0.0
 37
0.0
 40
123.6067638605306
 41
2.060331825037707
 42
50.0
 43
0.0
 44
0.0
 50
0.0
 51
0.0
 71
     0
 72
  1000
 73
     1
 74
     3
 75
     0
 76
     0
 77
     0
 78
     0
281
     0
 65
     1
110
0.0
120
0.0
130
0.0
111
1.0
121
0.0
131
0.0
112
0.0
122
1.0
132
0.0
 79
     0
146
0.0
  0
ENDTAB
  0
TABLE
  2
LTYPE
  5
5
330
0
100
AcDbSymbolTable
 70
     3
  0
LTYPE
  5
14
330
5
100
AcDbSymbolTableRecord
100
AcDbLinetypeTableRecord
  2
ByBlock
 70
     0
  3

 72
    65
 73
     0
 40
0.0
  0
LTYPE
  5
15
330
5
100
AcDbSymbolTableRecord
100
AcDbLinetypeTableRecord
  2
ByLayer
 70
     0
  3

 72
    65
 73
     0
 40
0.0
  0
LTYPE
  5
16
330
5
100
AcDbSymbolTableRecord
100
AcDbLinetypeTableRecord
  2
Continuous
 70
     0
  3
Solid line
 72
    65
 73
     0
 40
0.0
  0
LTYPE
  5
149
330
5
100
AcDbSymbolTableRecord
100
AcDbLinetypeTableRecord
  2
HIDDEN
 70
     0
  3
Hidden __ __ __ __ __ __ __ __ __ __ __ __ __ _
 72
    65
 73
     2
 40
0.375
 49
0.25
 74
     0
 49
-0.125
 74
     0
  0
LTYPE
  5
14A
330
5
100
AcDbSymbolTableRecord
100
AcDbLinetypeTableRecord
  2
DASHDOT
 70
     0
  3
Dash dot __ . __ . __ . __ . __ . __ . __ . __
 72
    65
 73
     4
 40
1.0
 49
0.5
 74
     0
 49
-0.25
 74
     0
 49
0.0
 74
     0
 49
-0.25
 74
     0
  0
ENDTAB
  0
TABLE
  2
LAYER
  5
2
102
{ACAD_XDICTIONARY
360
9C7
102
}
330
0
100
AcDbSymbolTable
 70
     6
  0
LAYER
  5
10
330
2
100
AcDbSymbolTableRecord
100
AcDbLayerTableRecord
  2
0
 70
     0
 62
     7
  6
Continuous
370
    -3
390
F
  0
LAYER
  5
14B
330
2
100
AcDbSymbolTableRecord
100
AcDbLayerTableRecord
  2
Defpoints
 70
     0
 62
     7
  6
Continuous
290
     0
370
    -3
390
F
  0
LAYER
  5
14C
330
2
100
AcDbSymbolTableRecord
100
AcDbLayerTableRecord
  2
BORDER
 70
     0
 62
     7
  6
Continuous
370
    -3
390
F
  0
LAYER
  5
14D
330
2
100
AcDbSymbolTableRecord
100
AcDbLayerTableRecord
  2
TEXT
 70
     0
 62
    -7
  6
Continuous
370
    -3
390
F
  0
LAYER
  5
14E
330
2
100
AcDbSymbolTableRecord
100
AcDbLayerTableRecord
  2
TEMPLATE
 70
     0
 62
     7
  6
Continuous
370
    -3
390
F
  0
LAYER
  5
14F
330
2
100
AcDbSymbolTableRecord
100
AcDbLayerTableRecord
  2
DIMENSION
 70
     0
 62
     7
  6
Continuous
370
    -3
390
F
  0
ENDTAB
  0
TABLE
  2
STYLE
  5
3
330
0
100
AcDbSymbolTable
 70
     1
  0
STYLE
  5
11
330
3
100
AcDbSymbolTableRecord
100
AcDbTextStyleTableRecord
  2
Standard
 70
     0
 40
0.0
 41
1.0
 50
0.0
 71
     0
 42
0.2
  3
txt
  4

  0
ENDTAB
  0
TABLE
  2
VIEW
  5
6
330
0
100
AcDbSymbolTable
 70
     0
  0
ENDTAB
  0
TABLE
  2
UCS
  5
7
330
0
100
AcDbSymbolTable
 70
     0
  0
ENDTAB
  0
TABLE
  2
APPID
  5
9
330
0
100
AcDbSymbolTable
 70
     1
  0
APPID
  5
12
330
9
100
AcDbSymbolTableRecord
100
AcDbRegAppTableRecord
  2
ACAD
 70
     0
  0
ENDTAB
  0
TABLE
  2
DIMSTYLE
  5
A
330
0
100
AcDbSymbolTable
 70
     1
100
AcDbDimStyleTable
 71
     1
340
27
  0
DIMSTYLE
105
27
102
{ACAD_REACTORS
330
A0B
330
A0C
330
A0D
330
A0E
330
A13
330
A14
330
A15
330
A16
330
A17
330
A1A
330
A1B
330
A1E
330
A1F
330
A20
330
9FF
330
A00
330
A03
330
A04
330
A05
330
A06
330
A07
330
A08
330
A09
330
A0A
102
}
330
A
100
AcDbSymbolTableRecord
100
AcDbDimStyleTableRecord
  2
Standard
 70
     0
 41
0.75
 42
0.375
140
0.75
271
     3
272
     3
340
11
  0
ENDTAB
  0
TABLE
  2
BLOCK_RECORD
  5
1
330
0
100
AcDbSymbolTable
 70
   110
  0
BLOCK_RECORD
  5
1F
330
1
100
AcDbSymbolTableRecord
100
AcDbBlockTableRecord
  2
*Model_Space
340
22
  0
BLOCK_RECORD
  5
58
330
1
100
AcDbSymbolTableRecord
100
AcDbBlockTableRecord
  2
*Paper_Space
340
59
  0
BLOCK_RECORD
  5
5D
330
1
100
AcDbSymbolTableRecord
100
AcDbBlockTableRecord
  2
*Paper_Space0
340
5E
  0
BLOCK_RECORD
  5
4EA
330
1
100
AcDbSymbolTableRecord
100
AcDbBlockTableRecord
  2
*D1
340
0
  0
BLOCK_RECORD
  5
4F4
330
1
100
AcDbSymbolTableRecord
100
AcDbBlockTableRecord
  2
*D2
340
0
  0
BLOCK_RECORD
  5
4FC
330
1
100
AcDbSymbolTableRecord
100
AcDbBlockTableRecord
  2
*D3
340
0
  0
BLOCK_RECORD
  5
504
330
1
100
AcDbSymbolTableRecord
100
AcDbBlockTableRecord
  2
*D4
340
0
  0
BLOCK_RECORD
  5
50C
330
1
100
AcDbSymbolTableRecord
100
AcDbBlockTableRecord
  2
*D5
340
0
  0
BLOCK_RECORD
  5
514
330
1
100
AcDbSymbolTableRecord
100
AcDbBlockTableRecord
  2
*D6
340
0
  0
BLOCK_RECORD
  5
51C
330
1
100
AcDbSymbolTableRecord
100
AcDbBlockTableRecord
  2
*D7
340
0
  0
BLOCK_RECORD
  5
524
330
1
100
AcDbSymbolTableRecord
100
AcDbBlockTableRecord
  2
*D8
340
0
  0
BLOCK_RECORD
  5
52C
330
1
100
AcDbSymbolTableRecord
100
AcDbBlockTableRecord
  2
*D9
340
0
  0
BLOCK_RECORD
  5
534
330
1
100
AcDbSymbolTableRecord
100
AcDbBlockTableRecord
  2
*D10
340
0
  0
BLOCK_RECORD
  5
545
330
1
100
AcDbSymbolTableRecord
100
AcDbBlockTableRecord
  2
*D11
340
0
  0
BLOCK_RECORD
  5
54D
330
1
100
AcDbSymbolTableRecord
100
AcDbBlockTableRecord
  2
*D12
340
0
  0
BLOCK_RECORD
  5
55A
330
1
100
AcDbSymbolTableRecord
100
AcDbBlockTableRecord
  2
*D13
340
0
  0
BLOCK_RECORD
  5
562
330
1
100
AcDbSymbolTableRecord
100
AcDbBlockTableRecord
  2
*D14
340
0
  0
BLOCK_RECORD
  5
56A
330
1
100
AcDbSymbolTableRecord
100
AcDbBlockTableRecord
  2
*D15
340
0
  0
BLOCK_RECORD
  5
574
330
1
100
AcDbSymbolTableRecord
100
AcDbBlockTableRecord
  2
*D16
340
0
  0
BLOCK_RECORD
  5
58D
330
1
100
AcDbSymbolTableRecord
100
AcDbBlockTableRecord
  2
*D17
340
0
  0
BLOCK_RECORD
  5
595
330
1
100
AcDbSymbolTableRecord
100
AcDbBlockTableRecord
  2
*D18
340
0
  0
BLOCK_RECORD
  5
59D
330
1
100
AcDbSymbolTableRecord
100
AcDbBlockTableRecord
  2
*D19
340
0
  0
BLOCK_RECORD
  5
5AA
330
1
100
AcDbSymbolTableRecord
100
AcDbBlockTableRecord
  2
*D20
340
0
  0
BLOCK_RECORD
  5
5B7
330
1
100
AcDbSymbolTableRecord
100
AcDbBlockTableRecord
  2
*D21
340
0
  0
BLOCK_RECORD
  5
5BF
330
1
100
AcDbSymbolTableRecord
100
AcDbBlockTableRecord
  2
*D22
340
0
  0
BLOCK_RECORD
  5
5C7
330
1
100
AcDbSymbolTableRecord
100
AcDbBlockTableRecord
  2
*D23
340
0
  0
BLOCK_RECORD
  5
617
330
1
100
AcDbSymbolTableRecord
100
AcDbBlockTableRecord
  2
*D24
340
0
  0
BLOCK_RECORD
  5
61F
330
1
100
AcDbSymbolTableRecord
100
AcDbBlockTableRecord
  2
*D25
340
0
  0
BLOCK_RECORD
  5
627
330
1
100
AcDbSymbolTableRecord
100
AcDbBlockTableRecord
  2
*D26
340
0
  0
BLOCK_RECORD
  5
62F
330
1
100
AcDbSymbolTableRecord
100
AcDbBlockTableRecord
  2
*D27
340
0
  0
BLOCK_RECORD
  5
637
330
1
100
AcDbSymbolTableRecord
100
AcDbBlockTableRecord
  2
*D28
340
0
  0
BLOCK_RECORD
  5
63F
330
1
100
AcDbSymbolTableRecord
100
AcDbBlockTableRecord
  2
*D29
340
0
  0
BLOCK_RECORD
  5
647
330
1
100
AcDbSymbolTableRecord
100
AcDbBlockTableRecord
  2
*D30
340
0
  0
BLOCK_RECORD
  5
64F
330
1
100
AcDbSymbolTableRecord
100
AcDbBlockTableRecord
  2
*D31
340
0
  0
BLOCK_RECORD
  5
657
330
1
100
AcDbSymbolTableRecord
100
AcDbBlockTableRecord
  2
*D32
340
0
  0
BLOCK_RECORD
  5
65F
330
1
100
AcDbSymbolTableRecord
100
AcDbBlockTableRecord
  2
*D33
340
0
  0
BLOCK_RECORD
  5
667
330
1
100
AcDbSymbolTableRecord
100
AcDbBlockTableRecord
  2
*D34
340
0
  0
BLOCK_RECORD
  5
66F
330
1
100
AcDbSymbolTableRecord
100
AcDbBlockTableRecord
  2
*D35
340
0
  0
BLOCK_RECORD
  5
677
330
1
100
AcDbSymbolTableRecord
100
AcDbBlockTableRecord
  2
*D36
340
0
  0
BLOCK_RECORD
  5
67F
330
1
100
AcDbSymbolTableRecord
100
AcDbBlockTableRecord
  2
*D37
340
0
  0
BLOCK_RECORD
  5
687
330
1
100
AcDbSymbolTableRecord
100
AcDbBlockTableRecord
  2
*D38
340
0
  0
BLOCK_RECORD
  5
68F
330
1
100
AcDbSymbolTableRecord
100
AcDbBlockTableRecord
  2
*D39
340
0
  0
BLOCK_RECORD
  5
699
330
1
100
AcDbSymbolTableRecord
100
AcDbBlockTableRecord
  2
*D40
340
0
  0
BLOCK_RECORD
  5
6A1
330
1
100
AcDbSymbolTableRecord
100
AcDbBlockTableRecord
  2
*D41
340
0
  0
BLOCK_RECORD
  5
6A9
330
1
100
AcDbSymbolTableRecord
100
AcDbBlockTableRecord
  2
*D42
340
0
  0
BLOCK_RECORD
  5
719
330
1
100
AcDbSymbolTableRecord
100
AcDbBlockTableRecord
  2
*D43
340
0
  0
BLOCK_RECORD
  5
721
330
1
100
AcDbSymbolTableRecord
100
AcDbBlockTableRecord
  2
*D44
340
0
  0
BLOCK_RECORD
  5
729
330
1
100
AcDbSymbolTableRecord
100
AcDbBlockTableRecord
  2
*D45
340
0
  0
BLOCK_RECORD
  5
731
330
1
100
AcDbSymbolTableRecord
100
AcDbBlockTableRecord
  2
*D46
340
0
  0
BLOCK_RECORD
  5
739
330
1
100
AcDbSymbolTableRecord
100
AcDbBlockTableRecord
  2
*D47
340
0
  0
BLOCK_RECORD
  5
741
330
1
100
AcDbSymbolTableRecord
100
AcDbBlockTableRecord
  2
*D48
340
0
  0
BLOCK_RECORD
  5
749
330
1
100
AcDbSymbolTableRecord
100
AcDbBlockTableRecord
  2
*D49
340
0
  0
BLOCK_RECORD
  5
753
330
1
100
AcDbSymbolTableRecord
100
AcDbBlockTableRecord
  2
*D50
340
0
  0
BLOCK_RECORD
  5
75B
330
1
100
AcDbSymbolTableRecord
100
AcDbBlockTableRecord
  2
*D51
340
0
  0
BLOCK_RECORD
  5
763
330
1
100
AcDbSymbolTableRecord
100
AcDbBlockTableRecord
  2
*D52
340
0
  0
BLOCK_RECORD
  5
76B
330
1
100
AcDbSymbolTableRecord
100
AcDbBlockTableRecord
  2
*D53
340
0
  0
BLOCK_RECORD
  5
773
330
1
100
AcDbSymbolTableRecord
100
AcDbBlockTableRecord
  2
*D54
340
0
  0
BLOCK_RECORD
  5
77B
330
1
100
AcDbSymbolTableRecord
100
AcDbBlockTableRecord
  2
*D55
340
0
  0
BLOCK_RECORD
  5
783
330
1
100
AcDbSymbolTableRecord
100
AcDbBlockTableRecord
  2
*D56
340
0
  0
BLOCK_RECORD
  5
78B
330
1
100
AcDbSymbolTableRecord
100
AcDbBlockTableRecord
  2
*D57
340
0
  0
BLOCK_RECORD
  5
793
330
1
100
AcDbSymbolTableRecord
100
AcDbBlockTableRecord
  2
*D58
340
0
  0
BLOCK_RECORD
  5
79B
330
1
100
AcDbSymbolTableRecord
100
AcDbBlockTableRecord
  2
*D59
340
0
  0
BLOCK_RECORD
  5
7A3
330
1
100
AcDbSymbolTableRecord
100
AcDbBlockTableRecord
  2
*D60
340
0
  0
BLOCK_RECORD
  5
7AB
330
1
100
AcDbSymbolTableRecord
100
AcDbBlockTableRecord
  2
*D61
340
0
  0
BLOCK_RECORD
  5
8FA
330
1
100
AcDbSymbolTableRecord
100
AcDbBlockTableRecord
  2
*D62
340
0
  0
BLOCK_RECORD
  5
902
330
1
100
AcDbSymbolTableRecord
100
AcDbBlockTableRecord
  2
*D63
340
0
  0
BLOCK_RECORD
  5
90A
330
1
100
AcDbSymbolTableRecord
100
AcDbBlockTableRecord
  2
*D64
340
0
  0
BLOCK_RECORD
  5
912
330
1
100
AcDbSymbolTableRecord
100
AcDbBlockTableRecord
  2
*D65
340
0
  0
BLOCK_RECORD
  5
91A
330
1
100
AcDbSymbolTableRecord
100
AcDbBlockTableRecord
  2
*D66
340
0
  0
BLOCK_RECORD
  5
922
330
1
100
AcDbSymbolTableRecord
100
AcDbBlockTableRecord
  2
*D67
340
0
  0
BLOCK_RECORD
  5
92A
330
1
100
AcDbSymbolTableRecord
100
AcDbBlockTableRecord
  2
*D68
340
0
  0
BLOCK_RECORD
  5
932
330
1
100
AcDbSymbolTableRecord
100
AcDbBlockTableRecord
  2
*D69
340
0
  0
BLOCK_RECORD
  5
93A
330
1
100
AcDbSymbolTableRecord
100
AcDbBlockTableRecord
  2
*D70
340
0
  0
BLOCK_RECORD
  5
942
330
1
100
AcDbSymbolTableRecord
100
AcDbBlockTableRecord
  2
*D71
340
0
  0
BLOCK_RECORD
  5
94A
330
1
100
AcDbSymbolTableRecord
100
AcDbBlockTableRecord
  2
*D72
340
0
  0
BLOCK_RECORD
  5
952
330
1
100
AcDbSymbolTableRecord
100
AcDbBlockTableRecord
  2
*D73
340
0
  0
BLOCK_RECORD
  5
95A
330
1
100
AcDbSymbolTableRecord
100
AcDbBlockTableRecord
  2
*D74
340
0
  0
BLOCK_RECORD
  5
962
330
1
100
AcDbSymbolTableRecord
100
AcDbBlockTableRecord
  2
*D75
340
0
  0
BLOCK_RECORD
  5
96A
330
1
100
AcDbSymbolTableRecord
100
AcDbBlockTableRecord
  2
*D76
340
0
  0
BLOCK_RECORD
  5
972
330
1
100
AcDbSymbolTableRecord
100
AcDbBlockTableRecord
  2
*D77
340
0
  0
BLOCK_RECORD
  5
97C
330
1
100
AcDbSymbolTableRecord
100
AcDbBlockTableRecord
  2
*D78
340
0
  0
BLOCK_RECORD
  5
984
330
1
100
AcDbSymbolTableRecord
100
AcDbBlockTableRecord
  2
*D79
340
0
  0
BLOCK_RECORD
  5
98C
330
1
100
AcDbSymbolTableRecord
100
AcDbBlockTableRecord
  2
*D80
340
0
  0
BLOCK_RECORD
  5
994
330
1
100
AcDbSymbolTableRecord
100
AcDbBlockTableRecord
  2
*D81
340
0
  0
BLOCK_RECORD
  5
99F
330
1
100
AcDbSymbolTableRecord
100
AcDbBlockTableRecord
  2
*D82
340
0
  0
BLOCK_RECORD
  5
9AA
330
1
100
AcDbSymbolTableRecord
100
AcDbBlockTableRecord
  2
*D83
340
0
  0
BLOCK_RECORD
  5
9B4
330
1
100
AcDbSymbolTableRecord
100
AcDbBlockTableRecord
  2
*D84
340
0
  0
BLOCK_RECORD
  5
9BC
330
1
100
AcDbSymbolTableRecord
100
AcDbBlockTableRecord
  2
*D85
340
0
  0
BLOCK_RECORD
  5
A2D
330
1
100
AcDbSymbolTableRecord
100
AcDbBlockTableRecord
  2
*D86
340
0
  0
BLOCK_RECORD
  5
A35
330
1
100
AcDbSymbolTableRecord
100
AcDbBlockTableRecord
  2
*D87
340
0
  0
BLOCK_RECORD
  5
A3D
330
1
100
AcDbSymbolTableRecord
100
AcDbBlockTableRecord
  2
*D88
340
0
  0
BLOCK_RECORD
  5
A45
330
1
100
AcDbSymbolTableRecord
100
AcDbBlockTableRecord
  2
*D89
340
0
  0
BLOCK_RECORD
  5
A4D
330
1
100
AcDbSymbolTableRecord
100
AcDbBlockTableRecord
  2
*D90
340
0
  0
BLOCK_RECORD
  5
A58
330
1
100
AcDbSymbolTableRecord
100
AcDbBlockTableRecord
  2
*D91
340
0
  0
BLOCK_RECORD
  5
A63
330
1
100
AcDbSymbolTableRecord
100
AcDbBlockTableRecord
  2
*D92
340
0
  0
BLOCK_RECORD
  5
A6B
330
1
100
AcDbSymbolTableRecord
100
AcDbBlockTableRecord
  2
*D93
340
0
  0
BLOCK_RECORD
  5
A73
330
1
100
AcDbSymbolTableRecord
100
AcDbBlockTableRecord
  2
*D94
340
0
  0
BLOCK_RECORD
  5
A7B
330
1
100
AcDbSymbolTableRecord
100
AcDbBlockTableRecord
  2
*D95
340
0
  0
BLOCK_RECORD
  5
A83
330
1
100
AcDbSymbolTableRecord
100
AcDbBlockTableRecord
  2
*D96
340
0
  0
BLOCK_RECORD
  5
A8B
330
1
100
AcDbSymbolTableRecord
100
AcDbBlockTableRecord
  2
*D97
340
0
  0
BLOCK_RECORD
  5
A95
330
1
100
AcDbSymbolTableRecord
100
AcDbBlockTableRecord
  2
*D98
340
0
  0
BLOCK_RECORD
  5
A9D
330
1
100
AcDbSymbolTableRecord
100
AcDbBlockTableRecord
  2
*D99
340
0
  0
BLOCK_RECORD
  5
AA5
330
1
100
AcDbSymbolTableRecord
100
AcDbBlockTableRecord
  2
*D100
340
0
  0
BLOCK_RECORD
  5
AB0
330
1
100
AcDbSymbolTableRecord
100
AcDbBlockTableRecord
  2
*D101
340
0
  0
BLOCK_RECORD
  5
AB8
330
1
100
AcDbSymbolTableRecord
100
AcDbBlockTableRecord
  2
*D102
340
0
  0
BLOCK_RECORD
  5
AC0
330
1
100
AcDbSymbolTableRecord
100
AcDbBlockTableRecord
  2
*D103
340
0
  0
BLOCK_RECORD
  5
AC8
330
1
100
AcDbSymbolTableRecord
100
AcDbBlockTableRecord
  2
*D104
340
0
  0
BLOCK_RECORD
  5
AD0
330
1
100
AcDbSymbolTableRecord
100
AcDbBlockTableRecord
  2
*D105
340
0
  0
BLOCK_RECORD
  5
AD8
330
1
100
AcDbSymbolTableRecord
100
AcDbBlockTableRecord
  2
*D106
340
0
  0
BLOCK_RECORD
  5
AE0
330
1
100
AcDbSymbolTableRecord
100
AcDbBlockTableRecord
  2
*D107
340
0
  0
BLOCK_RECORD
  5
AE8
330
1
100
AcDbSymbolTableRecord
100
AcDbBlockTableRecord
  2
*D108
340
0
  0
BLOCK_RECORD
  5
AF2
330
1
100
AcDbSymbolTableRecord
100
AcDbBlockTableRecord
  2
*D109
340
0
  0
ENDTAB
  0
ENDSEC
  0
SECTION
  2
BLOCKS
  0
BLOCK
  5
20
330
1F
100
AcDbEntity
  8
0
100
AcDbBlockBegin
  2
*Model_Space
 70
     0
 10
0.0
 20
0.0
 30
0.0
  3
*Model_Space
  1

  0
ENDBLK
  5
21
330
1F
100
AcDbEntity
  8
0
100
AcDbBlockEnd
  0
BLOCK
  5
5A
330
58
100
AcDbEntity
 67
     1
  8
0
100
AcDbBlockBegin
  2
*Paper_Space
 70
     0
 10
0.0
 20
0.0
 30
0.0
  3
*Paper_Space
  1

  0
ENDBLK
  5
5B
330
58
100
AcDbEntity
 67
     1
  8
0
100
AcDbBlockEnd
  0
BLOCK
  5
5F
330
5D
100
AcDbEntity
  8
0
100
AcDbBlockBegin
  2
*Paper_Space0
 70
     0
 10
0.0
 20
0.0
 30
0.0
  3
*Paper_Space0
  1

  0
ENDBLK
  5
60
330
5D
100
AcDbEntity
  8
0
100
AcDbBlockEnd
  0
BLOCK
  5
4F2
330
4EA
100
AcDbEntity
  8
0
100
AcDbBlockBegin
  2
*D1
 70
     1
 10
0.0
 20
0.0
 30
0.0
  3
*D1
  1

  0
LINE
  5
53E
330
4EA
100
AcDbEntity
  8
0
 62
     0
370
    -2
100
AcDbLine
 10
30.83509156475005
 20
32.69510689085283
 30
0.0
 11
37.0997950595142
 21
32.69510689085283
 31
0.0
  0
LINE
  5
53F
330
4EA
100
AcDbEntity
  8
0
 62
     0
370
    -2
100
AcDbLine
 10
37.0997950595142
 20
32.69510689085283
 30
0.0
 11
38.5997950595142
 21
31.14946040961945
 31
0.0
  0
LINE
  5
540
330
4EA
100
AcDbEntity
  8
0
 62
     0
370
    -2
100
AcDbLine
 10
38.5997950595142
 20
31.14946040961945
 30
0.0
 11
40.09979505951418
 21
31.14946040961945
 31
0.0
  0
MTEXT
  5
541
330
4EA
100
AcDbEntity
  8
0
 62
     0
100
AcDbMText
 10
41.93979505951419
 20
31.14946040961945
 30
0.0
 40
0.75
 41
0.0
 71
     5
 72
     1
  1
\A1;12.365
 73
     1
 44
1.0
1001
ACAD
1000
MTEXTBEGIN
1070
    73
1070
     1
1070
    44
1040
1.0
1070
    74
1070
     0
1000
MTEXTEND
  0
POINT
  5
542
330
4EA
100
AcDbEntity
  8
Defpoints
 62
     0
100
AcDbPoint
 10
30.46009156475005
 20
32.69510689085283
 30
0.0
  0
POINT
  5
543
330
4EA
100
AcDbEntity
  8
Defpoints
 62
     0
100
AcDbPoint
 10
40.09979505951418
 20
31.14946040961945
 30
0.0
  0
POINT
  5
544
330
4EA
100
AcDbEntity
  8
Defpoints
 62
     0
100
AcDbPoint
 10
24.87911543869947
 20
20.33008620661473
 30
0.0
  0
ENDBLK
  5
4F3
330
4EA
100
AcDbEntity
  8
0
100
AcDbBlockEnd
  0
BLOCK
  5
4FA
330
4F4
100
AcDbEntity
  8
0
100
AcDbBlockBegin
  2
*D2
 70
     1
 10
0.0
 20
0.0
 30
0.0
  3
*D2
  1

  0
LINE
  5
555
330
4F4
100
AcDbEntity
  8
DIMENSION
 62
     0
370
    -2
100
AcDbLine
 10
27.63409156475014
 20
42.51210689085289
 30
0.0
 11
27.63409156475014
 21
45.58010689085274
 31
0.0
  0
MTEXT
  5
556
330
4F4
100
AcDbEntity
  8
DIMENSION
 62
     0
100
AcDbMText
 10
27.63409156475014
 20
47.17010689085276
 30
0.0
 40
0.75
 41
0.0
 71
     5
 72
     1
  1
\A1;2.755
 11
0.0000000000000001
 21
1.0
 31
0.0
 73
     1
 44
1.0
1001
ACAD
1000
MTEXTBEGIN
1070
    73
1070
     1
1070
    44
1040
1.0
1070
    74
1070
     0
1000
MTEXTEND
  0
POINT
  5
557
330
4F4
100
AcDbEntity
  8
Defpoints
 62
     0
100
AcDbPoint
 10
27.63409156475014
 20
42.13710689085289
 30
0.0
  0
POINT
  5
558
330
4F4
100
AcDbEntity
  8
Defpoints
 62
     0
100
AcDbPoint
 10
27.63409156475014
 20
45.58010689085274
 30
0.0
  0
POINT
  5
559
330
4F4
100
AcDbEntity
  8
Defpoints
 62
     0
100
AcDbPoint
 10
24.87911543869947
 20
20.33008620661473
 30
0.0
  0
ENDBLK
  5
4FB
330
4F4
100
AcDbEntity
  8
0
100
AcDbBlockEnd
  0
BLOCK
  5
502
330
4FC
100
AcDbEntity
  8
0
100
AcDbBlockBegin
  2
*D3
 70
     1
 10
0.0
 20
0.0
 30
0.0
  3
*D3
  1

  0
LINE
  5
57E
330
4FC
100
AcDbEntity
  8
DIMENSION
 62
     0
370
    -2
100
AcDbLine
 10
25.33409156474996
 20
42.51210689085289
 30
0.0
 11
25.33409156474996
 21
45.58010689085274
 31
0.0
  0
MTEXT
  5
57F
330
4FC
100
AcDbEntity
  8
DIMENSION
 62
     0
100
AcDbMText
 10
25.33409156474995
 20
47.10760689085279
 30
0.0
 40
0.75
 41
0.0
 71
     5
 72
     1
  1
\A1;0.455
 11
0.0000000000000001
 21
1.0
 31
0.0
 73
     1
 44
1.0
1001
ACAD
1000
MTEXTBEGIN
1070
    73
1070
     1
1070
    44
1040
1.0
1070
    74
1070
     0
1000
MTEXTEND
  0
POINT
  5
580
330
4FC
100
AcDbEntity
  8
Defpoints
 62
     0
100
AcDbPoint
 10
25.33409156474996
 20
42.1371068908529
 30
0.0
  0
POINT
  5
581
330
4FC
100
AcDbEntity
  8
Defpoints
 62
     0
100
AcDbPoint
 10
25.33409156474996
 20
45.58010689085274
 30
0.0
  0
POINT
  5
582
330
4FC
100
AcDbEntity
  8
Defpoints
 62
     0
100
AcDbPoint
 10
24.87911543869947
 20
20.33008620661473
 30
0.0
  0
ENDBLK
  5
503
330
4FC
100
AcDbEntity
  8
0
100
AcDbBlockEnd
  0
BLOCK
  5
50A
330
504
100
AcDbEntity
  8
0
100
AcDbBlockBegin
  2
*D4
 70
     1
 10
0.0
 20
0.0
 30
0.0
  3
*D4
  1

  0
LINE
  5
583
330
504
100
AcDbEntity
  8
DIMENSION
 62
     0
370
    -2
100
AcDbLine
 10
24.95909156474996
 20
42.1371068908529
 30
0.0
 11
21.87909156475026
 21
42.1371068908529
 31
0.0
  0
MTEXT
  5
584
330
504
100
AcDbEntity
  8
DIMENSION
 62
     0
100
AcDbMText
 10
20.10159156475026
 20
42.1371068908529
 30
0.0
 40
0.75
 41
0.0
 71
     5
 72
     1
  1
\A1;21.807
 73
     1
 44
1.0
1001
ACAD
1000
MTEXTBEGIN
1070
    73
1070
     1
1070
    44
1040
1.0
1070
    74
1070
     0
1000
MTEXTEND
  0
POINT
  5
585
330
504
100
AcDbEntity
  8
Defpoints
 62
     0
100
AcDbPoint
 10
25.33409156474996
 20
42.1371068908529
 30
0.0
  0
POINT
  5
586
330
504
100
AcDbEntity
  8
Defpoints
 62
     0
100
AcDbPoint
 10
21.87909156475026
 20
42.1371068908529
 30
0.0
  0
POINT
  5
587
330
504
100
AcDbEntity
  8
Defpoints
 62
     0
100
AcDbPoint
 10
24.87911543869947
 20
20.33008620661473
 30
0.0
  0
ENDBLK
  5
50B
330
504
100
AcDbEntity
  8
0
100
AcDbBlockEnd
  0
BLOCK
  5
512
330
50C
100
AcDbEntity
  8
0
100
AcDbBlockBegin
  2
*D5
 70
     1
 10
0.0
 20
0.0
 30
0.0
  3
*D5
  1

  0
LINE
  5
588
330
50C
100
AcDbEntity
  8
DIMENSION
 62
     0
370
    -2
100
AcDbLine
 10
36.76409156475024
 20
42.58010689085277
 30
0.0
 11
39.38909156475025
 21
42.58010689085277
 31
0.0
  0
MTEXT
  5
589
330
50C
100
AcDbEntity
  8
DIMENSION
 62
     0
100
AcDbMText
 10
41.29159156475025
 20
42.58010689085277
 30
0.0
 40
0.75
 41
0.0
 71
     5
 72
     1
  1
\A1;22.250
 73
     1
 44
1.0
1001
ACAD
1000
MTEXTBEGIN
1070
    73
1070
     1
1070
    44
1040
1.0
1070
    74
1070
     0
1000
MTEXTEND
  0
POINT
  5
58A
330
50C
100
AcDbEntity
  8
Defpoints
 62
     0
100
AcDbPoint
 10
36.38909156475025
 20
42.58010689085277
 30
0.0
  0
POINT
  5
58B
330
50C
100
AcDbEntity
  8
Defpoints
 62
     0
100
AcDbPoint
 10
39.38909156475025
 20
42.58010689085277
 30
0.0
  0
POINT
  5
58C
330
50C
100
AcDbEntity
  8
Defpoints
 62
     0
100
AcDbPoint
 10
24.87911543869947
 20
20.33008620661473
 30
0.0
  0
ENDBLK
  5
513
330
50C
100
AcDbEntity
  8
0
100
AcDbBlockEnd
  0
BLOCK
  5
51A
330
514
100
AcDbEntity
  8
0
100
AcDbBlockBegin
  2
*D6
 70
     1
 10
0.0
 20
0.0
 30
0.0
  3
*D6
  1

  0
LINE
  5
5A5
330
514
100
AcDbEntity
  8
DIMENSION
 62
     0
370
    -2
100
AcDbLine
 10
24.95909156474996
 20
36.61210689085282
 30
0.0
 11
21.87909156475026
 21
36.61210689085282
 31
0.0
  0
MTEXT
  5
5A6
330
514
100
AcDbEntity
  8
DIMENSION
 62
     0
100
AcDbMText
 10
20.03909156475026
 20
36.61210689085282
 30
0.0
 40
0.75
 41
0.0
 71
     5
 72
     1
  1
\A1;16.282
 73
     1
 44
1.0
1001
ACAD
1000
MTEXTBEGIN
1070
    73
1070
     1
1070
    44
1040
1.0
1070
    74
1070
     0
1000
MTEXTEND
  0
POINT
  5
5A7
330
514
100
AcDbEntity
  8
Defpoints
 62
     0
100
AcDbPoint
 10
25.33409156474996
 20
36.61210689085282
 30
0.0
  0
POINT
  5
5A8
330
514
100
AcDbEntity
  8
Defpoints
 62
     0
100
AcDbPoint
 10
21.87909156475026
 20
36.61210689085282
 30
0.0
  0
POINT
  5
5A9
330
514
100
AcDbEntity
  8
Defpoints
 62
     0
100
AcDbPoint
 10
24.87911543869947
 20
20.33008620661473
 30
0.0
  0
ENDBLK
  5
51B
330
514
100
AcDbEntity
  8
0
100
AcDbBlockEnd
  0
BLOCK
  5
522
330
51C
100
AcDbEntity
  8
0
100
AcDbBlockBegin
  2
*D7
 70
     1
 10
0.0
 20
0.0
 30
0.0
  3
*D7
  1

  0
LINE
  5
5B2
330
51C
100
AcDbEntity
  8
DIMENSION
 62
     0
370
    -2
100
AcDbLine
 10
36.38909156475025
 20
19.95510689085277
 30
0.0
 11
36.38909156475025
 21
17.33010689085288
 31
0.0
  0
MTEXT
  5
5B3
330
51C
100
AcDbEntity
  8
DIMENSION
 62
     0
100
AcDbMText
 10
36.38909156475025
 20
15.80260689085289
 30
0.0
 40
0.75
 41
0.0
 71
     5
 72
     1
  1
\A1;11.510
 11
0.0000000000000001
 21
1.0
 31
0.0
 73
     1
 44
1.0
1001
ACAD
1000
MTEXTBEGIN
1070
    73
1070
     1
1070
    44
1040
1.0
1070
    74
1070
     0
1000
MTEXTEND
  0
POINT
  5
5B4
330
51C
100
AcDbEntity
  8
Defpoints
 62
     0
100
AcDbPoint
 10
36.38909156475025
 20
20.33010689085277
 30
0.0
  0
POINT
  5
5B5
330
51C
100
AcDbEntity
  8
Defpoints
 62
     0
100
AcDbPoint
 10
36.38909156475025
 20
17.33010689085288
 30
0.0
  0
POINT
  5
5B6
330
51C
100
AcDbEntity
  8
Defpoints
 62
     0
100
AcDbPoint
 10
24.87911543869947
 20
20.33008620661473
 30
0.0
  0
ENDBLK
  5
523
330
51C
100
AcDbEntity
  8
0
100
AcDbBlockEnd
  0
BLOCK
  5
52A
330
524
100
AcDbEntity
  8
0
100
AcDbBlockBegin
  2
*D8
 70
     1
 10
0.0
 20
0.0
 30
0.0
  3
*D8
  1

  0
LINE
  5
5CF
330
524
100
AcDbEntity
  8
DIMENSION
 62
     0
370
    -2
100
AcDbLine
 10
24.87909156475026
 20
19.95510689085277
 30
0.0
 11
24.87909156475026
 21
17.33010689085288
 31
0.0
  0
MTEXT
  5
5D0
330
524
100
AcDbEntity
  8
DIMENSION
 62
     0
100
AcDbMText
 10
24.87909156475025
 20
15.99010689085289
 30
0.0
 40
0.75
 41
0.0
 71
     5
 72
     1
  1
\A1;0.000
 11
0.0000000000000001
 21
1.0
 31
0.0
 73
     1
 44
1.0
1001
ACAD
1000
MTEXTBEGIN
1070
    73
1070
     1
1070
    44
1040
1.0
1070
    74
1070
     0
1000
MTEXTEND
  0
POINT
  5
5D1
330
524
100
AcDbEntity
  8
Defpoints
 62
     0
100
AcDbPoint
 10
24.87909156475026
 20
20.33010689085277
 30
0.0
  0
POINT
  5
5D2
330
524
100
AcDbEntity
  8
Defpoints
 62
     0
100
AcDbPoint
 10
24.87909156475026
 20
17.33010689085288
 30
0.0
  0
POINT
  5
5D3
330
524
100
AcDbEntity
  8
Defpoints
 62
     0
100
AcDbPoint
 10
24.87911543869947
 20
20.33008620661473
 30
0.0
  0
ENDBLK
  5
52B
330
524
100
AcDbEntity
  8
0
100
AcDbBlockEnd
  0
BLOCK
  5
532
330
52C
100
AcDbEntity
  8
0
100
AcDbBlockBegin
  2
*D9
 70
     1
 10
0.0
 20
0.0
 30
0.0
  3
*D9
  1

  0
LINE
  5
5D4
330
52C
100
AcDbEntity
  8
DIMENSION
 62
     0
370
    -2
100
AcDbLine
 10
24.50409156475026
 20
20.33010689085277
 30
0.0
 11
21.87909156475026
 21
20.33010689085277
 31
0.0
  0
MTEXT
  5
5D5
330
52C
100
AcDbEntity
  8
DIMENSION
 62
     0
100
AcDbMText
 10
20.53909156475026
 20
20.33010689085277
 30
0.0
 40
0.75
 41
0.0
 71
     5
 72
     1
  1
\A1;0.000
 73
     1
 44
1.0
1001
ACAD
1000
MTEXTBEGIN
1070
    73
1070
     1
1070
    44
1040
1.0
1070
    74
1070
     0
1000
MTEXTEND
  0
POINT
  5
5D6
330
52C
100
AcDbEntity
  8
Defpoints
 62
     0
100
AcDbPoint
 10
24.87909156475026
 20
20.33010689085277
 30
0.0
  0
POINT
  5
5D7
330
52C
100
AcDbEntity
  8
Defpoints
 62
     0
100
AcDbPoint
 10
21.87909156475026
 20
20.33010689085277
 30
0.0
  0
POINT
  5
5D8
330
52C
100
AcDbEntity
  8
Defpoints
 62
     0
100
AcDbPoint
 10
24.87911543869947
 20
20.33008620661473
 30
0.0
  0
ENDBLK
  5
533
330
52C
100
AcDbEntity
  8
0
100
AcDbBlockEnd
  0
BLOCK
  5
53C
330
534
100
AcDbEntity
  8
0
100
AcDbBlockBegin
  2
*D10
 70
     1
 10
0.0
 20
0.0
 30
0.0
  3
*D10
  1

  0
LINE
  5
535
330
534
100
AcDbEntity
  8
0
 62
     0
370
    -2
100
AcDbLine
 10
32.96009156475005
 20
33.07010689085283
 30
0.0
 11
32.96009156475005
 21
20.23381494302031
 31
0.0
  0
LINE
  5
536
330
534
100
AcDbEntity
  8
0
 62
     0
370
    -2
100
AcDbLine
 10
32.96009156475005
 20
20.23381494302031
 30
0.0
 11
32.29125662289082
 21
18.73381494302031
 31
0.0
  0
LINE
  5
537
330
534
100
AcDbEntity
  8
0
 62
     0
370
    -2
100
AcDbLine
 10
32.29125662289082
 20
18.73381494302031
 30
0.0
 11
32.29125662289082
 21
17.23381494302031
 31
0.0
  0
MTEXT
  5
538
330
534
100
AcDbEntity
  8
0
 62
     0
100
AcDbMText
 10
32.29125662289082
 20
15.83131494302032
 30
0.0
 40
0.75
 41
0.0
 71
     5
 72
     1
  1
\A1;8.081
 11
0.0000000000000001
 21
1.0
 31
0.0
 73
     1
 44
1.0
1001
ACAD
1000
MTEXTBEGIN
1070
    73
1070
     1
1070
    44
1040
1.0
1070
    74
1070
     0
1000
MTEXTEND
  0
POINT
  5
539
330
534
100
AcDbEntity
  8
Defpoints
 62
     0
100
AcDbPoint
 10
32.96009156475005
 20
33.44510689085284
 30
0.0
  0
POINT
  5
53A
330
534
100
AcDbEntity
  8
Defpoints
 62
     0
100
AcDbPoint
 10
32.29125662289082
 20
17.23381494302031
 30
0.0
  0
POINT
  5
53B
330
534
100
AcDbEntity
  8
Defpoints
 62
     0
100
AcDbPoint
 10
24.87911543869947
 20
20.33008620661473
 30
0.0
  0
ENDBLK
  5
53D
330
534
100
AcDbEntity
  8
0
100
AcDbBlockEnd
  0
BLOCK
  5
54B
330
545
100
AcDbEntity
  8
0
100
AcDbBlockBegin
  2
*D11
 70
     1
 10
0.0
 20
0.0
 30
0.0
  3
*D11
  1

  0
LINE
  5
546
330
545
100
AcDbEntity
  8
DIMENSION
 62
     0
370
    -2
100
AcDbLine
 10
30.08509156475005
 20
31.19510689085283
 30
0.0
 11
21.87909156475026
 21
31.19510689085283
 31
0.0
  0
MTEXT
  5
547
330
545
100
AcDbEntity
  8
DIMENSION
 62
     0
100
AcDbMText
 10
20.10159156475026
 20
31.19510689085283
 30
0.0
 40
0.75
 41
0.0
 71
     5
 72
     1
  1
\A1;10.865
 73
     1
 44
1.0
1001
ACAD
1000
MTEXTBEGIN
1070
    73
1070
     1
1070
    44
1040
1.0
1070
    74
1070
     0
1000
MTEXTEND
  0
POINT
  5
548
330
545
100
AcDbEntity
  8
Defpoints
 62
     0
100
AcDbPoint
 10
30.46009156475005
 20
31.19510689085283
 30
0.0
  0
POINT
  5
549
330
545
100
AcDbEntity
  8
Defpoints
 62
     0
100
AcDbPoint
 10
21.87909156475026
 20
31.19510689085283
 30
0.0
  0
POINT
  5
54A
330
545
100
AcDbEntity
  8
Defpoints
 62
     0
100
AcDbPoint
 10
24.87911543869947
 20
20.33008620661473
 30
0.0
  0
ENDBLK
  5
54C
330
545
100
AcDbEntity
  8
0
100
AcDbBlockEnd
  0
BLOCK
  5
553
330
54D
100
AcDbEntity
  8
0
100
AcDbBlockBegin
  2
*D12
 70
     1
 10
0.0
 20
0.0
 30
0.0
  3
*D12
  1

  0
LINE
  5
54E
330
54D
100
AcDbEntity
  8
0
 62
     0
370
    -2
100
AcDbLine
 10
30.46009156475005
 20
30.82010689085283
 30
0.0
 11
30.46009156475005
 21
17.0137956724506
 31
0.0
  0
MTEXT
  5
54F
330
54D
100
AcDbEntity
  8
0
 62
     0
100
AcDbMText
 10
30.46009156475005
 20
15.54879567245061
 30
0.0
 40
0.75
 41
0.0
 71
     5
 72
     1
  1
\A1;5.581
 11
0.0000000000000001
 21
1.0
 31
0.0
 73
     1
 44
1.0
1001
ACAD
1000
MTEXTBEGIN
1070
    73
1070
     1
1070
    44
1040
1.0
1070
    74
1070
     0
1000
MTEXTEND
  0
POINT
  5
550
330
54D
100
AcDbEntity
  8
Defpoints
 62
     0
100
AcDbPoint
 10
30.46009156475005
 20
31.19510689085283
 30
0.0
  0
POINT
  5
551
330
54D
100
AcDbEntity
  8
Defpoints
 62
     0
100
AcDbPoint
 10
30.46009156475005
 20
17.0137956724506
 30
0.0
  0
POINT
  5
552
330
54D
100
AcDbEntity
  8
Defpoints
 62
     0
100
AcDbPoint
 10
24.87911543869947
 20
20.33008620661473
 30
0.0
  0
ENDBLK
  5
554
330
54D
100
AcDbEntity
  8
0
100
AcDbBlockEnd
  0
BLOCK
  5
560
330
55A
100
AcDbEntity
  8
0
100
AcDbBlockBegin
  2
*D13
 70
     1
 10
0.0
 20
0.0
 30
0.0
  3
*D13
  1

  0
LINE
  5
55B
330
55A
100
AcDbEntity
  8
DIMENSION
 62
     0
370
    -2
100
AcDbLine
 10
29.31009156475007
 20
39.41110689085279
 30
0.0
 11
29.31009156475007
 21
45.58010689085274
 31
0.0
  0
MTEXT
  5
55C
330
55A
100
AcDbEntity
  8
DIMENSION
 62
     0
100
AcDbMText
 10
29.31009156475007
 20
47.04510689085277
 30
0.0
 40
0.75
 41
0.0
 71
     5
 72
     1
  1
\A1;4.431
 11
0.0000000000000001
 21
1.0
 31
0.0
 73
     1
 44
1.0
1001
ACAD
1000
MTEXTBEGIN
1070
    73
1070
     1
1070
    44
1040
1.0
1070
    74
1070
     0
1000
MTEXTEND
  0
POINT
  5
55D
330
55A
100
AcDbEntity
  8
Defpoints
 62
     0
100
AcDbPoint
 10
29.31009156475007
 20
39.03610689085279
 30
0.0
  0
POINT
  5
55E
330
55A
100
AcDbEntity
  8
Defpoints
 62
     0
100
AcDbPoint
 10
29.31009156475007
 20
45.58010689085274
 30
0.0
  0
POINT
  5
55F
330
55A
100
AcDbEntity
  8
Defpoints
 62
     0
100
AcDbPoint
 10
24.87911543869947
 20
20.33008620661473
 30
0.0
  0
ENDBLK
  5
561
330
55A
100
AcDbEntity
  8
0
100
AcDbBlockEnd
  0
BLOCK
  5
568
330
562
100
AcDbEntity
  8
0
100
AcDbBlockBegin
  2
*D14
 70
     1
 10
0.0
 20
0.0
 30
0.0
  3
*D14
  1

  0
LINE
  5
563
330
562
100
AcDbEntity
  8
DIMENSION
 62
     0
370
    -2
100
AcDbLine
 10
36.06009156475007
 20
41.88010689085284
 30
0.0
 11
36.06009156475007
 21
45.58010689085274
 31
0.0
  0
MTEXT
  5
564
330
562
100
AcDbEntity
  8
DIMENSION
 62
     0
100
AcDbMText
 10
36.06009156475006
 20
47.04510689085277
 30
0.0
 40
0.75
 41
0.0
 71
     5
 72
     1
  1
\A1;11.181
 11
0.0000000000000001
 21
1.0
 31
0.0
 73
     1
 44
1.0
1001
ACAD
1000
MTEXTBEGIN
1070
    73
1070
     1
1070
    44
1040
1.0
1070
    74
1070
     0
1000
MTEXTEND
  0
POINT
  5
565
330
562
100
AcDbEntity
  8
Defpoints
 62
     0
100
AcDbPoint
 10
36.06009156475007
 20
41.50510689085281
 30
0.0
  0
POINT
  5
566
330
562
100
AcDbEntity
  8
Defpoints
 62
     0
100
AcDbPoint
 10
36.06009156475007
 20
45.58010689085274
 30
0.0
  0
POINT
  5
567
330
562
100
AcDbEntity
  8
Defpoints
 62
     0
100
AcDbPoint
 10
24.87911543869947
 20
20.33008620661473
 30
0.0
  0
ENDBLK
  5
569
330
562
100
AcDbEntity
  8
0
100
AcDbBlockEnd
  0
BLOCK
  5
572
330
56A
100
AcDbEntity
  8
0
100
AcDbBlockBegin
  2
*D15
 70
     1
 10
0.0
 20
0.0
 30
0.0
  3
*D15
  1

  0
LINE
  5
56B
330
56A
100
AcDbEntity
  8
DIMENSION
 62
     0
370
    -2
100
AcDbLine
 10
35.68509156475007
 20
39.41110689085279
 30
0.0
 11
35.68509156475007
 21
42.58010689085275
 31
0.0
  0
LINE
  5
56C
330
56A
100
AcDbEntity
  8
DIMENSION
 62
     0
370
    -2
100
AcDbLine
 10
35.68509156475007
 20
42.58010689085275
 30
0.0
 11
34.68509156475007
 21
44.08010689085275
 31
0.0
  0
LINE
  5
56D
330
56A
100
AcDbEntity
  8
DIMENSION
 62
     0
370
    -2
100
AcDbLine
 10
34.68509156475007
 20
44.08010689085275
 30
0.0
 11
34.68509156475007
 21
45.58010689085274
 31
0.0
  0
MTEXT
  5
56E
330
56A
100
AcDbEntity
  8
DIMENSION
 62
     0
100
AcDbMText
 10
34.68509156475005
 20
47.29510689085276
 30
0.0
 40
0.75
 41
0.0
 71
     5
 72
     1
  1
\A1;10.806
 11
0.0000000000000001
 21
1.0
 31
0.0
 73
     1
 44
1.0
1001
ACAD
1000
MTEXTBEGIN
1070
    73
1070
     1
1070
    44
1040
1.0
1070
    74
1070
     0
1000
MTEXTEND
  0
POINT
  5
56F
330
56A
100
AcDbEntity
  8
Defpoints
 62
     0
100
AcDbPoint
 10
35.68509156475007
 20
39.03610689085279
 30
0.0
  0
POINT
  5
570
330
56A
100
AcDbEntity
  8
Defpoints
 62
     0
100
AcDbPoint
 10
34.68509156475007
 20
45.58010689085274
 30
0.0
  0
POINT
  5
571
330
56A
100
AcDbEntity
  8
Defpoints
 62
     0
100
AcDbPoint
 10
24.87911543869947
 20
20.33008620661473
 30
0.0
  0
ENDBLK
  5
573
330
56A
100
AcDbEntity
  8
0
100
AcDbBlockEnd
  0
BLOCK
  5
57C
330
574
100
AcDbEntity
  8
0
100
AcDbBlockBegin
  2
*D16
 70
     1
 10
0.0
 20
0.0
 30
0.0
  3
*D16
  1

  0
LINE
  5
575
330
574
100
AcDbEntity
  8
DIMENSION
 62
     0
370
    -2
100
AcDbLine
 10
25.21009156475016
 20
41.88010689085284
 30
0.0
 11
25.21009156475016
 21
43.00510689085283
 31
0.0
  0
LINE
  5
576
330
574
100
AcDbEntity
  8
DIMENSION
 62
     0
370
    -2
100
AcDbLine
 10
25.21009156475016
 20
43.00510689085283
 30
0.0
 11
24.21009156475016
 21
44.08010689085275
 31
0.0
  0
LINE
  5
577
330
574
100
AcDbEntity
  8
DIMENSION
 62
     0
370
    -2
100
AcDbLine
 10
24.21009156475016
 20
44.08010689085275
 30
0.0
 11
24.21009156475016
 21
45.58010689085274
 31
0.0
  0
MTEXT
  5
578
330
574
100
AcDbEntity
  8
DIMENSION
 62
     0
100
AcDbMText
 10
24.21009156475016
 20
46.98260689085278
 30
0.0
 40
0.75
 41
0.0
 71
     5
 72
     1
  1
\A1;0.331
 11
0.0000000000000001
 21
1.0
 31
0.0
 73
     1
 44
1.0
1001
ACAD
1000
MTEXTBEGIN
1070
    73
1070
     1
1070
    44
1040
1.0
1070
    74
1070
     0
1000
MTEXTEND
  0
POINT
  5
579
330
574
100
AcDbEntity
  8
Defpoints
 62
     0
100
AcDbPoint
 10
25.21009156475016
 20
41.50510689085281
 30
0.0
  0
POINT
  5
57A
330
574
100
AcDbEntity
  8
Defpoints
 62
     0
100
AcDbPoint
 10
24.21009156475016
 20
45.58010689085274
 30
0.0
  0
POINT
  5
57B
330
574
100
AcDbEntity
  8
Defpoints
 62
     0
100
AcDbPoint
 10
24.87911543869947
 20
20.33008620661473
 30
0.0
  0
ENDBLK
  5
57D
330
574
100
AcDbEntity
  8
0
100
AcDbBlockEnd
  0
BLOCK
  5
593
330
58D
100
AcDbEntity
  8
0
100
AcDbBlockBegin
  2
*D17
 70
     1
 10
0.0
 20
0.0
 30
0.0
  3
*D17
  1

  0
LINE
  5
58E
330
58D
100
AcDbEntity
  8
DIMENSION
 62
     0
370
    -2
100
AcDbLine
 10
36.43509156475007
 20
41.50510689085281
 30
0.0
 11
39.38909156475025
 21
41.50510689085281
 31
0.0
  0
MTEXT
  5
58F
330
58D
100
AcDbEntity
  8
DIMENSION
 62
     0
100
AcDbMText
 10
41.10409156475024
 20
41.50510689085281
 30
0.0
 40
0.75
 41
0.0
 71
     5
 72
     1
  1
\A1;21.175
 73
     1
 44
1.0
1001
ACAD
1000
MTEXTBEGIN
1070
    73
1070
     1
1070
    44
1040
1.0
1070
    74
1070
     0
1000
MTEXTEND
  0
POINT
  5
590
330
58D
100
AcDbEntity
  8
Defpoints
 62
     0
100
AcDbPoint
 10
36.06009156475007
 20
41.50510689085281
 30
0.0
  0
POINT
  5
591
330
58D
100
AcDbEntity
  8
Defpoints
 62
     0
100
AcDbPoint
 10
39.38909156475025
 20
41.50510689085281
 30
0.0
  0
POINT
  5
592
330
58D
100
AcDbEntity
  8
Defpoints
 62
     0
100
AcDbPoint
 10
24.87911543869947
 20
20.33008620661473
 30
0.0
  0
ENDBLK
  5
594
330
58D
100
AcDbEntity
  8
0
100
AcDbBlockEnd
  0
BLOCK
  5
59B
330
595
100
AcDbEntity
  8
0
100
AcDbBlockBegin
  2
*D18
 70
     1
 10
0.0
 20
0.0
 30
0.0
  3
*D18
  1

  0
LINE
  5
596
330
595
100
AcDbEntity
  8
DIMENSION
 62
     0
370
    -2
100
AcDbLine
 10
32.49709156474998
 20
39.41110689085279
 30
0.0
 11
32.49709156474998
 21
45.58010689085274
 31
0.0
  0
MTEXT
  5
597
330
595
100
AcDbEntity
  8
DIMENSION
 62
     0
100
AcDbMText
 10
32.49709156474996
 20
47.04510689085277
 30
0.0
 40
0.75
 41
0.0
 71
     5
 72
     1
  1
\A1;7.618
 11
0.0000000000000001
 21
1.0
 31
0.0
 73
     1
 44
1.0
1001
ACAD
1000
MTEXTBEGIN
1070
    73
1070
     1
1070
    44
1040
1.0
1070
    74
1070
     0
1000
MTEXTEND
  0
POINT
  5
598
330
595
100
AcDbEntity
  8
Defpoints
 62
     0
100
AcDbPoint
 10
32.49709156474998
 20
39.03610689085279
 30
0.0
  0
POINT
  5
599
330
595
100
AcDbEntity
  8
Defpoints
 62
     0
100
AcDbPoint
 10
32.49709156474998
 20
45.58010689085274
 30
0.0
  0
POINT
  5
59A
330
595
100
AcDbEntity
  8
Defpoints
 62
     0
100
AcDbPoint
 10
24.87911543869947
 20
20.33008620661473
 30
0.0
  0
ENDBLK
  5
59C
330
595
100
AcDbEntity
  8
0
100
AcDbBlockEnd
  0
BLOCK
  5
5A3
330
59D
100
AcDbEntity
  8
0
100
AcDbBlockBegin
  2
*D19
 70
     1
 10
0.0
 20
0.0
 30
0.0
  3
*D19
  1

  0
LINE
  5
59E
330
59D
100
AcDbEntity
  8
DIMENSION
 62
     0
370
    -2
100
AcDbLine
 10
36.06009156475007
 20
39.03610689085279
 30
0.0
 11
39.38909156475025
 21
39.03610689085279
 31
0.0
  0
MTEXT
  5
59F
330
59D
100
AcDbEntity
  8
DIMENSION
 62
     0
100
AcDbMText
 10
41.16659156475025
 20
39.03610689085279
 30
0.0
 40
0.75
 41
0.0
 71
     5
 72
     1
  1
\A1;18.706
 73
     1
 44
1.0
1001
ACAD
1000
MTEXTBEGIN
1070
    73
1070
     1
1070
    44
1040
1.0
1070
    74
1070
     0
1000
MTEXTEND
  0
POINT
  5
5A0
330
59D
100
AcDbEntity
  8
Defpoints
 62
     0
100
AcDbPoint
 10
35.68509156475007
 20
39.03610689085279
 30
0.0
  0
POINT
  5
5A1
330
59D
100
AcDbEntity
  8
Defpoints
 62
     0
100
AcDbPoint
 10
39.38909156475025
 20
39.03610689085279
 30
0.0
  0
POINT
  5
5A2
330
59D
100
AcDbEntity
  8
Defpoints
 62
     0
100
AcDbPoint
 10
24.87911543869947
 20
20.33008620661473
 30
0.0
  0
ENDBLK
  5
5A4
330
59D
100
AcDbEntity
  8
0
100
AcDbBlockEnd
  0
BLOCK
  5
5B0
330
5AA
100
AcDbEntity
  8
0
100
AcDbBlockBegin
  2
*D20
 70
     1
 10
0.0
 20
0.0
 30
0.0
  3
*D20
  1

  0
LINE
  5
5AB
330
5AA
100
AcDbEntity
  8
DIMENSION
 62
     0
370
    -2
100
AcDbLine
 10
26.83409156474996
 20
33.43010689085279
 30
0.0
 11
21.87909156475026
 21
33.43010689085279
 31
0.0
  0
MTEXT
  5
5AC
330
5AA
100
AcDbEntity
  8
DIMENSION
 62
     0
100
AcDbMText
 10
20.28909156475026
 20
33.43010689085279
 30
0.0
 40
0.75
 41
0.0
 71
     5
 72
     1
  1
\A1;13.100
 73
     1
 44
1.0
1001
ACAD
1000
MTEXTBEGIN
1070
    73
1070
     1
1070
    44
1040
1.0
1070
    74
1070
     0
1000
MTEXTEND
  0
POINT
  5
5AD
330
5AA
100
AcDbEntity
  8
Defpoints
 62
     0
100
AcDbPoint
 10
27.20909156474996
 20
33.43010689085279
 30
0.0
  0
POINT
  5
5AE
330
5AA
100
AcDbEntity
  8
Defpoints
 62
     0
100
AcDbPoint
 10
21.87909156475026
 20
33.43010689085279
 30
0.0
  0
POINT
  5
5AF
330
5AA
100
AcDbEntity
  8
Defpoints
 62
     0
100
AcDbPoint
 10
24.87911543869947
 20
20.33008620661473
 30
0.0
  0
ENDBLK
  5
5B1
330
5AA
100
AcDbEntity
  8
0
100
AcDbBlockEnd
  0
BLOCK
  5
5BD
330
5B7
100
AcDbEntity
  8
0
100
AcDbBlockBegin
  2
*D21
 70
     1
 10
0.0
 20
0.0
 30
0.0
  3
*D21
  1

  0
LINE
  5
5B8
330
5B7
100
AcDbEntity
  8
DIMENSION
 62
     0
370
    -2
100
AcDbLine
 10
34.05909156475009
 20
27.05510689085279
 30
0.0
 11
34.05909156475009
 21
17.33010689085288
 31
0.0
  0
MTEXT
  5
5B9
330
5B7
100
AcDbEntity
  8
DIMENSION
 62
     0
100
AcDbMText
 10
34.05909156475008
 20
15.92760689085289
 30
0.0
 40
0.75
 41
0.0
 71
     5
 72
     1
  1
\A1;9.180
 11
0.0000000000000001
 21
1.0
 31
0.0
 73
     1
 44
1.0
1001
ACAD
1000
MTEXTBEGIN
1070
    73
1070
     1
1070
    44
1040
1.0
1070
    74
1070
     0
1000
MTEXTEND
  0
POINT
  5
5BA
330
5B7
100
AcDbEntity
  8
Defpoints
 62
     0
100
AcDbPoint
 10
34.05909156475009
 20
27.43010689085279
 30
0.0
  0
POINT
  5
5BB
330
5B7
100
AcDbEntity
  8
Defpoints
 62
     0
100
AcDbPoint
 10
34.05909156475009
 20
17.33010689085288
 30
0.0
  0
POINT
  5
5BC
330
5B7
100
AcDbEntity
  8
Defpoints
 62
     0
100
AcDbPoint
 10
24.87911543869947
 20
20.33008620661473
 30
0.0
  0
ENDBLK
  5
5BE
330
5B7
100
AcDbEntity
  8
0
100
AcDbBlockEnd
  0
BLOCK
  5
5C5
330
5BF
100
AcDbEntity
  8
0
100
AcDbBlockBegin
  2
*D22
 70
     1
 10
0.0
 20
0.0
 30
0.0
  3
*D22
  1

  0
LINE
  5
5C0
330
5BF
100
AcDbEntity
  8
DIMENSION
 62
     0
370
    -2
100
AcDbLine
 10
27.20909156475018
 20
27.05510689085279
 30
0.0
 11
27.20909156475018
 21
17.33010689085288
 31
0.0
  0
MTEXT
  5
5C1
330
5BF
100
AcDbEntity
  8
DIMENSION
 62
     0
100
AcDbMText
 10
27.20909156475018
 20
15.80260689085289
 30
0.0
 40
0.75
 41
0.0
 71
     5
 72
     1
  1
\A1;2.330
 11
0.0000000000000001
 21
1.0
 31
0.0
 73
     1
 44
1.0
1001
ACAD
1000
MTEXTBEGIN
1070
    73
1070
     1
1070
    44
1040
1.0
1070
    74
1070
     0
1000
MTEXTEND
  0
POINT
  5
5C2
330
5BF
100
AcDbEntity
  8
Defpoints
 62
     0
100
AcDbPoint
 10
27.20909156475018
 20
27.43010689085279
 30
0.0
  0
POINT
  5
5C3
330
5BF
100
AcDbEntity
  8
Defpoints
 62
     0
100
AcDbPoint
 10
27.20909156475018
 20
17.33010689085288
 30
0.0
  0
POINT
  5
5C4
330
5BF
100
AcDbEntity
  8
Defpoints
 62
     0
100
AcDbPoint
 10
24.87911543869947
 20
20.33008620661473
 30
0.0
  0
ENDBLK
  5
5C6
330
5BF
100
AcDbEntity
  8
0
100
AcDbBlockEnd
  0
BLOCK
  5
5CD
330
5C7
100
AcDbEntity
  8
0
100
AcDbBlockBegin
  2
*D23
 70
     1
 10
0.0
 20
0.0
 30
0.0
  3
*D23
  1

  0
LINE
  5
5C8
330
5C7
100
AcDbEntity
  8
DIMENSION
 62
     0
370
    -2
100
AcDbLine
 10
26.83409156475019
 20
27.43010689085279
 30
0.0
 11
21.87909156475026
 21
27.43010689085279
 31
0.0
  0
MTEXT
  5
5C9
330
5C7
100
AcDbEntity
  8
DIMENSION
 62
     0
100
AcDbMText
 10
20.53909156475026
 20
27.43010689085279
 30
0.0
 40
0.75
 41
0.0
 71
     5
 72
     1
  1
\A1;7.100
 73
     1
 44
1.0
1001
ACAD
1000
MTEXTBEGIN
1070
    73
1070
     1
1070
    44
1040
1.0
1070
    74
1070
     0
1000
MTEXTEND
  0
POINT
  5
5CA
330
5C7
100
AcDbEntity
  8
Defpoints
 62
     0
100
AcDbPoint
 10
27.20909156475018
 20
27.43010689085279
 30
0.0
  0
POINT
  5
5CB
330
5C7
100
AcDbEntity
  8
Defpoints
 62
     0
100
AcDbPoint
 10
21.87909156475026
 20
27.43010689085279
 30
0.0
  0
POINT
  5
5CC
330
5C7
100
AcDbEntity
  8
Defpoints
 62
     0
100
AcDbPoint
 10
24.87911543869947
 20
20.33008620661473
 30
0.0
  0
ENDBLK
  5
5CE
330
5C7
100
AcDbEntity
  8
0
100
AcDbBlockEnd
  0
BLOCK
  5
618
330
617
100
AcDbEntity
  8
0
100
AcDbBlockBegin
  2
*D24
 70
     1
 10
0.0
 20
0.0
 30
0.0
  3
*D24
  1

  0
LINE
  5
619
330
617
100
AcDbEntity
  8
DIMENSION
 62
     0
370
    -2
100
AcDbLine
 10
-38.2410224821654
 20
-29.09857875897344
 30
0.0
 11
-40.86602248216546
 21
-29.09857875897344
 31
0.0
  0
MTEXT
  5
61A
330
617
100
AcDbEntity
  8
DIMENSION
 62
     0
100
AcDbMText
 10
-42.49102248216547
 20
-29.09857875897344
 30
0.0
 40
0.75
 41
0.0
 71
     5
 72
     1
  1
\A1;0.000
 73
     1
 44
1.0
1001
ACAD
1000
MTEXTBEGIN
1070
    73
1070
     1
1070
    44
1040
1.0
1070
    74
1070
     0
1000
MTEXTEND
  0
POINT
  5
61B
330
617
100
AcDbEntity
  8
Defpoints
 62
     0
100
AcDbPoint
 10
-37.86602248216541
 20
-29.09857875897344
 30
0.0
  0
POINT
  5
61C
330
617
100
AcDbEntity
  8
Defpoints
 62
     0
100
AcDbPoint
 10
-40.86602248216546
 20
-29.09857875897344
 30
0.0
  0
POINT
  5
61D
330
617
100
AcDbEntity
  8
Defpoints
 62
     0
100
AcDbPoint
 10
-37.86602940646385
 20
-29.09855659487872
 30
0.0
  0
ENDBLK
  5
61E
330
617
100
AcDbEntity
  8
0
100
AcDbBlockEnd
  0
BLOCK
  5
620
330
61F
100
AcDbEntity
  8
0
100
AcDbBlockBegin
  2
*D25
 70
     1
 10
0.0
 20
0.0
 30
0.0
  3
*D25
  1

  0
LINE
  5
621
330
61F
100
AcDbEntity
  8
DIMENSION
 62
     0
370
    -2
100
AcDbLine
 10
-37.86602248216541
 20
-29.47357875897344
 30
0.0
 11
-37.86602248216541
 21
-32.09857875897344
 31
0.0
  0
MTEXT
  5
622
330
61F
100
AcDbEntity
  8
DIMENSION
 62
     0
100
AcDbMText
 10
-37.86602248216541
 20
-33.72357875897345
 30
0.0
 40
0.75
 41
0.0
 71
     5
 72
     1
  1
\A1;0.000
 11
0.0000000000000001
 21
1.0
 31
0.0
 73
     1
 44
1.0
1001
ACAD
1000
MTEXTBEGIN
1070
    73
1070
     1
1070
    44
1040
1.0
1070
    74
1070
     0
1000
MTEXTEND
  0
POINT
  5
623
330
61F
100
AcDbEntity
  8
Defpoints
 62
     0
100
AcDbPoint
 10
-37.86602248216541
 20
-29.09857875897344
 30
0.0
  0
POINT
  5
624
330
61F
100
AcDbEntity
  8
Defpoints
 62
     0
100
AcDbPoint
 10
-37.86602248216541
 20
-32.09857875897344
 30
0.0
  0
POINT
  5
625
330
61F
100
AcDbEntity
  8
Defpoints
 62
     0
100
AcDbPoint
 10
-37.86602940646385
 20
-29.09855659487872
 30
0.0
  0
ENDBLK
  5
626
330
61F
100
AcDbEntity
  8
0
100
AcDbBlockEnd
  0
BLOCK
  5
628
330
627
100
AcDbEntity
  8
0
100
AcDbBlockBegin
  2
*D26
 70
     1
 10
0.0
 20
0.0
 30
0.0
  3
*D26
  1

  0
LINE
  5
629
330
627
100
AcDbEntity
  8
DIMENSION
 62
     0
370
    -2
100
AcDbLine
 10
-37.49002248216544
 20
-23.72307875897357
 30
0.0
 11
-40.86602248216546
 21
-23.72307875897357
 31
0.0
  0
MTEXT
  5
62A
330
627
100
AcDbEntity
  8
DIMENSION
 62
     0
100
AcDbMText
 10
-42.74102248216546
 20
-23.72307875897357
 30
0.0
 40
0.75
 41
0.0
 71
     5
 72
     1
  1
\A1;5.375
 73
     1
 44
1.0
1001
ACAD
1000
MTEXTBEGIN
1070
    73
1070
     1
1070
    44
1040
1.0
1070
    74
1070
     0
1000
MTEXTEND
  0
POINT
  5
62B
330
627
100
AcDbEntity
  8
Defpoints
 62
     0
100
AcDbPoint
 10
-37.11502248216544
 20
-23.72307875897357
 30
0.0
  0
POINT
  5
62C
330
627
100
AcDbEntity
  8
Defpoints
 62
     0
100
AcDbPoint
 10
-40.86602248216546
 20
-23.72307875897357
 30
0.0
  0
POINT
  5
62D
330
627
100
AcDbEntity
  8
Defpoints
 62
     0
100
AcDbPoint
 10
-37.86602940646385
 20
-29.09855659487872
 30
0.0
  0
ENDBLK
  5
62E
330
627
100
AcDbEntity
  8
0
100
AcDbBlockEnd
  0
BLOCK
  5
630
330
62F
100
AcDbEntity
  8
0
100
AcDbBlockBegin
  2
*D27
 70
     1
 10
0.0
 20
0.0
 30
0.0
  3
*D27
  1

  0
LINE
  5
631
330
62F
100
AcDbEntity
  8
DIMENSION
 62
     0
370
    -2
100
AcDbLine
 10
-32.49002248216545
 20
-17.59857875897344
 30
0.0
 11
-28.36602248216554
 21
-17.59857875897344
 31
0.0
  0
MTEXT
  5
632
330
62F
100
AcDbEntity
  8
DIMENSION
 62
     0
100
AcDbMText
 10
-26.49102248216554
 20
-17.59857875897344
 30
0.0
 40
0.75
 41
0.0
 71
     5
 72
     1
  1
\A1;11.500
 73
     1
 44
1.0
1001
ACAD
1000
MTEXTBEGIN
1070
    73
1070
     1
1070
    44
1040
1.0
1070
    74
1070
     0
1000
MTEXTEND
  0
POINT
  5
633
330
62F
100
AcDbEntity
  8
Defpoints
 62
     0
100
AcDbPoint
 10
-32.86502248216545
 20
-17.59857875897344
 30
0.0
  0
POINT
  5
634
330
62F
100
AcDbEntity
  8
Defpoints
 62
     0
100
AcDbPoint
 10
-28.36602248216554
 20
-17.59857875897344
 30
0.0
  0
POINT
  5
635
330
62F
100
AcDbEntity
  8
Defpoints
 62
     0
100
AcDbPoint
 10
-37.86602940646385
 20
-29.09855659487872
 30
0.0
  0
ENDBLK
  5
636
330
62F
100
AcDbEntity
  8
0
100
AcDbBlockEnd
  0
BLOCK
  5
638
330
637
100
AcDbEntity
  8
0
100
AcDbBlockBegin
  2
*D28
 70
     1
 10
0.0
 20
0.0
 30
0.0
  3
*D28
  1

  0
LINE
  5
639
330
637
100
AcDbEntity
  8
DIMENSION
 62
     0
370
    -2
100
AcDbLine
 10
-37.49002248216544
 20
-13.72307875897356
 30
0.0
 11
-40.86602248216546
 21
-13.72307875897356
 31
0.0
  0
MTEXT
  5
63A
330
637
100
AcDbEntity
  8
DIMENSION
 62
     0
100
AcDbMText
 10
-42.99102248216547
 20
-13.72307875897356
 30
0.0
 40
0.75
 41
0.0
 71
     5
 72
     1
  1
\A1;15.375
 73
     1
 44
1.0
1001
ACAD
1000
MTEXTBEGIN
1070
    73
1070
     1
1070
    44
1040
1.0
1070
    74
1070
     0
1000
MTEXTEND
  0
POINT
  5
63B
330
637
100
AcDbEntity
  8
Defpoints
 62
     0
100
AcDbPoint
 10
-37.11502248216544
 20
-13.72307875897356
 30
0.0
  0
POINT
  5
63C
330
637
100
AcDbEntity
  8
Defpoints
 62
     0
100
AcDbPoint
 10
-40.86602248216546
 20
-13.72307875897356
 30
0.0
  0
POINT
  5
63D
330
637
100
AcDbEntity
  8
Defpoints
 62
     0
100
AcDbPoint
 10
-37.86602940646385
 20
-29.09855659487872
 30
0.0
  0
ENDBLK
  5
63E
330
637
100
AcDbEntity
  8
0
100
AcDbBlockEnd
  0
BLOCK
  5
640
330
63F
100
AcDbEntity
  8
0
100
AcDbBlockBegin
  2
*D29
 70
     1
 10
0.0
 20
0.0
 30
0.0
  3
*D29
  1

  0
LINE
  5
641
330
63F
100
AcDbEntity
  8
DIMENSION
 62
     0
370
    -2
100
AcDbLine
 10
-36.28302248216544
 20
-12.93357875897347
 30
0.0
 11
-36.28302248216544
 21
-32.09857875897344
 31
0.0
  0
MTEXT
  5
642
330
63F
100
AcDbEntity
  8
DIMENSION
 62
     0
100
AcDbMText
 10
-36.28302248216544
 20
-33.84857875897345
 30
0.0
 40
0.75
 41
0.0
 71
     5
 72
     1
  1
\A1;1.583
 11
0.0000000000000001
 21
1.0
 31
0.0
 73
     1
 44
1.0
1001
ACAD
1000
MTEXTBEGIN
1070
    73
1070
     1
1070
    44
1040
1.0
1070
    74
1070
     0
1000
MTEXTEND
  0
POINT
  5
643
330
63F
100
AcDbEntity
  8
Defpoints
 62
     0
100
AcDbPoint
 10
-36.28302248216544
 20
-12.55857875897347
 30
0.0
  0
POINT
  5
644
330
63F
100
AcDbEntity
  8
Defpoints
 62
     0
100
AcDbPoint
 10
-36.28302248216544
 20
-32.09857875897344
 30
0.0
  0
POINT
  5
645
330
63F
100
AcDbEntity
  8
Defpoints
 62
     0
100
AcDbPoint
 10
-37.86602940646385
 20
-29.09855659487872
 30
0.0
  0
ENDBLK
  5
646
330
63F
100
AcDbEntity
  8
0
100
AcDbBlockEnd
  0
BLOCK
  5
648
330
647
100
AcDbEntity
  8
0
100
AcDbBlockBegin
  2
*D30
 70
     1
 10
0.0
 20
0.0
 30
0.0
  3
*D30
  1

  0
LINE
  5
649
330
647
100
AcDbEntity
  8
DIMENSION
 62
     0
370
    -2
100
AcDbLine
 10
-31.8330224821654
 20
-12.93357875897347
 30
0.0
 11
-31.8330224821654
 21
-32.09857875897344
 31
0.0
  0
MTEXT
  5
64A
330
647
100
AcDbEntity
  8
DIMENSION
 62
     0
100
AcDbMText
 10
-31.8330224821654
 20
-33.91107875897346
 30
0.0
 40
0.75
 41
0.0
 71
     5
 72
     1
  1
\A1;6.033
 11
0.0000000000000001
 21
1.0
 31
0.0
 73
     1
 44
1.0
1001
ACAD
1000
MTEXTBEGIN
1070
    73
1070
     1
1070
    44
1040
1.0
1070
    74
1070
     0
1000
MTEXTEND
  0
POINT
  5
64B
330
647
100
AcDbEntity
  8
Defpoints
 62
     0
100
AcDbPoint
 10
-31.8330224821654
 20
-12.55857875897347
 30
0.0
  0
POINT
  5
64C
330
647
100
AcDbEntity
  8
Defpoints
 62
     0
100
AcDbPoint
 10
-31.8330224821654
 20
-32.09857875897344
 30
0.0
  0
POINT
  5
64D
330
647
100
AcDbEntity
  8
Defpoints
 62
     0
100
AcDbPoint
 10
-37.86602940646385
 20
-29.09855659487872
 30
0.0
  0
ENDBLK
  5
64E
330
647
100
AcDbEntity
  8
0
100
AcDbBlockEnd
  0
BLOCK
  5
650
330
64F
100
AcDbEntity
  8
0
100
AcDbBlockBegin
  2
*D31
 70
     1
 10
0.0
 20
0.0
 30
0.0
  3
*D31
  1

  0
LINE
  5
651
330
64F
100
AcDbEntity
  8
DIMENSION
 62
     0
370
    -2
100
AcDbLine
 10
-31.4580224821654
 20
-12.55857875897347
 30
0.0
 11
-28.36602248216554
 21
-12.55857875897347
 31
0.0
  0
MTEXT
  5
652
330
64F
100
AcDbEntity
  8
DIMENSION
 62
     0
100
AcDbMText
 10
-26.30352248216553
 20
-12.55857875897347
 30
0.0
 40
0.75
 41
0.0
 71
     5
 72
     1
  1
\A1;16.540
 73
     1
 44
1.0
1001
ACAD
1000
MTEXTBEGIN
1070
    73
1070
     1
1070
    44
1040
1.0
1070
    74
1070
     0
1000
MTEXTEND
  0
POINT
  5
653
330
64F
100
AcDbEntity
  8
Defpoints
 62
     0
100
AcDbPoint
 10
-31.8330224821654
 20
-12.55857875897347
 30
0.0
  0
POINT
  5
654
330
64F
100
AcDbEntity
  8
Defpoints
 62
     0
100
AcDbPoint
 10
-28.36602248216554
 20
-12.55857875897347
 30
0.0
  0
POINT
  5
655
330
64F
100
AcDbEntity
  8
Defpoints
 62
     0
100
AcDbPoint
 10
-37.86602940646385
 20
-29.09855659487872
 30
0.0
  0
ENDBLK
  5
656
330
64F
100
AcDbEntity
  8
0
100
AcDbBlockEnd
  0
BLOCK
  5
658
330
657
100
AcDbEntity
  8
0
100
AcDbBlockBegin
  2
*D32
 70
     1
 10
0.0
 20
0.0
 30
0.0
  3
*D32
  1

  0
LINE
  5
659
330
657
100
AcDbEntity
  8
DIMENSION
 62
     0
370
    -2
100
AcDbLine
 10
-31.45802248216546
 20
-7.033578758973725
 30
0.0
 11
-28.36602248216554
 21
-7.033578758973725
 31
0.0
  0
MTEXT
  5
65A
330
657
100
AcDbEntity
  8
DIMENSION
 62
     0
100
AcDbMText
 10
-26.17852248216554
 20
-7.033578758973725
 30
0.0
 40
0.75
 41
0.0
 71
     5
 72
     1
  1
\A1;22.065
 73
     1
 44
1.0
1001
ACAD
1000
MTEXTBEGIN
1070
    73
1070
     1
1070
    44
1040
1.0
1070
    74
1070
     0
1000
MTEXTEND
  0
POINT
  5
65B
330
657
100
AcDbEntity
  8
Defpoints
 62
     0
100
AcDbPoint
 10
-31.83302248216545
 20
-7.033578758973725
 30
0.0
  0
POINT
  5
65C
330
657
100
AcDbEntity
  8
Defpoints
 62
     0
100
AcDbPoint
 10
-28.36602248216554
 20
-7.033578758973725
 30
0.0
  0
POINT
  5
65D
330
657
100
AcDbEntity
  8
Defpoints
 62
     0
100
AcDbPoint
 10
-37.86602940646385
 20
-29.09855659487872
 30
0.0
  0
ENDBLK
  5
65E
330
657
100
AcDbEntity
  8
0
100
AcDbBlockEnd
  0
BLOCK
  5
660
330
65F
100
AcDbEntity
  8
0
100
AcDbBlockBegin
  2
*D33
 70
     1
 10
0.0
 20
0.0
 30
0.0
  3
*D33
  1

  0
LINE
  5
661
330
65F
100
AcDbEntity
  8
DIMENSION
 62
     0
370
    -2
100
AcDbLine
 10
-37.49002248216544
 20
-5.973078758973564
 30
0.0
 11
-40.86602248216546
 21
-5.973078758973564
 31
0.0
  0
MTEXT
  5
662
330
65F
100
AcDbEntity
  8
DIMENSION
 62
     0
100
AcDbMText
 10
-42.99102248216547
 20
-5.973078758973564
 30
0.0
 40
0.75
 41
0.0
 71
     5
 72
     1
  1
\A1;23.125
 73
     1
 44
1.0
1001
ACAD
1000
MTEXTBEGIN
1070
    73
1070
     1
1070
    44
1040
1.0
1070
    74
1070
     0
1000
MTEXTEND
  0
POINT
  5
663
330
65F
100
AcDbEntity
  8
Defpoints
 62
     0
100
AcDbPoint
 10
-37.11502248216544
 20
-5.973078758973564
 30
0.0
  0
POINT
  5
664
330
65F
100
AcDbEntity
  8
Defpoints
 62
     0
100
AcDbPoint
 10
-40.86602248216546
 20
-5.973078758973564
 30
0.0
  0
POINT
  5
665
330
65F
100
AcDbEntity
  8
Defpoints
 62
     0
100
AcDbPoint
 10
-37.86602940646385
 20
-29.09855659487872
 30
0.0
  0
ENDBLK
  5
666
330
65F
100
AcDbEntity
  8
0
100
AcDbBlockEnd
  0
BLOCK
  5
668
330
667
100
AcDbEntity
  8
0
100
AcDbBlockBegin
  2
*D34
 70
     1
 10
0.0
 20
0.0
 30
0.0
  3
*D34
  1

  0
LINE
  5
669
330
667
100
AcDbEntity
  8
DIMENSION
 62
     0
370
    -2
100
AcDbLine
 10
-34.24002248216544
 20
-2.828578758973455
 30
0.0
 11
-28.36602248216554
 21
-2.828578758973455
 31
0.0
  0
MTEXT
  5
66A
330
667
100
AcDbEntity
  8
DIMENSION
 62
     0
100
AcDbMText
 10
-26.17852248216554
 20
-2.828578758973455
 30
0.0
 40
0.75
 41
0.0
 71
     5
 72
     1
  1
\A1;26.270
 73
     1
 44
1.0
1001
ACAD
1000
MTEXTBEGIN
1070
    73
1070
     1
1070
    44
1040
1.0
1070
    74
1070
     0
1000
MTEXTEND
  0
POINT
  5
66B
330
667
100
AcDbEntity
  8
Defpoints
 62
     0
100
AcDbPoint
 10
-34.61502248216544
 20
-2.828578758973455
 30
0.0
  0
POINT
  5
66C
330
667
100
AcDbEntity
  8
Defpoints
 62
     0
100
AcDbPoint
 10
-28.36602248216554
 20
-2.828578758973455
 30
0.0
  0
POINT
  5
66D
330
667
100
AcDbEntity
  8
Defpoints
 62
     0
100
AcDbPoint
 10
-37.86602940646385
 20
-29.09855659487872
 30
0.0
  0
ENDBLK
  5
66E
330
667
100
AcDbEntity
  8
0
100
AcDbBlockEnd
  0
BLOCK
  5
670
330
66F
100
AcDbEntity
  8
0
100
AcDbBlockBegin
  2
*D35
 70
     1
 10
0.0
 20
0.0
 30
0.0
  3
*D35
  1

  0
LINE
  5
671
330
66F
100
AcDbEntity
  8
DIMENSION
 62
     0
370
    -2
100
AcDbLine
 10
-37.49002248216544
 20
0.0264212410265613
 30
0.0
 11
-40.86602248216546
 21
0.0264212410265613
 31
0.0
  0
MTEXT
  5
672
330
66F
100
AcDbEntity
  8
DIMENSION
 62
     0
100
AcDbMText
 10
-42.99102248216547
 20
0.0264212410265613
 30
0.0
 40
0.75
 41
0.0
 71
     5
 72
     1
  1
\A1;29.125
 73
     1
 44
1.0
1001
ACAD
1000
MTEXTBEGIN
1070
    73
1070
     1
1070
    44
1040
1.0
1070
    74
1070
     0
1000
MTEXTEND
  0
POINT
  5
673
330
66F
100
AcDbEntity
  8
Defpoints
 62
     0
100
AcDbPoint
 10
-37.11502248216544
 20
0.0264212410265613
 30
0.0
  0
POINT
  5
674
330
66F
100
AcDbEntity
  8
Defpoints
 62
     0
100
AcDbPoint
 10
-40.86602248216546
 20
0.0264212410265613
 30
0.0
  0
POINT
  5
675
330
66F
100
AcDbEntity
  8
Defpoints
 62
     0
100
AcDbPoint
 10
-37.86602940646385
 20
-29.09855659487872
 30
0.0
  0
ENDBLK
  5
676
330
66F
100
AcDbEntity
  8
0
100
AcDbBlockEnd
  0
BLOCK
  5
678
330
677
100
AcDbEntity
  8
0
100
AcDbBlockBegin
  2
*D36
 70
     1
 10
0.0
 20
0.0
 30
0.0
  3
*D36
  1

  0
LINE
  5
679
330
677
100
AcDbEntity
  8
DIMENSION
 62
     0
370
    -2
100
AcDbLine
 10
-30.99102248216547
 20
0.9014212410266747
 30
0.0
 11
-28.36602248216554
 21
0.9014212410266747
 31
0.0
  0
MTEXT
  5
67A
330
677
100
AcDbEntity
  8
DIMENSION
 62
     0
100
AcDbMText
 10
-26.36602248216553
 20
0.9014212410266747
 30
0.0
 40
0.75
 41
0.0
 71
     5
 72
     1
  1
\A1;30.000
 73
     1
 44
1.0
1001
ACAD
1000
MTEXTBEGIN
1070
    73
1070
     1
1070
    44
1040
1.0
1070
    74
1070
     0
1000
MTEXTEND
  0
POINT
  5
67B
330
677
100
AcDbEntity
  8
Defpoints
 62
     0
100
AcDbPoint
 10
-31.36602248216547
 20
0.9014212410266747
 30
0.0
  0
POINT
  5
67C
330
677
100
AcDbEntity
  8
Defpoints
 62
     0
100
AcDbPoint
 10
-28.36602248216554
 20
0.9014212410266747
 30
0.0
  0
POINT
  5
67D
330
677
100
AcDbEntity
  8
Defpoints
 62
     0
100
AcDbPoint
 10
-37.86602940646385
 20
-29.09855659487872
 30
0.0
  0
ENDBLK
  5
67E
330
677
100
AcDbEntity
  8
0
100
AcDbBlockEnd
  0
BLOCK
  5
680
330
67F
100
AcDbEntity
  8
0
100
AcDbBlockBegin
  2
*D37
 70
     1
 10
0.0
 20
0.0
 30
0.0
  3
*D37
  1

  0
LINE
  5
681
330
67F
100
AcDbEntity
  8
DIMENSION
 62
     0
370
    -2
100
AcDbLine
 10
-37.11502248216544
 20
0.4014212410265614
 30
0.0
 11
-37.11502248216544
 21
3.901421241026568
 31
0.0
  0
MTEXT
  5
682
330
67F
100
AcDbEntity
  8
DIMENSION
 62
     0
100
AcDbMText
 10
-37.11502248216544
 20
5.651421241026562
 30
0.0
 40
0.75
 41
0.0
 71
     5
 72
     1
  1
\A1;0.750
 11
0.0000000000000001
 21
1.0
 31
0.0
 73
     1
 44
1.0
1001
ACAD
1000
MTEXTBEGIN
1070
    73
1070
     1
1070
    44
1040
1.0
1070
    74
1070
     0
1000
MTEXTEND
  0
POINT
  5
683
330
67F
100
AcDbEntity
  8
Defpoints
 62
     0
100
AcDbPoint
 10
-37.11502248216544
 20
0.0264212410265613
 30
0.0
  0
POINT
  5
684
330
67F
100
AcDbEntity
  8
Defpoints
 62
     0
100
AcDbPoint
 10
-37.11502248216544
 20
3.901421241026568
 30
0.0
  0
POINT
  5
685
330
67F
100
AcDbEntity
  8
Defpoints
 62
     0
100
AcDbPoint
 10
-37.86602940646385
 20
-29.09855659487872
 30
0.0
  0
ENDBLK
  5
686
330
67F
100
AcDbEntity
  8
0
100
AcDbBlockEnd
  0
BLOCK
  5
688
330
687
100
AcDbEntity
  8
0
100
AcDbBlockBegin
  2
*D38
 70
     1
 10
0.0
 20
0.0
 30
0.0
  3
*D38
  1

  0
LINE
  5
689
330
687
100
AcDbEntity
  8
DIMENSION
 62
     0
370
    -2
100
AcDbLine
 10
-34.61502248216544
 20
-2.453578758973455
 30
0.0
 11
-34.61502248216544
 21
3.901421241026561
 31
0.0
  0
MTEXT
  5
68A
330
687
100
AcDbEntity
  8
DIMENSION
 62
     0
100
AcDbMText
 10
-34.61502248216544
 20
5.713921241026556
 30
0.0
 40
0.75
 41
0.0
 71
     5
 72
     1
  1
\A1;3.250
 11
0.0000000000000001
 21
1.0
 31
0.0
 73
     1
 44
1.0
1001
ACAD
1000
MTEXTBEGIN
1070
    73
1070
     1
1070
    44
1040
1.0
1070
    74
1070
     0
1000
MTEXTEND
  0
POINT
  5
68B
330
687
100
AcDbEntity
  8
Defpoints
 62
     0
100
AcDbPoint
 10
-34.61502248216544
 20
-2.828578758973455
 30
0.0
  0
POINT
  5
68C
330
687
100
AcDbEntity
  8
Defpoints
 62
     0
100
AcDbPoint
 10
-34.61502248216544
 20
3.901421241026561
 30
0.0
  0
POINT
  5
68D
330
687
100
AcDbEntity
  8
Defpoints
 62
     0
100
AcDbPoint
 10
-37.86602940646385
 20
-29.09855659487872
 30
0.0
  0
ENDBLK
  5
68E
330
687
100
AcDbEntity
  8
0
100
AcDbBlockEnd
  0
BLOCK
  5
690
330
68F
100
AcDbEntity
  8
0
100
AcDbBlockBegin
  2
*D39
 70
     1
 10
0.0
 20
0.0
 30
0.0
  3
*D39
  1

  0
LINE
  5
691
330
68F
100
AcDbEntity
  8
DIMENSION
 62
     0
370
    -2
100
AcDbLine
 10
-32.11502248216544
 20
0.4014212410265614
 30
0.0
 11
-32.11502248216544
 21
1.52642124102656
 31
0.0
  0
LINE
  5
692
330
68F
100
AcDbEntity
  8
DIMENSION
 62
     0
370
    -2
100
AcDbLine
 10
-32.11502248216544
 20
1.52642124102656
 30
0.0
 11
-32.36602248216547
 21
2.40142124102656
 31
0.0
  0
LINE
  5
693
330
68F
100
AcDbEntity
  8
DIMENSION
 62
     0
370
    -2
100
AcDbLine
 10
-32.36602248216547
 20
2.40142124102656
 30
0.0
 11
-32.36602248216547
 21
3.901421241026561
 31
0.0
  0
MTEXT
  5
694
330
68F
100
AcDbEntity
  8
DIMENSION
 62
     0
100
AcDbMText
 10
-32.36602248216547
 20
5.713921241026556
 30
0.0
 40
0.75
 41
0.0
 71
     5
 72
     1
  1
\A1;5.750
 11
0.0000000000000001
 21
1.0
 31
0.0
 73
     1
 44
1.0
1001
ACAD
1000
MTEXTBEGIN
1070
    73
1070
     1
1070
    44
1040
1.0
1070
    74
1070
     0
1000
MTEXTEND
  0
POINT
  5
695
330
68F
100
AcDbEntity
  8
Defpoints
 62
     0
100
AcDbPoint
 10
-32.11502248216544
 20
0.0264212410265613
 30
0.0
  0
POINT
  5
696
330
68F
100
AcDbEntity
  8
Defpoints
 62
     0
100
AcDbPoint
 10
-32.36602248216547
 20
3.901421241026561
 30
0.0
  0
POINT
  5
697
330
68F
100
AcDbEntity
  8
Defpoints
 62
     0
100
AcDbPoint
 10
-37.86602940646385
 20
-29.09855659487872
 30
0.0
  0
ENDBLK
  5
698
330
68F
100
AcDbEntity
  8
0
100
AcDbBlockEnd
  0
BLOCK
  5
69A
330
699
100
AcDbEntity
  8
0
100
AcDbBlockBegin
  2
*D40
 70
     1
 10
0.0
 20
0.0
 30
0.0
  3
*D40
  1

  0
LINE
  5
69B
330
699
100
AcDbEntity
  8
DIMENSION
 62
     0
370
    -2
100
AcDbLine
 10
-31.36602248216547
 20
1.276421241026672
 30
0.0
 11
-31.36602248216547
 21
3.901421241026561
 31
0.0
  0
MTEXT
  5
69C
330
699
100
AcDbEntity
  8
DIMENSION
 62
     0
100
AcDbMText
 10
-31.36602248216547
 20
5.651421241026556
 30
0.0
 40
0.75
 41
0.0
 71
     5
 72
     1
  1
\A1;6.500
 11
0.0000000000000001
 21
1.0
 31
0.0
 73
     1
 44
1.0
1001
ACAD
1000
MTEXTBEGIN
1070
    73
1070
     1
1070
    44
1040
1.0
1070
    74
1070
     0
1000
MTEXTEND
  0
POINT
  5
69D
330
699
100
AcDbEntity
  8
Defpoints
 62
     0
100
AcDbPoint
 10
-31.36602248216547
 20
0.9014212410266747
 30
0.0
  0
POINT
  5
69E
330
699
100
AcDbEntity
  8
Defpoints
 62
     0
100
AcDbPoint
 10
-31.36602248216547
 20
3.901421241026561
 30
0.0
  0
POINT
  5
69F
330
699
100
AcDbEntity
  8
Defpoints
 62
     0
100
AcDbPoint
 10
-37.86602940646385
 20
-29.09855659487872
 30
0.0
  0
ENDBLK
  5
6A0
330
699
100
AcDbEntity
  8
0
100
AcDbBlockEnd
  0
BLOCK
  5
6A2
330
6A1
100
AcDbEntity
  8
0
100
AcDbBlockBegin
  2
*D41
 70
     1
 10
0.0
 20
0.0
 30
0.0
  3
*D41
  1

  0
LINE
  5
6A3
330
6A1
100
AcDbEntity
  8
DIMENSION
 62
     0
370
    -2
100
AcDbLine
 10
-32.86502248216545
 20
-19.47357875897344
 30
0.0
 11
-32.86502248216545
 21
-32.09857875897344
 31
0.0
  0
MTEXT
  5
6A4
330
6A1
100
AcDbEntity
  8
DIMENSION
 62
     0
100
AcDbMText
 10
-32.86502248216543
 20
-33.72357875897345
 30
0.0
 40
0.75
 41
0.0
 71
     5
 72
     1
  1
\A1;5.001
 11
0.0000000000000001
 21
1.0
 31
0.0
 73
     1
 44
1.0
1001
ACAD
1000
MTEXTBEGIN
1070
    73
1070
     1
1070
    44
1040
1.0
1070
    74
1070
     0
1000
MTEXTEND
  0
POINT
  5
6A5
330
6A1
100
AcDbEntity
  8
Defpoints
 62
     0
100
AcDbPoint
 10
-32.86502248216545
 20
-19.09857875897344
 30
0.0
  0
POINT
  5
6A6
330
6A1
100
AcDbEntity
  8
Defpoints
 62
     0
100
AcDbPoint
 10
-32.86502248216545
 20
-32.09857875897344
 30
0.0
  0
POINT
  5
6A7
330
6A1
100
AcDbEntity
  8
Defpoints
 62
     0
100
AcDbPoint
 10
-37.86602940646385
 20
-29.09855659487872
 30
0.0
  0
ENDBLK
  5
6A8
330
6A1
100
AcDbEntity
  8
0
100
AcDbBlockEnd
  0
BLOCK
  5
6AA
330
6A9
100
AcDbEntity
  8
0
100
AcDbBlockBegin
  2
*D42
 70
     1
 10
0.0
 20
0.0
 30
0.0
  3
*D42
  1

  0
LINE
  5
6AB
330
6A9
100
AcDbEntity
  8
0
 62
     0
370
    -2
100
AcDbLine
 10
-32.49002248216545
 20
-19.09857875897344
 30
0.0
 11
-28.42494707905288
 21
-19.09857875897344
 31
0.0
  0
MTEXT
  5
6AC
330
6A9
100
AcDbEntity
  8
0
 62
     0
100
AcDbMText
 10
-26.54994707905288
 20
-19.09857875897344
 30
0.0
 40
0.75
 41
0.0
 71
     5
 72
     1
  1
\A1;10.000
 73
     1
 44
1.0
1001
ACAD
1000
MTEXTBEGIN
1070
    73
1070
     1
1070
    44
1040
1.0
1070
    74
1070
     0
1000
MTEXTEND
  0
POINT
  5
6AD
330
6A9
100
AcDbEntity
  8
Defpoints
 62
     0
100
AcDbPoint
 10
-32.86502248216545
 20
-19.09857875897344
 30
0.0
  0
POINT
  5
6AE
330
6A9
100
AcDbEntity
  8
Defpoints
 62
     0
100
AcDbPoint
 10
-28.42494707905288
 20
-19.09857875897344
 30
0.0
  0
POINT
  5
6AF
330
6A9
100
AcDbEntity
  8
Defpoints
 62
     0
100
AcDbPoint
 10
-37.86602940646385
 20
-29.09855659487872
 30
0.0
  0
ENDBLK
  5
6B0
330
6A9
100
AcDbEntity
  8
0
100
AcDbBlockEnd
  0
BLOCK
  5
71F
330
719
100
AcDbEntity
  8
0
100
AcDbBlockBegin
  2
*D43
 70
     1
 10
0.0
 20
0.0
 30
0.0
  3
*D43
  1

  0
LINE
  5
BDD
330
719
100
AcDbEntity
  8
DIMENSION
 62
     0
370
    -2
100
AcDbLine
 10
88.96600811349747
 20
45.5801068908527
 30
0.0
 11
85.59000811349745
 21
45.5801068908527
 31
0.0
  0
MTEXT
  5
BDE
330
719
100
AcDbEntity
  8
DIMENSION
 62
     0
100
AcDbMText
 10
83.75000811349748
 20
45.5801068908527
 30
0.0
 40
0.75
 41
0.0
 71
     5
 72
     1
  1
\A1;29.125
 73
     1
 44
1.0
1001
ACAD
1000
MTEXTBEGIN
1070
    73
1070
     1
1070
    44
1040
1.0
1070
    74
1070
     0
1000
MTEXTEND
  0
POINT
  5
BDF
330
719
100
AcDbEntity
  8
Defpoints
 62
     0
100
AcDbPoint
 10
89.34100811349749
 20
45.5801068908527
 30
0.0
  0
POINT
  5
BE0
330
719
100
AcDbEntity
  8
Defpoints
 62
     0
100
AcDbPoint
 10
85.59000811349745
 20
45.5801068908527
 30
0.0
  0
POINT
  5
BE1
330
719
100
AcDbEntity
  8
Defpoints
 62
     0
100
AcDbPoint
 10
88.59000118919908
 20
16.45512905494743
 30
0.0
  0
ENDBLK
  5
720
330
719
100
AcDbEntity
  8
0
100
AcDbBlockEnd
  0
BLOCK
  5
727
330
721
100
AcDbEntity
  8
0
100
AcDbBlockBegin
  2
*D44
 70
     1
 10
0.0
 20
0.0
 30
0.0
  3
*D44
  1

  0
LINE
  5
BD8
330
721
100
AcDbEntity
  8
DIMENSION
 62
     0
370
    -2
100
AcDbLine
 10
88.96600811349747
 20
39.58060689085261
 30
0.0
 11
85.59000811349745
 21
39.58060689085261
 31
0.0
  0
MTEXT
  5
BD9
330
721
100
AcDbEntity
  8
DIMENSION
 62
     0
100
AcDbMText
 10
83.75000811349748
 20
39.58060689085261
 30
0.0
 40
0.75
 41
0.0
 71
     5
 72
     1
  1
\A1;23.125
 73
     1
 44
1.0
1001
ACAD
1000
MTEXTBEGIN
1070
    73
1070
     1
1070
    44
1040
1.0
1070
    74
1070
     0
1000
MTEXTEND
  0
POINT
  5
BDA
330
721
100
AcDbEntity
  8
Defpoints
 62
     0
100
AcDbPoint
 10
89.34100811349749
 20
39.58060689085261
 30
0.0
  0
POINT
  5
BDB
330
721
100
AcDbEntity
  8
Defpoints
 62
     0
100
AcDbPoint
 10
85.59000811349745
 20
39.58060689085261
 30
0.0
  0
POINT
  5
BDC
330
721
100
AcDbEntity
  8
Defpoints
 62
     0
100
AcDbPoint
 10
88.59000118919908
 20
16.45512905494743
 30
0.0
  0
ENDBLK
  5
728
330
721
100
AcDbEntity
  8
0
100
AcDbBlockEnd
  0
BLOCK
  5
72F
330
729
100
AcDbEntity
  8
0
100
AcDbBlockBegin
  2
*D45
 70
     1
 10
0.0
 20
0.0
 30
0.0
  3
*D45
  1

  0
LINE
  5
BD3
330
729
100
AcDbEntity
  8
DIMENSION
 62
     0
370
    -2
100
AcDbLine
 10
88.96600811349747
 20
31.83060689085259
 30
0.0
 11
85.59000811349745
 21
31.83060689085259
 31
0.0
  0
MTEXT
  5
BD4
330
729
100
AcDbEntity
  8
DIMENSION
 62
     0
100
AcDbMText
 10
83.75000811349748
 20
31.83060689085259
 30
0.0
 40
0.75
 41
0.0
 71
     5
 72
     1
  1
\A1;15.375
 73
     1
 44
1.0
1001
ACAD
1000
MTEXTBEGIN
1070
    73
1070
     1
1070
    44
1040
1.0
1070
    74
1070
     0
1000
MTEXTEND
  0
POINT
  5
BD5
330
729
100
AcDbEntity
  8
Defpoints
 62
     0
100
AcDbPoint
 10
89.34100811349749
 20
31.83060689085259
 30
0.0
  0
POINT
  5
BD6
330
729
100
AcDbEntity
  8
Defpoints
 62
     0
100
AcDbPoint
 10
85.59000811349745
 20
31.83060689085259
 30
0.0
  0
POINT
  5
BD7
330
729
100
AcDbEntity
  8
Defpoints
 62
     0
100
AcDbPoint
 10
88.59000118919908
 20
16.45512905494743
 30
0.0
  0
ENDBLK
  5
730
330
729
100
AcDbEntity
  8
0
100
AcDbBlockEnd
  0
BLOCK
  5
737
330
731
100
AcDbEntity
  8
0
100
AcDbBlockBegin
  2
*D46
 70
     1
 10
0.0
 20
0.0
 30
0.0
  3
*D46
  1

  0
LINE
  5
BCE
330
731
100
AcDbEntity
  8
DIMENSION
 62
     0
370
    -2
100
AcDbLine
 10
88.96600811349747
 20
21.83060689085258
 30
0.0
 11
85.59000811349745
 21
21.83060689085258
 31
0.0
  0
MTEXT
  5
BCF
330
731
100
AcDbEntity
  8
DIMENSION
 62
     0
100
AcDbMText
 10
84.00000811349746
 20
21.83060689085258
 30
0.0
 40
0.75
 41
0.0
 71
     5
 72
     1
  1
\A1;5.375
 73
     1
 44
1.0
1001
ACAD
1000
MTEXTBEGIN
1070
    73
1070
     1
1070
    44
1040
1.0
1070
    74
1070
     0
1000
MTEXTEND
  0
POINT
  5
BD0
330
731
100
AcDbEntity
  8
Defpoints
 62
     0
100
AcDbPoint
 10
89.34100811349749
 20
21.83060689085258
 30
0.0
  0
POINT
  5
BD1
330
731
100
AcDbEntity
  8
Defpoints
 62
     0
100
AcDbPoint
 10
85.59000811349745
 20
21.83060689085258
 30
0.0
  0
POINT
  5
BD2
330
731
100
AcDbEntity
  8
Defpoints
 62
     0
100
AcDbPoint
 10
88.59000118919908
 20
16.45512905494743
 30
0.0
  0
ENDBLK
  5
738
330
731
100
AcDbEntity
  8
0
100
AcDbBlockEnd
  0
BLOCK
  5
73F
330
739
100
AcDbEntity
  8
0
100
AcDbBlockBegin
  2
*D47
 70
     1
 10
0.0
 20
0.0
 30
0.0
  3
*D47
  1

  0
LINE
  5
BC9
330
739
100
AcDbEntity
  8
DIMENSION
 62
     0
370
    -2
100
AcDbLine
 10
88.21500811349752
 20
16.45510689085271
 30
0.0
 11
85.59000811349745
 21
16.45510689085271
 31
0.0
  0
MTEXT
  5
BCA
330
739
100
AcDbEntity
  8
DIMENSION
 62
     0
100
AcDbMText
 10
84.25000811349747
 20
16.45510689085271
 30
0.0
 40
0.75
 41
0.0
 71
     5
 72
     1
  1
\A1;0.000
 73
     1
 44
1.0
1001
ACAD
1000
MTEXTBEGIN
1070
    73
1070
     1
1070
    44
1040
1.0
1070
    74
1070
     0
1000
MTEXTEND
  0
POINT
  5
BCB
330
739
100
AcDbEntity
  8
Defpoints
 62
     0
100
AcDbPoint
 10
88.59000811349751
 20
16.45510689085271
 30
0.0
  0
POINT
  5
BCC
330
739
100
AcDbEntity
  8
Defpoints
 62
     0
100
AcDbPoint
 10
85.59000811349745
 20
16.45510689085271
 30
0.0
  0
POINT
  5
BCD
330
739
100
AcDbEntity
  8
Defpoints
 62
     0
100
AcDbPoint
 10
88.59000118919908
 20
16.45512905494743
 30
0.0
  0
ENDBLK
  5
740
330
739
100
AcDbEntity
  8
0
100
AcDbBlockEnd
  0
BLOCK
  5
747
330
741
100
AcDbEntity
  8
0
100
AcDbBlockBegin
  2
*D48
 70
     1
 10
0.0
 20
0.0
 30
0.0
  3
*D48
  1

  0
LINE
  5
BC4
330
741
100
AcDbEntity
  8
DIMENSION
 62
     0
370
    -2
100
AcDbLine
 10
95.09000811349745
 20
46.83010689085282
 30
0.0
 11
95.09000811349745
 21
49.45510689085271
 31
0.0
  0
MTEXT
  5
BC5
330
741
100
AcDbEntity
  8
DIMENSION
 62
     0
100
AcDbMText
 10
95.09000811349743
 20
50.92010689085273
 30
0.0
 40
0.75
 41
0.0
 71
     5
 72
     1
  1
\A1;6.500
 11
0.0000000000000001
 21
1.0
 31
0.0
 73
     1
 44
1.0
1001
ACAD
1000
MTEXTBEGIN
1070
    73
1070
     1
1070
    44
1040
1.0
1070
    74
1070
     0
1000
MTEXTEND
  0
POINT
  5
BC6
330
741
100
AcDbEntity
  8
Defpoints
 62
     0
100
AcDbPoint
 10
95.09000811349745
 20
46.45510689085282
 30
0.0
  0
POINT
  5
BC7
330
741
100
AcDbEntity
  8
Defpoints
 62
     0
100
AcDbPoint
 10
95.09000811349745
 20
49.45510689085271
 30
0.0
  0
POINT
  5
BC8
330
741
100
AcDbEntity
  8
Defpoints
 62
     0
100
AcDbPoint
 10
88.59000118919908
 20
16.45512905494743
 30
0.0
  0
ENDBLK
  5
748
330
741
100
AcDbEntity
  8
0
100
AcDbBlockEnd
  0
BLOCK
  5
751
330
749
100
AcDbEntity
  8
0
100
AcDbBlockBegin
  2
*D49
 70
     1
 10
0.0
 20
0.0
 30
0.0
  3
*D49
  1

  0
LINE
  5
BBD
330
749
100
AcDbEntity
  8
DIMENSION
 62
     0
370
    -2
100
AcDbLine
 10
94.34100811349749
 20
45.95510689085268
 30
0.0
 11
94.34100811349749
 21
47.08010689085269
 31
0.0
  0
LINE
  5
BBE
330
749
100
AcDbEntity
  8
DIMENSION
 62
     0
370
    -2
100
AcDbLine
 10
94.34100811349749
 20
47.08010689085269
 30
0.0
 11
94.09000811349748
 21
47.95510689085271
 31
0.0
  0
LINE
  5
BBF
330
749
100
AcDbEntity
  8
DIMENSION
 62
     0
370
    -2
100
AcDbLine
 10
94.09000811349748
 20
47.95510689085271
 30
0.0
 11
94.09000811349748
 21
49.45510689085271
 31
0.0
  0
MTEXT
  5
BC0
330
749
100
AcDbEntity
  8
DIMENSION
 62
     0
100
AcDbMText
 10
94.09000811349743
 20
50.98260689085273
 30
0.0
 40
0.75
 41
0.0
 71
     5
 72
     1
  1
\A1;5.750
 11
0.0000000000000001
 21
1.0
 31
0.0
 73
     1
 44
1.0
1001
ACAD
1000
MTEXTBEGIN
1070
    73
1070
     1
1070
    44
1040
1.0
1070
    74
1070
     0
1000
MTEXTEND
  0
POINT
  5
BC1
330
749
100
AcDbEntity
  8
Defpoints
 62
     0
100
AcDbPoint
 10
94.34100811349749
 20
45.5801068908527
 30
0.0
  0
POINT
  5
BC2
330
749
100
AcDbEntity
  8
Defpoints
 62
     0
100
AcDbPoint
 10
94.09000811349748
 20
49.45510689085271
 30
0.0
  0
POINT
  5
BC3
330
749
100
AcDbEntity
  8
Defpoints
 62
     0
100
AcDbPoint
 10
88.59000118919908
 20
16.45512905494743
 30
0.0
  0
ENDBLK
  5
752
330
749
100
AcDbEntity
  8
0
100
AcDbBlockEnd
  0
BLOCK
  5
759
330
753
100
AcDbEntity
  8
0
100
AcDbBlockBegin
  2
*D50
 70
     1
 10
0.0
 20
0.0
 30
0.0
  3
*D50
  1

  0
LINE
  5
BB8
330
753
100
AcDbEntity
  8
DIMENSION
 62
     0
370
    -2
100
AcDbLine
 10
91.84100811349749
 20
43.10010689085269
 30
0.0
 11
91.84100811349749
 21
49.45510689085271
 31
0.0
  0
MTEXT
  5
BB9
330
753
100
AcDbEntity
  8
DIMENSION
 62
     0
100
AcDbMText
 10
91.84100811349749
 20
50.98260689085273
 30
0.0
 40
0.75
 41
0.0
 71
     5
 72
     1
  1
\A1;3.250
 11
0.0000000000000001
 21
1.0
 31
0.0
 73
     1
 44
1.0
1001
ACAD
1000
MTEXTBEGIN
1070
    73
1070
     1
1070
    44
1040
1.0
1070
    74
1070
     0
1000
MTEXTEND
  0
POINT
  5
BBA
330
753
100
AcDbEntity
  8
Defpoints
 62
     0
100
AcDbPoint
 10
91.84100811349749
 20
42.72510689085269
 30
0.0
  0
POINT
  5
BBB
330
753
100
AcDbEntity
  8
Defpoints
 62
     0
100
AcDbPoint
 10
91.84100811349749
 20
49.45510689085271
 30
0.0
  0
POINT
  5
BBC
330
753
100
AcDbEntity
  8
Defpoints
 62
     0
100
AcDbPoint
 10
88.59000118919908
 20
16.45512905494743
 30
0.0
  0
ENDBLK
  5
75A
330
753
100
AcDbEntity
  8
0
100
AcDbBlockEnd
  0
BLOCK
  5
761
330
75B
100
AcDbEntity
  8
0
100
AcDbBlockBegin
  2
*D51
 70
     1
 10
0.0
 20
0.0
 30
0.0
  3
*D51
  1

  0
LINE
  5
BB3
330
75B
100
AcDbEntity
  8
DIMENSION
 62
     0
370
    -2
100
AcDbLine
 10
89.34100811349749
 20
45.95510689085268
 30
0.0
 11
89.34100811349749
 21
49.45510689085272
 31
0.0
  0
MTEXT
  5
BB4
330
75B
100
AcDbEntity
  8
DIMENSION
 62
     0
100
AcDbMText
 10
89.34100811349749
 20
50.92010689085274
 30
0.0
 40
0.75
 41
0.0
 71
     5
 72
     1
  1
\A1;0.750
 11
0.0000000000000001
 21
1.0
 31
0.0
 73
     1
 44
1.0
1001
ACAD
1000
MTEXTBEGIN
1070
    73
1070
     1
1070
    44
1040
1.0
1070
    74
1070
     0
1000
MTEXTEND
  0
POINT
  5
BB5
330
75B
100
AcDbEntity
  8
Defpoints
 62
     0
100
AcDbPoint
 10
89.34100811349749
 20
45.5801068908527
 30
0.0
  0
POINT
  5
BB6
330
75B
100
AcDbEntity
  8
Defpoints
 62
     0
100
AcDbPoint
 10
89.34100811349749
 20
49.45510689085272
 30
0.0
  0
POINT
  5
BB7
330
75B
100
AcDbEntity
  8
Defpoints
 62
     0
100
AcDbPoint
 10
88.59000118919908
 20
16.45512905494743
 30
0.0
  0
ENDBLK
  5
762
330
75B
100
AcDbEntity
  8
0
100
AcDbBlockEnd
  0
BLOCK
  5
769
330
763
100
AcDbEntity
  8
0
100
AcDbBlockBegin
  2
*D52
 70
     1
 10
0.0
 20
0.0
 30
0.0
  3
*D52
  1

  0
LINE
  5
BAE
330
763
100
AcDbEntity
  8
DIMENSION
 62
     0
370
    -2
100
AcDbLine
 10
95.46500811349744
 20
46.45510689085282
 30
0.0
 11
98.0900081134974
 21
46.45510689085282
 31
0.0
  0
MTEXT
  5
BAF
330
763
100
AcDbEntity
  8
DIMENSION
 62
     0
100
AcDbMText
 10
99.80500811349742
 20
46.45510689085282
 30
0.0
 40
0.75
 41
0.0
 71
     5
 72
     1
  1
\A1;30.000
 73
     1
 44
1.0
1001
ACAD
1000
MTEXTBEGIN
1070
    73
1070
     1
1070
    44
1040
1.0
1070
    74
1070
     0
1000
MTEXTEND
  0
POINT
  5
BB0
330
763
100
AcDbEntity
  8
Defpoints
 62
     0
100
AcDbPoint
 10
95.09000811349745
 20
46.45510689085282
 30
0.0
  0
POINT
  5
BB1
330
763
100
AcDbEntity
  8
Defpoints
 62
     0
100
AcDbPoint
 10
98.0900081134974
 20
46.45510689085282
 30
0.0
  0
POINT
  5
BB2
330
763
100
AcDbEntity
  8
Defpoints
 62
     0
100
AcDbPoint
 10
88.59000118919908
 20
16.45512905494743
 30
0.0
  0
ENDBLK
  5
76A
330
763
100
AcDbEntity
  8
0
100
AcDbBlockEnd
  0
BLOCK
  5
771
330
76B
100
AcDbEntity
  8
0
100
AcDbBlockBegin
  2
*D53
 70
     1
 10
0.0
 20
0.0
 30
0.0
  3
*D53
  1

  0
LINE
  5
BA9
330
76B
100
AcDbEntity
  8
DIMENSION
 62
     0
370
    -2
100
AcDbLine
 10
92.2160081134975
 20
42.72510689085269
 30
0.0
 11
98.0900081134974
 21
42.72510689085269
 31
0.0
  0
MTEXT
  5
BAA
330
76B
100
AcDbEntity
  8
DIMENSION
 62
     0
100
AcDbMText
 10
99.99250811349741
 20
42.72510689085269
 30
0.0
 40
0.75
 41
0.0
 71
     5
 72
     1
  1
\A1;26.270
 73
     1
 44
1.0
1001
ACAD
1000
MTEXTBEGIN
1070
    73
1070
     1
1070
    44
1040
1.0
1070
    74
1070
     0
1000
MTEXTEND
  0
POINT
  5
BAB
330
76B
100
AcDbEntity
  8
Defpoints
 62
     0
100
AcDbPoint
 10
91.84100811349749
 20
42.72510689085269
 30
0.0
  0
POINT
  5
BAC
330
76B
100
AcDbEntity
  8
Defpoints
 62
     0
100
AcDbPoint
 10
98.0900081134974
 20
42.72510689085269
 30
0.0
  0
POINT
  5
BAD
330
76B
100
AcDbEntity
  8
Defpoints
 62
     0
100
AcDbPoint
 10
88.59000118919908
 20
16.45512905494743
 30
0.0
  0
ENDBLK
  5
772
330
76B
100
AcDbEntity
  8
0
100
AcDbBlockEnd
  0
BLOCK
  5
779
330
773
100
AcDbEntity
  8
0
100
AcDbBlockBegin
  2
*D54
 70
     1
 10
0.0
 20
0.0
 30
0.0
  3
*D54
  1

  0
LINE
  5
BA4
330
773
100
AcDbEntity
  8
DIMENSION
 62
     0
370
    -2
100
AcDbLine
 10
94.99800811349748
 20
38.52010689085243
 30
0.0
 11
98.0900081134974
 21
38.52010689085243
 31
0.0
  0
MTEXT
  5
BA5
330
773
100
AcDbEntity
  8
DIMENSION
 62
     0
100
AcDbMText
 10
99.99250811349741
 20
38.52010689085243
 30
0.0
 40
0.75
 41
0.0
 71
     5
 72
     1
  1
\A1;22.065
 73
     1
 44
1.0
1001
ACAD
1000
MTEXTBEGIN
1070
    73
1070
     1
1070
    44
1040
1.0
1070
    74
1070
     0
1000
MTEXTEND
  0
POINT
  5
BA6
330
773
100
AcDbEntity
  8
Defpoints
 62
     0
100
AcDbPoint
 10
94.62300811349749
 20
38.52010689085243
 30
0.0
  0
POINT
  5
BA7
330
773
100
AcDbEntity
  8
Defpoints
 62
     0
100
AcDbPoint
 10
98.0900081134974
 20
38.52010689085243
 30
0.0
  0
POINT
  5
BA8
330
773
100
AcDbEntity
  8
Defpoints
 62
     0
100
AcDbPoint
 10
88.59000118919908
 20
16.45512905494743
 30
0.0
  0
ENDBLK
  5
77A
330
773
100
AcDbEntity
  8
0
100
AcDbBlockEnd
  0
BLOCK
  5
781
330
77B
100
AcDbEntity
  8
0
100
AcDbBlockBegin
  2
*D55
 70
     1
 10
0.0
 20
0.0
 30
0.0
  3
*D55
  1

  0
LINE
  5
B9F
330
77B
100
AcDbEntity
  8
0
 62
     0
370
    -2
100
AcDbLine
 10
93.96600811349747
 20
26.45510689085271
 30
0.0
 11
98.03108351661007
 21
26.45510689085271
 31
0.0
  0
MTEXT
  5
BA0
330
77B
100
AcDbEntity
  8
0
 62
     0
100
AcDbMText
 10
99.62108351661008
 20
26.45510689085271
 30
0.0
 40
0.75
 41
0.0
 71
     5
 72
     1
  1
\A1;10.000
 73
     1
 44
1.0
1001
ACAD
1000
MTEXTBEGIN
1070
    73
1070
     1
1070
    44
1040
1.0
1070
    74
1070
     0
1000
MTEXTEND
  0
POINT
  5
BA1
330
77B
100
AcDbEntity
  8
Defpoints
 62
     0
100
AcDbPoint
 10
93.59100811349748
 20
26.45510689085271
 30
0.0
  0
POINT
  5
BA2
330
77B
100
AcDbEntity
  8
Defpoints
 62
     0
100
AcDbPoint
 10
98.03108351661007
 20
26.45510689085271
 30
0.0
  0
POINT
  5
BA3
330
77B
100
AcDbEntity
  8
Defpoints
 62
     0
100
AcDbPoint
 10
88.59000118919908
 20
16.45512905494743
 30
0.0
  0
ENDBLK
  5
782
330
77B
100
AcDbEntity
  8
0
100
AcDbBlockEnd
  0
BLOCK
  5
789
330
783
100
AcDbEntity
  8
0
100
AcDbBlockBegin
  2
*D56
 70
     1
 10
0.0
 20
0.0
 30
0.0
  3
*D56
  1

  0
LINE
  5
B9A
330
783
100
AcDbEntity
  8
DIMENSION
 62
     0
370
    -2
100
AcDbLine
 10
94.99800811349755
 20
32.99510689085269
 30
0.0
 11
98.0900081134974
 21
32.99510689085269
 31
0.0
  0
MTEXT
  5
B9B
330
783
100
AcDbEntity
  8
DIMENSION
 62
     0
100
AcDbMText
 10
99.86750811349741
 20
32.99510689085269
 30
0.0
 40
0.75
 41
0.0
 71
     5
 72
     1
  1
\A1;16.540
 73
     1
 44
1.0
1001
ACAD
1000
MTEXTBEGIN
1070
    73
1070
     1
1070
    44
1040
1.0
1070
    74
1070
     0
1000
MTEXTEND
  0
POINT
  5
B9C
330
783
100
AcDbEntity
  8
Defpoints
 62
     0
100
AcDbPoint
 10
94.62300811349754
 20
32.99510689085269
 30
0.0
  0
POINT
  5
B9D
330
783
100
AcDbEntity
  8
Defpoints
 62
     0
100
AcDbPoint
 10
98.0900081134974
 20
32.99510689085269
 30
0.0
  0
POINT
  5
B9E
330
783
100
AcDbEntity
  8
Defpoints
 62
     0
100
AcDbPoint
 10
88.59000118919908
 20
16.45512905494743
 30
0.0
  0
ENDBLK
  5
78A
330
783
100
AcDbEntity
  8
0
100
AcDbBlockEnd
  0
BLOCK
  5
791
330
78B
100
AcDbEntity
  8
0
100
AcDbBlockBegin
  2
*D57
 70
     1
 10
0.0
 20
0.0
 30
0.0
  3
*D57
  1

  0
LINE
  5
B95
330
78B
100
AcDbEntity
  8
DIMENSION
 62
     0
370
    -2
100
AcDbLine
 10
93.96600811349747
 20
27.95510689085271
 30
0.0
 11
98.0900081134974
 21
27.95510689085271
 31
0.0
  0
MTEXT
  5
B96
330
78B
100
AcDbEntity
  8
DIMENSION
 62
     0
100
AcDbMText
 10
99.68000811349741
 20
27.95510689085271
 30
0.0
 40
0.75
 41
0.0
 71
     5
 72
     1
  1
\A1;11.500
 73
     1
 44
1.0
1001
ACAD
1000
MTEXTBEGIN
1070
    73
1070
     1
1070
    44
1040
1.0
1070
    74
1070
     0
1000
MTEXTEND
  0
POINT
  5
B97
330
78B
100
AcDbEntity
  8
Defpoints
 62
     0
100
AcDbPoint
 10
93.59100811349748
 20
27.95510689085271
 30
0.0
  0
POINT
  5
B98
330
78B
100
AcDbEntity
  8
Defpoints
 62
     0
100
AcDbPoint
 10
98.0900081134974
 20
27.95510689085271
 30
0.0
  0
POINT
  5
B99
330
78B
100
AcDbEntity
  8
Defpoints
 62
     0
100
AcDbPoint
 10
88.59000118919908
 20
16.45512905494743
 30
0.0
  0
ENDBLK
  5
792
330
78B
100
AcDbEntity
  8
0
100
AcDbBlockEnd
  0
BLOCK
  5
799
330
793
100
AcDbEntity
  8
0
100
AcDbBlockBegin
  2
*D58
 70
     1
 10
0.0
 20
0.0
 30
0.0
  3
*D58
  1

  0
LINE
  5
B90
330
793
100
AcDbEntity
  8
DIMENSION
 62
     0
370
    -2
100
AcDbLine
 10
93.59100811349748
 20
26.08010689085271
 30
0.0
 11
93.59100811349748
 21
13.45510689085271
 31
0.0
  0
MTEXT
  5
B91
330
793
100
AcDbEntity
  8
DIMENSION
 62
     0
100
AcDbMText
 10
93.59100811349748
 20
12.11510689085273
 30
0.0
 40
0.75
 41
0.0
 71
     5
 72
     1
  1
\A1;5.001
 11
0.0000000000000001
 21
1.0
 31
0.0
 73
     1
 44
1.0
1001
ACAD
1000
MTEXTBEGIN
1070
    73
1070
     1
1070
    44
1040
1.0
1070
    74
1070
     0
1000
MTEXTEND
  0
POINT
  5
B92
330
793
100
AcDbEntity
  8
Defpoints
 62
     0
100
AcDbPoint
 10
93.59100811349748
 20
26.45510689085271
 30
0.0
  0
POINT
  5
B93
330
793
100
AcDbEntity
  8
Defpoints
 62
     0
100
AcDbPoint
 10
93.59100811349748
 20
13.45510689085271
 30
0.0
  0
POINT
  5
B94
330
793
100
AcDbEntity
  8
Defpoints
 62
     0
100
AcDbPoint
 10
88.59000118919908
 20
16.45512905494743
 30
0.0
  0
ENDBLK
  5
79A
330
793
100
AcDbEntity
  8
0
100
AcDbBlockEnd
  0
BLOCK
  5
7A1
330
79B
100
AcDbEntity
  8
0
100
AcDbBlockBegin
  2
*D59
 70
     1
 10
0.0
 20
0.0
 30
0.0
  3
*D59
  1

  0
LINE
  5
B8B
330
79B
100
AcDbEntity
  8
DIMENSION
 62
     0
370
    -2
100
AcDbLine
 10
94.62300811349754
 20
32.62010689085269
 30
0.0
 11
94.62300811349754
 21
13.45510689085271
 31
0.0
  0
MTEXT
  5
B8C
330
79B
100
AcDbEntity
  8
DIMENSION
 62
     0
100
AcDbMText
 10
94.62300811349754
 20
11.92760689085273
 30
0.0
 40
0.75
 41
0.0
 71
     5
 72
     1
  1
\A1;6.033
 11
0.0000000000000001
 21
1.0
 31
0.0
 73
     1
 44
1.0
1001
ACAD
1000
MTEXTBEGIN
1070
    73
1070
     1
1070
    44
1040
1.0
1070
    74
1070
     0
1000
MTEXTEND
  0
POINT
  5
B8D
330
79B
100
AcDbEntity
  8
Defpoints
 62
     0
100
AcDbPoint
 10
94.62300811349754
 20
32.99510689085269
 30
0.0
  0
POINT
  5
B8E
330
79B
100
AcDbEntity
  8
Defpoints
 62
     0
100
AcDbPoint
 10
94.62300811349754
 20
13.45510689085271
 30
0.0
  0
POINT
  5
B8F
330
79B
100
AcDbEntity
  8
Defpoints
 62
     0
100
AcDbPoint
 10
88.59000118919908
 20
16.45512905494743
 30
0.0
  0
ENDBLK
  5
7A2
330
79B
100
AcDbEntity
  8
0
100
AcDbBlockEnd
  0
BLOCK
  5
7A9
330
7A3
100
AcDbEntity
  8
0
100
AcDbBlockBegin
  2
*D60
 70
     1
 10
0.0
 20
0.0
 30
0.0
  3
*D60
  1

  0
LINE
  5
B86
330
7A3
100
AcDbEntity
  8
DIMENSION
 62
     0
370
    -2
100
AcDbLine
 10
90.1730081134975
 20
32.62010689085269
 30
0.0
 11
90.1730081134975
 21
13.45510689085271
 31
0.0
  0
MTEXT
  5
B87
330
7A3
100
AcDbEntity
  8
DIMENSION
 62
     0
100
AcDbMText
 10
90.1730081134975
 20
11.99010689085272
 30
0.0
 40
0.75
 41
0.0
 71
     5
 72
     1
  1
\A1;1.583
 11
0.0000000000000001
 21
1.0
 31
0.0
 73
     1
 44
1.0
1001
ACAD
1000
MTEXTBEGIN
1070
    73
1070
     1
1070
    44
1040
1.0
1070
    74
1070
     0
1000
MTEXTEND
  0
POINT
  5
B88
330
7A3
100
AcDbEntity
  8
Defpoints
 62
     0
100
AcDbPoint
 10
90.1730081134975
 20
32.99510689085269
 30
0.0
  0
POINT
  5
B89
330
7A3
100
AcDbEntity
  8
Defpoints
 62
     0
100
AcDbPoint
 10
90.1730081134975
 20
13.45510689085271
 30
0.0
  0
POINT
  5
B8A
330
7A3
100
AcDbEntity
  8
Defpoints
 62
     0
100
AcDbPoint
 10
88.59000118919908
 20
16.45512905494743
 30
0.0
  0
ENDBLK
  5
7AA
330
7A3
100
AcDbEntity
  8
0
100
AcDbBlockEnd
  0
BLOCK
  5
7B1
330
7AB
100
AcDbEntity
  8
0
100
AcDbBlockBegin
  2
*D61
 70
     1
 10
0.0
 20
0.0
 30
0.0
  3
*D61
  1

  0
LINE
  5
B81
330
7AB
100
AcDbEntity
  8
DIMENSION
 62
     0
370
    -2
100
AcDbLine
 10
88.59000811349751
 20
16.08010689085271
 30
0.0
 11
88.59000811349751
 21
13.45510689085271
 31
0.0
  0
MTEXT
  5
B82
330
7AB
100
AcDbEntity
  8
DIMENSION
 62
     0
100
AcDbMText
 10
88.59000811349751
 20
12.11510689085272
 30
0.0
 40
0.75
 41
0.0
 71
     5
 72
     1
  1
\A1;0.000
 11
0.0000000000000001
 21
1.0
 31
0.0
 73
     1
 44
1.0
1001
ACAD
1000
MTEXTBEGIN
1070
    73
1070
     1
1070
    44
1040
1.0
1070
    74
1070
     0
1000
MTEXTEND
  0
POINT
  5
B83
330
7AB
100
AcDbEntity
  8
Defpoints
 62
     0
100
AcDbPoint
 10
88.59000811349751
 20
16.45510689085271
 30
0.0
  0
POINT
  5
B84
330
7AB
100
AcDbEntity
  8
Defpoints
 62
     0
100
AcDbPoint
 10
88.59000811349751
 20
13.45510689085271
 30
0.0
  0
POINT
  5
B85
330
7AB
100
AcDbEntity
  8
Defpoints
 62
     0
100
AcDbPoint
 10
88.59000118919908
 20
16.45512905494743
 30
0.0
  0
ENDBLK
  5
7B2
330
7AB
100
AcDbEntity
  8
0
100
AcDbBlockEnd
  0
BLOCK
  5
8FB
330
8FA
100
AcDbEntity
  8
0
100
AcDbBlockBegin
  2
*D62
 70
     1
 10
0.0
 20
0.0
 30
0.0
  3
*D62
  1

  0
LINE
  5
8FC
330
8FA
100
AcDbEntity
  8
DIMENSION
 62
     0
370
    -2
100
AcDbLine
 10
-38.2410224821654
 20
-29.09857875897344
 30
0.0
 11
-40.86602248216546
 21
-29.09857875897344
 31
0.0
  0
MTEXT
  5
8FD
330
8FA
100
AcDbEntity
  8
DIMENSION
 62
     0
100
AcDbMText
 10
-42.49102248216547
 20
-29.09857875897344
 30
0.0
 40
0.75
 41
0.0
 71
     5
 72
     1
  1
\A1;0.000
 73
     1
 44
1.0
1001
ACAD
1000
MTEXTBEGIN
1070
    73
1070
     1
1070
    44
1040
1.0
1070
    74
1070
     0
1000
MTEXTEND
  0
POINT
  5
8FE
330
8FA
100
AcDbEntity
  8
Defpoints
 62
     0
100
AcDbPoint
 10
-37.86602248216541
 20
-29.09857875897344
 30
0.0
  0
POINT
  5
8FF
330
8FA
100
AcDbEntity
  8
Defpoints
 62
     0
100
AcDbPoint
 10
-40.86602248216546
 20
-29.09857875897344
 30
0.0
  0
POINT
  5
900
330
8FA
100
AcDbEntity
  8
Defpoints
 62
     0
100
AcDbPoint
 10
-37.86602940646385
 20
-29.09855659487872
 30
0.0
  0
ENDBLK
  5
901
330
8FA
100
AcDbEntity
  8
0
100
AcDbBlockEnd
  0
BLOCK
  5
903
330
902
100
AcDbEntity
  8
0
100
AcDbBlockBegin
  2
*D63
 70
     1
 10
0.0
 20
0.0
 30
0.0
  3
*D63
  1

  0
LINE
  5
904
330
902
100
AcDbEntity
  8
DIMENSION
 62
     0
370
    -2
100
AcDbLine
 10
-37.86602248216541
 20
-29.47357875897344
 30
0.0
 11
-37.86602248216541
 21
-32.09857875897344
 31
0.0
  0
MTEXT
  5
905
330
902
100
AcDbEntity
  8
DIMENSION
 62
     0
100
AcDbMText
 10
-37.86602248216541
 20
-33.72357875897345
 30
0.0
 40
0.75
 41
0.0
 71
     5
 72
     1
  1
\A1;0.000
 11
0.0000000000000001
 21
1.0
 31
0.0
 73
     1
 44
1.0
1001
ACAD
1000
MTEXTBEGIN
1070
    73
1070
     1
1070
    44
1040
1.0
1070
    74
1070
     0
1000
MTEXTEND
  0
POINT
  5
906
330
902
100
AcDbEntity
  8
Defpoints
 62
     0
100
AcDbPoint
 10
-37.86602248216541
 20
-29.09857875897344
 30
0.0
  0
POINT
  5
907
330
902
100
AcDbEntity
  8
Defpoints
 62
     0
100
AcDbPoint
 10
-37.86602248216541
 20
-32.09857875897344
 30
0.0
  0
POINT
  5
908
330
902
100
AcDbEntity
  8
Defpoints
 62
     0
100
AcDbPoint
 10
-37.86602940646385
 20
-29.09855659487872
 30
0.0
  0
ENDBLK
  5
909
330
902
100
AcDbEntity
  8
0
100
AcDbBlockEnd
  0
BLOCK
  5
90B
330
90A
100
AcDbEntity
  8
0
100
AcDbBlockBegin
  2
*D64
 70
     1
 10
0.0
 20
0.0
 30
0.0
  3
*D64
  1

  0
LINE
  5
90C
330
90A
100
AcDbEntity
  8
DIMENSION
 62
     0
370
    -2
100
AcDbLine
 10
-37.49002248216544
 20
-23.72307875897357
 30
0.0
 11
-40.86602248216546
 21
-23.72307875897357
 31
0.0
  0
MTEXT
  5
90D
330
90A
100
AcDbEntity
  8
DIMENSION
 62
     0
100
AcDbMText
 10
-42.74102248216546
 20
-23.72307875897357
 30
0.0
 40
0.75
 41
0.0
 71
     5
 72
     1
  1
\A1;5.375
 73
     1
 44
1.0
1001
ACAD
1000
MTEXTBEGIN
1070
    73
1070
     1
1070
    44
1040
1.0
1070
    74
1070
     0
1000
MTEXTEND
  0
POINT
  5
90E
330
90A
100
AcDbEntity
  8
Defpoints
 62
     0
100
AcDbPoint
 10
-37.11502248216544
 20
-23.72307875897357
 30
0.0
  0
POINT
  5
90F
330
90A
100
AcDbEntity
  8
Defpoints
 62
     0
100
AcDbPoint
 10
-40.86602248216546
 20
-23.72307875897357
 30
0.0
  0
POINT
  5
910
330
90A
100
AcDbEntity
  8
Defpoints
 62
     0
100
AcDbPoint
 10
-37.86602940646385
 20
-29.09855659487872
 30
0.0
  0
ENDBLK
  5
911
330
90A
100
AcDbEntity
  8
0
100
AcDbBlockEnd
  0
BLOCK
  5
913
330
912
100
AcDbEntity
  8
0
100
AcDbBlockBegin
  2
*D65
 70
     1
 10
0.0
 20
0.0
 30
0.0
  3
*D65
  1

  0
LINE
  5
914
330
912
100
AcDbEntity
  8
DIMENSION
 62
     0
370
    -2
100
AcDbLine
 10
-32.49002248216545
 20
-17.59857875897344
 30
0.0
 11
-28.36602248216554
 21
-17.59857875897344
 31
0.0
  0
MTEXT
  5
915
330
912
100
AcDbEntity
  8
DIMENSION
 62
     0
100
AcDbMText
 10
-26.49102248216554
 20
-17.59857875897344
 30
0.0
 40
0.75
 41
0.0
 71
     5
 72
     1
  1
\A1;11.500
 73
     1
 44
1.0
1001
ACAD
1000
MTEXTBEGIN
1070
    73
1070
     1
1070
    44
1040
1.0
1070
    74
1070
     0
1000
MTEXTEND
  0
POINT
  5
916
330
912
100
AcDbEntity
  8
Defpoints
 62
     0
100
AcDbPoint
 10
-32.86502248216545
 20
-17.59857875897344
 30
0.0
  0
POINT
  5
917
330
912
100
AcDbEntity
  8
Defpoints
 62
     0
100
AcDbPoint
 10
-28.36602248216554
 20
-17.59857875897344
 30
0.0
  0
POINT
  5
918
330
912
100
AcDbEntity
  8
Defpoints
 62
     0
100
AcDbPoint
 10
-37.86602940646385
 20
-29.09855659487872
 30
0.0
  0
ENDBLK
  5
919
330
912
100
AcDbEntity
  8
0
100
AcDbBlockEnd
  0
BLOCK
  5
91B
330
91A
100
AcDbEntity
  8
0
100
AcDbBlockBegin
  2
*D66
 70
     1
 10
0.0
 20
0.0
 30
0.0
  3
*D66
  1

  0
LINE
  5
91C
330
91A
100
AcDbEntity
  8
DIMENSION
 62
     0
370
    -2
100
AcDbLine
 10
-37.49002248216544
 20
-13.72307875897356
 30
0.0
 11
-40.86602248216546
 21
-13.72307875897356
 31
0.0
  0
MTEXT
  5
91D
330
91A
100
AcDbEntity
  8
DIMENSION
 62
     0
100
AcDbMText
 10
-42.99102248216547
 20
-13.72307875897356
 30
0.0
 40
0.75
 41
0.0
 71
     5
 72
     1
  1
\A1;15.375
 73
     1
 44
1.0
1001
ACAD
1000
MTEXTBEGIN
1070
    73
1070
     1
1070
    44
1040
1.0
1070
    74
1070
     0
1000
MTEXTEND
  0
POINT
  5
91E
330
91A
100
AcDbEntity
  8
Defpoints
 62
     0
100
AcDbPoint
 10
-37.11502248216544
 20
-13.72307875897356
 30
0.0
  0
POINT
  5
91F
330
91A
100
AcDbEntity
  8
Defpoints
 62
     0
100
AcDbPoint
 10
-40.86602248216546
 20
-13.72307875897356
 30
0.0
  0
POINT
  5
920
330
91A
100
AcDbEntity
  8
Defpoints
 62
     0
100
AcDbPoint
 10
-37.86602940646385
 20
-29.09855659487872
 30
0.0
  0
ENDBLK
  5
921
330
91A
100
AcDbEntity
  8
0
100
AcDbBlockEnd
  0
BLOCK
  5
923
330
922
100
AcDbEntity
  8
0
100
AcDbBlockBegin
  2
*D67
 70
     1
 10
0.0
 20
0.0
 30
0.0
  3
*D67
  1

  0
LINE
  5
924
330
922
100
AcDbEntity
  8
DIMENSION
 62
     0
370
    -2
100
AcDbLine
 10
-36.28302248216544
 20
-12.93357875897347
 30
0.0
 11
-36.28302248216544
 21
-32.09857875897344
 31
0.0
  0
MTEXT
  5
925
330
922
100
AcDbEntity
  8
DIMENSION
 62
     0
100
AcDbMText
 10
-36.28302248216544
 20
-33.84857875897345
 30
0.0
 40
0.75
 41
0.0
 71
     5
 72
     1
  1
\A1;1.583
 11
0.0000000000000001
 21
1.0
 31
0.0
 73
     1
 44
1.0
1001
ACAD
1000
MTEXTBEGIN
1070
    73
1070
     1
1070
    44
1040
1.0
1070
    74
1070
     0
1000
MTEXTEND
  0
POINT
  5
926
330
922
100
AcDbEntity
  8
Defpoints
 62
     0
100
AcDbPoint
 10
-36.28302248216544
 20
-12.55857875897347
 30
0.0
  0
POINT
  5
927
330
922
100
AcDbEntity
  8
Defpoints
 62
     0
100
AcDbPoint
 10
-36.28302248216544
 20
-32.09857875897344
 30
0.0
  0
POINT
  5
928
330
922
100
AcDbEntity
  8
Defpoints
 62
     0
100
AcDbPoint
 10
-37.86602940646385
 20
-29.09855659487872
 30
0.0
  0
ENDBLK
  5
929
330
922
100
AcDbEntity
  8
0
100
AcDbBlockEnd
  0
BLOCK
  5
92B
330
92A
100
AcDbEntity
  8
0
100
AcDbBlockBegin
  2
*D68
 70
     1
 10
0.0
 20
0.0
 30
0.0
  3
*D68
  1

  0
LINE
  5
92C
330
92A
100
AcDbEntity
  8
DIMENSION
 62
     0
370
    -2
100
AcDbLine
 10
-31.8330224821654
 20
-12.93357875897347
 30
0.0
 11
-31.8330224821654
 21
-32.09857875897344
 31
0.0
  0
MTEXT
  5
92D
330
92A
100
AcDbEntity
  8
DIMENSION
 62
     0
100
AcDbMText
 10
-31.8330224821654
 20
-33.91107875897346
 30
0.0
 40
0.75
 41
0.0
 71
     5
 72
     1
  1
\A1;6.033
 11
0.0000000000000001
 21
1.0
 31
0.0
 73
     1
 44
1.0
1001
ACAD
1000
MTEXTBEGIN
1070
    73
1070
     1
1070
    44
1040
1.0
1070
    74
1070
     0
1000
MTEXTEND
  0
POINT
  5
92E
330
92A
100
AcDbEntity
  8
Defpoints
 62
     0
100
AcDbPoint
 10
-31.8330224821654
 20
-12.55857875897347
 30
0.0
  0
POINT
  5
92F
330
92A
100
AcDbEntity
  8
Defpoints
 62
     0
100
AcDbPoint
 10
-31.8330224821654
 20
-32.09857875897344
 30
0.0
  0
POINT
  5
930
330
92A
100
AcDbEntity
  8
Defpoints
 62
     0
100
AcDbPoint
 10
-37.86602940646385
 20
-29.09855659487872
 30
0.0
  0
ENDBLK
  5
931
330
92A
100
AcDbEntity
  8
0
100
AcDbBlockEnd
  0
BLOCK
  5
933
330
932
100
AcDbEntity
  8
0
100
AcDbBlockBegin
  2
*D69
 70
     1
 10
0.0
 20
0.0
 30
0.0
  3
*D69
  1

  0
LINE
  5
934
330
932
100
AcDbEntity
  8
DIMENSION
 62
     0
370
    -2
100
AcDbLine
 10
-31.4580224821654
 20
-12.55857875897347
 30
0.0
 11
-28.36602248216554
 21
-12.55857875897347
 31
0.0
  0
MTEXT
  5
935
330
932
100
AcDbEntity
  8
DIMENSION
 62
     0
100
AcDbMText
 10
-26.30352248216553
 20
-12.55857875897347
 30
0.0
 40
0.75
 41
0.0
 71
     5
 72
     1
  1
\A1;16.540
 73
     1
 44
1.0
1001
ACAD
1000
MTEXTBEGIN
1070
    73
1070
     1
1070
    44
1040
1.0
1070
    74
1070
     0
1000
MTEXTEND
  0
POINT
  5
936
330
932
100
AcDbEntity
  8
Defpoints
 62
     0
100
AcDbPoint
 10
-31.8330224821654
 20
-12.55857875897347
 30
0.0
  0
POINT
  5
937
330
932
100
AcDbEntity
  8
Defpoints
 62
     0
100
AcDbPoint
 10
-28.36602248216554
 20
-12.55857875897347
 30
0.0
  0
POINT
  5
938
330
932
100
AcDbEntity
  8
Defpoints
 62
     0
100
AcDbPoint
 10
-37.86602940646385
 20
-29.09855659487872
 30
0.0
  0
ENDBLK
  5
939
330
932
100
AcDbEntity
  8
0
100
AcDbBlockEnd
  0
BLOCK
  5
93B
330
93A
100
AcDbEntity
  8
0
100
AcDbBlockBegin
  2
*D70
 70
     1
 10
0.0
 20
0.0
 30
0.0
  3
*D70
  1

  0
LINE
  5
93C
330
93A
100
AcDbEntity
  8
DIMENSION
 62
     0
370
    -2
100
AcDbLine
 10
-31.45802248216546
 20
-7.033578758973725
 30
0.0
 11
-28.36602248216554
 21
-7.033578758973725
 31
0.0
  0
MTEXT
  5
93D
330
93A
100
AcDbEntity
  8
DIMENSION
 62
     0
100
AcDbMText
 10
-26.17852248216554
 20
-7.033578758973725
 30
0.0
 40
0.75
 41
0.0
 71
     5
 72
     1
  1
\A1;22.065
 73
     1
 44
1.0
1001
ACAD
1000
MTEXTBEGIN
1070
    73
1070
     1
1070
    44
1040
1.0
1070
    74
1070
     0
1000
MTEXTEND
  0
POINT
  5
93E
330
93A
100
AcDbEntity
  8
Defpoints
 62
     0
100
AcDbPoint
 10
-31.83302248216545
 20
-7.033578758973725
 30
0.0
  0
POINT
  5
93F
330
93A
100
AcDbEntity
  8
Defpoints
 62
     0
100
AcDbPoint
 10
-28.36602248216554
 20
-7.033578758973725
 30
0.0
  0
POINT
  5
940
330
93A
100
AcDbEntity
  8
Defpoints
 62
     0
100
AcDbPoint
 10
-37.86602940646385
 20
-29.09855659487872
 30
0.0
  0
ENDBLK
  5
941
330
93A
100
AcDbEntity
  8
0
100
AcDbBlockEnd
  0
BLOCK
  5
943
330
942
100
AcDbEntity
  8
0
100
AcDbBlockBegin
  2
*D71
 70
     1
 10
0.0
 20
0.0
 30
0.0
  3
*D71
  1

  0
LINE
  5
944
330
942
100
AcDbEntity
  8
DIMENSION
 62
     0
370
    -2
100
AcDbLine
 10
-37.49002248216544
 20
-5.973078758973564
 30
0.0
 11
-40.86602248216546
 21
-5.973078758973564
 31
0.0
  0
MTEXT
  5
945
330
942
100
AcDbEntity
  8
DIMENSION
 62
     0
100
AcDbMText
 10
-42.99102248216547
 20
-5.973078758973564
 30
0.0
 40
0.75
 41
0.0
 71
     5
 72
     1
  1
\A1;23.125
 73
     1
 44
1.0
1001
ACAD
1000
MTEXTBEGIN
1070
    73
1070
     1
1070
    44
1040
1.0
1070
    74
1070
     0
1000
MTEXTEND
  0
POINT
  5
946
330
942
100
AcDbEntity
  8
Defpoints
 62
     0
100
AcDbPoint
 10
-37.11502248216544
 20
-5.973078758973564
 30
0.0
  0
POINT
  5
947
330
942
100
AcDbEntity
  8
Defpoints
 62
     0
100
AcDbPoint
 10
-40.86602248216546
 20
-5.973078758973564
 30
0.0
  0
POINT
  5
948
330
942
100
AcDbEntity
  8
Defpoints
 62
     0
100
AcDbPoint
 10
-37.86602940646385
 20
-29.09855659487872
 30
0.0
  0
ENDBLK
  5
949
330
942
100
AcDbEntity
  8
0
100
AcDbBlockEnd
  0
BLOCK
  5
94B
330
94A
100
AcDbEntity
  8
0
100
AcDbBlockBegin
  2
*D72
 70
     1
 10
0.0
 20
0.0
 30
0.0
  3
*D72
  1

  0
LINE
  5
94C
330
94A
100
AcDbEntity
  8
DIMENSION
 62
     0
370
    -2
100
AcDbLine
 10
-34.24002248216544
 20
-2.828578758973455
 30
0.0
 11
-28.36602248216554
 21
-2.828578758973455
 31
0.0
  0
MTEXT
  5
94D
330
94A
100
AcDbEntity
  8
DIMENSION
 62
     0
100
AcDbMText
 10
-26.17852248216554
 20
-2.828578758973455
 30
0.0
 40
0.75
 41
0.0
 71
     5
 72
     1
  1
\A1;26.270
 73
     1
 44
1.0
1001
ACAD
1000
MTEXTBEGIN
1070
    73
1070
     1
1070
    44
1040
1.0
1070
    74
1070
     0
1000
MTEXTEND
  0
POINT
  5
94E
330
94A
100
AcDbEntity
  8
Defpoints
 62
     0
100
AcDbPoint
 10
-34.61502248216544
 20
-2.828578758973455
 30
0.0
  0
POINT
  5
94F
330
94A
100
AcDbEntity
  8
Defpoints
 62
     0
100
AcDbPoint
 10
-28.36602248216554
 20
-2.828578758973455
 30
0.0
  0
POINT
  5
950
330
94A
100
AcDbEntity
  8
Defpoints
 62
     0
100
AcDbPoint
 10
-37.86602940646385
 20
-29.09855659487872
 30
0.0
  0
ENDBLK
  5
951
330
94A
100
AcDbEntity
  8
0
100
AcDbBlockEnd
  0
BLOCK
  5
953
330
952
100
AcDbEntity
  8
0
100
AcDbBlockBegin
  2
*D73
 70
     1
 10
0.0
 20
0.0
 30
0.0
  3
*D73
  1

  0
LINE
  5
954
330
952
100
AcDbEntity
  8
DIMENSION
 62
     0
370
    -2
100
AcDbLine
 10
-37.49002248216544
 20
0.0264212410265613
 30
0.0
 11
-40.86602248216546
 21
0.0264212410265613
 31
0.0
  0
MTEXT
  5
955
330
952
100
AcDbEntity
  8
DIMENSION
 62
     0
100
AcDbMText
 10
-42.99102248216547
 20
0.0264212410265613
 30
0.0
 40
0.75
 41
0.0
 71
     5
 72
     1
  1
\A1;29.125
 73
     1
 44
1.0
1001
ACAD
1000
MTEXTBEGIN
1070
    73
1070
     1
1070
    44
1040
1.0
1070
    74
1070
     0
1000
MTEXTEND
  0
POINT
  5
956
330
952
100
AcDbEntity
  8
Defpoints
 62
     0
100
AcDbPoint
 10
-37.11502248216544
 20
0.0264212410265613
 30
0.0
  0
POINT
  5
957
330
952
100
AcDbEntity
  8
Defpoints
 62
     0
100
AcDbPoint
 10
-40.86602248216546
 20
0.0264212410265613
 30
0.0
  0
POINT
  5
958
330
952
100
AcDbEntity
  8
Defpoints
 62
     0
100
AcDbPoint
 10
-37.86602940646385
 20
-29.09855659487872
 30
0.0
  0
ENDBLK
  5
959
330
952
100
AcDbEntity
  8
0
100
AcDbBlockEnd
  0
BLOCK
  5
95B
330
95A
100
AcDbEntity
  8
0
100
AcDbBlockBegin
  2
*D74
 70
     1
 10
0.0
 20
0.0
 30
0.0
  3
*D74
  1

  0
LINE
  5
95C
330
95A
100
AcDbEntity
  8
DIMENSION
 62
     0
370
    -2
100
AcDbLine
 10
-30.99102248216547
 20
0.9014212410266747
 30
0.0
 11
-28.36602248216554
 21
0.9014212410266747
 31
0.0
  0
MTEXT
  5
95D
330
95A
100
AcDbEntity
  8
DIMENSION
 62
     0
100
AcDbMText
 10
-26.36602248216553
 20
0.9014212410266747
 30
0.0
 40
0.75
 41
0.0
 71
     5
 72
     1
  1
\A1;30.000
 73
     1
 44
1.0
1001
ACAD
1000
MTEXTBEGIN
1070
    73
1070
     1
1070
    44
1040
1.0
1070
    74
1070
     0
1000
MTEXTEND
  0
POINT
  5
95E
330
95A
100
AcDbEntity
  8
Defpoints
 62
     0
100
AcDbPoint
 10
-31.36602248216547
 20
0.9014212410266747
 30
0.0
  0
POINT
  5
95F
330
95A
100
AcDbEntity
  8
Defpoints
 62
     0
100
AcDbPoint
 10
-28.36602248216554
 20
0.9014212410266747
 30
0.0
  0
POINT
  5
960
330
95A
100
AcDbEntity
  8
Defpoints
 62
     0
100
AcDbPoint
 10
-37.86602940646385
 20
-29.09855659487872
 30
0.0
  0
ENDBLK
  5
961
330
95A
100
AcDbEntity
  8
0
100
AcDbBlockEnd
  0
BLOCK
  5
963
330
962
100
AcDbEntity
  8
0
100
AcDbBlockBegin
  2
*D75
 70
     1
 10
0.0
 20
0.0
 30
0.0
  3
*D75
  1

  0
LINE
  5
964
330
962
100
AcDbEntity
  8
DIMENSION
 62
     0
370
    -2
100
AcDbLine
 10
-37.11502248216544
 20
0.4014212410265614
 30
0.0
 11
-37.11502248216544
 21
3.901421241026568
 31
0.0
  0
MTEXT
  5
965
330
962
100
AcDbEntity
  8
DIMENSION
 62
     0
100
AcDbMText
 10
-37.11502248216544
 20
5.651421241026562
 30
0.0
 40
0.75
 41
0.0
 71
     5
 72
     1
  1
\A1;0.750
 11
0.0000000000000001
 21
1.0
 31
0.0
 73
     1
 44
1.0
1001
ACAD
1000
MTEXTBEGIN
1070
    73
1070
     1
1070
    44
1040
1.0
1070
    74
1070
     0
1000
MTEXTEND
  0
POINT
  5
966
330
962
100
AcDbEntity
  8
Defpoints
 62
     0
100
AcDbPoint
 10
-37.11502248216544
 20
0.0264212410265613
 30
0.0
  0
POINT
  5
967
330
962
100
AcDbEntity
  8
Defpoints
 62
     0
100
AcDbPoint
 10
-37.11502248216544
 20
3.901421241026568
 30
0.0
  0
POINT
  5
968
330
962
100
AcDbEntity
  8
Defpoints
 62
     0
100
AcDbPoint
 10
-37.86602940646385
 20
-29.09855659487872
 30
0.0
  0
ENDBLK
  5
969
330
962
100
AcDbEntity
  8
0
100
AcDbBlockEnd
  0
BLOCK
  5
96B
330
96A
100
AcDbEntity
  8
0
100
AcDbBlockBegin
  2
*D76
 70
     1
 10
0.0
 20
0.0
 30
0.0
  3
*D76
  1

  0
LINE
  5
96C
330
96A
100
AcDbEntity
  8
DIMENSION
 62
     0
370
    -2
100
AcDbLine
 10
-34.61502248216544
 20
-2.453578758973455
 30
0.0
 11
-34.61502248216544
 21
3.901421241026561
 31
0.0
  0
MTEXT
  5
96D
330
96A
100
AcDbEntity
  8
DIMENSION
 62
     0
100
AcDbMText
 10
-34.61502248216544
 20
5.713921241026556
 30
0.0
 40
0.75
 41
0.0
 71
     5
 72
     1
  1
\A1;3.250
 11
0.0000000000000001
 21
1.0
 31
0.0
 73
     1
 44
1.0
1001
ACAD
1000
MTEXTBEGIN
1070
    73
1070
     1
1070
    44
1040
1.0
1070
    74
1070
     0
1000
MTEXTEND
  0
POINT
  5
96E
330
96A
100
AcDbEntity
  8
Defpoints
 62
     0
100
AcDbPoint
 10
-34.61502248216544
 20
-2.828578758973455
 30
0.0
  0
POINT
  5
96F
330
96A
100
AcDbEntity
  8
Defpoints
 62
     0
100
AcDbPoint
 10
-34.61502248216544
 20
3.901421241026561
 30
0.0
  0
POINT
  5
970
330
96A
100
AcDbEntity
  8
Defpoints
 62
     0
100
AcDbPoint
 10
-37.86602940646385
 20
-29.09855659487872
 30
0.0
  0
ENDBLK
  5
971
330
96A
100
AcDbEntity
  8
0
100
AcDbBlockEnd
  0
BLOCK
  5
973
330
972
100
AcDbEntity
  8
0
100
AcDbBlockBegin
  2
*D77
 70
     1
 10
0.0
 20
0.0
 30
0.0
  3
*D77
  1

  0
LINE
  5
974
330
972
100
AcDbEntity
  8
DIMENSION
 62
     0
370
    -2
100
AcDbLine
 10
-32.11502248216544
 20
0.4014212410265614
 30
0.0
 11
-32.11502248216544
 21
1.52642124102656
 31
0.0
  0
LINE
  5
975
330
972
100
AcDbEntity
  8
DIMENSION
 62
     0
370
    -2
100
AcDbLine
 10
-32.11502248216544
 20
1.52642124102656
 30
0.0
 11
-32.36602248216547
 21
2.40142124102656
 31
0.0
  0
LINE
  5
976
330
972
100
AcDbEntity
  8
DIMENSION
 62
     0
370
    -2
100
AcDbLine
 10
-32.36602248216547
 20
2.40142124102656
 30
0.0
 11
-32.36602248216547
 21
3.901421241026561
 31
0.0
  0
MTEXT
  5
977
330
972
100
AcDbEntity
  8
DIMENSION
 62
     0
100
AcDbMText
 10
-32.36602248216547
 20
5.713921241026556
 30
0.0
 40
0.75
 41
0.0
 71
     5
 72
     1
  1
\A1;5.750
 11
0.0000000000000001
 21
1.0
 31
0.0
 73
     1
 44
1.0
1001
ACAD
1000
MTEXTBEGIN
1070
    73
1070
     1
1070
    44
1040
1.0
1070
    74
1070
     0
1000
MTEXTEND
  0
POINT
  5
978
330
972
100
AcDbEntity
  8
Defpoints
 62
     0
100
AcDbPoint
 10
-32.11502248216544
 20
0.0264212410265613
 30
0.0
  0
POINT
  5
979
330
972
100
AcDbEntity
  8
Defpoints
 62
     0
100
AcDbPoint
 10
-32.36602248216547
 20
3.901421241026561
 30
0.0
  0
POINT
  5
97A
330
972
100
AcDbEntity
  8
Defpoints
 62
     0
100
AcDbPoint
 10
-37.86602940646385
 20
-29.09855659487872
 30
0.0
  0
ENDBLK
  5
97B
330
972
100
AcDbEntity
  8
0
100
AcDbBlockEnd
  0
BLOCK
  5
97D
330
97C
100
AcDbEntity
  8
0
100
AcDbBlockBegin
  2
*D78
 70
     1
 10
0.0
 20
0.0
 30
0.0
  3
*D78
  1

  0
LINE
  5
97E
330
97C
100
AcDbEntity
  8
DIMENSION
 62
     0
370
    -2
100
AcDbLine
 10
-31.36602248216547
 20
1.276421241026673
 30
0.0
 11
-31.36602248216547
 21
3.901421241026561
 31
0.0
  0
MTEXT
  5
97F
330
97C
100
AcDbEntity
  8
DIMENSION
 62
     0
100
AcDbMText
 10
-31.36602248216547
 20
5.651421241026556
 30
0.0
 40
0.75
 41
0.0
 71
     5
 72
     1
  1
\A1;6.500
 11
0.0000000000000001
 21
1.0
 31
0.0
 73
     1
 44
1.0
1001
ACAD
1000
MTEXTBEGIN
1070
    73
1070
     1
1070
    44
1040
1.0
1070
    74
1070
     0
1000
MTEXTEND
  0
POINT
  5
980
330
97C
100
AcDbEntity
  8
Defpoints
 62
     0
100
AcDbPoint
 10
-31.36602248216547
 20
0.9014212410266747
 30
0.0
  0
POINT
  5
981
330
97C
100
AcDbEntity
  8
Defpoints
 62
     0
100
AcDbPoint
 10
-31.36602248216547
 20
3.901421241026561
 30
0.0
  0
POINT
  5
982
330
97C
100
AcDbEntity
  8
Defpoints
 62
     0
100
AcDbPoint
 10
-37.86602940646385
 20
-29.09855659487872
 30
0.0
  0
ENDBLK
  5
983
330
97C
100
AcDbEntity
  8
0
100
AcDbBlockEnd
  0
BLOCK
  5
985
330
984
100
AcDbEntity
  8
0
100
AcDbBlockBegin
  2
*D79
 70
     1
 10
0.0
 20
0.0
 30
0.0
  3
*D79
  1

  0
LINE
  5
986
330
984
100
AcDbEntity
  8
DIMENSION
 62
     0
370
    -2
100
AcDbLine
 10
-32.86502248216545
 20
-19.47357875897344
 30
0.0
 11
-32.86502248216545
 21
-32.09857875897344
 31
0.0
  0
MTEXT
  5
987
330
984
100
AcDbEntity
  8
DIMENSION
 62
     0
100
AcDbMText
 10
-32.86502248216543
 20
-33.72357875897345
 30
0.0
 40
0.75
 41
0.0
 71
     5
 72
     1
  1
\A1;5.001
 11
0.0000000000000001
 21
1.0
 31
0.0
 73
     1
 44
1.0
1001
ACAD
1000
MTEXTBEGIN
1070
    73
1070
     1
1070
    44
1040
1.0
1070
    74
1070
     0
1000
MTEXTEND
  0
POINT
  5
988
330
984
100
AcDbEntity
  8
Defpoints
 62
     0
100
AcDbPoint
 10
-32.86502248216545
 20
-19.09857875897344
 30
0.0
  0
POINT
  5
989
330
984
100
AcDbEntity
  8
Defpoints
 62
     0
100
AcDbPoint
 10
-32.86502248216545
 20
-32.09857875897344
 30
0.0
  0
POINT
  5
98A
330
984
100
AcDbEntity
  8
Defpoints
 62
     0
100
AcDbPoint
 10
-37.86602940646385
 20
-29.09855659487872
 30
0.0
  0
ENDBLK
  5
98B
330
984
100
AcDbEntity
  8
0
100
AcDbBlockEnd
  0
BLOCK
  5
98D
330
98C
100
AcDbEntity
  8
0
100
AcDbBlockBegin
  2
*D80
 70
     1
 10
0.0
 20
0.0
 30
0.0
  3
*D80
  1

  0
LINE
  5
98E
330
98C
100
AcDbEntity
  8
0
 62
     0
370
    -2
100
AcDbLine
 10
-32.49002248216545
 20
-19.09857875897344
 30
0.0
 11
-28.42494707905288
 21
-19.09857875897344
 31
0.0
  0
MTEXT
  5
98F
330
98C
100
AcDbEntity
  8
0
 62
     0
100
AcDbMText
 10
-26.54994707905288
 20
-19.09857875897344
 30
0.0
 40
0.75
 41
0.0
 71
     5
 72
     1
  1
\A1;10.000
 73
     1
 44
1.0
1001
ACAD
1000
MTEXTBEGIN
1070
    73
1070
     1
1070
    44
1040
1.0
1070
    74
1070
     0
1000
MTEXTEND
  0
POINT
  5
990
330
98C
100
AcDbEntity
  8
Defpoints
 62
     0
100
AcDbPoint
 10
-32.86502248216545
 20
-19.09857875897344
 30
0.0
  0
POINT
  5
991
330
98C
100
AcDbEntity
  8
Defpoints
 62
     0
100
AcDbPoint
 10
-28.42494707905288
 20
-19.09857875897344
 30
0.0
  0
POINT
  5
992
330
98C
100
AcDbEntity
  8
Defpoints
 62
     0
100
AcDbPoint
 10
-37.86602940646385
 20
-29.09855659487872
 30
0.0
  0
ENDBLK
  5
993
330
98C
100
AcDbEntity
  8
0
100
AcDbBlockEnd
  0
BLOCK
  5
995
330
994
100
AcDbEntity
  8
0
100
AcDbBlockBegin
  2
*D81
 70
     1
 10
0.0
 20
0.0
 30
0.0
  3
*D81
  1

  0
LINE
  5
996
330
994
100
AcDbEntity
  8
0
 62
     0
370
    -2
100
AcDbLine
 10
-29.93372652848939
 20
-14.76891470415558
 30
0.0
 11
-30.68372652848939
 21
-14.76891470415557
 31
0.0
  0
LINE
  5
997
330
994
100
AcDbEntity
  8
0
 62
     0
370
    -2
100
AcDbLine
 10
-30.68372652848939
 20
-14.76891470415557
 30
0.0
 11
-32.02555085959782
 21
-16.50958270989718
 31
0.0
  0
MTEXT
  5
998
330
994
100
AcDbEntity
  8
0
 62
     0
100
AcDbMText
 10
-29.55872652848939
 20
-13.76891470415557
 30
0.0
 40
0.75
 41
0.0
 71
     1
 72
     1
  1
\A1;\U+22051.250 (1)\PPOWER SUPPLY
 73
     1
 44
1.0
1001
ACAD
1000
MTEXTBEGIN
1070
    73
1070
     1
1070
    44
1040
1.0
1070
    74
1070
     0
1000
MTEXTEND
  0
SOLID
  5
999
330
994
100
AcDbEntity
  8
0
 62
     0
100
AcDbTrace
 10
-32.12455050042293
 20
-16.43326710784558
 30
0.0
 11
-31.9265512187727
 21
-16.58589831194879
 31
0.0
 12
-32.48344447190743
 22
-17.10358055484787
 32
0.0
 13
-32.48344447190743
 23
-17.10358055484787
 33
0.0
  0
LINE
  5
99A
330
994
100
AcDbEntity
  8
0
 62
     0
370
    -2
100
AcDbLine
 10
-32.95502248216544
 20
-17.59857875897344
 30
0.0
 11
-32.77502248216543
 21
-17.59857875897343
 31
0.0
  0
LINE
  5
99B
330
994
100
AcDbEntity
  8
0
 62
     0
370
    -2
100
AcDbLine
 10
-32.86502248216545
 20
-17.68857875897342
 30
0.0
 11
-32.86502248216543
 21
-17.50857875897343
 31
0.0
  0
POINT
  5
99C
330
994
100
AcDbEntity
  8
Defpoints
 62
     0
100
AcDbPoint
 10
-32.48344447190743
 20
-17.10358055484787
 30
0.0
  0
POINT
  5
99D
330
994
100
AcDbEntity
  8
Defpoints
 62
     0
100
AcDbPoint
 10
-33.24660049242345
 20
-18.093576963099
 30
0.0
  0
ENDBLK
  5
99E
330
994
100
AcDbEntity
  8
0
100
AcDbBlockEnd
  0
BLOCK
  5
9A0
330
99F
100
AcDbEntity
  8
0
100
AcDbBlockBegin
  2
*D82
 70
     1
 10
0.0
 20
0.0
 30
0.0
  3
*D82
  1

  0
LINE
  5
9A1
330
99F
100
AcDbEntity
  8
0
 62
     0
370
    -2
100
AcDbLine
 10
-29.18355900404616
 20
-23.72505751248752
 30
0.0
 11
-29.93355900404616
 21
-23.72505751248752
 31
0.0
  0
LINE
  5
9A2
330
99F
100
AcDbEntity
  8
0
 62
     0
370
    -2
100
AcDbLine
 10
-29.93355900404616
 20
-23.72505751248752
 30
0.0
 11
-32.12908215623242
 21
-20.26005059964182
 31
0.0
  0
MTEXT
  5
9A3
330
99F
100
AcDbEntity
  8
0
 62
     0
100
AcDbMText
 10
-28.80855900404616
 20
-20.85005751248752
 30
0.0
 40
0.75
 41
0.0
 71
     1
 72
     1
  1
\A1;\U+22051.250 (1)\POPTIONAL:\PEXTERNAL \PHEAT\POUTPUT
 73
     1
 44
1.0
1001
ACAD
1000
MTEXTBEGIN
1070
    73
1070
     1
1070
    44
1040
1.0
1070
    74
1070
     0
1000
MTEXTEND
  0
SOLID
  5
9A4
330
99F
100
AcDbEntity
  8
0
 62
     0
100
AcDbTrace
 10
-32.02349380708073
 20
-20.19314693364791
 30
0.0
 11
-32.23467050538409
 21
-20.32695426563573
 31
0.0
 12
-32.53050415219588
 22
-19.62652050473179
 32
0.0
 13
-32.53050415219588
 23
-19.62652050473179
 33
0.0
  0
LINE
  5
9A5
330
99F
100
AcDbEntity
  8
0
 62
     0
370
    -2
100
AcDbLine
 10
-32.95502248216543
 20
-19.09857875897344
 30
0.0
 11
-32.77502248216543
 21
-19.09857875897342
 31
0.0
  0
LINE
  5
9A6
330
99F
100
AcDbEntity
  8
0
 62
     0
370
    -2
100
AcDbLine
 10
-32.86502248216543
 20
-19.18857875897343
 30
0.0
 11
-32.86502248216543
 21
-19.00857875897343
 31
0.0
  0
POINT
  5
9A7
330
99F
100
AcDbEntity
  8
Defpoints
 62
     0
100
AcDbPoint
 10
-32.53050415219588
 20
-19.62652050473179
 30
0.0
  0
POINT
  5
9A8
330
99F
100
AcDbEntity
  8
Defpoints
 62
     0
100
AcDbPoint
 10
-33.19954081213499
 20
-18.57063701321508
 30
0.0
  0
ENDBLK
  5
9A9
330
99F
100
AcDbEntity
  8
0
100
AcDbBlockEnd
  0
BLOCK
  5
9AB
330
9AA
100
AcDbEntity
  8
0
100
AcDbBlockBegin
  2
*D83
 70
     1
 10
0.0
 20
0.0
 30
0.0
  3
*D83
  1

  0
LINE
  5
9AC
330
9AA
100
AcDbEntity
  8
0
 62
     0
370
    -2
100
AcDbLine
 10
-35.36502248216544
 20
-17.22357875897344
 30
0.0
 11
-35.36502248216544
 21
-29.2108948485386
 31
0.0
  0
LINE
  5
9AD
330
9AA
100
AcDbEntity
  8
0
 62
     0
370
    -2
100
AcDbLine
 10
-35.36502248216544
 20
-29.2108948485386
 30
0.0
 11
-35.11362741746462
 21
-30.71089484853861
 31
0.0
  0
LINE
  5
9AE
330
9AA
100
AcDbEntity
  8
0
 62
     0
370
    -2
100
AcDbLine
 10
-35.11362741746462
 20
-30.71089484853861
 30
0.0
 11
-35.11362741746462
 21
-32.2108948485386
 31
0.0
  0
MTEXT
  5
9AF
330
9AA
100
AcDbEntity
  8
0
 62
     0
100
AcDbMText
 10
-35.11362741746461
 20
-33.89839484853861
 30
0.0
 40
0.75
 41
0.0
 71
     5
 72
     1
  1
\A1;2.501
 11
0.0000000000000001
 21
1.0
 31
0.0
 73
     1
 44
1.0
1001
ACAD
1000
MTEXTBEGIN
1070
    73
1070
     1
1070
    44
1040
1.0
1070
    74
1070
     0
1000
MTEXTEND
  0
POINT
  5
9B0
330
9AA
100
AcDbEntity
  8
Defpoints
 62
     0
100
AcDbPoint
 10
-35.36502248216544
 20
-16.84857875897344
 30
0.0
  0
POINT
  5
9B1
330
9AA
100
AcDbEntity
  8
Defpoints
 62
     0
100
AcDbPoint
 10
-35.11362741746462
 20
-32.2108948485386
 30
0.0
  0
POINT
  5
9B2
330
9AA
100
AcDbEntity
  8
Defpoints
 62
     0
100
AcDbPoint
 10
-37.86602940646385
 20
-29.09855659487872
 30
0.0
  0
ENDBLK
  5
9B3
330
9AA
100
AcDbEntity
  8
0
100
AcDbBlockEnd
  0
BLOCK
  5
9B5
330
9B4
100
AcDbEntity
  8
0
100
AcDbBlockBegin
  2
*D84
 70
     1
 10
0.0
 20
0.0
 30
0.0
  3
*D84
  1

  0
LINE
  5
9B6
330
9B4
100
AcDbEntity
  8
0
 62
     0
370
    -2
100
AcDbLine
 10
-35.74002248216544
 20
-16.84857875897344
 30
0.0
 11
-41.04281874011781
 21
-16.84857875897344
 31
0.0
  0
MTEXT
  5
9B7
330
9B4
100
AcDbEntity
  8
0
 62
     0
100
AcDbMText
 10
-43.10531874011782
 20
-16.84857875897344
 30
0.0
 40
0.75
 41
0.0
 71
     5
 72
     1
  1
\A1;12.250
 73
     1
 44
1.0
1001
ACAD
1000
MTEXTBEGIN
1070
    73
1070
     1
1070
    44
1040
1.0
1070
    74
1070
     0
1000
MTEXTEND
  0
POINT
  5
9B8
330
9B4
100
AcDbEntity
  8
Defpoints
 62
     0
100
AcDbPoint
 10
-35.36502248216544
 20
-16.84857875897344
 30
0.0
  0
POINT
  5
9B9
330
9B4
100
AcDbEntity
  8
Defpoints
 62
     0
100
AcDbPoint
 10
-41.04281874011781
 20
-16.84857875897344
 30
0.0
  0
POINT
  5
9BA
330
9B4
100
AcDbEntity
  8
Defpoints
 62
     0
100
AcDbPoint
 10
-37.86602940646385
 20
-29.09855659487872
 30
0.0
  0
ENDBLK
  5
9BB
330
9B4
100
AcDbEntity
  8
0
100
AcDbBlockEnd
  0
BLOCK
  5
9BD
330
9BC
100
AcDbEntity
  8
0
100
AcDbBlockBegin
  2
*D85
 70
     1
 10
0.0
 20
0.0
 30
0.0
  3
*D85
  1

  0
LINE
  5
9BE
330
9BC
100
AcDbEntity
  8
0
 62
     0
370
    -2
100
AcDbLine
 10
-38.94460025538275
 20
-19.44095027348555
 30
0.0
 11
-38.19460025538275
 21
-19.44095027348555
 31
0.0
  0
LINE
  5
9BF
330
9BC
100
AcDbEntity
  8
0
 62
     0
370
    -2
100
AcDbLine
 10
-38.19460025538275
 20
-19.44095027348555
 30
0.0
 11
-36.37886069912639
 21
-17.77742593145632
 31
0.0
  0
MTEXT
  5
9C0
330
9BC
100
AcDbEntity
  8
0
 62
     0
100
AcDbMText
 10
-39.31960025538275
 20
-17.81595027348556
 30
0.0
 40
0.75
 41
0.0
 71
     3
 72
     1
  1
\A1;\U+22051.250 (1)\POPTIONAL:ETHERNET\PCONNECTION PORT
 73
     1
 44
1.0
1001
ACAD
1000
MTEXTBEGIN
1070
    73
1070
     1
1070
    44
1040
1.0
1070
    74
1070
     0
1000
MTEXTEND
  0
SOLID
  5
9C1
330
9BC
100
AcDbEntity
  8
0
 62
     0
100
AcDbTrace
 10
-36.46330135117028
 20
-17.68525882082351
 30
0.0
 11
-36.29442004708248
 21
-17.86959304208913
 31
0.0
 12
-35.8258580353295
 22
-17.27078201919293
 32
0.0
 13
-35.8258580353295
 23
-17.27078201919293
 33
0.0
  0
LINE
  5
9C2
330
9BC
100
AcDbEntity
  8
0
 62
     0
370
    -2
100
AcDbLine
 10
-35.45502248216544
 20
-16.84857875897344
 30
0.0
 11
-35.27502248216543
 21
-16.84857875897344
 31
0.0
  0
LINE
  5
9C3
330
9BC
100
AcDbEntity
  8
0
 62
     0
370
    -2
100
AcDbLine
 10
-35.36502248216544
 20
-16.93857875897344
 30
0.0
 11
-35.36502248216544
 21
-16.75857875897342
 31
0.0
  0
POINT
  5
9C4
330
9BC
100
AcDbEntity
  8
Defpoints
 62
     0
100
AcDbPoint
 10
-35.8258580353295
 20
-17.27078201919293
 30
0.0
  0
POINT
  5
9C5
330
9BC
100
AcDbEntity
  8
Defpoints
 62
     0
100
AcDbPoint
 10
-34.90418692900137
 20
-16.42637549875393
 30
0.0
  0
ENDBLK
  5
9C6
330
9BC
100
AcDbEntity
  8
0
100
AcDbBlockEnd
  0
BLOCK
  5
A33
330
A2D
100
AcDbEntity
  8
0
100
AcDbBlockBegin
  2
*D86
 70
     1
 10
0.0
 20
0.0
 30
0.0
  3
*D86
  1

  0
LINE
  5
C2B
330
A2D
100
AcDbEntity
  8
DIMENSION
 62
     0
370
    -2
100
AcDbLine
 10
28.13409156475025
 20
45.95510689085268
 30
0.0
 11
28.13409156475025
 21
49.45510689085271
 31
0.0
  0
MTEXT
  5
C2C
330
A2D
100
AcDbEntity
  8
DIMENSION
 62
     0
100
AcDbMText
 10
28.13409156475024
 20
50.9201068908527
 30
0.0
 40
0.75
 41
0.0
 71
     5
 72
     1
  1
\A1;0.750
 11
0.0000000000000001
 21
1.0
 31
0.0
 73
     1
 44
1.0
1001
ACAD
1000
MTEXTBEGIN
1070
    73
1070
     1
1070
    44
1040
1.0
1070
    74
1070
     0
1000
MTEXTEND
  0
POINT
  5
C2D
330
A2D
100
AcDbEntity
  8
Defpoints
 62
     0
100
AcDbPoint
 10
28.13409156475025
 20
45.58010689085269
 30
0.0
  0
POINT
  5
C2E
330
A2D
100
AcDbEntity
  8
Defpoints
 62
     0
100
AcDbPoint
 10
28.13409156475025
 20
49.45510689085271
 30
0.0
  0
POINT
  5
C2F
330
A2D
100
AcDbEntity
  8
Defpoints
 62
     0
100
AcDbPoint
 10
27.38308464045184
 20
16.45512905494742
 30
0.0
  0
ENDBLK
  5
A34
330
A2D
100
AcDbEntity
  8
0
100
AcDbBlockEnd
  0
BLOCK
  5
A3B
330
A35
100
AcDbEntity
  8
0
100
AcDbBlockBegin
  2
*D87
 70
     1
 10
0.0
 20
0.0
 30
0.0
  3
*D87
  1

  0
LINE
  5
C26
330
A35
100
AcDbEntity
  8
DIMENSION
 62
     0
370
    -2
100
AcDbLine
 10
34.25809156475022
 20
46.4551068908528
 30
0.0
 11
36.88309156475016
 21
46.4551068908528
 31
0.0
  0
MTEXT
  5
C27
330
A35
100
AcDbEntity
  8
DIMENSION
 62
     0
100
AcDbMText
 10
38.59809156475016
 20
46.4551068908528
 30
0.0
 40
0.75
 41
0.0
 71
     5
 72
     1
  1
\A1;30.000
 73
     1
 44
1.0
1001
ACAD
1000
MTEXTBEGIN
1070
    73
1070
     1
1070
    44
1040
1.0
1070
    74
1070
     0
1000
MTEXTEND
  0
POINT
  5
C28
330
A35
100
AcDbEntity
  8
Defpoints
 62
     0
100
AcDbPoint
 10
33.88309156475022
 20
46.4551068908528
 30
0.0
  0
POINT
  5
C29
330
A35
100
AcDbEntity
  8
Defpoints
 62
     0
100
AcDbPoint
 10
36.88309156475016
 20
46.4551068908528
 30
0.0
  0
POINT
  5
C2A
330
A35
100
AcDbEntity
  8
Defpoints
 62
     0
100
AcDbPoint
 10
27.38308464045184
 20
16.45512905494742
 30
0.0
  0
ENDBLK
  5
A3C
330
A35
100
AcDbEntity
  8
0
100
AcDbBlockEnd
  0
BLOCK
  5
A43
330
A3D
100
AcDbEntity
  8
0
100
AcDbBlockBegin
  2
*D88
 70
     1
 10
0.0
 20
0.0
 30
0.0
  3
*D88
  1

  0
LINE
  5
C21
330
A3D
100
AcDbEntity
  8
DIMENSION
 62
     0
370
    -2
100
AcDbLine
 10
31.00909156475025
 20
42.72510689085268
 30
0.0
 11
36.88309156475016
 21
42.72510689085268
 31
0.0
  0
MTEXT
  5
C22
330
A3D
100
AcDbEntity
  8
DIMENSION
 62
     0
100
AcDbMText
 10
38.78559156475017
 20
42.72510689085268
 30
0.0
 40
0.75
 41
0.0
 71
     5
 72
     1
  1
\A1;26.270
 73
     1
 44
1.0
1001
ACAD
1000
MTEXTBEGIN
1070
    73
1070
     1
1070
    44
1040
1.0
1070
    74
1070
     0
1000
MTEXTEND
  0
POINT
  5
C23
330
A3D
100
AcDbEntity
  8
Defpoints
 62
     0
100
AcDbPoint
 10
30.63409156475025
 20
42.72510689085268
 30
0.0
  0
POINT
  5
C24
330
A3D
100
AcDbEntity
  8
Defpoints
 62
     0
100
AcDbPoint
 10
36.88309156475016
 20
42.72510689085268
 30
0.0
  0
POINT
  5
C25
330
A3D
100
AcDbEntity
  8
Defpoints
 62
     0
100
AcDbPoint
 10
27.38308464045184
 20
16.45512905494742
 30
0.0
  0
ENDBLK
  5
A44
330
A3D
100
AcDbEntity
  8
0
100
AcDbBlockEnd
  0
BLOCK
  5
A4B
330
A45
100
AcDbEntity
  8
0
100
AcDbBlockBegin
  2
*D89
 70
     1
 10
0.0
 20
0.0
 30
0.0
  3
*D89
  1

  0
LINE
  5
C1C
330
A45
100
AcDbEntity
  8
DIMENSION
 62
     0
370
    -2
100
AcDbLine
 10
33.79109156475023
 20
38.52010689085243
 30
0.0
 11
36.88309156475016
 21
38.52010689085243
 31
0.0
  0
MTEXT
  5
C1D
330
A45
100
AcDbEntity
  8
DIMENSION
 62
     0
100
AcDbMText
 10
38.78559156475017
 20
38.52010689085243
 30
0.0
 40
0.75
 41
0.0
 71
     5
 72
     1
  1
\A1;22.065
 73
     1
 44
1.0
1001
ACAD
1000
MTEXTBEGIN
1070
    73
1070
     1
1070
    44
1040
1.0
1070
    74
1070
     0
1000
MTEXTEND
  0
POINT
  5
C1E
330
A45
100
AcDbEntity
  8
Defpoints
 62
     0
100
AcDbPoint
 10
33.41609156475023
 20
38.52010689085243
 30
0.0
  0
POINT
  5
C1F
330
A45
100
AcDbEntity
  8
Defpoints
 62
     0
100
AcDbPoint
 10
36.88309156475016
 20
38.52010689085243
 30
0.0
  0
POINT
  5
C20
330
A45
100
AcDbEntity
  8
Defpoints
 62
     0
100
AcDbPoint
 10
27.38308464045184
 20
16.45512905494742
 30
0.0
  0
ENDBLK
  5
A4C
330
A45
100
AcDbEntity
  8
0
100
AcDbBlockEnd
  0
BLOCK
  5
A56
330
A4D
100
AcDbEntity
  8
0
100
AcDbBlockBegin
  2
*D90
 70
     1
 10
0.0
 20
0.0
 30
0.0
  3
*D90
  1

  0
LINE
  5
C14
330
A4D
100
AcDbEntity
  8
0
 62
     0
370
    -2
100
AcDbLine
 10
36.35055504286953
 20
21.82862813733861
 30
0.0
 11
35.31555504286948
 21
21.82862813733861
 31
0.0
  0
LINE
  5
C15
330
A4D
100
AcDbEntity
  8
0
 62
     0
370
    -2
100
AcDbLine
 10
35.31555504286948
 20
21.82862813733861
 30
0.0
 11
33.12003189068327
 21
25.29363505018431
 31
0.0
  0
MTEXT
  5
C16
330
A4D
100
AcDbEntity
  8
0
 62
     0
100
AcDbMText
 10
36.44055504286953
 20
24.70362813733861
 30
0.0
 40
0.75
 41
0.0
 71
     1
 72
     1
  1
\A1;\U+22051.250 (1)\POPTIONAL:\PEXTERNAL \PHEAT\POUTPUT
 73
     1
 44
1.0
1001
ACAD
1000
MTEXTBEGIN
1070
    73
1070
     1
1070
    44
1040
1.0
1070
    74
1070
     0
1000
MTEXTEND
  0
SOLID
  5
C17
330
A4D
100
AcDbEntity
  8
0
 62
     0
100
AcDbTrace
 10
33.22562023983495
 20
25.36053871617822
 30
0.0
 11
33.01444354153161
 21
25.2267313841904
 31
0.0
 12
32.71860989471981
 22
25.92716514509434
 32
0.0
 13
32.71860989471981
 23
25.92716514509434
 33
0.0
  0
LINE
  5
C18
330
A4D
100
AcDbEntity
  8
0
 62
     0
370
    -2
100
AcDbLine
 10
32.29409156475025
 20
26.4551068908527
 30
0.0
 11
32.47409156475026
 21
26.4551068908527
 31
0.0
  0
LINE
  5
C19
330
A4D
100
AcDbEntity
  8
0
 62
     0
370
    -2
100
AcDbLine
 10
32.38409156475027
 20
26.3651068908527
 30
0.0
 11
32.38409156475027
 21
26.5451068908527
 31
0.0
  0
POINT
  5
C1A
330
A4D
100
AcDbEntity
  8
Defpoints
 62
     0
100
AcDbPoint
 10
32.71860989471981
 20
25.92716514509434
 30
0.0
  0
POINT
  5
C1B
330
A4D
100
AcDbEntity
  8
Defpoints
 62
     0
100
AcDbPoint
 10
32.04957323478069
 20
26.98304863661106
 30
0.0
  0
ENDBLK
  5
A57
330
A4D
100
AcDbEntity
  8
0
100
AcDbBlockEnd
  0
BLOCK
  5
A61
330
A58
100
AcDbEntity
  8
0
100
AcDbBlockBegin
  2
*D91
 70
     1
 10
0.0
 20
0.0
 30
0.0
  3
*D91
  1

  0
LINE
  5
C0C
330
A58
100
AcDbEntity
  8
0
 62
     0
370
    -2
100
AcDbLine
 10
35.6003875184263
 20
30.78477094567058
 30
0.0
 11
34.56538751842631
 21
30.78477094567058
 31
0.0
  0
LINE
  5
C0D
330
A58
100
AcDbEntity
  8
0
 62
     0
370
    -2
100
AcDbLine
 10
34.56538751842631
 20
30.78477094567058
 30
0.0
 11
33.22356318731788
 21
29.04410293992896
 31
0.0
  0
MTEXT
  5
C0E
330
A58
100
AcDbEntity
  8
0
 62
     0
100
AcDbMText
 10
35.69038751842632
 20
31.78477094567057
 30
0.0
 40
0.75
 41
0.0
 71
     1
 72
     1
  1
\A1;\U+22051.250 (1)\PPOWER SUPPLY
 73
     1
 44
1.0
1001
ACAD
1000
MTEXTBEGIN
1070
    73
1070
     1
1070
    44
1040
1.0
1070
    74
1070
     0
1000
MTEXTEND
  0
SOLID
  5
C0F
330
A58
100
AcDbEntity
  8
0
 62
     0
100
AcDbTrace
 10
33.12456354649277
 20
29.12041854198056
 30
0.0
 11
33.32256282814299
 21
28.96778733787736
 31
0.0
 12
32.76566957500826
 22
28.45010509497829
 32
0.0
 13
32.76566957500826
 23
28.45010509497829
 33
0.0
  0
LINE
  5
C10
330
A58
100
AcDbEntity
  8
0
 62
     0
370
    -2
100
AcDbLine
 10
32.29409156475025
 20
27.95510689085273
 30
0.0
 11
32.47409156475026
 21
27.95510689085273
 31
0.0
  0
LINE
  5
C11
330
A58
100
AcDbEntity
  8
0
 62
     0
370
    -2
100
AcDbLine
 10
32.38409156475027
 20
27.86510689085272
 30
0.0
 11
32.38409156475027
 21
28.04510689085273
 31
0.0
  0
POINT
  5
C12
330
A58
100
AcDbEntity
  8
Defpoints
 62
     0
100
AcDbPoint
 10
32.76566957500826
 20
28.45010509497829
 30
0.0
  0
POINT
  5
C13
330
A58
100
AcDbEntity
  8
Defpoints
 62
     0
100
AcDbPoint
 10
32.00251355449225
 20
27.46010868672717
 30
0.0
  0
ENDBLK
  5
A62
330
A58
100
AcDbEntity
  8
0
100
AcDbBlockEnd
  0
BLOCK
  5
A69
330
A63
100
AcDbEntity
  8
0
100
AcDbBlockBegin
  2
*D92
 70
     1
 10
0.0
 20
0.0
 30
0.0
  3
*D92
  1

  0
LINE
  5
C07
330
A63
100
AcDbEntity
  8
0
 62
     0
370
    -2
100
AcDbLine
 10
32.75909156475025
 20
26.4551068908527
 30
0.0
 11
36.82416696786282
 21
26.4551068908527
 31
0.0
  0
MTEXT
  5
C08
330
A63
100
AcDbEntity
  8
0
 62
     0
100
AcDbMText
 10
38.41416696786282
 20
26.4551068908527
 30
0.0
 40
0.75
 41
0.0
 71
     5
 72
     1
  1
\A1;10.000
 73
     1
 44
1.0
1001
ACAD
1000
MTEXTBEGIN
1070
    73
1070
     1
1070
    44
1040
1.0
1070
    74
1070
     0
1000
MTEXTEND
  0
POINT
  5
C09
330
A63
100
AcDbEntity
  8
Defpoints
 62
     0
100
AcDbPoint
 10
32.38409156475025
 20
26.4551068908527
 30
0.0
  0
POINT
  5
C0A
330
A63
100
AcDbEntity
  8
Defpoints
 62
     0
100
AcDbPoint
 10
36.82416696786282
 20
26.4551068908527
 30
0.0
  0
POINT
  5
C0B
330
A63
100
AcDbEntity
  8
Defpoints
 62
     0
100
AcDbPoint
 10
27.38308464045184
 20
16.45512905494742
 30
0.0
  0
ENDBLK
  5
A6A
330
A63
100
AcDbEntity
  8
0
100
AcDbBlockEnd
  0
BLOCK
  5
A71
330
A6B
100
AcDbEntity
  8
0
100
AcDbBlockBegin
  2
*D93
 70
     1
 10
0.0
 20
0.0
 30
0.0
  3
*D93
  1

  0
LINE
  5
C02
330
A6B
100
AcDbEntity
  8
DIMENSION
 62
     0
370
    -2
100
AcDbLine
 10
33.79109156475029
 20
32.99510689085267
 30
0.0
 11
36.88309156475016
 21
32.99510689085267
 31
0.0
  0
MTEXT
  5
C03
330
A6B
100
AcDbEntity
  8
DIMENSION
 62
     0
100
AcDbMText
 10
38.66059156475016
 20
32.99510689085267
 30
0.0
 40
0.75
 41
0.0
 71
     5
 72
     1
  1
\A1;16.540
 73
     1
 44
1.0
1001
ACAD
1000
MTEXTBEGIN
1070
    73
1070
     1
1070
    44
1040
1.0
1070
    74
1070
     0
1000
MTEXTEND
  0
POINT
  5
C04
330
A6B
100
AcDbEntity
  8
Defpoints
 62
     0
100
AcDbPoint
 10
33.41609156475029
 20
32.99510689085267
 30
0.0
  0
POINT
  5
C05
330
A6B
100
AcDbEntity
  8
Defpoints
 62
     0
100
AcDbPoint
 10
36.88309156475016
 20
32.99510689085267
 30
0.0
  0
POINT
  5
C06
330
A6B
100
AcDbEntity
  8
Defpoints
 62
     0
100
AcDbPoint
 10
27.38308464045184
 20
16.45512905494742
 30
0.0
  0
ENDBLK
  5
A72
330
A6B
100
AcDbEntity
  8
0
100
AcDbBlockEnd
  0
BLOCK
  5
A79
330
A73
100
AcDbEntity
  8
0
100
AcDbBlockBegin
  2
*D94
 70
     1
 10
0.0
 20
0.0
 30
0.0
  3
*D94
  1

  0
LINE
  5
BFD
330
A73
100
AcDbEntity
  8
DIMENSION
 62
     0
370
    -2
100
AcDbLine
 10
32.75909156475025
 20
27.9551068908527
 30
0.0
 11
36.88309156475016
 21
27.9551068908527
 31
0.0
  0
MTEXT
  5
BFE
330
A73
100
AcDbEntity
  8
DIMENSION
 62
     0
100
AcDbMText
 10
38.47309156475017
 20
27.9551068908527
 30
0.0
 40
0.75
 41
0.0
 71
     5
 72
     1
  1
\A1;11.500
 73
     1
 44
1.0
1001
ACAD
1000
MTEXTBEGIN
1070
    73
1070
     1
1070
    44
1040
1.0
1070
    74
1070
     0
1000
MTEXTEND
  0
POINT
  5
BFF
330
A73
100
AcDbEntity
  8
Defpoints
 62
     0
100
AcDbPoint
 10
32.38409156475025
 20
27.9551068908527
 30
0.0
  0
POINT
  5
C00
330
A73
100
AcDbEntity
  8
Defpoints
 62
     0
100
AcDbPoint
 10
36.88309156475016
 20
27.9551068908527
 30
0.0
  0
POINT
  5
C01
330
A73
100
AcDbEntity
  8
Defpoints
 62
     0
100
AcDbPoint
 10
27.38308464045184
 20
16.45512905494742
 30
0.0
  0
ENDBLK
  5
A7A
330
A73
100
AcDbEntity
  8
0
100
AcDbBlockEnd
  0
BLOCK
  5
A81
330
A7B
100
AcDbEntity
  8
0
100
AcDbBlockBegin
  2
*D95
 70
     1
 10
0.0
 20
0.0
 30
0.0
  3
*D95
  1

  0
LINE
  5
BF8
330
A7B
100
AcDbEntity
  8
DIMENSION
 62
     0
370
    -2
100
AcDbLine
 10
32.38409156475025
 20
26.0801068908527
 30
0.0
 11
32.38409156475025
 21
13.4551068908527
 31
0.0
  0
MTEXT
  5
BF9
330
A7B
100
AcDbEntity
  8
DIMENSION
 62
     0
100
AcDbMText
 10
32.38409156475025
 20
12.1151068908527
 30
0.0
 40
0.75
 41
0.0
 71
     5
 72
     1
  1
\A1;5.001
 11
0.0000000000000001
 21
1.0
 31
0.0
 73
     1
 44
1.0
1001
ACAD
1000
MTEXTBEGIN
1070
    73
1070
     1
1070
    44
1040
1.0
1070
    74
1070
     0
1000
MTEXTEND
  0
POINT
  5
BFA
330
A7B
100
AcDbEntity
  8
Defpoints
 62
     0
100
AcDbPoint
 10
32.38409156475025
 20
26.4551068908527
 30
0.0
  0
POINT
  5
BFB
330
A7B
100
AcDbEntity
  8
Defpoints
 62
     0
100
AcDbPoint
 10
32.38409156475025
 20
13.4551068908527
 30
0.0
  0
POINT
  5
BFC
330
A7B
100
AcDbEntity
  8
Defpoints
 62
     0
100
AcDbPoint
 10
27.38308464045184
 20
16.45512905494742
 30
0.0
  0
ENDBLK
  5
A82
330
A7B
100
AcDbEntity
  8
0
100
AcDbBlockEnd
  0
BLOCK
  5
A89
330
A83
100
AcDbEntity
  8
0
100
AcDbBlockBegin
  2
*D96
 70
     1
 10
0.0
 20
0.0
 30
0.0
  3
*D96
  1

  0
LINE
  5
BF3
330
A83
100
AcDbEntity
  8
DIMENSION
 62
     0
370
    -2
100
AcDbLine
 10
33.41609156475029
 20
32.62010689085267
 30
0.0
 11
33.41609156475029
 21
13.4551068908527
 31
0.0
  0
MTEXT
  5
BF4
330
A83
100
AcDbEntity
  8
DIMENSION
 62
     0
100
AcDbMText
 10
33.41609156475029
 20
11.9276068908527
 30
0.0
 40
0.75
 41
0.0
 71
     5
 72
     1
  1
\A1;6.033
 11
0.0000000000000001
 21
1.0
 31
0.0
 73
     1
 44
1.0
1001
ACAD
1000
MTEXTBEGIN
1070
    73
1070
     1
1070
    44
1040
1.0
1070
    74
1070
     0
1000
MTEXTEND
  0
POINT
  5
BF5
330
A83
100
AcDbEntity
  8
Defpoints
 62
     0
100
AcDbPoint
 10
33.41609156475029
 20
32.99510689085267
 30
0.0
  0
POINT
  5
BF6
330
A83
100
AcDbEntity
  8
Defpoints
 62
     0
100
AcDbPoint
 10
33.41609156475029
 20
13.4551068908527
 30
0.0
  0
POINT
  5
BF7
330
A83
100
AcDbEntity
  8
Defpoints
 62
     0
100
AcDbPoint
 10
27.38308464045184
 20
16.45512905494742
 30
0.0
  0
ENDBLK
  5
A8A
330
A83
100
AcDbEntity
  8
0
100
AcDbBlockEnd
  0
BLOCK
  5
A93
330
A8B
100
AcDbEntity
  8
0
100
AcDbBlockBegin
  2
*D97
 70
     1
 10
0.0
 20
0.0
 30
0.0
  3
*D97
  1

  0
LINE
  5
BEC
330
A8B
100
AcDbEntity
  8
0
 62
     0
370
    -2
100
AcDbLine
 10
29.88409156475026
 20
28.3301068908527
 30
0.0
 11
29.88409156475026
 21
16.34279080128754
 31
0.0
  0
LINE
  5
BED
330
A8B
100
AcDbEntity
  8
0
 62
     0
370
    -2
100
AcDbLine
 10
29.88409156475026
 20
16.34279080128754
 30
0.0
 11
30.13548662945107
 21
14.84279080128754
 31
0.0
  0
LINE
  5
BEE
330
A8B
100
AcDbEntity
  8
0
 62
     0
370
    -2
100
AcDbLine
 10
30.13548662945107
 20
14.84279080128754
 30
0.0
 11
30.13548662945107
 21
13.34279080128754
 31
0.0
  0
MTEXT
  5
BEF
330
A8B
100
AcDbEntity
  8
0
 62
     0
100
AcDbMText
 10
30.13548662945107
 20
11.94029080128754
 30
0.0
 40
0.75
 41
0.0
 71
     5
 72
     1
  1
\A1;2.501
 11
0.0000000000000001
 21
1.0
 31
0.0
 73
     1
 44
1.0
1001
ACAD
1000
MTEXTBEGIN
1070
    73
1070
     1
1070
    44
1040
1.0
1070
    74
1070
     0
1000
MTEXTEND
  0
POINT
  5
BF0
330
A8B
100
AcDbEntity
  8
Defpoints
 62
     0
100
AcDbPoint
 10
29.88409156475026
 20
28.7051068908527
 30
0.0
  0
POINT
  5
BF1
330
A8B
100
AcDbEntity
  8
Defpoints
 62
     0
100
AcDbPoint
 10
30.13548662945107
 20
13.34279080128754
 30
0.0
  0
POINT
  5
BF2
330
A8B
100
AcDbEntity
  8
Defpoints
 62
     0
100
AcDbPoint
 10
27.38308464045184
 20
16.45512905494742
 30
0.0
  0
ENDBLK
  5
A94
330
A8B
100
AcDbEntity
  8
0
100
AcDbBlockEnd
  0
BLOCK
  5
A9B
330
A95
100
AcDbEntity
  8
0
100
AcDbBlockBegin
  2
*D98
 70
     1
 10
0.0
 20
0.0
 30
0.0
  3
*D98
  1

  0
LINE
  5
BE7
330
A95
100
AcDbEntity
  8
DIMENSION
 62
     0
370
    -2
100
AcDbLine
 10
28.96609156475025
 20
32.62010689085267
 30
0.0
 11
28.96609156475025
 21
13.4551068908527
 31
0.0
  0
MTEXT
  5
BE8
330
A95
100
AcDbEntity
  8
DIMENSION
 62
     0
100
AcDbMText
 10
28.96609156475024
 20
11.9901068908527
 30
0.0
 40
0.75
 41
0.0
 71
     5
 72
     1
  1
\A1;1.583
 11
0.0000000000000001
 21
1.0
 31
0.0
 73
     1
 44
1.0
1001
ACAD
1000
MTEXTBEGIN
1070
    73
1070
     1
1070
    44
1040
1.0
1070
    74
1070
     0
1000
MTEXTEND
  0
POINT
  5
BE9
330
A95
100
AcDbEntity
  8
Defpoints
 62
     0
100
AcDbPoint
 10
28.96609156475025
 20
32.99510689085267
 30
0.0
  0
POINT
  5
BEA
330
A95
100
AcDbEntity
  8
Defpoints
 62
     0
100
AcDbPoint
 10
28.96609156475025
 20
13.4551068908527
 30
0.0
  0
POINT
  5
BEB
330
A95
100
AcDbEntity
  8
Defpoints
 62
     0
100
AcDbPoint
 10
27.38308464045184
 20
16.45512905494742
 30
0.0
  0
ENDBLK
  5
A9C
330
A95
100
AcDbEntity
  8
0
100
AcDbBlockEnd
  0
BLOCK
  5
AA3
330
A9D
100
AcDbEntity
  8
0
100
AcDbBlockBegin
  2
*D99
 70
     1
 10
0.0
 20
0.0
 30
0.0
  3
*D99
  1

  0
LINE
  5
BE2
330
A9D
100
AcDbEntity
  8
DIMENSION
 62
     0
370
    -2
100
AcDbLine
 10
27.38309156475028
 20
16.0801068908527
 30
0.0
 11
27.38309156475028
 21
13.4551068908527
 31
0.0
  0
MTEXT
  5
BE3
330
A9D
100
AcDbEntity
  8
DIMENSION
 62
     0
100
AcDbMText
 10
27.38309156475027
 20
12.1151068908527
 30
0.0
 40
0.75
 41
0.0
 71
     5
 72
     1
  1
\A1;0.000
 11
0.0000000000000001
 21
1.0
 31
0.0
 73
     1
 44
1.0
1001
ACAD
1000
MTEXTBEGIN
1070
    73
1070
     1
1070
    44
1040
1.0
1070
    74
1070
     0
1000
MTEXTEND
  0
POINT
  5
BE4
330
A9D
100
AcDbEntity
  8
Defpoints
 62
     0
100
AcDbPoint
 10
27.38309156475028
 20
16.4551068908527
 30
0.0
  0
POINT
  5
BE5
330
A9D
100
AcDbEntity
  8
Defpoints
 62
     0
100
AcDbPoint
 10
27.38309156475028
 20
13.4551068908527
 30
0.0
  0
POINT
  5
BE6
330
A9D
100
AcDbEntity
  8
Defpoints
 62
     0
100
AcDbPoint
 10
27.38308464045184
 20
16.45512905494742
 30
0.0
  0
ENDBLK
  5
AA4
330
A9D
100
AcDbEntity
  8
0
100
AcDbBlockEnd
  0
BLOCK
  5
AAE
330
AA5
100
AcDbEntity
  8
0
100
AcDbBlockBegin
  2
*D100
 70
     1
 10
0.0
 20
0.0
 30
0.0
  3
*D100
  1

  0
LINE
  5
CAC
330
AA5
100
AcDbEntity
  8
0
 62
     0
370
    -2
100
AcDbLine
 10
25.5256519993838
 20
27.38019376861016
 30
0.0
 11
26.77565199938383
 21
27.38019376861016
 31
0.0
  0
LINE
  5
CAD
330
AA5
100
AcDbEntity
  8
0
 62
     0
370
    -2
100
AcDbLine
 10
26.77565199938383
 20
27.38019376861016
 30
0.0
 11
28.61919772976796
 21
28.16597000079251
 31
0.0
  0
MTEXT
  5
CAE
330
AA5
100
AcDbEntity
  8
0
 62
     0
100
AcDbMText
 10
25.43565199938381
 20
29.63019376861016
 30
0.0
 40
0.75
 41
0.0
 71
     3
 72
     1
  1
\A1;\U+22051.250 (1)\POPTIONAL:\PETHERNET/ALARM\PCONNECTION PORT
 73
     1
 44
1.0
1001
ACAD
1000
MTEXTBEGIN
1070
    73
1070
     1
1070
    44
1040
1.0
1070
    74
1070
     0
1000
MTEXTEND
  0
SOLID
  5
CAF
330
AA5
100
AcDbEntity
  8
0
 62
     0
100
AcDbTrace
 10
28.57018528521703
 20
28.28096034942726
 30
0.0
 11
28.66821017431889
 21
28.05097965215776
 31
0.0
 12
29.30913982157648
 22
28.46004466809808
 32
0.0
 13
29.30913982157648
 23
28.46004466809808
 33
0.0
  0
LINE
  5
CB0
330
AA5
100
AcDbEntity
  8
0
 62
     0
370
    -2
100
AcDbLine
 10
29.79409156475025
 20
28.70510689085272
 30
0.0
 11
29.97409156475026
 21
28.70510689085272
 31
0.0
  0
LINE
  5
CB1
330
AA5
100
AcDbEntity
  8
0
 62
     0
370
    -2
100
AcDbLine
 10
29.88409156475024
 20
28.61510689085271
 30
0.0
 11
29.88409156475025
 21
28.79510689085271
 31
0.0
  0
POINT
  5
CB2
330
AA5
100
AcDbEntity
  8
Defpoints
 62
     0
100
AcDbPoint
 10
29.30913982157648
 20
28.46004466809808
 30
0.0
  0
POINT
  5
CB3
330
AA5
100
AcDbEntity
  8
Defpoints
 62
     0
100
AcDbPoint
 10
30.45904330792401
 20
28.95016911360735
 30
0.0
  0
ENDBLK
  5
AAF
330
AA5
100
AcDbEntity
  8
0
100
AcDbBlockEnd
  0
BLOCK
  5
AB6
330
AB0
100
AcDbEntity
  8
0
100
AcDbBlockBegin
  2
*D101
 70
     1
 10
0.0
 20
0.0
 30
0.0
  3
*D101
  1

  0
LINE
  5
C9D
330
AB0
100
AcDbEntity
  8
0
 62
     0
370
    -2
100
AcDbLine
 10
29.50909156475026
 20
28.7051068908527
 30
0.0
 11
27.20629530679788
 21
28.7051068908527
 31
0.0
  0
LINE
  5
C9E
330
AB0
100
AcDbEntity
  8
0
 62
     0
370
    -2
100
AcDbLine
 10
27.20629530679788
 20
28.7051068908527
 30
0.0
 11
25.70629530679788
 21
30.6695033150356
 31
0.0
  0
LINE
  5
C9F
330
AB0
100
AcDbEntity
  8
0
 62
     0
370
    -2
100
AcDbLine
 10
25.70629530679788
 20
30.6695033150356
 30
0.0
 11
24.20629530679788
 21
30.6695033150356
 31
0.0
  0
MTEXT
  5
CA0
330
AB0
100
AcDbEntity
  8
0
 62
     0
100
AcDbMText
 10
22.42879530679788
 20
30.6695033150356
 30
0.0
 40
0.75
 41
0.0
 71
     5
 72
     1
  1
\A1;12.250
 73
     1
 44
1.0
1001
ACAD
1000
MTEXTBEGIN
1070
    73
1070
     1
1070
    44
1040
1.0
1070
    74
1070
     0
1000
MTEXTEND
  0
POINT
  5
CA1
330
AB0
100
AcDbEntity
  8
Defpoints
 62
     0
100
AcDbPoint
 10
29.88409156475026
 20
28.7051068908527
 30
0.0
  0
POINT
  5
CA2
330
AB0
100
AcDbEntity
  8
Defpoints
 62
     0
100
AcDbPoint
 10
24.20629530679788
 20
30.6695033150356
 30
0.0
  0
POINT
  5
CA3
330
AB0
100
AcDbEntity
  8
Defpoints
 62
     0
100
AcDbPoint
 10
27.38308464045184
 20
16.45512905494742
 30
0.0
  0
ENDBLK
  5
AB7
330
AB0
100
AcDbEntity
  8
0
100
AcDbBlockEnd
  0
BLOCK
  5
ABE
330
AB8
100
AcDbEntity
  8
0
100
AcDbBlockBegin
  2
*D102
 70
     1
 10
0.0
 20
0.0
 30
0.0
  3
*D102
  1

  0
LINE
  5
C55
330
AB8
100
AcDbEntity
  8
DIMENSION
 62
     0
370
    -2
100
AcDbLine
 10
27.75909156475025
 20
45.58010689085269
 30
0.0
 11
24.38309156475022
 21
45.58010689085269
 31
0.0
  0
MTEXT
  5
C56
330
AB8
100
AcDbEntity
  8
DIMENSION
 62
     0
100
AcDbMText
 10
22.54309156475022
 20
45.58010689085269
 30
0.0
 40
0.75
 41
0.0
 71
     5
 72
     1
  1
\A1;29.125
 73
     1
 44
1.0
1001
ACAD
1000
MTEXTBEGIN
1070
    73
1070
     1
1070
    44
1040
1.0
1070
    74
1070
     0
1000
MTEXTEND
  0
POINT
  5
C57
330
AB8
100
AcDbEntity
  8
Defpoints
 62
     0
100
AcDbPoint
 10
28.13409156475025
 20
45.58010689085269
 30
0.0
  0
POINT
  5
C58
330
AB8
100
AcDbEntity
  8
Defpoints
 62
     0
100
AcDbPoint
 10
24.38309156475022
 20
45.58010689085269
 30
0.0
  0
POINT
  5
C59
330
AB8
100
AcDbEntity
  8
Defpoints
 62
     0
100
AcDbPoint
 10
27.38308464045184
 20
16.45512905494742
 30
0.0
  0
ENDBLK
  5
ABF
330
AB8
100
AcDbEntity
  8
0
100
AcDbBlockEnd
  0
BLOCK
  5
AC6
330
AC0
100
AcDbEntity
  8
0
100
AcDbBlockBegin
  2
*D103
 70
     1
 10
0.0
 20
0.0
 30
0.0
  3
*D103
  1

  0
LINE
  5
C50
330
AC0
100
AcDbEntity
  8
DIMENSION
 62
     0
370
    -2
100
AcDbLine
 10
27.75909156475025
 20
39.58060689085258
 30
0.0
 11
24.38309156475022
 21
39.58060689085258
 31
0.0
  0
MTEXT
  5
C51
330
AC0
100
AcDbEntity
  8
DIMENSION
 62
     0
100
AcDbMText
 10
22.54309156475022
 20
39.58060689085258
 30
0.0
 40
0.75
 41
0.0
 71
     5
 72
     1
  1
\A1;23.125
 73
     1
 44
1.0
1001
ACAD
1000
MTEXTBEGIN
1070
    73
1070
     1
1070
    44
1040
1.0
1070
    74
1070
     0
1000
MTEXTEND
  0
POINT
  5
C52
330
AC0
100
AcDbEntity
  8
Defpoints
 62
     0
100
AcDbPoint
 10
28.13409156475025
 20
39.58060689085258
 30
0.0
  0
POINT
  5
C53
330
AC0
100
AcDbEntity
  8
Defpoints
 62
     0
100
AcDbPoint
 10
24.38309156475022
 20
39.58060689085258
 30
0.0
  0
POINT
  5
C54
330
AC0
100
AcDbEntity
  8
Defpoints
 62
     0
100
AcDbPoint
 10
27.38308464045184
 20
16.45512905494742
 30
0.0
  0
ENDBLK
  5
AC7
330
AC0
100
AcDbEntity
  8
0
100
AcDbBlockEnd
  0
BLOCK
  5
ACE
330
AC8
100
AcDbEntity
  8
0
100
AcDbBlockBegin
  2
*D104
 70
     1
 10
0.0
 20
0.0
 30
0.0
  3
*D104
  1

  0
LINE
  5
C4B
330
AC8
100
AcDbEntity
  8
DIMENSION
 62
     0
370
    -2
100
AcDbLine
 10
27.75909156475025
 20
31.83060689085257
 30
0.0
 11
24.38309156475022
 21
31.83060689085257
 31
0.0
  0
MTEXT
  5
C4C
330
AC8
100
AcDbEntity
  8
DIMENSION
 62
     0
100
AcDbMText
 10
22.54309156475022
 20
31.83060689085257
 30
0.0
 40
0.75
 41
0.0
 71
     5
 72
     1
  1
\A1;15.375
 73
     1
 44
1.0
1001
ACAD
1000
MTEXTBEGIN
1070
    73
1070
     1
1070
    44
1040
1.0
1070
    74
1070
     0
1000
MTEXTEND
  0
POINT
  5
C4D
330
AC8
100
AcDbEntity
  8
Defpoints
 62
     0
100
AcDbPoint
 10
28.13409156475025
 20
31.83060689085257
 30
0.0
  0
POINT
  5
C4E
330
AC8
100
AcDbEntity
  8
Defpoints
 62
     0
100
AcDbPoint
 10
24.38309156475022
 20
31.83060689085257
 30
0.0
  0
POINT
  5
C4F
330
AC8
100
AcDbEntity
  8
Defpoints
 62
     0
100
AcDbPoint
 10
27.38308464045184
 20
16.45512905494742
 30
0.0
  0
ENDBLK
  5
ACF
330
AC8
100
AcDbEntity
  8
0
100
AcDbBlockEnd
  0
BLOCK
  5
AD6
330
AD0
100
AcDbEntity
  8
0
100
AcDbBlockBegin
  2
*D105
 70
     1
 10
0.0
 20
0.0
 30
0.0
  3
*D105
  1

  0
LINE
  5
C46
330
AD0
100
AcDbEntity
  8
DIMENSION
 62
     0
370
    -2
100
AcDbLine
 10
27.75909156475025
 20
21.83060689085257
 30
0.0
 11
24.38309156475022
 21
21.83060689085257
 31
0.0
  0
MTEXT
  5
C47
330
AD0
100
AcDbEntity
  8
DIMENSION
 62
     0
100
AcDbMText
 10
22.79309156475022
 20
21.83060689085257
 30
0.0
 40
0.75
 41
0.0
 71
     5
 72
     1
  1
\A1;5.375
 73
     1
 44
1.0
1001
ACAD
1000
MTEXTBEGIN
1070
    73
1070
     1
1070
    44
1040
1.0
1070
    74
1070
     0
1000
MTEXTEND
  0
POINT
  5
C48
330
AD0
100
AcDbEntity
  8
Defpoints
 62
     0
100
AcDbPoint
 10
28.13409156475025
 20
21.83060689085257
 30
0.0
  0
POINT
  5
C49
330
AD0
100
AcDbEntity
  8
Defpoints
 62
     0
100
AcDbPoint
 10
24.38309156475022
 20
21.83060689085257
 30
0.0
  0
POINT
  5
C4A
330
AD0
100
AcDbEntity
  8
Defpoints
 62
     0
100
AcDbPoint
 10
27.38308464045184
 20
16.45512905494742
 30
0.0
  0
ENDBLK
  5
AD7
330
AD0
100
AcDbEntity
  8
0
100
AcDbBlockEnd
  0
BLOCK
  5
ADE
330
AD8
100
AcDbEntity
  8
0
100
AcDbBlockBegin
  2
*D106
 70
     1
 10
0.0
 20
0.0
 30
0.0
  3
*D106
  1

  0
LINE
  5
C41
330
AD8
100
AcDbEntity
  8
DIMENSION
 62
     0
370
    -2
100
AcDbLine
 10
27.00809156475028
 20
16.4551068908527
 30
0.0
 11
24.38309156475022
 21
16.4551068908527
 31
0.0
  0
MTEXT
  5
C42
330
AD8
100
AcDbEntity
  8
DIMENSION
 62
     0
100
AcDbMText
 10
23.04309156475022
 20
16.4551068908527
 30
0.0
 40
0.75
 41
0.0
 71
     5
 72
     1
  1
\A1;0.000
 73
     1
 44
1.0
1001
ACAD
1000
MTEXTBEGIN
1070
    73
1070
     1
1070
    44
1040
1.0
1070
    74
1070
     0
1000
MTEXTEND
  0
POINT
  5
C43
330
AD8
100
AcDbEntity
  8
Defpoints
 62
     0
100
AcDbPoint
 10
27.38309156475028
 20
16.4551068908527
 30
0.0
  0
POINT
  5
C44
330
AD8
100
AcDbEntity
  8
Defpoints
 62
     0
100
AcDbPoint
 10
24.38309156475022
 20
16.4551068908527
 30
0.0
  0
POINT
  5
C45
330
AD8
100
AcDbEntity
  8
Defpoints
 62
     0
100
AcDbPoint
 10
27.38308464045184
 20
16.45512905494742
 30
0.0
  0
ENDBLK
  5
ADF
330
AD8
100
AcDbEntity
  8
0
100
AcDbBlockEnd
  0
BLOCK
  5
AE6
330
AE0
100
AcDbEntity
  8
0
100
AcDbBlockBegin
  2
*D107
 70
     1
 10
0.0
 20
0.0
 30
0.0
  3
*D107
  1

  0
LINE
  5
C3C
330
AE0
100
AcDbEntity
  8
DIMENSION
 62
     0
370
    -2
100
AcDbLine
 10
33.88309156475022
 20
46.83010689085279
 30
0.0
 11
33.88309156475022
 21
49.45510689085269
 31
0.0
  0
MTEXT
  5
C3D
330
AE0
100
AcDbEntity
  8
DIMENSION
 62
     0
100
AcDbMText
 10
33.8830915647502
 20
50.92010689085268
 30
0.0
 40
0.75
 41
0.0
 71
     5
 72
     1
  1
\A1;6.500
 11
0.0000000000000001
 21
1.0
 31
0.0
 73
     1
 44
1.0
1001
ACAD
1000
MTEXTBEGIN
1070
    73
1070
     1
1070
    44
1040
1.0
1070
    74
1070
     0
1000
MTEXTEND
  0
POINT
  5
C3E
330
AE0
100
AcDbEntity
  8
Defpoints
 62
     0
100
AcDbPoint
 10
33.88309156475022
 20
46.4551068908528
 30
0.0
  0
POINT
  5
C3F
330
AE0
100
AcDbEntity
  8
Defpoints
 62
     0
100
AcDbPoint
 10
33.88309156475022
 20
49.45510689085269
 30
0.0
  0
POINT
  5
C40
330
AE0
100
AcDbEntity
  8
Defpoints
 62
     0
100
AcDbPoint
 10
27.38308464045184
 20
16.45512905494742
 30
0.0
  0
ENDBLK
  5
AE7
330
AE0
100
AcDbEntity
  8
0
100
AcDbBlockEnd
  0
BLOCK
  5
AF0
330
AE8
100
AcDbEntity
  8
0
100
AcDbBlockBegin
  2
*D108
 70
     1
 10
0.0
 20
0.0
 30
0.0
  3
*D108
  1

  0
LINE
  5
C35
330
AE8
100
AcDbEntity
  8
DIMENSION
 62
     0
370
    -2
100
AcDbLine
 10
33.13409156475025
 20
45.95510689085268
 30
0.0
 11
33.13409156475025
 21
47.08010689085269
 31
0.0
  0
LINE
  5
C36
330
AE8
100
AcDbEntity
  8
DIMENSION
 62
     0
370
    -2
100
AcDbLine
 10
33.13409156475025
 20
47.08010689085269
 30
0.0
 11
32.88309156475021
 21
47.95510689085269
 31
0.0
  0
LINE
  5
C37
330
AE8
100
AcDbEntity
  8
DIMENSION
 62
     0
370
    -2
100
AcDbLine
 10
32.88309156475021
 20
47.95510689085269
 30
0.0
 11
32.88309156475022
 21
49.45510689085269
 31
0.0
  0
MTEXT
  5
C38
330
AE8
100
AcDbEntity
  8
DIMENSION
 62
     0
100
AcDbMText
 10
32.8830915647502
 20
50.98260689085268
 30
0.0
 40
0.75
 41
0.0
 71
     5
 72
     1
  1
\A1;5.750
 11
0.0000000000000001
 21
1.0
 31
0.0
 73
     1
 44
1.0
1001
ACAD
1000
MTEXTBEGIN
1070
    73
1070
     1
1070
    44
1040
1.0
1070
    74
1070
     0
1000
MTEXTEND
  0
POINT
  5
C39
330
AE8
100
AcDbEntity
  8
Defpoints
 62
     0
100
AcDbPoint
 10
33.13409156475025
 20
45.58010689085269
 30
0.0
  0
POINT
  5
C3A
330
AE8
100
AcDbEntity
  8
Defpoints
 62
     0
100
AcDbPoint
 10
32.88309156475022
 20
49.45510689085269
 30
0.0
  0
POINT
  5
C3B
330
AE8
100
AcDbEntity
  8
Defpoints
 62
     0
100
AcDbPoint
 10
27.38308464045184
 20
16.45512905494742
 30
0.0
  0
ENDBLK
  5
AF1
330
AE8
100
AcDbEntity
  8
0
100
AcDbBlockEnd
  0
BLOCK
  5
AF8
330
AF2
100
AcDbEntity
  8
0
100
AcDbBlockBegin
  2
*D109
 70
     1
 10
0.0
 20
0.0
 30
0.0
  3
*D109
  1

  0
LINE
  5
C30
330
AF2
100
AcDbEntity
  8
DIMENSION
 62
     0
370
    -2
100
AcDbLine
 10
30.63409156475025
 20
43.10010689085268
 30
0.0
 11
30.63409156475025
 21
49.45510689085269
 31
0.0
  0
MTEXT
  5
C31
330
AF2
100
AcDbEntity
  8
DIMENSION
 62
     0
100
AcDbMText
 10
30.63409156475024
 20
50.9826068908527
 30
0.0
 40
0.75
 41
0.0
 71
     5
 72
     1
  1
\A1;3.250
 11
0.0000000000000001
 21
1.0
 31
0.0
 73
     1
 44
1.0
1001
ACAD
1000
MTEXTBEGIN
1070
    73
1070
     1
1070
    44
1040
1.0
1070
    74
1070
     0
1000
MTEXTEND
  0
POINT
  5
C32
330
AF2
100
AcDbEntity
  8
Defpoints
 62
     0
100
AcDbPoint
 10
30.63409156475025
 20
42.72510689085268
 30
0.0
  0
POINT
  5
C33
330
AF2
100
AcDbEntity
  8
Defpoints
 62
     0
100
AcDbPoint
 10
30.63409156475025
 20
49.45510689085269
 30
0.0
  0
POINT
  5
C34
330
AF2
100
AcDbEntity
  8
Defpoints
 62
     0
100
AcDbPoint
 10
27.38308464045184
 20
16.45512905494742
 30
0.0
  0
ENDBLK
  5
AF9
330
AF2
100
AcDbEntity
  8
0
100
AcDbBlockEnd
  0
ENDSEC
  0
SECTION
  2
ENTITIES
  0
LINE
  5
3B0
330
1F
100
AcDbEntity
  8
BORDER
100
AcDbLine
 10
21.62972848859126
 20
-4.244893109147148
 30
0.0
 11
2.135124593481716
 21
-4.244893109147148
 31
0.0
  0
TEXT
  5
3B1
330
1F
100
AcDbEntity
  8
TEXT
100
AcDbText
 10
2.716374593481715
 20
-4.694893109147215
 30
0.0
 40
0.3
  1
0
 72
     1
 11
2.791374593481716
 21
-4.544893109147214
 31
0.0
100
AcDbText
 73
     2
  0
LINE
  5
3B2
330
1F
100
AcDbEntity
  8
BORDER
100
AcDbLine
 10
3.447624593481716
 20
-4.844893109147204
 30
0.0
 11
3.447624593481716
 21
-3.044893109147034
 31
0.0
  0
TEXT
  5
3B3
330
1F
100
AcDbEntity
  8
TEXT
100
AcDbText
 10
7.671374593481806
 20
-4.694893109147215
 30
0.0
 40
0.3
  1
INITIAL RELEASE
 72
     1
 11
9.721374593481806
 21
-4.544893109147214
 31
0.0
100
AcDbText
 73
     2
  0
TEXT
  5
3B4
330
1F
100
AcDbEntity
  8
TEXT
100
AcDbText
 10
19.73242654103649
 20
-4.694893109147215
 30
0.0
 40
0.3
  1
GFD
 72
     1
 11
20.13242654103649
 21
-4.544893109147214
 31
0.0
100
AcDbText
 73
     2
  0
LINE
  5
3B5
330
1F
100
AcDbEntity
  8
BORDER
100
AcDbLine
 10
18.63512459348171
 20
-4.844893109147204
 30
0.0
 11
18.63512459348171
 21
-3.044893109147034
 31
0.0
  0
TEXT
  5
3B6
330
1F
100
AcDbEntity
  8
TEXT
100
AcDbText
 10
16.39012459348172
 20
-4.694893109147215
 30
0.0
 40
0.3
  1
3-18-03
 72
     1
 11
17.31512459348172
 21
-4.544893109147214
 31
0.0
100
AcDbText
 73
     2
  0
LINE
  5
3B7
330
1F
100
AcDbEntity
  8
BORDER
100
AcDbLine
 10
15.99512459348173
 20
-4.844893109147204
 30
0.0
 11
15.99512459348173
 21
-3.044893109147034
 31
0.0
  0
LINE
  5
3B8
330
1F
100
AcDbEntity
  8
BORDER
100
AcDbLine
 10
21.62972848859126
 20
-5.444893109147255
 30
0.0
 11
2.135124593481716
 21
-5.444893109147255
 31
0.0
  0
LINE
  5
3B9
330
1F
100
AcDbEntity
  8
BORDER
100
AcDbLine
 10
21.62972848859126
 20
-4.844893109147204
 30
0.0
 11
2.135124593481716
 21
-4.844893109147204
 31
0.0
  0
TEXT
  5
3BA
330
1F
100
AcDbEntity
  8
TEXT
100
AcDbText
 10
2.341374593481715
 20
-5.294893109147269
 30
0.0
 40
0.3
  1
REV
 72
     1
 11
2.791374593481716
 21
-5.144893109147268
 31
0.0
100
AcDbText
 73
     2
  0
LINE
  5
3BB
330
1F
100
AcDbEntity
  8
BORDER
100
AcDbLine
 10
2.135124593481716
 20
-6.044893109147217
 30
0.0
 11
2.135124593481716
 21
-2.444893109146953
 31
0.0
  0
LINE
  5
3BC
330
1F
100
AcDbEntity
  8
BORDER
100
AcDbLine
 10
3.447624593481716
 20
-5.444893109147255
 30
0.0
 11
3.447624593481716
 21
-4.844893109147204
 31
0.0
  0
TEXT
  5
3BD
330
1F
100
AcDbEntity
  8
TEXT
100
AcDbText
 10
8.221374593481806
 20
-5.294893109147269
 30
0.0
 40
0.3
  1
DESCRIPTION
 72
     1
 11
9.721374593481806
 21
-5.144893109147268
 31
0.0
100
AcDbText
 73
     2
  0
TEXT
  5
3BE
330
1F
100
AcDbEntity
  8
TEXT
100
AcDbText
 10
19.13242654103649
 20
-5.294893109147269
 30
0.0
 40
0.3
  1
CHECKED
 72
     1
 11
20.13242654103649
 21
-5.144893109147268
 31
0.0
100
AcDbText
 73
     2
  0
LINE
  5
3BF
330
1F
100
AcDbEntity
  8
BORDER
100
AcDbLine
 10
18.63512459348171
 20
-5.444893109147255
 30
0.0
 11
18.63512459348171
 21
-4.844893109147204
 31
0.0
  0
TEXT
  5
3C0
330
1F
100
AcDbEntity
  8
TEXT
100
AcDbText
 10
16.76512459348172
 20
-5.294893109147269
 30
0.0
 40
0.3
  1
DATE
 72
     1
 11
17.31512459348172
 21
-5.144893109147268
 31
0.0
100
AcDbText
 73
     2
  0
LINE
  5
3C1
330
1F
100
AcDbEntity
  8
BORDER
100
AcDbLine
 10
15.99512459348173
 20
-5.444893109147255
 30
0.0
 11
15.99512459348173
 21
-4.844893109147204
 31
0.0
  0
LINE
  5
3C2
330
1F
100
AcDbEntity
  8
BORDER
100
AcDbLine
 10
2.135124593481716
 20
-5.444893109147255
 30
0.0
 11
21.62972848859126
 21
-5.444893109147255
 31
0.0
  0
LINE
  5
3C3
330
1F
100
AcDbEntity
  8
BORDER
100
AcDbLine
 10
21.62972848859126
 20
-3.044893109147034
 30
0.0
 11
21.62972848859126
 21
-6.044893109147217
 31
0.0
  0
LINE
  5
3C4
330
1F
100
AcDbEntity
  8
BORDER
100
AcDbLine
 10
21.62972848859126
 20
-6.044893109147217
 30
0.0
 11
2.135124593481716
 21
-6.044893109147217
 31
0.0
  0
TEXT
  5
3C5
330
1F
100
AcDbEntity
  8
TEXT
100
AcDbText
 10
8.471374593481806
 20
-5.894893109147326
 30
0.0
 40
0.3
  1
REVISIONS
 72
     1
 11
9.721374593481806
 21
-5.744893109147326
 31
0.0
100
AcDbText
 73
     2
  0
TEXT
  5
3C6
330
1F
100
AcDbEntity
  8
TEXT
100
AcDbText
 10
57.85495726474096
 20
-5.77683579013503
 30
0.0
 40
0.75
  1
2
 72
     1
 11
58.10495726474095
 21
-5.40183579013503
 31
0.0
100
AcDbText
 73
     2
  0
TEXT
  5
3C7
330
1F
100
AcDbEntity
  8
TEXT
100
AcDbText
 10
50.68830437620318
 20
-5.77683579013503
 30
0.0
 40
0.75
  1
IQ290919
 72
     1
 11
53.25080437620318
 21
-5.40183579013503
 31
0.0
100
AcDbText
 73
     2
  0
TEXT
  5
3C8
330
1F
100
AcDbEntity
  8
TEXT
100
AcDbText
 10
49.90348509984702
 20
-4.252528471122865
 30
0.0
 40
0.75
  1
IQ12-15-18VXS
 72
     1
 11
54.27848509984702
 21
-3.877528471122865
 31
0.0
100
AcDbText
 73
     2
  0
TEXT
  5
3C9
330
1F
100
AcDbEntity
  8
TEXT
100
AcDbText
 10
53.23203064748103
 20
-2.536903471122845
 30
0.0
 40
0.1875
  1
724-837-2204  *  1-888-867-8234
 72
     1
 11
56.06015564748102
 21
-2.443153471122845
 31
0.0
100
AcDbText
 73
     2
  0
TEXT
  5
3CA
330
1F
100
AcDbEntity
  8
TEXT
100
AcDbText
 10
54.24765564748103
 20
-2.161903471122847
 30
0.0
 40
0.1875
  1
GREENSBURG, PA  15601
 72
     1
 11
56.06015564748102
 21
-2.068153471122847
 31
0.0
100
AcDbText
 73
     2
  0
TEXT
  5
3CB
330
1F
100
AcDbEntity
  8
TEXT
100
AcDbText
 10
54.52890564748102
 20
-1.786903471122846
 30
0.0
 40
0.1875
  1
141 WILSON AVENUE
 72
     1
 11
56.06015564748102
 21
-1.693153471122846
 31
0.0
100
AcDbText
 73
     2
  0
TEXT
  5
3CC
330
1F
100
AcDbEntity
  8
TEXT
100
AcDbText
 10
53.59140564748102
 20
-1.430653471122838
 30
0.0
 40
0.1875
  1
INDUSTRIAL COOLING EQUIPMENT
 72
     1
 11
56.06015564748102
 21
-1.336903471122838
 31
0.0
100
AcDbText
 73
     2
  0
TEXT
  5
3CD
330
1F
100
AcDbEntity
  8
TEXT
100
AcDbText
 10
54.49765564748102
 20
-2.911903471122846
 30
0.0
 40
0.1875
  1
FAX  724-837-3386
 72
     1
 11
56.06015564748102
 21
-2.818153471122846
 31
0.0
100
AcDbText
 73
     2
  0
LINE
  5
3CE
330
1F
100
AcDbEntity
  8
BORDER
100
AcDbLine
 10
49.42475275894324
 20
-1.102528471122788
 30
0.0
 11
59.1330585360188
 21
-1.102528471122838
 31
0.0
  0
LINE
  5
3CF
330
1F
100
AcDbEntity
  8
BORDER
100
AcDbLine
 10
49.42475275894324
 20
-2.977528471122837
 30
0.0
 11
59.1330585360188
 21
-2.977528471122837
 31
0.0
  0
LINE
  5
3D0
330
1F
100
AcDbEntity
  8
BORDER
100
AcDbLine
 10
49.42475275894324
 20
-4.477528471122838
 30
0.0
 11
59.1330585360188
 21
-4.477528471122838
 31
0.0
  0
LINE
  5
3D1
330
1F
100
AcDbEntity
  8
BORDER
100
AcDbLine
 10
57.07685599346304
 20
-4.477528471122838
 30
0.0
 11
57.07685599346304
 21
-6.044893109147237
 31
0.0
  0
TEXT
  5
3D2
330
1F
100
AcDbEntity
  8
TEXT
100
AcDbText
 10
44.75651464488975
 20
-5.820711935957056
 30
0.0
 40
0.375
  1
SHEET 1 OF 1
 72
     1
 11
46.81901464488976
 21
-5.633211935957056
 31
0.0
100
AcDbText
 73
     2
  0
LINE
  5
3D3
330
1F
100
AcDbEntity
  8
BORDER
100
AcDbLine
 10
44.17475275894324
 20
-5.227528471122838
 30
0.0
 11
49.42475275894324
 21
-5.227528471122838
 31
0.0
  0
TEXT
  5
3D4
330
1F
100
AcDbEntity
  8
TEXT
100
AcDbText
 10
45.64350275894324
 20
-5.033986427085693
 30
0.0
 40
0.375
  1
9-18-09
 72
     1
 11
46.79975275894324
 21
-4.846486427085693
 31
0.0
100
AcDbText
 73
     2
  0
TEXT
  5
3D5
330
1F
100
AcDbEntity
  8
TEXT
100
AcDbText
 10
44.36225275894324
 20
-4.758778471122838
 30
0.0
 40
0.1875
  1
DATE
100
AcDbText
  0
TEXT
  5
3D6
330
1F
100
AcDbEntity
  8
TEXT
100
AcDbText
 10
45.07287775894321
 20
-4.410778471122879
 30
0.0
 40
0.28125
  1
GFD
 72
     1
 11
45.44787775894321
 21
-4.270153471122879
 31
0.0
100
AcDbText
 73
     2
  0
TEXT
  5
3D7
330
1F
100
AcDbEntity
  8
TEXT
100
AcDbText
 10
44.28350275894321
 20
-4.008778471122838
 30
0.0
 40
0.1875
  1
DRAWN
100
AcDbText
  0
TEXT
  5
3D8
330
1F
100
AcDbEntity
  8
TEXT
100
AcDbText
 10
46.98725275894324
 20
-4.008778471122838
 30
0.0
 40
0.1875
  1
SCALE
100
AcDbText
  0
TEXT
  5
3D9
330
1F
100
AcDbEntity
  8
TEXT
100
AcDbText
 10
47.63600275894325
 20
-4.410778471122879
 30
0.0
 40
0.28125
  1
NONE
 72
     1
 11
48.15162775894325
 21
-4.270153471122879
 31
0.0
100
AcDbText
 73
     2
  0
LINE
  5
3DA
330
1F
100
AcDbEntity
  8
BORDER
100
AcDbLine
 10
44.17475275894324
 20
-3.727528471122837
 30
0.0
 11
49.42475275894324
 21
-3.727528471122837
 31
0.0
  0
LINE
  5
3DB
330
1F
100
AcDbEntity
  8
BORDER
100
AcDbLine
 10
44.17475275894324
 20
-4.477528471122838
 30
0.0
 11
49.42475275894324
 21
-4.477528471122838
 31
0.0
  0
LINE
  5
3DC
330
1F
100
AcDbEntity
  8
BORDER
100
AcDbLine
 10
49.42475275894324
 20
-6.044893109147324
 30
0.0
 11
49.42475275894324
 21
-1.102528471122838
 31
0.0
  0
LINE
  5
3DD
330
1F
100
AcDbEntity
  8
TEXT
100
AcDbLine
 10
50.49781615975089
 20
-2.67194845188608
 30
0.0
 11
50.52989346283647
 21
-2.692249435385086
 31
0.0
  0
ARC
  5
3DE
330
1F
100
AcDbEntity
  8
TEXT
100
AcDbCircle
 10
50.70722790577015
 20
-2.456388113941193
 30
0.0
 40
0.1235686801195331
100
AcDbArc
 50
287.1920036507392
 51
335.8997504051523
  0
ARC
  5
3DF
330
1F
100
AcDbEntity
  8
TEXT
100
AcDbCircle
 10
50.95444333165628
 20
-2.622863950254263
 30
0.0
 40
0.0574830775048127
100
AcDbArc
 50
67.37252950712522
 51
112.6274704928676
  0
ARC
  5
3E0
330
1F
100
AcDbEntity
  8
TEXT
100
AcDbCircle
 10
50.93633430705103
 20
-2.523551531758414
 30
0.0
 40
0.0811923392812832
100
AcDbArc
 50
330.1916644163827
 51
19.91318758188043
  0
ARC
  5
3E1
330
1F
100
AcDbEntity
  8
TEXT
100
AcDbCircle
 10
50.82831124932915
 20
-2.478083666878806
 30
0.0
 40
0.0299315237481412
100
AcDbArc
 50
253.9290889125597
 51
38.65267477511408
  0
ARC
  5
3E2
330
1F
100
AcDbEntity
  8
TEXT
100
AcDbCircle
 10
51.33701416343331
 20
-2.509064740487267
 30
0.0
 40
0.062191304224996
100
AcDbArc
 50
188.1927496775746
 51
244.8496170020149
  0
ARC
  5
3E3
330
1F
100
AcDbEntity
  8
TEXT
100
AcDbCircle
 10
51.33625362573269
 20
-2.448864816284348
 30
0.0
 40
0.1192900151968245
100
AcDbArc
 50
257.573093086619
 51
314.4273867462269
  0
LINE
  5
3E4
330
1F
100
AcDbEntity
  8
TEXT
100
AcDbLine
 10
51.5441207448427
 20
-2.581487181961378
 30
0.0
 11
51.54601939712211
 21
-2.559668092474224
 31
0.0
  0
LINE
  5
3E5
330
1F
100
AcDbEntity
  8
TEXT
100
AcDbLine
 10
51.54601939712211
 20
-2.559668092474224
 30
0.0
 11
51.51374187024736
 21
-2.561565409445193
 31
0.0
  0
ARC
  5
3E6
330
1F
100
AcDbEntity
  8
TEXT
100
AcDbCircle
 10
51.51308916909997
 20
-2.53526850862854
 30
0.0
 40
0.0263049997405142
100
AcDbArc
 50
155.9964711746293
 51
271.4218156194853
  0
ARC
  5
3E7
330
1F
100
AcDbEntity
  8
TEXT
100
AcDbCircle
 10
51.74160024443928
 20
-2.52240607209972
 30
0.0
 40
0.0616502517662663
100
AcDbArc
 50
203.9135879631564
 51
286.1701931802543
  0
ARC
  5
3E8
330
1F
100
AcDbEntity
  8
TEXT
100
AcDbCircle
 10
51.77109780437899
 20
-2.495449913508043
 30
0.0
 40
0.0870449330871867
100
AcDbArc
 50
261.857612146284
 51
331.2394802847377
  0
ARC
  5
3E9
330
1F
100
AcDbEntity
  8
TEXT
100
AcDbCircle
 10
51.76740648631179
 20
-2.481925549736009
 30
0.0
 40
0.0973115932483436
100
AcDbArc
 50
325.2939034707338
 51
356.4132772462207
  0
LINE
  5
3EA
330
1F
100
AcDbEntity
  8
TEXT
100
AcDbLine
 10
50.9170715542073
 20
-1.602529751998588
 30
0.0
 11
51.16666148403176
 21
-1.602529751998588
 31
0.0
  0
ARC
  5
3EB
330
1F
100
AcDbEntity
  8
TEXT
100
AcDbCircle
 10
51.05328763937902
 20
-1.597257788342514
 30
0.0
 40
0.1134963534750494
100
AcDbArc
 50
357.337623744369
 51
85.63084243886233
  0
ARC
  5
3EC
330
1F
100
AcDbEntity
  8
TEXT
100
AcDbCircle
 10
51.01790685546028
 20
-1.694035957713282
 30
0.0
 40
0.2145114628604602
100
AcDbArc
 50
78.15621523985537
 51
106.6122408520357
  0
LINE
  5
3ED
330
1F
100
AcDbEntity
  8
TEXT
100
AcDbLine
 10
50.9170715542073
 20
-1.575583436794238
 30
0.0
 11
51.08074736989926
 21
-1.575583436794238
 31
0.0
  0
ARC
  5
3EE
330
1F
100
AcDbEntity
  8
TEXT
100
AcDbCircle
 10
50.99681823177736
 20
-1.591158864504492
 30
0.0
 40
0.0812534708909397
100
AcDbArc
 50
103.9179608005984
 51
168.9486088950479
  0
ARC
  5
3EF
330
1F
100
AcDbEntity
  8
TEXT
100
AcDbCircle
 10
51.01551362470809
 20
-1.573522992418318
 30
0.0
 40
0.0652662772240651
100
AcDbArc
 50
358.1908821763629
 51
69.74957583402932
  0
ARC
  5
3F0
330
1F
100
AcDbEntity
  8
TEXT
100
AcDbCircle
 10
51.00768899761664
 20
-1.759989516455419
 30
0.0
 40
0.2495589427940663
100
AcDbArc
 50
82.99970676551479
 51
97.00029323448521
  0
ARC
  5
3F1
330
1F
100
AcDbEntity
  8
TEXT
100
AcDbCircle
 10
51.00588823561422
 20
-1.635490793896551
 30
0.0
 40
0.1550617556562953
100
AcDbArc
 50
108.5416613320799
 51
149.7652339536166
  0
ARC
  5
3F2
330
1F
100
AcDbEntity
  8
TEXT
100
AcDbCircle
 10
51.00688065802993
 20
-1.640214387241284
 30
0.0
 40
0.1583382231194104
100
AcDbArc
 50
148.4692011102813
 51
195.5802361373363
  0
ARC
  5
3F3
330
1F
100
AcDbEntity
  8
TEXT
100
AcDbCircle
 10
51.00395165823446
 20
-1.64493208226939
 30
0.0
 40
0.1542954973653147
100
AcDbArc
 50
194.1847393568171
 51
248.6586767321129
  0
ARC
  5
3F4
330
1F
100
AcDbEntity
  8
TEXT
100
AcDbCircle
 10
51.06732942378761
 20
-1.604376159303774
 30
0.0
 40
0.1502692137157162
100
AcDbArc
 50
179.2959701761241
 51
227.5915484940838
  0
ARC
  5
3F5
330
1F
100
AcDbEntity
  8
TEXT
100
AcDbCircle
 10
51.03455844779507
 20
-1.631125497827524
 30
0.0
 40
0.1085922287405707
100
AcDbArc
 50
230.8416488637729
 51
280.5326941523483
  0
ARC
  5
3F6
330
1F
100
AcDbEntity
  8
TEXT
100
AcDbCircle
 10
51.04875035235846
 20
-1.601702056011198
 30
0.0
 40
0.1363034732059888
100
AcDbArc
 50
272.3792098458871
 51
327.358187436322
  0
ARC
  5
3F7
330
1F
100
AcDbEntity
  8
TEXT
100
AcDbCircle
 10
51.00845491190833
 20
-1.573080317278041
 30
0.0
 40
0.2239378989788901
100
AcDbArc
 50
254.2847830849396
 51
294.1819270465994
  0
ARC
  5
3F8
330
1F
100
AcDbEntity
  8
TEXT
100
AcDbCircle
 10
51.02663329266963
 20
-1.628694174842785
 30
0.0
 40
0.1658735297121861
100
AcDbArc
 50
296.3233923707218
 51
339.8348331475796
  0
ARC
  5
3F9
330
1F
100
AcDbEntity
  8
TEXT
100
AcDbCircle
 10
51.17111756916251
 20
-1.683754025680626
 30
0.0
 40
0.0114204126568138
100
AcDbArc
 50
349.295202971697
 51
131.6626905469362
  0
ARC
  5
3FA
330
1F
100
AcDbEntity
  8
TEXT
100
AcDbCircle
 10
50.68677580736238
 20
-1.95774874885044
 30
0.0
 40
0.4785586452070742
100
AcDbArc
 50
84.62122141578795
 51
95.37877858421206
  0
ARC
  5
3FB
330
1F
100
AcDbEntity
  8
TEXT
100
AcDbCircle
 10
50.71547063329585
 20
-1.59041575028196
 30
0.0
 40
0.1103093002531043
100
AcDbArc
 50
43.16761867319074
 51
81.57335966331341
  0
ARC
  5
3FC
330
1F
100
AcDbEntity
  8
TEXT
100
AcDbCircle
 10
50.75763151998528
 20
-1.543745197920465
 30
0.0
 40
0.0479126162184992
100
AcDbArc
 50
321.1558234807585
 51
36.94217904230036
  0
ARC
  5
3FD
330
1F
100
AcDbEntity
  8
TEXT
100
AcDbCircle
 10
50.76673083698828
 20
-1.537244631712816
 30
0.0
 40
0.0461763266561713
100
AcDbArc
 50
205.1359642898997
 51
307.6679722285764
  0
ARC
  5
3FE
330
1F
100
AcDbEntity
  8
TEXT
100
AcDbCircle
 10
50.77637717444784
 20
-1.536254126684639
 30
0.0
 40
0.0554224149582203
100
AcDbArc
 50
180.010674400693
 51
201.8251852718025
  0
ARC
  5
3FF
330
1F
100
AcDbEntity
  8
TEXT
100
AcDbCircle
 10
50.66645819571498
 20
-1.552631670109696
 30
0.0
 40
0.0569013303394793
100
AcDbArc
 50
16.71684440730572
 51
45.97719400399782
  0
ARC
  5
400
330
1F
100
AcDbEntity
  8
TEXT
100
AcDbCircle
 10
50.67625576563205
 20
-1.973489868079099
 30
0.0
 40
0.4627309134716012
100
AcDbArc
 50
86.31431733544655
 51
93.90381943516549
  0
ARC
  5
401
330
1F
100
AcDbEntity
  8
TEXT
100
AcDbCircle
 10
50.65957740402168
 20
-1.623788339226145
 30
0.0
 40
0.1435814038117717
100
AcDbArc
 50
97.06566064011505
 51
142.4986334312254
  0
ARC
  5
402
330
1F
100
AcDbEntity
  8
TEXT
100
AcDbCircle
 10
50.65827800926422
 20
-1.646233643261922
 30
0.0
 40
0.1573179651795562
100
AcDbArc
 50
135.7093780000634
 51
195.2317137751538
  0
ARC
  5
403
330
1F
100
AcDbEntity
  8
TEXT
100
AcDbCircle
 10
50.6433985414435
 20
-1.651004441530908
 30
0.0
 40
0.1417094945864498
100
AcDbArc
 50
194.951106148765
 51
259.6103135862126
  0
ARC
  5
404
330
1F
100
AcDbEntity
  8
TEXT
100
AcDbCircle
 10
50.66602946331011
 20
-1.645240627852238
 30
0.0
 40
0.1529394365370079
100
AcDbArc
 50
251.634770640331
 51
316.4182924463649
  0
ARC
  5
405
330
1F
100
AcDbEntity
  8
TEXT
100
AcDbCircle
 10
50.64680588848631
 20
-1.596910322824524
 30
0.0
 40
0.2013621134637685
100
AcDbArc
 50
310.2152586008202
 51
331.3072507285895
  0
ARC
  5
406
330
1F
100
AcDbEntity
  8
TEXT
100
AcDbCircle
 10
50.70497008770843
 20
-1.628142344867839
 30
0.0
 40
0.1309738408136819
100
AcDbArc
 50
117.3722826858103
 51
160.0902491401804
  0
ARC
  5
407
330
1F
100
AcDbEntity
  8
TEXT
100
AcDbCircle
 10
50.72188774619696
 20
-1.615766004059399
 30
0.0
 40
0.1437225919317553
100
AcDbArc
 50
167.0430028911431
 51
212.1309371309439
  0
ARC
  5
408
330
1F
100
AcDbEntity
  8
TEXT
100
AcDbCircle
 10
50.69118566575331
 20
-1.632774204868403
 30
0.0
 40
0.1086941518186937
100
AcDbArc
 50
213.1462108998123
 51
285.6537258536394
  0
ARC
  5
409
330
1F
100
AcDbEntity
  8
TEXT
100
AcDbCircle
 10
50.69217353470626
 20
-1.60594503148875
 30
0.0
 40
0.134511266670263
100
AcDbArc
 50
282.1628426667851
 51
326.5593609179329
  0
ARC
  5
40A
330
1F
100
AcDbEntity
  8
TEXT
100
AcDbCircle
 10
50.80851931917118
 20
-1.694444103517831
 30
0.0
 40
0.0149474164447453
100
AcDbArc
 50
3.288025410275707
 51
105.9275278804377
  0
LINE
  5
40B
330
1F
100
AcDbEntity
  8
TEXT
100
AcDbLine
 10
50.10407830046752
 20
-1.159361364366944
 30
0.0
 11
50.10896247157734
 21
-1.559574941522235
 31
0.0
  0
LINE
  5
40C
330
1F
100
AcDbEntity
  8
TEXT
100
AcDbLine
 10
50.14315166934586
 20
-1.208167907672532
 30
0.0
 11
50.14559375490078
 21
-1.559574941522235
 31
0.0
  0
ARC
  5
40D
330
1F
100
AcDbEntity
  8
TEXT
100
AcDbCircle
 10
50.12727811323903
 20
-1.560246711268931
 30
0.0
 40
0.0183279568985234
100
AcDbArc
 50
177.899482485688
 51
2.100517514311817
  0
LINE
  5
40E
330
1F
100
AcDbEntity
  8
TEXT
100
AcDbLine
 10
50.22711431670453
 20
-1.225815769147095
 30
0.0
 11
50.22711431670453
 21
-1.837594999174475
 31
0.0
  0
LINE
  5
40F
330
1F
100
AcDbEntity
  8
TEXT
100
AcDbLine
 10
50.40451904054023
 20
-1.225815769147095
 30
0.0
 11
50.40451904054023
 21
-1.837594999174475
 31
0.0
  0
ARC
  5
410
330
1F
100
AcDbEntity
  8
TEXT
100
AcDbCircle
 10
50.16094111686143
 20
-1.209022385506514
 30
0.0
 40
0.0178099571947197
100
AcDbArc
 50
38.20381851856335
 51
177.2500340797979
  0
LINE
  5
411
330
1F
100
AcDbEntity
  8
TEXT
100
AcDbLine
 10
50.1749364604346
 20
-1.198007625702095
 30
0.0
 11
50.22711431670453
 21
-1.225815769147095
 31
0.0
  0
LINE
  5
412
330
1F
100
AcDbEntity
  8
TEXT
100
AcDbLine
 10
50.45669689681018
 20
-1.198007625702095
 30
0.0
 11
50.40451904054023
 21
-1.225815769147095
 31
0.0
  0
LINE
  5
413
330
1F
100
AcDbEntity
  8
TEXT
100
AcDbLine
 10
50.4884816878989
 20
-1.208167907672532
 30
0.0
 11
50.48828050753178
 21
-1.237117014690346
 31
0.0
  0
LINE
  5
414
330
1F
100
AcDbEntity
  8
TEXT
100
AcDbLine
 10
50.52755505677726
 20
-1.159361364366944
 30
0.0
 11
50.52660613369562
 21
-1.237117014690346
 31
0.0
  0
ARC
  5
415
330
1F
100
AcDbEntity
  8
TEXT
100
AcDbCircle
 10
50.47069224038333
 20
-1.209022385506514
 30
0.0
 40
0.0178099571947197
100
AcDbArc
 50
2.7499659202021
 51
141.7961814814367
  0
ARC
  5
416
330
1F
100
AcDbEntity
  8
TEXT
100
AcDbCircle
 10
50.5074433206137
 20
-1.249777275970942
 30
0.0
 40
0.0229672728225863
100
AcDbArc
 50
146.5485285753442
 51
33.45147142465561
  0
ARC
  5
417
330
1F
100
AcDbEntity
  8
TEXT
100
AcDbCircle
 10
52.31255236325006
 20
-2.500088757782049
 30
0.0
 40
0.0114204126568138
100
AcDbArc
 50
349.295202971697
 51
131.6626905469362
  0
ARC
  5
418
330
1F
100
AcDbEntity
  8
TEXT
100
AcDbCircle
 10
52.16806808675727
 20
-2.445028906944259
 30
0.0
 40
0.1658735297121861
100
AcDbArc
 50
296.3233923707218
 51
339.8348331475796
  0
ARC
  5
419
330
1F
100
AcDbEntity
  8
TEXT
100
AcDbCircle
 10
52.14988970599589
 20
-2.38941504937947
 30
0.0
 40
0.2239378989788901
100
AcDbArc
 50
254.2847830849396
 51
294.1819270465994
  0
ARC
  5
41A
330
1F
100
AcDbEntity
  8
TEXT
100
AcDbCircle
 10
52.19018514644602
 20
-2.418036788112658
 30
0.0
 40
0.1363034732059888
100
AcDbArc
 50
272.3792098458871
 51
327.358187436322
  0
ARC
  5
41B
330
1F
100
AcDbEntity
  8
TEXT
100
AcDbCircle
 10
52.17599324188262
 20
-2.447460229928954
 30
0.0
 40
0.1085922287405707
100
AcDbArc
 50
230.8416488637729
 51
280.5326941523483
  0
ARC
  5
41C
330
1F
100
AcDbEntity
  8
TEXT
100
AcDbCircle
 10
52.20876421787518
 20
-2.420710891405247
 30
0.0
 40
0.1502692137157162
100
AcDbArc
 50
179.2959701761241
 51
227.5915484940838
  0
ARC
  5
41D
330
1F
100
AcDbEntity
  8
TEXT
100
AcDbCircle
 10
52.14538645232202
 20
-2.461266814370851
 30
0.0
 40
0.1542954973653147
100
AcDbArc
 50
194.1847393568171
 51
248.6586767321129
  0
ARC
  5
41E
330
1F
100
AcDbEntity
  8
TEXT
100
AcDbCircle
 10
52.14831545211756
 20
-2.456549119342703
 30
0.0
 40
0.1583382231194104
100
AcDbArc
 50
148.4692011102813
 51
195.5802361373363
  0
ARC
  5
41F
330
1F
100
AcDbEntity
  8
TEXT
100
AcDbCircle
 10
52.1473230297018
 20
-2.451825525997979
 30
0.0
 40
0.1550617556562953
100
AcDbArc
 50
108.5416613320799
 51
149.7652339536166
  0
ARC
  5
420
330
1F
100
AcDbEntity
  8
TEXT
100
AcDbCircle
 10
52.14912379170421
 20
-2.576324248556836
 30
0.0
 40
0.2495589427940663
100
AcDbArc
 50
82.99970676551479
 51
97.00029323448521
  0
ARC
  5
421
330
1F
100
AcDbEntity
  8
TEXT
100
AcDbCircle
 10
52.15694841879565
 20
-2.38985772451974
 30
0.0
 40
0.0652662772240651
100
AcDbArc
 50
358.1908821763629
 51
69.74957583402932
  0
ARC
  5
422
330
1F
100
AcDbEntity
  8
TEXT
100
AcDbCircle
 10
52.13825302586492
 20
-2.40749359660591
 30
0.0
 40
0.0812534708909397
100
AcDbArc
 50
103.9179608005984
 51
168.9486088950479
  0
LINE
  5
423
330
1F
100
AcDbEntity
  8
TEXT
100
AcDbLine
 10
52.05850634829484
 20
-2.391918168895668
 30
0.0
 11
52.22218216398681
 21
-2.391918168895668
 31
0.0
  0
ARC
  5
424
330
1F
100
AcDbEntity
  8
TEXT
100
AcDbCircle
 10
52.15934164954783
 20
-2.510370689814739
 30
0.0
 40
0.2145114628604602
100
AcDbArc
 50
78.15621523985537
 51
106.6122408520357
  0
ARC
  5
425
330
1F
100
AcDbEntity
  8
TEXT
100
AcDbCircle
 10
52.19472243346658
 20
-2.413592520443934
 30
0.0
 40
0.1134963534750494
100
AcDbArc
 50
357.337623744369
 51
85.63084243886233
  0
LINE
  5
426
330
1F
100
AcDbEntity
  8
TEXT
100
AcDbLine
 10
52.05850634829484
 20
-2.418864484100048
 30
0.0
 11
52.30809627811932
 21
-2.418864484100048
 31
0.0
  0
ARC
  5
427
330
1F
100
AcDbEntity
  8
TEXT
100
AcDbCircle
 10
50.24036164448403
 20
-1.875091564694485
 30
0.0
 40
0.0397678779808022
100
AcDbArc
 50
109.4580308571272
 51
191.0341765876999
  0
ARC
  5
428
330
1F
100
AcDbEntity
  8
TEXT
100
AcDbCircle
 10
50.18953207150196
 20
-1.884924492967654
 30
0.0
 40
0.0120042360355189
100
AcDbArc
 50
155.9249042338174
 51
10.66497725508716
  0
ARC
  5
429
330
1F
100
AcDbEntity
  8
TEXT
100
AcDbCircle
 10
50.15617280122522
 20
-1.894289605087266
 30
0.0
 40
0.0265543389333426
100
AcDbArc
 50
32.48569494743492
 51
175.1979664789355
  0
ARC
  5
42A
330
1F
100
AcDbEntity
  8
TEXT
100
AcDbCircle
 10
50.12082019720224
 20
-1.896301417657241
 30
0.0
 40
0.0098484268339817
100
AcDbArc
 50
158.7719549350961
 51
25.46716058583975
  0
ARC
  5
42B
330
1F
100
AcDbEntity
  8
TEXT
100
AcDbCircle
 10
50.09777896136601
 20
-1.88981972503435
 30
0.0
 40
0.0141644132330729
100
AcDbArc
 50
348.120650980676
 51
136.2651890953768
  0
ARC
  5
42C
330
1F
100
AcDbEntity
  8
TEXT
100
AcDbCircle
 10
50.09607838047611
 20
-1.897283046934168
 30
0.0
 40
0.0192504245764868
100
AcDbArc
 50
116.3151684036786
 51
258.4674100382152
  0
ARC
  5
42D
330
1F
100
AcDbEntity
  8
TEXT
100
AcDbCircle
 10
50.10265274966698
 20
-1.926029928899458
 30
0.0
 40
0.0143650439868701
100
AcDbArc
 50
356.7423630506751
 51
136.5172760690068
  0
ARC
  5
42E
330
1F
100
AcDbEntity
  8
TEXT
100
AcDbCircle
 10
50.12210334899421
 20
-1.934358826231621
 30
0.0
 40
0.0090850721584386
100
AcDbArc
 50
124.2167745950174
 51
319.7988197133693
  0
ARC
  5
42F
330
1F
100
AcDbEntity
  8
TEXT
100
AcDbCircle
 10
50.15848670619265
 20
-1.95078718298911
 30
0.0
 40
0.0312821180069066
100
AcDbArc
 50
160.2627782819651
 51
255.1333022011724
  0
ARC
  5
430
330
1F
100
AcDbEntity
  8
TEXT
100
AcDbCircle
 10
50.15827271447911
 20
-1.977942441667485
 30
0.0
 40
0.0083972248010632
100
AcDbArc
 50
201.5154657473992
 51
41.96660508022721
  0
ARC
  5
431
330
1F
100
AcDbEntity
  8
TEXT
100
AcDbCircle
 10
50.18752236653188
 20
-1.957115332236696
 30
0.0
 40
0.0275804145931514
100
AcDbArc
 50
121.2424246402128
 51
213.4732397083748
  0
ARC
  5
432
330
1F
100
AcDbEntity
  8
TEXT
100
AcDbCircle
 10
50.18088289463515
 20
-1.947045790156025
 30
0.0
 40
0.0155341571545389
100
AcDbArc
 50
332.2921775479049
 51
119.5678571759904
  0
ARC
  5
433
330
1F
100
AcDbEntity
  8
TEXT
100
AcDbCircle
 10
50.18379425609703
 20
-1.979798639634729
 30
0.0
 40
0.0277366383214724
100
AcDbArc
 50
312.9867785858861
 51
66.99118422926642
  0
ARC
  5
434
330
1F
100
AcDbEntity
  8
TEXT
100
AcDbCircle
 10
50.30324207288436
 20
-2.194688341640443
 30
0.0
 40
0.2190358327107401
100
AcDbArc
 50
117.3222180892418
 51
179.3383492613259
  0
ARC
  5
435
330
1F
100
AcDbEntity
  8
TEXT
100
AcDbCircle
 10
51.01010870092931
 20
-2.266456833391365
 30
0.0
 40
0.9288640878310699
100
AcDbArc
 50
175.4121316267021
 51
191.7939289657072
  0
ARC
  5
436
330
1F
100
AcDbEntity
  8
TEXT
100
AcDbCircle
 10
50.09903903239259
 20
-2.498710137737312
 30
0.0
 40
0.042439428205579
100
AcDbArc
 50
15.17145974978958
 51
87.54918714297627
  0
ARC
  5
437
330
1F
100
AcDbEntity
  8
TEXT
100
AcDbCircle
 10
53.93054870702211
 20
-2.61689679804882
 30
0.0
 40
3.792753809134317
100
AcDbArc
 50
178.0464319449979
 51
181.7502526685598
  0
LINE
  5
438
330
1F
100
AcDbEntity
  8
TEXT
100
AcDbLine
 10
50.18019256960826
 20
-2.545026209289068
 30
0.0
 11
50.17867139456313
 21
-2.72819526612124
 31
0.0
  0
ARC
  5
439
330
1F
100
AcDbEntity
  8
TEXT
100
AcDbCircle
 10
50.18654181049369
 20
-2.543668266594679
 30
0.0
 40
0.0064928320617832
100
AcDbArc
 50
333.6879001367242
 51
192.0722457553363
  0
LINE
  5
43A
330
1F
100
AcDbEntity
  8
TEXT
100
AcDbLine
 10
50.1923619386752
 20
-2.546546282601234
 30
0.0
 11
50.1923619386752
 21
-2.5739076393396
 31
0.0
  0
ARC
  5
43B
330
1F
100
AcDbEntity
  8
TEXT
100
AcDbCircle
 10
50.20096329180074
 20
-2.571923964972249
 30
0.0
 40
0.0088271308807469
100
AcDbArc
 50
192.9866902548914
 51
33.38063139741151
  0
ARC
  5
43C
330
1F
100
AcDbEntity
  8
TEXT
100
AcDbCircle
 10
50.22398301821379
 20
-2.577303226019095
 30
0.0
 40
0.0186991566723165
100
AcDbArc
 50
17.6695592997068
 51
146.8111142491888
  0
ARC
  5
43D
330
1F
100
AcDbEntity
  8
TEXT
100
AcDbCircle
 10
50.28256587361891
 20
-2.548675675272666
 30
0.0
 40
0.0467829440873418
100
AcDbArc
 50
209.3802246625985
 51
263.8421008682747
  0
LINE
  5
43E
330
1F
100
AcDbEntity
  8
TEXT
100
AcDbLine
 10
50.2775475221434
 20
-2.595188684269622
 30
0.0
 11
50.28211101598428
 21
-2.659031856178954
 31
0.0
  0
ARC
  5
43F
330
1F
100
AcDbEntity
  8
TEXT
100
AcDbCircle
 10
50.30135523129468
 20
-2.661720801415071
 30
0.0
 40
0.0194311669591682
100
AcDbArc
 50
172.045705651638
 51
14.81661014794038
  0
LINE
  5
440
330
1F
100
AcDbEntity
  8
TEXT
100
AcDbLine
 10
50.32014029823017
 20
-2.65675174621068
 30
0.0
 11
50.3231826483206
 21
-2.630150426128436
 31
0.0
  0
ARC
  5
441
330
1F
100
AcDbEntity
  8
TEXT
100
AcDbCircle
 10
50.33011357306328
 20
-2.629340593360723
 30
0.0
 40
0.0069780761604683
100
AcDbArc
 50
318.6510821797595
 51
186.6644145786481
  0
LINE
  5
442
330
1F
100
AcDbEntity
  8
TEXT
100
AcDbLine
 10
50.33535201738743
 20
-2.633950609408854
 30
0.0
 11
50.33915492370574
 21
-2.668912332708053
 31
0.0
  0
ARC
  5
443
330
1F
100
AcDbEntity
  8
TEXT
100
AcDbCircle
 10
50.35217517854432
 20
-2.671604672618534
 30
0.0
 40
0.0132957034509404
100
AcDbArc
 50
168.316985756431
 51
15.049952114518
  0
LINE
  5
444
330
1F
100
AcDbEntity
  8
TEXT
100
AcDbLine
 10
50.36501483688471
 20
-2.668152296051978
 30
0.0
 11
50.36501483688471
 21
-2.63927086600146
 31
0.0
  0
ARC
  5
445
330
1F
100
AcDbEntity
  8
TEXT
100
AcDbCircle
 10
50.38233796565646
 20
-2.654302681738954
 30
0.0
 40
0.0229356986989046
100
AcDbArc
 50
65.19241843010743
 51
139.0508106988789
  0
ARC
  5
446
330
1F
100
AcDbEntity
  8
TEXT
100
AcDbCircle
 10
50.39711645977942
 20
-2.655740244222599
 30
0.0
 40
0.0228460586386703
100
AcDbArc
 50
7.606980527161327
 51
103.0413594591621
  0
LINE
  5
447
330
1F
100
AcDbEntity
  8
TEXT
100
AcDbLine
 10
50.41976145984399
 20
-2.652715948040571
 30
0.0
 11
50.42938462573388
 21
-2.785206552771391
 31
0.0
  0
LINE
  5
448
330
1F
100
AcDbEntity
  8
TEXT
100
AcDbLine
 10
50.47108509470942
 20
-2.780932671276659
 30
0.0
 11
50.47429283753581
 21
-2.676222351940416
 31
0.0
  0
ARC
  5
449
330
1F
100
AcDbEntity
  8
TEXT
100
AcDbCircle
 10
50.48586957145321
 20
-2.673067572336954
 30
0.0
 40
0.01199889172128
100
AcDbArc
 50
5.351678383090963
 51
195.2435488026409
  0
LINE
  5
44A
330
1F
100
AcDbEntity
  8
TEXT
100
AcDbLine
 10
50.52989346283647
 20
-2.692249435385086
 30
0.0
 11
50.53203195805417
 21
-2.758494747030283
 31
0.0
  0
ARC
  5
44B
330
1F
100
AcDbEntity
  8
TEXT
100
AcDbCircle
 10
50.59039150819723
 20
-2.707208057735869
 30
0.0
 40
0.0111923495175045
100
AcDbArc
 50
354.5219056877808
 51
214.9448543763836
  0
ARC
  5
44C
330
1F
100
AcDbEntity
  8
TEXT
100
AcDbCircle
 10
50.62136208857817
 20
-2.709042541274939
 30
0.0
 40
0.0198441386731591
100
AcDbArc
 50
177.787775166229
 51
326.3805826419352
  0
ARC
  5
44D
330
1F
100
AcDbEntity
  8
TEXT
100
AcDbCircle
 10
50.82639680177135
 20
-2.68536964320922
 30
0.0
 40
0.0108536004534171
100
AcDbArc
 50
144.5711585108374
 51
21.75301147886981
  0
LINE
  5
44E
330
1F
100
AcDbEntity
  8
TEXT
100
AcDbLine
 10
50.8364775181506
 20
-2.681347230987213
 30
0.0
 11
50.83723450677728
 21
-2.623857736125309
 31
0.0
  0
ARC
  5
44F
330
1F
100
AcDbEntity
  8
TEXT
100
AcDbCircle
 10
50.82642152281704
 20
-2.630414310430956
 30
0.0
 40
0.012645524455306
100
AcDbArc
 50
31.23099864076773
 51
160.181952938184
  0
ARC
  5
450
330
1F
100
AcDbEntity
  8
TEXT
100
AcDbCircle
 10
50.86803519790572
 20
-2.649629106756441
 30
0.0
 40
0.0584439427015822
100
AcDbArc
 50
156.2885975497966
 51
210.2571046136431
  0
ARC
  5
451
330
1F
100
AcDbEntity
  8
TEXT
100
AcDbCircle
 10
51.03338720577005
 20
-2.742035635753607
 30
0.0
 40
0.0360841351362309
100
AcDbArc
 50
341.5477100758343
 51
84.99888070834158
  0
ARC
  5
452
330
1F
100
AcDbEntity
  8
TEXT
100
AcDbCircle
 10
51.04909743050615
 20
-2.783910743401428
 30
0.0
 40
0.0788296406331002
100
AcDbArc
 50
99.17143729878517
 51
127.7955283290939
  0
ARC
  5
453
330
1F
100
AcDbEntity
  8
TEXT
100
AcDbCircle
 10
50.89615920904453
 20
-2.713653480725696
 30
0.0
 40
0.0087399854901761
100
AcDbArc
 50
312.7998628402736
 51
120.0581864533374
  0
ARC
  5
454
330
1F
100
AcDbEntity
  8
TEXT
100
AcDbCircle
 10
50.89696689596019
 20
-2.686888327191255
 30
0.0
 40
0.0198884128034732
100
AcDbArc
 50
129.1527393458024
 51
254.8870408388506
  0
ARC
  5
455
330
1F
100
AcDbEntity
  8
TEXT
100
AcDbCircle
 10
50.82105313687313
 20
-2.623184691530318
 30
0.0
 40
0.0796559893773839
100
AcDbArc
 50
322.6907301981532
 51
8.220255073941791
  0
ARC
  5
456
330
1F
100
AcDbEntity
  8
TEXT
100
AcDbCircle
 10
50.90709835481414
 20
-2.604856167869392
 30
0.0
 40
0.0100052643924705
100
AcDbArc
 50
89.05883162362073
 51
223.9137905963002
  0
ARC
  5
457
330
1F
100
AcDbEntity
  8
TEXT
100
AcDbCircle
 10
50.70726157747049
 20
-2.369642331649082
 30
0.0
 40
0.3011975387222217
100
AcDbArc
 50
311.6071689301102
 51
318.3515702307968
  0
ARC
  5
458
330
1F
100
AcDbEntity
  8
TEXT
100
AcDbCircle
 10
50.9059401570161
 20
-2.599272245725956
 30
0.0
 40
0.0765201974600678
100
AcDbArc
 50
337.3510782224611
 51
22.64892177753882
  0
ARC
  5
459
330
1F
100
AcDbEntity
  8
TEXT
100
AcDbCircle
 10
51.03088374961195
 20
-2.638838267505811
 30
0.0
 40
0.0552553003765589
100
AcDbArc
 50
169.4684867573182
 51
223.141843942143
  0
ARC
  5
45A
330
1F
100
AcDbEntity
  8
TEXT
100
AcDbCircle
 10
50.98325727394707
 20
-2.644892061127642
 30
0.0
 40
0.0325610258630091
100
AcDbArc
 50
282.9712622283036
 51
25.35441378639511
  0
ARC
  5
45B
330
1F
100
AcDbEntity
  8
TEXT
100
AcDbCircle
 10
51.35396469209357
 20
-2.567146760257798
 30
0.0
 40
0.3471954157645391
100
AcDbArc
 50
179.466220207127
 51
190.5890997840366
  0
ARC
  5
45C
330
1F
100
AcDbEntity
  8
TEXT
100
AcDbCircle
 10
50.75222900535472
 20
-2.261173731768548
 30
0.0
 40
0.3506080272731332
100
AcDbArc
 50
317.9732863042373
 51
40.61894937560224
  0
ARC
  5
45D
330
1F
100
AcDbEntity
  8
TEXT
100
AcDbCircle
 10
50.98487432765224
 20
-2.074286668644458
 30
0.0
 40
0.0532219959288008
100
AcDbArc
 50
51.01090143870974
 51
107.577946053111
  0
ARC
  5
45E
330
1F
100
AcDbEntity
  8
TEXT
100
AcDbCircle
 10
50.89355613027224
 20
-2.019315431366087
 30
0.0
 40
0.0753640437980911
100
AcDbArc
 50
356.7791343814141
 51
50.82801334298971
  0
ARC
  5
45F
330
1F
100
AcDbEntity
  8
TEXT
100
AcDbCircle
 10
50.91248303804672
 20
-2.103711310022198
 30
0.0
 40
0.1456726297907598
100
AcDbArc
 50
78.6467194011529
 51
92.8865786316482
  0
ARC
  5
460
330
1F
100
AcDbEntity
  8
TEXT
100
AcDbCircle
 10
50.8960460843906
 20
-1.940190471116714
 30
0.0
 40
0.0201994868700719
100
AcDbArc
 50
296.7794474250819
 51
150.4674482996605
  0
ARC
  5
461
330
1F
100
AcDbEntity
  8
TEXT
100
AcDbCircle
 10
50.86367171462717
 20
-1.911334743387115
 30
0.0
 40
0.0240040095705512
100
AcDbArc
 50
174.1982733486926
 51
308.0634596483615
  0
ARC
  5
462
330
1F
100
AcDbEntity
  8
TEXT
100
AcDbCircle
 10
50.79521677714126
 20
-1.948030236202406
 30
0.0
 40
0.05930733198463
100
AcDbArc
 50
41.27304036069129
 51
94.61991284103847
  0
ARC
  5
463
330
1F
100
AcDbEntity
  8
TEXT
100
AcDbCircle
 10
50.77147043515264
 20
-1.894494195493791
 30
0.0
 40
0.0197726925807915
100
AcDbArc
 50
136.6395135700788
 51
16.38775991618321
  0
ARC
  5
464
330
1F
100
AcDbEntity
  8
TEXT
100
AcDbCircle
 10
50.74097822802284
 20
-1.89857891618036
 30
0.0
 40
0.0239087999217995
100
AcDbArc
 50
47.61705801860709
 51
152.6179806586
  0
ARC
  5
465
330
1F
100
AcDbEntity
  8
TEXT
100
AcDbCircle
 10
50.69182265392075
 20
-1.900461169767458
 30
0.0
 40
0.0307520466590095
100
AcDbArc
 50
24.75773987532815
 51
121.548388416339
  0
ARC
  5
466
330
1F
100
AcDbEntity
  8
TEXT
100
AcDbCircle
 10
50.65239102166264
 20
-1.883164290271388
 30
0.0
 40
0.0249843467382301
100
AcDbArc
 50
20.8928947157812
 51
159.1071052842187
  0
ARC
  5
467
330
1F
100
AcDbEntity
  8
TEXT
100
AcDbCircle
 10
50.61660288483803
 20
-1.870786180486866
 30
0.0
 40
0.0129206974282422
100
AcDbArc
 50
183.5606974541693
 51
344.4298925613469
  0
ARC
  5
468
330
1F
100
AcDbEntity
  8
TEXT
100
AcDbCircle
 10
50.57696026973238
 20
-1.899711125854139
 30
0.0
 40
0.0388106839919887
100
AcDbArc
 50
46.43616582623989
 51
130.6283095026662
  0
ARC
  5
469
330
1F
100
AcDbEntity
  8
TEXT
100
AcDbCircle
 10
50.53768377365194
 20
-1.874437306337
 30
0.0
 40
0.0146158742644252
100
AcDbArc
 50
163.375655046464
 51
16.62434495352922
  0
ARC
  5
46A
330
1F
100
AcDbEntity
  8
TEXT
100
AcDbCircle
 10
50.4824441425676
 20
-1.983884477959136
 30
0.0
 40
0.1208792060706076
100
AcDbArc
 50
70.05468846035585
 51
100.2232656721042
  0
ARC
  5
46B
330
1F
100
AcDbEntity
  8
TEXT
100
AcDbCircle
 10
50.45098643485727
 20
-1.929432316344147
 30
0.0
 40
0.0652789593552485
100
AcDbArc
 50
81.18509483549694
 51
120.0392913824104
  0
ARC
  5
46C
330
1F
100
AcDbEntity
  8
TEXT
100
AcDbCircle
 10
50.40242929519417
 20
-1.858765131168489
 30
0.0
 40
0.0212730233924189
100
AcDbArc
 50
318.2823815987271
 51
84.36248438139953
  0
ARC
  5
46D
330
1F
100
AcDbEntity
  8
TEXT
100
AcDbCircle
 10
50.30671763449499
 20
-1.953341661640678
 30
0.0
 40
0.0305931025250901
100
AcDbArc
 50
35.6067999534595
 51
177.5845513854531
  0
LINE
  5
46E
330
1F
100
AcDbEntity
  8
TEXT
100
AcDbLine
 10
50.33159079567179
 20
-1.935529761821014
 30
0.0
 11
50.32964557680948
 21
-1.963715297402053
 31
0.0
  0
LINE
  5
46F
330
1F
100
AcDbEntity
  8
TEXT
100
AcDbLine
 10
50.27615171385329
 20
-1.952052313961678
 30
0.0
 11
50.27517910442213
 21
-2.024945937264398
 31
0.0
  0
ARC
  5
470
330
1F
100
AcDbEntity
  8
TEXT
100
AcDbCircle
 10
50.39862569719014
 20
-2.079915255039507
 30
0.0
 40
0.1351321100356083
100
AcDbArc
 50
120.6947626763568
 51
155.9971516553452
  0
ARC
  5
471
330
1F
100
AcDbEntity
  8
TEXT
100
AcDbCircle
 10
50.34890750781784
 20
-2.042444737273449
 30
0.0
 40
0.0251421004004534
100
AcDbArc
 50
218.6904014524228
 51
353.665941150075
  0
ARC
  5
472
330
1F
100
AcDbEntity
  8
TEXT
100
AcDbCircle
 10
50.33501714717613
 20
-2.081678797780341
 30
0.0
 40
0.0242063564316216
100
AcDbArc
 50
103.7022990326945
 51
207.0193065629245
  0
ARC
  5
473
330
1F
100
AcDbEntity
  8
TEXT
100
AcDbCircle
 10
50.69422178914996
 20
-2.282209151699149
 30
0.0
 40
0.4253328080527317
100
AcDbArc
 50
153.5374647244103
 51
193.3327646348718
  0
ARC
  5
474
330
1F
100
AcDbEntity
  8
TEXT
100
AcDbCircle
 10
50.19830743435719
 20
-2.435660013526259
 30
0.0
 40
0.0989793222879928
100
AcDbArc
 50
346.9852122362357
 51
34.01252680042662
  0
ARC
  5
475
330
1F
100
AcDbEntity
  8
TEXT
100
AcDbCircle
 10
50.28107983691654
 20
-2.50118763698574
 30
0.0
 40
0.0453450343487554
100
AcDbArc
 50
345.4259909574677
 51
72.46181126870012
  0
ARC
  5
476
330
1F
100
AcDbEntity
  8
TEXT
100
AcDbCircle
 10
50.32826144002025
 20
-2.598469485959964
 30
0.0
 40
0.0859348789800251
100
AcDbArc
 50
18.24878221232023
 51
92.19784172829085
  0
ARC
  5
477
330
1F
100
AcDbEntity
  8
TEXT
100
AcDbCircle
 10
50.42024582676821
 20
-2.57616437393608
 30
0.0
 40
0.0113478351145245
100
AcDbArc
 50
156.0593073728625
 51
8.762281217120797
  0
ARC
  5
478
330
1F
100
AcDbEntity
  8
TEXT
100
AcDbCircle
 10
50.44472825587735
 20
-2.579157481719795
 30
0.0
 40
0.0140822397522689
100
AcDbArc
 50
1.658272028068489
 51
160.4091839300748
  0
ARC
  5
479
330
1F
100
AcDbEntity
  8
TEXT
100
AcDbCircle
 10
50.49769703258995
 20
-2.551725613785662
 30
0.0
 40
0.0473596567490983
100
AcDbArc
 50
214.7934494581958
 51
299.0409507876108
  0
ARC
  5
47A
330
1F
100
AcDbEntity
  8
TEXT
100
AcDbCircle
 10
50.55095309684428
 20
-2.564877137432198
 30
0.0
 40
0.0414041993530743
100
AcDbArc
 50
223.0305625061276
 51
311.2487591160724
  0
ARC
  5
47B
330
1F
100
AcDbEntity
  8
TEXT
100
AcDbCircle
 10
50.60173243203688
 20
-2.589779333202692
 30
0.0
 40
0.0242921821141258
100
AcDbArc
 50
194.8546182240443
 51
330.4510994340796
  0
ARC
  5
47C
330
1F
100
AcDbEntity
  8
TEXT
100
AcDbCircle
 10
50.64013457496315
 20
-2.659771885224689
 30
0.0
 40
0.0605283642044279
100
AcDbArc
 50
33.67851647490045
 51
106.5775508010124
  0
ARC
  5
47D
330
1F
100
AcDbEntity
  8
TEXT
100
AcDbCircle
 10
50.70777350693175
 20
-2.590700218703799
 30
0.0
 40
0.0394837165390077
100
AcDbArc
 50
244.0629515517945
 51
24.32612031264081
  0
ARC
  5
47E
330
1F
100
AcDbEntity
  8
TEXT
100
AcDbCircle
 10
50.79928365732769
 20
-2.370970053198083
 30
0.0
 40
0.1027805697804442
100
AcDbArc
 50
300.6537348898141
 51
16.68245916376087
  0
ARC
  5
47F
330
1F
100
AcDbEntity
  8
TEXT
100
AcDbCircle
 10
50.60018478518244
 20
-2.261131345741701
 30
0.0
 40
0.3082070260753686
100
AcDbArc
 50
344.8914411173236
 51
24.57723374821967
  0
ARC
  5
480
330
1F
100
AcDbEntity
  8
TEXT
100
AcDbCircle
 10
50.94181454396
 20
-2.10194632326548
 30
0.0
 40
0.0687317033736608
100
AcDbArc
 50
155.9906329013507
 51
206.8057304576933
  0
ARC
  5
481
330
1F
100
AcDbEntity
  8
TEXT
100
AcDbCircle
 10
50.86883163074208
 20
-2.074549389652919
 30
0.0
 40
0.0102138123940189
100
AcDbArc
 50
3.193725348484568
 51
193.0548754998607
  0
ARC
  5
482
330
1F
100
AcDbEntity
  8
TEXT
100
AcDbCircle
 10
50.84521009814022
 20
-2.092297964589759
 30
0.0
 40
0.0206240992388144
100
AcDbArc
 50
131.5213803610222
 51
48.47861963898631
  0
ARC
  5
483
330
1F
100
AcDbEntity
  8
TEXT
100
AcDbCircle
 10
50.77685856805056
 20
-2.04764030837286
 30
0.0
 40
0.0619957321343655
100
AcDbArc
 50
331.8837666959819
 51
33.3250805932443
  0
ARC
  5
484
330
1F
100
AcDbEntity
  8
TEXT
100
AcDbCircle
 10
50.81486699400767
 20
-2.017396592509435
 30
0.0
 40
0.0143113016618726
100
AcDbArc
 50
15.46471151433548
 51
237.0036058083551
  0
ARC
  5
485
330
1F
100
AcDbEntity
  8
TEXT
100
AcDbCircle
 10
50.7876026592296
 20
-2.038442304543934
 30
0.0
 40
0.0214680118608068
100
AcDbArc
 50
124.5991194751616
 51
24.91162951380466
  0
ARC
  5
486
330
1F
100
AcDbEntity
  8
TEXT
100
AcDbCircle
 10
50.72620428025988
 20
-1.998327636497137
 30
0.0
 40
0.0540846530434769
100
AcDbArc
 50
335.4827230531624
 51
36.5438359400319
  0
ARC
  5
487
330
1F
100
AcDbEntity
  8
TEXT
100
AcDbCircle
 10
50.65763068734089
 20
-2.16676271928309
 30
0.0
 40
0.2297949550948067
100
AcDbArc
 50
60.82353397560663
 51
101.6183182656855
  0
LINE
  5
488
330
1F
100
AcDbEntity
  8
TEXT
100
AcDbLine
 10
50.61135202974707
 20
-1.941676053222341
 30
0.0
 11
50.60991290952764
 21
-1.996323488716157
 31
0.0
  0
ARC
  5
489
330
1F
100
AcDbEntity
  8
TEXT
100
AcDbCircle
 10
50.58871525906145
 20
-1.997361665347368
 30
0.0
 40
0.0212230581208989
100
AcDbArc
 50
165.392244650368
 51
2.803879044206374
  0
LINE
  5
48A
330
1F
100
AcDbEntity
  8
TEXT
100
AcDbLine
 10
50.56817823539407
 20
-1.99200920284057
 30
0.0
 11
50.56529999495513
 21
-1.950304606413759
 31
0.0
  0
ARC
  5
48B
330
1F
100
AcDbEntity
  8
TEXT
100
AcDbCircle
 10
50.54666860298908
 20
-1.959638340615974
 30
0.0
 40
0.0208386026582117
100
AcDbArc
 50
26.60941129939663
 51
166.0619000058112
  0
LINE
  5
48C
330
1F
100
AcDbEntity
  8
TEXT
100
AcDbLine
 10
50.52644356126049
 20
-1.954618873729678
 30
0.0
 11
50.52644356126049
 21
-1.97331403828511
 31
0.0
  0
ARC
  5
48D
330
1F
100
AcDbEntity
  8
TEXT
100
AcDbCircle
 10
50.50994686645367
 20
-1.983681145377004
 30
0.0
 40
0.0194837842577789
100
AcDbArc
 50
179.1163546128549
 51
32.14670843865781
  0
LINE
  5
48E
330
1F
100
AcDbEntity
  8
TEXT
100
AcDbLine
 10
50.49046539929959
 20
-1.98338066820878
 30
0.0
 11
50.49046539929959
 21
-2.052409000942124
 31
0.0
  0
ARC
  5
48F
330
1F
100
AcDbEntity
  8
TEXT
100
AcDbCircle
 10
50.46455039462578
 20
-2.052741434461565
 30
0.0
 40
0.025917136787981
100
AcDbArc
 50
182.4450201076249
 51
0.7349407504797699
  0
LINE
  5
490
330
1F
100
AcDbEntity
  8
TEXT
100
AcDbLine
 10
50.43865685233487
 20
-2.053847077674348
 30
0.0
 11
50.45016984538552
 21
-1.967561675677399
 31
0.0
  0
ARC
  5
491
330
1F
100
AcDbEntity
  8
TEXT
100
AcDbCircle
 10
50.43675134685142
 20
-1.969476821352387
 30
0.0
 40
0.0135544784431421
100
AcDbArc
 50
8.122642540875256
 51
202.9043136183468
  0
LINE
  5
492
330
1F
100
AcDbEntity
  8
TEXT
100
AcDbLine
 10
50.42426555625572
 20
-1.974752133576975
 30
0.0
 11
50.41850907537774
 21
-2.019332920587499
 31
0.0
  0
ARC
  5
493
330
1F
100
AcDbEntity
  8
TEXT
100
AcDbCircle
 10
50.40195911461686
 20
-2.018458438077288
 30
0.0
 40
0.0165730480253287
100
AcDbArc
 50
183.0246359049376
 51
356.9753640950623
  0
LINE
  5
494
330
1F
100
AcDbEntity
  8
TEXT
100
AcDbLine
 10
50.38540915385588
 20
-2.019332920587499
 30
0.0
 11
50.37389612951045
 21
-2.045218543042551
 31
0.0
  0
LINE
  5
495
330
1F
100
AcDbEntity
  8
TEXT
100
AcDbLine
 10
51.15204338481664
 20
-2.313966157202504
 30
0.0
 11
51.27355888319812
 21
-2.309222883334705
 31
0.0
  0
LINE
  5
496
330
1F
100
AcDbEntity
  8
TEXT
100
AcDbLine
 10
51.3656448331239
 20
-2.313966157202504
 30
0.0
 11
51.48716033150538
 21
-2.309222883334705
 31
0.0
  0
LINE
  5
497
330
1F
100
AcDbEntity
  8
TEXT
100
AcDbLine
 10
51.20140903256305
 20
-2.351912403823568
 30
0.0
 11
51.20330771613716
 21
-2.535951686016054
 31
0.0
  0
LINE
  5
498
330
1F
100
AcDbEntity
  8
TEXT
100
AcDbLine
 10
51.27355888319812
 20
-2.309222883334705
 30
0.0
 11
51.27545756677221
 21
-2.517927230470836
 31
0.0
  0
LINE
  5
499
330
1F
100
AcDbEntity
  8
TEXT
100
AcDbLine
 10
51.48716033150538
 20
-2.309222883334705
 30
0.0
 11
51.48905901507948
 21
-2.524567821309574
 31
0.0
  0
ARC
  5
49A
330
1F
100
AcDbEntity
  8
TEXT
100
AcDbCircle
 10
51.1792022346886
 20
-2.351401698374537
 30
0.0
 40
0.0222126696255043
100
AcDbArc
 50
358.6825606331185
 51
106.404935772954
  0
LINE
  5
49B
330
1F
100
AcDbEntity
  8
TEXT
100
AcDbLine
 10
51.15204338481664
 20
-2.313966157202504
 30
0.0
 11
51.15299271095626
 21
-2.327247357439631
 31
0.0
  0
LINE
  5
49C
330
1F
100
AcDbEntity
  8
TEXT
100
AcDbLine
 10
51.17292884154174
 20
-2.330093314336416
 30
0.0
 11
51.15299271095626
 21
-2.327247357439631
 31
0.0
  0
LINE
  5
49D
330
1F
100
AcDbEntity
  8
TEXT
100
AcDbLine
 10
51.3656448331239
 20
-2.313966157202504
 30
0.0
 11
51.36469550698429
 21
-2.331990631307391
 31
0.0
  0
LINE
  5
49E
330
1F
100
AcDbEntity
  8
TEXT
100
AcDbLine
 10
51.36469550698429
 20
-2.331990631307391
 30
0.0
 11
51.39887174872772
 21
-2.333887948278352
 31
0.0
  0
LINE
  5
49F
330
1F
100
AcDbEntity
  8
TEXT
100
AcDbLine
 10
51.41975720545281
 20
-2.534054369045084
 30
0.0
 11
51.41880787931318
 21
-2.35286106230906
 31
0.0
  0
ARC
  5
4A0
330
1F
100
AcDbEntity
  8
TEXT
100
AcDbCircle
 10
51.40524065658718
 20
-2.347156344820426
 30
0.0
 40
0.0147177897158776
100
AcDbArc
 50
337.1943218370271
 51
115.6412778855146
  0
ARC
  5
4A1
330
1F
100
AcDbEntity
  8
TEXT
100
AcDbCircle
 10
51.27636667328278
 20
-2.534984193449183
 30
0.0
 40
0.0730653629368009
100
AcDbArc
 50
180.7587023263156
 51
270.031539090741
  0
ARC
  5
4A2
330
1F
100
AcDbEntity
  8
TEXT
100
AcDbCircle
 10
51.30524099805056
 20
-2.442845636526769
 30
0.0
 40
0.1677013330253736
100
AcDbArc
 50
260.0995263030861
 51
313.0673878832467
  0
LINE
  5
4A3
330
1F
100
AcDbEntity
  8
TEXT
100
AcDbLine
 10
51.41975720545281
 20
-2.565360024827461
 30
0.0
 11
51.4207065628872
 21
-2.601408954477554
 31
0.0
  0
ARC
  5
4A4
330
1F
100
AcDbEntity
  8
TEXT
100
AcDbCircle
 10
51.43193237316544
 20
-2.596941525196477
 30
0.0
 40
0.0120820834620641
100
AcDbArc
 50
201.7006027724378
 51
343.0678677067628
  0
ARC
  5
4A5
330
1F
100
AcDbEntity
  8
TEXT
100
AcDbCircle
 10
51.53663990200318
 20
-2.818158644329051
 30
0.0
 40
0.2367896621663238
100
AcDbArc
 50
88.18956599987521
 51
113.1652090520223
  0
LINE
  5
4A6
330
1F
100
AcDbEntity
  8
TEXT
100
AcDbLine
 10
51.60466453185069
 20
-2.20418164525224
 30
0.0
 11
51.61171508179731
 21
-2.569539419090709
 31
0.0
  0
LINE
  5
4A7
330
1F
100
AcDbEntity
  8
TEXT
100
AcDbLine
 10
51.68120201391701
 20
-2.154852301372065
 30
0.0
 11
51.6832277713906
 21
-2.337039007433693
 31
0.0
  0
ARC
  5
4A8
330
1F
100
AcDbEntity
  8
TEXT
100
AcDbCircle
 10
51.53219170902121
 20
-1.723947731263909
 30
0.0
 40
0.4559416843250938
100
AcDbArc
 50
273.5403564160214
 51
289.075801678542
  0
LINE
  5
4A9
330
1F
100
AcDbEntity
  8
TEXT
100
AcDbLine
 10
51.56034682062323
 20
-2.179019274206204
 30
0.0
 11
51.56236126346509
 21
-2.20116215553001
 31
0.0
  0
LINE
  5
4AA
330
1F
100
AcDbEntity
  8
TEXT
100
AcDbLine
 10
51.56236126346509
 20
-2.20116215553001
 30
0.0
 11
51.60466453185069
 21
-2.20418164525224
 31
0.0
  0
LINE
  5
4AB
330
1F
100
AcDbEntity
  8
TEXT
100
AcDbLine
 10
51.68423496151683
 20
-2.374279337368633
 30
0.0
 11
51.68524218293779
 21
-2.547396519207203
 31
0.0
  0
ARC
  5
4AC
330
1F
100
AcDbEntity
  8
TEXT
100
AcDbCircle
 10
51.80181007030427
 20
-2.493762049090042
 30
0.0
 40
0.1965295738601858
100
AcDbArc
 50
71.07988584761956
 51
127.1124618564865
  0
ARC
  5
4AD
330
1F
100
AcDbEntity
  8
TEXT
100
AcDbCircle
 10
51.801954610819
 20
-2.429325138068435
 30
0.0
 40
0.1371075361286845
100
AcDbArc
 50
359.8698564192901
 51
62.37231490188332
  0
ARC
  5
4AE
330
1F
100
AcDbEntity
  8
TEXT
100
AcDbCircle
 10
51.74643109501102
 20
-2.41503051774888
 30
0.0
 40
0.0743573649614326
100
AcDbArc
 50
78.87075864991586
 51
146.7670066549791
  0
ARC
  5
4AF
330
1F
100
AcDbEntity
  8
TEXT
100
AcDbCircle
 10
51.76890773586785
 20
-2.428271763692293
 30
0.0
 40
0.0865822445917263
100
AcDbArc
 50
21.58325850317303
 51
95.38396011116695
  0
ARC
  5
4B0
330
1F
100
AcDbEntity
  8
TEXT
100
AcDbCircle
 10
51.76212057875364
 20
-2.457864082216009
 30
0.0
 40
0.1067527339653107
100
AcDbArc
 50
343.595252916762
 51
35.13836089167874
  0
ARC
  5
4B1
330
1F
100
AcDbEntity
  8
TEXT
100
AcDbCircle
 10
51.72763949165471
 20
-2.422787521207288
 30
0.0
 40
0.1870149414703839
100
AcDbArc
 50
231.6935697703407
 51
269.6626044169122
  0
ARC
  5
4B2
330
1F
100
AcDbEntity
  8
TEXT
100
AcDbCircle
 10
51.74702727458427
 20
-2.39033075548922
 30
0.0
 40
0.2204227936246723
100
AcDbArc
 50
264.6664639047648
 51
308.6423664458131
  0
ARC
  5
4B3
330
1F
100
AcDbEntity
  8
TEXT
100
AcDbCircle
 10
51.77277004071846
 20
-2.439121034319355
 30
0.0
 40
0.1665620066274168
100
AcDbArc
 50
312.2086974257852
 51
3.264333629957773
  0
ARC
  5
4B4
330
1F
100
AcDbEntity
  8
TEXT
100
AcDbCircle
 10
50.12826873982394
 20
-1.155294570582519
 30
0.0
 40
0.0245299035452835
100
AcDbArc
 50
32.93635467158845
 51
189.5430854165191
  0
ARC
  5
4B5
330
1F
100
AcDbEntity
  8
TEXT
100
AcDbCircle
 10
50.16699674860269
 20
-1.141345740376521
 30
0.0
 40
0.0181509847219559
100
AcDbArc
 50
181.931421762249
 51
21.08009584438978
  0
ARC
  5
4B6
330
1F
100
AcDbEntity
  8
TEXT
100
AcDbCircle
 10
50.19744759101691
 20
-1.137563310130602
 30
0.0
 40
0.0137907010023787
100
AcDbArc
 50
3.320051391017456
 51
168.5145862198266
  0
ARC
  5
4B7
330
1F
100
AcDbEntity
  8
TEXT
100
AcDbCircle
 10
50.2267681997543
 20
-1.145170333322524
 30
0.0
 40
0.0176791714861173
100
AcDbArc
 50
151.6108765070432
 51
6.217261201770576
  0
ARC
  5
4B8
330
1F
100
AcDbEntity
  8
TEXT
100
AcDbCircle
 10
50.25836038023257
 20
-1.142507884342947
 30
0.0
 40
0.0140369251342724
100
AcDbArc
 50
7.567610287756209
 51
183.0538693842452
  0
ARC
  5
4B9
330
1F
100
AcDbEntity
  8
TEXT
100
AcDbCircle
 10
50.28346856683919
 20
-1.134592986063379
 30
0.0
 40
0.0127316455850609
100
AcDbArc
 50
208.4553291170978
 51
16.75507449313793
  0
ARC
  5
4BA
330
1F
100
AcDbEntity
  8
TEXT
100
AcDbCircle
 10
50.30280211165212
 20
-1.143541150606323
 30
0.0
 40
0.0144996374986018
100
AcDbArc
 50
340.2175703033623
 51
119.511112702139
  0
ARC
  5
4BB
330
1F
100
AcDbEntity
  8
TEXT
100
AcDbCircle
 10
50.3373211933048
 20
-1.148525519989938
 30
0.0
 40
0.020875287955036
100
AcDbArc
 50
179.7887253899368
 51
338.3185482084495
  0
ARC
  5
4BC
330
1F
100
AcDbEntity
  8
TEXT
100
AcDbCircle
 10
50.38519627960415
 20
-1.170072098881629
 30
0.0
 40
0.0316592602087463
100
AcDbArc
 50
51.7690922577
 51
154.0890012254439
  0
ARC
  5
4BD
330
1F
100
AcDbEntity
  8
TEXT
100
AcDbCircle
 10
50.42540998361189
 20
-1.140907345368751
 30
0.0
 40
0.0210645893546083
100
AcDbArc
 50
191.7667831442125
 51
294.1224948725133
  0
ARC
  5
4BE
330
1F
100
AcDbEntity
  8
TEXT
100
AcDbCircle
 10
50.45007624229477
 20
-1.154938421467839
 30
0.0
 40
0.0168765475028194
100
AcDbArc
 50
13.33841226381586
 51
197.924633018294
  0
ARC
  5
4BF
330
1F
100
AcDbEntity
  8
TEXT
100
AcDbCircle
 10
50.48438531613385
 20
-1.15008415433968
 30
0.0
 40
0.0179135665261037
100
AcDbArc
 50
183.0745908828774
 51
5.238726745824498
  0
ARC
  5
4C0
330
1F
100
AcDbEntity
  8
TEXT
100
AcDbCircle
 10
50.51825774448293
 20
-1.146086666132468
 30
0.0
 40
0.0162067155560582
100
AcDbArc
 50
305.0065695458964
 51
188.3798152009865
  0
ARC
  5
4C1
330
1F
100
AcDbEntity
  8
TEXT
100
AcDbCircle
 10
50.15725822723434
 20
-2.714459696822927
 30
0.0
 40
0.0254399213638605
100
AcDbArc
 50
225.9317407159997
 51
327.321681293723
  0
ARC
  5
4C2
330
1F
100
AcDbEntity
  8
TEXT
100
AcDbCircle
 10
50.45093471148682
 20
-2.789898094752736
 30
0.0
 40
0.0220548580163534
100
AcDbArc
 50
167.7181143692779
 51
23.98551077365442
  0
ARC
  5
4C3
330
1F
100
AcDbEntity
  8
TEXT
100
AcDbCircle
 10
50.55842028673679
 20
-2.762803101737772
 30
0.0
 40
0.0267377226208751
100
AcDbArc
 50
170.7272794785979
 51
21.15794103948628
  0
LINE
  5
4C4
330
1F
100
AcDbEntity
  8
TEXT
100
AcDbLine
 10
50.58335559291951
 20
-2.753152385882088
 30
0.0
 11
50.58121709770188
 21
-2.713618898537568
 31
0.0
  0
LINE
  5
4C5
330
1F
100
AcDbEntity
  8
TEXT
100
AcDbLine
 10
50.63788697061131
 20
-2.720029720779663
 30
0.0
 11
50.64857941540481
 21
-2.775590310128464
 31
0.0
  0
ARC
  5
4C6
330
1F
100
AcDbEntity
  8
TEXT
100
AcDbCircle
 10
50.661718378849
 20
-2.778221167494404
 30
0.0
 40
0.0133997675676506
100
AcDbArc
 50
168.6772178130471
 51
20.84321825743711
  0
LINE
  5
4C7
330
1F
100
AcDbEntity
  8
TEXT
100
AcDbLine
 10
50.67424123283752
 20
-2.773453369381094
 30
0.0
 11
50.67424123283752
 21
-2.736056822783957
 31
0.0
  0
ARC
  5
4C8
330
1F
100
AcDbEntity
  8
TEXT
100
AcDbCircle
 10
50.69134135390664
 20
-2.737742391904168
 30
0.0
 40
0.0171829940300718
100
AcDbArc
 50
354.9255052590734
 51
174.3705062402905
  0
LINE
  5
4C9
330
1F
100
AcDbEntity
  8
TEXT
100
AcDbLine
 10
50.70845699984602
 20
-2.739262243184825
 30
0.0
 11
50.71273395898657
 21
-2.843972562521058
 31
0.0
  0
ARC
  5
4CA
330
1F
100
AcDbEntity
  8
TEXT
100
AcDbCircle
 10
50.73407468638151
 20
-2.841781016621418
 30
0.0
 40
0.0214529606157013
100
AcDbArc
 50
185.8633287467241
 51
2.70882780951028
  0
LINE
  5
4CB
330
1F
100
AcDbEntity
  8
TEXT
100
AcDbLine
 10
50.75550367557088
 20
-2.840767142120192
 30
0.0
 11
50.74694975728977
 21
-2.754220846975937
 31
0.0
  0
LINE
  5
4CC
330
1F
100
AcDbEntity
  8
TEXT
100
AcDbLine
 10
50.74694975728977
 20
-2.754220846975937
 30
0.0
 11
50.75657292317965
 21
-2.776658771222314
 31
0.0
  0
ARC
  5
4CD
330
1F
100
AcDbEntity
  8
TEXT
100
AcDbCircle
 10
50.77064393100078
 20
-2.768952942509486
 30
0.0
 40
0.0160428506586113
100
AcDbArc
 50
208.7068196476629
 51
351.5282258973483
  0
LINE
  5
4CE
330
1F
100
AcDbEntity
  8
TEXT
100
AcDbLine
 10
50.78651173104759
 20
-2.771316410074076
 30
0.0
 11
50.78544248343883
 21
-2.755289326629443
 31
0.0
  0
ARC
  5
4CF
330
1F
100
AcDbEntity
  8
TEXT
100
AcDbCircle
 10
50.80703140027886
 20
-2.761413015868424
 30
0.0
 40
0.0224406082855181
100
AcDbArc
 50
7.472141028409409
 51
164.1640293291658
  0
LINE
  5
4D0
330
1F
100
AcDbEntity
  8
TEXT
100
AcDbLine
 10
50.8292814476319
 20
-2.758494747030283
 30
0.0
 11
50.83997386113063
 21
-2.847177964362231
 31
0.0
  0
ARC
  5
4D1
330
1F
100
AcDbEntity
  8
TEXT
100
AcDbCircle
 10
50.86083723322381
 20
-2.85251860976885
 30
0.0
 40
0.0215360810840735
100
AcDbArc
 50
165.6416373020936
 51
23.37981978602113
  0
LINE
  5
4D2
330
1F
100
AcDbEntity
  8
TEXT
100
AcDbLine
 10
50.88060508249732
 20
-2.843972562521058
 30
0.0
 11
50.87735477881535
 21
-2.764555719672407
 31
0.0
  0
ARC
  5
4D3
330
1F
100
AcDbEntity
  8
TEXT
100
AcDbCircle
 10
50.88346309968859
 20
-2.757966382470752
 30
0.0
 40
0.0089850402696248
100
AcDbArc
 50
60.02231951668171
 51
227.1694577924201
  0
LINE
  5
4D4
330
1F
100
AcDbEntity
  8
TEXT
100
AcDbLine
 10
50.88795258829502
 20
-2.750183359876679
 30
0.0
 11
50.92463291048645
 21
-2.755786372896634
 31
0.0
  0
ARC
  5
4D5
330
1F
100
AcDbEntity
  8
TEXT
100
AcDbCircle
 10
50.92184713506009
 20
-2.77181192084339
 30
0.0
 40
0.0162658762973285
100
AcDbArc
 50
327.1504341221702
 51
80.13862259361689
  0
LINE
  5
4D6
330
1F
100
AcDbEntity
  8
TEXT
100
AcDbLine
 10
50.93551205973845
 20
-2.780635104240303
 30
0.0
 11
50.94095165001178
 21
-2.935163264221671
 31
0.0
  0
LINE
  5
4D7
330
1F
100
AcDbEntity
  8
TEXT
100
AcDbLine
 10
50.98679954917137
 20
-2.932057156564033
 30
0.0
 11
50.98757662902549
 21
-2.775199443678856
 31
0.0
  0
ARC
  5
4D8
330
1F
100
AcDbEntity
  8
TEXT
100
AcDbCircle
 10
50.99980744803371
 20
-2.774111872625823
 30
0.0
 40
0.0122790775063352
100
AcDbArc
 50
32.94435831946194
 51
185.0814072168599
  0
ARC
  5
4D9
330
1F
100
AcDbEntity
  8
TEXT
100
AcDbCircle
 10
51.034938063089
 20
-2.744293480653963
 30
0.0
 40
0.0339385462160546
100
AcDbArc
 50
222.9877626572325
 51
344.3358851615571
  0
ARC
  5
4DA
330
1F
100
AcDbEntity
  8
TEXT
100
AcDbCircle
 10
50.98776711296022
 20
-2.714996172509151
 30
0.0
 40
0.0146077050800437
100
AcDbArc
 50
193.9319034609807
 51
333.0378283509296
  0
ARC
  5
4DB
330
1F
100
AcDbEntity
  8
TEXT
100
AcDbCircle
 10
50.96102675902399
 20
-2.732901573853418
 30
0.0
 40
0.019100708380874
100
AcDbArc
 50
48.87596376793602
 51
143.7953529790059
  0
ARC
  5
4DC
330
1F
100
AcDbEntity
  8
TEXT
100
AcDbCircle
 10
50.9245143647206
 20
-2.702390646353514
 30
0.0
 40
0.0285472227785873
100
AcDbArc
 50
218.2556843178659
 51
317.6564247238853
  0
ARC
  5
4DD
330
1F
100
AcDbEntity
  8
TEXT
100
AcDbCircle
 10
50.96405685596739
 20
-2.93628565662712
 30
0.0
 40
0.0231324513824081
100
AcDbArc
 50
177.2189023070876
 51
10.53261226457933
  0
LWPOLYLINE
  5
4DE
330
1F
100
AcDbEntity
  8
BORDER
100
AcDbPolyline
 90
        4
 70
     1
 43
0.0
 10
2.135124593481699
 20
68.95510689085276
 10
59.1330585360188
 20
68.95510689085276
 10
59.1330585360188
 20
-6.044893109147222
 10
2.135124593481699
 20
-6.044893109147222
  0
TEXT
  5
4DF
330
1F
100
AcDbEntity
  8
TEXT
100
AcDbText
 10
39.2571819350196
 20
-5.763643109147217
 30
0.0
 40
0.1875
  1
ICE QUBE, INC.
 72
     1
 11
40.3665569350196
 21
-5.669893109147217
 31
0.0
100
AcDbText
 73
     2
  0
TEXT
  5
4E0
330
1F
100
AcDbEntity
  8
TEXT
100
AcDbText
 10
37.1790569350196
 20
-5.482393109147238
 30
0.0
 40
0.1875
  1
OR ALTERED WITHOUT AUTHORIZATION OF
 72
     1
 11
40.3665569350196
 21
-5.388643109147238
 31
0.0
100
AcDbText
 73
     2
  0
TEXT
  5
4E1
330
1F
100
AcDbEntity
  8
TEXT
100
AcDbText
 10
37.0384319350196
 20
-5.201143109147237
 30
0.0
 40
0.1875
  1
QUBE, INC. AND IS NOT TO BE DUPLICATED
 72
     1
 11
40.3665569350196
 21
-5.107393109147237
 31
0.0
100
AcDbText
 73
     2
  0
TEXT
  5
4E2
330
1F
100
AcDbEntity
  8
TEXT
100
AcDbText
 10
37.21030693501961
 20
-4.919893109147237
 30
0.0
 40
0.1875
  1
THIS DRAWING IS THE PROPERTY OF ICE
 72
     1
 11
40.3665569350196
 21
-4.826143109147237
 31
0.0
100
AcDbText
 73
     2
  0
TEXT
  5
4E3
330
1F
100
AcDbEntity
  8
TEXT
100
AcDbText
 10
36.9290569350195
 20
-4.544893109147237
 30
0.0
 40
0.375
  1
PROPRIETARY DRAWING
 72
     1
 11
40.36655693501949
 21
-4.357393109147237
 31
0.0
100
AcDbText
 73
     2
  0
LINE
  5
4E4
330
1F
100
AcDbEntity
  8
BORDER
100
AcDbLine
 10
44.17475275894324
 20
-6.044893109147217
 30
0.0
 11
36.55836111109586
 21
-6.044893109147217
 31
0.0
  0
LINE
  5
4E5
330
1F
100
AcDbEntity
  8
BORDER
100
AcDbLine
 10
44.17475275894324
 20
-3.727528471122837
 30
0.0
 11
36.62960239545681
 21
-3.727528471122837
 31
0.0
  0
LINE
  5
4E6
330
1F
100
AcDbEntity
  8
BORDER
100
AcDbLine
 10
36.62960239545681
 20
-3.727528471122837
 30
0.0
 11
36.62960239545681
 21
-6.044893109147237
 31
0.0
  0
LINE
  5
4E7
330
1F
100
AcDbEntity
  8
BORDER
100
AcDbLine
 10
44.17475275894324
 20
-6.044893109147217
 30
0.0
 11
44.17475275894324
 21
-3.727528471122816
 31
0.0
  0
TEXT
  5
6F3
330
1F
100
AcDbEntity
  8
0
100
AcDbText
 10
24.9204405919911
 20
53.95167016929147
 30
0.0
 40
0.75
  1
CUTOUT TEMPLATE
 72
     1
 11
30.4204405919911
 21
54.32667016929148
 31
0.0
100
AcDbText
 73
     2
  0
TEXT
  5
702
330
1F
100
AcDbEntity
  8
0
100
AcDbText
 10
27.50376081824807
 20
58.62401933916285
 30
0.0
 40
0.75
  1
IQ1200VXS
 72
     1
 11
30.50376081824807
 21
58.62401933916285
 31
0.0
100
AcDbText
  0
TEXT
  5
703
330
1F
100
AcDbEntity
  8
0
100
AcDbText
 10
27.50376081824807
 20
55.29068600582952
 30
0.0
 40
0.75
  1
IQ1800VXS
 72
     1
 11
30.50376081824807
 21
55.29068600582952
 31
0.0
100
AcDbText
  0
TEXT
  5
704
330
1F
100
AcDbEntity
  8
0
100
AcDbText
 10
27.50376081824807
 20
56.95735267249617
 30
0.0
 40
0.75
  1
IQ1500VXS
 72
     1
 11
30.50376081824807
 21
56.95735267249617
 31
0.0
100
AcDbText
  0
MTEXT
  5
9FD
102
{ACAD_REACTORS
330
A02
102
}
330
1F
100
AcDbEntity
  8
DIMENSION
100
AcDbMText
 10
24.00809156475022
 20
40.85010689085268
 30
0.0
 40
0.75
 41
0.0
 71
     9
 72
     1
  1
\A1;%%C 6.000 (1)
 73
     1
 44
1.0
1001
ACAD
1000
MTEXTBEGIN
1070
    73
1070
     1
1070
    44
1040
1.0
1070
    74
1070
     0
1000
MTEXTEND
  0
MTEXT
  5
9FE
102
{ACAD_REACTORS
330
A01
102
}
330
1F
100
AcDbEntity
  8
DIMENSION
100
AcDbMText
 10
24.00809156475022
 20
22.95560689085258
 30
0.0
 40
0.75
 41
0.0
 71
     9
 72
     1
  1
%%C0.375 (8)
 73
     1
 44
1.0
1001
ACAD
1000
MTEXTBEGIN
1070
    73
1070
     1
1070
    44
1040
1.0
1070
    74
1070
     0
1000
MTEXTEND
  0
DIMENSION
  5
9FF
330
1F
100
AcDbEntity
  8
0
100
AcDbDimension
  2
*D100
 10
30.45904330792401
 20
28.95016911360735
 30
0.0
 11
20.06065199938381
 21
27.38019376861016
 31
0.0
 70
   163
  1
<> (1)\POPTIONAL:\PETHERNET/ALARM\PCONNECTION PORT
 71
     3
 42
1.249999999999992
  3
Standard
100
AcDbDiametricDimension
 15
29.30913982157648
 25
28.46004466809808
 35
0.0
 40
0.0
  0
DIMENSION
  5
A00
330
1F
100
AcDbEntity
  8
0
100
AcDbDimension
  2
*D101
 10
27.38308464045184
 20
16.45512905494742
 30
0.0
 11
22.42879530679788
 21
30.6695033150356
 31
0.0
 70
   166
 71
     5
 42
12.24997783590528
  3
Standard
100
AcDbOrdinateDimension
 13
29.88409156475026
 23
28.7051068908527
 33
0.0
 14
24.20629530679788
 24
30.6695033150356
 34
0.0
  0
LEADER
  5
A01
330
1F
100
AcDbEntity
  8
DIMENSION
100
AcDbLeader
  3
Standard
 73
     0
 40
0.7500000000000002
 41
6.125
 76
     3
 10
27.82203005481401
 20
22.03855547588339
 30
0.0
 10
25.88309156475022
 20
23.33060689085257
 30
0.0
 10
24.38309156475022
 20
23.33060689085257
 30
0.0
213
0.0
223
0.375
233
0.0
1001
ACAD
1000
DSTYLE
1002
{
1070
   147
1040
0.375
1070
    77
1070
     0
1002
}
  0
LEADER
  5
A02
330
1F
100
AcDbEntity
  8
DIMENSION
100
AcDbLeader
  3
Standard
 73
     0
 40
0.75
 41
6.374999999999999
 76
     3
 10
27.84139118660885
 20
41.84338713349379
 30
0.0
 10
25.88309156475022
 20
41.22510689085268
 30
0.0
 10
24.38309156475022
 20
41.22510689085268
 30
0.0
213
0.0
223
0.375
233
0.0
1001
ACAD
1000
DSTYLE
1002
{
1070
   147
1040
0.375
1070
    77
1070
     0
1002
}
  0
DIMENSION
  5
A03
330
1F
100
AcDbEntity
  8
DIMENSION
100
AcDbDimension
  2
*D102
 10
27.38308464045184
 20
16.45512905494742
 30
0.0
 11
22.54309156475022
 21
45.58010689085269
 31
0.0
 70
    38
 71
     5
 42
29.12497783590527
  3
Standard
100
AcDbOrdinateDimension
 13
28.13409156475025
 23
45.58010689085269
 33
0.0
 14
24.38309156475022
 24
45.58010689085269
 34
0.0
  0
DIMENSION
  5
A04
330
1F
100
AcDbEntity
  8
DIMENSION
100
AcDbDimension
  2
*D103
 10
27.38308464045184
 20
16.45512905494742
 30
0.0
 11
22.54309156475022
 21
39.58060689085258
 31
0.0
 70
    38
 71
     5
 42
23.12547783590515
  3
Standard
100
AcDbOrdinateDimension
 13
28.13409156475025
 23
39.58060689085258
 33
0.0
 14
24.38309156475022
 24
39.58060689085258
 34
0.0
  0
DIMENSION
  5
A05
330
1F
100
AcDbEntity
  8
DIMENSION
100
AcDbDimension
  2
*D104
 10
27.38308464045184
 20
16.45512905494742
 30
0.0
 11
22.54309156475022
 21
31.83060689085257
 31
0.0
 70
    38
 71
     5
 42
15.37547783590515
  3
Standard
100
AcDbOrdinateDimension
 13
28.13409156475025
 23
31.83060689085257
 33
0.0
 14
24.38309156475022
 24
31.83060689085257
 34
0.0
  0
DIMENSION
  5
A06
330
1F
100
AcDbEntity
  8
DIMENSION
100
AcDbDimension
  2
*D105
 10
27.38308464045184
 20
16.45512905494742
 30
0.0
 11
22.79309156475022
 21
21.83060689085257
 31
0.0
 70
    38
 71
     5
 42
5.375477835905151
  3
Standard
100
AcDbOrdinateDimension
 13
28.13409156475025
 23
21.83060689085257
 33
0.0
 14
24.38309156475022
 24
21.83060689085257
 34
0.0
  0
DIMENSION
  5
A07
330
1F
100
AcDbEntity
  8
DIMENSION
100
AcDbDimension
  2
*D106
 10
27.38308464045184
 20
16.45512905494742
 30
0.0
 11
23.04309156475022
 21
16.4551068908527
 31
0.0
 70
    38
 71
     5
 42
0.0000221640947231
  3
Standard
100
AcDbOrdinateDimension
 13
27.38309156475028
 23
16.4551068908527
 33
0.0
 14
24.38309156475022
 24
16.4551068908527
 34
0.0
  0
DIMENSION
  5
A08
330
1F
100
AcDbEntity
  8
DIMENSION
100
AcDbDimension
  2
*D107
 10
27.38308464045184
 20
16.45512905494742
 30
0.0
 11
33.8830915647502
 21
50.92010689085268
 31
0.0
 70
   102
 71
     5
 42
6.500006924298379
  3
Standard
100
AcDbOrdinateDimension
 13
33.88309156475022
 23
46.4551068908528
 33
0.0
 14
33.88309156475022
 24
49.45510689085269
 34
0.0
  0
DIMENSION
  5
A09
330
1F
100
AcDbEntity
  8
DIMENSION
100
AcDbDimension
  2
*D108
 10
27.38308464045184
 20
16.45512905494742
 30
0.0
 11
32.8830915647502
 21
50.98260689085268
 31
0.0
 70
   102
  1
5.750
 71
     5
 42
5.751006924298411
  3
Standard
100
AcDbOrdinateDimension
 13
33.13409156475025
 23
45.58010689085269
 33
0.0
 14
32.88309156475022
 24
49.45510689085269
 34
0.0
  0
DIMENSION
  5
A0A
330
1F
100
AcDbEntity
  8
DIMENSION
100
AcDbDimension
  2
*D109
 10
27.38308464045184
 20
16.45512905494742
 30
0.0
 11
30.63409156475024
 21
50.9826068908527
 31
0.0
 70
   102
  1
3.250
 71
     5
 42
3.251006924298407
  3
Standard
100
AcDbOrdinateDimension
 13
30.63409156475025
 23
42.72510689085268
 33
0.0
 14
30.63409156475025
 24
49.45510689085269
 34
0.0
  0
DIMENSION
  5
A0B
330
1F
100
AcDbEntity
  8
DIMENSION
100
AcDbDimension
  2
*D86
 10
27.38308464045184
 20
16.45512905494742
 30
0.0
 11
28.13409156475024
 21
50.9201068908527
 31
0.0
 70
   102
  1
0.750
 71
     5
 42
0.7510069242984088
  3
Standard
100
AcDbOrdinateDimension
 13
28.13409156475025
 23
45.58010689085269
 33
0.0
 14
28.13409156475025
 24
49.45510689085271
 34
0.0
  0
DIMENSION
  5
A0C
330
1F
100
AcDbEntity
  8
DIMENSION
100
AcDbDimension
  2
*D87
 10
27.38308464045184
 20
16.45512905494742
 30
0.0
 11
38.59809156475016
 21
46.4551068908528
 31
0.0
 70
    38
 71
     5
 42
29.99997783590538
  3
Standard
100
AcDbOrdinateDimension
 13
33.88309156475022
 23
46.4551068908528
 33
0.0
 14
36.88309156475016
 24
46.4551068908528
 34
0.0
  0
DIMENSION
  5
A0D
330
1F
100
AcDbEntity
  8
DIMENSION
100
AcDbDimension
  2
*D88
 10
27.38308464045184
 20
16.45512905494742
 30
0.0
 11
38.78559156475017
 21
42.72510689085268
 31
0.0
 70
    38
 71
     5
 42
26.26997783590526
  3
Standard
100
AcDbOrdinateDimension
 13
30.63409156475025
 23
42.72510689085268
 33
0.0
 14
36.88309156475016
 24
42.72510689085268
 34
0.0
  0
DIMENSION
  5
A0E
330
1F
100
AcDbEntity
  8
DIMENSION
100
AcDbDimension
  2
*D89
 10
27.38308464045184
 20
16.45512905494742
 30
0.0
 11
38.78559156475017
 21
38.52010689085243
 31
0.0
 70
    38
 71
     5
 42
22.06497783590499
  3
Standard
100
AcDbOrdinateDimension
 13
33.41609156475023
 23
38.52010689085243
 33
0.0
 14
36.88309156475016
 24
38.52010689085243
 34
0.0
  0
LINE
  5
A0F
330
1F
100
AcDbEntity
  8
TEMPLATE
100
AcDbLine
 10
33.41609156475023
 20
38.52010689085243
 30
0.0
 11
33.41609156475029
 21
32.99510689085267
 31
0.0
  0
LINE
  5
A10
330
1F
100
AcDbEntity
  8
TEMPLATE
100
AcDbLine
 10
28.96609156475025
 20
38.52010689085243
 30
0.0
 11
28.96609156475025
 21
32.99510689085267
 31
0.0
  0
LINE
  5
A11
330
1F
100
AcDbEntity
  8
TEMPLATE
  6
DASHDOT
100
AcDbLine
 10
27.38309156475022
 20
46.45510689085269
 30
0.0
 11
27.38309156475028
 21
16.4551068908527
 31
0.0
  0
LINE
  5
A12
330
1F
100
AcDbEntity
  8
TEMPLATE
  6
DASHDOT
100
AcDbLine
 10
33.88309156475016
 20
16.4551068908527
 30
0.0
 11
33.88309156475022
 21
46.4551068908528
 31
0.0
  0
DIMENSION
  5
A13
330
1F
100
AcDbEntity
  8
0
100
AcDbDimension
  2
*D90
 10
32.04957323478069
 20
26.98304863661106
 30
0.0
 11
39.31555504286953
 21
21.82862813733861
 31
0.0
 70
   163
  1
<> (1)\POPTIONAL:\PEXTERNAL \PHEAT\POUTPUT
 71
     5
 42
1.250000000000009
  3
Standard
100
AcDbDiametricDimension
 15
32.71860989471981
 25
25.92716514509434
 35
0.0
 40
0.0
  0
DIMENSION
  5
A14
330
1F
100
AcDbEntity
  8
0
100
AcDbDimension
  2
*D91
 10
32.00251355449225
 20
27.46010868672717
 30
0.0
 11
40.1903875184263
 21
30.78477094567058
 31
0.0
 70
   163
  1
<> (1)\PPOWER SUPPLY
 71
     5
 42
1.249999999999978
  3
Standard
100
AcDbDiametricDimension
 15
32.76566957500826
 25
28.45010509497829
 35
0.0
 40
0.0
  0
DIMENSION
  5
A15
330
1F
100
AcDbEntity
  8
0
100
AcDbDimension
  2
*D92
 10
27.38308464045184
 20
16.45512905494742
 30
0.0
 11
38.41416696786282
 21
26.4551068908527
 31
0.0
 70
    38
 71
     5
 42
9.999977835905275
  3
Standard
100
AcDbOrdinateDimension
 13
32.38409156475025
 23
26.4551068908527
 33
0.0
 14
36.82416696786282
 24
26.4551068908527
 34
0.0
  0
DIMENSION
  5
A16
330
1F
100
AcDbEntity
  8
DIMENSION
100
AcDbDimension
  2
*D93
 10
27.38308464045184
 20
16.45512905494742
 30
0.0
 11
38.66059156475016
 21
32.99510689085267
 31
0.0
 70
    38
 71
     5
 42
16.53997783590524
  3
Standard
100
AcDbOrdinateDimension
 13
33.41609156475029
 23
32.99510689085267
 33
0.0
 14
36.88309156475016
 24
32.99510689085267
 34
0.0
  0
DIMENSION
  5
A17
330
1F
100
AcDbEntity
  8
DIMENSION
100
AcDbDimension
  2
*D94
 10
27.38308464045184
 20
16.45512905494742
 30
0.0
 11
38.47309156475017
 21
27.9551068908527
 31
0.0
 70
    38
 71
     5
 42
11.49997783590527
  3
Standard
100
AcDbOrdinateDimension
 13
32.38409156475025
 23
27.9551068908527
 33
0.0
 14
36.88309156475016
 24
27.9551068908527
 34
0.0
  0
CIRCLE
  5
A18
330
1F
100
AcDbEntity
  8
0
100
AcDbCircle
 10
32.38409156475025
 20
26.4551068908527
 30
0.0
 40
0.625
  0
CIRCLE
  5
A19
330
1F
100
AcDbEntity
  8
0
100
AcDbCircle
 10
32.38409156475025
 20
27.9551068908527
 30
0.0
 40
0.625
  0
DIMENSION
  5
A1A
330
1F
100
AcDbEntity
  8
DIMENSION
100
AcDbDimension
  2
*D95
 10
27.38308464045184
 20
16.45512905494742
 30
0.0
 11
32.38409156475025
 21
12.1151068908527
 31
0.0
 70
   102
 71
     5
 42
5.001006924298412
  3
Standard
100
AcDbOrdinateDimension
 13
32.38409156475025
 23
26.4551068908527
 33
0.0
 14
32.38409156475025
 24
13.4551068908527
 34
0.0
  0
DIMENSION
  5
A1B
330
1F
100
AcDbEntity
  8
DIMENSION
100
AcDbDimension
  2
*D96
 10
27.38308464045184
 20
16.45512905494742
 30
0.0
 11
33.41609156475029
 21
11.9276068908527
 31
0.0
 70
   102
 71
     5
 42
6.03300692429845
  3
Standard
100
AcDbOrdinateDimension
 13
33.41609156475029
 23
32.99510689085267
 33
0.0
 14
33.41609156475029
 24
13.4551068908527
 34
0.0
  0
LINE
  5
A1C
330
1F
100
AcDbEntity
  8
TEMPLATE
100
AcDbLine
 10
33.41609156475029
 20
32.99510689085267
 30
0.0
 11
28.96609156475025
 21
32.99510689085267
 31
0.0
  0
LINE
  5
A1D
330
1F
100
AcDbEntity
  8
TEMPLATE
  6
DASHDOT
100
AcDbLine
 10
27.38309156475028
 20
16.4551068908527
 30
0.0
 11
33.88309156475016
 21
16.4551068908527
 31
0.0
  0
DIMENSION
  5
A1E
330
1F
100
AcDbEntity
  8
0
100
AcDbDimension
  2
*D97
 10
27.38308464045184
 20
16.45512905494742
 30
0.0
 11
30.13548662945107
 21
11.94029080128754
 31
0.0
 70
   102
 71
     5
 42
2.501006924298412
  3
Standard
100
AcDbOrdinateDimension
 13
29.88409156475026
 23
28.7051068908527
 33
0.0
 14
30.13548662945107
 24
13.34279080128754
 34
0.0
  0
DIMENSION
  5
A1F
330
1F
100
AcDbEntity
  8
DIMENSION
100
AcDbDimension
  2
*D98
 10
27.38308464045184
 20
16.45512905494742
 30
0.0
 11
28.96609156475024
 21
11.9901068908527
 31
0.0
 70
   102
 71
     5
 42
1.583006924298405
  3
Standard
100
AcDbOrdinateDimension
 13
28.96609156475025
 23
32.99510689085267
 33
0.0
 14
28.96609156475025
 24
13.4551068908527
 34
0.0
  0
DIMENSION
  5
A20
330
1F
100
AcDbEntity
  8
DIMENSION
100
AcDbDimension
  2
*D99
 10
27.38308464045184
 20
16.45512905494742
 30
0.0
 11
27.38309156475027
 21
12.1151068908527
 31
0.0
 70
   102
 71
     5
 42
0.0000069242984395
  3
Standard
100
AcDbOrdinateDimension
 13
27.38309156475028
 23
16.4551068908527
 33
0.0
 14
27.38309156475028
 24
13.4551068908527
 34
0.0
  0
CIRCLE
  5
A21
330
1F
100
AcDbEntity
  8
TEMPLATE
100
AcDbCircle
 10
28.13409156475025
 20
21.83060689085257
 30
0.0
 40
0.1875
  0
CIRCLE
  5
A22
330
1F
100
AcDbEntity
  8
TEMPLATE
100
AcDbCircle
 10
28.13409156475025
 20
31.83060689085257
 30
0.0
 40
0.1875
  0
CIRCLE
  5
A23
330
1F
100
AcDbEntity
  8
0
100
AcDbCircle
 10
29.88409156475026
 20
28.7051068908527
 30
0.0
 40
0.625
  0
CIRCLE
  5
A24
330
1F
100
AcDbEntity
  8
TEMPLATE
100
AcDbCircle
 10
33.13409156475025
 20
21.83060689085257
 30
0.0
 40
0.1875
  0
CIRCLE
  5
A25
330
1F
100
AcDbEntity
  8
TEMPLATE
100
AcDbCircle
 10
33.13409156475025
 20
31.83060689085257
 30
0.0
 40
0.1875
  0
LINE
  5
A26
330
1F
100
AcDbEntity
  8
TEMPLATE
100
AcDbLine
 10
28.96609156475025
 20
38.52010689085243
 30
0.0
 11
33.41609156475023
 21
38.52010689085243
 31
0.0
  0
CIRCLE
  5
A27
330
1F
100
AcDbEntity
  8
TEMPLATE
100
AcDbCircle
 10
30.63409156475025
 20
42.72510689085268
 30
0.0
 40
3.0
  0
LINE
  5
A28
330
1F
100
AcDbEntity
  8
TEMPLATE
  6
DASHDOT
100
AcDbLine
 10
33.88309156475022
 20
46.4551068908528
 30
0.0
 11
27.38309156475022
 21
46.45510689085269
 31
0.0
  0
CIRCLE
  5
A29
330
1F
100
AcDbEntity
  8
TEMPLATE
100
AcDbCircle
 10
28.13409156475025
 20
39.58060689085258
 30
0.0
 40
0.1875
  0
CIRCLE
  5
A2A
330
1F
100
AcDbEntity
  8
TEMPLATE
100
AcDbCircle
 10
28.13409156475025
 20
45.58010689085269
 30
0.0
 40
0.1875
  0
CIRCLE
  5
A2B
330
1F
100
AcDbEntity
  8
TEMPLATE
100
AcDbCircle
 10
33.13409156475025
 20
39.58060689085258
 30
0.0
 40
0.1875
  0
CIRCLE
  5
A2C
330
1F
100
AcDbEntity
  8
TEMPLATE
100
AcDbCircle
 10
33.13409156475025
 20
45.58010689085269
 30
0.0
 40
0.1875
  0
TEXT
  5
C67
330
1F
100
AcDbEntity
  8
TEXT
100
AcDbText
 10
2.741374593481716
 20
-4.094893109147158
 30
0.0
 40
0.3
  1
1
 72
     1
 11
2.791374593481716
 21
-3.944893109147158
 31
0.0
100
AcDbText
 73
     2
  0
TEXT
  5
C68
330
1F
100
AcDbEntity
  8
TEXT
100
AcDbText
 10
5.321374593481807
 20
-4.094893109147158
 30
0.0
 40
0.3
  1
ADDED ETHERNET CONNECTION PORT
 72
     1
 11
9.721374593481806
 21
-3.944893109147158
 31
0.0
100
AcDbText
 73
     2
  0
TEXT
  5
C69
330
1F
100
AcDbEntity
  8
TEXT
100
AcDbText
 10
16.46512459348172
 20
-4.094893109147158
 30
0.0
 40
0.3
  1
7-18-11
 72
     1
 11
17.31512459348172
 21
-3.944893109147158
 31
0.0
100
AcDbText
 73
     2
  0
TEXT
  5
C6A
330
1F
100
AcDbEntity
  8
TEXT
100
AcDbText
 10
19.73242654103649
 20
-4.094893109147158
 30
0.0
 40
0.3
  1
JJH
 72
     1
 11
20.13242654103649
 21
-3.944893109147158
 31
0.0
100
AcDbText
 73
     2
  0
LINE
  5
C6B
330
1F
100
AcDbEntity
  8
BORDER
100
AcDbLine
 10
21.62972848859126
 20
-3.644893109147091
 30
0.0
 11
2.135124593481716
 21
-3.644893109147091
 31
0.0
  0
TEXT
  5
C98
330
1F
100
AcDbEntity
  8
TEXT
100
AcDbText
 10
2.691374593481716
 20
-3.494893109147101
 30
0.0
 40
0.3
  1
2
 72
     1
 11
2.791374593481716
 21
-3.344893109147101
 31
0.0
100
AcDbText
 73
     2
  0
TEXT
  5
C99
330
1F
100
AcDbEntity
  8
TEXT
100
AcDbText
 10
3.971374593481809
 20
-3.494893109147101
 30
0.0
 40
0.3
  1
ADDED ALARM TO ETHERNET CONNECTION PORT
 72
     1
 11
9.721374593481806
 21
-3.344893109147101
 31
0.0
100
AcDbText
 73
     2
  0
LINE
  5
C9A
330
1F
100
AcDbEntity
  8
BORDER
100
AcDbLine
 10
21.62972848859126
 20
-3.044893109147034
 30
0.0
 11
2.135124593481716
 21
-3.044893109147034
 31
0.0
  0
TEXT
  5
C9B
330
1F
100
AcDbEntity
  8
TEXT
100
AcDbText
 10
19.73242654103649
 20
-3.494893109147101
 30
0.0
 40
0.3
  1
JJH
 72
     1
 11
20.13242654103649
 21
-3.344893109147101
 31
0.0
100
AcDbText
 73
     2
  0
TEXT
  5
C9C
330
1F
100
AcDbEntity
  8
TEXT
100
AcDbText
 10
16.51512459348172
 20
-3.494893109147101
 30
0.0
 40
0.3
  1
4-9-12
 72
     1
 11
17.31512459348172
 21
-3.344893109147101
 31
0.0
100
AcDbText
 73
     2
  0
ENDSEC
  0
SECTION
  2
OBJECTS
  0
DICTIONARY
  5
C
330
0
100
AcDbDictionary
281
     1
  3
ACAD_COLOR
350
73
  3
ACAD_GROUP
350
D
  3
ACAD_LAYOUT
350
1A
  3
ACAD_MATERIAL
350
72
  3
ACAD_MLINESTYLE
350
17
  3
ACAD_PLOTSETTINGS
350
19
  3
ACAD_PLOTSTYLENAME
350
E
  3
ACDBHEADERROUNDTRIPXREC
350
CD3
  3
AcDbVariableDictionary
350
66
  0
DICTIONARY
  5
9C7
330
2
100
AcDbDictionary
280
     1
281
     1
  3
ACAD_LAYERSTATES
360
9C8
  0
DICTIONARY
  5
73
102
{ACAD_REACTORS
330
C
102
}
330
C
100
AcDbDictionary
281
     1
  0
DICTIONARY
  5
D
102
{ACAD_REACTORS
330
C
102
}
330
C
100
AcDbDictionary
281
     1
  0
DICTIONARY
  5
1A
102
{ACAD_REACTORS
330
C
102
}
330
C
100
AcDbDictionary
281
     1
  3
Layout1
350
59
  3
Layout2
350
5E
  3
Model
350
22
  0
DICTIONARY
  5
72
102
{ACAD_REACTORS
330
C
102
}
330
C
100
AcDbDictionary
281
     1
  0
DICTIONARY
  5
17
102
{ACAD_REACTORS
330
C
102
}
330
C
100
AcDbDictionary
281
     1
  3
Standard
350
18
  0
DICTIONARY
  5
19
102
{ACAD_REACTORS
330
C
102
}
330
C
100
AcDbDictionary
281
     1
  0
ACDBDICTIONARYWDFLT
  5
E
102
{ACAD_REACTORS
330
C
102
}
330
C
100
AcDbDictionary
281
     1
  3
Normal
350
F
100
AcDbDictionaryWithDefault
340
F
  0
DICTIONARY
  5
CD3
102
{ACAD_REACTORS
330
C
102
}
330
C
100
AcDbDictionary
281
     1
  3
COLORDICT
350
CD5
  3
MATERIALDICT
350
CD4
  0
DICTIONARY
  5
66
102
{ACAD_REACTORS
330
C
102
}
330
C
100
AcDbDictionary
281
     1
  3
DIMASSOC
350
67
  3
HIDETEXT
350
6B
  3
PROJECTNAME
350
603
  0
DICTIONARY
  5
9C8
102
{ACAD_REACTORS
330
9C7
102
}
330
9C7
100
AcDbDictionary
281
     1
  0
LAYOUT
  5
59
102
{ACAD_XDICTIONARY
360
CD8
102
}
102
{ACAD_REACTORS
330
1A
102
}
330
1A
100
AcDbPlotSettings
  1

  2
None
  4

  6

 40
0.0
 41
0.0
 42
0.0
 43
0.0
 44
0.0
 45
0.0
 46
0.0
 47
0.0
 48
0.0
 49
0.0
140
0.0
141
0.0
142
1.0
143
1.0
 70
   688
 72
     0
 73
     0
 74
     5
  7

 75
    16
147
1.0
148
0.0
149
0.0
100
AcDbLayout
  1
Layout1
 70
     1
 71
     1
 10
0.0
 20
0.0
 11
12.0
 21
9.0
 12
0.0
 22
0.0
 32
0.0
 14
0.0
 24
0.0
 34
0.0
 15
0.0
 25
0.0
 35
0.0
146
0.0
 13
0.0
 23
0.0
 33
0.0
 16
1.0
 26
0.0
 36
0.0
 17
0.0
 27
1.0
 37
0.0
 76
     0
330
58
  0
LAYOUT
  5
5E
102
{ACAD_XDICTIONARY
360
CDA
102
}
102
{ACAD_REACTORS
330
1A
102
}
330
1A
100
AcDbPlotSettings
  1

  2
None
  4

  6

 40
0.0
 41
0.0
 42
0.0
 43
0.0
 44
0.0
 45
0.0
 46
0.0
 47
0.0
 48
0.0
 49
0.0
140
0.0
141
0.0
142
1.0
143
1.0
 70
   688
 72
     0
 73
     0
 74
     5
  7

 75
    16
147
1.0
148
0.0
149
0.0
100
AcDbLayout
  1
Layout2
 70
     1
 71
     2
 10
0.0
 20
0.0
 11
12.0
 21
9.0
 12
0.0
 22
0.0
 32
0.0
 14
0.0
 24
0.0
 34
0.0
 15
0.0
 25
0.0
 35
0.0
146
0.0
 13
0.0
 23
0.0
 33
0.0
 16
1.0
 26
0.0
 36
0.0
 17
0.0
 27
1.0
 37
0.0
 76
     0
330
5D
  0
LAYOUT
  5
22
102
{ACAD_XDICTIONARY
360
CD6
102
}
102
{ACAD_REACTORS
330
1A
102
}
330
1A
100
AcDbPlotSettings
  1

  2
none_device
  4
ANSI_A_(8.50_x_11.00_Inches)
  6

 40
6.349999904632567
 41
19.04999923706055
 42
6.350006103515625
 43
19.04998779296875
 44
215.8999938964844
 45
279.3999938964844
 46
0.0
 47
0.0
 48
0.0
 49
0.0
140
0.0
141
0.0
142
1.0
143
2.584895464708373
 70
 11952
 72
     0
 73
     1
 74
     0
  7

 75
     0
147
0.3868628397755418
148
0.0
149
0.0
100
AcDbLayout
  1
Model
 70
     1
 71
     0
 10
0.0
 20
0.0
 11
12.0
 21
9.0
 12
0.0
 22
0.0
 32
0.0
 14
0.0
 24
0.0
 34
0.0
 15
0.0
 25
0.0
 35
0.0
146
0.0
 13
0.0
 23
0.0
 33
0.0
 16
1.0
 26
0.0
 36
0.0
 17
0.0
 27
1.0
 37
0.0
 76
     0
330
1F
  0
MLINESTYLE
  5
18
102
{ACAD_REACTORS
330
17
102
}
330
17
100
AcDbMlineStyle
  2
STANDARD
 70
     0
  3

 62
   256
 51
90.0
 52
90.0
 71
     2
 49
0.5
 62
   256
  6
BYLAYER
 49
-0.5
 62
   256
  6
BYLAYER
  0
ACDBPLACEHOLDER
  5
F
102
{ACAD_REACTORS
330
E
102
}
330
E
  0
XRECORD
  5
CD5
102
{ACAD_REACTORS
330
CD3
102
}
330
CD3
100
AcDbXrecord
280
     1
340
73
  0
XRECORD
  5
CD4
102
{ACAD_REACTORS
330
CD3
102
}
330
CD3
100
AcDbXrecord
280
     1
340
72
  0
DICTIONARYVAR
  5
67
102
{ACAD_REACTORS
330
66
102
}
330
66
100
DictionaryVariables
280
     0
  1
2
  0
DICTIONARYVAR
  5
6B
102
{ACAD_REACTORS
330
66
102
}
330
66
100
DictionaryVariables
280
     0
  1
1
  0
DICTIONARYVAR
  5
603
102
{ACAD_REACTORS
330
66
102
}
330
66
100
DictionaryVariables
280
     0
  1

  0
DICTIONARY
  5
CD8
330
59
100
AcDbDictionary
280
     1
281
     1
  3
ACAD_XREC_ROUNDTRIP
360
CD9
  0
DICTIONARY
  5
CDA
330
5E
100
AcDbDictionary
280
     1
281
     1
  3
ACAD_XREC_ROUNDTRIP
360
CDB
  0
DICTIONARY
  5
CD6
330
22
100
AcDbDictionary
280
     1
281
     1
  3
ACAD_XREC_ROUNDTRIP
360
CD7
  0
XRECORD
  5
CD9
102
{ACAD_REACTORS
330
CD8
102
}
330
CD8
100
AcDbXrecord
280
     1
102
SHADEPLOT
 70
     0
102
SHADEPLOTRESLEVEL
 70
     2
102
SHADEPLOTCUSTOMDPI
 70
   300
  0
XRECORD
  5
CDB
102
{ACAD_REACTORS
330
CDA
102
}
330
CDA
100
AcDbXrecord
280
     1
102
SHADEPLOT
 70
     0
102
SHADEPLOTRESLEVEL
 70
     2
102
SHADEPLOTCUSTOMDPI
 70
   300
  0
XRECORD
  5
CD7
102
{ACAD_REACTORS
330
CD6
102
}
330
CD6
100
AcDbXrecord
280
     1
102
SHADEPLOT
 70
     0
102
SHADEPLOTRESLEVEL
 70
     2
102
SHADEPLOTCUSTOMDPI
 70
   300
  0
ENDSEC
  0
EOF
