  0
SECTION
  2
HEADER
  9
$ACADVER
  1
AC1015
  9
$ACADMAINTVER
 70
    20
  9
$DWGCODEPAGE
  3
ANSI_1252
  9
$INSBASE
 10
0.0
 20
0.0
 30
0.0
  9
$EXTMIN
 10
4.917881685230184
 20
-3.439782735788597
 30
-0.0000000349181948
  9
$EXTMAX
 10
43.65544136537025
 20
47.53452430874726
 30
0.0000000814935747
  9
$LIMMIN
 10
0.0
 20
0.0
  9
$LIMMAX
 10
12.0
 20
9.0
  9
$ORTHOMODE
 70
     1
  9
$REGENMODE
 70
     1
  9
$FILLMODE
 70
     1
  9
$QTEXTMODE
 70
     0
  9
$MIRRTEXT
 70
     0
  9
$LTSCALE
 40
1.0
  9
$ATTMODE
 70
     1
  9
$TEXTSIZE
 40
0.2
  9
$TRACEWID
 40
0.05
  9
$TEXTSTYLE
  7
Standard
  9
$CLAYER
  8
0
  9
$CELTYPE
  6
ByLayer
  9
$CECOLOR
 62
   256
  9
$CELTSCALE
 40
1.0
  9
$DISPSILH
 70
     0
  9
$DIMSCALE
 40
1.0
  9
$DIMASZ
 40
0.18
  9
$DIMEXO
 40
0.0625
  9
$DIMDLI
 40
0.38
  9
$DIMRND
 40
0.0
  9
$DIMDLE
 40
0.0
  9
$DIMEXE
 40
0.18
  9
$DIMTP
 40
0.0
  9
$DIMTM
 40
0.0
  9
$DIMTXT
 40
0.18
  9
$DIMCEN
 40
0.09
  9
$DIMTSZ
 40
0.0
  9
$DIMTOL
 70
     0
  9
$DIMLIM
 70
     0
  9
$DIMTIH
 70
     1
  9
$DIMTOH
 70
     1
  9
$DIMSE1
 70
     0
  9
$DIMSE2
 70
     0
  9
$DIMTAD
 70
     0
  9
$DIMZIN
 70
     0
  9
$DIMBLK
  1

  9
$DIMASO
 70
     1
  9
$DIMSHO
 70
     1
  9
$DIMPOST
  1

  9
$DIMAPOST
  1

  9
$DIMALT
 70
     0
  9
$DIMALTD
 70
     2
  9
$DIMALTF
 40
25.4
  9
$DIMLFAC
 40
1.0
  9
$DIMTOFL
 70
     0
  9
$DIMTVP
 40
0.0
  9
$DIMTIX
 70
     0
  9
$DIMSOXD
 70
     0
  9
$DIMSAH
 70
     0
  9
$DIMBLK1
  1

  9
$DIMBLK2
  1

  9
$DIMSTYLE
  2
Standard
  9
$DIMCLRD
 70
     0
  9
$DIMCLRE
 70
     0
  9
$DIMCLRT
 70
     0
  9
$DIMTFAC
 40
1.0
  9
$DIMGAP
 40
0.09
  9
$DIMJUST
 70
     0
  9
$DIMSD1
 70
     0
  9
$DIMSD2
 70
     0
  9
$DIMTOLJ
 70
     1
  9
$DIMTZIN
 70
     0
  9
$DIMALTZ
 70
     0
  9
$DIMALTTZ
 70
     0
  9
$DIMUPT
 70
     0
  9
$DIMDEC
 70
     4
  9
$DIMTDEC
 70
     4
  9
$DIMALTU
 70
     2
  9
$DIMALTTD
 70
     2
  9
$DIMTXSTY
  7
Standard
  9
$DIMAUNIT
 70
     0
  9
$DIMADEC
 70
     0
  9
$DIMALTRND
 40
0.0
  9
$DIMAZIN
 70
     0
  9
$DIMDSEP
 70
    46
  9
$DIMATFIT
 70
     3
  9
$DIMFRAC
 70
     0
  9
$DIMLDRBLK
  1

  9
$DIMLUNIT
 70
     2
  9
$DIMLWD
 70
    -2
  9
$DIMLWE
 70
    -2
  9
$DIMTMOVE
 70
     0
  9
$LUNITS
 70
     2
  9
$LUPREC
 70
     4
  9
$SKETCHINC
 40
0.1
  9
$FILLETRAD
 40
0.0
  9
$AUNITS
 70
     0
  9
$AUPREC
 70
     0
  9
$MENU
  1
.
  9
$ELEVATION
 40
0.0
  9
$PELEVATION
 40
0.0
  9
$THICKNESS
 40
0.0
  9
$LIMCHECK
 70
     0
  9
$CHAMFERA
 40
0.0
  9
$CHAMFERB
 40
0.0
  9
$CHAMFERC
 40
0.0
  9
$CHAMFERD
 40
0.0
  9
$SKPOLY
 70
     0
  9
$TDCREATE
 40
2455197.499448889
  9
$TDUCREATE
 40
2455197.666115556
  9
$TDUPDATE
 40
2455671.645723380
  9
$TDUUPDATE
 40
2455671.812390046
  9
$TDINDWG
 40
0.0231291204
  9
$TDUSRTIMER
 40
0.0231291204
  9
$USRTIMER
 70
     1
  9
$ANGBASE
 50
0.0
  9
$ANGDIR
 70
     0
  9
$PDMODE
 70
     0
  9
$PDSIZE
 40
0.0
  9
$PLINEWID
 40
0.0
  9
$SPLFRAME
 70
     0
  9
$SPLINETYPE
 70
     6
  9
$SPLINESEGS
 70
     8
  9
$HANDSEED
  5
7E5
  9
$SURFTAB1
 70
     6
  9
$SURFTAB2
 70
     6
  9
$SURFTYPE
 70
     6
  9
$SURFU
 70
     6
  9
$SURFV
 70
     6
  9
$UCSBASE
  2

  9
$UCSNAME
  2

  9
$UCSORG
 10
0.0
 20
0.0
 30
0.0
  9
$UCSXDIR
 10
1.0
 20
0.0
 30
0.0
  9
$UCSYDIR
 10
0.0
 20
1.0
 30
0.0
  9
$UCSORTHOREF
  2

  9
$UCSORTHOVIEW
 70
     0
  9
$UCSORGTOP
 10
0.0
 20
0.0
 30
0.0
  9
$UCSORGBOTTOM
 10
0.0
 20
0.0
 30
0.0
  9
$UCSORGLEFT
 10
0.0
 20
0.0
 30
0.0
  9
$UCSORGRIGHT
 10
0.0
 20
0.0
 30
0.0
  9
$UCSORGFRONT
 10
0.0
 20
0.0
 30
0.0
  9
$UCSORGBACK
 10
0.0
 20
0.0
 30
0.0
  9
$PUCSBASE
  2

  9
$PUCSNAME
  2

  9
$PUCSORG
 10
0.0
 20
0.0
 30
0.0
  9
$PUCSXDIR
 10
1.0
 20
0.0
 30
0.0
  9
$PUCSYDIR
 10
0.0
 20
1.0
 30
0.0
  9
$PUCSORTHOREF
  2

  9
$PUCSORTHOVIEW
 70
     0
  9
$PUCSORGTOP
 10
0.0
 20
0.0
 30
0.0
  9
$PUCSORGBOTTOM
 10
0.0
 20
0.0
 30
0.0
  9
$PUCSORGLEFT
 10
0.0
 20
0.0
 30
0.0
  9
$PUCSORGRIGHT
 10
0.0
 20
0.0
 30
0.0
  9
$PUCSORGFRONT
 10
0.0
 20
0.0
 30
0.0
  9
$PUCSORGBACK
 10
0.0
 20
0.0
 30
0.0
  9
$USERI1
 70
     0
  9
$USERI2
 70
     0
  9
$USERI3
 70
     0
  9
$USERI4
 70
     0
  9
$USERI5
 70
     0
  9
$USERR1
 40
0.0
  9
$USERR2
 40
0.0
  9
$USERR3
 40
0.0
  9
$USERR4
 40
0.0
  9
$USERR5
 40
0.0
  9
$WORLDVIEW
 70
     1
  9
$SHADEDGE
 70
     3
  9
$SHADEDIF
 70
    70
  9
$TILEMODE
 70
     1
  9
$MAXACTVP
 70
    64
  9
$PINSBASE
 10
0.0
 20
0.0
 30
0.0
  9
$PLIMCHECK
 70
     0
  9
$PEXTMIN
 10
0.0
 20
0.0
 30
0.0
  9
$PEXTMAX
 10
0.0
 20
0.0
 30
0.0
  9
$PLIMMIN
 10
0.0
 20
0.0
  9
$PLIMMAX
 10
12.0
 20
9.0
  9
$UNITMODE
 70
     0
  9
$VISRETAIN
 70
     1
  9
$PLINEGEN
 70
     0
  9
$PSLTSCALE
 70
     1
  9
$TREEDEPTH
 70
  3020
  9
$CMLSTYLE
  2
Standard
  9
$CMLJUST
 70
     0
  9
$CMLSCALE
 40
1.0
  9
$PROXYGRAPHICS
 70
     1
  9
$MEASUREMENT
 70
     0
  9
$CELWEIGHT
370
    -1
  9
$ENDCAPS
280
     0
  9
$JOINSTYLE
280
     0
  9
$LWDISPLAY
290
     0
  9
$INSUNITS
 70
     1
  9
$HYPERLINKBASE
  1

  9
$STYLESHEET
  1

  9
$XEDIT
290
     1
  9
$CEPSNTYPE
380
     0
  9
$PSTYLEMODE
290
     1
  9
$FINGERPRINTGUID
  2
{FDEAD576-A652-11D2-9A35-0060089B3A3F}
  9
$VERSIONGUID
  2
{8B24F7C9-ADF6-4F2D-A7A6-BAB8D5179DE8}
  9
$EXTNAMES
290
     1
  9
$PSVPSCALE
 40
0.0
  9
$OLESTARTUP
290
     0
  0
ENDSEC
  0
SECTION
  2
CLASSES
  0
CLASS
  1
ACDBDICTIONARYWDFLT
  2
AcDbDictionaryWithDefault
  3
ObjectDBX Classes
 90
        0
280
     0
281
     0
  0
CLASS
  1
ACDBPLACEHOLDER
  2
AcDbPlaceHolder
  3
ObjectDBX Classes
 90
        0
280
     0
281
     0
  0
CLASS
  1
LAYOUT
  2
AcDbLayout
  3
ObjectDBX Classes
 90
        0
280
     0
281
     0
  0
CLASS
  1
DICTIONARYVAR
  2
AcDbDictionaryVar
  3
ObjectDBX Classes
 90
        0
280
     0
281
     0
  0
CLASS
  1
DIMASSOC
  2
AcDbDimAssoc
  3
"AcDbDimAssoc|Product Desc:     AcDim ARX App For Dimension|Company:          Autodesk, Inc.|WEB Address:      www.autodesk.com"
 90
        0
280
     0
281
     0
  0
ENDSEC
  0
SECTION
  2
TABLES
  0
TABLE
  2
VPORT
  5
8
330
0
100
AcDbSymbolTable
 70
     2
  0
VPORT
  5
7DB
330
8
100
AcDbSymbolTableRecord
100
AcDbViewportTableRecord
  2
*Active
 70
     0
 10
0.0
 20
0.0
 11
1.0
 21
1.0
 12
39.06864229341419
 22
-0.4155004981545006
 13
0.0
 23
0.0
 14
0.5
 24
0.5
 15
0.5
 25
0.5
 16
0.0
 26
0.0
 36
1.0
 17
0.0
 27
0.0
 37
0.0
 40
8.395586905701975
 41
1.294344473007712
 42
50.0
 43
0.0
 44
0.0
 50
0.0
 51
0.0
 71
     0
 72
  1000
 73
     1
 74
     3
 75
     0
 76
     0
 77
     0
 78
     0
281
     0
 65
     1
110
0.0
120
0.0
130
0.0
111
1.0
121
0.0
131
0.0
112
0.0
122
1.0
132
0.0
 79
     0
146
0.0
  0
ENDTAB
  0
TABLE
  2
LTYPE
  5
5
330
0
100
AcDbSymbolTable
 70
     2
  0
LTYPE
  5
14
330
5
100
AcDbSymbolTableRecord
100
AcDbLinetypeTableRecord
  2
ByBlock
 70
     0
  3

 72
    65
 73
     0
 40
0.0
  0
LTYPE
  5
15
330
5
100
AcDbSymbolTableRecord
100
AcDbLinetypeTableRecord
  2
ByLayer
 70
     0
  3

 72
    65
 73
     0
 40
0.0
  0
LTYPE
  5
16
330
5
100
AcDbSymbolTableRecord
100
AcDbLinetypeTableRecord
  2
Continuous
 70
     0
  3
Solid line
 72
    65
 73
     0
 40
0.0
  0
LTYPE
  5
3BB
330
5
100
AcDbSymbolTableRecord
100
AcDbLinetypeTableRecord
  2
HIDDEN
 70
     0
  3
Hidden __ __ __ __ __ __ __ __ __ __ __ __ __ _
 72
    65
 73
     2
 40
0.375
 49
0.25
 74
     0
 49
-0.125
 74
     0
  0
ENDTAB
  0
TABLE
  2
LAYER
  5
2
102
{ACAD_XDICTIONARY
360
8C
102
}
330
0
100
AcDbSymbolTable
 70
     5
  0
LAYER
  5
10
330
2
100
AcDbSymbolTableRecord
100
AcDbLayerTableRecord
  2
0
 70
     0
 62
     7
  6
Continuous
370
    -3
390
F
  0
LAYER
  5
89
330
2
100
AcDbSymbolTableRecord
100
AcDbLayerTableRecord
  2
TEXT
 70
     0
 62
     7
  6
Continuous
370
    -3
390
F
  0
LAYER
  5
8A
330
2
100
AcDbSymbolTableRecord
100
AcDbLayerTableRecord
  2
BORDER
 70
     0
 62
     1
  6
Continuous
370
    -3
390
F
  0
LAYER
  5
8B
330
2
100
AcDbSymbolTableRecord
100
AcDbLayerTableRecord
  2
DIMENSION
 70
     0
 62
     7
  6
Continuous
370
    -3
390
F
  0
LAYER
  5
3BD
330
2
100
AcDbSymbolTableRecord
100
AcDbLayerTableRecord
  2
Defpoints
 70
     0
 62
     7
  6
Continuous
290
     0
370
    -3
390
F
  0
ENDTAB
  0
TABLE
  2
STYLE
  5
3
330
0
100
AcDbSymbolTable
 70
     1
  0
STYLE
  5
11
330
3
100
AcDbSymbolTableRecord
100
AcDbTextStyleTableRecord
  2
Standard
 70
     0
 40
0.0
 41
1.0
 50
0.0
 71
     0
 42
0.2
  3
txt
  4

  0
ENDTAB
  0
TABLE
  2
VIEW
  5
6
330
0
100
AcDbSymbolTable
 70
     0
  0
ENDTAB
  0
TABLE
  2
UCS
  5
7
330
0
100
AcDbSymbolTable
 70
     0
  0
ENDTAB
  0
TABLE
  2
APPID
  5
9
330
0
100
AcDbSymbolTable
 70
     1
  0
APPID
  5
12
330
9
100
AcDbSymbolTableRecord
100
AcDbRegAppTableRecord
  2
ACAD
 70
     0
  0
ENDTAB
  0
TABLE
  2
DIMSTYLE
  5
A
330
0
100
AcDbSymbolTable
 70
     1
100
AcDbDimStyleTable
 71
     0
  0
DIMSTYLE
105
27
102
{ACAD_REACTORS
330
403
330
40A
330
40D
330
410
330
411
330
412
330
413
330
416
330
419
330
41A
330
41B
330
421
330
424
330
427
330
428
330
42B
330
42C
330
42D
330
42E
330
652
330
669
102
}
330
A
100
AcDbSymbolTableRecord
100
AcDbDimStyleTableRecord
  2
Standard
 70
     0
340
11
  0
ENDTAB
  0
TABLE
  2
BLOCK_RECORD
  5
1
330
0
100
AcDbSymbolTable
 70
    86
  0
BLOCK_RECORD
  5
1F
330
1
100
AcDbSymbolTableRecord
100
AcDbBlockTableRecord
  2
*Model_Space
340
22
  0
BLOCK_RECORD
  5
58
330
1
100
AcDbSymbolTableRecord
100
AcDbBlockTableRecord
  2
*Paper_Space
340
59
  0
BLOCK_RECORD
  5
5D
330
1
100
AcDbSymbolTableRecord
100
AcDbBlockTableRecord
  2
*Paper_Space0
340
5E
  0
BLOCK_RECORD
  5
304
330
1
100
AcDbSymbolTableRecord
100
AcDbBlockTableRecord
  2
*D1
340
0
  0
BLOCK_RECORD
  5
30C
330
1
100
AcDbSymbolTableRecord
100
AcDbBlockTableRecord
  2
*D2
340
0
  0
BLOCK_RECORD
  5
314
330
1
100
AcDbSymbolTableRecord
100
AcDbBlockTableRecord
  2
*D3
340
0
  0
BLOCK_RECORD
  5
31C
330
1
100
AcDbSymbolTableRecord
100
AcDbBlockTableRecord
  2
*D4
340
0
  0
BLOCK_RECORD
  5
324
330
1
100
AcDbSymbolTableRecord
100
AcDbBlockTableRecord
  2
*D5
340
0
  0
BLOCK_RECORD
  5
32C
330
1
100
AcDbSymbolTableRecord
100
AcDbBlockTableRecord
  2
*D6
340
0
  0
BLOCK_RECORD
  5
334
330
1
100
AcDbSymbolTableRecord
100
AcDbBlockTableRecord
  2
*D7
340
0
  0
BLOCK_RECORD
  5
33C
330
1
100
AcDbSymbolTableRecord
100
AcDbBlockTableRecord
  2
*D8
340
0
  0
BLOCK_RECORD
  5
344
330
1
100
AcDbSymbolTableRecord
100
AcDbBlockTableRecord
  2
*D9
340
0
  0
BLOCK_RECORD
  5
34C
330
1
100
AcDbSymbolTableRecord
100
AcDbBlockTableRecord
  2
*D10
340
0
  0
BLOCK_RECORD
  5
354
330
1
100
AcDbSymbolTableRecord
100
AcDbBlockTableRecord
  2
*D11
340
0
  0
BLOCK_RECORD
  5
35C
330
1
100
AcDbSymbolTableRecord
100
AcDbBlockTableRecord
  2
*D12
340
0
  0
BLOCK_RECORD
  5
364
330
1
100
AcDbSymbolTableRecord
100
AcDbBlockTableRecord
  2
*D13
340
0
  0
BLOCK_RECORD
  5
36C
330
1
100
AcDbSymbolTableRecord
100
AcDbBlockTableRecord
  2
*D14
340
0
  0
BLOCK_RECORD
  5
374
330
1
100
AcDbSymbolTableRecord
100
AcDbBlockTableRecord
  2
*D15
340
0
  0
BLOCK_RECORD
  5
37C
330
1
100
AcDbSymbolTableRecord
100
AcDbBlockTableRecord
  2
*D16
340
0
  0
BLOCK_RECORD
  5
386
330
1
100
AcDbSymbolTableRecord
100
AcDbBlockTableRecord
  2
*D17
340
0
  0
BLOCK_RECORD
  5
390
330
1
100
AcDbSymbolTableRecord
100
AcDbBlockTableRecord
  2
*D18
340
0
  0
BLOCK_RECORD
  5
39A
330
1
100
AcDbSymbolTableRecord
100
AcDbBlockTableRecord
  2
*D19
340
0
  0
BLOCK_RECORD
  5
3A5
330
1
100
AcDbSymbolTableRecord
100
AcDbBlockTableRecord
  2
*D20
340
0
  0
BLOCK_RECORD
  5
3B0
330
1
100
AcDbSymbolTableRecord
100
AcDbBlockTableRecord
  2
*D21
340
0
  0
BLOCK_RECORD
  5
444
330
1
100
AcDbSymbolTableRecord
100
AcDbBlockTableRecord
  2
*D22
340
0
  0
BLOCK_RECORD
  5
44E
330
1
100
AcDbSymbolTableRecord
100
AcDbBlockTableRecord
  2
*D23
340
0
  0
BLOCK_RECORD
  5
458
330
1
100
AcDbSymbolTableRecord
100
AcDbBlockTableRecord
  2
*D24
340
0
  0
BLOCK_RECORD
  5
460
330
1
100
AcDbSymbolTableRecord
100
AcDbBlockTableRecord
  2
*D25
340
0
  0
BLOCK_RECORD
  5
468
330
1
100
AcDbSymbolTableRecord
100
AcDbBlockTableRecord
  2
*D26
340
0
  0
BLOCK_RECORD
  5
470
330
1
100
AcDbSymbolTableRecord
100
AcDbBlockTableRecord
  2
*D27
340
0
  0
BLOCK_RECORD
  5
478
330
1
100
AcDbSymbolTableRecord
100
AcDbBlockTableRecord
  2
*D28
340
0
  0
BLOCK_RECORD
  5
480
330
1
100
AcDbSymbolTableRecord
100
AcDbBlockTableRecord
  2
*D29
340
0
  0
BLOCK_RECORD
  5
488
330
1
100
AcDbSymbolTableRecord
100
AcDbBlockTableRecord
  2
*D30
340
0
  0
BLOCK_RECORD
  5
490
330
1
100
AcDbSymbolTableRecord
100
AcDbBlockTableRecord
  2
*D31
340
0
  0
BLOCK_RECORD
  5
49B
330
1
100
AcDbSymbolTableRecord
100
AcDbBlockTableRecord
  2
*D32
340
0
  0
BLOCK_RECORD
  5
4A6
330
1
100
AcDbSymbolTableRecord
100
AcDbBlockTableRecord
  2
*D33
340
0
  0
BLOCK_RECORD
  5
4B1
330
1
100
AcDbSymbolTableRecord
100
AcDbBlockTableRecord
  2
*D34
340
0
  0
BLOCK_RECORD
  5
4CE
330
1
100
AcDbSymbolTableRecord
100
AcDbBlockTableRecord
  2
*D35
340
0
  0
BLOCK_RECORD
  5
4D6
330
1
100
AcDbSymbolTableRecord
100
AcDbBlockTableRecord
  2
*D36
340
0
  0
BLOCK_RECORD
  5
4E8
330
1
100
AcDbSymbolTableRecord
100
AcDbBlockTableRecord
  2
*D37
340
0
  0
BLOCK_RECORD
  5
4F0
330
1
100
AcDbSymbolTableRecord
100
AcDbBlockTableRecord
  2
*D38
340
0
  0
BLOCK_RECORD
  5
4F8
330
1
100
AcDbSymbolTableRecord
100
AcDbBlockTableRecord
  2
*D39
340
0
  0
BLOCK_RECORD
  5
500
330
1
100
AcDbSymbolTableRecord
100
AcDbBlockTableRecord
  2
*D40
340
0
  0
BLOCK_RECORD
  5
50D
330
1
100
AcDbSymbolTableRecord
100
AcDbBlockTableRecord
  2
*D41
340
0
  0
BLOCK_RECORD
  5
524
330
1
100
AcDbSymbolTableRecord
100
AcDbBlockTableRecord
  2
*D42
340
0
  0
BLOCK_RECORD
  5
554
330
1
100
AcDbSymbolTableRecord
100
AcDbBlockTableRecord
  2
*D43
340
0
  0
BLOCK_RECORD
  5
55C
330
1
100
AcDbSymbolTableRecord
100
AcDbBlockTableRecord
  2
*D44
340
0
  0
BLOCK_RECORD
  5
564
330
1
100
AcDbSymbolTableRecord
100
AcDbBlockTableRecord
  2
*D45
340
0
  0
BLOCK_RECORD
  5
56C
330
1
100
AcDbSymbolTableRecord
100
AcDbBlockTableRecord
  2
*D46
340
0
  0
BLOCK_RECORD
  5
574
330
1
100
AcDbSymbolTableRecord
100
AcDbBlockTableRecord
  2
*D47
340
0
  0
BLOCK_RECORD
  5
57C
330
1
100
AcDbSymbolTableRecord
100
AcDbBlockTableRecord
  2
*D48
340
0
  0
BLOCK_RECORD
  5
584
330
1
100
AcDbSymbolTableRecord
100
AcDbBlockTableRecord
  2
*D49
340
0
  0
BLOCK_RECORD
  5
58C
330
1
100
AcDbSymbolTableRecord
100
AcDbBlockTableRecord
  2
*D50
340
0
  0
BLOCK_RECORD
  5
594
330
1
100
AcDbSymbolTableRecord
100
AcDbBlockTableRecord
  2
*D51
340
0
  0
BLOCK_RECORD
  5
59C
330
1
100
AcDbSymbolTableRecord
100
AcDbBlockTableRecord
  2
*D52
340
0
  0
BLOCK_RECORD
  5
5A4
330
1
100
AcDbSymbolTableRecord
100
AcDbBlockTableRecord
  2
*D53
340
0
  0
BLOCK_RECORD
  5
5AC
330
1
100
AcDbSymbolTableRecord
100
AcDbBlockTableRecord
  2
*D54
340
0
  0
BLOCK_RECORD
  5
5B4
330
1
100
AcDbSymbolTableRecord
100
AcDbBlockTableRecord
  2
*D55
340
0
  0
BLOCK_RECORD
  5
5BC
330
1
100
AcDbSymbolTableRecord
100
AcDbBlockTableRecord
  2
*D56
340
0
  0
BLOCK_RECORD
  5
5C4
330
1
100
AcDbSymbolTableRecord
100
AcDbBlockTableRecord
  2
*D57
340
0
  0
BLOCK_RECORD
  5
5CC
330
1
100
AcDbSymbolTableRecord
100
AcDbBlockTableRecord
  2
*D58
340
0
  0
BLOCK_RECORD
  5
5D6
330
1
100
AcDbSymbolTableRecord
100
AcDbBlockTableRecord
  2
*D59
340
0
  0
BLOCK_RECORD
  5
5E0
330
1
100
AcDbSymbolTableRecord
100
AcDbBlockTableRecord
  2
*D60
340
0
  0
BLOCK_RECORD
  5
5EA
330
1
100
AcDbSymbolTableRecord
100
AcDbBlockTableRecord
  2
*D61
340
0
  0
BLOCK_RECORD
  5
5F5
330
1
100
AcDbSymbolTableRecord
100
AcDbBlockTableRecord
  2
*D62
340
0
  0
BLOCK_RECORD
  5
600
330
1
100
AcDbSymbolTableRecord
100
AcDbBlockTableRecord
  2
*D63
340
0
  0
BLOCK_RECORD
  5
68D
330
1
100
AcDbSymbolTableRecord
100
AcDbBlockTableRecord
  2
*D65
340
0
  0
BLOCK_RECORD
  5
697
330
1
100
AcDbSymbolTableRecord
100
AcDbBlockTableRecord
  2
*D66
340
0
  0
BLOCK_RECORD
  5
6A1
330
1
100
AcDbSymbolTableRecord
100
AcDbBlockTableRecord
  2
*D67
340
0
  0
BLOCK_RECORD
  5
6A9
330
1
100
AcDbSymbolTableRecord
100
AcDbBlockTableRecord
  2
*D68
340
0
  0
BLOCK_RECORD
  5
6B1
330
1
100
AcDbSymbolTableRecord
100
AcDbBlockTableRecord
  2
*D69
340
0
  0
BLOCK_RECORD
  5
6B9
330
1
100
AcDbSymbolTableRecord
100
AcDbBlockTableRecord
  2
*D70
340
0
  0
BLOCK_RECORD
  5
6C1
330
1
100
AcDbSymbolTableRecord
100
AcDbBlockTableRecord
  2
*D71
340
0
  0
BLOCK_RECORD
  5
6C9
330
1
100
AcDbSymbolTableRecord
100
AcDbBlockTableRecord
  2
*D72
340
0
  0
BLOCK_RECORD
  5
6D1
330
1
100
AcDbSymbolTableRecord
100
AcDbBlockTableRecord
  2
*D73
340
0
  0
BLOCK_RECORD
  5
6D9
330
1
100
AcDbSymbolTableRecord
100
AcDbBlockTableRecord
  2
*D74
340
0
  0
BLOCK_RECORD
  5
6E4
330
1
100
AcDbSymbolTableRecord
100
AcDbBlockTableRecord
  2
*D75
340
0
  0
BLOCK_RECORD
  5
6EF
330
1
100
AcDbSymbolTableRecord
100
AcDbBlockTableRecord
  2
*D76
340
0
  0
BLOCK_RECORD
  5
6FA
330
1
100
AcDbSymbolTableRecord
100
AcDbBlockTableRecord
  2
*D77
340
0
  0
BLOCK_RECORD
  5
717
330
1
100
AcDbSymbolTableRecord
100
AcDbBlockTableRecord
  2
*D78
340
0
  0
BLOCK_RECORD
  5
71F
330
1
100
AcDbSymbolTableRecord
100
AcDbBlockTableRecord
  2
*D79
340
0
  0
BLOCK_RECORD
  5
731
330
1
100
AcDbSymbolTableRecord
100
AcDbBlockTableRecord
  2
*D80
340
0
  0
BLOCK_RECORD
  5
739
330
1
100
AcDbSymbolTableRecord
100
AcDbBlockTableRecord
  2
*D81
340
0
  0
BLOCK_RECORD
  5
741
330
1
100
AcDbSymbolTableRecord
100
AcDbBlockTableRecord
  2
*D82
340
0
  0
BLOCK_RECORD
  5
749
330
1
100
AcDbSymbolTableRecord
100
AcDbBlockTableRecord
  2
*D83
340
0
  0
BLOCK_RECORD
  5
756
330
1
100
AcDbSymbolTableRecord
100
AcDbBlockTableRecord
  2
*D84
340
0
  0
BLOCK_RECORD
  5
76D
330
1
100
AcDbSymbolTableRecord
100
AcDbBlockTableRecord
  2
*D85
340
0
  0
ENDTAB
  0
ENDSEC
  0
SECTION
  2
BLOCKS
  0
BLOCK
  5
20
330
1F
100
AcDbEntity
  8
0
100
AcDbBlockBegin
  2
*Model_Space
 70
     0
 10
0.0
 20
0.0
 30
0.0
  3
*Model_Space
  1

  0
ENDBLK
  5
21
330
1F
100
AcDbEntity
  8
0
100
AcDbBlockEnd
  0
BLOCK
  5
5A
330
58
100
AcDbEntity
 67
     1
  8
0
100
AcDbBlockBegin
  2
*Paper_Space
 70
     0
 10
0.0
 20
0.0
 30
0.0
  3
*Paper_Space
  1

  0
ENDBLK
  5
5B
330
58
100
AcDbEntity
 67
     1
  8
0
100
AcDbBlockEnd
  0
BLOCK
  5
5F
330
5D
100
AcDbEntity
  8
0
100
AcDbBlockBegin
  2
*Paper_Space0
 70
     0
 10
0.0
 20
0.0
 30
0.0
  3
*Paper_Space0
  1

  0
ENDBLK
  5
60
330
5D
100
AcDbEntity
  8
0
100
AcDbBlockEnd
  0
BLOCK
  5
305
330
304
100
AcDbEntity
  8
0
100
AcDbBlockBegin
  2
*D1
 70
     1
 10
0.0
 20
0.0
 30
0.0
  3
*D1
  1

  0
LINE
  5
306
330
304
100
AcDbEntity
  8
0
 62
     0
370
    -2
100
AcDbLine
 10
-10.01662089141294
 20
2.980037195910853
 30
0.0
 11
-10.76662089141294
 21
2.980037195910853
 31
0.0
  0
MTEXT
  5
307
330
304
100
AcDbEntity
  8
0
 62
     0
100
AcDbMText
 10
-12.02995422474627
 20
2.980037195910853
 30
0.0
 40
0.7040000000000001
 41
0.0
 71
     5
 72
     1
  1
\A1;0.000
 73
     1
 44
1.0
1001
ACAD
1000
MTEXTBEGIN
1070
    73
1070
     1
1070
    44
1040
1.0
1070
    74
1070
     0
1000
MTEXTEND
  0
POINT
  5
308
330
304
100
AcDbEntity
  8
Defpoints
 62
     0
100
AcDbPoint
 10
-9.766620891412939
 20
2.980037195910853
 30
0.0
  0
POINT
  5
309
330
304
100
AcDbEntity
  8
Defpoints
 62
     0
100
AcDbPoint
 10
-10.76662089141294
 20
2.980037195910853
 30
0.0
  0
POINT
  5
30A
330
304
100
AcDbEntity
  8
Defpoints
 62
     0
100
AcDbPoint
 10
-9.766620891412827
 20
2.980037195910853
 30
0.0
  0
ENDBLK
  5
30B
330
304
100
AcDbEntity
  8
0
100
AcDbBlockEnd
  0
BLOCK
  5
30D
330
30C
100
AcDbEntity
  8
0
100
AcDbBlockBegin
  2
*D2
 70
     1
 10
0.0
 20
0.0
 30
0.0
  3
*D2
  1

  0
LINE
  5
30E
330
30C
100
AcDbEntity
  8
0
 62
     0
370
    -2
100
AcDbLine
 10
-9.766620891412827
 20
2.730037195910853
 30
0.0
 11
-9.766620891412827
 21
1.980037195910853
 31
0.0
  0
MTEXT
  5
30F
330
30C
100
AcDbEntity
  8
0
 62
     0
100
AcDbMText
 10
-9.766620891412827
 20
0.7167038625775181
 30
0.0
 40
0.7040000000000001
 41
0.0
 71
     5
 72
     1
  1
\A1;0.000
 11
0.0000000000000001
 21
1.0
 31
0.0
 73
     1
 44
1.0
1001
ACAD
1000
MTEXTBEGIN
1070
    73
1070
     1
1070
    44
1040
1.0
1070
    74
1070
     0
1000
MTEXTEND
  0
POINT
  5
310
330
30C
100
AcDbEntity
  8
Defpoints
 62
     0
100
AcDbPoint
 10
-9.766620891412827
 20
2.980037195910853
 30
0.0
  0
POINT
  5
311
330
30C
100
AcDbEntity
  8
Defpoints
 62
     0
100
AcDbPoint
 10
-9.766620891412827
 20
1.980037195910853
 30
0.0
  0
POINT
  5
312
330
30C
100
AcDbEntity
  8
Defpoints
 62
     0
100
AcDbPoint
 10
-9.766620891412827
 20
2.980037195910853
 30
0.0
  0
ENDBLK
  5
313
330
30C
100
AcDbEntity
  8
0
100
AcDbBlockEnd
  0
BLOCK
  5
315
330
314
100
AcDbEntity
  8
0
100
AcDbBlockBegin
  2
*D3
 70
     1
 10
0.0
 20
0.0
 30
0.0
  3
*D3
  1

  0
LINE
  5
316
330
314
100
AcDbEntity
  8
0
 62
     0
370
    -2
100
AcDbLine
 10
-0.4266208914128528
 20
5.570037195910797
 30
0.0
 11
1.913379108587226
 21
5.570037195910841
 31
0.0
  0
MTEXT
  5
317
330
314
100
AcDbEntity
  8
0
 62
     0
100
AcDbMText
 10
3.35271244192056
 20
5.570037195910841
 30
0.0
 40
0.7040000000000001
 41
0.0
 71
     5
 72
     1
  1
\A1;2.590
 73
     1
 44
1.0
1001
ACAD
1000
MTEXTBEGIN
1070
    73
1070
     1
1070
    44
1040
1.0
1070
    74
1070
     0
1000
MTEXTEND
  0
POINT
  5
318
330
314
100
AcDbEntity
  8
Defpoints
 62
     0
100
AcDbPoint
 10
-0.6766208914128528
 20
5.570037195910797
 30
0.0
  0
POINT
  5
319
330
314
100
AcDbEntity
  8
Defpoints
 62
     0
100
AcDbPoint
 10
1.913379108587226
 20
5.570037195910841
 30
0.0
  0
POINT
  5
31A
330
314
100
AcDbEntity
  8
Defpoints
 62
     0
100
AcDbPoint
 10
-9.766620891412827
 20
2.980037195910853
 30
0.0
  0
ENDBLK
  5
31B
330
314
100
AcDbEntity
  8
0
100
AcDbBlockEnd
  0
BLOCK
  5
31D
330
31C
100
AcDbEntity
  8
0
100
AcDbBlockBegin
  2
*D4
 70
     1
 10
0.0
 20
0.0
 30
0.0
  3
*D4
  1

  0
LINE
  5
31E
330
31C
100
AcDbEntity
  8
0
 62
     0
370
    -2
100
AcDbLine
 10
-8.176620891412794
 20
5.320037195910798
 30
0.0
 11
-8.176620891412794
 21
1.98003719591086
 31
0.0
  0
MTEXT
  5
31F
330
31C
100
AcDbEntity
  8
0
 62
     0
100
AcDbMText
 10
-8.176620891412794
 20
0.6580371959108607
 30
0.0
 40
0.7040000000000001
 41
0.0
 71
     5
 72
     1
  1
\A1;1.590
 11
0.0000000000000001
 21
1.0
 31
0.0
 73
     1
 44
1.0
1001
ACAD
1000
MTEXTBEGIN
1070
    73
1070
     1
1070
    44
1040
1.0
1070
    74
1070
     0
1000
MTEXTEND
  0
POINT
  5
320
330
31C
100
AcDbEntity
  8
Defpoints
 62
     0
100
AcDbPoint
 10
-8.176620891412794
 20
5.570037195910797
 30
0.0
  0
POINT
  5
321
330
31C
100
AcDbEntity
  8
Defpoints
 62
     0
100
AcDbPoint
 10
-8.176620891412794
 20
1.98003719591086
 30
0.0
  0
POINT
  5
322
330
31C
100
AcDbEntity
  8
Defpoints
 62
     0
100
AcDbPoint
 10
-9.766620891412827
 20
2.980037195910853
 30
0.0
  0
ENDBLK
  5
323
330
31C
100
AcDbEntity
  8
0
100
AcDbBlockEnd
  0
BLOCK
  5
325
330
324
100
AcDbEntity
  8
0
100
AcDbBlockBegin
  2
*D5
 70
     1
 10
0.0
 20
0.0
 30
0.0
  3
*D5
  1

  0
LINE
  5
326
330
324
100
AcDbEntity
  8
0
 62
     0
370
    -2
100
AcDbLine
 10
-0.6766208914128528
 20
5.320037195910798
 30
0.0
 11
-0.6766208914128528
 21
1.9800371959109
 31
0.0
  0
MTEXT
  5
327
330
324
100
AcDbEntity
  8
0
 62
     0
100
AcDbMText
 10
-0.6766208914128531
 20
0.5993705292442347
 30
0.0
 40
0.7040000000000001
 41
0.0
 71
     5
 72
     1
  1
\A1;9.090
 11
0.0000000000000001
 21
1.0
 31
0.0
 73
     1
 44
1.0
1001
ACAD
1000
MTEXTBEGIN
1070
    73
1070
     1
1070
    44
1040
1.0
1070
    74
1070
     0
1000
MTEXTEND
  0
POINT
  5
328
330
324
100
AcDbEntity
  8
Defpoints
 62
     0
100
AcDbPoint
 10
-0.6766208914128528
 20
5.570037195910797
 30
0.0
  0
POINT
  5
329
330
324
100
AcDbEntity
  8
Defpoints
 62
     0
100
AcDbPoint
 10
-0.6766208914128528
 20
1.9800371959109
 30
0.0
  0
POINT
  5
32A
330
324
100
AcDbEntity
  8
Defpoints
 62
     0
100
AcDbPoint
 10
-9.766620891412827
 20
2.980037195910853
 30
0.0
  0
ENDBLK
  5
32B
330
324
100
AcDbEntity
  8
0
100
AcDbBlockEnd
  0
BLOCK
  5
32D
330
32C
100
AcDbEntity
  8
0
100
AcDbBlockBegin
  2
*D6
 70
     1
 10
0.0
 20
0.0
 30
0.0
  3
*D6
  1

  0
LINE
  5
32E
330
32C
100
AcDbEntity
  8
0
 62
     0
370
    -2
100
AcDbLine
 10
-0.4266208914128528
 20
12.57003719591083
 30
0.0
 11
1.913379108587205
 21
12.57003719591087
 31
0.0
  0
MTEXT
  5
32F
330
32C
100
AcDbEntity
  8
0
 62
     0
100
AcDbMText
 10
3.352712441920538
 20
12.57003719591087
 30
0.0
 40
0.7040000000000001
 41
0.0
 71
     5
 72
     1
  1
\A1;9.590
 73
     1
 44
1.0
1001
ACAD
1000
MTEXTBEGIN
1070
    73
1070
     1
1070
    44
1040
1.0
1070
    74
1070
     0
1000
MTEXTEND
  0
POINT
  5
330
330
32C
100
AcDbEntity
  8
Defpoints
 62
     0
100
AcDbPoint
 10
-0.6766208914128528
 20
12.57003719591083
 30
0.0
  0
POINT
  5
331
330
32C
100
AcDbEntity
  8
Defpoints
 62
     0
100
AcDbPoint
 10
1.913379108587205
 20
12.57003719591087
 30
0.0
  0
POINT
  5
332
330
32C
100
AcDbEntity
  8
Defpoints
 62
     0
100
AcDbPoint
 10
-9.766620891412827
 20
2.980037195910853
 30
0.0
  0
ENDBLK
  5
333
330
32C
100
AcDbEntity
  8
0
100
AcDbBlockEnd
  0
BLOCK
  5
335
330
334
100
AcDbEntity
  8
0
100
AcDbBlockBegin
  2
*D7
 70
     1
 10
0.0
 20
0.0
 30
0.0
  3
*D7
  1

  0
LINE
  5
336
330
334
100
AcDbEntity
  8
0
 62
     0
370
    -2
100
AcDbLine
 10
-9.516620891412882
 20
15.01183597998152
 30
0.0
 11
-10.7666208914129
 21
15.01183597998152
 31
0.0
  0
MTEXT
  5
337
330
334
100
AcDbEntity
  8
0
 62
     0
100
AcDbMText
 10
-12.4406208914129
 20
15.01183597998152
 30
0.0
 40
0.7040000000000001
 41
0.0
 71
     5
 72
     1
  1
\A1;12.032
 73
     1
 44
1.0
1001
ACAD
1000
MTEXTBEGIN
1070
    73
1070
     1
1070
    44
1040
1.0
1070
    74
1070
     0
1000
MTEXTEND
  0
POINT
  5
338
330
334
100
AcDbEntity
  8
Defpoints
 62
     0
100
AcDbPoint
 10
-9.266620891412882
 20
15.01183597998152
 30
0.0
  0
POINT
  5
339
330
334
100
AcDbEntity
  8
Defpoints
 62
     0
100
AcDbPoint
 10
-10.7666208914129
 20
15.01183597998152
 30
0.0
  0
POINT
  5
33A
330
334
100
AcDbEntity
  8
Defpoints
 62
     0
100
AcDbPoint
 10
-9.766620891412827
 20
2.980037195910853
 30
0.0
  0
ENDBLK
  5
33B
330
334
100
AcDbEntity
  8
0
100
AcDbBlockEnd
  0
BLOCK
  5
33D
330
33C
100
AcDbEntity
  8
0
100
AcDbBlockBegin
  2
*D8
 70
     1
 10
0.0
 20
0.0
 30
0.0
  3
*D8
  1

  0
LINE
  5
33E
330
33C
100
AcDbEntity
  8
0
 62
     0
370
    -2
100
AcDbLine
 10
-9.516620891412882
 20
18.1180859799818
 30
0.0
 11
-10.76662089141289
 21
18.1180859799818
 31
0.0
  0
MTEXT
  5
33F
330
33C
100
AcDbEntity
  8
0
 62
     0
100
AcDbMText
 10
-12.38195422474622
 20
18.1180859799818
 30
0.0
 40
0.7040000000000001
 41
0.0
 71
     5
 72
     1
  1
\A1;15.138
 73
     1
 44
1.0
1001
ACAD
1000
MTEXTBEGIN
1070
    73
1070
     1
1070
    44
1040
1.0
1070
    74
1070
     0
1000
MTEXTEND
  0
POINT
  5
340
330
33C
100
AcDbEntity
  8
Defpoints
 62
     0
100
AcDbPoint
 10
-9.266620891412882
 20
18.1180859799818
 30
0.0
  0
POINT
  5
341
330
33C
100
AcDbEntity
  8
Defpoints
 62
     0
100
AcDbPoint
 10
-10.76662089141289
 20
18.1180859799818
 30
0.0
  0
POINT
  5
342
330
33C
100
AcDbEntity
  8
Defpoints
 62
     0
100
AcDbPoint
 10
-9.766620891412827
 20
2.980037195910853
 30
0.0
  0
ENDBLK
  5
343
330
33C
100
AcDbEntity
  8
0
100
AcDbBlockEnd
  0
BLOCK
  5
345
330
344
100
AcDbEntity
  8
0
100
AcDbBlockBegin
  2
*D9
 70
     1
 10
0.0
 20
0.0
 30
0.0
  3
*D9
  1

  0
LINE
  5
346
330
344
100
AcDbEntity
  8
0
 62
     0
370
    -2
100
AcDbLine
 10
-0.4266208914128528
 20
23.57003719591091
 30
0.0
 11
1.913379108587168
 21
23.57003719591091
 31
0.0
  0
MTEXT
  5
347
330
344
100
AcDbEntity
  8
0
 62
     0
100
AcDbMText
 10
3.646045775253834
 20
23.57003719591091
 30
0.0
 40
0.7040000000000001
 41
0.0
 71
     5
 72
     1
  1
\A1;20.590
 73
     1
 44
1.0
1001
ACAD
1000
MTEXTBEGIN
1070
    73
1070
     1
1070
    44
1040
1.0
1070
    74
1070
     0
1000
MTEXTEND
  0
POINT
  5
348
330
344
100
AcDbEntity
  8
Defpoints
 62
     0
100
AcDbPoint
 10
-0.6766208914128528
 20
23.57003719591091
 30
0.0
  0
POINT
  5
349
330
344
100
AcDbEntity
  8
Defpoints
 62
     0
100
AcDbPoint
 10
1.913379108587168
 20
23.57003719591091
 30
0.0
  0
POINT
  5
34A
330
344
100
AcDbEntity
  8
Defpoints
 62
     0
100
AcDbPoint
 10
-9.766620891412827
 20
2.980037195910853
 30
0.0
  0
ENDBLK
  5
34B
330
344
100
AcDbEntity
  8
0
100
AcDbBlockEnd
  0
BLOCK
  5
34D
330
34C
100
AcDbEntity
  8
0
100
AcDbBlockBegin
  2
*D10
 70
     1
 10
0.0
 20
0.0
 30
0.0
  3
*D10
  1

  0
LINE
  5
34E
330
34C
100
AcDbEntity
  8
0
 62
     0
370
    -2
100
AcDbLine
 10
-0.0086845797285662
 20
28.69455855231413
 30
0.0
 11
1.913379108587151
 21
28.69455855231413
 31
0.0
  0
MTEXT
  5
34F
330
34C
100
AcDbEntity
  8
0
 62
     0
100
AcDbMText
 10
3.646045775253818
 20
28.69455855231413
 30
0.0
 40
0.7040000000000001
 41
0.0
 71
     5
 72
     1
  1
\A1;25.715
 73
     1
 44
1.0
1001
ACAD
1000
MTEXTBEGIN
1070
    73
1070
     1
1070
    44
1040
1.0
1070
    74
1070
     0
1000
MTEXTEND
  0
POINT
  5
350
330
34C
100
AcDbEntity
  8
Defpoints
 62
     0
100
AcDbPoint
 10
-0.2586845797285662
 20
28.69455855231413
 30
0.0
  0
POINT
  5
351
330
34C
100
AcDbEntity
  8
Defpoints
 62
     0
100
AcDbPoint
 10
1.913379108587151
 20
28.69455855231413
 30
0.0
  0
POINT
  5
352
330
34C
100
AcDbEntity
  8
Defpoints
 62
     0
100
AcDbPoint
 10
-9.766620891412827
 20
2.980037195910853
 30
0.0
  0
ENDBLK
  5
353
330
34C
100
AcDbEntity
  8
0
100
AcDbBlockEnd
  0
BLOCK
  5
355
330
354
100
AcDbEntity
  8
0
100
AcDbBlockBegin
  2
*D11
 70
     1
 10
0.0
 20
0.0
 30
0.0
  3
*D11
  1

  0
LINE
  5
356
330
354
100
AcDbEntity
  8
0
 62
     0
370
    -2
100
AcDbLine
 10
-4.676620891412794
 20
32.74463015287159
 30
0.0
 11
-10.76662089141284
 21
32.74463015287164
 31
0.0
  0
MTEXT
  5
357
330
354
100
AcDbEntity
  8
0
 62
     0
100
AcDbMText
 10
-12.61662089141284
 20
32.74463015287164
 30
0.0
 40
0.7040000000000001
 41
0.0
 71
     5
 72
     1
  1
\A1;29.765
 73
     1
 44
1.0
1001
ACAD
1000
MTEXTBEGIN
1070
    73
1070
     1
1070
    44
1040
1.0
1070
    74
1070
     0
1000
MTEXTEND
  0
POINT
  5
358
330
354
100
AcDbEntity
  8
Defpoints
 62
     0
100
AcDbPoint
 10
-4.426620891412794
 20
32.74463015287159
 30
0.0
  0
POINT
  5
359
330
354
100
AcDbEntity
  8
Defpoints
 62
     0
100
AcDbPoint
 10
-10.76662089141284
 20
32.74463015287164
 30
0.0
  0
POINT
  5
35A
330
354
100
AcDbEntity
  8
Defpoints
 62
     0
100
AcDbPoint
 10
-9.766620891412827
 20
2.980037195910853
 30
0.0
  0
ENDBLK
  5
35B
330
354
100
AcDbEntity
  8
0
100
AcDbBlockEnd
  0
BLOCK
  5
35D
330
35C
100
AcDbEntity
  8
0
100
AcDbBlockBegin
  2
*D12
 70
     1
 10
0.0
 20
0.0
 30
0.0
  3
*D12
  1

  0
LINE
  5
35E
330
35C
100
AcDbEntity
  8
0
 62
     0
370
    -2
100
AcDbLine
 10
-4.426620891412851
 20
32.99463015287159
 30
0.0
 11
-4.426620891412887
 21
39.1600371959108
 31
0.0
  0
MTEXT
  5
35F
330
35C
100
AcDbEntity
  8
0
 62
     0
100
AcDbMText
 10
-4.426620891412891
 20
40.59937052924412
 30
0.0
 40
0.7040000000000001
 41
0.0
 71
     5
 72
     1
  1
\A1;5.340
 11
0.0000000000000001
 21
1.0
 31
0.0
 73
     1
 44
1.0
1001
ACAD
1000
MTEXTBEGIN
1070
    73
1070
     1
1070
    44
1040
1.0
1070
    74
1070
     0
1000
MTEXTEND
  0
POINT
  5
360
330
35C
100
AcDbEntity
  8
Defpoints
 62
     0
100
AcDbPoint
 10
-4.426620891412851
 20
32.74463015287159
 30
0.0
  0
POINT
  5
361
330
35C
100
AcDbEntity
  8
Defpoints
 62
     0
100
AcDbPoint
 10
-4.426620891412887
 20
39.1600371959108
 30
0.0
  0
POINT
  5
362
330
35C
100
AcDbEntity
  8
Defpoints
 62
     0
100
AcDbPoint
 10
-9.766620891412827
 20
2.980037195910853
 30
0.0
  0
ENDBLK
  5
363
330
35C
100
AcDbEntity
  8
0
100
AcDbBlockEnd
  0
BLOCK
  5
365
330
364
100
AcDbEntity
  8
0
100
AcDbBlockBegin
  2
*D13
 70
     1
 10
0.0
 20
0.0
 30
0.0
  3
*D13
  1

  0
LINE
  5
366
330
364
100
AcDbEntity
  8
0
 62
     0
370
    -2
100
AcDbLine
 10
-0.4266208914128528
 20
37.0700371959108
 30
0.0
 11
1.913379108587125
 21
37.0700371959108
 31
0.0
  0
MTEXT
  5
367
330
364
100
AcDbEntity
  8
0
 62
     0
100
AcDbMText
 10
3.646045775253791
 20
37.0700371959108
 30
0.0
 40
0.7040000000000001
 41
0.0
 71
     5
 72
     1
  1
\A1;34.090
 73
     1
 44
1.0
1001
ACAD
1000
MTEXTBEGIN
1070
    73
1070
     1
1070
    44
1040
1.0
1070
    74
1070
     0
1000
MTEXTEND
  0
POINT
  5
368
330
364
100
AcDbEntity
  8
Defpoints
 62
     0
100
AcDbPoint
 10
-0.6766208914128528
 20
37.0700371959108
 30
0.0
  0
POINT
  5
369
330
364
100
AcDbEntity
  8
Defpoints
 62
     0
100
AcDbPoint
 10
1.913379108587125
 20
37.0700371959108
 30
0.0
  0
POINT
  5
36A
330
364
100
AcDbEntity
  8
Defpoints
 62
     0
100
AcDbPoint
 10
-9.766620891412827
 20
2.980037195910853
 30
0.0
  0
ENDBLK
  5
36B
330
364
100
AcDbEntity
  8
0
100
AcDbBlockEnd
  0
BLOCK
  5
36D
330
36C
100
AcDbEntity
  8
0
100
AcDbBlockBegin
  2
*D14
 70
     1
 10
0.0
 20
0.0
 30
0.0
  3
*D14
  1

  0
LINE
  5
36E
330
36C
100
AcDbEntity
  8
0
 62
     0
370
    -2
100
AcDbLine
 10
0.9133791085871223
 20
38.41003719591083
 30
0.0
 11
0.9133791085871223
 21
39.16003719591083
 31
0.0
  0
MTEXT
  5
36F
330
36C
100
AcDbEntity
  8
0
 62
     0
100
AcDbMText
 10
0.9133791085871159
 20
40.77537052924415
 30
0.0
 40
0.7040000000000001
 41
0.0
 71
     5
 72
     1
  1
\A1;10.680
 11
0.0000000000000001
 21
1.0
 31
0.0
 73
     1
 44
1.0
1001
ACAD
1000
MTEXTBEGIN
1070
    73
1070
     1
1070
    44
1040
1.0
1070
    74
1070
     0
1000
MTEXTEND
  0
POINT
  5
370
330
36C
100
AcDbEntity
  8
Defpoints
 62
     0
100
AcDbPoint
 10
0.9133791085871223
 20
38.16003719591083
 30
0.0
  0
POINT
  5
371
330
36C
100
AcDbEntity
  8
Defpoints
 62
     0
100
AcDbPoint
 10
0.9133791085871223
 20
39.16003719591083
 30
0.0
  0
POINT
  5
372
330
36C
100
AcDbEntity
  8
Defpoints
 62
     0
100
AcDbPoint
 10
-9.766620891412827
 20
2.980037195910853
 30
0.0
  0
ENDBLK
  5
373
330
36C
100
AcDbEntity
  8
0
100
AcDbBlockEnd
  0
BLOCK
  5
375
330
374
100
AcDbEntity
  8
0
100
AcDbBlockBegin
  2
*D15
 70
     1
 10
0.0
 20
0.0
 30
0.0
  3
*D15
  1

  0
LINE
  5
376
330
374
100
AcDbEntity
  8
0
 62
     0
370
    -2
100
AcDbLine
 10
1.163379108587122
 20
38.16003719591083
 30
0.0
 11
1.913379108587121
 21
38.16003719591083
 31
0.0
  0
MTEXT
  5
377
330
374
100
AcDbEntity
  8
0
 62
     0
100
AcDbMText
 10
3.587379108587121
 20
38.16003719591083
 30
0.0
 40
0.7040000000000001
 41
0.0
 71
     5
 72
     1
  1
\A1;35.180
 73
     1
 44
1.0
1001
ACAD
1000
MTEXTBEGIN
1070
    73
1070
     1
1070
    44
1040
1.0
1070
    74
1070
     0
1000
MTEXTEND
  0
POINT
  5
378
330
374
100
AcDbEntity
  8
Defpoints
 62
     0
100
AcDbPoint
 10
0.9133791085871223
 20
38.16003719591083
 30
0.0
  0
POINT
  5
379
330
374
100
AcDbEntity
  8
Defpoints
 62
     0
100
AcDbPoint
 10
1.913379108587121
 20
38.16003719591083
 30
0.0
  0
POINT
  5
37A
330
374
100
AcDbEntity
  8
Defpoints
 62
     0
100
AcDbPoint
 10
-9.766620891412827
 20
2.980037195910853
 30
0.0
  0
ENDBLK
  5
37B
330
374
100
AcDbEntity
  8
0
100
AcDbBlockEnd
  0
BLOCK
  5
37D
330
37C
100
AcDbEntity
  8
0
100
AcDbBlockBegin
  2
*D16
 70
     1
 10
0.0
 20
0.0
 30
0.0
  3
*D16
  1

  0
LINE
  5
37E
330
37C
100
AcDbEntity
  8
0
 62
     0
370
    -2
100
AcDbLine
 10
-0.2586845797285662
 20
28.44455855231414
 30
0.0
 11
-0.2586845797285664
 21
27.61979745013329
 31
0.0
  0
LINE
  5
37F
330
37C
100
AcDbEntity
  8
0
 62
     0
370
    -2
100
AcDbLine
 10
-0.2586845797285664
 20
27.61979745013329
 30
0.0
 11
-1.26153583616417
 21
27.25979745013329
 31
0.0
  0
LINE
  5
380
330
37C
100
AcDbEntity
  8
0
 62
     0
370
    -2
100
AcDbLine
 10
-1.26153583616417
 20
27.25979745013329
 30
0.0
 11
-1.26153583616417
 21
26.89979745013329
 31
0.0
  0
MTEXT
  5
381
330
37C
100
AcDbEntity
  8
0
 62
     0
100
AcDbMText
 10
-1.261535836164175
 20
25.46046411679996
 30
0.0
 40
0.7040000000000001
 41
0.0
 71
     5
 72
     1
  1
\A1;9.508
 11
0.0000000000000001
 21
1.0
 31
0.0
 73
     1
 44
1.0
1001
ACAD
1000
MTEXTBEGIN
1070
    73
1070
     1
1070
    44
1040
1.0
1070
    74
1070
     0
1000
MTEXTEND
  0
POINT
  5
382
330
37C
100
AcDbEntity
  8
Defpoints
 62
     0
100
AcDbPoint
 10
-0.2586845797285662
 20
28.69455855231413
 30
0.0
  0
POINT
  5
383
330
37C
100
AcDbEntity
  8
Defpoints
 62
     0
100
AcDbPoint
 10
-1.26153583616417
 20
26.89979745013329
 30
0.0
  0
POINT
  5
384
330
37C
100
AcDbEntity
  8
Defpoints
 62
     0
100
AcDbPoint
 10
-9.766620891412827
 20
2.980037195910853
 30
0.0
  0
ENDBLK
  5
385
330
37C
100
AcDbEntity
  8
0
100
AcDbBlockEnd
  0
BLOCK
  5
387
330
386
100
AcDbEntity
  8
0
100
AcDbBlockBegin
  2
*D17
 70
     1
 10
0.0
 20
0.0
 30
0.0
  3
*D17
  1

  0
LINE
  5
388
330
386
100
AcDbEntity
  8
0
 62
     0
370
    -2
100
AcDbLine
 10
-9.266620891412882
 20
14.76183597998153
 30
0.0
 11
-9.266620891412882
 21
13.60903457198342
 31
0.0
  0
LINE
  5
389
330
386
100
AcDbEntity
  8
0
 62
     0
370
    -2
100
AcDbLine
 10
-9.266620891412882
 20
13.60903457198342
 30
0.0
 11
-6.872217601492593
 21
13.24903457198341
 31
0.0
  0
LINE
  5
38A
330
386
100
AcDbEntity
  8
0
 62
     0
370
    -2
100
AcDbLine
 10
-6.872217601492593
 20
13.24903457198341
 30
0.0
 11
-6.872217601492593
 21
12.88903457198341
 31
0.0
  0
MTEXT
  5
38B
330
386
100
AcDbEntity
  8
0
 62
     0
100
AcDbMText
 10
-6.872217601492594
 20
11.56703457198341
 30
0.0
 40
0.7040000000000001
 41
0.0
 71
     5
 72
     1
  1
\A1;0.500
 11
0.0000000000000001
 21
1.0
 31
0.0
 73
     1
 44
1.0
1001
ACAD
1000
MTEXTBEGIN
1070
    73
1070
     1
1070
    44
1040
1.0
1070
    74
1070
     0
1000
MTEXTEND
  0
POINT
  5
38C
330
386
100
AcDbEntity
  8
Defpoints
 62
     0
100
AcDbPoint
 10
-9.266620891412882
 20
15.01183597998152
 30
0.0
  0
POINT
  5
38D
330
386
100
AcDbEntity
  8
Defpoints
 62
     0
100
AcDbPoint
 10
-6.872217601492593
 20
12.88903457198341
 30
0.0
  0
POINT
  5
38E
330
386
100
AcDbEntity
  8
Defpoints
 62
     0
100
AcDbPoint
 10
-9.766620891412827
 20
2.980037195910853
 30
0.0
  0
ENDBLK
  5
38F
330
386
100
AcDbEntity
  8
0
100
AcDbBlockEnd
  0
BLOCK
  5
391
330
390
100
AcDbEntity
  8
0
100
AcDbBlockBegin
  2
*D18
 70
     1
 10
0.0
 20
0.0
 30
0.0
  3
*D18
  1

  0
LINE
  5
392
330
390
100
AcDbEntity
  8
0
 62
     0
370
    -2
100
AcDbLine
 10
0.4133791085871791
 20
14.7618359799815
 30
0.0
 11
0.413379108587179
 21
13.60903457198342
 31
0.0
  0
LINE
  5
393
330
390
100
AcDbEntity
  8
0
 62
     0
370
    -2
100
AcDbLine
 10
0.413379108587179
 20
13.60903457198342
 30
0.0
 11
-1.981024181333054
 21
13.24903457198341
 31
0.0
  0
LINE
  5
394
330
390
100
AcDbEntity
  8
0
 62
     0
370
    -2
100
AcDbLine
 10
-1.981024181333054
 20
13.24903457198341
 30
0.0
 11
-1.981024181333054
 21
12.88903457198341
 31
0.0
  0
MTEXT
  5
395
330
390
100
AcDbEntity
  8
0
 62
     0
100
AcDbMText
 10
-1.981024181333056
 20
11.39103457198341
 30
0.0
 40
0.7040000000000001
 41
0.0
 71
     5
 72
     1
  1
\A1;10.180
 11
0.0000000000000001
 21
1.0
 31
0.0
 73
     1
 44
1.0
1001
ACAD
1000
MTEXTBEGIN
1070
    73
1070
     1
1070
    44
1040
1.0
1070
    74
1070
     0
1000
MTEXTEND
  0
POINT
  5
396
330
390
100
AcDbEntity
  8
Defpoints
 62
     0
100
AcDbPoint
 10
0.4133791085871792
 20
15.01183597998149
 30
0.0
  0
POINT
  5
397
330
390
100
AcDbEntity
  8
Defpoints
 62
     0
100
AcDbPoint
 10
-1.981024181333054
 20
12.88903457198341
 30
0.0
  0
POINT
  5
398
330
390
100
AcDbEntity
  8
Defpoints
 62
     0
100
AcDbPoint
 10
-9.766620891412827
 20
2.980037195910853
 30
0.0
  0
ENDBLK
  5
399
330
390
100
AcDbEntity
  8
0
100
AcDbBlockEnd
  0
BLOCK
  5
39B
330
39A
100
AcDbEntity
  8
0
100
AcDbBlockBegin
  2
*D19
 70
     1
 10
0.0
 20
0.0
 30
0.0
  3
*D19
  1

  0
LINE
  5
39C
330
39A
100
AcDbEntity
  8
0
 62
     0
370
    -2
100
AcDbLine
 10
2.617379108587154
 20
31.68138376156747
 30
0.0
 11
1.913379108587154
 21
31.68138376156747
 31
0.0
  0
LINE
  5
39D
330
39A
100
AcDbEntity
  8
0
 62
     0
370
    -2
100
AcDbLine
 10
1.913379108587154
 20
31.68138376156747
 30
0.0
 11
0.5229549278414522
 21
29.76939839164169
 31
0.0
  0
MTEXT
  5
39E
330
39A
100
AcDbEntity
  8
0
 62
     0
100
AcDbMText
 10
4.291379108587153
 20
31.68138376156747
 30
0.0
 40
0.7040000000000001
 41
0.0
 71
     5
 72
     1
  1
\A1;\U+22051.250
 73
     1
 44
1.0
1001
ACAD
1000
MTEXTBEGIN
1070
    73
1070
     1
1070
    44
1040
1.0
1070
    74
1070
     0
1000
MTEXTEND
  0
SOLID
  5
39F
330
39A
100
AcDbEntity
  8
0
 62
     0
100
AcDbTrace
 10
0.4280606154654035
 20
29.83840694610988
 30
0.0
 11
0.6178492402175007
 21
29.70038983717351
 31
0.0
 12
0.1089036010323525
 22
29.20003251738542
 32
0.0
 13
0.1089036010323525
 23
29.20003251738542
 33
0.0
  0
LINE
  5
3A0
330
39A
100
AcDbEntity
  8
0
 62
     0
370
    -2
100
AcDbLine
 10
-0.348684579728566
 20
28.69455855231413
 30
0.0
 11
-0.1686845797285681
 21
28.69455855231413
 31
0.0
  0
LINE
  5
3A1
330
39A
100
AcDbEntity
  8
0
 62
     0
370
    -2
100
AcDbLine
 10
-0.2586845797285679
 20
28.60455855231413
 30
0.0
 11
-0.2586845797285662
 21
28.78455855231413
 31
0.0
  0
POINT
  5
3A2
330
39A
100
AcDbEntity
  8
Defpoints
 62
     0
100
AcDbPoint
 10
0.1089036010323525
 20
29.20003251738542
 30
0.0
  0
POINT
  5
3A3
330
39A
100
AcDbEntity
  8
Defpoints
 62
     0
100
AcDbPoint
 10
-0.6262727604894849
 20
28.18908458724286
 30
0.0
  0
ENDBLK
  5
3A4
330
39A
100
AcDbEntity
  8
0
100
AcDbBlockEnd
  0
BLOCK
  5
3A6
330
3A5
100
AcDbEntity
  8
0
100
AcDbBlockBegin
  2
*D20
 70
     1
 10
0.0
 20
0.0
 30
0.0
  3
*D20
  1

  0
LINE
  5
3A7
330
3A5
100
AcDbEntity
  8
0
 62
     0
370
    -2
100
AcDbLine
 10
2.617379108587148
 20
20.53861155350523
 30
0.0
 11
1.913379108587147
 21
20.53861155350523
 31
0.0
  0
LINE
  5
3A8
330
3A5
100
AcDbEntity
  8
0
 62
     0
370
    -2
100
AcDbLine
 10
1.913379108587147
 20
20.53861155350523
 30
0.0
 11
-0.0975192938573955
 21
22.89223664286547
 31
0.0
  0
MTEXT
  5
3A9
330
3A5
100
AcDbEntity
  8
0
 62
     0
100
AcDbMText
 10
5.582045775253818
 20
20.53861155350523
 30
0.0
 40
0.7040000000000001
 41
0.0
 71
     5
 72
     1
  1
\A1;\U+22050.375 (8)
 73
     1
 44
1.0
1001
ACAD
1000
MTEXTBEGIN
1070
    73
1070
     1
1070
    44
1040
1.0
1070
    74
1070
     0
1000
MTEXTEND
  0
SOLID
  5
3AA
330
3A5
100
AcDbEntity
  8
0
 62
     0
100
AcDbTrace
 10
-0.008311668255601
 20
22.96845416477219
 30
0.0
 11
-0.1867269194591881
 21
22.81601912095875
 31
0.0
 12
-0.5548244252977117
 22
23.42748239647623
 32
0.0
 13
-0.5548244252977117
 23
23.42748239647623
 33
0.0
  0
LINE
  5
3AB
330
3A5
100
AcDbEntity
  8
0
 62
     0
370
    -2
100
AcDbLine
 10
-0.7666208914128509
 20
23.57003719591091
 30
0.0
 11
-0.5866208914128511
 21
23.57003719591092
 31
0.0
  0
LINE
  5
3AC
330
3A5
100
AcDbEntity
  8
0
 62
     0
370
    -2
100
AcDbLine
 10
-0.6766208914128545
 20
23.48003719591091
 30
0.0
 11
-0.6766208914128509
 21
23.66003719591092
 31
0.0
  0
POINT
  5
3AD
330
3A5
100
AcDbEntity
  8
Defpoints
 62
     0
100
AcDbPoint
 10
-0.5548244252977117
 20
23.42748239647623
 30
0.0
  0
POINT
  5
3AE
330
3A5
100
AcDbEntity
  8
Defpoints
 62
     0
100
AcDbPoint
 10
-0.7984173575279936
 20
23.7125919953456
 30
0.0
  0
ENDBLK
  5
3AF
330
3A5
100
AcDbEntity
  8
0
100
AcDbBlockEnd
  0
BLOCK
  5
3B1
330
3B0
100
AcDbEntity
  8
0
100
AcDbBlockBegin
  2
*D21
 70
     1
 10
0.0
 20
0.0
 30
0.0
  3
*D21
  1

  0
LINE
  5
3B2
330
3B0
100
AcDbEntity
  8
0
 62
     0
370
    -2
100
AcDbLine
 10
2.617379108587138
 20
35.26124402915849
 30
0.0
 11
1.913379108587138
 21
35.26124402915849
 31
0.0
  0
LINE
  5
3B3
330
3B0
100
AcDbEntity
  8
0
 62
     0
370
    -2
100
AcDbLine
 10
1.913379108587138
 20
35.26124402915849
 30
0.0
 11
-0.9839252373510447
 21
34.11118151798902
 31
0.0
  0
MTEXT
  5
3B4
330
3B0
100
AcDbEntity
  8
0
 62
     0
100
AcDbMText
 10
4.291379108587138
 20
35.26124402915849
 30
0.0
 40
0.7040000000000001
 41
0.0
 71
     5
 72
     1
  1
\A1;\U+22056.000
 73
     1
 44
1.0
1001
ACAD
1000
MTEXTBEGIN
1070
    73
1070
     1
1070
    44
1040
1.0
1070
    74
1070
     0
1000
MTEXTEND
  0
SOLID
  5
3B5
330
3B0
100
AcDbEntity
  8
0
 62
     0
100
AcDbTrace
 10
-1.027214121487235
 20
34.22023739183979
 30
0.0
 11
-0.9406363532148541
 21
34.00212564413826
 31
0.0
 12
-1.638260480455653
 22
33.85144821317189
 32
0.0
 13
-1.638260480455653
 23
33.85144821317189
 33
0.0
  0
LINE
  5
3B6
330
3B0
100
AcDbEntity
  8
0
 62
     0
370
    -2
100
AcDbLine
 10
-4.516620891412797
 20
32.74463015287159
 30
0.0
 11
-4.336620891412796
 21
32.74463015287159
 31
0.0
  0
LINE
  5
3B7
330
3B0
100
AcDbEntity
  8
0
 62
     0
370
    -2
100
AcDbLine
 10
-4.426620891412797
 20
32.65463015287159
 30
0.0
 11
-4.426620891412796
 21
32.83463015287159
 31
0.0
  0
POINT
  5
3B8
330
3B0
100
AcDbEntity
  8
Defpoints
 62
     0
100
AcDbPoint
 10
-1.638260480455653
 20
33.85144821317189
 30
0.0
  0
POINT
  5
3B9
330
3B0
100
AcDbEntity
  8
Defpoints
 62
     0
100
AcDbPoint
 10
-7.214981302369942
 20
31.6378120925713
 30
0.0
  0
ENDBLK
  5
3BA
330
3B0
100
AcDbEntity
  8
0
100
AcDbBlockEnd
  0
BLOCK
  5
44C
330
444
100
AcDbEntity
  8
0
100
AcDbBlockBegin
  2
*D22
 70
     1
 10
0.0
 20
0.0
 30
0.0
  3
*D22
  1

  0
LINE
  5
4BB
330
444
100
AcDbEntity
  8
0
 62
     0
370
    -2
100
AcDbLine
 10
19.44775657301377
 20
15.3012294359514
 30
0.0
 11
19.44775657301377
 21
14.14842802795329
 31
0.0
  0
LINE
  5
4BC
330
444
100
AcDbEntity
  8
0
 62
     0
370
    -2
100
AcDbLine
 10
19.44775657301377
 20
14.14842802795329
 30
0.0
 11
21.84215986293407
 21
13.78842802795329
 31
0.0
  0
LINE
  5
4BD
330
444
100
AcDbEntity
  8
0
 62
     0
370
    -2
100
AcDbLine
 10
21.84215986293407
 20
13.78842802795329
 30
0.0
 11
21.84215986293407
 21
13.42842802795329
 31
0.0
  0
MTEXT
  5
4BE
330
444
100
AcDbEntity
  8
0
 62
     0
100
AcDbMText
 10
21.84215986293406
 20
12.10642802795329
 30
0.0
 40
0.7040000000000001
 41
0.0
 71
     5
 72
     1
  1
\A1;0.500
 11
0.0000000000000001
 21
1.0
 31
0.0
 73
     1
 44
1.0
1001
ACAD
1000
MTEXTBEGIN
1070
    73
1070
     1
1070
    44
1040
1.0
1070
    74
1070
     0
1000
MTEXTEND
  0
POINT
  5
4BF
330
444
100
AcDbEntity
  8
Defpoints
 62
     0
100
AcDbPoint
 10
19.44775657301377
 20
15.5512294359514
 30
0.0
  0
POINT
  5
4C0
330
444
100
AcDbEntity
  8
Defpoints
 62
     0
100
AcDbPoint
 10
21.84215986293407
 20
13.42842802795329
 30
0.0
  0
POINT
  5
4C1
330
444
100
AcDbEntity
  8
Defpoints
 62
     0
100
AcDbPoint
 10
18.94775657301383
 20
3.519430651880725
 30
0.0
  0
ENDBLK
  5
44D
330
444
100
AcDbEntity
  8
0
100
AcDbBlockEnd
  0
BLOCK
  5
456
330
44E
100
AcDbEntity
  8
0
100
AcDbBlockBegin
  2
*D23
 70
     1
 10
0.0
 20
0.0
 30
0.0
  3
*D23
  1

  0
LINE
  5
7C7
330
44E
100
AcDbEntity
  8
0
 62
     0
370
    -2
100
AcDbLine
 10
28.4556928846981
 20
28.98395200828401
 30
0.0
 11
28.4556928846981
 21
27.43919090610319
 31
0.0
  0
MTEXT
  5
7C8
330
44E
100
AcDbEntity
  8
0
 62
     0
100
AcDbMText
 10
28.45569288469809
 20
25.99985757276986
 30
0.0
 40
0.7040000000000001
 41
0.0
 71
     5
 72
     1
  1
\A1;9.508
 11
0.0000000000000001
 21
1.0
 31
0.0
 73
     1
 44
1.0
1001
ACAD
1000
MTEXTBEGIN
1070
    73
1070
     1
1070
    44
1040
1.0
1070
    74
1070
     0
1000
MTEXTEND
  0
POINT
  5
7C9
330
44E
100
AcDbEntity
  8
Defpoints
 62
     0
100
AcDbPoint
 10
28.4556928846981
 20
29.23395200828401
 30
0.0
  0
POINT
  5
7CA
330
44E
100
AcDbEntity
  8
Defpoints
 62
     0
100
AcDbPoint
 10
28.4556928846981
 20
27.43919090610319
 30
0.0
  0
POINT
  5
7CB
330
44E
100
AcDbEntity
  8
Defpoints
 62
     0
100
AcDbPoint
 10
18.94775657301383
 20
3.519430651880725
 30
0.0
  0
ENDBLK
  5
457
330
44E
100
AcDbEntity
  8
0
100
AcDbBlockEnd
  0
BLOCK
  5
45E
330
458
100
AcDbEntity
  8
0
100
AcDbBlockBegin
  2
*D24
 70
     1
 10
0.0
 20
0.0
 30
0.0
  3
*D24
  1

  0
LINE
  5
4C9
330
458
100
AcDbEntity
  8
0
 62
     0
370
    -2
100
AcDbLine
 10
29.87775657301379
 20
38.69943065188071
 30
0.0
 11
30.62775657301378
 21
38.69943065188071
 31
0.0
  0
MTEXT
  5
4CA
330
458
100
AcDbEntity
  8
0
 62
     0
100
AcDbMText
 10
32.30175657301379
 20
38.69943065188071
 30
0.0
 40
0.7040000000000001
 41
0.0
 71
     5
 72
     1
  1
\A1;35.180
 73
     1
 44
1.0
1001
ACAD
1000
MTEXTBEGIN
1070
    73
1070
     1
1070
    44
1040
1.0
1070
    74
1070
     0
1000
MTEXTEND
  0
POINT
  5
4CB
330
458
100
AcDbEntity
  8
Defpoints
 62
     0
100
AcDbPoint
 10
29.62775657301378
 20
38.69943065188071
 30
0.0
  0
POINT
  5
4CC
330
458
100
AcDbEntity
  8
Defpoints
 62
     0
100
AcDbPoint
 10
30.62775657301378
 20
38.69943065188071
 30
0.0
  0
POINT
  5
4CD
330
458
100
AcDbEntity
  8
Defpoints
 62
     0
100
AcDbPoint
 10
18.94775657301383
 20
3.519430651880725
 30
0.0
  0
ENDBLK
  5
45F
330
458
100
AcDbEntity
  8
0
100
AcDbBlockEnd
  0
BLOCK
  5
466
330
460
100
AcDbEntity
  8
0
100
AcDbBlockBegin
  2
*D25
 70
     1
 10
0.0
 20
0.0
 30
0.0
  3
*D25
  1

  0
LINE
  5
4DE
330
460
100
AcDbEntity
  8
0
 62
     0
370
    -2
100
AcDbLine
 10
24.28775657301381
 20
33.53402360884147
 30
0.0
 11
24.28775657301379
 21
39.69943065188067
 31
0.0
  0
MTEXT
  5
4DF
330
460
100
AcDbEntity
  8
0
 62
     0
100
AcDbMText
 10
24.28775657301377
 20
41.13876398521401
 30
0.0
 40
0.7040000000000001
 41
0.0
 71
     5
 72
     1
  1
\A1;5.340
 11
0.0000000000000001
 21
1.0
 31
0.0
 73
     1
 44
1.0
1001
ACAD
1000
MTEXTBEGIN
1070
    73
1070
     1
1070
    44
1040
1.0
1070
    74
1070
     0
1000
MTEXTEND
  0
POINT
  5
4E0
330
460
100
AcDbEntity
  8
Defpoints
 62
     0
100
AcDbPoint
 10
24.28775657301381
 20
33.28402360884147
 30
0.0
  0
POINT
  5
4E1
330
460
100
AcDbEntity
  8
Defpoints
 62
     0
100
AcDbPoint
 10
24.28775657301379
 20
39.69943065188067
 30
0.0
  0
POINT
  5
4E2
330
460
100
AcDbEntity
  8
Defpoints
 62
     0
100
AcDbPoint
 10
18.94775657301383
 20
3.519430651880725
 30
0.0
  0
ENDBLK
  5
467
330
460
100
AcDbEntity
  8
0
100
AcDbBlockEnd
  0
BLOCK
  5
46E
330
468
100
AcDbEntity
  8
0
100
AcDbBlockBegin
  2
*D26
 70
     1
 10
0.0
 20
0.0
 30
0.0
  3
*D26
  1

  0
LINE
  5
4E3
330
468
100
AcDbEntity
  8
0
 62
     0
370
    -2
100
AcDbLine
 10
24.03775657301387
 20
33.28402360884147
 30
0.0
 11
17.94775657301381
 21
33.28402360884151
 31
0.0
  0
MTEXT
  5
4E4
330
468
100
AcDbEntity
  8
0
 62
     0
100
AcDbMText
 10
16.09775657301381
 20
33.28402360884151
 30
0.0
 40
0.7040000000000001
 41
0.0
 71
     5
 72
     1
  1
\A1;29.765
 73
     1
 44
1.0
1001
ACAD
1000
MTEXTBEGIN
1070
    73
1070
     1
1070
    44
1040
1.0
1070
    74
1070
     0
1000
MTEXTEND
  0
POINT
  5
4E5
330
468
100
AcDbEntity
  8
Defpoints
 62
     0
100
AcDbPoint
 10
24.28775657301387
 20
33.28402360884147
 30
0.0
  0
POINT
  5
4E6
330
468
100
AcDbEntity
  8
Defpoints
 62
     0
100
AcDbPoint
 10
17.94775657301381
 20
33.28402360884151
 30
0.0
  0
POINT
  5
4E7
330
468
100
AcDbEntity
  8
Defpoints
 62
     0
100
AcDbPoint
 10
18.94775657301383
 20
3.519430651880725
 30
0.0
  0
ENDBLK
  5
46F
330
468
100
AcDbEntity
  8
0
100
AcDbBlockEnd
  0
BLOCK
  5
476
330
470
100
AcDbEntity
  8
0
100
AcDbBlockBegin
  2
*D27
 70
     1
 10
0.0
 20
0.0
 30
0.0
  3
*D27
  1

  0
LINE
  5
508
330
470
100
AcDbEntity
  8
0
 62
     0
370
    -2
100
AcDbLine
 10
28.28775657301381
 20
13.1094306518807
 30
0.0
 11
30.62775657301387
 21
13.10943065188074
 31
0.0
  0
MTEXT
  5
509
330
470
100
AcDbEntity
  8
0
 62
     0
100
AcDbMText
 10
32.06708990634722
 20
13.10943065188074
 30
0.0
 40
0.7040000000000001
 41
0.0
 71
     5
 72
     1
  1
\A1;9.590
 73
     1
 44
1.0
1001
ACAD
1000
MTEXTBEGIN
1070
    73
1070
     1
1070
    44
1040
1.0
1070
    74
1070
     0
1000
MTEXTEND
  0
POINT
  5
50A
330
470
100
AcDbEntity
  8
Defpoints
 62
     0
100
AcDbPoint
 10
28.03775657301381
 20
13.1094306518807
 30
0.0
  0
POINT
  5
50B
330
470
100
AcDbEntity
  8
Defpoints
 62
     0
100
AcDbPoint
 10
30.62775657301387
 20
13.10943065188074
 30
0.0
  0
POINT
  5
50C
330
470
100
AcDbEntity
  8
Defpoints
 62
     0
100
AcDbPoint
 10
18.94775657301383
 20
3.519430651880725
 30
0.0
  0
ENDBLK
  5
477
330
470
100
AcDbEntity
  8
0
100
AcDbBlockEnd
  0
BLOCK
  5
47E
330
478
100
AcDbEntity
  8
0
100
AcDbBlockBegin
  2
*D28
 70
     1
 10
0.0
 20
0.0
 30
0.0
  3
*D28
  1

  0
LINE
  5
515
330
478
100
AcDbEntity
  8
0
 62
     0
370
    -2
100
AcDbLine
 10
20.53775657301387
 20
5.85943065188067
 30
0.0
 11
20.53775657301387
 21
2.519430651880731
 31
0.0
  0
MTEXT
  5
516
330
478
100
AcDbEntity
  8
0
 62
     0
100
AcDbMText
 10
20.53775657301387
 20
1.197430651880735
 30
0.0
 40
0.7040000000000001
 41
0.0
 71
     5
 72
     1
  1
\A1;1.590
 11
0.0000000000000001
 21
1.0
 31
0.0
 73
     1
 44
1.0
1001
ACAD
1000
MTEXTBEGIN
1070
    73
1070
     1
1070
    44
1040
1.0
1070
    74
1070
     0
1000
MTEXTEND
  0
POINT
  5
517
330
478
100
AcDbEntity
  8
Defpoints
 62
     0
100
AcDbPoint
 10
20.53775657301387
 20
6.10943065188067
 30
0.0
  0
POINT
  5
518
330
478
100
AcDbEntity
  8
Defpoints
 62
     0
100
AcDbPoint
 10
20.53775657301387
 20
2.519430651880731
 30
0.0
  0
POINT
  5
519
330
478
100
AcDbEntity
  8
Defpoints
 62
     0
100
AcDbPoint
 10
18.94775657301383
 20
3.519430651880725
 30
0.0
  0
ENDBLK
  5
47F
330
478
100
AcDbEntity
  8
0
100
AcDbBlockEnd
  0
BLOCK
  5
486
330
480
100
AcDbEntity
  8
0
100
AcDbBlockBegin
  2
*D29
 70
     1
 10
0.0
 20
0.0
 30
0.0
  3
*D29
  1

  0
LINE
  5
51A
330
480
100
AcDbEntity
  8
0
 62
     0
370
    -2
100
AcDbLine
 10
28.28775657301381
 20
6.10943065188067
 30
0.0
 11
30.6277565730139
 21
6.109430651880713
 31
0.0
  0
MTEXT
  5
51B
330
480
100
AcDbEntity
  8
0
 62
     0
100
AcDbMText
 10
32.06708990634722
 20
6.109430651880713
 30
0.0
 40
0.7040000000000001
 41
0.0
 71
     5
 72
     1
  1
\A1;2.590
 73
     1
 44
1.0
1001
ACAD
1000
MTEXTBEGIN
1070
    73
1070
     1
1070
    44
1040
1.0
1070
    74
1070
     0
1000
MTEXTEND
  0
POINT
  5
51C
330
480
100
AcDbEntity
  8
Defpoints
 62
     0
100
AcDbPoint
 10
28.03775657301381
 20
6.10943065188067
 30
0.0
  0
POINT
  5
51D
330
480
100
AcDbEntity
  8
Defpoints
 62
     0
100
AcDbPoint
 10
30.6277565730139
 20
6.109430651880713
 30
0.0
  0
POINT
  5
51E
330
480
100
AcDbEntity
  8
Defpoints
 62
     0
100
AcDbPoint
 10
18.94775657301383
 20
3.519430651880725
 30
0.0
  0
ENDBLK
  5
487
330
480
100
AcDbEntity
  8
0
100
AcDbBlockEnd
  0
BLOCK
  5
48E
330
488
100
AcDbEntity
  8
0
100
AcDbBlockBegin
  2
*D30
 70
     1
 10
0.0
 20
0.0
 30
0.0
  3
*D30
  1

  0
LINE
  5
51F
330
488
100
AcDbEntity
  8
0
 62
     0
370
    -2
100
AcDbLine
 10
18.94775657301383
 20
3.269430651880725
 30
0.0
 11
18.94775657301383
 21
2.519430651880725
 31
0.0
  0
MTEXT
  5
520
330
488
100
AcDbEntity
  8
0
 62
     0
100
AcDbMText
 10
18.94775657301383
 20
1.256097318547394
 30
0.0
 40
0.7040000000000001
 41
0.0
 71
     5
 72
     1
  1
\A1;0.000
 11
0.0000000000000001
 21
1.0
 31
0.0
 73
     1
 44
1.0
1001
ACAD
1000
MTEXTBEGIN
1070
    73
1070
     1
1070
    44
1040
1.0
1070
    74
1070
     0
1000
MTEXTEND
  0
POINT
  5
521
330
488
100
AcDbEntity
  8
Defpoints
 62
     0
100
AcDbPoint
 10
18.94775657301383
 20
3.519430651880725
 30
0.0
  0
POINT
  5
522
330
488
100
AcDbEntity
  8
Defpoints
 62
     0
100
AcDbPoint
 10
18.94775657301383
 20
2.519430651880725
 30
0.0
  0
POINT
  5
523
330
488
100
AcDbEntity
  8
Defpoints
 62
     0
100
AcDbPoint
 10
18.94775657301383
 20
3.519430651880725
 30
0.0
  0
ENDBLK
  5
48F
330
488
100
AcDbEntity
  8
0
100
AcDbBlockEnd
  0
BLOCK
  5
499
330
490
100
AcDbEntity
  8
0
100
AcDbBlockBegin
  2
*D31
 70
     1
 10
0.0
 20
0.0
 30
0.0
  3
*D31
  1

  0
LINE
  5
52C
330
490
100
AcDbEntity
  8
0
 62
     0
370
    -2
100
AcDbLine
 10
31.3317565730138
 20
35.80063748512837
 30
0.0
 11
30.6277565730138
 21
35.80063748512837
 31
0.0
  0
LINE
  5
52D
330
490
100
AcDbEntity
  8
0
 62
     0
370
    -2
100
AcDbLine
 10
30.6277565730138
 20
35.80063748512837
 30
0.0
 11
27.73045222707562
 21
34.65057497395889
 31
0.0
  0
MTEXT
  5
52E
330
490
100
AcDbEntity
  8
0
 62
     0
100
AcDbMText
 10
33.00575657301381
 20
35.80063748512837
 30
0.0
 40
0.7040000000000001
 41
0.0
 71
     5
 72
     1
  1
\A1;\U+22056.000
 73
     1
 44
1.0
1001
ACAD
1000
MTEXTBEGIN
1070
    73
1070
     1
1070
    44
1040
1.0
1070
    74
1070
     0
1000
MTEXTEND
  0
SOLID
  5
52F
330
490
100
AcDbEntity
  8
0
 62
     0
100
AcDbTrace
 10
27.68716334293943
 20
34.75963084780966
 30
0.0
 11
27.77374111121181
 21
34.54151910010813
 31
0.0
 12
27.07611698397102
 22
34.39084166914175
 32
0.0
 13
27.07611698397102
 23
34.39084166914175
 33
0.0
  0
LINE
  5
530
330
490
100
AcDbEntity
  8
0
 62
     0
370
    -2
100
AcDbLine
 10
24.19775657301386
 20
33.28402360884147
 30
0.0
 11
24.37775657301387
 21
33.28402360884147
 31
0.0
  0
LINE
  5
531
330
490
100
AcDbEntity
  8
0
 62
     0
370
    -2
100
AcDbLine
 10
24.28775657301386
 20
33.19402360884146
 30
0.0
 11
24.28775657301387
 21
33.37402360884146
 31
0.0
  0
POINT
  5
532
330
490
100
AcDbEntity
  8
Defpoints
 62
     0
100
AcDbPoint
 10
27.07611698397102
 20
34.39084166914175
 30
0.0
  0
POINT
  5
533
330
490
100
AcDbEntity
  8
Defpoints
 62
     0
100
AcDbPoint
 10
21.49939616205672
 20
32.17720554854118
 30
0.0
  0
ENDBLK
  5
49A
330
490
100
AcDbEntity
  8
0
100
AcDbBlockEnd
  0
BLOCK
  5
4A4
330
49B
100
AcDbEntity
  8
0
100
AcDbBlockBegin
  2
*D32
 70
     1
 10
0.0
 20
0.0
 30
0.0
  3
*D32
  1

  0
LINE
  5
79F
330
49B
100
AcDbEntity
  8
0
 62
     0
370
    -2
100
AcDbLine
 10
31.33175657301399
 20
21.07800500947512
 30
0.0
 11
30.62775657301383
 21
21.07800500947511
 31
0.0
  0
LINE
  5
7A0
330
49B
100
AcDbEntity
  8
0
 62
     0
370
    -2
100
AcDbLine
 10
30.62775657301383
 20
21.07800500947511
 30
0.0
 11
28.61685817056926
 21
23.43163009883534
 31
0.0
  0
MTEXT
  5
7A1
330
49B
100
AcDbEntity
  8
0
 62
     0
100
AcDbMText
 10
34.29642323968066
 20
21.07800500947511
 30
0.0
 40
0.7040000000000001
 41
0.0
 71
     5
 72
     1
  1
\A1;\U+22050.375 (8)
 73
     1
 44
1.0
1001
ACAD
1000
MTEXTBEGIN
1070
    73
1070
     1
1070
    44
1040
1.0
1070
    74
1070
     0
1000
MTEXTEND
  0
SOLID
  5
7A2
330
49B
100
AcDbEntity
  8
0
 62
     0
100
AcDbTrace
 10
28.70606579617106
 20
23.50784762074207
 30
0.0
 11
28.52765054496747
 21
23.35541257692862
 31
0.0
 12
28.15955303912894
 22
23.96687585244611
 32
0.0
 13
28.15955303912894
 23
23.96687585244611
 33
0.0
  0
LINE
  5
7A3
330
49B
100
AcDbEntity
  8
0
 62
     0
370
    -2
100
AcDbLine
 10
27.9477565730138
 20
24.10943065188078
 30
0.0
 11
28.1277565730138
 21
24.10943065188079
 31
0.0
  0
LINE
  5
7A4
330
49B
100
AcDbEntity
  8
0
 62
     0
370
    -2
100
AcDbLine
 10
28.03775657301381
 20
24.01943065188079
 30
0.0
 11
28.0377565730138
 21
24.19943065188079
 31
0.0
  0
POINT
  5
7A5
330
49B
100
AcDbEntity
  8
Defpoints
 62
     0
100
AcDbPoint
 10
28.15955303912894
 20
23.96687585244611
 30
0.0
  0
POINT
  5
7A6
330
49B
100
AcDbEntity
  8
Defpoints
 62
     0
100
AcDbPoint
 10
27.91596010689866
 20
24.25198545131546
 30
0.0
  0
ENDBLK
  5
4A5
330
49B
100
AcDbEntity
  8
0
100
AcDbBlockEnd
  0
BLOCK
  5
4AF
330
4A6
100
AcDbEntity
  8
0
100
AcDbBlockBegin
  2
*D33
 70
     1
 10
0.0
 20
0.0
 30
0.0
  3
*D33
  1

  0
LINE
  5
53C
330
4A6
100
AcDbEntity
  8
0
 62
     0
370
    -2
100
AcDbLine
 10
31.33175657301381
 20
32.22077721753735
 30
0.0
 11
30.62775657301379
 21
32.22077721753735
 31
0.0
  0
LINE
  5
53D
330
4A6
100
AcDbEntity
  8
0
 62
     0
370
    -2
100
AcDbLine
 10
30.62775657301379
 20
32.22077721753735
 30
0.0
 11
29.23733239226811
 21
30.30879184761158
 31
0.0
  0
MTEXT
  5
53E
330
4A6
100
AcDbEntity
  8
0
 62
     0
100
AcDbMText
 10
33.00575657301382
 20
32.22077721753735
 30
0.0
 40
0.7040000000000001
 41
0.0
 71
     5
 72
     1
  1
\A1;\U+22051.250
 73
     1
 44
1.0
1001
ACAD
1000
MTEXTBEGIN
1070
    73
1070
     1
1070
    44
1040
1.0
1070
    74
1070
     0
1000
MTEXTEND
  0
SOLID
  5
53F
330
4A6
100
AcDbEntity
  8
0
 62
     0
100
AcDbTrace
 10
29.14243807989207
 20
30.37780040207977
 30
0.0
 11
29.33222670464416
 21
30.2397832931434
 31
0.0
 12
28.82328106545902
 22
29.73942597335529
 32
0.0
 13
28.82328106545902
 23
29.73942597335529
 33
0.0
  0
LINE
  5
540
330
4A6
100
AcDbEntity
  8
0
 62
     0
370
    -2
100
AcDbLine
 10
28.3656928846981
 20
29.23395200828402
 30
0.0
 11
28.5456928846981
 21
29.23395200828402
 31
0.0
  0
LINE
  5
541
330
4A6
100
AcDbEntity
  8
0
 62
     0
370
    -2
100
AcDbLine
 10
28.4556928846981
 20
29.14395200828402
 30
0.0
 11
28.4556928846981
 21
29.32395200828401
 31
0.0
  0
POINT
  5
542
330
4A6
100
AcDbEntity
  8
Defpoints
 62
     0
100
AcDbPoint
 10
28.82328106545902
 20
29.73942597335529
 30
0.0
  0
POINT
  5
543
330
4A6
100
AcDbEntity
  8
Defpoints
 62
     0
100
AcDbPoint
 10
28.08810470393718
 20
28.72847804321273
 30
0.0
  0
ENDBLK
  5
4B0
330
4A6
100
AcDbEntity
  8
0
100
AcDbBlockEnd
  0
BLOCK
  5
4B9
330
4B1
100
AcDbEntity
  8
0
100
AcDbBlockBegin
  2
*D34
 70
     1
 10
0.0
 20
0.0
 30
0.0
  3
*D34
  1

  0
LINE
  5
4B2
330
4B1
100
AcDbEntity
  8
0
 62
     0
370
    -2
100
AcDbLine
 10
29.12775657301384
 20
15.30122943595137
 30
0.0
 11
29.12775657301384
 21
14.14842802795329
 31
0.0
  0
LINE
  5
4B3
330
4B1
100
AcDbEntity
  8
0
 62
     0
370
    -2
100
AcDbLine
 10
29.12775657301384
 20
14.14842802795329
 30
0.0
 11
26.73335328309361
 21
13.78842802795329
 31
0.0
  0
LINE
  5
4B4
330
4B1
100
AcDbEntity
  8
0
 62
     0
370
    -2
100
AcDbLine
 10
26.73335328309361
 20
13.78842802795329
 30
0.0
 11
26.73335328309361
 21
13.42842802795329
 31
0.0
  0
MTEXT
  5
4B5
330
4B1
100
AcDbEntity
  8
0
 62
     0
100
AcDbMText
 10
26.7333532830936
 20
11.93042802795329
 30
0.0
 40
0.7040000000000001
 41
0.0
 71
     5
 72
     1
  1
\A1;10.180
 11
0.0000000000000001
 21
1.0
 31
0.0
 73
     1
 44
1.0
1001
ACAD
1000
MTEXTBEGIN
1070
    73
1070
     1
1070
    44
1040
1.0
1070
    74
1070
     0
1000
MTEXTEND
  0
POINT
  5
4B6
330
4B1
100
AcDbEntity
  8
Defpoints
 62
     0
100
AcDbPoint
 10
29.12775657301384
 20
15.55122943595137
 30
0.0
  0
POINT
  5
4B7
330
4B1
100
AcDbEntity
  8
Defpoints
 62
     0
100
AcDbPoint
 10
26.73335328309361
 20
13.42842802795329
 30
0.0
  0
POINT
  5
4B8
330
4B1
100
AcDbEntity
  8
Defpoints
 62
     0
100
AcDbPoint
 10
18.94775657301383
 20
3.519430651880725
 30
0.0
  0
ENDBLK
  5
4BA
330
4B1
100
AcDbEntity
  8
0
100
AcDbBlockEnd
  0
BLOCK
  5
4D4
330
4CE
100
AcDbEntity
  8
0
100
AcDbBlockBegin
  2
*D35
 70
     1
 10
0.0
 20
0.0
 30
0.0
  3
*D35
  1

  0
LINE
  5
4CF
330
4CE
100
AcDbEntity
  8
0
 62
     0
370
    -2
100
AcDbLine
 10
29.62775657301378
 20
38.94943065188071
 30
0.0
 11
29.62775657301378
 21
39.69943065188071
 31
0.0
  0
MTEXT
  5
4D0
330
4CE
100
AcDbEntity
  8
0
 62
     0
100
AcDbMText
 10
29.62775657301378
 20
41.31476398521403
 30
0.0
 40
0.7040000000000001
 41
0.0
 71
     5
 72
     1
  1
\A1;10.680
 11
0.0000000000000001
 21
1.0
 31
0.0
 73
     1
 44
1.0
1001
ACAD
1000
MTEXTBEGIN
1070
    73
1070
     1
1070
    44
1040
1.0
1070
    74
1070
     0
1000
MTEXTEND
  0
POINT
  5
4D1
330
4CE
100
AcDbEntity
  8
Defpoints
 62
     0
100
AcDbPoint
 10
29.62775657301378
 20
38.69943065188071
 30
0.0
  0
POINT
  5
4D2
330
4CE
100
AcDbEntity
  8
Defpoints
 62
     0
100
AcDbPoint
 10
29.62775657301378
 20
39.69943065188071
 30
0.0
  0
POINT
  5
4D3
330
4CE
100
AcDbEntity
  8
Defpoints
 62
     0
100
AcDbPoint
 10
18.94775657301383
 20
3.519430651880725
 30
0.0
  0
ENDBLK
  5
4D5
330
4CE
100
AcDbEntity
  8
0
100
AcDbBlockEnd
  0
BLOCK
  5
4DC
330
4D6
100
AcDbEntity
  8
0
100
AcDbBlockBegin
  2
*D36
 70
     1
 10
0.0
 20
0.0
 30
0.0
  3
*D36
  1

  0
LINE
  5
4D7
330
4D6
100
AcDbEntity
  8
0
 62
     0
370
    -2
100
AcDbLine
 10
28.28775657301381
 20
37.60943065188067
 30
0.0
 11
30.62775657301379
 21
37.60943065188067
 31
0.0
  0
MTEXT
  5
4D8
330
4D6
100
AcDbEntity
  8
0
 62
     0
100
AcDbMText
 10
32.36042323968046
 20
37.60943065188067
 30
0.0
 40
0.7040000000000001
 41
0.0
 71
     5
 72
     1
  1
\A1;34.090
 73
     1
 44
1.0
1001
ACAD
1000
MTEXTBEGIN
1070
    73
1070
     1
1070
    44
1040
1.0
1070
    74
1070
     0
1000
MTEXTEND
  0
POINT
  5
4D9
330
4D6
100
AcDbEntity
  8
Defpoints
 62
     0
100
AcDbPoint
 10
28.03775657301381
 20
37.60943065188067
 30
0.0
  0
POINT
  5
4DA
330
4D6
100
AcDbEntity
  8
Defpoints
 62
     0
100
AcDbPoint
 10
30.62775657301379
 20
37.60943065188067
 30
0.0
  0
POINT
  5
4DB
330
4D6
100
AcDbEntity
  8
Defpoints
 62
     0
100
AcDbPoint
 10
18.94775657301383
 20
3.519430651880725
 30
0.0
  0
ENDBLK
  5
4DD
330
4D6
100
AcDbEntity
  8
0
100
AcDbBlockEnd
  0
BLOCK
  5
4EE
330
4E8
100
AcDbEntity
  8
0
100
AcDbBlockBegin
  2
*D37
 70
     1
 10
0.0
 20
0.0
 30
0.0
  3
*D37
  1

  0
LINE
  5
4E9
330
4E8
100
AcDbEntity
  8
0
 62
     0
370
    -2
100
AcDbLine
 10
28.70569288469809
 20
29.23395200828401
 30
0.0
 11
30.62775657301382
 21
29.23395200828401
 31
0.0
  0
MTEXT
  5
4EA
330
4E8
100
AcDbEntity
  8
0
 62
     0
100
AcDbMText
 10
32.36042323968048
 20
29.23395200828401
 30
0.0
 40
0.7040000000000001
 41
0.0
 71
     5
 72
     1
  1
\A1;25.715
 73
     1
 44
1.0
1001
ACAD
1000
MTEXTBEGIN
1070
    73
1070
     1
1070
    44
1040
1.0
1070
    74
1070
     0
1000
MTEXTEND
  0
POINT
  5
4EB
330
4E8
100
AcDbEntity
  8
Defpoints
 62
     0
100
AcDbPoint
 10
28.4556928846981
 20
29.23395200828401
 30
0.0
  0
POINT
  5
4EC
330
4E8
100
AcDbEntity
  8
Defpoints
 62
     0
100
AcDbPoint
 10
30.62775657301382
 20
29.23395200828401
 30
0.0
  0
POINT
  5
4ED
330
4E8
100
AcDbEntity
  8
Defpoints
 62
     0
100
AcDbPoint
 10
18.94775657301383
 20
3.519430651880725
 30
0.0
  0
ENDBLK
  5
4EF
330
4E8
100
AcDbEntity
  8
0
100
AcDbBlockEnd
  0
BLOCK
  5
4F6
330
4F0
100
AcDbEntity
  8
0
100
AcDbBlockBegin
  2
*D38
 70
     1
 10
0.0
 20
0.0
 30
0.0
  3
*D38
  1

  0
LINE
  5
79A
330
4F0
100
AcDbEntity
  8
0
 62
     0
370
    -2
100
AcDbLine
 10
28.28775657301381
 20
24.10943065188078
 30
0.0
 11
30.62775657301383
 21
24.10943065188078
 31
0.0
  0
MTEXT
  5
79B
330
4F0
100
AcDbEntity
  8
0
 62
     0
100
AcDbMText
 10
32.3604232396805
 20
24.10943065188078
 30
0.0
 40
0.7040000000000001
 41
0.0
 71
     5
 72
     1
  1
\A1;20.590
 73
     1
 44
1.0
1001
ACAD
1000
MTEXTBEGIN
1070
    73
1070
     1
1070
    44
1040
1.0
1070
    74
1070
     0
1000
MTEXTEND
  0
POINT
  5
79C
330
4F0
100
AcDbEntity
  8
Defpoints
 62
     0
100
AcDbPoint
 10
28.03775657301381
 20
24.10943065188078
 30
0.0
  0
POINT
  5
79D
330
4F0
100
AcDbEntity
  8
Defpoints
 62
     0
100
AcDbPoint
 10
30.62775657301383
 20
24.10943065188078
 30
0.0
  0
POINT
  5
79E
330
4F0
100
AcDbEntity
  8
Defpoints
 62
     0
100
AcDbPoint
 10
18.94775657301383
 20
3.519430651880725
 30
0.0
  0
ENDBLK
  5
4F7
330
4F0
100
AcDbEntity
  8
0
100
AcDbBlockEnd
  0
BLOCK
  5
4FE
330
4F8
100
AcDbEntity
  8
0
100
AcDbBlockBegin
  2
*D39
 70
     1
 10
0.0
 20
0.0
 30
0.0
  3
*D39
  1

  0
LINE
  5
4F9
330
4F8
100
AcDbEntity
  8
0
 62
     0
370
    -2
100
AcDbLine
 10
19.19775657301378
 20
18.65747943595167
 30
0.0
 11
17.94775657301377
 21
18.65747943595167
 31
0.0
  0
MTEXT
  5
4FA
330
4F8
100
AcDbEntity
  8
0
 62
     0
100
AcDbMText
 10
16.33242323968044
 20
18.65747943595167
 30
0.0
 40
0.7040000000000001
 41
0.0
 71
     5
 72
     1
  1
\A1;15.138
 73
     1
 44
1.0
1001
ACAD
1000
MTEXTBEGIN
1070
    73
1070
     1
1070
    44
1040
1.0
1070
    74
1070
     0
1000
MTEXTEND
  0
POINT
  5
4FB
330
4F8
100
AcDbEntity
  8
Defpoints
 62
     0
100
AcDbPoint
 10
19.44775657301377
 20
18.65747943595167
 30
0.0
  0
POINT
  5
4FC
330
4F8
100
AcDbEntity
  8
Defpoints
 62
     0
100
AcDbPoint
 10
17.94775657301377
 20
18.65747943595167
 30
0.0
  0
POINT
  5
4FD
330
4F8
100
AcDbEntity
  8
Defpoints
 62
     0
100
AcDbPoint
 10
18.94775657301383
 20
3.519430651880725
 30
0.0
  0
ENDBLK
  5
4FF
330
4F8
100
AcDbEntity
  8
0
100
AcDbBlockEnd
  0
BLOCK
  5
506
330
500
100
AcDbEntity
  8
0
100
AcDbBlockBegin
  2
*D40
 70
     1
 10
0.0
 20
0.0
 30
0.0
  3
*D40
  1

  0
LINE
  5
501
330
500
100
AcDbEntity
  8
0
 62
     0
370
    -2
100
AcDbLine
 10
19.19775657301378
 20
15.5512294359514
 30
0.0
 11
17.94775657301376
 21
15.5512294359514
 31
0.0
  0
MTEXT
  5
502
330
500
100
AcDbEntity
  8
0
 62
     0
100
AcDbMText
 10
16.27375657301376
 20
15.5512294359514
 30
0.0
 40
0.7040000000000001
 41
0.0
 71
     5
 72
     1
  1
\A1;12.032
 73
     1
 44
1.0
1001
ACAD
1000
MTEXTBEGIN
1070
    73
1070
     1
1070
    44
1040
1.0
1070
    74
1070
     0
1000
MTEXTEND
  0
POINT
  5
503
330
500
100
AcDbEntity
  8
Defpoints
 62
     0
100
AcDbPoint
 10
19.44775657301377
 20
15.5512294359514
 30
0.0
  0
POINT
  5
504
330
500
100
AcDbEntity
  8
Defpoints
 62
     0
100
AcDbPoint
 10
17.94775657301376
 20
15.5512294359514
 30
0.0
  0
POINT
  5
505
330
500
100
AcDbEntity
  8
Defpoints
 62
     0
100
AcDbPoint
 10
18.94775657301383
 20
3.519430651880725
 30
0.0
  0
ENDBLK
  5
507
330
500
100
AcDbEntity
  8
0
100
AcDbBlockEnd
  0
BLOCK
  5
513
330
50D
100
AcDbEntity
  8
0
100
AcDbBlockBegin
  2
*D41
 70
     1
 10
0.0
 20
0.0
 30
0.0
  3
*D41
  1

  0
LINE
  5
50E
330
50D
100
AcDbEntity
  8
0
 62
     0
370
    -2
100
AcDbLine
 10
28.03775657301381
 20
5.85943065188067
 30
0.0
 11
28.03775657301381
 21
2.519430651880774
 31
0.0
  0
MTEXT
  5
50F
330
50D
100
AcDbEntity
  8
0
 62
     0
100
AcDbMText
 10
28.03775657301381
 20
1.138763985214112
 30
0.0
 40
0.7040000000000001
 41
0.0
 71
     5
 72
     1
  1
\A1;9.090
 11
0.0000000000000001
 21
1.0
 31
0.0
 73
     1
 44
1.0
1001
ACAD
1000
MTEXTBEGIN
1070
    73
1070
     1
1070
    44
1040
1.0
1070
    74
1070
     0
1000
MTEXTEND
  0
POINT
  5
510
330
50D
100
AcDbEntity
  8
Defpoints
 62
     0
100
AcDbPoint
 10
28.03775657301381
 20
6.10943065188067
 30
0.0
  0
POINT
  5
511
330
50D
100
AcDbEntity
  8
Defpoints
 62
     0
100
AcDbPoint
 10
28.03775657301381
 20
2.519430651880774
 30
0.0
  0
POINT
  5
512
330
50D
100
AcDbEntity
  8
Defpoints
 62
     0
100
AcDbPoint
 10
18.94775657301383
 20
3.519430651880725
 30
0.0
  0
ENDBLK
  5
514
330
50D
100
AcDbEntity
  8
0
100
AcDbBlockEnd
  0
BLOCK
  5
52A
330
524
100
AcDbEntity
  8
0
100
AcDbBlockBegin
  2
*D42
 70
     1
 10
0.0
 20
0.0
 30
0.0
  3
*D42
  1

  0
LINE
  5
525
330
524
100
AcDbEntity
  8
0
 62
     0
370
    -2
100
AcDbLine
 10
18.69775657301372
 20
3.519430651880725
 30
0.0
 11
17.94775657301372
 21
3.519430651880725
 31
0.0
  0
MTEXT
  5
526
330
524
100
AcDbEntity
  8
0
 62
     0
100
AcDbMText
 10
16.68442323968038
 20
3.519430651880725
 30
0.0
 40
0.7040000000000001
 41
0.0
 71
     5
 72
     1
  1
\A1;0.000
 73
     1
 44
1.0
1001
ACAD
1000
MTEXTBEGIN
1070
    73
1070
     1
1070
    44
1040
1.0
1070
    74
1070
     0
1000
MTEXTEND
  0
POINT
  5
527
330
524
100
AcDbEntity
  8
Defpoints
 62
     0
100
AcDbPoint
 10
18.94775657301371
 20
3.519430651880725
 30
0.0
  0
POINT
  5
528
330
524
100
AcDbEntity
  8
Defpoints
 62
     0
100
AcDbPoint
 10
17.94775657301372
 20
3.519430651880725
 30
0.0
  0
POINT
  5
529
330
524
100
AcDbEntity
  8
Defpoints
 62
     0
100
AcDbPoint
 10
18.94775657301383
 20
3.519430651880725
 30
0.0
  0
ENDBLK
  5
52B
330
524
100
AcDbEntity
  8
0
100
AcDbBlockEnd
  0
BLOCK
  5
555
330
554
100
AcDbEntity
  8
0
100
AcDbBlockBegin
  2
*D43
 70
     1
 10
0.0
 20
0.0
 30
0.0
  3
*D43
  1

  0
LINE
  5
556
330
554
100
AcDbEntity
  8
0
 62
     0
370
    -2
100
AcDbLine
 10
-10.01662089141294
 20
2.980037195910853
 30
0.0
 11
-10.76662089141294
 21
2.980037195910853
 31
0.0
  0
MTEXT
  5
557
330
554
100
AcDbEntity
  8
0
 62
     0
100
AcDbMText
 10
-12.02995422474627
 20
2.980037195910853
 30
0.0
 40
0.7040000000000001
 41
0.0
 71
     5
 72
     1
  1
\A1;0.000
 73
     1
 44
1.0
1001
ACAD
1000
MTEXTBEGIN
1070
    73
1070
     1
1070
    44
1040
1.0
1070
    74
1070
     0
1000
MTEXTEND
  0
POINT
  5
558
330
554
100
AcDbEntity
  8
Defpoints
 62
     0
100
AcDbPoint
 10
-9.766620891412939
 20
2.980037195910853
 30
0.0
  0
POINT
  5
559
330
554
100
AcDbEntity
  8
Defpoints
 62
     0
100
AcDbPoint
 10
-10.76662089141294
 20
2.980037195910853
 30
0.0
  0
POINT
  5
55A
330
554
100
AcDbEntity
  8
Defpoints
 62
     0
100
AcDbPoint
 10
-9.766620891412827
 20
2.980037195910853
 30
0.0
  0
ENDBLK
  5
55B
330
554
100
AcDbEntity
  8
0
100
AcDbBlockEnd
  0
BLOCK
  5
55D
330
55C
100
AcDbEntity
  8
0
100
AcDbBlockBegin
  2
*D44
 70
     1
 10
0.0
 20
0.0
 30
0.0
  3
*D44
  1

  0
LINE
  5
55E
330
55C
100
AcDbEntity
  8
0
 62
     0
370
    -2
100
AcDbLine
 10
-9.766620891412827
 20
2.730037195910853
 30
0.0
 11
-9.766620891412827
 21
1.980037195910853
 31
0.0
  0
MTEXT
  5
55F
330
55C
100
AcDbEntity
  8
0
 62
     0
100
AcDbMText
 10
-9.766620891412827
 20
0.7167038625775181
 30
0.0
 40
0.7040000000000001
 41
0.0
 71
     5
 72
     1
  1
\A1;0.000
 11
0.0000000000000001
 21
1.0
 31
0.0
 73
     1
 44
1.0
1001
ACAD
1000
MTEXTBEGIN
1070
    73
1070
     1
1070
    44
1040
1.0
1070
    74
1070
     0
1000
MTEXTEND
  0
POINT
  5
560
330
55C
100
AcDbEntity
  8
Defpoints
 62
     0
100
AcDbPoint
 10
-9.766620891412827
 20
2.980037195910853
 30
0.0
  0
POINT
  5
561
330
55C
100
AcDbEntity
  8
Defpoints
 62
     0
100
AcDbPoint
 10
-9.766620891412827
 20
1.980037195910853
 30
0.0
  0
POINT
  5
562
330
55C
100
AcDbEntity
  8
Defpoints
 62
     0
100
AcDbPoint
 10
-9.766620891412827
 20
2.980037195910853
 30
0.0
  0
ENDBLK
  5
563
330
55C
100
AcDbEntity
  8
0
100
AcDbBlockEnd
  0
BLOCK
  5
565
330
564
100
AcDbEntity
  8
0
100
AcDbBlockBegin
  2
*D45
 70
     1
 10
0.0
 20
0.0
 30
0.0
  3
*D45
  1

  0
LINE
  5
566
330
564
100
AcDbEntity
  8
0
 62
     0
370
    -2
100
AcDbLine
 10
-0.4266208914128529
 20
5.570037195910797
 30
0.0
 11
1.913379108587226
 21
5.570037195910841
 31
0.0
  0
MTEXT
  5
567
330
564
100
AcDbEntity
  8
0
 62
     0
100
AcDbMText
 10
3.35271244192056
 20
5.570037195910841
 30
0.0
 40
0.7040000000000001
 41
0.0
 71
     5
 72
     1
  1
\A1;2.590
 73
     1
 44
1.0
1001
ACAD
1000
MTEXTBEGIN
1070
    73
1070
     1
1070
    44
1040
1.0
1070
    74
1070
     0
1000
MTEXTEND
  0
POINT
  5
568
330
564
100
AcDbEntity
  8
Defpoints
 62
     0
100
AcDbPoint
 10
-0.6766208914128528
 20
5.570037195910797
 30
0.0
  0
POINT
  5
569
330
564
100
AcDbEntity
  8
Defpoints
 62
     0
100
AcDbPoint
 10
1.913379108587226
 20
5.570037195910841
 30
0.0
  0
POINT
  5
56A
330
564
100
AcDbEntity
  8
Defpoints
 62
     0
100
AcDbPoint
 10
-9.766620891412827
 20
2.980037195910853
 30
0.0
  0
ENDBLK
  5
56B
330
564
100
AcDbEntity
  8
0
100
AcDbBlockEnd
  0
BLOCK
  5
56D
330
56C
100
AcDbEntity
  8
0
100
AcDbBlockBegin
  2
*D46
 70
     1
 10
0.0
 20
0.0
 30
0.0
  3
*D46
  1

  0
LINE
  5
56E
330
56C
100
AcDbEntity
  8
0
 62
     0
370
    -2
100
AcDbLine
 10
-8.176620891412794
 20
5.320037195910797
 30
0.0
 11
-8.176620891412794
 21
1.98003719591086
 31
0.0
  0
MTEXT
  5
56F
330
56C
100
AcDbEntity
  8
0
 62
     0
100
AcDbMText
 10
-8.176620891412794
 20
0.6580371959108609
 30
0.0
 40
0.7040000000000001
 41
0.0
 71
     5
 72
     1
  1
\A1;1.590
 11
0.0000000000000001
 21
1.0
 31
0.0
 73
     1
 44
1.0
1001
ACAD
1000
MTEXTBEGIN
1070
    73
1070
     1
1070
    44
1040
1.0
1070
    74
1070
     0
1000
MTEXTEND
  0
POINT
  5
570
330
56C
100
AcDbEntity
  8
Defpoints
 62
     0
100
AcDbPoint
 10
-8.176620891412794
 20
5.570037195910797
 30
0.0
  0
POINT
  5
571
330
56C
100
AcDbEntity
  8
Defpoints
 62
     0
100
AcDbPoint
 10
-8.176620891412794
 20
1.98003719591086
 30
0.0
  0
POINT
  5
572
330
56C
100
AcDbEntity
  8
Defpoints
 62
     0
100
AcDbPoint
 10
-9.766620891412827
 20
2.980037195910853
 30
0.0
  0
ENDBLK
  5
573
330
56C
100
AcDbEntity
  8
0
100
AcDbBlockEnd
  0
BLOCK
  5
575
330
574
100
AcDbEntity
  8
0
100
AcDbBlockBegin
  2
*D47
 70
     1
 10
0.0
 20
0.0
 30
0.0
  3
*D47
  1

  0
LINE
  5
576
330
574
100
AcDbEntity
  8
0
 62
     0
370
    -2
100
AcDbLine
 10
-0.6766208914128528
 20
5.320037195910797
 30
0.0
 11
-0.6766208914128528
 21
1.9800371959109
 31
0.0
  0
MTEXT
  5
577
330
574
100
AcDbEntity
  8
0
 62
     0
100
AcDbMText
 10
-0.6766208914128531
 20
0.5993705292442347
 30
0.0
 40
0.7040000000000001
 41
0.0
 71
     5
 72
     1
  1
\A1;9.090
 11
0.0000000000000001
 21
1.0
 31
0.0
 73
     1
 44
1.0
1001
ACAD
1000
MTEXTBEGIN
1070
    73
1070
     1
1070
    44
1040
1.0
1070
    74
1070
     0
1000
MTEXTEND
  0
POINT
  5
578
330
574
100
AcDbEntity
  8
Defpoints
 62
     0
100
AcDbPoint
 10
-0.6766208914128528
 20
5.570037195910797
 30
0.0
  0
POINT
  5
579
330
574
100
AcDbEntity
  8
Defpoints
 62
     0
100
AcDbPoint
 10
-0.6766208914128528
 20
1.9800371959109
 30
0.0
  0
POINT
  5
57A
330
574
100
AcDbEntity
  8
Defpoints
 62
     0
100
AcDbPoint
 10
-9.766620891412827
 20
2.980037195910853
 30
0.0
  0
ENDBLK
  5
57B
330
574
100
AcDbEntity
  8
0
100
AcDbBlockEnd
  0
BLOCK
  5
57D
330
57C
100
AcDbEntity
  8
0
100
AcDbBlockBegin
  2
*D48
 70
     1
 10
0.0
 20
0.0
 30
0.0
  3
*D48
  1

  0
LINE
  5
57E
330
57C
100
AcDbEntity
  8
0
 62
     0
370
    -2
100
AcDbLine
 10
-0.4266208914128529
 20
12.57003719591083
 30
0.0
 11
1.913379108587205
 21
12.57003719591087
 31
0.0
  0
MTEXT
  5
57F
330
57C
100
AcDbEntity
  8
0
 62
     0
100
AcDbMText
 10
3.352712441920537
 20
12.57003719591087
 30
0.0
 40
0.7040000000000001
 41
0.0
 71
     5
 72
     1
  1
\A1;9.590
 73
     1
 44
1.0
1001
ACAD
1000
MTEXTBEGIN
1070
    73
1070
     1
1070
    44
1040
1.0
1070
    74
1070
     0
1000
MTEXTEND
  0
POINT
  5
580
330
57C
100
AcDbEntity
  8
Defpoints
 62
     0
100
AcDbPoint
 10
-0.6766208914128528
 20
12.57003719591083
 30
0.0
  0
POINT
  5
581
330
57C
100
AcDbEntity
  8
Defpoints
 62
     0
100
AcDbPoint
 10
1.913379108587205
 20
12.57003719591087
 30
0.0
  0
POINT
  5
582
330
57C
100
AcDbEntity
  8
Defpoints
 62
     0
100
AcDbPoint
 10
-9.766620891412827
 20
2.980037195910853
 30
0.0
  0
ENDBLK
  5
583
330
57C
100
AcDbEntity
  8
0
100
AcDbBlockEnd
  0
BLOCK
  5
585
330
584
100
AcDbEntity
  8
0
100
AcDbBlockBegin
  2
*D49
 70
     1
 10
0.0
 20
0.0
 30
0.0
  3
*D49
  1

  0
LINE
  5
586
330
584
100
AcDbEntity
  8
0
 62
     0
370
    -2
100
AcDbLine
 10
-9.516620891412882
 20
15.01183597998152
 30
0.0
 11
-10.7666208914129
 21
15.01183597998152
 31
0.0
  0
MTEXT
  5
587
330
584
100
AcDbEntity
  8
0
 62
     0
100
AcDbMText
 10
-12.4406208914129
 20
15.01183597998152
 30
0.0
 40
0.7040000000000001
 41
0.0
 71
     5
 72
     1
  1
\A1;12.032
 73
     1
 44
1.0
1001
ACAD
1000
MTEXTBEGIN
1070
    73
1070
     1
1070
    44
1040
1.0
1070
    74
1070
     0
1000
MTEXTEND
  0
POINT
  5
588
330
584
100
AcDbEntity
  8
Defpoints
 62
     0
100
AcDbPoint
 10
-9.266620891412882
 20
15.01183597998152
 30
0.0
  0
POINT
  5
589
330
584
100
AcDbEntity
  8
Defpoints
 62
     0
100
AcDbPoint
 10
-10.7666208914129
 20
15.01183597998152
 30
0.0
  0
POINT
  5
58A
330
584
100
AcDbEntity
  8
Defpoints
 62
     0
100
AcDbPoint
 10
-9.766620891412827
 20
2.980037195910853
 30
0.0
  0
ENDBLK
  5
58B
330
584
100
AcDbEntity
  8
0
100
AcDbBlockEnd
  0
BLOCK
  5
58D
330
58C
100
AcDbEntity
  8
0
100
AcDbBlockBegin
  2
*D50
 70
     1
 10
0.0
 20
0.0
 30
0.0
  3
*D50
  1

  0
LINE
  5
58E
330
58C
100
AcDbEntity
  8
0
 62
     0
370
    -2
100
AcDbLine
 10
-9.516620891412882
 20
18.1180859799818
 30
0.0
 11
-10.76662089141289
 21
18.1180859799818
 31
0.0
  0
MTEXT
  5
58F
330
58C
100
AcDbEntity
  8
0
 62
     0
100
AcDbMText
 10
-12.38195422474622
 20
18.1180859799818
 30
0.0
 40
0.7040000000000001
 41
0.0
 71
     5
 72
     1
  1
\A1;15.138
 73
     1
 44
1.0
1001
ACAD
1000
MTEXTBEGIN
1070
    73
1070
     1
1070
    44
1040
1.0
1070
    74
1070
     0
1000
MTEXTEND
  0
POINT
  5
590
330
58C
100
AcDbEntity
  8
Defpoints
 62
     0
100
AcDbPoint
 10
-9.266620891412882
 20
18.1180859799818
 30
0.0
  0
POINT
  5
591
330
58C
100
AcDbEntity
  8
Defpoints
 62
     0
100
AcDbPoint
 10
-10.76662089141289
 20
18.1180859799818
 30
0.0
  0
POINT
  5
592
330
58C
100
AcDbEntity
  8
Defpoints
 62
     0
100
AcDbPoint
 10
-9.766620891412827
 20
2.980037195910853
 30
0.0
  0
ENDBLK
  5
593
330
58C
100
AcDbEntity
  8
0
100
AcDbBlockEnd
  0
BLOCK
  5
595
330
594
100
AcDbEntity
  8
0
100
AcDbBlockBegin
  2
*D51
 70
     1
 10
0.0
 20
0.0
 30
0.0
  3
*D51
  1

  0
LINE
  5
596
330
594
100
AcDbEntity
  8
0
 62
     0
370
    -2
100
AcDbLine
 10
-0.4266208914127108
 20
27.69812782696636
 30
0.0
 11
1.913379108587168
 21
27.69812782696636
 31
0.0
  0
MTEXT
  5
597
330
594
100
AcDbEntity
  8
0
 62
     0
100
AcDbMText
 10
3.646045775253833
 20
27.69812782696636
 30
0.0
 40
0.7040000000000001
 41
0.0
 71
     5
 72
     1
  1
\A1;24.718
 73
     1
 44
1.0
1001
ACAD
1000
MTEXTBEGIN
1070
    73
1070
     1
1070
    44
1040
1.0
1070
    74
1070
     0
1000
MTEXTEND
  0
POINT
  5
598
330
594
100
AcDbEntity
  8
Defpoints
 62
     0
100
AcDbPoint
 10
-0.6766208914127107
 20
27.69812782696636
 30
0.0
  0
POINT
  5
599
330
594
100
AcDbEntity
  8
Defpoints
 62
     0
100
AcDbPoint
 10
1.913379108587168
 20
27.69812782696636
 30
0.0
  0
POINT
  5
59A
330
594
100
AcDbEntity
  8
Defpoints
 62
     0
100
AcDbPoint
 10
-9.766620891412827
 20
2.980037195910853
 30
0.0
  0
ENDBLK
  5
59B
330
594
100
AcDbEntity
  8
0
100
AcDbBlockEnd
  0
BLOCK
  5
59D
330
59C
100
AcDbEntity
  8
0
100
AcDbBlockBegin
  2
*D52
 70
     1
 10
0.0
 20
0.0
 30
0.0
  3
*D52
  1

  0
LINE
  5
59E
330
59C
100
AcDbEntity
  8
0
 62
     0
370
    -2
100
AcDbLine
 10
-0.0086845797285662
 20
28.69455855231413
 30
0.0
 11
1.913379108587148
 21
28.69455855231413
 31
0.0
  0
MTEXT
  5
59F
330
59C
100
AcDbEntity
  8
0
 62
     0
100
AcDbMText
 10
3.646045775253818
 20
28.69455855231413
 30
0.0
 40
0.7040000000000001
 41
0.0
 71
     5
 72
     1
  1
\A1;25.715
 73
     1
 44
1.0
1001
ACAD
1000
MTEXTBEGIN
1070
    73
1070
     1
1070
    44
1040
1.0
1070
    74
1070
     0
1000
MTEXTEND
  0
POINT
  5
5A0
330
59C
100
AcDbEntity
  8
Defpoints
 62
     0
100
AcDbPoint
 10
-0.2586845797285662
 20
28.69455855231413
 30
0.0
  0
POINT
  5
5A1
330
59C
100
AcDbEntity
  8
Defpoints
 62
     0
100
AcDbPoint
 10
1.913379108587148
 20
28.69455855231413
 30
0.0
  0
POINT
  5
5A2
330
59C
100
AcDbEntity
  8
Defpoints
 62
     0
100
AcDbPoint
 10
-9.766620891412827
 20
2.980037195910853
 30
0.0
  0
ENDBLK
  5
5A3
330
59C
100
AcDbEntity
  8
0
100
AcDbBlockEnd
  0
BLOCK
  5
5A5
330
5A4
100
AcDbEntity
  8
0
100
AcDbBlockBegin
  2
*D53
 70
     1
 10
0.0
 20
0.0
 30
0.0
  3
*D53
  1

  0
LINE
  5
5A6
330
5A4
100
AcDbEntity
  8
0
 62
     0
370
    -2
100
AcDbLine
 10
-4.676620891412794
 20
32.74463015287159
 30
0.0
 11
-10.76662089141284
 21
32.74463015287164
 31
0.0
  0
MTEXT
  5
5A7
330
5A4
100
AcDbEntity
  8
0
 62
     0
100
AcDbMText
 10
-12.61662089141284
 20
32.74463015287164
 30
0.0
 40
0.7040000000000001
 41
0.0
 71
     5
 72
     1
  1
\A1;29.765
 73
     1
 44
1.0
1001
ACAD
1000
MTEXTBEGIN
1070
    73
1070
     1
1070
    44
1040
1.0
1070
    74
1070
     0
1000
MTEXTEND
  0
POINT
  5
5A8
330
5A4
100
AcDbEntity
  8
Defpoints
 62
     0
100
AcDbPoint
 10
-4.426620891412794
 20
32.74463015287159
 30
0.0
  0
POINT
  5
5A9
330
5A4
100
AcDbEntity
  8
Defpoints
 62
     0
100
AcDbPoint
 10
-10.76662089141284
 20
32.74463015287164
 30
0.0
  0
POINT
  5
5AA
330
5A4
100
AcDbEntity
  8
Defpoints
 62
     0
100
AcDbPoint
 10
-9.766620891412827
 20
2.980037195910853
 30
0.0
  0
ENDBLK
  5
5AB
330
5A4
100
AcDbEntity
  8
0
100
AcDbBlockEnd
  0
BLOCK
  5
5AD
330
5AC
100
AcDbEntity
  8
0
100
AcDbBlockBegin
  2
*D54
 70
     1
 10
0.0
 20
0.0
 30
0.0
  3
*D54
  1

  0
LINE
  5
5AE
330
5AC
100
AcDbEntity
  8
0
 62
     0
370
    -2
100
AcDbLine
 10
-4.426620891412851
 20
32.99463015287159
 30
0.0
 11
-4.426620891412887
 21
39.1600371959108
 31
0.0
  0
MTEXT
  5
5AF
330
5AC
100
AcDbEntity
  8
0
 62
     0
100
AcDbMText
 10
-4.426620891412891
 20
40.59937052924412
 30
0.0
 40
0.7040000000000001
 41
0.0
 71
     5
 72
     1
  1
\A1;5.340
 11
0.0000000000000001
 21
1.0
 31
0.0
 73
     1
 44
1.0
1001
ACAD
1000
MTEXTBEGIN
1070
    73
1070
     1
1070
    44
1040
1.0
1070
    74
1070
     0
1000
MTEXTEND
  0
POINT
  5
5B0
330
5AC
100
AcDbEntity
  8
Defpoints
 62
     0
100
AcDbPoint
 10
-4.426620891412851
 20
32.74463015287159
 30
0.0
  0
POINT
  5
5B1
330
5AC
100
AcDbEntity
  8
Defpoints
 62
     0
100
AcDbPoint
 10
-4.426620891412887
 20
39.1600371959108
 30
0.0
  0
POINT
  5
5B2
330
5AC
100
AcDbEntity
  8
Defpoints
 62
     0
100
AcDbPoint
 10
-9.766620891412827
 20
2.980037195910853
 30
0.0
  0
ENDBLK
  5
5B3
330
5AC
100
AcDbEntity
  8
0
100
AcDbBlockEnd
  0
BLOCK
  5
5B5
330
5B4
100
AcDbEntity
  8
0
100
AcDbBlockBegin
  2
*D55
 70
     1
 10
0.0
 20
0.0
 30
0.0
  3
*D55
  1

  0
LINE
  5
5B6
330
5B4
100
AcDbEntity
  8
0
 62
     0
370
    -2
100
AcDbLine
 10
-0.4266208914128529
 20
37.0700371959108
 30
0.0
 11
1.913379108587125
 21
37.0700371959108
 31
0.0
  0
MTEXT
  5
5B7
330
5B4
100
AcDbEntity
  8
0
 62
     0
100
AcDbMText
 10
3.646045775253791
 20
37.0700371959108
 30
0.0
 40
0.7040000000000001
 41
0.0
 71
     5
 72
     1
  1
\A1;34.090
 73
     1
 44
1.0
1001
ACAD
1000
MTEXTBEGIN
1070
    73
1070
     1
1070
    44
1040
1.0
1070
    74
1070
     0
1000
MTEXTEND
  0
POINT
  5
5B8
330
5B4
100
AcDbEntity
  8
Defpoints
 62
     0
100
AcDbPoint
 10
-0.6766208914128528
 20
37.0700371959108
 30
0.0
  0
POINT
  5
5B9
330
5B4
100
AcDbEntity
  8
Defpoints
 62
     0
100
AcDbPoint
 10
1.913379108587125
 20
37.0700371959108
 30
0.0
  0
POINT
  5
5BA
330
5B4
100
AcDbEntity
  8
Defpoints
 62
     0
100
AcDbPoint
 10
-9.766620891412827
 20
2.980037195910853
 30
0.0
  0
ENDBLK
  5
5BB
330
5B4
100
AcDbEntity
  8
0
100
AcDbBlockEnd
  0
BLOCK
  5
5BD
330
5BC
100
AcDbEntity
  8
0
100
AcDbBlockBegin
  2
*D56
 70
     1
 10
0.0
 20
0.0
 30
0.0
  3
*D56
  1

  0
LINE
  5
5BE
330
5BC
100
AcDbEntity
  8
0
 62
     0
370
    -2
100
AcDbLine
 10
0.9133791085871223
 20
38.41003719591083
 30
0.0
 11
0.9133791085871223
 21
39.16003719591083
 31
0.0
  0
MTEXT
  5
5BF
330
5BC
100
AcDbEntity
  8
0
 62
     0
100
AcDbMText
 10
0.9133791085871159
 20
40.77537052924415
 30
0.0
 40
0.7040000000000001
 41
0.0
 71
     5
 72
     1
  1
\A1;10.680
 11
0.0000000000000001
 21
1.0
 31
0.0
 73
     1
 44
1.0
1001
ACAD
1000
MTEXTBEGIN
1070
    73
1070
     1
1070
    44
1040
1.0
1070
    74
1070
     0
1000
MTEXTEND
  0
POINT
  5
5C0
330
5BC
100
AcDbEntity
  8
Defpoints
 62
     0
100
AcDbPoint
 10
0.9133791085871223
 20
38.16003719591083
 30
0.0
  0
POINT
  5
5C1
330
5BC
100
AcDbEntity
  8
Defpoints
 62
     0
100
AcDbPoint
 10
0.9133791085871223
 20
39.16003719591083
 30
0.0
  0
POINT
  5
5C2
330
5BC
100
AcDbEntity
  8
Defpoints
 62
     0
100
AcDbPoint
 10
-9.766620891412827
 20
2.980037195910853
 30
0.0
  0
ENDBLK
  5
5C3
330
5BC
100
AcDbEntity
  8
0
100
AcDbBlockEnd
  0
BLOCK
  5
5C5
330
5C4
100
AcDbEntity
  8
0
100
AcDbBlockBegin
  2
*D57
 70
     1
 10
0.0
 20
0.0
 30
0.0
  3
*D57
  1

  0
LINE
  5
5C6
330
5C4
100
AcDbEntity
  8
0
 62
     0
370
    -2
100
AcDbLine
 10
1.163379108587122
 20
38.16003719591083
 30
0.0
 11
1.91337910858712
 21
38.16003719591083
 31
0.0
  0
MTEXT
  5
5C7
330
5C4
100
AcDbEntity
  8
0
 62
     0
100
AcDbMText
 10
3.587379108587121
 20
38.16003719591083
 30
0.0
 40
0.7040000000000001
 41
0.0
 71
     5
 72
     1
  1
\A1;35.180
 73
     1
 44
1.0
1001
ACAD
1000
MTEXTBEGIN
1070
    73
1070
     1
1070
    44
1040
1.0
1070
    74
1070
     0
1000
MTEXTEND
  0
POINT
  5
5C8
330
5C4
100
AcDbEntity
  8
Defpoints
 62
     0
100
AcDbPoint
 10
0.9133791085871223
 20
38.16003719591083
 30
0.0
  0
POINT
  5
5C9
330
5C4
100
AcDbEntity
  8
Defpoints
 62
     0
100
AcDbPoint
 10
1.91337910858712
 20
38.16003719591083
 30
0.0
  0
POINT
  5
5CA
330
5C4
100
AcDbEntity
  8
Defpoints
 62
     0
100
AcDbPoint
 10
-9.766620891412827
 20
2.980037195910853
 30
0.0
  0
ENDBLK
  5
5CB
330
5C4
100
AcDbEntity
  8
0
100
AcDbBlockEnd
  0
BLOCK
  5
5CD
330
5CC
100
AcDbEntity
  8
0
100
AcDbBlockBegin
  2
*D58
 70
     1
 10
0.0
 20
0.0
 30
0.0
  3
*D58
  1

  0
LINE
  5
5CE
330
5CC
100
AcDbEntity
  8
0
 62
     0
370
    -2
100
AcDbLine
 10
-0.2586845797285662
 20
28.44455855231414
 30
0.0
 11
-0.2586845797285664
 21
27.61979745013329
 31
0.0
  0
LINE
  5
5CF
330
5CC
100
AcDbEntity
  8
0
 62
     0
370
    -2
100
AcDbLine
 10
-0.2586845797285664
 20
27.61979745013329
 30
0.0
 11
-1.261535836164169
 21
27.25979745013329
 31
0.0
  0
LINE
  5
5D0
330
5CC
100
AcDbEntity
  8
0
 62
     0
370
    -2
100
AcDbLine
 10
-1.261535836164169
 20
27.25979745013329
 30
0.0
 11
-1.261535836164169
 21
26.89979745013329
 31
0.0
  0
MTEXT
  5
5D1
330
5CC
100
AcDbEntity
  8
0
 62
     0
100
AcDbMText
 10
-1.261535836164175
 20
25.46046411679996
 30
0.0
 40
0.7040000000000001
 41
0.0
 71
     5
 72
     1
  1
\A1;9.508
 11
0.0000000000000001
 21
1.0
 31
0.0
 73
     1
 44
1.0
1001
ACAD
1000
MTEXTBEGIN
1070
    73
1070
     1
1070
    44
1040
1.0
1070
    74
1070
     0
1000
MTEXTEND
  0
POINT
  5
5D2
330
5CC
100
AcDbEntity
  8
Defpoints
 62
     0
100
AcDbPoint
 10
-0.2586845797285662
 20
28.69455855231413
 30
0.0
  0
POINT
  5
5D3
330
5CC
100
AcDbEntity
  8
Defpoints
 62
     0
100
AcDbPoint
 10
-1.261535836164169
 20
26.89979745013329
 30
0.0
  0
POINT
  5
5D4
330
5CC
100
AcDbEntity
  8
Defpoints
 62
     0
100
AcDbPoint
 10
-9.766620891412827
 20
2.980037195910853
 30
0.0
  0
ENDBLK
  5
5D5
330
5CC
100
AcDbEntity
  8
0
100
AcDbBlockEnd
  0
BLOCK
  5
5D7
330
5D6
100
AcDbEntity
  8
0
100
AcDbBlockBegin
  2
*D59
 70
     1
 10
0.0
 20
0.0
 30
0.0
  3
*D59
  1

  0
LINE
  5
5D8
330
5D6
100
AcDbEntity
  8
0
 62
     0
370
    -2
100
AcDbLine
 10
-9.266620891412882
 20
14.76183597998153
 30
0.0
 11
-9.266620891412882
 21
13.60903457198342
 31
0.0
  0
LINE
  5
5D9
330
5D6
100
AcDbEntity
  8
0
 62
     0
370
    -2
100
AcDbLine
 10
-9.266620891412882
 20
13.60903457198342
 30
0.0
 11
-6.872217601492593
 21
13.24903457198341
 31
0.0
  0
LINE
  5
5DA
330
5D6
100
AcDbEntity
  8
0
 62
     0
370
    -2
100
AcDbLine
 10
-6.872217601492593
 20
13.24903457198341
 30
0.0
 11
-6.872217601492593
 21
12.88903457198341
 31
0.0
  0
MTEXT
  5
5DB
330
5D6
100
AcDbEntity
  8
0
 62
     0
100
AcDbMText
 10
-6.872217601492593
 20
11.56703457198341
 30
0.0
 40
0.7040000000000001
 41
0.0
 71
     5
 72
     1
  1
\A1;0.500
 11
0.0000000000000001
 21
1.0
 31
0.0
 73
     1
 44
1.0
1001
ACAD
1000
MTEXTBEGIN
1070
    73
1070
     1
1070
    44
1040
1.0
1070
    74
1070
     0
1000
MTEXTEND
  0
POINT
  5
5DC
330
5D6
100
AcDbEntity
  8
Defpoints
 62
     0
100
AcDbPoint
 10
-9.266620891412882
 20
15.01183597998152
 30
0.0
  0
POINT
  5
5DD
330
5D6
100
AcDbEntity
  8
Defpoints
 62
     0
100
AcDbPoint
 10
-6.872217601492593
 20
12.88903457198341
 30
0.0
  0
POINT
  5
5DE
330
5D6
100
AcDbEntity
  8
Defpoints
 62
     0
100
AcDbPoint
 10
-9.766620891412827
 20
2.980037195910853
 30
0.0
  0
ENDBLK
  5
5DF
330
5D6
100
AcDbEntity
  8
0
100
AcDbBlockEnd
  0
BLOCK
  5
5E1
330
5E0
100
AcDbEntity
  8
0
100
AcDbBlockBegin
  2
*D60
 70
     1
 10
0.0
 20
0.0
 30
0.0
  3
*D60
  1

  0
LINE
  5
5E2
330
5E0
100
AcDbEntity
  8
0
 62
     0
370
    -2
100
AcDbLine
 10
0.4133791085871791
 20
14.7618359799815
 30
0.0
 11
0.4133791085871791
 21
13.60903457198342
 31
0.0
  0
LINE
  5
5E3
330
5E0
100
AcDbEntity
  8
0
 62
     0
370
    -2
100
AcDbLine
 10
0.4133791085871791
 20
13.60903457198342
 30
0.0
 11
-1.981024181333054
 21
13.24903457198341
 31
0.0
  0
LINE
  5
5E4
330
5E0
100
AcDbEntity
  8
0
 62
     0
370
    -2
100
AcDbLine
 10
-1.981024181333054
 20
13.24903457198341
 30
0.0
 11
-1.981024181333054
 21
12.88903457198341
 31
0.0
  0
MTEXT
  5
5E5
330
5E0
100
AcDbEntity
  8
0
 62
     0
100
AcDbMText
 10
-1.981024181333054
 20
11.39103457198341
 30
0.0
 40
0.7040000000000001
 41
0.0
 71
     5
 72
     1
  1
\A1;10.180
 11
0.0000000000000001
 21
1.0
 31
0.0
 73
     1
 44
1.0
1001
ACAD
1000
MTEXTBEGIN
1070
    73
1070
     1
1070
    44
1040
1.0
1070
    74
1070
     0
1000
MTEXTEND
  0
POINT
  5
5E6
330
5E0
100
AcDbEntity
  8
Defpoints
 62
     0
100
AcDbPoint
 10
0.4133791085871792
 20
15.01183597998149
 30
0.0
  0
POINT
  5
5E7
330
5E0
100
AcDbEntity
  8
Defpoints
 62
     0
100
AcDbPoint
 10
-1.981024181333054
 20
12.88903457198341
 30
0.0
  0
POINT
  5
5E8
330
5E0
100
AcDbEntity
  8
Defpoints
 62
     0
100
AcDbPoint
 10
-9.766620891412827
 20
2.980037195910853
 30
0.0
  0
ENDBLK
  5
5E9
330
5E0
100
AcDbEntity
  8
0
100
AcDbBlockEnd
  0
BLOCK
  5
5EB
330
5EA
100
AcDbEntity
  8
0
100
AcDbBlockBegin
  2
*D61
 70
     1
 10
0.0
 20
0.0
 30
0.0
  3
*D61
  1

  0
LINE
  5
5EC
330
5EA
100
AcDbEntity
  8
0
 62
     0
370
    -2
100
AcDbLine
 10
2.617379108587154
 20
31.68138376156747
 30
0.0
 11
1.913379108587154
 21
31.68138376156747
 31
0.0
  0
LINE
  5
5ED
330
5EA
100
AcDbEntity
  8
0
 62
     0
370
    -2
100
AcDbLine
 10
1.913379108587154
 20
31.68138376156747
 30
0.0
 11
0.5229549278414522
 21
29.76939839164169
 31
0.0
  0
MTEXT
  5
5EE
330
5EA
100
AcDbEntity
  8
0
 62
     0
100
AcDbMText
 10
4.291379108587153
 20
31.68138376156747
 30
0.0
 40
0.7040000000000001
 41
0.0
 71
     5
 72
     1
  1
\A1;\U+22051.250
 73
     1
 44
1.0
1001
ACAD
1000
MTEXTBEGIN
1070
    73
1070
     1
1070
    44
1040
1.0
1070
    74
1070
     0
1000
MTEXTEND
  0
SOLID
  5
5EF
330
5EA
100
AcDbEntity
  8
0
 62
     0
100
AcDbTrace
 10
0.4280606154654035
 20
29.83840694610988
 30
0.0
 11
0.6178492402175007
 21
29.70038983717351
 31
0.0
 12
0.1089036010323525
 22
29.20003251738542
 32
0.0
 13
0.1089036010323525
 23
29.20003251738542
 33
0.0
  0
LINE
  5
5F0
330
5EA
100
AcDbEntity
  8
0
 62
     0
370
    -2
100
AcDbLine
 10
-0.348684579728566
 20
28.69455855231413
 30
0.0
 11
-0.1686845797285681
 21
28.69455855231413
 31
0.0
  0
LINE
  5
5F1
330
5EA
100
AcDbEntity
  8
0
 62
     0
370
    -2
100
AcDbLine
 10
-0.2586845797285679
 20
28.60455855231413
 30
0.0
 11
-0.2586845797285662
 21
28.78455855231413
 31
0.0
  0
POINT
  5
5F2
330
5EA
100
AcDbEntity
  8
Defpoints
 62
     0
100
AcDbPoint
 10
0.1089036010323525
 20
29.20003251738542
 30
0.0
  0
POINT
  5
5F3
330
5EA
100
AcDbEntity
  8
Defpoints
 62
     0
100
AcDbPoint
 10
-0.6262727604894849
 20
28.18908458724286
 30
0.0
  0
ENDBLK
  5
5F4
330
5EA
100
AcDbEntity
  8
0
100
AcDbBlockEnd
  0
BLOCK
  5
5F6
330
5F5
100
AcDbEntity
  8
0
100
AcDbBlockBegin
  2
*D62
 70
     1
 10
0.0
 20
0.0
 30
0.0
  3
*D62
  1

  0
LINE
  5
5F7
330
5F5
100
AcDbEntity
  8
0
 62
     0
370
    -2
100
AcDbLine
 10
2.617379108587293
 20
24.66670218456068
 30
0.0
 11
1.91337910858726
 21
24.66670218456068
 31
0.0
  0
LINE
  5
5F8
330
5F5
100
AcDbEntity
  8
0
 62
     0
370
    -2
100
AcDbLine
 10
1.91337910858726
 20
24.66670218456068
 30
0.0
 11
-0.0975192938572551
 21
27.0203272739209
 31
0.0
  0
MTEXT
  5
5F9
330
5F5
100
AcDbEntity
  8
0
 62
     0
100
AcDbMText
 10
5.582045775253957
 20
24.66670218456068
 30
0.0
 40
0.7040000000000001
 41
0.0
 71
     5
 72
     1
  1
\A1;\U+22050.375 (8)
 73
     1
 44
1.0
1001
ACAD
1000
MTEXTBEGIN
1070
    73
1070
     1
1070
    44
1040
1.0
1070
    74
1070
     0
1000
MTEXTEND
  0
SOLID
  5
5FA
330
5F5
100
AcDbEntity
  8
0
 62
     0
100
AcDbTrace
 10
-0.0083116682554607
 20
27.09654479582762
 30
0.0
 11
-0.1867269194590513
 21
26.94410975201418
 31
0.0
 12
-0.5548244252975696
 22
27.55557302753167
 32
0.0
 13
-0.5548244252975696
 23
27.55557302753167
 33
0.0
  0
LINE
  5
5FB
330
5F5
100
AcDbEntity
  8
0
 62
     0
370
    -2
100
AcDbLine
 10
-0.7666208914127087
 20
27.69812782696635
 30
0.0
 11
-0.5866208914127107
 21
27.69812782696635
 31
0.0
  0
LINE
  5
5FC
330
5F5
100
AcDbEntity
  8
0
 62
     0
370
    -2
100
AcDbLine
 10
-0.6766208914127107
 20
27.60812782696636
 30
0.0
 11
-0.6766208914127107
 21
27.78812782696635
 31
0.0
  0
POINT
  5
5FD
330
5F5
100
AcDbEntity
  8
Defpoints
 62
     0
100
AcDbPoint
 10
-0.5548244252975696
 20
27.55557302753167
 30
0.0
  0
POINT
  5
5FE
330
5F5
100
AcDbEntity
  8
Defpoints
 62
     0
100
AcDbPoint
 10
-0.7984173575278515
 20
27.84068262640104
 30
0.0
  0
ENDBLK
  5
5FF
330
5F5
100
AcDbEntity
  8
0
100
AcDbBlockEnd
  0
BLOCK
  5
601
330
600
100
AcDbEntity
  8
0
100
AcDbBlockBegin
  2
*D63
 70
     1
 10
0.0
 20
0.0
 30
0.0
  3
*D63
  1

  0
LINE
  5
602
330
600
100
AcDbEntity
  8
0
 62
     0
370
    -2
100
AcDbLine
 10
2.617379108587138
 20
35.26124402915849
 30
0.0
 11
1.913379108587138
 21
35.26124402915849
 31
0.0
  0
LINE
  5
603
330
600
100
AcDbEntity
  8
0
 62
     0
370
    -2
100
AcDbLine
 10
1.913379108587138
 20
35.26124402915849
 30
0.0
 11
-0.9839252373510447
 21
34.11118151798902
 31
0.0
  0
MTEXT
  5
604
330
600
100
AcDbEntity
  8
0
 62
     0
100
AcDbMText
 10
4.291379108587138
 20
35.26124402915849
 30
0.0
 40
0.7040000000000001
 41
0.0
 71
     5
 72
     1
  1
\A1;\U+22056.000
 73
     1
 44
1.0
1001
ACAD
1000
MTEXTBEGIN
1070
    73
1070
     1
1070
    44
1040
1.0
1070
    74
1070
     0
1000
MTEXTEND
  0
SOLID
  5
605
330
600
100
AcDbEntity
  8
0
 62
     0
100
AcDbTrace
 10
-1.027214121487235
 20
34.22023739183979
 30
0.0
 11
-0.9406363532148539
 21
34.00212564413826
 31
0.0
 12
-1.638260480455653
 22
33.85144821317189
 32
0.0
 13
-1.638260480455653
 23
33.85144821317189
 33
0.0
  0
LINE
  5
606
330
600
100
AcDbEntity
  8
0
 62
     0
370
    -2
100
AcDbLine
 10
-4.516620891412793
 20
32.74463015287159
 30
0.0
 11
-4.336620891412795
 21
32.74463015287159
 31
0.0
  0
LINE
  5
607
330
600
100
AcDbEntity
  8
0
 62
     0
370
    -2
100
AcDbLine
 10
-4.426620891412794
 20
32.65463015287159
 30
0.0
 11
-4.426620891412794
 21
32.83463015287159
 31
0.0
  0
POINT
  5
608
330
600
100
AcDbEntity
  8
Defpoints
 62
     0
100
AcDbPoint
 10
-1.638260480455653
 20
33.85144821317189
 30
0.0
  0
POINT
  5
609
330
600
100
AcDbEntity
  8
Defpoints
 62
     0
100
AcDbPoint
 10
-7.214981302369942
 20
31.6378120925713
 30
0.0
  0
ENDBLK
  5
60A
330
600
100
AcDbEntity
  8
0
100
AcDbBlockEnd
  0
BLOCK
  5
695
330
68D
100
AcDbEntity
  8
0
100
AcDbBlockBegin
  2
*D65
 70
     1
 10
0.0
 20
0.0
 30
0.0
  3
*D65
  1

  0
LINE
  5
704
330
68D
100
AcDbEntity
  8
0
 62
     0
370
    -2
100
AcDbLine
 10
49.30588926073099
 20
15.48250827262551
 30
0.0
 11
49.30588926073099
 21
14.32970686462741
 31
0.0
  0
LINE
  5
705
330
68D
100
AcDbEntity
  8
0
 62
     0
370
    -2
100
AcDbLine
 10
49.30588926073099
 20
14.32970686462741
 30
0.0
 11
51.70029255065128
 21
13.9697068646274
 31
0.0
  0
LINE
  5
706
330
68D
100
AcDbEntity
  8
0
 62
     0
370
    -2
100
AcDbLine
 10
51.70029255065128
 20
13.9697068646274
 30
0.0
 11
51.70029255065128
 21
13.60970686462741
 31
0.0
  0
MTEXT
  5
707
330
68D
100
AcDbEntity
  8
0
 62
     0
100
AcDbMText
 10
51.70029255065128
 20
12.28770686462741
 30
0.0
 40
0.7040000000000001
 41
0.0
 71
     5
 72
     1
  1
\A1;0.500
 11
0.0000000000000001
 21
1.0
 31
0.0
 73
     1
 44
1.0
1001
ACAD
1000
MTEXTBEGIN
1070
    73
1070
     1
1070
    44
1040
1.0
1070
    74
1070
     0
1000
MTEXTEND
  0
POINT
  5
708
330
68D
100
AcDbEntity
  8
Defpoints
 62
     0
100
AcDbPoint
 10
49.30588926073099
 20
15.73250827262551
 30
0.0
  0
POINT
  5
709
330
68D
100
AcDbEntity
  8
Defpoints
 62
     0
100
AcDbPoint
 10
51.70029255065128
 20
13.60970686462741
 30
0.0
  0
POINT
  5
70A
330
68D
100
AcDbEntity
  8
Defpoints
 62
     0
100
AcDbPoint
 10
48.80588926073105
 20
3.700709488554849
 30
0.0
  0
ENDBLK
  5
696
330
68D
100
AcDbEntity
  8
0
100
AcDbBlockEnd
  0
BLOCK
  5
69F
330
697
100
AcDbEntity
  8
0
100
AcDbBlockBegin
  2
*D66
 70
     1
 10
0.0
 20
0.0
 30
0.0
  3
*D66
  1

  0
LINE
  5
70B
330
697
100
AcDbEntity
  8
0
 62
     0
370
    -2
100
AcDbLine
 10
58.31382557241531
 20
29.16523084495813
 30
0.0
 11
58.31382557241531
 21
28.34046974277729
 31
0.0
  0
LINE
  5
70C
330
697
100
AcDbEntity
  8
0
 62
     0
370
    -2
100
AcDbLine
 10
58.31382557241531
 20
28.34046974277729
 30
0.0
 11
57.3109743159797
 21
27.98046974277729
 31
0.0
  0
LINE
  5
70D
330
697
100
AcDbEntity
  8
0
 62
     0
370
    -2
100
AcDbLine
 10
57.3109743159797
 20
27.98046974277729
 30
0.0
 11
57.3109743159797
 21
27.62046974277729
 31
0.0
  0
MTEXT
  5
70E
330
697
100
AcDbEntity
  8
0
 62
     0
100
AcDbMText
 10
57.31097431597969
 20
26.18113640944397
 30
0.0
 40
0.7040000000000001
 41
0.0
 71
     5
 72
     1
  1
\A1;9.508
 11
0.0000000000000001
 21
1.0
 31
0.0
 73
     1
 44
1.0
1001
ACAD
1000
MTEXTBEGIN
1070
    73
1070
     1
1070
    44
1040
1.0
1070
    74
1070
     0
1000
MTEXTEND
  0
POINT
  5
70F
330
697
100
AcDbEntity
  8
Defpoints
 62
     0
100
AcDbPoint
 10
58.31382557241531
 20
29.41523084495813
 30
0.0
  0
POINT
  5
710
330
697
100
AcDbEntity
  8
Defpoints
 62
     0
100
AcDbPoint
 10
57.3109743159797
 20
27.62046974277729
 30
0.0
  0
POINT
  5
711
330
697
100
AcDbEntity
  8
Defpoints
 62
     0
100
AcDbPoint
 10
48.80588926073105
 20
3.700709488554849
 30
0.0
  0
ENDBLK
  5
6A0
330
697
100
AcDbEntity
  8
0
100
AcDbBlockEnd
  0
BLOCK
  5
6A7
330
6A1
100
AcDbEntity
  8
0
100
AcDbBlockBegin
  2
*D67
 70
     1
 10
0.0
 20
0.0
 30
0.0
  3
*D67
  1

  0
LINE
  5
712
330
6A1
100
AcDbEntity
  8
0
 62
     0
370
    -2
100
AcDbLine
 10
59.735889260731
 20
38.88070948855483
 30
0.0
 11
60.485889260731
 21
38.88070948855483
 31
0.0
  0
MTEXT
  5
713
330
6A1
100
AcDbEntity
  8
0
 62
     0
100
AcDbMText
 10
62.159889260731
 20
38.88070948855483
 30
0.0
 40
0.7040000000000001
 41
0.0
 71
     5
 72
     1
  1
\A1;35.180
 73
     1
 44
1.0
1001
ACAD
1000
MTEXTBEGIN
1070
    73
1070
     1
1070
    44
1040
1.0
1070
    74
1070
     0
1000
MTEXTEND
  0
POINT
  5
714
330
6A1
100
AcDbEntity
  8
Defpoints
 62
     0
100
AcDbPoint
 10
59.48588926073099
 20
38.88070948855483
 30
0.0
  0
POINT
  5
715
330
6A1
100
AcDbEntity
  8
Defpoints
 62
     0
100
AcDbPoint
 10
60.485889260731
 20
38.88070948855483
 30
0.0
  0
POINT
  5
716
330
6A1
100
AcDbEntity
  8
Defpoints
 62
     0
100
AcDbPoint
 10
48.80588926073105
 20
3.700709488554849
 30
0.0
  0
ENDBLK
  5
6A8
330
6A1
100
AcDbEntity
  8
0
100
AcDbBlockEnd
  0
BLOCK
  5
6AF
330
6A9
100
AcDbEntity
  8
0
100
AcDbBlockBegin
  2
*D68
 70
     1
 10
0.0
 20
0.0
 30
0.0
  3
*D68
  1

  0
LINE
  5
727
330
6A9
100
AcDbEntity
  8
0
 62
     0
370
    -2
100
AcDbLine
 10
54.14588926073102
 20
33.71530244551558
 30
0.0
 11
54.14588926073099
 21
39.88070948855479
 31
0.0
  0
MTEXT
  5
728
330
6A9
100
AcDbEntity
  8
0
 62
     0
100
AcDbMText
 10
54.14588926073098
 20
41.32004282188813
 30
0.0
 40
0.7040000000000001
 41
0.0
 71
     5
 72
     1
  1
\A1;5.340
 11
0.0000000000000001
 21
1.0
 31
0.0
 73
     1
 44
1.0
1001
ACAD
1000
MTEXTBEGIN
1070
    73
1070
     1
1070
    44
1040
1.0
1070
    74
1070
     0
1000
MTEXTEND
  0
POINT
  5
729
330
6A9
100
AcDbEntity
  8
Defpoints
 62
     0
100
AcDbPoint
 10
54.14588926073102
 20
33.46530244551559
 30
0.0
  0
POINT
  5
72A
330
6A9
100
AcDbEntity
  8
Defpoints
 62
     0
100
AcDbPoint
 10
54.14588926073099
 20
39.88070948855479
 30
0.0
  0
POINT
  5
72B
330
6A9
100
AcDbEntity
  8
Defpoints
 62
     0
100
AcDbPoint
 10
48.80588926073105
 20
3.700709488554849
 30
0.0
  0
ENDBLK
  5
6B0
330
6A9
100
AcDbEntity
  8
0
100
AcDbBlockEnd
  0
BLOCK
  5
6B7
330
6B1
100
AcDbEntity
  8
0
100
AcDbBlockBegin
  2
*D69
 70
     1
 10
0.0
 20
0.0
 30
0.0
  3
*D69
  1

  0
LINE
  5
72C
330
6B1
100
AcDbEntity
  8
0
 62
     0
370
    -2
100
AcDbLine
 10
53.89588926073108
 20
33.46530244551559
 30
0.0
 11
47.80588926073103
 21
33.46530244551564
 31
0.0
  0
MTEXT
  5
72D
330
6B1
100
AcDbEntity
  8
0
 62
     0
100
AcDbMText
 10
45.95588926073103
 20
33.46530244551564
 30
0.0
 40
0.7040000000000001
 41
0.0
 71
     5
 72
     1
  1
\A1;29.765
 73
     1
 44
1.0
1001
ACAD
1000
MTEXTBEGIN
1070
    73
1070
     1
1070
    44
1040
1.0
1070
    74
1070
     0
1000
MTEXTEND
  0
POINT
  5
72E
330
6B1
100
AcDbEntity
  8
Defpoints
 62
     0
100
AcDbPoint
 10
54.14588926073108
 20
33.46530244551559
 30
0.0
  0
POINT
  5
72F
330
6B1
100
AcDbEntity
  8
Defpoints
 62
     0
100
AcDbPoint
 10
47.80588926073103
 20
33.46530244551564
 30
0.0
  0
POINT
  5
730
330
6B1
100
AcDbEntity
  8
Defpoints
 62
     0
100
AcDbPoint
 10
48.80588926073105
 20
3.700709488554849
 30
0.0
  0
ENDBLK
  5
6B8
330
6B1
100
AcDbEntity
  8
0
100
AcDbBlockEnd
  0
BLOCK
  5
6BF
330
6B9
100
AcDbEntity
  8
0
100
AcDbBlockBegin
  2
*D70
 70
     1
 10
0.0
 20
0.0
 30
0.0
  3
*D70
  1

  0
LINE
  5
751
330
6B9
100
AcDbEntity
  8
0
 62
     0
370
    -2
100
AcDbLine
 10
58.14588926073103
 20
13.29070948855483
 30
0.0
 11
60.48588926073108
 21
13.29070948855486
 31
0.0
  0
MTEXT
  5
752
330
6B9
100
AcDbEntity
  8
0
 62
     0
100
AcDbMText
 10
61.92522259406442
 20
13.29070948855486
 30
0.0
 40
0.7040000000000001
 41
0.0
 71
     5
 72
     1
  1
\A1;9.590
 73
     1
 44
1.0
1001
ACAD
1000
MTEXTBEGIN
1070
    73
1070
     1
1070
    44
1040
1.0
1070
    74
1070
     0
1000
MTEXTEND
  0
POINT
  5
753
330
6B9
100
AcDbEntity
  8
Defpoints
 62
     0
100
AcDbPoint
 10
57.89588926073102
 20
13.29070948855483
 30
0.0
  0
POINT
  5
754
330
6B9
100
AcDbEntity
  8
Defpoints
 62
     0
100
AcDbPoint
 10
60.48588926073108
 20
13.29070948855486
 30
0.0
  0
POINT
  5
755
330
6B9
100
AcDbEntity
  8
Defpoints
 62
     0
100
AcDbPoint
 10
48.80588926073105
 20
3.700709488554849
 30
0.0
  0
ENDBLK
  5
6C0
330
6B9
100
AcDbEntity
  8
0
100
AcDbBlockEnd
  0
BLOCK
  5
6C7
330
6C1
100
AcDbEntity
  8
0
100
AcDbBlockBegin
  2
*D71
 70
     1
 10
0.0
 20
0.0
 30
0.0
  3
*D71
  1

  0
LINE
  5
75E
330
6C1
100
AcDbEntity
  8
0
 62
     0
370
    -2
100
AcDbLine
 10
50.39588926073108
 20
6.040709488554792
 30
0.0
 11
50.39588926073108
 21
2.700709488554856
 31
0.0
  0
MTEXT
  5
75F
330
6C1
100
AcDbEntity
  8
0
 62
     0
100
AcDbMText
 10
50.39588926073108
 20
1.378709488554864
 30
0.0
 40
0.7040000000000001
 41
0.0
 71
     5
 72
     1
  1
\A1;1.590
 11
0.0000000000000001
 21
1.0
 31
0.0
 73
     1
 44
1.0
1001
ACAD
1000
MTEXTBEGIN
1070
    73
1070
     1
1070
    44
1040
1.0
1070
    74
1070
     0
1000
MTEXTEND
  0
POINT
  5
760
330
6C1
100
AcDbEntity
  8
Defpoints
 62
     0
100
AcDbPoint
 10
50.39588926073108
 20
6.290709488554792
 30
0.0
  0
POINT
  5
761
330
6C1
100
AcDbEntity
  8
Defpoints
 62
     0
100
AcDbPoint
 10
50.39588926073108
 20
2.700709488554856
 30
0.0
  0
POINT
  5
762
330
6C1
100
AcDbEntity
  8
Defpoints
 62
     0
100
AcDbPoint
 10
48.80588926073105
 20
3.700709488554849
 30
0.0
  0
ENDBLK
  5
6C8
330
6C1
100
AcDbEntity
  8
0
100
AcDbBlockEnd
  0
BLOCK
  5
6CF
330
6C9
100
AcDbEntity
  8
0
100
AcDbBlockBegin
  2
*D72
 70
     1
 10
0.0
 20
0.0
 30
0.0
  3
*D72
  1

  0
LINE
  5
763
330
6C9
100
AcDbEntity
  8
0
 62
     0
370
    -2
100
AcDbLine
 10
58.14588926073103
 20
6.290709488554792
 30
0.0
 11
60.4858892607311
 21
6.290709488554838
 31
0.0
  0
MTEXT
  5
764
330
6C9
100
AcDbEntity
  8
0
 62
     0
100
AcDbMText
 10
61.92522259406444
 20
6.290709488554838
 30
0.0
 40
0.7040000000000001
 41
0.0
 71
     5
 72
     1
  1
\A1;2.590
 73
     1
 44
1.0
1001
ACAD
1000
MTEXTBEGIN
1070
    73
1070
     1
1070
    44
1040
1.0
1070
    74
1070
     0
1000
MTEXTEND
  0
POINT
  5
765
330
6C9
100
AcDbEntity
  8
Defpoints
 62
     0
100
AcDbPoint
 10
57.89588926073102
 20
6.290709488554792
 30
0.0
  0
POINT
  5
766
330
6C9
100
AcDbEntity
  8
Defpoints
 62
     0
100
AcDbPoint
 10
60.4858892607311
 20
6.290709488554838
 30
0.0
  0
POINT
  5
767
330
6C9
100
AcDbEntity
  8
Defpoints
 62
     0
100
AcDbPoint
 10
48.80588926073105
 20
3.700709488554849
 30
0.0
  0
ENDBLK
  5
6D0
330
6C9
100
AcDbEntity
  8
0
100
AcDbBlockEnd
  0
BLOCK
  5
6D7
330
6D1
100
AcDbEntity
  8
0
100
AcDbBlockBegin
  2
*D73
 70
     1
 10
0.0
 20
0.0
 30
0.0
  3
*D73
  1

  0
LINE
  5
768
330
6D1
100
AcDbEntity
  8
0
 62
     0
370
    -2
100
AcDbLine
 10
48.80588926073105
 20
3.450709488554849
 30
0.0
 11
48.80588926073105
 21
2.700709488554849
 31
0.0
  0
MTEXT
  5
769
330
6D1
100
AcDbEntity
  8
0
 62
     0
100
AcDbMText
 10
48.80588926073105
 20
1.437376155221524
 30
0.0
 40
0.7040000000000001
 41
0.0
 71
     5
 72
     1
  1
\A1;0.000
 11
0.0000000000000001
 21
1.0
 31
0.0
 73
     1
 44
1.0
1001
ACAD
1000
MTEXTBEGIN
1070
    73
1070
     1
1070
    44
1040
1.0
1070
    74
1070
     0
1000
MTEXTEND
  0
POINT
  5
76A
330
6D1
100
AcDbEntity
  8
Defpoints
 62
     0
100
AcDbPoint
 10
48.80588926073105
 20
3.700709488554849
 30
0.0
  0
POINT
  5
76B
330
6D1
100
AcDbEntity
  8
Defpoints
 62
     0
100
AcDbPoint
 10
48.80588926073105
 20
2.700709488554849
 30
0.0
  0
POINT
  5
76C
330
6D1
100
AcDbEntity
  8
Defpoints
 62
     0
100
AcDbPoint
 10
48.80588926073105
 20
3.700709488554849
 30
0.0
  0
ENDBLK
  5
6D8
330
6D1
100
AcDbEntity
  8
0
100
AcDbBlockEnd
  0
BLOCK
  5
6E2
330
6D9
100
AcDbEntity
  8
0
100
AcDbBlockBegin
  2
*D74
 70
     1
 10
0.0
 20
0.0
 30
0.0
  3
*D74
  1

  0
LINE
  5
775
330
6D9
100
AcDbEntity
  8
0
 62
     0
370
    -2
100
AcDbLine
 10
61.189889260731
 20
35.98191632180247
 30
0.0
 11
60.48588926073099
 21
35.98191632180247
 31
0.0
  0
LINE
  5
776
330
6D9
100
AcDbEntity
  8
0
 62
     0
370
    -2
100
AcDbLine
 10
60.48588926073099
 20
35.98191632180247
 30
0.0
 11
57.58858491479283
 21
34.831853810633
 31
0.0
  0
MTEXT
  5
777
330
6D9
100
AcDbEntity
  8
0
 62
     0
100
AcDbMText
 10
62.86388926073101
 20
35.98191632180247
 30
0.0
 40
0.7040000000000001
 41
0.0
 71
     5
 72
     1
  1
\A1;\U+22056.000
 73
     1
 44
1.0
1001
ACAD
1000
MTEXTBEGIN
1070
    73
1070
     1
1070
    44
1040
1.0
1070
    74
1070
     0
1000
MTEXTEND
  0
SOLID
  5
778
330
6D9
100
AcDbEntity
  8
0
 62
     0
100
AcDbTrace
 10
57.54529603065664
 20
34.94090968448377
 30
0.0
 11
57.63187379892902
 21
34.72279793678224
 31
0.0
 12
56.93424967168823
 22
34.57212050581587
 32
0.0
 13
56.93424967168823
 23
34.57212050581587
 33
0.0
  0
LINE
  5
779
330
6D9
100
AcDbEntity
  8
0
 62
     0
370
    -2
100
AcDbLine
 10
54.05588926073107
 20
33.46530244551557
 30
0.0
 11
54.23588926073108
 21
33.46530244551558
 31
0.0
  0
LINE
  5
77A
330
6D9
100
AcDbEntity
  8
0
 62
     0
370
    -2
100
AcDbLine
 10
54.14588926073108
 20
33.37530244551557
 30
0.0
 11
54.14588926073108
 21
33.55530244551558
 31
0.0
  0
POINT
  5
77B
330
6D9
100
AcDbEntity
  8
Defpoints
 62
     0
100
AcDbPoint
 10
56.93424967168823
 20
34.57212050581587
 30
0.0
  0
POINT
  5
77C
330
6D9
100
AcDbEntity
  8
Defpoints
 62
     0
100
AcDbPoint
 10
51.35752884977393
 20
32.35848438521529
 30
0.0
  0
ENDBLK
  5
6E3
330
6D9
100
AcDbEntity
  8
0
100
AcDbBlockEnd
  0
BLOCK
  5
6ED
330
6E4
100
AcDbEntity
  8
0
100
AcDbBlockBegin
  2
*D75
 70
     1
 10
0.0
 20
0.0
 30
0.0
  3
*D75
  1

  0
LINE
  5
7BF
330
6E4
100
AcDbEntity
  8
0
 62
     0
370
    -2
100
AcDbLine
 10
17.24375657301382
 20
25.20609564053057
 30
0.0
 11
17.94775657301382
 21
25.20609564053058
 31
0.0
  0
LINE
  5
7C0
330
6E4
100
AcDbEntity
  8
0
 62
     0
370
    -2
100
AcDbLine
 10
17.94775657301382
 20
25.20609564053058
 30
0.0
 11
19.95865497545849
 21
27.5597207298908
 31
0.0
  0
MTEXT
  5
7C1
330
6E4
100
AcDbEntity
  8
0
 62
     0
100
AcDbMText
 10
14.27908990634716
 20
25.20609564053058
 30
0.0
 40
0.7040000000000001
 41
0.0
 71
     5
 72
     1
  1
\A1;\U+22050.375 (8)
 73
     1
 44
1.0
1001
ACAD
1000
MTEXTBEGIN
1070
    73
1070
     1
1070
    44
1040
1.0
1070
    74
1070
     0
1000
MTEXTEND
  0
SOLID
  5
7C2
330
6E4
100
AcDbEntity
  8
0
 62
     0
100
AcDbTrace
 10
19.86944734985669
 20
27.63593825179752
 30
0.0
 11
20.04786260106028
 21
27.48350320798408
 31
0.0
 12
20.41596010689882
 22
28.09496648350155
 32
0.0
 13
20.41596010689882
 23
28.09496648350155
 33
0.0
  0
LINE
  5
7C3
330
6E4
100
AcDbEntity
  8
0
 62
     0
370
    -2
100
AcDbLine
 10
20.44775657301397
 20
28.23752128293624
 30
0.0
 11
20.62775657301397
 21
28.23752128293624
 31
0.0
  0
LINE
  5
7C4
330
6E4
100
AcDbEntity
  8
0
 62
     0
370
    -2
100
AcDbLine
 10
20.53775657301397
 20
28.14752128293625
 30
0.0
 11
20.53775657301397
 21
28.32752128293624
 31
0.0
  0
POINT
  5
7C5
330
6E4
100
AcDbEntity
  8
Defpoints
 62
     0
100
AcDbPoint
 10
20.41596010689882
 20
28.09496648350155
 30
0.0
  0
POINT
  5
7C6
330
6E4
100
AcDbEntity
  8
Defpoints
 62
     0
100
AcDbPoint
 10
20.65955303912911
 20
28.38007608237092
 30
0.0
  0
ENDBLK
  5
6EE
330
6E4
100
AcDbEntity
  8
0
100
AcDbBlockEnd
  0
BLOCK
  5
6F8
330
6EF
100
AcDbEntity
  8
0
100
AcDbBlockBegin
  2
*D76
 70
     1
 10
0.0
 20
0.0
 30
0.0
  3
*D76
  1

  0
LINE
  5
785
330
6EF
100
AcDbEntity
  8
0
 62
     0
370
    -2
100
AcDbLine
 10
61.18988926073106
 20
32.40205605421146
 30
0.0
 11
60.485889260731
 21
32.40205605421146
 31
0.0
  0
LINE
  5
786
330
6EF
100
AcDbEntity
  8
0
 62
     0
370
    -2
100
AcDbLine
 10
60.485889260731
 20
32.40205605421146
 30
0.0
 11
59.09546507998533
 21
30.49007068428569
 31
0.0
  0
MTEXT
  5
787
330
6EF
100
AcDbEntity
  8
0
 62
     0
100
AcDbMText
 10
62.86388926073104
 20
32.40205605421146
 30
0.0
 40
0.7040000000000001
 41
0.0
 71
     5
 72
     1
  1
\A1;\U+22051.250
 73
     1
 44
1.0
1001
ACAD
1000
MTEXTBEGIN
1070
    73
1070
     1
1070
    44
1040
1.0
1070
    74
1070
     0
1000
MTEXTEND
  0
SOLID
  5
788
330
6EF
100
AcDbEntity
  8
0
 62
     0
100
AcDbTrace
 10
59.00057076760928
 20
30.55907923875388
 30
0.0
 11
59.19035939236138
 21
30.42106212981751
 31
0.0
 12
58.68141375317624
 22
29.9207048100294
 32
0.0
 13
58.68141375317624
 23
29.9207048100294
 33
0.0
  0
LINE
  5
789
330
6EF
100
AcDbEntity
  8
0
 62
     0
370
    -2
100
AcDbLine
 10
58.22382557241533
 20
29.41523084495813
 30
0.0
 11
58.40382557241533
 21
29.41523084495813
 31
0.0
  0
LINE
  5
78A
330
6EF
100
AcDbEntity
  8
0
 62
     0
370
    -2
100
AcDbLine
 10
58.31382557241534
 20
29.32523084495813
 30
0.0
 11
58.31382557241534
 21
29.50523084495813
 31
0.0
  0
POINT
  5
78B
330
6EF
100
AcDbEntity
  8
Defpoints
 62
     0
100
AcDbPoint
 10
58.68141375317624
 20
29.9207048100294
 30
0.0
  0
POINT
  5
78C
330
6EF
100
AcDbEntity
  8
Defpoints
 62
     0
100
AcDbPoint
 10
57.94623739165442
 20
28.90975687988686
 30
0.0
  0
ENDBLK
  5
6F9
330
6EF
100
AcDbEntity
  8
0
100
AcDbBlockEnd
  0
BLOCK
  5
702
330
6FA
100
AcDbEntity
  8
0
100
AcDbBlockBegin
  2
*D77
 70
     1
 10
0.0
 20
0.0
 30
0.0
  3
*D77
  1

  0
LINE
  5
6FB
330
6FA
100
AcDbEntity
  8
0
 62
     0
370
    -2
100
AcDbLine
 10
58.98588926073106
 20
15.48250827262548
 30
0.0
 11
58.98588926073106
 21
14.32970686462741
 31
0.0
  0
LINE
  5
6FC
330
6FA
100
AcDbEntity
  8
0
 62
     0
370
    -2
100
AcDbLine
 10
58.98588926073106
 20
14.32970686462741
 30
0.0
 11
56.59148597081082
 21
13.9697068646274
 31
0.0
  0
LINE
  5
6FD
330
6FA
100
AcDbEntity
  8
0
 62
     0
370
    -2
100
AcDbLine
 10
56.59148597081082
 20
13.9697068646274
 30
0.0
 11
56.59148597081082
 21
13.60970686462741
 31
0.0
  0
MTEXT
  5
6FE
330
6FA
100
AcDbEntity
  8
0
 62
     0
100
AcDbMText
 10
56.59148597081082
 20
12.11170686462741
 30
0.0
 40
0.7040000000000001
 41
0.0
 71
     5
 72
     1
  1
\A1;10.180
 11
0.0000000000000001
 21
1.0
 31
0.0
 73
     1
 44
1.0
1001
ACAD
1000
MTEXTBEGIN
1070
    73
1070
     1
1070
    44
1040
1.0
1070
    74
1070
     0
1000
MTEXTEND
  0
POINT
  5
6FF
330
6FA
100
AcDbEntity
  8
Defpoints
 62
     0
100
AcDbPoint
 10
58.98588926073106
 20
15.73250827262548
 30
0.0
  0
POINT
  5
700
330
6FA
100
AcDbEntity
  8
Defpoints
 62
     0
100
AcDbPoint
 10
56.59148597081082
 20
13.60970686462741
 30
0.0
  0
POINT
  5
701
330
6FA
100
AcDbEntity
  8
Defpoints
 62
     0
100
AcDbPoint
 10
48.80588926073105
 20
3.700709488554849
 30
0.0
  0
ENDBLK
  5
703
330
6FA
100
AcDbEntity
  8
0
100
AcDbBlockEnd
  0
BLOCK
  5
71D
330
717
100
AcDbEntity
  8
0
100
AcDbBlockBegin
  2
*D78
 70
     1
 10
0.0
 20
0.0
 30
0.0
  3
*D78
  1

  0
LINE
  5
718
330
717
100
AcDbEntity
  8
0
 62
     0
370
    -2
100
AcDbLine
 10
59.48588926073099
 20
39.13070948855483
 30
0.0
 11
59.48588926073099
 21
39.88070948855483
 31
0.0
  0
MTEXT
  5
719
330
717
100
AcDbEntity
  8
0
 62
     0
100
AcDbMText
 10
59.48588926073099
 20
41.49604282188817
 30
0.0
 40
0.7040000000000001
 41
0.0
 71
     5
 72
     1
  1
\A1;10.680
 11
0.0000000000000001
 21
1.0
 31
0.0
 73
     1
 44
1.0
1001
ACAD
1000
MTEXTBEGIN
1070
    73
1070
     1
1070
    44
1040
1.0
1070
    74
1070
     0
1000
MTEXTEND
  0
POINT
  5
71A
330
717
100
AcDbEntity
  8
Defpoints
 62
     0
100
AcDbPoint
 10
59.48588926073099
 20
38.88070948855483
 30
0.0
  0
POINT
  5
71B
330
717
100
AcDbEntity
  8
Defpoints
 62
     0
100
AcDbPoint
 10
59.48588926073099
 20
39.88070948855483
 30
0.0
  0
POINT
  5
71C
330
717
100
AcDbEntity
  8
Defpoints
 62
     0
100
AcDbPoint
 10
48.80588926073105
 20
3.700709488554849
 30
0.0
  0
ENDBLK
  5
71E
330
717
100
AcDbEntity
  8
0
100
AcDbBlockEnd
  0
BLOCK
  5
725
330
71F
100
AcDbEntity
  8
0
100
AcDbBlockBegin
  2
*D79
 70
     1
 10
0.0
 20
0.0
 30
0.0
  3
*D79
  1

  0
LINE
  5
720
330
71F
100
AcDbEntity
  8
0
 62
     0
370
    -2
100
AcDbLine
 10
58.14588926073103
 20
37.7907094885548
 30
0.0
 11
60.485889260731
 21
37.7907094885548
 31
0.0
  0
MTEXT
  5
721
330
71F
100
AcDbEntity
  8
0
 62
     0
100
AcDbMText
 10
62.21855592739767
 20
37.7907094885548
 30
0.0
 40
0.7040000000000001
 41
0.0
 71
     5
 72
     1
  1
\A1;34.090
 73
     1
 44
1.0
1001
ACAD
1000
MTEXTBEGIN
1070
    73
1070
     1
1070
    44
1040
1.0
1070
    74
1070
     0
1000
MTEXTEND
  0
POINT
  5
722
330
71F
100
AcDbEntity
  8
Defpoints
 62
     0
100
AcDbPoint
 10
57.89588926073102
 20
37.7907094885548
 30
0.0
  0
POINT
  5
723
330
71F
100
AcDbEntity
  8
Defpoints
 62
     0
100
AcDbPoint
 10
60.485889260731
 20
37.7907094885548
 30
0.0
  0
POINT
  5
724
330
71F
100
AcDbEntity
  8
Defpoints
 62
     0
100
AcDbPoint
 10
48.80588926073105
 20
3.700709488554849
 30
0.0
  0
ENDBLK
  5
726
330
71F
100
AcDbEntity
  8
0
100
AcDbBlockEnd
  0
BLOCK
  5
737
330
731
100
AcDbEntity
  8
0
100
AcDbBlockBegin
  2
*D80
 70
     1
 10
0.0
 20
0.0
 30
0.0
  3
*D80
  1

  0
LINE
  5
732
330
731
100
AcDbEntity
  8
0
 62
     0
370
    -2
100
AcDbLine
 10
58.56382557241531
 20
29.41523084495813
 30
0.0
 11
60.48588926073103
 21
29.41523084495813
 31
0.0
  0
MTEXT
  5
733
330
731
100
AcDbEntity
  8
0
 62
     0
100
AcDbMText
 10
62.21855592739769
 20
29.41523084495813
 30
0.0
 40
0.7040000000000001
 41
0.0
 71
     5
 72
     1
  1
\A1;25.715
 73
     1
 44
1.0
1001
ACAD
1000
MTEXTBEGIN
1070
    73
1070
     1
1070
    44
1040
1.0
1070
    74
1070
     0
1000
MTEXTEND
  0
POINT
  5
734
330
731
100
AcDbEntity
  8
Defpoints
 62
     0
100
AcDbPoint
 10
58.31382557241531
 20
29.41523084495813
 30
0.0
  0
POINT
  5
735
330
731
100
AcDbEntity
  8
Defpoints
 62
     0
100
AcDbPoint
 10
60.48588926073103
 20
29.41523084495813
 30
0.0
  0
POINT
  5
736
330
731
100
AcDbEntity
  8
Defpoints
 62
     0
100
AcDbPoint
 10
48.80588926073105
 20
3.700709488554849
 30
0.0
  0
ENDBLK
  5
738
330
731
100
AcDbEntity
  8
0
100
AcDbBlockEnd
  0
BLOCK
  5
73F
330
739
100
AcDbEntity
  8
0
100
AcDbBlockBegin
  2
*D81
 70
     1
 10
0.0
 20
0.0
 30
0.0
  3
*D81
  1

  0
LINE
  5
7D1
330
739
100
AcDbEntity
  8
0
 62
     0
370
    -2
100
AcDbLine
 10
28.28775657301396
 20
28.23752128293623
 30
0.0
 11
30.62775657301382
 21
28.23752128293629
 31
0.0
  0
MTEXT
  5
7D2
330
739
100
AcDbEntity
  8
0
 62
     0
100
AcDbMText
 10
32.3604232396805
 20
28.23752128293629
 30
0.0
 40
0.7040000000000001
 41
0.0
 71
     5
 72
     1
  1
\A1;24.718
 73
     1
 44
1.0
1001
ACAD
1000
MTEXTBEGIN
1070
    73
1070
     1
1070
    44
1040
1.0
1070
    74
1070
     0
1000
MTEXTEND
  0
POINT
  5
7D3
330
739
100
AcDbEntity
  8
Defpoints
 62
     0
100
AcDbPoint
 10
28.03775657301396
 20
28.23752128293623
 30
0.0
  0
POINT
  5
7D4
330
739
100
AcDbEntity
  8
Defpoints
 62
     0
100
AcDbPoint
 10
30.62775657301382
 20
28.23752128293629
 30
0.0
  0
POINT
  5
7D5
330
739
100
AcDbEntity
  8
Defpoints
 62
     0
100
AcDbPoint
 10
18.94775657301383
 20
3.519430651880725
 30
0.0
  0
ENDBLK
  5
740
330
739
100
AcDbEntity
  8
0
100
AcDbBlockEnd
  0
BLOCK
  5
747
330
741
100
AcDbEntity
  8
0
100
AcDbBlockBegin
  2
*D82
 70
     1
 10
0.0
 20
0.0
 30
0.0
  3
*D82
  1

  0
LINE
  5
742
330
741
100
AcDbEntity
  8
0
 62
     0
370
    -2
100
AcDbLine
 10
49.05588926073099
 20
18.8387582726258
 30
0.0
 11
47.80588926073098
 21
18.8387582726258
 31
0.0
  0
MTEXT
  5
743
330
741
100
AcDbEntity
  8
0
 62
     0
100
AcDbMText
 10
46.19055592739765
 20
18.8387582726258
 30
0.0
 40
0.7040000000000001
 41
0.0
 71
     5
 72
     1
  1
\A1;15.138
 73
     1
 44
1.0
1001
ACAD
1000
MTEXTBEGIN
1070
    73
1070
     1
1070
    44
1040
1.0
1070
    74
1070
     0
1000
MTEXTEND
  0
POINT
  5
744
330
741
100
AcDbEntity
  8
Defpoints
 62
     0
100
AcDbPoint
 10
49.30588926073099
 20
18.8387582726258
 30
0.0
  0
POINT
  5
745
330
741
100
AcDbEntity
  8
Defpoints
 62
     0
100
AcDbPoint
 10
47.80588926073098
 20
18.8387582726258
 30
0.0
  0
POINT
  5
746
330
741
100
AcDbEntity
  8
Defpoints
 62
     0
100
AcDbPoint
 10
48.80588926073105
 20
3.700709488554849
 30
0.0
  0
ENDBLK
  5
748
330
741
100
AcDbEntity
  8
0
100
AcDbBlockEnd
  0
BLOCK
  5
74F
330
749
100
AcDbEntity
  8
0
100
AcDbBlockBegin
  2
*D83
 70
     1
 10
0.0
 20
0.0
 30
0.0
  3
*D83
  1

  0
LINE
  5
74A
330
749
100
AcDbEntity
  8
0
 62
     0
370
    -2
100
AcDbLine
 10
49.05588926073099
 20
15.73250827262551
 30
0.0
 11
47.80588926073098
 21
15.73250827262551
 31
0.0
  0
MTEXT
  5
74B
330
749
100
AcDbEntity
  8
0
 62
     0
100
AcDbMText
 10
46.13188926073098
 20
15.73250827262551
 30
0.0
 40
0.7040000000000001
 41
0.0
 71
     5
 72
     1
  1
\A1;12.032
 73
     1
 44
1.0
1001
ACAD
1000
MTEXTBEGIN
1070
    73
1070
     1
1070
    44
1040
1.0
1070
    74
1070
     0
1000
MTEXTEND
  0
POINT
  5
74C
330
749
100
AcDbEntity
  8
Defpoints
 62
     0
100
AcDbPoint
 10
49.30588926073099
 20
15.73250827262551
 30
0.0
  0
POINT
  5
74D
330
749
100
AcDbEntity
  8
Defpoints
 62
     0
100
AcDbPoint
 10
47.80588926073098
 20
15.73250827262551
 30
0.0
  0
POINT
  5
74E
330
749
100
AcDbEntity
  8
Defpoints
 62
     0
100
AcDbPoint
 10
48.80588926073105
 20
3.700709488554849
 30
0.0
  0
ENDBLK
  5
750
330
749
100
AcDbEntity
  8
0
100
AcDbBlockEnd
  0
BLOCK
  5
75C
330
756
100
AcDbEntity
  8
0
100
AcDbBlockBegin
  2
*D84
 70
     1
 10
0.0
 20
0.0
 30
0.0
  3
*D84
  1

  0
LINE
  5
757
330
756
100
AcDbEntity
  8
0
 62
     0
370
    -2
100
AcDbLine
 10
57.89588926073102
 20
6.040709488554792
 30
0.0
 11
57.89588926073102
 21
2.700709488554895
 31
0.0
  0
MTEXT
  5
758
330
756
100
AcDbEntity
  8
0
 62
     0
100
AcDbMText
 10
57.89588926073102
 20
1.320042821888238
 30
0.0
 40
0.7040000000000001
 41
0.0
 71
     5
 72
     1
  1
\A1;9.090
 11
0.0000000000000001
 21
1.0
 31
0.0
 73
     1
 44
1.0
1001
ACAD
1000
MTEXTBEGIN
1070
    73
1070
     1
1070
    44
1040
1.0
1070
    74
1070
     0
1000
MTEXTEND
  0
POINT
  5
759
330
756
100
AcDbEntity
  8
Defpoints
 62
     0
100
AcDbPoint
 10
57.89588926073102
 20
6.290709488554792
 30
0.0
  0
POINT
  5
75A
330
756
100
AcDbEntity
  8
Defpoints
 62
     0
100
AcDbPoint
 10
57.89588926073102
 20
2.700709488554895
 30
0.0
  0
POINT
  5
75B
330
756
100
AcDbEntity
  8
Defpoints
 62
     0
100
AcDbPoint
 10
48.80588926073105
 20
3.700709488554849
 30
0.0
  0
ENDBLK
  5
75D
330
756
100
AcDbEntity
  8
0
100
AcDbBlockEnd
  0
BLOCK
  5
773
330
76D
100
AcDbEntity
  8
0
100
AcDbBlockBegin
  2
*D85
 70
     1
 10
0.0
 20
0.0
 30
0.0
  3
*D85
  1

  0
LINE
  5
76E
330
76D
100
AcDbEntity
  8
0
 62
     0
370
    -2
100
AcDbLine
 10
48.55588926073093
 20
3.700709488554849
 30
0.0
 11
47.80588926073093
 21
3.700709488554849
 31
0.0
  0
MTEXT
  5
76F
330
76D
100
AcDbEntity
  8
0
 62
     0
100
AcDbMText
 10
46.5425559273976
 20
3.700709488554849
 30
0.0
 40
0.7040000000000001
 41
0.0
 71
     5
 72
     1
  1
\A1;0.000
 73
     1
 44
1.0
1001
ACAD
1000
MTEXTBEGIN
1070
    73
1070
     1
1070
    44
1040
1.0
1070
    74
1070
     0
1000
MTEXTEND
  0
POINT
  5
770
330
76D
100
AcDbEntity
  8
Defpoints
 62
     0
100
AcDbPoint
 10
48.80588926073094
 20
3.700709488554849
 30
0.0
  0
POINT
  5
771
330
76D
100
AcDbEntity
  8
Defpoints
 62
     0
100
AcDbPoint
 10
47.80588926073093
 20
3.700709488554849
 30
0.0
  0
POINT
  5
772
330
76D
100
AcDbEntity
  8
Defpoints
 62
     0
100
AcDbPoint
 10
48.80588926073105
 20
3.700709488554849
 30
0.0
  0
ENDBLK
  5
774
330
76D
100
AcDbEntity
  8
0
100
AcDbBlockEnd
  0
ENDSEC
  0
SECTION
  2
ENTITIES
  0
LWPOLYLINE
  5
1CB
330
1F
100
AcDbEntity
  8
BORDER
100
AcDbPolyline
 90
        4
 70
     1
 43
0.0
 10
4.918436082207789
 20
47.53141313142051
 10
43.65277676738125
 20
47.53141313142051
 10
43.65277676738125
 20
-3.436672033153623
 10
4.918436082207789
 20
-3.436672033153623
  0
LINE
  5
1CC
330
1F
100
AcDbEntity
  8
BORDER
100
AcDbLine
 10
33.48749406386486
 20
-1.861850190110956
 30
0.0
 11
28.36000251312218
 21
-1.861850190110956
 31
0.0
  0
LINE
  5
1CD
330
1F
100
AcDbEntity
  8
BORDER
100
AcDbLine
 10
33.48749406386486
 20
-3.436672033153627
 30
0.0
 11
33.48749406386486
 21
-2.03504969112783
 31
0.0
  0
LINE
  5
1CE
330
1F
100
AcDbEntity
  8
BORDER
100
AcDbLine
 10
33.48749406386486
 20
-3.436672033153627
 30
0.0
 11
28.31158875514164
 21
-3.436672033153627
 31
0.0
  0
TEXT
  5
1CF
330
1F
100
AcDbEntity
  8
TEXT
100
AcDbText
 10
28.56350417279364
 20
-2.417310329862146
 30
0.0
 40
0.2548404258228705
  1
PROPRIETARY DRAWING
 72
     1
 11
30.89954140950329
 21
-2.289890116950711
 31
0.0
100
AcDbText
 73
     2
  0
TEXT
  5
1D0
330
1F
100
AcDbEntity
  8
TEXT
100
AcDbText
 10
28.75463449216079
 20
-2.672150755685014
 30
0.0
 40
0.1274202129114353
  1
THIS DRAWING IS THE PROPERTY OF ICE
 72
     1
 11
30.89954140950329
 21
-2.608440649229296
 31
0.0
100
AcDbText
 73
     2
  0
TEXT
  5
1D1
330
1F
100
AcDbEntity
  8
TEXT
100
AcDbText
 10
28.63783263032531
 20
-2.863281075052169
 30
0.0
 40
0.1274202129114353
  1
QUBE, INC. AND IS NOT TO BE DUPLICATED
 72
     1
 11
30.89954140950329
 21
-2.799570968596452
 31
0.0
100
AcDbText
 73
     2
  0
TEXT
  5
1D2
330
1F
100
AcDbEntity
  8
TEXT
100
AcDbText
 10
28.73339779000889
 20
-3.054411394419315
 30
0.0
 40
0.1274202129114353
  1
OR ALTERED WITHOUT AUTHORIZATION OF
 72
     1
 11
30.89954140950329
 21
-2.990701287963598
 31
0.0
100
AcDbText
 73
     2
  0
TEXT
  5
1D3
330
1F
100
AcDbEntity
  8
TEXT
100
AcDbText
 10
30.14563848311063
 20
-3.245541713786474
 30
0.0
 40
0.1274202129114353
  1
ICE QUBE, INC.
 72
     1
 11
30.89954140950329
 21
-3.181831607330756
 31
0.0
100
AcDbText
 73
     2
  0
LINE
  5
1D4
330
1F
100
AcDbEntity
  8
DIMENSION
100
AcDbLine
 10
33.48749406386486
 20
-1.861850190110956
 30
0.0
 11
33.48749406386486
 21
-3.436672033153627
 31
0.0
  0
ARC
  5
1D5
330
1F
100
AcDbEntity
  8
TEXT
100
AcDbCircle
 10
38.10133178953569
 20
-1.32414177470991
 30
0.0
 40
0.0157202233616527
100
AcDbArc
 50
177.2189023070876
 51
10.53261226457853
  0
ARC
  5
1D6
330
1F
100
AcDbEntity
  8
TEXT
100
AcDbCircle
 10
38.0744597220492
 20
-1.16519269733403
 30
0.0
 40
0.0193999637572149
100
AcDbArc
 50
218.2556843178653
 51
317.6564247238853
  0
ARC
  5
1D7
330
1F
100
AcDbEntity
  8
TEXT
100
AcDbCircle
 10
38.09927261301478
 20
-1.185927144684245
 30
0.0
 40
0.012980353752801
100
AcDbArc
 50
48.87596376793599
 51
143.7953529790059
  0
ARC
  5
1D8
330
1F
100
AcDbEntity
  8
TEXT
100
AcDbCircle
 10
38.11744467483813
 20
-1.173759091075971
 30
0.0
 40
0.0099270234210487
100
AcDbArc
 50
193.9319034609791
 51
333.0378283509304
  0
ARC
  5
1D9
330
1F
100
AcDbEntity
  8
TEXT
100
AcDbCircle
 10
38.1495008482177
 20
-1.193668793697525
 30
0.0
 40
0.0230637695186895
100
AcDbArc
 50
222.9877626572325
 51
344.3358851615585
  0
ARC
  5
1DA
330
1F
100
AcDbEntity
  8
TEXT
100
AcDbCircle
 10
38.12562697915068
 20
-1.213932611584109
 30
0.0
 40
0.0083445475744706
100
AcDbArc
 50
32.94435831946194
 51
185.0814072168599
  0
LINE
  5
1DB
330
1F
100
AcDbEntity
  8
TEXT
100
AcDbLine
 10
38.11678714319024
 20
-1.321268194025432
 30
0.0
 11
38.11731522681943
 21
-1.21467169710478
 31
0.0
  0
LINE
  5
1DC
330
1F
100
AcDbEntity
  8
TEXT
100
AcDbLine
 10
38.08193347479976
 20
-1.218365633243724
 30
0.0
 11
38.08563008147061
 21
-1.32337902548716
 31
0.0
  0
ARC
  5
1DD
330
1F
100
AcDbEntity
  8
TEXT
100
AcDbCircle
 10
38.07264714086939
 20
-1.212369623073064
 30
0.0
 40
0.0110538742453156
100
AcDbArc
 50
327.1504341221702
 51
80.13862259361689
  0
LINE
  5
1DE
330
1F
100
AcDbEntity
  8
TEXT
100
AcDbLine
 10
38.0496132722542
 20
-1.197671405241948
 30
0.0
 11
38.07454028272508
 21
-1.201479069839084
 31
0.0
  0
ARC
  5
1DF
330
1F
100
AcDbEntity
  8
TEXT
100
AcDbCircle
 10
38.046562330419
 20
-1.20296054868742
 30
0.0
 40
0.0061060039689248
100
AcDbArc
 50
60.02231951668147
 51
227.1694577924201
  0
LINE
  5
1E0
330
1F
100
AcDbEntity
  8
TEXT
100
AcDbLine
 10
38.04462009490425
 20
-1.261408152813906
 30
0.0
 11
38.04241127150599
 21
-1.20743849401646
 31
0.0
  0
ARC
  5
1E1
330
1F
100
AcDbEntity
  8
TEXT
100
AcDbCircle
 10
38.03118636923372
 20
-1.267215828333127
 30
0.0
 40
0.0146353708640564
100
AcDbArc
 50
165.6416373020916
 51
23.37981978602059
  0
LINE
  5
1E2
330
1F
100
AcDbEntity
  8
TEXT
100
AcDbLine
 10
38.00974186300056
 20
-1.203319611752337
 30
0.0
 11
38.01700815422492
 21
-1.263586462067627
 31
0.0
  0
ARC
  5
1E3
330
1F
100
AcDbEntity
  8
TEXT
100
AcDbCircle
 10
37.9946212988886
 20
-1.205302792748049
 30
0.0
 40
0.0152500644565484
100
AcDbArc
 50
7.472141028409409
 51
164.1640293291679
  0
LINE
  5
1E4
330
1F
100
AcDbEntity
  8
TEXT
100
AcDbLine
 10
37.98067665556948
 20
-1.212032886605278
 30
0.0
 11
37.97995002219364
 21
-1.201141289886019
 31
0.0
  0
ARC
  5
1E5
330
1F
100
AcDbEntity
  8
TEXT
100
AcDbCircle
 10
37.96989330378064
 20
-1.210426734390321
 30
0.0
 40
0.010902311715342
100
AcDbArc
 50
208.7068196476631
 51
351.5282258973499
  0
LINE
  5
1E6
330
1F
100
AcDbEntity
  8
TEXT
100
AcDbLine
 10
37.95379134826586
 20
-1.200415178392957
 30
0.0
 11
37.9603310061143
 21
-1.215663418844999
 31
0.0
  0
LINE
  5
1E7
330
1F
100
AcDbEntity
  8
TEXT
100
AcDbLine
 10
37.95960437273848
 20
-1.259229830947485
 30
0.0
 11
37.95379134826586
 21
-1.200415178392957
 31
0.0
  0
ARC
  5
1E8
330
1F
100
AcDbEntity
  8
TEXT
100
AcDbCircle
 10
37.9450417787919
 20
-1.259918834173145
 30
0.0
 40
0.014578884315911
100
AcDbArc
 50
185.8633287467241
 51
2.70882780951028
  0
LINE
  5
1E9
330
1F
100
AcDbEntity
  8
TEXT
100
AcDbLine
 10
37.9276326530711
 20
-1.190249693166762
 30
0.0
 11
37.93053916530737
 21
-1.261408152813906
 31
0.0
  0
ARC
  5
1EA
330
1F
100
AcDbEntity
  8
TEXT
100
AcDbCircle
 10
37.91600129707259
 20
-1.189216841039917
 30
0.0
 40
0.0116771240414276
100
AcDbArc
 50
354.9255052590734
 51
174.3705062402905
  0
LINE
  5
1EB
330
1F
100
AcDbEntity
  8
TEXT
100
AcDbLine
 10
37.9043804913796
 20
-1.213485109591281
 30
0.0
 11
37.9043804913796
 21
-1.188071371300241
 31
0.0
  0
ARC
  5
1EC
330
1F
100
AcDbEntity
  8
TEXT
100
AcDbCircle
 10
37.89587027953171
 20
-1.21672518346185
 30
0.0
 40
0.0091061399276468
100
AcDbArc
 50
168.6772178130462
 51
20.8432182574363
  0
LINE
  5
1ED
330
1F
100
AcDbEntity
  8
TEXT
100
AcDbLine
 10
37.87967506293651
 20
-1.177179761968414
 30
0.0
 11
37.88694137542774
 21
-1.214937319964626
 31
0.0
  0
LINE
  5
1EE
330
1F
100
AcDbEntity
  8
TEXT
100
AcDbLine
 10
37.84261693090523
 20
-1.199689079512572
 30
0.0
 11
37.84116366415358
 21
-1.172823130848217
 31
0.0
  0
ARC
  5
1EF
330
1F
100
AcDbEntity
  8
TEXT
100
AcDbCircle
 10
37.82567153345025
 20
-1.206247459614359
 30
0.0
 40
0.0181702736486337
100
AcDbArc
 50
170.7272794785986
 51
21.15794103948683
  0
ARC
  5
1F0
330
1F
100
AcDbEntity
  8
TEXT
100
AcDbCircle
 10
37.75262708073946
 20
-1.224660525101288
 30
0.0
 40
0.0149879184222679
100
AcDbArc
 50
167.7181143692787
 51
23.98551077365514
  0
ARC
  5
1F1
330
1F
100
AcDbEntity
  8
TEXT
100
AcDbCircle
 10
37.55305203993673
 20
-1.173394515896386
 30
0.0
 40
0.0172883210487108
100
AcDbArc
 50
225.9317407159997
 51
327.321681293723
  0
ARC
  5
1F2
330
1F
100
AcDbEntity
  8
TEXT
100
AcDbCircle
 10
37.7983780951299
 20
-0.1075682465891248
 30
0.0
 40
0.0110136701159894
100
AcDbArc
 50
305.0065695458966
 51
188.3798152009863
  0
ARC
  5
1F3
330
1F
100
AcDbEntity
  8
TEXT
100
AcDbCircle
 10
37.77535925762562
 20
-0.1102848375142429
 30
0.0
 40
0.0121736024573829
100
AcDbArc
 50
183.0745908828774
 51
5.238726745824519
  0
ARC
  5
1F4
330
1F
100
AcDbEntity
  8
TEXT
100
AcDbCircle
 10
37.7520436869943
 20
-0.1135836735194609
 30
0.0
 40
0.0114688708054357
100
AcDbArc
 50
13.33841226381423
 51
197.9246330182951
  0
ARC
  5
1F5
330
1F
100
AcDbEntity
  8
TEXT
100
AcDbCircle
 10
37.73528112735114
 20
-0.1040485124319801
 30
0.0
 40
0.0143149571224328
100
AcDbArc
 50
191.7667831442131
 51
294.1224948725133
  0
ARC
  5
1F6
330
1F
100
AcDbEntity
  8
TEXT
100
AcDbCircle
 10
37.70795292080912
 20
-0.1238681343100048
 30
0.0
 40
0.0215148249408907
100
AcDbArc
 50
51.76909225769996
 51
154.0890012254433
  0
ARC
  5
1F7
330
1F
100
AcDbEntity
  8
TEXT
100
AcDbCircle
 10
37.67541823446561
 20
-0.109225629403884
 30
0.0
 40
0.0141863127243638
100
AcDbArc
 50
179.7887253899368
 51
338.318548208448
  0
ARC
  5
1F8
330
1F
100
AcDbEntity
  8
TEXT
100
AcDbCircle
 10
37.65195994788586
 20
-0.1058383792274036
 30
0.0
 40
0.0098535834517892
100
AcDbArc
 50
340.2175703033614
 51
119.511112702139
  0
ARC
  5
1F9
330
1F
100
AcDbEntity
  8
TEXT
100
AcDbCircle
 10
37.63882136443842
 20
-0.099757435060841
 30
0.0
 40
0.0086521012861941
100
AcDbArc
 50
208.4553291170971
 51
16.75507449313882
  0
ARC
  5
1FA
330
1F
100
AcDbEntity
  8
TEXT
100
AcDbCircle
 10
37.62175848186121
 20
-0.1051361978552627
 30
0.0
 40
0.0095391359425647
100
AcDbArc
 50
7.567610287757044
 51
183.0538693842452
  0
ARC
  5
1FB
330
1F
100
AcDbEntity
  8
TEXT
100
AcDbCircle
 10
37.60028924259247
 20
-0.1069455302064419
 30
0.0
 40
0.0120143135725805
100
AcDbArc
 50
151.6108765070449
 51
6.217261201770576
  0
ARC
  5
1FC
330
1F
100
AcDbEntity
  8
TEXT
100
AcDbCircle
 10
37.58036370548307
 20
-0.1017759914611496
 30
0.0
 40
0.0093718083089122
100
AcDbArc
 50
3.320051391017444
 51
168.5145862198274
  0
ARC
  5
1FD
330
1F
100
AcDbEntity
  8
TEXT
100
AcDbCircle
 10
37.55967009042301
 20
-0.104346434486505
 30
0.0
 40
0.0123349458017271
100
AcDbArc
 50
181.931421762249
 51
21.08009584438978
  0
ARC
  5
1FE
330
1F
100
AcDbEntity
  8
TEXT
100
AcDbCircle
 10
37.53335152442729
 20
-0.1138257033650731
 30
0.0
 40
0.0166698961729974
100
AcDbArc
 50
32.93635467158797
 51
189.5430854165199
  0
ARC
  5
1FF
330
1F
100
AcDbEntity
  8
TEXT
100
AcDbCircle
 10
38.6509126225238
 20
-0.98628139056866
 30
0.0
 40
0.1131912871862471
100
AcDbArc
 50
312.2086974257854
 51
3.264333629957775
  0
ARC
  5
200
330
1F
100
AcDbEntity
  8
TEXT
100
AcDbCircle
 10
38.63341849590121
 20
-0.953124762747187
 30
0.0
 40
0.1497937029023418
100
AcDbArc
 50
264.6664639047648
 51
308.6423664458132
  0
ARC
  5
201
330
1F
100
AcDbEntity
  8
TEXT
100
AcDbCircle
 10
38.6202430536144
 20
-0.9751815520709286
 30
0.0
 40
0.1270905795188049
100
AcDbArc
 50
231.6935697703408
 51
269.6626044169122
  0
ARC
  5
202
330
1F
100
AcDbEntity
  8
TEXT
100
AcDbCircle
 10
38.64367552006539
 20
-0.9990186873879059
 30
0.0
 40
0.0725464324839344
100
AcDbArc
 50
343.5952529167626
 51
35.13836089167873
  0
ARC
  5
203
330
1F
100
AcDbEntity
  8
TEXT
100
AcDbCircle
 10
38.64828789875634
 20
-0.978908503244664
 30
0.0
 40
0.0588390828812146
100
AcDbArc
 50
21.58325850317256
 51
95.38396011116695
  0
ARC
  5
204
330
1F
100
AcDbEntity
  8
TEXT
100
AcDbCircle
 10
38.63301334748431
 20
-0.9699100905656159
 30
0.0
 40
0.0505313667995682
100
AcDbArc
 50
78.87075864991584
 51
146.7670066549814
  0
ARC
  5
205
330
1F
100
AcDbEntity
  8
TEXT
100
AcDbCircle
 10
38.67074571124876
 20
-0.9796243495768983
 30
0.0
 40
0.0931747810414895
100
AcDbArc
 50
359.8698564192901
 51
62.37231490188333
  0
ARC
  5
206
330
1F
100
AcDbEntity
  8
TEXT
100
AcDbCircle
 10
38.6706474852053
 20
-1.023414029159429
 30
0.0
 40
0.1335564807715121
100
AcDbArc
 50
71.07988584761956
 51
127.1124618564865
  0
LINE
  5
207
330
1F
100
AcDbEntity
  8
TEXT
100
AcDbLine
 10
38.59074644309977
 20
-0.9422166288033649
 30
0.0
 11
38.59143092506201
 21
-1.059862645702025
 31
0.0
  0
LINE
  5
208
330
1F
100
AcDbEntity
  8
TEXT
100
AcDbLine
 10
38.50792418947815
 20
-0.8245706119046225
 30
0.0
 11
38.53667241062233
 21
-0.8266225800287898
 31
0.0
  0
LINE
  5
209
330
1F
100
AcDbEntity
  8
TEXT
100
AcDbLine
 10
38.50655522555387
 20
-0.8095228750900176
 30
0.0
 11
38.50792418947815
 21
-0.8245706119046225
 31
0.0
  0
ARC
  5
20A
330
1F
100
AcDbEntity
  8
TEXT
100
AcDbCircle
 10
38.48742173054121
 20
-0.5002678730012315
 30
0.0
 40
0.3098463279568098
100
AcDbArc
 50
273.5403564160214
 51
289.075801678542
  0
LINE
  5
20B
330
1F
100
AcDbEntity
  8
TEXT
100
AcDbLine
 10
38.58868532934553
 20
-0.7930996173622376
 30
0.0
 11
38.59006198240467
 21
-0.9169090513676463
 31
0.0
  0
LINE
  5
20C
330
1F
100
AcDbEntity
  8
TEXT
100
AcDbLine
 10
38.53667241062233
 20
-0.8266225800287898
 30
0.0
 11
38.54146378435761
 21
-1.074910395129321
 31
0.0
  0
ARC
  5
20D
330
1F
100
AcDbEntity
  8
TEXT
100
AcDbCircle
 10
38.49044460892431
 20
-1.243865673069354
 30
0.0
 40
0.1609162088984523
100
AcDbArc
 50
88.18956599987521
 51
113.1652090520224
  0
ARC
  5
20E
330
1F
100
AcDbEntity
  8
TEXT
100
AcDbCircle
 10
38.41928804562871
 20
-1.093532166831855
 30
0.0
 40
0.0082106754514664
100
AcDbArc
 50
201.700602772435
 51
343.0678677067636
  0
LINE
  5
20F
330
1F
100
AcDbEntity
  8
TEXT
100
AcDbLine
 10
38.41101411249699
 20
-1.072070185492825
 30
0.0
 11
38.41165927157136
 21
-1.09656811771267
 31
0.0
  0
ARC
  5
210
330
1F
100
AcDbEntity
  8
TEXT
100
AcDbCircle
 10
38.33319182167564
 20
-0.9888125351354659
 30
0.0
 40
0.1139655443179979
100
AcDbArc
 50
260.0995263030863
 51
313.0673878832467
  0
ARC
  5
211
330
1F
100
AcDbEntity
  8
TEXT
100
AcDbCircle
 10
38.3135695677579
 20
-1.051427546017638
 30
0.0
 40
0.0496533552099118
100
AcDbArc
 50
180.7587023263156
 51
270.031539090741
  0
ARC
  5
212
330
1F
100
AcDbEntity
  8
TEXT
100
AcDbCircle
 10
38.401149036512
 20
-0.9237845355484886
 30
0.0
 40
0.0100018341289752
100
AcDbArc
 50
337.1943218370273
 51
115.6412778855146
  0
LINE
  5
213
330
1F
100
AcDbEntity
  8
TEXT
100
AcDbLine
 10
38.41101411249699
 20
-1.050795661092084
 30
0.0
 11
38.41036897468989
 21
-0.9276613159057978
 31
0.0
  0
LINE
  5
214
330
1F
100
AcDbEntity
  8
TEXT
100
AcDbLine
 10
38.37359558800571
 20
-0.9134783038429468
 30
0.0
 11
38.39682088933621
 21
-0.914767672015742
 31
0.0
  0
LINE
  5
215
330
1F
100
AcDbEntity
  8
TEXT
100
AcDbLine
 10
38.37424072581287
 20
-0.9012293314266555
 30
0.0
 11
38.37359558800571
 21
-0.9134783038429468
 31
0.0
  0
LINE
  5
216
330
1F
100
AcDbEntity
  8
TEXT
100
AcDbLine
 10
38.24327585819239
 20
-0.9121889356701515
 30
0.0
 11
38.2297277728386
 21
-0.9102548960236411
 31
0.0
  0
LINE
  5
217
330
1F
100
AcDbEntity
  8
TEXT
100
AcDbLine
 10
38.22908263503144
 20
-0.9012293314266555
 30
0.0
 11
38.2297277728386
 21
-0.9102548960236411
 31
0.0
  0
ARC
  5
218
330
1F
100
AcDbEntity
  8
TEXT
100
AcDbCircle
 10
38.24753909600804
 20
-0.9266695694351447
 30
0.0
 40
0.0150951631627368
100
AcDbArc
 50
358.6825606331185
 51
106.404935772954
  0
LINE
  5
219
330
1F
100
AcDbEntity
  8
TEXT
100
AcDbLine
 10
38.45681955608377
 20
-0.8980059236072293
 30
0.0
 11
38.4581098529652
 21
-1.044348845453355
 31
0.0
  0
LINE
  5
21A
330
1F
100
AcDbEntity
  8
TEXT
100
AcDbLine
 10
38.31166146530249
 20
-0.8980059236072293
 30
0.0
 11
38.31295176218389
 21
-1.039836069461325
 31
0.0
  0
LINE
  5
21B
330
1F
100
AcDbEntity
  8
TEXT
100
AcDbLine
 10
38.26263026887872
 20
-0.9270166318193879
 30
0.0
 11
38.26392056576015
 21
-1.052085029264872
 31
0.0
  0
LINE
  5
21C
330
1F
100
AcDbEntity
  8
TEXT
100
AcDbLine
 10
38.37424072581287
 20
-0.9012293314266555
 30
0.0
 11
38.45681955608377
 21
-0.8980059236072293
 31
0.0
  0
LINE
  5
21D
330
1F
100
AcDbEntity
  8
TEXT
100
AcDbLine
 10
38.22908263503144
 20
-0.9012293314266555
 30
0.0
 11
38.31166146530249
 21
-0.8980059236072293
 31
0.0
  0
LINE
  5
21E
330
1F
100
AcDbEntity
  8
TEXT
100
AcDbLine
 10
37.70809758471569
 20
-0.7010041061452414
 30
0.0
 11
37.70027362731109
 21
-0.7185953142762145
 31
0.0
  0
ARC
  5
21F
330
1F
100
AcDbEntity
  8
TEXT
100
AcDbCircle
 10
37.71934451550953
 20
-0.7004098301577564
 30
0.0
 40
0.0112626203092204
100
AcDbArc
 50
183.0246359049376
 51
356.9753640950624
  0
LINE
  5
220
330
1F
100
AcDbEntity
  8
TEXT
100
AcDbLine
 10
37.7345034037384
 20
-0.6707081414911153
 30
0.0
 11
37.73059144630319
 21
-0.7010041061452414
 31
0.0
  0
ARC
  5
221
330
1F
100
AcDbEntity
  8
TEXT
100
AcDbCircle
 10
37.74298842825086
 20
-0.6671231739879886
 30
0.0
 40
0.0092112774886861
100
AcDbArc
 50
8.122642540875256
 51
202.9043136183461
  0
LINE
  5
222
330
1F
100
AcDbEntity
  8
TEXT
100
AcDbLine
 10
37.7442833611276
 20
-0.7244590461156763
 30
0.0
 11
37.75210729726496
 21
-0.6658216898831846
 31
0.0
  0
ARC
  5
223
330
1F
100
AcDbEntity
  8
TEXT
100
AcDbCircle
 10
37.76187995137686
 20
-0.7237076792165809
 30
0.0
 40
0.0176126244670897
100
AcDbArc
 50
182.4450201076249
 51
0.7349407504797699
  0
LINE
  5
224
330
1F
100
AcDbEntity
  8
TEXT
100
AcDbLine
 10
37.77949112691357
 20
-0.6765718733305734
 30
0.0
 11
37.77949112691357
 21
-0.7234817658841415
 31
0.0
  0
ARC
  5
225
330
1F
100
AcDbEntity
  8
TEXT
100
AcDbCircle
 10
37.79273023460748
 20
-0.6767760699424912
 30
0.0
 40
0.0132406823383822
100
AcDbArc
 50
179.1163546128549
 51
32.14670843865929
  0
LINE
  5
226
330
1F
100
AcDbEntity
  8
TEXT
100
AcDbLine
 10
37.80394096721881
 20
-0.6570260921240099
 30
0.0
 11
37.80394096721881
 21
-0.6697308486470668
 31
0.0
  0
ARC
  5
227
330
1F
100
AcDbEntity
  8
TEXT
100
AcDbCircle
 10
37.81768538920915
 20
-0.6604371936671463
 30
0.0
 40
0.0141613823332594
100
AcDbArc
 50
26.60941129939754
 51
166.0619000058106
  0
LINE
  5
228
330
1F
100
AcDbEntity
  8
TEXT
100
AcDbLine
 10
37.83230278622629
 20
-0.6824356051699994
 30
0.0
 11
37.83034680750854
 21
-0.6540942262041689
 31
0.0
  0
ARC
  5
229
330
1F
100
AcDbEntity
  8
TEXT
100
AcDbCircle
 10
37.846259223177
 20
-0.6860730020351582
 30
0.0
 40
0.0144226484501158
100
AcDbArc
 50
165.3922446503685
 51
2.803879044206374
  0
LINE
  5
22A
330
1F
100
AcDbEntity
  8
TEXT
100
AcDbLine
 10
37.86164259459236
 20
-0.6482304817521083
 30
0.0
 11
37.86066460523362
 21
-0.6853674837023612
 31
0.0
  0
ARC
  5
22B
330
1F
100
AcDbEntity
  8
TEXT
100
AcDbCircle
 10
37.89309238874623
 20
-0.8011936332878731
 30
0.0
 40
0.1561627845554878
100
AcDbArc
 50
60.82353397560639
 51
101.6183182656855
  0
ARC
  5
22C
330
1F
100
AcDbEntity
  8
TEXT
100
AcDbCircle
 10
37.93969325173203
 20
-0.6867294513662224
 30
0.0
 40
0.0367545493655517
100
AcDbArc
 50
335.4827230531638
 51
36.54383594003182
  0
ARC
  5
22D
330
1F
100
AcDbEntity
  8
TEXT
100
AcDbCircle
 10
37.9814180225093
 20
-0.7139903555976767
 30
0.0
 40
0.0145891127578092
100
AcDbArc
 50
124.5991194751616
 51
24.91162951380403
  0
ARC
  5
22E
330
1F
100
AcDbEntity
  8
TEXT
100
AcDbCircle
 10
37.99994616833501
 20
-0.6996882270200047
 30
0.0
 40
0.0097255952255765
100
AcDbArc
 50
15.46471151433632
 51
237.0036058083549
  0
ARC
  5
22F
330
1F
100
AcDbEntity
  8
TEXT
100
AcDbCircle
 10
37.97411661245302
 20
-0.7202410841643072
 30
0.0
 40
0.0421307167368596
100
AcDbArc
 50
331.8837666959812
 51
33.32508059324594
  0
ARC
  5
230
330
1F
100
AcDbEntity
  8
TEXT
100
AcDbCircle
 10
38.02056656720942
 20
-0.7505892871684239
 30
0.0
 40
0.0140156112859535
100
AcDbArc
 50
131.5213803610224
 51
48.47861963898633
  0
ARC
  5
231
330
1F
100
AcDbEntity
  8
TEXT
100
AcDbCircle
 10
38.03661915768106
 20
-0.7385278087827061
 30
0.0
 40
0.0069410461327112
100
AcDbArc
 50
3.193725348484569
 51
193.0548754998598
  0
ARC
  5
232
330
1F
100
AcDbEntity
  8
TEXT
100
AcDbCircle
 10
38.08621648216709
 20
-0.7571460653909128
 30
0.0
 40
0.0467083108140666
100
AcDbArc
 50
155.9906329013486
 51
206.805730457695
  0
ARC
  5
233
330
1F
100
AcDbEntity
  8
TEXT
100
AcDbCircle
 10
37.85405362029875
 20
-0.8653241424907527
 30
0.0
 40
0.2094496260443933
100
AcDbArc
 50
344.8914411173256
 51
24.57723374822083
  0
ARC
  5
234
330
1F
100
AcDbEntity
  8
TEXT
100
AcDbCircle
 10
37.9893561305876
 20
-0.9399677237707706
 30
0.0
 40
0.0698470511177751
100
AcDbArc
 50
300.6537348898141
 51
16.6824591637588
  0
ARC
  5
235
330
1F
100
AcDbEntity
  8
TEXT
100
AcDbCircle
 10
37.92716816873689
 20
-1.089290734287075
 30
0.0
 40
0.026832125695654
100
AcDbArc
 50
244.0629515517945
 51
24.326120312643
  0
ARC
  5
236
330
1F
100
AcDbEntity
  8
TEXT
100
AcDbCircle
 10
37.88120247747001
 20
-1.136230075376412
 30
0.0
 40
0.0411335309552485
100
AcDbArc
 50
33.67851647490054
 51
106.5775508010124
  0
ARC
  5
237
330
1F
100
AcDbEntity
  8
TEXT
100
AcDbCircle
 10
37.85510536158776
 20
-1.088664924011833
 30
0.0
 40
0.0165083467576814
100
AcDbArc
 50
194.8546182240452
 51
330.451099434079
  0
ARC
  5
238
330
1F
100
AcDbEntity
  8
TEXT
100
AcDbCircle
 10
37.82059702184513
 20
-1.071742027547582
 30
0.0
 40
0.02813723678398
100
AcDbArc
 50
223.0305625061276
 51
311.2487591160724
  0
ARC
  5
239
330
1F
100
AcDbEntity
  8
TEXT
100
AcDbCircle
 10
37.78440556026584
 20
-1.062804587850838
 30
0.0
 40
0.0321844135807072
100
AcDbArc
 50
214.7934494581965
 51
299.040950787611
  0
ARC
  5
23A
330
1F
100
AcDbEntity
  8
TEXT
100
AcDbCircle
 10
37.74840933196524
 20
-1.081446584932042
 30
0.0
 40
0.0095699306000212
100
AcDbArc
 50
1.658272028068491
 51
160.4091839300748
  0
ARC
  5
23B
330
1F
100
AcDbEntity
  8
TEXT
100
AcDbCircle
 10
37.73177169820691
 20
-1.079412545299632
 30
0.0
 40
0.0077116990206751
100
AcDbArc
 50
156.0593073728624
 51
8.762281217119962
  0
ARC
  5
23C
330
1F
100
AcDbEntity
  8
TEXT
100
AcDbCircle
 10
37.66926145743916
 20
-1.094570529956111
 30
0.0
 40
0.0583991497394838
100
AcDbArc
 50
18.24878221232236
 51
92.19784172829085
  0
ARC
  5
23D
330
1F
100
AcDbEntity
  8
TEXT
100
AcDbCircle
 10
37.63719804456997
 20
-1.028460269109626
 30
0.0
 40
0.0308153276330387
100
AcDbArc
 50
345.4259909574664
 51
72.46181126870012
  0
ARC
  5
23E
330
1F
100
AcDbEntity
  8
TEXT
100
AcDbCircle
 10
37.58094803306443
 20
-0.9839293692014372
 30
0.0
 40
0.0672638203720832
100
AcDbArc
 50
346.9852122362369
 51
34.01252680042893
  0
ARC
  5
23F
330
1F
100
AcDbEntity
  8
TEXT
100
AcDbCircle
 10
37.91795876732326
 20
-0.8796480812790719
 30
0.0
 40
0.2890453171215877
100
AcDbArc
 50
153.5374647244112
 51
193.3327646348701
  0
ARC
  5
240
330
1F
100
AcDbEntity
  8
TEXT
100
AcDbCircle
 10
37.67385246354137
 20
-0.7433727725241859
 30
0.0
 40
0.0164500218150791
100
AcDbArc
 50
103.7022990326946
 51
207.0193065629252
  0
ARC
  5
241
330
1F
100
AcDbEntity
  8
TEXT
100
AcDbCircle
 10
37.68329199799679
 20
-0.7167103066939582
 30
0.0
 40
0.0170859295256878
100
AcDbArc
 50
218.6904014524231
 51
353.6659411500759
  0
ARC
  5
242
330
1F
100
AcDbEntity
  8
TEXT
100
AcDbCircle
 10
37.71707921013228
 20
-0.7421743139028152
 30
0.0
 40
0.0918323319035131
100
AcDbArc
 50
120.6947626763568
 51
155.9971516553446
  0
LINE
  5
243
330
1F
100
AcDbEntity
  8
TEXT
100
AcDbLine
 10
37.63384901795683
 20
-0.6552819236327779
 30
0.0
 11
37.63318805741922
 21
-0.7048185689721436
 31
0.0
  0
LINE
  5
244
330
1F
100
AcDbEntity
  8
TEXT
100
AcDbLine
 10
37.67152400253765
 20
-0.6440536190375923
 30
0.0
 11
37.67020208146259
 21
-0.6632077894097037
 31
0.0
  0
ARC
  5
245
330
1F
100
AcDbEntity
  8
TEXT
100
AcDbCircle
 10
37.65462083724214
 20
-0.6561581313969178
 30
0.0
 40
0.0207902913992979
100
AcDbArc
 50
35.60679995345934
 51
177.5845513854531
  0
ARC
  5
246
330
1F
100
AcDbEntity
  8
TEXT
100
AcDbCircle
 10
37.71966403822557
 20
-0.5918863359345786
 30
0.0
 40
0.0144566035729705
100
AcDbArc
 50
318.2823815987277
 51
84.36248438139953
  0
ARC
  5
247
330
1F
100
AcDbEntity
  8
TEXT
100
AcDbCircle
 10
37.75266223062152
 20
-0.6399099507662278
 30
0.0
 40
0.0443619141316411
100
AcDbArc
 50
81.18509483549694
 51
120.0392913824104
  0
ARC
  5
248
330
1F
100
AcDbEntity
  8
TEXT
100
AcDbCircle
 10
37.77404008563031
 20
-0.6769142495740291
 30
0.0
 40
0.0821464222617712
100
AcDbArc
 50
70.05468846035579
 51
100.2232656721042
  0
ARC
  5
249
330
1F
100
AcDbEntity
  8
TEXT
100
AcDbCircle
 10
37.8115795285846
 20
-0.6025367460506529
 30
0.0
 40
0.0099325749901857
100
AcDbArc
 50
163.375655046466
 51
16.62434495353045
  0
ARC
  5
24A
330
1F
100
AcDbEntity
  8
TEXT
100
AcDbCircle
 10
37.8382708325472
 20
-0.6197121885250887
 30
0.0
 40
0.0263747499599874
100
AcDbArc
 50
46.43616582623992
 51
130.6283095026662
  0
ARC
  5
24B
330
1F
100
AcDbEntity
  8
TEXT
100
AcDbCircle
 10
37.86521094165183
 20
-0.6000555341403101
 30
0.0
 40
0.0087805760921113
100
AcDbArc
 50
183.5606974541693
 51
344.4298925613464
  0
ARC
  5
24C
330
1F
100
AcDbEntity
  8
TEXT
100
AcDbCircle
 10
37.88953164572593
 20
-0.6084673815226475
 30
0.0
 40
0.0169787241644715
100
AcDbArc
 50
20.89289471578032
 51
159.1071052842194
  0
ARC
  5
24D
330
1F
100
AcDbEntity
  8
TEXT
100
AcDbCircle
 10
37.91632837627411
 20
-0.6202218992190254
 30
0.0
 40
0.0208983057746847
100
AcDbArc
 50
24.75773987532587
 51
121.5483884163393
  0
ARC
  5
24E
330
1F
100
AcDbEntity
  8
TEXT
100
AcDbCircle
 10
37.94973324943608
 20
-0.6189427677373942
 30
0.0
 40
0.0162478100079606
100
AcDbArc
 50
47.61705801860736
 51
152.6179806586004
  0
ARC
  5
24F
330
1F
100
AcDbEntity
  8
TEXT
100
AcDbCircle
 10
37.97045497490068
 20
-0.6161668958463588
 30
0.0
 40
0.013437017058543
100
AcDbArc
 50
136.6395135700791
 51
16.38775991618527
  0
ARC
  5
250
330
1F
100
AcDbEntity
  8
TEXT
100
AcDbCircle
 10
37.98659238264501
 20
-0.6525486222758411
 30
0.0
 40
0.0403037486330172
100
AcDbArc
 50
41.27304036069129
 51
94.61991284103847
  0
ARC
  5
251
330
1F
100
AcDbEntity
  8
TEXT
100
AcDbCircle
 10
38.03311261042797
 20
-0.6276113022362893
 30
0.0
 40
0.0163125120544415
100
AcDbArc
 50
174.1982733486934
 51
308.0634596483615
  0
ARC
  5
252
330
1F
100
AcDbEntity
  8
TEXT
100
AcDbCircle
 10
38.05511340556457
 20
-0.647220918081672
 30
0.0
 40
0.0137270555609936
100
AcDbArc
 50
296.7794474250819
 51
150.4674482996606
  0
ARC
  5
253
330
1F
100
AcDbEntity
  8
TEXT
100
AcDbCircle
 10
38.06628353961515
 20
-0.7583455053285954
 30
0.0
 40
0.098995400017639
100
AcDbArc
 50
78.6467194011529
 51
92.8865786316482
  0
ARC
  5
254
330
1F
100
AcDbEntity
  8
TEXT
100
AcDbCircle
 10
38.05342129631716
 20
-0.7009922209168842
 30
0.0
 40
0.051215480035304
100
AcDbArc
 50
356.7791343814141
 51
50.82801334298971
  0
ARC
  5
255
330
1F
100
AcDbEntity
  8
TEXT
100
AcDbCircle
 10
38.11547881179905
 20
-0.7383492702928507
 30
0.0
 40
0.0361683096150365
100
AcDbArc
 50
51.01090143870948
 51
107.577946053111
  0
ARC
  5
256
330
1F
100
AcDbEntity
  8
TEXT
100
AcDbCircle
 10
37.95737899046571
 20
-0.8653529469524768
 30
0.0
 40
0.2382642639125382
100
AcDbArc
 50
317.9732863042375
 51
40.61894937560249
  0
ARC
  5
257
330
1F
100
AcDbEntity
  8
TEXT
100
AcDbCircle
 10
38.36630320017594
 20
-1.073284405273813
 30
0.0
 40
0.2359451402591565
100
AcDbArc
 50
179.4662202071271
 51
190.5890997840382
  0
ARC
  5
258
330
1F
100
AcDbEntity
  8
TEXT
100
AcDbCircle
 10
38.11437990338614
 20
-1.126118126818912
 30
0.0
 40
0.0221276418564234
100
AcDbArc
 50
282.9712622283036
 51
25.35441378639511
  0
ARC
  5
259
330
1F
100
AcDbEntity
  8
TEXT
100
AcDbCircle
 10
38.14674564028989
 20
-1.12200412323376
 30
0.0
 40
0.0375500914051544
100
AcDbArc
 50
169.468486757319
 51
223.1418439421427
  0
ARC
  5
25A
330
1F
100
AcDbEntity
  8
TEXT
100
AcDbCircle
 10
38.06183716471401
 20
-1.095116064997738
 30
0.0
 40
0.0520011725460635
100
AcDbArc
 50
337.3510782224613
 51
22.64892177753829
  0
ARC
  5
25B
330
1F
100
AcDbEntity
  8
TEXT
100
AcDbCircle
 10
37.92682027454514
 20
-0.9390654381043468
 30
0.0
 40
0.2046861573993906
100
AcDbArc
 50
311.6071689301104
 51
318.3515702307968
  0
ARC
  5
25C
330
1F
100
AcDbEntity
  8
TEXT
100
AcDbCircle
 10
38.06262424636738
 20
-1.098910755922452
 30
0.0
 40
0.0067993222353269
100
AcDbArc
 50
89.05883162362073
 51
223.9137905963005
  0
ARC
  5
25D
330
1F
100
AcDbEntity
  8
TEXT
100
AcDbCircle
 10
38.00415011308714
 20
-1.111366352654393
 30
0.0
 40
0.0541321766727322
100
AcDbArc
 50
322.6907301981532
 51
8.220255073940956
  0
ARC
  5
25E
330
1F
100
AcDbEntity
  8
TEXT
100
AcDbCircle
 10
38.05573916559792
 20
-1.154657717023201
 30
0.0
 40
0.0135156575674083
100
AcDbArc
 50
129.1527393458021
 51
254.8870408388504
  0
ARC
  5
25F
330
1F
100
AcDbEntity
  8
TEXT
100
AcDbCircle
 10
38.05519028219121
 20
-1.172846632020337
 30
0.0
 40
0.0059394709973391
100
AcDbArc
 50
312.7998628402736
 51
120.0581864533373
  0
ARC
  5
260
330
1F
100
AcDbEntity
  8
TEXT
100
AcDbCircle
 10
38.15912319280953
 20
-1.220591673986876
 30
0.0
 40
0.0535706111637416
100
AcDbArc
 50
99.17143729878524
 51
127.7955283290937
  0
ARC
  5
261
330
1F
100
AcDbEntity
  8
TEXT
100
AcDbCircle
 10
38.14844692517878
 20
-1.192134419948639
 30
0.0
 40
0.0245218569695123
100
AcDbArc
 50
341.5477100758356
 51
84.99888070834156
  0
ARC
  5
262
330
1F
100
AcDbEntity
  8
TEXT
100
AcDbCircle
 10
38.03607792225923
 20
-1.129337302085978
 30
0.0
 40
0.0397170113195697
100
AcDbArc
 50
156.2885975497952
 51
210.2571046136445
  0
ARC
  5
263
330
1F
100
AcDbEntity
  8
TEXT
100
AcDbCircle
 10
38.00779833111356
 20
-1.116279417078867
 30
0.0
 40
0.0085935755651832
100
AcDbArc
 50
31.23099864076716
 51
160.1819529381846
  0
LINE
  5
264
330
1F
100
AcDbEntity
  8
TEXT
100
AcDbLine
 10
38.01463212880124
 20
-1.150892129513461
 30
0.0
 11
38.01514655894518
 21
-1.111823736577541
 31
0.0
  0
ARC
  5
265
330
1F
100
AcDbEntity
  8
TEXT
100
AcDbCircle
 10
38.00778153132208
 20
-1.153625658162784
 30
0.0
 40
0.0073758297633604
100
AcDbArc
 50
144.5711585108374
 51
21.75301147887026
  0
ARC
  5
266
330
1F
100
AcDbEntity
  8
TEXT
100
AcDbCircle
 10
37.86844517500585
 20
-1.169713155292132
 30
0.0
 40
0.0134855699988159
100
AcDbArc
 50
177.787775166229
 51
326.3805826419355
  0
ARC
  5
267
330
1F
100
AcDbEntity
  8
TEXT
100
AcDbCircle
 10
37.84739835929303
 20
-1.168466487115462
 30
0.0
 40
0.0076060349786647
100
AcDbArc
 50
354.5219056877808
 51
214.9448543763829
  0
LINE
  5
268
330
1F
100
AcDbEntity
  8
TEXT
100
AcDbLine
 10
37.80628543224989
 20
-1.15830098927661
 30
0.0
 11
37.80773869900161
 21
-1.203319611752337
 31
0.0
  0
ARC
  5
269
330
1F
100
AcDbEntity
  8
TEXT
100
AcDbCircle
 10
37.776367919646
 20
-1.145265484883932
 30
0.0
 40
0.0081541404684094
100
AcDbArc
 50
5.351678383090947
 51
195.2435488026394
  0
LINE
  5
26A
330
1F
100
AcDbEntity
  8
TEXT
100
AcDbLine
 10
37.76632076671543
 20
-1.218567852204379
 30
0.0
 11
37.76850066684284
 21
-1.147409392557264
 31
0.0
  0
LINE
  5
26B
330
1F
100
AcDbEntity
  8
TEXT
100
AcDbLine
 10
37.73144253481176
 20
-1.131435040612166
 30
0.0
 11
37.73798219266011
 21
-1.221472272951156
 31
0.0
  0
ARC
  5
26C
330
1F
100
AcDbEntity
  8
TEXT
100
AcDbCircle
 10
37.71605357092054
 20
-1.133490275083747
 30
0.0
 40
0.0155255981649413
100
AcDbArc
 50
7.606980527162162
 51
103.0413594591621
  0
ARC
  5
26D
330
1F
100
AcDbEntity
  8
TEXT
100
AcDbCircle
 10
37.70601048362621
 20
-1.132513344322449
 30
0.0
 40
0.0155865152612638
100
AcDbArc
 50
65.19241843010743
 51
139.050810698879
  0
LINE
  5
26E
330
1F
100
AcDbEntity
  8
TEXT
100
AcDbLine
 10
37.69423812759218
 20
-1.141925188613186
 30
0.0
 11
37.69423812759218
 21
-1.122298106126699
 31
0.0
  0
ARC
  5
26F
330
1F
100
AcDbEntity
  8
TEXT
100
AcDbCircle
 10
37.68551262359519
 20
-1.144271335584696
 30
0.0
 40
0.009035420610806
100
AcDbArc
 50
168.3169857564316
 51
15.04995211451593
  0
LINE
  5
270
330
1F
100
AcDbEntity
  8
TEXT
100
AcDbLine
 10
37.67408003278742
 20
-1.118682595578569
 30
0.0
 11
37.67666439082874
 21
-1.142441690119998
 31
0.0
  0
ARC
  5
271
330
1F
100
AcDbEntity
  8
TEXT
100
AcDbCircle
 10
37.67052011976821
 20
-1.115549746371157
 30
0.0
 40
0.0047421224004218
100
AcDbArc
 50
318.6510821797593
 51
186.6644145786489
  0
LINE
  5
272
330
1F
100
AcDbEntity
  8
TEXT
100
AcDbLine
 10
37.66374253682065
 20
-1.134177666010059
 30
0.0
 11
37.6658100402674
 21
-1.116100088044156
 31
0.0
  0
ARC
  5
273
330
1F
100
AcDbEntity
  8
TEXT
100
AcDbCircle
 10
37.65097668493546
 20
-1.13755450906132
 30
0.0
 40
0.0132049249656259
100
AcDbArc
 50
172.0457056516397
 51
14.81661014794206
  0
LINE
  5
274
330
1F
100
AcDbEntity
  8
TEXT
100
AcDbLine
 10
37.63479757363425
 20
-1.092340980890052
 30
0.0
 11
37.63789880753733
 21
-1.135727170530675
 31
0.0
  0
ARC
  5
275
330
1F
100
AcDbEntity
  8
TEXT
100
AcDbCircle
 10
37.63820791717267
 20
-1.060731927505812
 30
0.0
 40
0.0317924943799086
100
AcDbArc
 50
209.3802246625984
 51
263.8421008682747
  0
ARC
  5
276
330
1F
100
AcDbEntity
  8
TEXT
100
AcDbCircle
 10
37.59839650432637
 20
-1.080186480099097
 30
0.0
 40
0.012707469463738
100
AcDbArc
 50
17.66955929970854
 51
146.8111142491861
  0
ARC
  5
277
330
1F
100
AcDbEntity
  8
TEXT
100
AcDbCircle
 10
37.58275288597591
 20
-1.076530871630374
 30
0.0
 40
0.00599869277985
100
AcDbArc
 50
192.9866902548923
 51
33.38063139741035
  0
LINE
  5
278
330
1F
100
AcDbEntity
  8
TEXT
100
AcDbLine
 10
37.57690762599421
 20
-1.059284846612096
 30
0.0
 11
37.57690762599421
 21
-1.077878926084878
 31
0.0
  0
ARC
  5
279
330
1F
100
AcDbEntity
  8
TEXT
100
AcDbCircle
 10
37.5729524154765
 20
-1.057329020413078
 30
0.0
 40
0.0044123628997899
100
AcDbArc
 50
333.6879001367226
 51
192.072245755338
  0
LINE
  5
27A
330
1F
100
AcDbEntity
  8
TEXT
100
AcDbLine
 10
37.56863763347411
 20
-1.058251843598377
 30
0.0
 11
37.56760388175073
 21
-1.182728858106886
 31
0.0
  0
ARC
  5
27B
330
1F
100
AcDbEntity
  8
TEXT
100
AcDbCircle
 10
40.11728391359674
 20
-1.107093260781514
 30
0.0
 40
2.577458655362939
100
AcDbArc
 50
178.0464319449979
 51
181.7502526685598
  0
ARC
  5
27C
330
1F
100
AcDbEntity
  8
TEXT
100
AcDbCircle
 10
37.51348776152469
 20
-1.026776623873806
 30
0.0
 40
0.0288407518815704
100
AcDbArc
 50
15.17145974978874
 51
87.54918714297627
  0
ARC
  5
27D
330
1F
100
AcDbEntity
  8
TEXT
100
AcDbCircle
 10
38.1326274476158
 20
-0.8689432079317105
 30
0.0
 40
0.6312323191318453
100
AcDbArc
 50
175.4121316267021
 51
191.7939289657055
  0
ARC
  5
27E
330
1F
100
AcDbEntity
  8
TEXT
100
AcDbCircle
 10
37.65225893430651
 20
-0.8201711732692016
 30
0.0
 40
0.1488511596759254
100
AcDbArc
 50
117.322218089242
 51
179.3383492613259
  0
ARC
  5
27F
330
1F
100
AcDbEntity
  8
TEXT
100
AcDbCircle
 10
37.57108524765671
 20
-0.6741376181649166
 30
0.0
 40
0.0188491112553039
100
AcDbArc
 50
312.9867785858861
 51
66.99118422926638
  0
ARC
  5
280
330
1F
100
AcDbEntity
  8
TEXT
100
AcDbCircle
 10
37.56910676073756
 20
-0.6518796178767765
 30
0.0
 40
0.010556616597499
100
AcDbArc
 50
332.2921775479047
 51
119.5678571759903
  0
ARC
  5
281
330
1F
100
AcDbEntity
  8
TEXT
100
AcDbCircle
 10
37.57361877632531
 20
-0.6587226215879092
 30
0.0
 40
0.0187429455981067
100
AcDbArc
 50
121.2424246402128
 51
213.473239708375
  0
ARC
  5
282
330
1F
100
AcDbEntity
  8
TEXT
100
AcDbCircle
 10
37.55374145956724
 20
-0.6728761934171921
 30
0.0
 40
0.0057065395840888
100
AcDbArc
 50
201.5154657473976
 51
41.96660508022721
  0
ARC
  5
283
330
1F
100
AcDbEntity
  8
TEXT
100
AcDbCircle
 10
37.55388688287226
 20
-0.6544221729241038
 30
0.0
 40
0.0212585287293903
100
AcDbArc
 50
160.2627782819637
 51
255.1333022011724
  0
ARC
  5
284
330
1F
100
AcDbEntity
  8
TEXT
100
AcDbCircle
 10
37.52916168222879
 20
-0.6432578811063828
 30
0.0
 40
0.0061739830866347
100
AcDbArc
 50
124.2167745950174
 51
319.7988197133694
  0
ARC
  5
285
330
1F
100
AcDbEntity
  8
TEXT
100
AcDbCircle
 10
37.51594355152207
 20
-0.6375977751256025
 30
0.0
 40
0.0097621171375419
100
AcDbArc
 50
356.7423630506751
 51
136.5172760690068
  0
ARC
  5
286
330
1F
100
AcDbEntity
  8
TEXT
100
AcDbCircle
 10
37.51147577807098
 20
-0.6180621280826664
 30
0.0
 40
0.0130820970569145
100
AcDbArc
 50
116.3151684036785
 51
258.4674100382152
  0
ARC
  5
287
330
1F
100
AcDbEntity
  8
TEXT
100
AcDbCircle
 10
37.512631449426
 20
-0.6129902450666265
 30
0.0
 40
0.0096257735995931
100
AcDbArc
 50
348.1206509806774
 51
136.2651890953773
  0
ARC
  5
288
330
1F
100
AcDbEntity
  8
TEXT
100
AcDbCircle
 10
37.52828968503126
 20
-0.6173950378882616
 30
0.0
 40
0.0066927394348194
100
AcDbArc
 50
158.7719549350954
 51
25.46716058584097
  0
ARC
  5
289
330
1F
100
AcDbEntity
  8
TEXT
100
AcDbCircle
 10
37.55231441213306
 20
-0.6160278614295365
 30
0.0
 40
0.0180456507765809
100
AcDbArc
 50
32.48569494743576
 51
175.1979664789355
  0
ARC
  5
28A
330
1F
100
AcDbEntity
  8
TEXT
100
AcDbCircle
 10
37.57498452051291
 20
-0.6096635703348455
 30
0.0
 40
0.0081577723279197
100
AcDbArc
 50
155.9249042338181
 51
10.66497725508796
  0
ARC
  5
28B
330
1F
100
AcDbEntity
  8
TEXT
100
AcDbCircle
 10
37.60952700057464
 20
-0.6029813633264462
 30
0.0
 40
0.0270252345565322
100
AcDbArc
 50
109.4580308571273
 51
191.0341765877007
  0
LINE
  5
28C
330
1F
100
AcDbEntity
  8
TEXT
100
AcDbLine
 10
38.84509172197937
 20
-0.9725155562125172
 30
0.0
 11
39.01470666597285
 21
-0.9725155562125172
 31
0.0
  0
ARC
  5
28D
330
1F
100
AcDbEntity
  8
TEXT
100
AcDbCircle
 10
38.93766069571029
 20
-0.9689328643109933
 30
0.0
 40
0.0771292241304657
100
AcDbArc
 50
357.337623744369
 51
85.63084243886233
  0
ARC
  5
28E
330
1F
100
AcDbEntity
  8
TEXT
100
AcDbCircle
 10
38.9136168182708
 20
-1.034700837358474
 30
0.0
 40
0.1457765134379907
100
AcDbArc
 50
78.15621523985548
 51
106.6122408520358
  0
LINE
  5
28F
330
1F
100
AcDbEntity
  8
TEXT
100
AcDbLine
 10
38.84509172197937
 20
-0.9542035283696675
 30
0.0
 11
38.9563216274936
 21
-0.9542035283696675
 31
0.0
  0
ARC
  5
290
330
1F
100
AcDbEntity
  8
TEXT
100
AcDbCircle
 10
38.89928552803247
 20
-0.9647881913830962
 30
0.0
 40
0.0552177843238222
100
AcDbArc
 50
103.9179608005984
 51
168.9486088950471
  0
ARC
  5
291
330
1F
100
AcDbEntity
  8
TEXT
100
AcDbCircle
 10
38.91199043975348
 20
-0.9528033029772196
 30
0.0
 40
0.0443532956790781
100
AcDbArc
 50
358.1908821763629
 51
69.74957583402936
  0
ARC
  5
292
330
1F
100
AcDbEntity
  8
TEXT
100
AcDbCircle
 10
38.90667302295378
 20
-1.079521192010165
 30
0.0
 40
0.1695938859987873
100
AcDbArc
 50
82.99970676551479
 51
97.00029323448521
  0
ARC
  5
293
330
1F
100
AcDbEntity
  8
TEXT
100
AcDbCircle
 10
38.90544927107237
 20
-0.9949150387533476
 30
0.0
 40
0.1053760102407792
100
AcDbArc
 50
108.54166133208
 51
149.7652339536173
  0
ARC
  5
294
330
1F
100
AcDbEntity
  8
TEXT
100
AcDbCircle
 10
38.90612369600853
 20
-0.998125072191641
 30
0.0
 40
0.1076026138767659
100
AcDbArc
 50
148.4692011102835
 51
195.5802361373379
  0
ARC
  5
295
330
1F
100
AcDbEntity
  8
TEXT
100
AcDbCircle
 10
38.90413322252821
 20
-1.001331097284698
 30
0.0
 40
0.1048552806696757
100
AcDbArc
 50
194.1847393568155
 51
248.6586767321129
  0
ARC
  5
296
330
1F
100
AcDbEntity
  8
TEXT
100
AcDbCircle
 10
38.94720313389157
 20
-0.9737703274762095
 30
0.0
 40
0.1021191210970161
100
AcDbArc
 50
179.2959701761241
 51
227.5915484940841
  0
ARC
  5
297
330
1F
100
AcDbEntity
  8
TEXT
100
AcDbCircle
 10
38.92493281528734
 20
-0.9919484949957499
 30
0.0
 40
0.0737965061688043
100
AcDbArc
 50
230.841648863773
 51
280.5326941523482
  0
ARC
  5
298
330
1F
100
AcDbEntity
  8
TEXT
100
AcDbCircle
 10
38.9345772712932
 20
-0.9719530751513794
 30
0.0
 40
0.0926283604078677
100
AcDbArc
 50
272.3792098458871
 51
327.3581874363218
  0
ARC
  5
299
330
1F
100
AcDbEntity
  8
TEXT
100
AcDbCircle
 10
38.90719351875178
 20
-0.952502472253915
 30
0.0
 40
0.1521824787564249
100
AcDbArc
 50
254.2847830849396
 51
294.1819270465994
  0
ARC
  5
29A
330
1F
100
AcDbEntity
  8
TEXT
100
AcDbCircle
 10
38.9195470822024
 20
-0.9902962299698323
 30
0.0
 40
0.1127234158522562
100
AcDbArc
 50
296.3233923707218
 51
339.8348331475782
  0
ARC
  5
29B
330
1F
100
AcDbEntity
  8
TEXT
100
AcDbCircle
 10
39.01773490765876
 20
-1.027713498858396
 30
0.0
 40
0.0077610208654275
100
AcDbArc
 50
349.2952029716974
 51
131.662690546936
  0
ARC
  5
29C
330
1F
100
AcDbEntity
  8
TEXT
100
AcDbCircle
 10
37.79102888877307
 20
-0.1780337376959196
 30
0.0
 40
0.0156079722295946
100
AcDbArc
 50
146.5485285753441
 51
33.45147142465568
  0
ARC
  5
29D
330
1F
100
AcDbEntity
  8
TEXT
100
AcDbCircle
 10
37.76605379294544
 20
-0.1503377546550944
 30
0.0
 40
0.0121031922010387
100
AcDbArc
 50
2.74996592020211
 51
141.7961814814361
  0
LINE
  5
29E
330
1F
100
AcDbEntity
  8
TEXT
100
AcDbLine
 10
37.80469631119412
 20
-0.1165893925910559
 30
0.0
 11
37.80405144729501
 21
-0.1694301473605329
 31
0.0
  0
LINE
  5
29F
330
1F
100
AcDbEntity
  8
TEXT
100
AcDbLine
 10
37.77814304729206
 20
-0.1497570733348859
 30
0.0
 11
37.77800633025095
 21
-0.1694301473605329
 31
0.0
  0
LINE
  5
2A0
330
1F
100
AcDbEntity
  8
TEXT
100
AcDbLine
 10
37.75654291477005
 20
-0.1428524051113698
 30
0.0
 11
37.72108417580929
 21
-0.1617501094229823
 31
0.0
  0
LINE
  5
2A1
330
1F
100
AcDbEntity
  8
TEXT
100
AcDbLine
 10
37.5650657158741
 20
-0.1428524051113698
 30
0.0
 11
37.60052445483511
 21
-0.1617501094229823
 31
0.0
  0
ARC
  5
2A2
330
1F
100
AcDbEntity
  8
TEXT
100
AcDbCircle
 10
37.55555483769896
 20
-0.1503377546550944
 30
0.0
 40
0.0121031922010387
100
AcDbArc
 50
38.20381851856382
 51
177.2500340797979
  0
LINE
  5
2A3
330
1F
100
AcDbEntity
  8
TEXT
100
AcDbLine
 10
37.72108417580929
 20
-0.1617501094229823
 30
0.0
 11
37.72108417580929
 21
-0.5774996547289925
 31
0.0
  0
LINE
  5
2A4
330
1F
100
AcDbEntity
  8
TEXT
100
AcDbLine
 10
37.60052445483511
 20
-0.1617501094229823
 30
0.0
 11
37.60052445483511
 21
-0.5774996547289925
 31
0.0
  0
ARC
  5
2A5
330
1F
100
AcDbEntity
  8
TEXT
100
AcDbCircle
 10
37.53267831989193
 20
-0.3890208392861254
 30
0.0
 40
0.0124552115746212
100
AcDbArc
 50
177.899482485688
 51
2.100517514311817
  0
LINE
  5
2A6
330
1F
100
AcDbEntity
  8
TEXT
100
AcDbLine
 10
37.5434655833521
 20
-0.1497570733348859
 30
0.0
 11
37.54512516234608
 21
-0.3885643217173218
 31
0.0
  0
LINE
  5
2A7
330
1F
100
AcDbEntity
  8
TEXT
100
AcDbLine
 10
37.51691231945003
 20
-0.1165893925910559
 30
0.0
 11
37.52023147743781
 21
-0.3885643217173218
 31
0.0
  0
ARC
  5
2A8
330
1F
100
AcDbEntity
  8
TEXT
100
AcDbCircle
 10
37.99563245057948
 20
-0.4802179608462609
 30
0.0
 40
0.0101578825912818
100
AcDbArc
 50
3.288025410275718
 51
105.9275278804377
  0
ARC
  5
2A9
330
1F
100
AcDbEntity
  8
TEXT
100
AcDbCircle
 10
37.9165668258976
 20
-0.4200762509773456
 30
0.0
 40
0.0914104226032628
100
AcDbArc
 50
282.1628426667851
 51
326.5593609179302
  0
ARC
  5
2AA
330
1F
100
AcDbEntity
  8
TEXT
100
AcDbCircle
 10
37.91589549537853
 20
-0.438308672226814
 30
0.0
 40
0.0738657704904844
100
AcDbArc
 50
213.1462108998123
 51
285.6537258536394
  0
ARC
  5
2AB
330
1F
100
AcDbEntity
  8
TEXT
100
AcDbCircle
 10
37.9367598453889
 20
-0.426750333195745
 30
0.0
 40
0.0976702040753471
100
AcDbArc
 50
167.0430028911411
 51
212.1309371309446
  0
ARC
  5
2AC
330
1F
100
AcDbEntity
  8
TEXT
100
AcDbCircle
 10
37.92526303660721
 20
-0.4351609784270991
 30
0.0
 40
0.0890064783056415
100
AcDbArc
 50
117.3722826858102
 51
160.0902491401813
  0
ARC
  5
2AD
330
1F
100
AcDbEntity
  8
TEXT
100
AcDbCircle
 10
37.88573613181416
 20
-0.4139364936355534
 30
0.0
 40
0.1368405513058665
100
AcDbArc
 50
310.2152586008202
 51
331.3072507285896
  0
ARC
  5
2AE
330
1F
100
AcDbEntity
  8
TEXT
100
AcDbCircle
 10
37.89879998246462
 20
-0.4467805350045815
 30
0.0
 40
0.1039337363525359
100
AcDbArc
 50
251.6347706403311
 51
316.4182924463649
  0
ARC
  5
2AF
330
1F
100
AcDbEntity
  8
TEXT
100
AcDbCircle
 10
37.88342058575722
 20
-0.4506974756239366
 30
0.0
 40
0.0963021545161457
100
AcDbArc
 50
194.9511061487671
 51
259.6103135862126
  0
ARC
  5
2B0
330
1F
100
AcDbEntity
  8
TEXT
100
AcDbCircle
 10
37.89353229219845
 20
-0.4474553629242024
 30
0.0
 40
0.1069092726291883
100
AcDbArc
 50
135.7093780000637
 51
195.2317137751528
  0
ARC
  5
2B1
330
1F
100
AcDbEntity
  8
TEXT
100
AcDbCircle
 10
37.89441532770072
 20
-0.432202107355689
 30
0.0
 40
0.0975742562336998
100
AcDbArc
 50
97.06566064011505
 51
142.4986334312248
  0
ARC
  5
2B2
330
1F
100
AcDbEntity
  8
TEXT
100
AcDbCircle
 10
37.90574951643345
 20
-0.6698503380858192
 30
0.0
 40
0.3144601147480231
100
AcDbArc
 50
86.31431733544657
 51
93.90381943516564
  0
ARC
  5
2B3
330
1F
100
AcDbEntity
  8
TEXT
100
AcDbCircle
 10
37.89909133806093
 20
-0.3838458517350354
 30
0.0
 40
0.0386686913429353
100
AcDbArc
 50
16.716844407307
 51
45.97719400399777
  0
ARC
  5
2B4
330
1F
100
AcDbEntity
  8
TEXT
100
AcDbCircle
 10
37.97378946965108
 20
-0.3727160913606439
 30
0.0
 40
0.0376636582082259
100
AcDbArc
 50
180.010674400693
 51
201.8251852718029
  0
ARC
  5
2B5
330
1F
100
AcDbEntity
  8
TEXT
100
AcDbCircle
 10
37.96723406499565
 20
-0.3733892132891654
 30
0.0
 40
0.0313802526613191
100
AcDbArc
 50
205.1359642898991
 51
307.6679722285764
  0
ARC
  5
2B6
330
1F
100
AcDbEntity
  8
TEXT
100
AcDbCircle
 10
37.96105040147622
 20
-0.3778068321168675
 30
0.0
 40
0.032560190718427
100
AcDbArc
 50
321.1558234807585
 51
36.94217904229974
  0
ARC
  5
2B7
330
1F
100
AcDbEntity
  8
TEXT
100
AcDbCircle
 10
37.93239893929754
 20
-0.4095229479494371
 30
0.0
 40
0.0749633841299307
100
AcDbArc
 50
43.16761867319049
 51
81.57335966331341
  0
ARC
  5
2B8
330
1F
100
AcDbEntity
  8
TEXT
100
AcDbCircle
 10
37.91289866820474
 20
-0.6591530753467332
 30
0.0
 40
0.3252162371354315
100
AcDbArc
 50
84.62122141578795
 51
95.37877858421206
  0
ARC
  5
2B9
330
1F
100
AcDbEntity
  8
TEXT
100
AcDbCircle
 10
38.24204496372728
 20
-0.4729532568779895
 30
0.0
 40
0.0077610208654275
100
AcDbArc
 50
349.2952029716974
 51
131.662690546936
  0
ARC
  5
2BA
330
1F
100
AcDbEntity
  8
TEXT
100
AcDbCircle
 10
38.14385713827093
 20
-0.4355359879891765
 30
0.0
 40
0.1127234158522562
100
AcDbArc
 50
296.3233923707218
 51
339.8348331475782
  0
ARC
  5
2BB
330
1F
100
AcDbEntity
  8
TEXT
100
AcDbCircle
 10
38.13150357482022
 20
-0.3977422302733551
 30
0.0
 40
0.1521824787564249
100
AcDbArc
 50
254.2847830849396
 51
294.1819270465994
  0
ARC
  5
2BC
330
1F
100
AcDbEntity
  8
TEXT
100
AcDbCircle
 10
38.15888732736162
 20
-0.4171928331708267
 30
0.0
 40
0.0926283604078677
100
AcDbArc
 50
272.3792098458871
 51
327.3581874363218
  0
ARC
  5
2BD
330
1F
100
AcDbEntity
  8
TEXT
100
AcDbCircle
 10
38.1492428713558
 20
-0.4371882530152044
 30
0.0
 40
0.0737965061688043
100
AcDbArc
 50
230.841648863773
 51
280.5326941523482
  0
ARC
  5
2BE
330
1F
100
AcDbEntity
  8
TEXT
100
AcDbCircle
 10
38.17151318996001
 20
-0.4190100854955753
 30
0.0
 40
0.1021191210970161
100
AcDbArc
 50
179.2959701761241
 51
227.5915484940841
  0
ARC
  5
2BF
330
1F
100
AcDbEntity
  8
TEXT
100
AcDbCircle
 10
38.12844327859674
 20
-0.4465708553040458
 30
0.0
 40
0.1048552806696757
100
AcDbArc
 50
194.1847393568155
 51
248.6586767321129
  0
ARC
  5
2C0
330
1F
100
AcDbEntity
  8
TEXT
100
AcDbCircle
 10
38.13043375207707
 20
-0.4433648302111238
 30
0.0
 40
0.1076026138767659
100
AcDbArc
 50
148.4692011102835
 51
195.5802361373379
  0
ARC
  5
2C1
330
1F
100
AcDbEntity
  8
TEXT
100
AcDbCircle
 10
38.12975932714091
 20
-0.4401547967727312
 30
0.0
 40
0.1053760102407792
100
AcDbArc
 50
108.54166133208
 51
149.7652339536173
  0
ARC
  5
2C2
330
1F
100
AcDbEntity
  8
TEXT
100
AcDbCircle
 10
38.13098307902223
 20
-0.5247609500294992
 30
0.0
 40
0.1695938859987873
100
AcDbArc
 50
82.99970676551479
 51
97.00029323448521
  0
ARC
  5
2C3
330
1F
100
AcDbEntity
  8
TEXT
100
AcDbCircle
 10
38.13630049582201
 20
-0.3980430609966667
 30
0.0
 40
0.0443532956790781
100
AcDbArc
 50
358.1908821763629
 51
69.74957583402936
  0
ARC
  5
2C4
330
1F
100
AcDbEntity
  8
TEXT
100
AcDbCircle
 10
38.1235955841009
 20
-0.4100279494025152
 30
0.0
 40
0.0552177843238222
100
AcDbArc
 50
103.9179608005984
 51
168.9486088950471
  0
LINE
  5
2C5
330
1F
100
AcDbEntity
  8
TEXT
100
AcDbLine
 10
38.06940177804793
 20
-0.3994432863890864
 30
0.0
 11
38.18063168356204
 21
-0.3994432863890864
 31
0.0
  0
ARC
  5
2C6
330
1F
100
AcDbEntity
  8
TEXT
100
AcDbCircle
 10
38.13792687433922
 20
-0.4799405953778228
 30
0.0
 40
0.1457765134379907
100
AcDbArc
 50
78.15621523985548
 51
106.6122408520358
  0
ARC
  5
2C7
330
1F
100
AcDbEntity
  8
TEXT
100
AcDbCircle
 10
38.16197075177882
 20
-0.4141726223303765
 30
0.0
 40
0.0771292241304657
100
AcDbArc
 50
357.337623744369
 51
85.63084243886233
  0
LINE
  5
2C8
330
1F
100
AcDbEntity
  8
TEXT
100
AcDbLine
 10
38.06940177804793
 20
-0.4177553142317798
 30
0.0
 11
38.23901672204129
 21
-0.4177553142317798
 31
0.0
  0
ARC
  5
2C9
330
1F
100
AcDbEntity
  8
TEXT
100
AcDbCircle
 10
38.64726768788676
 20
-1.015370246397814
 30
0.0
 40
0.0661304742957596
100
AcDbArc
 50
325.2939034707313
 51
356.4132772462207
  0
ARC
  5
2CA
330
1F
100
AcDbEntity
  8
TEXT
100
AcDbCircle
 10
38.64977621340153
 20
-1.024561058724922
 30
0.0
 40
0.0591535141697652
100
AcDbArc
 50
261.8576121462839
 51
331.2394802847383
  0
ARC
  5
2CB
330
1F
100
AcDbEntity
  8
TEXT
100
AcDbCircle
 10
38.62973042477287
 20
-1.042879775882339
 30
0.0
 40
0.0418959370992066
100
AcDbArc
 50
203.9135879631542
 51
286.1701931802543
  0
ARC
  5
2CC
330
1F
100
AcDbEntity
  8
TEXT
100
AcDbCircle
 10
38.47444013212039
 20
-1.0516207593547
 30
0.0
 40
0.0178762062270483
100
AcDbArc
 50
155.9964711746264
 51
271.4218156194853
  0
LINE
  5
2CD
330
1F
100
AcDbEntity
  8
TEXT
100
AcDbLine
 10
38.49681867433791
 20
-1.068202093587004
 30
0.0
 11
38.47488369115587
 21
-1.069491461759803
 31
0.0
  0
LINE
  5
2CE
330
1F
100
AcDbEntity
  8
TEXT
100
AcDbLine
 10
38.4955283987235
 20
-1.083029789736321
 30
0.0
 11
38.49681867433791
 21
-1.068202093587004
 31
0.0
  0
ARC
  5
2CF
330
1F
100
AcDbEntity
  8
TEXT
100
AcDbCircle
 10
38.35426721166081
 20
-0.9929030160221612
 30
0.0
 40
0.0810664487178012
100
AcDbArc
 50
257.573093086619
 51
314.4273867462269
  0
ARC
  5
2D0
330
1F
100
AcDbEntity
  8
TEXT
100
AcDbCircle
 10
38.35478405366468
 20
-1.033813347537825
 30
0.0
 40
0.0422636225364738
100
AcDbArc
 50
188.1927496775747
 51
244.8496170020148
  0
ARC
  5
2D1
330
1F
100
AcDbEntity
  8
TEXT
100
AcDbCircle
 10
38.00908254100431
 20
-1.012759400895589
 30
0.0
 40
0.0203406993533431
100
AcDbArc
 50
253.9290889125597
 51
38.65267477511383
  0
ARC
  5
2D2
330
1F
100
AcDbEntity
  8
TEXT
100
AcDbCircle
 10
38.08249225308037
 20
-1.043658201021507
 30
0.0
 40
0.0551762408426592
100
AcDbArc
 50
330.1916644163827
 51
19.91318758188005
  0
ARC
  5
2D3
330
1F
100
AcDbEntity
  8
TEXT
100
AcDbCircle
 10
38.09479868385807
 20
-1.111148385072084
 30
0.0
 40
0.0390640318638282
100
AcDbArc
 50
67.37252950712535
 51
112.6274704928676
  0
ARC
  5
2D4
330
1F
100
AcDbEntity
  8
TEXT
100
AcDbCircle
 10
37.92679739211735
 20
-0.9980156570314484
 30
0.0
 40
0.083974120160085
100
AcDbArc
 50
287.1920036507392
 51
335.8997504051536
  0
LINE
  5
2D5
330
1F
100
AcDbEntity
  8
TEXT
100
AcDbLine
 10
37.78448651604305
 20
-1.144504959197792
 30
0.0
 11
37.80628543224989
 21
-1.15830098927661
 31
0.0
  0
LINE
  5
2D6
330
1F
100
AcDbEntity
  8
BORDER
100
AcDbLine
 10
37.05526002538505
 20
-3.436672033153627
 30
0.0
 11
37.05526002538505
 21
-0.0779672093508594
 31
0.0
  0
LINE
  5
2D7
330
1F
100
AcDbEntity
  8
BORDER
100
AcDbLine
 10
33.48749406386486
 20
-2.371531041756695
 30
0.0
 11
37.05526002538505
 21
-2.371531041756695
 31
0.0
  0
LINE
  5
2D8
330
1F
100
AcDbEntity
  8
BORDER
100
AcDbLine
 10
33.48749406386486
 20
-1.861850190110956
 30
0.0
 11
37.05526002538505
 21
-1.861850190110956
 31
0.0
  0
TEXT
  5
2D9
330
1F
100
AcDbEntity
  8
TEXT
100
AcDbText
 10
35.83967119420998
 20
-2.326169445960212
 30
0.0
 40
0.1911303193671529
  1
NONE
 72
     1
 11
36.19007677971642
 21
-2.230604286276636
 31
0.0
100
AcDbText
 73
     2
  0
TEXT
  5
2DA
330
1F
100
AcDbEntity
  8
TEXT
100
AcDbText
 10
35.39879725753639
 20
-2.052980509478111
 30
0.0
 40
0.1274202129114353
  1
SCALE
100
AcDbText
  0
TEXT
  5
2DB
330
1F
100
AcDbEntity
  8
TEXT
100
AcDbText
 10
33.56139778735352
 20
-2.052980509478111
 30
0.0
 40
0.1274202129114353
  1
DRAWN
100
AcDbText
  0
TEXT
  5
2DC
330
1F
100
AcDbEntity
  8
TEXT
100
AcDbText
 10
34.09783688371064
 20
-2.326169445960212
 30
0.0
 40
0.1911303193671529
  1
JMH
 72
     1
 11
34.35267730953351
 21
-2.230604286276636
 31
0.0
100
AcDbText
 73
     2
  0
TEXT
  5
2DD
330
1F
100
AcDbEntity
  8
TEXT
100
AcDbText
 10
33.61491427677631
 20
-2.562661361123853
 30
0.0
 40
0.1274202129114353
  1
DATE
100
AcDbText
  0
TEXT
  5
2DE
330
1F
100
AcDbEntity
  8
TEXT
100
AcDbText
 10
34.40067225639682
 20
-2.749685661623622
 30
0.0
 40
0.2548404258228705
  1
12-31-09
 72
     1
 11
35.27137704462496
 21
-2.622265448712187
 31
0.0
100
AcDbText
 73
     2
  0
LINE
  5
2DF
330
1F
100
AcDbEntity
  8
BORDER
100
AcDbLine
 10
33.48749406386486
 20
-2.88121189340244
 30
0.0
 11
37.05526002538505
 21
-2.88121189340244
 31
0.0
  0
TEXT
  5
2E0
330
1F
100
AcDbEntity
  8
TEXT
100
AcDbText
 10
33.88284458851047
 20
-3.284324231454259
 30
0.0
 40
0.2548404258228705
  1
SHEET 1 OF 1
 72
     1
 11
35.28446693053626
 21
-3.156904018542823
 31
0.0
100
AcDbText
 73
     2
  0
LINE
  5
2E1
330
1F
100
AcDbEntity
  8
BORDER
100
AcDbLine
 10
42.25543401665322
 20
-2.371531041756695
 30
0.0
 11
42.25543401665322
 21
-3.436672033153627
 31
0.0
  0
LINE
  5
2E2
330
1F
100
AcDbEntity
  8
BORDER
100
AcDbLine
 10
37.05526002538505
 20
-2.371531041756695
 30
0.0
 11
43.65277676738125
 21
-2.371531041756695
 31
0.0
  0
LINE
  5
2E3
330
1F
100
AcDbEntity
  8
BORDER
100
AcDbLine
 10
37.05526002538505
 20
-1.352169338465222
 30
0.0
 11
43.65277676738125
 21
-1.352169338465222
 31
0.0
  0
LINE
  5
2E4
330
1F
100
AcDbEntity
  8
BORDER
100
AcDbLine
 10
37.05526002538505
 20
-0.0779672093508594
 30
0.0
 11
43.65277676738125
 21
-0.0779672093508594
 31
0.0
  0
TEXT
  5
2E5
330
1F
100
AcDbEntity
  8
TEXT
100
AcDbText
 10
40.50267531144645
 20
-1.30757226394621
 30
0.0
 40
0.1274202129114353
  1
FAX  724-837-3386
 72
     1
 11
41.56451041904174
 21
-1.243862157490492
 31
0.0
100
AcDbText
 73
     2
  0
TEXT
  5
2E6
330
1F
100
AcDbEntity
  8
TEXT
100
AcDbText
 10
39.88681094904118
 20
-0.3009525819458735
 30
0.0
 40
0.1274202129114353
  1
INDUSTRIAL COOLING EQUIPMENT
 72
     1
 11
41.56451041904174
 21
-0.2372424754901559
 31
0.0
100
AcDbText
 73
     2
  0
TEXT
  5
2E7
330
1F
100
AcDbEntity
  8
TEXT
100
AcDbText
 10
40.52391201359835
 20
-0.5430509864776758
 30
0.0
 40
0.1274202129114353
  1
141 WILSON AVENUE
 72
     1
 11
41.56451041904174
 21
-0.4793408800219582
 31
0.0
100
AcDbText
 73
     2
  0
TEXT
  5
2E8
330
1F
100
AcDbEntity
  8
TEXT
100
AcDbText
 10
40.3327816942312
 20
-0.7978914123004676
 30
0.0
 40
0.1274202129114353
  1
GREENSBURG, PA  15601
 72
     1
 11
41.56451041904174
 21
-0.73418130584475
 31
0.0
100
AcDbText
 73
     2
  0
TEXT
  5
2E9
330
1F
100
AcDbEntity
  8
TEXT
100
AcDbText
 10
39.64258887429426
 20
-1.052731838123412
 30
0.0
 40
0.1274202129114353
  1
724-837-2204  *  1-888-867-8234
 72
     1
 11
41.56451041904174
 21
-0.9890217316676944
 31
0.0
100
AcDbText
 73
     2
  0
TEXT
  5
2EA
330
1F
100
AcDbEntity
  8
TEXT
100
AcDbText
 10
37.89027515332707
 20
-2.218626786263044
 30
0.0
 40
0.5096808516457411
  1
IQ1800HE-CF
 72
     1
 11
40.35373260294814
 21
-1.963786360440174
 31
0.0
100
AcDbText
 73
     2
  0
TEXT
  5
2EB
330
1F
100
AcDbEntity
  8
TEXT
100
AcDbText
 10
37.87146404025902
 20
-3.254507122961555
 30
0.0
 40
0.5096808516457411
  1
IQ291228
 72
     1
 11
39.65534702101911
 21
-2.999666697138684
 31
0.0
100
AcDbText
 73
     2
  0
TEXT
  5
2EC
330
1F
100
AcDbEntity
  8
TEXT
100
AcDbText
 10
42.86915858340956
 20
-3.254507122961555
 30
0.0
 40
0.5096808516457411
  1
1
 72
     1
 11
42.95410539201718
 21
-2.999666697138684
 31
0.0
100
AcDbText
 73
     2
  0
LINE
  5
2ED
330
1F
100
AcDbEntity
  8
BORDER
100
AcDbLine
 10
28.36000251312218
 20
-1.861850190110956
 30
0.0
 11
28.36000251312218
 21
-3.436672033153627
 31
0.0
  0
TEXT
  5
2EE
330
1F
100
AcDbEntity
  8
TEXT
100
AcDbText
 10
9.224389810528373
 20
-3.334735862824481
 30
0.0
 40
0.2038723406582964
  1
REVISIONS
 72
     1
 11
10.07385789660461
 21
-3.232799692495333
 31
0.0
100
AcDbText
 73
     2
  0
LINE
  5
2EF
330
1F
100
AcDbEntity
  8
BORDER
100
AcDbLine
 10
18.16647116988219
 20
-3.436672033153627
 30
0.0
 11
4.918436082207771
 21
-3.436672033153627
 31
0.0
  0
LINE
  5
2F0
330
1F
100
AcDbEntity
  8
BORDER
100
AcDbLine
 10
18.16647116988219
 20
-1.805693307887113
 30
0.0
 11
18.16647116988219
 21
-3.436672033153627
 31
0.0
  0
LINE
  5
2F1
330
1F
100
AcDbEntity
  8
BORDER
100
AcDbLine
 10
4.918436082207771
 20
-3.02892735183703
 30
0.0
 11
18.16647116988219
 21
-3.02892735183703
 31
0.0
  0
LINE
  5
2F2
330
1F
100
AcDbEntity
  8
BORDER
100
AcDbLine
 10
14.33733822062115
 20
-3.02892735183703
 30
0.0
 11
14.33733822062115
 21
-2.621182670520436
 31
0.0
  0
TEXT
  5
2F3
330
1F
100
AcDbEntity
  8
TEXT
100
AcDbText
 10
14.86061056164412
 20
-2.926991181507884
 30
0.0
 40
0.2038723406582964
  1
DATE
 72
     1
 11
15.23437651951767
 21
-2.825055011178736
 31
0.0
100
AcDbText
 73
     2
  0
LINE
  5
2F4
330
1F
100
AcDbEntity
  8
BORDER
100
AcDbLine
 10
16.13141481841407
 20
-3.02892735183703
 30
0.0
 11
16.13141481841407
 21
-2.621182670520436
 31
0.0
  0
TEXT
  5
2F5
330
1F
100
AcDbEntity
  8
TEXT
100
AcDbText
 10
16.46936852528713
 20
-2.926991181507884
 30
0.0
 40
0.2038723406582964
  1
CHECKED
 72
     1
 11
17.14894299414812
 21
-2.825055011178736
 31
0.0
100
AcDbText
 73
     2
  0
TEXT
  5
2F6
330
1F
100
AcDbEntity
  8
TEXT
100
AcDbText
 10
9.054496193313127
 20
-2.926991181507884
 30
0.0
 40
0.2038723406582964
  1
DESCRIPTION
 72
     1
 11
10.07385789660461
 21
-2.825055011178736
 31
0.0
100
AcDbText
 73
     2
  0
LINE
  5
2F7
330
1F
100
AcDbEntity
  8
BORDER
100
AcDbLine
 10
5.810377572587918
 20
-3.02892735183703
 30
0.0
 11
5.810377572587918
 21
-2.621182670520436
 31
0.0
  0
TEXT
  5
2F8
330
1F
100
AcDbEntity
  8
TEXT
100
AcDbText
 10
5.058598316410352
 20
-2.926991181507884
 30
0.0
 40
0.2038723406582964
  1
REV
 72
     1
 11
5.364406827397797
 21
-2.825055011178736
 31
0.0
100
AcDbText
 73
     2
  0
LINE
  5
2F9
330
1F
100
AcDbEntity
  8
BORDER
100
AcDbLine
 10
18.16647116988219
 20
-2.621182670520436
 30
0.0
 11
4.918436082207771
 21
-2.621182670520436
 31
0.0
  0
LINE
  5
2FA
330
1F
100
AcDbEntity
  8
BORDER
100
AcDbLine
 10
18.16647116988219
 20
-3.02892735183703
 30
0.0
 11
4.918436082207771
 21
-3.02892735183703
 31
0.0
  0
LINE
  5
2FB
330
1F
100
AcDbEntity
  8
BORDER
100
AcDbLine
 10
14.33733822062115
 20
-2.621182670520436
 30
0.0
 11
14.33733822062115
 21
-1.805693307887113
 31
0.0
  0
TEXT
  5
2FC
330
1F
100
AcDbEntity
  8
TEXT
100
AcDbText
 10
14.53781268893515
 20
-2.519246500191291
 30
0.0
 40
0.2038723406582964
  1
12-31-09
 72
     1
 11
15.23437651951767
 21
-2.417310329862143
 31
0.0
100
AcDbText
 73
     2
  0
LINE
  5
2FD
330
1F
100
AcDbEntity
  8
BORDER
100
AcDbLine
 10
16.13141481841407
 20
-2.621182670520436
 30
0.0
 11
16.13141481841407
 21
-1.805693307887113
 31
0.0
  0
TEXT
  5
2FE
330
1F
100
AcDbEntity
  8
TEXT
100
AcDbText
 10
16.87711320660372
 20
-2.519246500191291
 30
0.0
 40
0.2038723406582964
  1
JMH
 72
     1
 11
17.14894299414812
 21
-2.417310329862143
 31
0.0
100
AcDbText
 73
     2
  0
TEXT
  5
2FF
330
1F
100
AcDbEntity
  8
TEXT
100
AcDbText
 10
8.680730235439584
 20
-2.519246500191291
 30
0.0
 40
0.2038723406582964
  1
INITIAL RELEASE
 72
     1
 11
10.07385789660461
 21
-2.417310329862143
 31
0.0
100
AcDbText
 73
     2
  0
LINE
  5
300
330
1F
100
AcDbEntity
  8
BORDER
100
AcDbLine
 10
5.810377572587918
 20
-2.621182670520436
 30
0.0
 11
5.810377572587919
 21
-1.805693307887113
 31
0.0
  0
TEXT
  5
301
330
1F
100
AcDbEntity
  8
TEXT
100
AcDbText
 10
5.313438742233222
 20
-2.519246500191291
 30
0.0
 40
0.2038723406582964
  1
0
 72
     1
 11
5.364406827397797
 21
-2.417310329862143
 31
0.0
100
AcDbText
 73
     2
  0
LINE
  5
302
330
1F
100
AcDbEntity
  8
BORDER
100
AcDbLine
 10
18.16647116988219
 20
-2.213437989203774
 30
0.0
 11
4.918436082207771
 21
-2.213437989203774
 31
0.0
  0
LINE
  5
303
330
1F
100
AcDbEntity
  8
BORDER
100
AcDbLine
 10
4.918436082207771
 20
-3.436672033153627
 30
0.0
 11
4.918436082207771
 21
-0.990203945253924
 31
0.0
  0
DIMENSION
  5
403
102
{ACAD_XDICTIONARY
360
404
102
}
102
{ACAD_REACTORS
330
405
102
}
330
1F
100
AcDbEntity
  8
0
100
AcDbDimension
  2
*D31
 10
21.49939616205672
 20
32.17720554854118
 30
0.0
 11
33.00575657301381
 21
35.80063748512837
 31
0.0
 70
   163
 71
     5
 42
5.999999999999996
  3
Standard
100
AcDbDiametricDimension
 15
27.07611698397102
 25
34.39084166914175
 35
0.0
 40
0.0
1001
ACAD
1000
DSTYLE
1002
{
1070
    41
1040
0.7040000000000001
1070
    42
1040
0.25
1070
   140
1040
0.7040000000000001
1070
   271
1070
     3
1002
}
  0
CIRCLE
  5
406
102
{ACAD_REACTORS
330
405
102
}
330
1F
100
AcDbEntity
  8
0
100
AcDbCircle
 10
24.28775657301387
 20
33.28402360884147
 30
0.0
 40
3.0
  0
DIMENSION
  5
40A
102
{ACAD_XDICTIONARY
360
40B
102
}
102
{ACAD_REACTORS
330
40C
102
}
330
1F
100
AcDbEntity
  8
0
100
AcDbDimension
  2
*D33
 10
28.08810470393718
 20
28.72847804321273
 30
0.0
 11
33.00575657301382
 21
32.22077721753735
 31
0.0
 70
   163
 71
     5
 42
1.25
  3
Standard
100
AcDbDiametricDimension
 15
28.82328106545902
 25
29.73942597335529
 35
0.0
 40
0.0
1001
ACAD
1000
DSTYLE
1002
{
1070
    41
1040
0.7040000000000001
1070
    42
1040
0.25
1070
   140
1040
0.7040000000000001
1070
   271
1070
     3
1002
}
  0
DIMENSION
  5
40D
102
{ACAD_XDICTIONARY
360
40E
102
}
102
{ACAD_REACTORS
330
40F
102
}
330
1F
100
AcDbEntity
  8
0
100
AcDbDimension
  2
*D34
 10
18.94775657301383
 20
3.519430651880725
 30
0.0
 11
26.7333532830936
 21
11.93042802795329
 31
0.0
 70
   102
 71
     5
 42
10.18
  3
Standard
100
AcDbOrdinateDimension
 13
29.12775657301384
 23
15.55122943595137
 33
0.0
 14
26.73335328309361
 24
13.42842802795329
 34
0.0
1001
ACAD
1000
DSTYLE
1002
{
1070
    42
1040
0.25
1070
   140
1040
0.7040000000000001
1070
   271
1070
     3
1002
}
  0
DIMENSION
  5
410
330
1F
100
AcDbEntity
  8
0
100
AcDbDimension
  2
*D22
 10
18.94775657301383
 20
3.519430651880725
 30
0.0
 11
21.84215986293406
 21
12.10642802795329
 31
0.0
 70
   102
 71
     5
 42
0.4999999999999396
  3
Standard
100
AcDbOrdinateDimension
 13
19.44775657301377
 23
15.5512294359514
 33
0.0
 14
21.84215986293407
 24
13.42842802795329
 34
0.0
1001
ACAD
1000
DSTYLE
1002
{
1070
    42
1040
0.25
1070
   140
1040
0.7040000000000001
1070
   271
1070
     3
1002
}
  0
DIMENSION
  5
411
330
1F
100
AcDbEntity
  8
0
100
AcDbDimension
  2
*D23
 10
18.94775657301383
 20
3.519430651880725
 30
0.0
 11
28.45569288469809
 21
25.99985757276986
 31
0.0
 70
   102
 71
     5
 42
9.507936311684265
  3
Standard
100
AcDbOrdinateDimension
 13
28.4556928846981
 23
29.23395200828401
 33
0.0
 14
28.4556928846981
 24
27.43919090610319
 34
0.0
1001
ACAD
1000
DSTYLE
1002
{
1070
    42
1040
0.25
1070
   140
1040
0.7040000000000001
1070
   271
1070
     3
1002
}
  0
DIMENSION
  5
412
330
1F
100
AcDbEntity
  8
0
100
AcDbDimension
  2
*D24
 10
18.94775657301383
 20
3.519430651880725
 30
0.0
 11
32.30175657301379
 21
38.69943065188071
 31
0.0
 70
    38
 71
     5
 42
35.17999999999998
  3
Standard
100
AcDbOrdinateDimension
 13
29.62775657301378
 23
38.69943065188071
 33
0.0
 14
30.62775657301378
 24
38.69943065188071
 34
0.0
1001
ACAD
1000
DSTYLE
1002
{
1070
    42
1040
0.25
1070
   140
1040
0.7040000000000001
1070
   271
1070
     3
1002
}
  0
DIMENSION
  5
413
102
{ACAD_XDICTIONARY
360
414
102
}
102
{ACAD_REACTORS
330
415
102
}
330
1F
100
AcDbEntity
  8
0
100
AcDbDimension
  2
*D35
 10
18.94775657301383
 20
3.519430651880725
 30
0.0
 11
29.62775657301378
 21
41.31476398521403
 31
0.0
 70
   102
 71
     5
 42
10.67999999999994
  3
Standard
100
AcDbOrdinateDimension
 13
29.62775657301378
 23
38.69943065188071
 33
0.0
 14
29.62775657301378
 24
39.69943065188071
 34
0.0
1001
ACAD
1000
DSTYLE
1002
{
1070
    42
1040
0.25
1070
   140
1040
0.7040000000000001
1070
   271
1070
     3
1002
}
  0
DIMENSION
  5
416
102
{ACAD_XDICTIONARY
360
417
102
}
102
{ACAD_REACTORS
330
418
102
}
330
1F
100
AcDbEntity
  8
0
100
AcDbDimension
  2
*D36
 10
18.94775657301383
 20
3.519430651880725
 30
0.0
 11
32.36042323968046
 21
37.60943065188067
 31
0.0
 70
    38
 71
     5
 42
34.08999999999995
  3
Standard
100
AcDbOrdinateDimension
 13
28.03775657301381
 23
37.60943065188067
 33
0.0
 14
30.62775657301379
 24
37.60943065188067
 34
0.0
1001
ACAD
1000
DSTYLE
1002
{
1070
    42
1040
0.25
1070
   140
1040
0.7040000000000001
1070
   271
1070
     3
1002
}
  0
DIMENSION
  5
419
330
1F
100
AcDbEntity
  8
0
100
AcDbDimension
  2
*D25
 10
18.94775657301383
 20
3.519430651880725
 30
0.0
 11
24.28775657301377
 21
41.13876398521401
 31
0.0
 70
   102
 71
     5
 42
5.339999999999966
  3
Standard
100
AcDbOrdinateDimension
 13
24.28775657301381
 23
33.28402360884147
 33
0.0
 14
24.28775657301379
 24
39.69943065188067
 34
0.0
1001
ACAD
1000
DSTYLE
1002
{
1070
    42
1040
0.25
1070
   140
1040
0.7040000000000001
1070
   271
1070
     3
1002
}
  0
DIMENSION
  5
41A
330
1F
100
AcDbEntity
  8
0
100
AcDbDimension
  2
*D26
 10
18.94775657301383
 20
3.519430651880725
 30
0.0
 11
16.09775657301381
 21
33.28402360884151
 31
0.0
 70
    38
 71
     5
 42
29.76459295696074
  3
Standard
100
AcDbOrdinateDimension
 13
24.28775657301387
 23
33.28402360884147
 33
0.0
 14
17.94775657301381
 24
33.28402360884151
 34
0.0
1001
ACAD
1000
DSTYLE
1002
{
1070
    42
1040
0.25
1070
   140
1040
0.7040000000000001
1070
   271
1070
     3
1002
}
  0
DIMENSION
  5
41B
102
{ACAD_XDICTIONARY
360
41C
102
}
102
{ACAD_REACTORS
330
41D
102
}
330
1F
100
AcDbEntity
  8
0
100
AcDbDimension
  2
*D37
 10
18.94775657301383
 20
3.519430651880725
 30
0.0
 11
32.36042323968048
 21
29.23395200828401
 31
0.0
 70
    38
 71
     5
 42
25.71452135640328
  3
Standard
100
AcDbOrdinateDimension
 13
28.4556928846981
 23
29.23395200828401
 33
0.0
 14
30.62775657301382
 24
29.23395200828401
 34
0.0
1001
ACAD
1000
DSTYLE
1002
{
1070
    42
1040
0.25
1070
   140
1040
0.7040000000000001
1070
   271
1070
     3
1002
}
  0
DIMENSION
  5
421
102
{ACAD_XDICTIONARY
360
422
102
}
102
{ACAD_REACTORS
330
423
102
}
330
1F
100
AcDbEntity
  8
0
100
AcDbDimension
  2
*D39
 10
18.94775657301383
 20
3.519430651880725
 30
0.0
 11
16.33242323968044
 21
18.65747943595167
 31
0.0
 70
    38
 71
     5
 42
15.13804878407094
  3
Standard
100
AcDbOrdinateDimension
 13
19.44775657301377
 23
18.65747943595167
 33
0.0
 14
17.94775657301377
 24
18.65747943595167
 34
0.0
1001
ACAD
1000
DSTYLE
1002
{
1070
    42
1040
0.25
1070
   140
1040
0.7040000000000001
1070
   271
1070
     3
1002
}
  0
DIMENSION
  5
424
102
{ACAD_XDICTIONARY
360
425
102
}
102
{ACAD_REACTORS
330
426
102
}
330
1F
100
AcDbEntity
  8
0
100
AcDbDimension
  2
*D40
 10
18.94775657301383
 20
3.519430651880725
 30
0.0
 11
16.27375657301376
 21
15.5512294359514
 31
0.0
 70
    38
 71
     5
 42
12.03179878407067
  3
Standard
100
AcDbOrdinateDimension
 13
19.44775657301377
 23
15.5512294359514
 33
0.0
 14
17.94775657301376
 24
15.5512294359514
 34
0.0
1001
ACAD
1000
DSTYLE
1002
{
1070
    42
1040
0.25
1070
   140
1040
0.7040000000000001
1070
   271
1070
     3
1002
}
  0
DIMENSION
  5
427
330
1F
100
AcDbEntity
  8
0
100
AcDbDimension
  2
*D27
 10
18.94775657301383
 20
3.519430651880725
 30
0.0
 11
32.06708990634722
 21
13.10943065188074
 31
0.0
 70
    38
 71
     5
 42
9.589999999999974
  3
Standard
100
AcDbOrdinateDimension
 13
28.03775657301381
 23
13.1094306518807
 33
0.0
 14
30.62775657301387
 24
13.10943065188074
 34
0.0
1001
ACAD
1000
DSTYLE
1002
{
1070
    42
1040
0.25
1070
   140
1040
0.7040000000000001
1070
   271
1070
     3
1002
}
  0
DIMENSION
  5
428
102
{ACAD_XDICTIONARY
360
429
102
}
102
{ACAD_REACTORS
330
42A
102
}
330
1F
100
AcDbEntity
  8
0
100
AcDbDimension
  2
*D41
 10
18.94775657301383
 20
3.519430651880725
 30
0.0
 11
28.03775657301381
 21
1.138763985214112
 31
0.0
 70
   102
 71
     5
 42
9.089999999999974
  3
Standard
100
AcDbOrdinateDimension
 13
28.03775657301381
 23
6.10943065188067
 33
0.0
 14
28.03775657301381
 24
2.519430651880774
 34
0.0
1001
ACAD
1000
DSTYLE
1002
{
1070
    42
1040
0.25
1070
   140
1040
0.7040000000000001
1070
   271
1070
     3
1002
}
  0
DIMENSION
  5
42B
330
1F
100
AcDbEntity
  8
0
100
AcDbDimension
  2
*D28
 10
18.94775657301383
 20
3.519430651880725
 30
0.0
 11
20.53775657301387
 21
1.197430651880735
 31
0.0
 70
   102
 71
     5
 42
1.59000000000003
  3
Standard
100
AcDbOrdinateDimension
 13
20.53775657301387
 23
6.10943065188067
 33
0.0
 14
20.53775657301387
 24
2.519430651880731
 34
0.0
1001
ACAD
1000
DSTYLE
1002
{
1070
    42
1040
0.25
1070
   140
1040
0.7040000000000001
1070
   271
1070
     3
1002
}
  0
DIMENSION
  5
42C
330
1F
100
AcDbEntity
  8
0
100
AcDbDimension
  2
*D29
 10
18.94775657301383
 20
3.519430651880725
 30
0.0
 11
32.06708990634722
 21
6.109430651880713
 31
0.0
 70
    38
 71
     5
 42
2.589999999999945
  3
Standard
100
AcDbOrdinateDimension
 13
28.03775657301381
 23
6.10943065188067
 33
0.0
 14
30.6277565730139
 24
6.109430651880713
 34
0.0
1001
ACAD
1000
DSTYLE
1002
{
1070
    42
1040
0.25
1070
   140
1040
0.7040000000000001
1070
   271
1070
     3
1002
}
  0
DIMENSION
  5
42D
330
1F
100
AcDbEntity
  8
0
100
AcDbDimension
  2
*D30
 10
18.94775657301383
 20
3.519430651880725
 30
0.0
 11
18.94775657301383
 21
1.256097318547394
 31
0.0
 70
   102
 71
     5
 42
0.0
  3
Standard
100
AcDbOrdinateDimension
 13
18.94775657301383
 23
3.519430651880725
 33
0.0
 14
18.94775657301383
 24
2.519430651880725
 34
0.0
1001
ACAD
1000
DSTYLE
1002
{
1070
    42
1040
0.25
1070
   140
1040
0.7040000000000001
1070
   271
1070
     3
1002
}
  0
DIMENSION
  5
42E
102
{ACAD_XDICTIONARY
360
42F
102
}
102
{ACAD_REACTORS
330
430
102
}
330
1F
100
AcDbEntity
  8
0
100
AcDbDimension
  2
*D42
 10
18.94775657301383
 20
3.519430651880725
 30
0.0
 11
16.68442323968038
 21
3.519430651880725
 31
0.0
 70
    38
 71
     5
 42
0.0
  3
Standard
100
AcDbOrdinateDimension
 13
18.94775657301371
 23
3.519430651880725
 33
0.0
 14
17.94775657301372
 24
3.519430651880725
 34
0.0
1001
ACAD
1000
DSTYLE
1002
{
1070
    42
1040
0.25
1070
   140
1040
0.7040000000000001
1070
   271
1070
     3
1002
}
  0
CIRCLE
  5
431
330
1F
100
AcDbEntity
  8
0
100
AcDbCircle
 10
20.53775657301387
 20
37.60943065188067
 30
0.0
 40
0.1875
  0
CIRCLE
  5
432
102
{ACAD_REACTORS
330
418
102
}
330
1F
100
AcDbEntity
  8
0
100
AcDbCircle
 10
28.03775657301381
 20
37.60943065188067
 30
0.0
 40
0.1875
  0
CIRCLE
  5
435
330
1F
100
AcDbEntity
  8
0
100
AcDbCircle
 10
28.03775657301381
 20
13.1094306518807
 30
0.0
 40
0.1875
  0
CIRCLE
  5
436
330
1F
100
AcDbEntity
  8
0
100
AcDbCircle
 10
20.53775657301387
 20
13.1094306518807
 30
0.0
 40
0.1875
  0
CIRCLE
  5
437
102
{ACAD_REACTORS
330
42A
102
}
330
1F
100
AcDbEntity
  8
0
100
AcDbCircle
 10
28.03775657301381
 20
6.10943065188067
 30
0.0
 40
0.1875
  0
CIRCLE
  5
438
330
1F
100
AcDbEntity
  8
0
100
AcDbCircle
 10
20.53775657301387
 20
6.10943065188067
 30
0.0
 40
0.1875
  0
CIRCLE
  5
439
102
{ACAD_REACTORS
330
41D
330
40C
102
}
330
1F
100
AcDbEntity
  8
0
100
AcDbCircle
 10
28.4556928846981
 20
29.23395200828401
 30
0.0
 40
0.625
  0
LINE
  5
43A
102
{ACAD_REACTORS
330
426
330
423
102
}
330
1F
100
AcDbEntity
  8
0
100
AcDbLine
 10
19.44775657301377
 20
18.65747943595167
 30
0.0
 11
19.44775657301377
 21
15.5512294359514
 31
0.0
  0
LINE
  5
43B
330
1F
100
AcDbEntity
  8
0
100
AcDbLine
 10
19.44775657301377
 20
18.65747943595167
 30
0.0
 11
29.12775657301384
 21
18.65747943595167
 31
0.0
  0
LINE
  5
43C
102
{ACAD_REACTORS
330
40F
102
}
330
1F
100
AcDbEntity
  8
0
100
AcDbLine
 10
19.44775657301377
 20
15.55122943595137
 30
0.0
 11
29.12775657301384
 21
15.55122943595137
 31
0.0
  0
LINE
  5
43D
330
1F
100
AcDbEntity
  8
0
100
AcDbLine
 10
29.12775657301384
 20
15.5512294359514
 30
0.0
 11
29.12775657301384
 21
18.65747943595167
 31
0.0
  0
LINE
  5
43E
102
{ACAD_REACTORS
330
415
102
}
330
1F
100
AcDbEntity
  8
0
  6
HIDDEN
100
AcDbLine
 10
29.62775657301378
 20
38.69943065188071
 30
0.0
 11
18.94775657301383
 21
38.69943065188066
 31
0.0
  0
LINE
  5
43F
102
{ACAD_REACTORS
330
430
102
}
330
1F
100
AcDbEntity
  8
0
  6
HIDDEN
100
AcDbLine
 10
18.94775657301371
 20
3.519430651880753
 30
0.0
 11
18.94775657301383
 21
38.69943065188071
 31
0.0
  0
LINE
  5
440
330
1F
100
AcDbEntity
  8
0
  6
HIDDEN
100
AcDbLine
 10
29.6277565730139
 20
3.519430651880781
 30
0.0
 11
29.62775657301378
 21
38.69943065188071
 31
0.0
  0
LINE
  5
441
102
{ACAD_REACTORS
330
430
102
}
330
1F
100
AcDbEntity
  8
0
  6
HIDDEN
100
AcDbLine
 10
29.62775657301378
 20
3.519430651880781
 30
0.0
 11
18.94775657301383
 21
3.519430651880725
 31
0.0
  0
TEXT
  5
442
330
1F
100
AcDbEntity
  8
TEXT
100
AcDbText
 10
20.88942785743865
 20
45.27628246026774
 30
0.0
 40
0.7031024928776187
  1
IQ1800HE-CF
 72
     1
 11
24.28775657301381
 21
45.27628246026774
 31
0.0
100
AcDbText
  0
TEXT
  5
443
330
1F
100
AcDbEntity
  8
TEXT
100
AcDbText
 10
19.1316716252446
 20
44.02439878403625
 30
0.0
 40
0.7031024928776187
  1
CUT OUT DRAWING
 72
     1
 11
24.28775657301381
 21
44.02439878403625
 31
0.0
100
AcDbText
  0
DIMENSION
  5
652
330
1F
100
AcDbEntity
  8
0
100
AcDbDimension
  2
*D75
 10
20.65955303912911
 20
28.38007608237092
 30
0.0
 11
14.27908990634716
 21
25.20609564053058
 31
0.0
 70
   163
  1
<> (8)
 71
     5
 42
0.3750000000000071
  3
Standard
100
AcDbDiametricDimension
 15
20.41596010689882
 25
28.09496648350155
 35
0.0
 40
0.0
1001
ACAD
1000
DSTYLE
1002
{
1070
    41
1040
0.7040000000000001
1070
    42
1040
0.25
1070
   140
1040
0.7040000000000001
1070
   271
1070
     3
1002
}
  0
DIMENSION
  5
669
102
{ACAD_XDICTIONARY
360
66A
102
}
102
{ACAD_REACTORS
330
66B
102
}
330
1F
100
AcDbEntity
  8
0
100
AcDbDimension
  2
*D81
 10
18.94775657301383
 20
3.519430651880725
 30
0.0
 11
32.3604232396805
 21
28.23752128293629
 31
0.0
 70
    38
 71
     5
 42
24.71809063105551
  3
Standard
100
AcDbOrdinateDimension
 13
28.03775657301396
 23
28.23752128293623
 33
0.0
 14
30.62775657301382
 24
28.23752128293629
 34
0.0
1001
ACAD
1000
DSTYLE
1002
{
1070
    42
1040
0.25
1070
   140
1040
0.7040000000000001
1070
   271
1070
     3
1002
}
  0
CIRCLE
  5
67E
102
{ACAD_REACTORS
330
66B
102
}
330
1F
100
AcDbEntity
  8
0
100
AcDbCircle
 10
28.03775657301396
 20
28.23752128293623
 30
0.0
 40
0.1875
  0
CIRCLE
  5
67F
330
1F
100
AcDbEntity
  8
0
100
AcDbCircle
 10
20.53775657301396
 20
28.23752128293623
 30
0.0
 40
0.1875
  0
LINE
  5
7D6
330
1F
100
AcDbEntity
  8
BORDER
100
AcDbLine
 10
18.16647116988219
 20
-1.805693307887113
 30
0.0
 11
4.918436082207772
 21
-1.805693307887113
 31
0.0
  0
TEXT
  5
7D7
330
1F
100
AcDbEntity
  8
TEXT
100
AcDbText
 10
5.330428103954747
 20
-2.111501818874629
 30
0.0
 40
0.2038723406582964
  1
1
 72
     1
 11
5.364406827397797
 21
-2.009565648545481
 31
0.0
100
AcDbText
 73
     2
  0
TEXT
  5
7D8
330
1F
100
AcDbEntity
  8
TEXT
100
AcDbText
 10
7.491474914932855
 20
-2.111501818874629
 30
0.0
 40
0.2038723406582964
  1
 RELOCATED (2) %%C.375 HOLES
 72
     1
 11
10.07385789660461
 21
-2.009565648545481
 31
0.0
100
AcDbText
 73
     2
  0
TEXT
  5
7D9
330
1F
100
AcDbEntity
  8
TEXT
100
AcDbText
 10
16.87711320660372
 20
-2.111501818874629
 30
0.0
 40
0.2038723406582964
  1
JMH
 72
     1
 11
17.14894299414812
 21
-2.009565648545481
 31
0.0
100
AcDbText
 73
     2
  0
TEXT
  5
7DA
330
1F
100
AcDbEntity
  8
TEXT
100
AcDbText
 10
14.65673822098583
 20
-2.111501818874629
 30
0.0
 40
0.2038723406582964
  1
4-19-11
 72
     1
 11
15.23437651951767
 21
-2.009565648545481
 31
0.0
100
AcDbText
 73
     2
  0
ENDSEC
  0
SECTION
  2
OBJECTS
  0
DICTIONARY
  5
C
330
0
100
AcDbDictionary
281
     1
  3
ACAD_COLOR
350
73
  3
ACAD_GROUP
350
D
  3
ACAD_LAYOUT
350
1A
  3
ACAD_MATERIAL
350
72
  3
ACAD_MLINESTYLE
350
17
  3
ACAD_PLOTSETTINGS
350
19
  3
ACAD_PLOTSTYLENAME
350
E
  3
ACDBHEADERROUNDTRIPXREC
350
7DC
  3
AcDbVariableDictionary
350
66
  0
DICTIONARY
  5
8C
330
2
100
AcDbDictionary
280
     1
281
     1
  3
ACAD_LAYERFILTERS
360
544
  3
ACAD_LAYERSTATES
360
8D
  0
DICTIONARY
  5
404
330
403
100
AcDbDictionary
280
     1
281
     1
  3
ACAD_DIMASSOC
360
405
  0
DICTIONARY
  5
40B
330
40A
100
AcDbDictionary
280
     1
281
     1
  3
ACAD_DIMASSOC
360
40C
  0
DICTIONARY
  5
40E
330
40D
100
AcDbDictionary
280
     1
281
     1
  3
ACAD_DIMASSOC
360
40F
  0
DICTIONARY
  5
414
330
413
100
AcDbDictionary
280
     1
281
     1
  3
ACAD_DIMASSOC
360
415
  0
DICTIONARY
  5
417
330
416
100
AcDbDictionary
280
     1
281
     1
  3
ACAD_DIMASSOC
360
418
  0
DICTIONARY
  5
41C
330
41B
100
AcDbDictionary
280
     1
281
     1
  3
ACAD_DIMASSOC
360
41D
  0
DICTIONARY
  5
422
330
421
100
AcDbDictionary
280
     1
281
     1
  3
ACAD_DIMASSOC
360
423
  0
DICTIONARY
  5
425
330
424
100
AcDbDictionary
280
     1
281
     1
  3
ACAD_DIMASSOC
360
426
  0
DICTIONARY
  5
429
330
428
100
AcDbDictionary
280
     1
281
     1
  3
ACAD_DIMASSOC
360
42A
  0
DICTIONARY
  5
42F
330
42E
100
AcDbDictionary
280
     1
281
     1
  3
ACAD_DIMASSOC
360
430
  0
DICTIONARY
  5
66A
330
669
100
AcDbDictionary
280
     1
281
     1
  3
ACAD_DIMASSOC
360
66B
  0
DICTIONARY
  5
73
102
{ACAD_REACTORS
330
C
102
}
330
C
100
AcDbDictionary
281
     1
  0
DICTIONARY
  5
D
102
{ACAD_REACTORS
330
C
102
}
330
C
100
AcDbDictionary
281
     1
  0
DICTIONARY
  5
1A
102
{ACAD_REACTORS
330
C
102
}
330
C
100
AcDbDictionary
281
     1
  3
Layout1
350
59
  3
Layout2
350
5E
  3
Model
350
22
  0
DICTIONARY
  5
72
102
{ACAD_REACTORS
330
C
102
}
330
C
100
AcDbDictionary
281
     1
  0
DICTIONARY
  5
17
102
{ACAD_REACTORS
330
C
102
}
330
C
100
AcDbDictionary
281
     1
  3
Standard
350
18
  0
DICTIONARY
  5
19
102
{ACAD_REACTORS
330
C
102
}
330
C
100
AcDbDictionary
281
     1
  0
ACDBDICTIONARYWDFLT
  5
E
102
{ACAD_REACTORS
330
C
102
}
330
C
100
AcDbDictionary
281
     1
  3
Normal
350
F
100
AcDbDictionaryWithDefault
340
F
  0
DICTIONARY
  5
7DC
102
{ACAD_REACTORS
330
C
102
}
330
C
100
AcDbDictionary
281
     1
  3
COLORDICT
350
7DE
  3
MATERIALDICT
350
7DD
  0
DICTIONARY
  5
66
102
{ACAD_REACTORS
330
C
102
}
330
C
100
AcDbDictionary
281
     1
  3
DIMASSOC
350
67
  3
HIDETEXT
350
6B
  3
PROJECTNAME
350
545
  0
DICTIONARY
  5
544
102
{ACAD_REACTORS
330
8C
102
}
330
8C
100
AcDbDictionary
281
     1
  0
DICTIONARY
  5
8D
102
{ACAD_REACTORS
330
8C
102
}
330
8C
100
AcDbDictionary
281
     1
  0
DIMASSOC
  5
405
102
{ACAD_REACTORS
330
404
102
}
330
404
100
AcDbDimAssoc
330
403
 90
        2
 70
     0
 71
     0
  1
AcDbOsnapPointRef
 72
     3
331
406
 73
     2
 91
        0
 40
0.0
 10
0.0
 20
0.0
 30
0.0
 75
     0
  0
DIMASSOC
  5
40C
102
{ACAD_REACTORS
330
40B
102
}
330
40B
100
AcDbDimAssoc
330
40A
 90
        2
 70
     0
 71
     0
  1
AcDbOsnapPointRef
 72
     3
331
439
 73
     2
 91
        0
 40
0.0
 10
0.0
 20
0.0
 30
0.0
 75
     0
  0
DIMASSOC
  5
40F
102
{ACAD_REACTORS
330
40E
102
}
330
40E
100
AcDbDimAssoc
330
40D
 90
        2
 70
     0
 71
     0
  1
AcDbOsnapPointRef
 72
     1
331
43C
 73
     2
 91
        0
 40
1.0
 10
0.0
 20
0.0
 30
2.000000000000000E+50
 75
     0
  0
DIMASSOC
  5
415
102
{ACAD_REACTORS
330
414
102
}
330
414
100
AcDbDimAssoc
330
413
 90
        2
 70
     0
 71
     0
  1
AcDbOsnapPointRef
 72
    13
331
43E
 73
     2
 91
        0
 40
0.0
 10
0.0
 20
0.0
 30
2.000000000000000E+50
 75
     0
  0
DIMASSOC
  5
418
102
{ACAD_REACTORS
330
417
102
}
330
417
100
AcDbDimAssoc
330
416
 90
        2
 70
     0
 71
     0
  1
AcDbOsnapPointRef
 72
     3
331
432
 73
     2
 91
        0
 40
0.0
 10
0.0
 20
0.0
 30
0.0
 75
     0
  0
DIMASSOC
  5
41D
102
{ACAD_REACTORS
330
41C
102
}
330
41C
100
AcDbDimAssoc
330
41B
 90
        2
 70
     0
 71
     0
  1
AcDbOsnapPointRef
 72
     3
331
439
 73
     2
 91
        0
 40
0.0
 10
0.0
 20
0.0
 30
0.0
 75
     0
  0
DIMASSOC
  5
423
102
{ACAD_REACTORS
330
422
102
}
330
422
100
AcDbDimAssoc
330
421
 90
        2
 70
     0
 71
     0
  1
AcDbOsnapPointRef
 72
    13
331
43A
 73
     2
 91
        0
 40
0.0
 10
0.0
 20
0.0
 30
2.000000000000000E+50
 75
     0
  0
DIMASSOC
  5
426
102
{ACAD_REACTORS
330
425
102
}
330
425
100
AcDbDimAssoc
330
424
 90
        2
 70
     0
 71
     0
  1
AcDbOsnapPointRef
 72
     1
331
43A
 73
     2
 91
        0
 40
1.0
 10
0.0
 20
0.0
 30
2.000000000000000E+50
 75
     0
  0
DIMASSOC
  5
42A
102
{ACAD_REACTORS
330
429
102
}
330
429
100
AcDbDimAssoc
330
428
 90
        2
 70
     0
 71
     0
  1
AcDbOsnapPointRef
 72
     3
331
437
 73
     2
 91
        0
 40
0.0
 10
0.0
 20
0.0
 30
0.0
 75
     0
  0
DIMASSOC
  5
430
102
{ACAD_REACTORS
330
42F
102
}
330
42F
100
AcDbDimAssoc
330
42E
 90
        2
 70
     0
 71
     0
  1
AcDbOsnapPointRef
 72
    11
331
43F
 73
     2
 91
        0
 40
-0.0000000000000008
 10
0.0
 20
0.0
 30
0.0
332
441
 74
     2
 92
        0
 75
     0
  0
DIMASSOC
  5
66B
102
{ACAD_REACTORS
330
66A
102
}
330
66A
100
AcDbDimAssoc
330
669
 90
        2
 70
     0
 71
     0
  1
AcDbOsnapPointRef
 72
     3
331
67E
 73
     2
 91
        0
 40
0.0
 10
0.0
 20
0.0
 30
0.0
 75
     0
  0
LAYOUT
  5
59
102
{ACAD_XDICTIONARY
360
7E1
102
}
102
{ACAD_REACTORS
330
1A
102
}
330
1A
100
AcDbPlotSettings
  1

  2
None
  4

  6

 40
0.0
 41
0.0
 42
0.0
 43
0.0
 44
0.0
 45
0.0
 46
0.0
 47
0.0
 48
0.0
 49
0.0
140
0.0
141
0.0
142
1.0
143
1.0
 70
   688
 72
     0
 73
     0
 74
     5
  7

 75
    16
147
1.0
148
0.0
149
0.0
100
AcDbLayout
  1
Layout1
 70
     1
 71
     1
 10
0.0
 20
0.0
 11
12.0
 21
9.0
 12
0.0
 22
0.0
 32
0.0
 14
0.0
 24
0.0
 34
0.0
 15
0.0
 25
0.0
 35
0.0
146
0.0
 13
0.0
 23
0.0
 33
0.0
 16
1.0
 26
0.0
 36
0.0
 17
0.0
 27
1.0
 37
0.0
 76
     0
330
58
  0
LAYOUT
  5
5E
102
{ACAD_XDICTIONARY
360
7E3
102
}
102
{ACAD_REACTORS
330
1A
102
}
330
1A
100
AcDbPlotSettings
  1

  2
None
  4

  6

 40
0.0
 41
0.0
 42
0.0
 43
0.0
 44
0.0
 45
0.0
 46
0.0
 47
0.0
 48
0.0
 49
0.0
140
0.0
141
0.0
142
1.0
143
1.0
 70
   688
 72
     0
 73
     0
 74
     5
  7

 75
    16
147
1.0
148
0.0
149
0.0
100
AcDbLayout
  1
Layout2
 70
     1
 71
     2
 10
0.0
 20
0.0
 11
12.0
 21
9.0
 12
0.0
 22
0.0
 32
0.0
 14
0.0
 24
0.0
 34
0.0
 15
0.0
 25
0.0
 35
0.0
146
0.0
 13
0.0
 23
0.0
 33
0.0
 16
1.0
 26
0.0
 36
0.0
 17
0.0
 27
1.0
 37
0.0
 76
     0
330
5D
  0
LAYOUT
  5
22
102
{ACAD_XDICTIONARY
360
7DF
102
}
102
{ACAD_REACTORS
330
1A
102
}
330
1A
100
AcDbPlotSettings
  1

  2
none_device
  4
ANSI_A_(8.50_x_11.00_Inches)
  6

 40
6.349999904632567
 41
19.04999923706055
 42
6.350006103515625
 43
19.04998779296875
 44
215.8999938964844
 45
279.3999938964844
 46
0.0
 47
0.0
 48
0.0
 49
0.0
140
0.0
141
0.0
142
1.0
143
2.584895464708373
 70
 11952
 72
     0
 73
     1
 74
     0
  7

 75
     0
147
0.3868628397755418
148
0.0
149
0.0
100
AcDbLayout
  1
Model
 70
     1
 71
     0
 10
0.0
 20
0.0
 11
12.0
 21
9.0
 12
0.0
 22
0.0
 32
0.0
 14
0.0
 24
0.0
 34
0.0
 15
0.0
 25
0.0
 35
0.0
146
0.0
 13
0.0
 23
0.0
 33
0.0
 16
1.0
 26
0.0
 36
0.0
 17
0.0
 27
1.0
 37
0.0
 76
     0
330
1F
  0
MLINESTYLE
  5
18
102
{ACAD_REACTORS
330
17
102
}
330
17
100
AcDbMlineStyle
  2
STANDARD
 70
     0
  3

 62
   256
 51
90.0
 52
90.0
 71
     2
 49
0.5
 62
   256
  6
BYLAYER
 49
-0.5
 62
   256
  6
BYLAYER
  0
ACDBPLACEHOLDER
  5
F
102
{ACAD_REACTORS
330
E
102
}
330
E
  0
XRECORD
  5
7DE
102
{ACAD_REACTORS
330
7DC
102
}
330
7DC
100
AcDbXrecord
280
     1
340
73
  0
XRECORD
  5
7DD
102
{ACAD_REACTORS
330
7DC
102
}
330
7DC
100
AcDbXrecord
280
     1
340
72
  0
DICTIONARYVAR
  5
67
102
{ACAD_REACTORS
330
66
102
}
330
66
100
DictionaryVariables
280
     0
  1
2
  0
DICTIONARYVAR
  5
6B
102
{ACAD_REACTORS
330
66
102
}
330
66
100
DictionaryVariables
280
     0
  1
1
  0
DICTIONARYVAR
  5
545
102
{ACAD_REACTORS
330
66
102
}
330
66
100
DictionaryVariables
280
     0
  1

  0
DICTIONARY
  5
7E1
330
59
100
AcDbDictionary
280
     1
281
     1
  3
ACAD_XREC_ROUNDTRIP
360
7E2
  0
DICTIONARY
  5
7E3
330
5E
100
AcDbDictionary
280
     1
281
     1
  3
ACAD_XREC_ROUNDTRIP
360
7E4
  0
DICTIONARY
  5
7DF
330
22
100
AcDbDictionary
280
     1
281
     1
  3
ACAD_XREC_ROUNDTRIP
360
7E0
  0
XRECORD
  5
7E2
102
{ACAD_REACTORS
330
7E1
102
}
330
7E1
100
AcDbXrecord
280
     1
102
SHADEPLOT
 70
     0
102
SHADEPLOTRESLEVEL
 70
     2
102
SHADEPLOTCUSTOMDPI
 70
   300
  0
XRECORD
  5
7E4
102
{ACAD_REACTORS
330
7E3
102
}
330
7E3
100
AcDbXrecord
280
     1
102
SHADEPLOT
 70
     0
102
SHADEPLOTRESLEVEL
 70
     2
102
SHADEPLOTCUSTOMDPI
 70
   300
  0
XRECORD
  5
7E0
102
{ACAD_REACTORS
330
7DF
102
}
330
7DF
100
AcDbXrecord
280
     1
102
SHADEPLOT
 70
     0
102
SHADEPLOTRESLEVEL
 70
     2
102
SHADEPLOTCUSTOMDPI
 70
   300
  0
ENDSEC
  0
EOF
