  0
SECTION
  2
HEADER
  9
$ACADVER
  1
AC1015
  9
$ACADMAINTVER
 70
    20
  9
$DWGCODEPAGE
  3
ANSI_1252
  9
$INSBASE
 10
0.0
 20
0.0
 30
0.0
  9
$EXTMIN
 10
9.295938773605612
 20
-10.66033157249465
 30
-0.0000000349181948
  9
$EXTMAX
 10
48.03207041163824
 20
40.31272778090218
 30
0.0000000814935747
  9
$LIMMIN
 10
0.0
 20
0.0
  9
$LIMMAX
 10
12.0
 20
9.0
  9
$ORTHOMODE
 70
     0
  9
$REGENMODE
 70
     1
  9
$FILLMODE
 70
     1
  9
$QTEXTMODE
 70
     0
  9
$MIRRTEXT
 70
     0
  9
$LTSCALE
 40
1.0
  9
$ATTMODE
 70
     1
  9
$TEXTSIZE
 40
0.2
  9
$TRACEWID
 40
0.05
  9
$TEXTSTYLE
  7
Standard
  9
$CLAYER
  8
0
  9
$CELTYPE
  6
ByLayer
  9
$CECOLOR
 62
   256
  9
$CELTSCALE
 40
1.0
  9
$DISPSILH
 70
     0
  9
$DIMSCALE
 40
1.0
  9
$DIMASZ
 40
0.18
  9
$DIMEXO
 40
0.0625
  9
$DIMDLI
 40
0.38
  9
$DIMRND
 40
0.0
  9
$DIMDLE
 40
0.0
  9
$DIMEXE
 40
0.18
  9
$DIMTP
 40
0.0
  9
$DIMTM
 40
0.0
  9
$DIMTXT
 40
0.18
  9
$DIMCEN
 40
0.09
  9
$DIMTSZ
 40
0.0
  9
$DIMTOL
 70
     0
  9
$DIMLIM
 70
     0
  9
$DIMTIH
 70
     1
  9
$DIMTOH
 70
     1
  9
$DIMSE1
 70
     0
  9
$DIMSE2
 70
     0
  9
$DIMTAD
 70
     0
  9
$DIMZIN
 70
     0
  9
$DIMBLK
  1

  9
$DIMASO
 70
     1
  9
$DIMSHO
 70
     1
  9
$DIMPOST
  1

  9
$DIMAPOST
  1

  9
$DIMALT
 70
     0
  9
$DIMALTD
 70
     2
  9
$DIMALTF
 40
25.4
  9
$DIMLFAC
 40
1.0
  9
$DIMTOFL
 70
     0
  9
$DIMTVP
 40
0.0
  9
$DIMTIX
 70
     0
  9
$DIMSOXD
 70
     0
  9
$DIMSAH
 70
     0
  9
$DIMBLK1
  1

  9
$DIMBLK2
  1

  9
$DIMSTYLE
  2
Standard
  9
$DIMCLRD
 70
     0
  9
$DIMCLRE
 70
     0
  9
$DIMCLRT
 70
     0
  9
$DIMTFAC
 40
1.0
  9
$DIMGAP
 40
0.09
  9
$DIMJUST
 70
     0
  9
$DIMSD1
 70
     0
  9
$DIMSD2
 70
     0
  9
$DIMTOLJ
 70
     1
  9
$DIMTZIN
 70
     0
  9
$DIMALTZ
 70
     0
  9
$DIMALTTZ
 70
     0
  9
$DIMUPT
 70
     0
  9
$DIMDEC
 70
     4
  9
$DIMTDEC
 70
     4
  9
$DIMALTU
 70
     2
  9
$DIMALTTD
 70
     2
  9
$DIMTXSTY
  7
Standard
  9
$DIMAUNIT
 70
     0
  9
$DIMADEC
 70
     0
  9
$DIMALTRND
 40
0.0
  9
$DIMAZIN
 70
     0
  9
$DIMDSEP
 70
    46
  9
$DIMATFIT
 70
     3
  9
$DIMFRAC
 70
     0
  9
$DIMLDRBLK
  1

  9
$DIMLUNIT
 70
     2
  9
$DIMLWD
 70
    -2
  9
$DIMLWE
 70
    -2
  9
$DIMTMOVE
 70
     0
  9
$LUNITS
 70
     2
  9
$LUPREC
 70
     4
  9
$SKETCHINC
 40
0.1
  9
$FILLETRAD
 40
0.0
  9
$AUNITS
 70
     0
  9
$AUPREC
 70
     0
  9
$MENU
  1
.
  9
$ELEVATION
 40
0.0
  9
$PELEVATION
 40
0.0
  9
$THICKNESS
 40
0.0
  9
$LIMCHECK
 70
     0
  9
$CHAMFERA
 40
0.0
  9
$CHAMFERB
 40
0.0
  9
$CHAMFERC
 40
0.0
  9
$CHAMFERD
 40
0.0
  9
$SKPOLY
 70
     0
  9
$TDCREATE
 40
2455197.493695532
  9
$TDUCREATE
 40
2455197.660362199
  9
$TDUPDATE
 40
2455671.659288912
  9
$TDUUPDATE
 40
2455671.825955579
  9
$TDINDWG
 40
0.0359680324
  9
$TDUSRTIMER
 40
0.0359678472
  9
$USRTIMER
 70
     1
  9
$ANGBASE
 50
0.0
  9
$ANGDIR
 70
     0
  9
$PDMODE
 70
     0
  9
$PDSIZE
 40
0.0
  9
$PLINEWID
 40
0.0
  9
$SPLFRAME
 70
     0
  9
$SPLINETYPE
 70
     6
  9
$SPLINESEGS
 70
     8
  9
$HANDSEED
  5
7AE
  9
$SURFTAB1
 70
     6
  9
$SURFTAB2
 70
     6
  9
$SURFTYPE
 70
     6
  9
$SURFU
 70
     6
  9
$SURFV
 70
     6
  9
$UCSBASE
  2

  9
$UCSNAME
  2

  9
$UCSORG
 10
0.0
 20
0.0
 30
0.0
  9
$UCSXDIR
 10
1.0
 20
0.0
 30
0.0
  9
$UCSYDIR
 10
0.0
 20
1.0
 30
0.0
  9
$UCSORTHOREF
  2

  9
$UCSORTHOVIEW
 70
     0
  9
$UCSORGTOP
 10
0.0
 20
0.0
 30
0.0
  9
$UCSORGBOTTOM
 10
0.0
 20
0.0
 30
0.0
  9
$UCSORGLEFT
 10
0.0
 20
0.0
 30
0.0
  9
$UCSORGRIGHT
 10
0.0
 20
0.0
 30
0.0
  9
$UCSORGFRONT
 10
0.0
 20
0.0
 30
0.0
  9
$UCSORGBACK
 10
0.0
 20
0.0
 30
0.0
  9
$PUCSBASE
  2

  9
$PUCSNAME
  2

  9
$PUCSORG
 10
0.0
 20
0.0
 30
0.0
  9
$PUCSXDIR
 10
1.0
 20
0.0
 30
0.0
  9
$PUCSYDIR
 10
0.0
 20
1.0
 30
0.0
  9
$PUCSORTHOREF
  2

  9
$PUCSORTHOVIEW
 70
     0
  9
$PUCSORGTOP
 10
0.0
 20
0.0
 30
0.0
  9
$PUCSORGBOTTOM
 10
0.0
 20
0.0
 30
0.0
  9
$PUCSORGLEFT
 10
0.0
 20
0.0
 30
0.0
  9
$PUCSORGRIGHT
 10
0.0
 20
0.0
 30
0.0
  9
$PUCSORGFRONT
 10
0.0
 20
0.0
 30
0.0
  9
$PUCSORGBACK
 10
0.0
 20
0.0
 30
0.0
  9
$USERI1
 70
     0
  9
$USERI2
 70
     0
  9
$USERI3
 70
     0
  9
$USERI4
 70
     0
  9
$USERI5
 70
     0
  9
$USERR1
 40
0.0
  9
$USERR2
 40
0.0
  9
$USERR3
 40
0.0
  9
$USERR4
 40
0.0
  9
$USERR5
 40
0.0
  9
$WORLDVIEW
 70
     1
  9
$SHADEDGE
 70
     3
  9
$SHADEDIF
 70
    70
  9
$TILEMODE
 70
     1
  9
$MAXACTVP
 70
    64
  9
$PINSBASE
 10
0.0
 20
0.0
 30
0.0
  9
$PLIMCHECK
 70
     0
  9
$PEXTMIN
 10
0.0
 20
0.0
 30
0.0
  9
$PEXTMAX
 10
0.0
 20
0.0
 30
0.0
  9
$PLIMMIN
 10
0.0
 20
0.0
  9
$PLIMMAX
 10
12.0
 20
9.0
  9
$UNITMODE
 70
     0
  9
$VISRETAIN
 70
     1
  9
$PLINEGEN
 70
     0
  9
$PSLTSCALE
 70
     1
  9
$TREEDEPTH
 70
  3020
  9
$CMLSTYLE
  2
Standard
  9
$CMLJUST
 70
     0
  9
$CMLSCALE
 40
1.0
  9
$PROXYGRAPHICS
 70
     1
  9
$MEASUREMENT
 70
     0
  9
$CELWEIGHT
370
    -1
  9
$ENDCAPS
280
     0
  9
$JOINSTYLE
280
     0
  9
$LWDISPLAY
290
     0
  9
$INSUNITS
 70
     1
  9
$HYPERLINKBASE
  1

  9
$STYLESHEET
  1

  9
$XEDIT
290
     1
  9
$CEPSNTYPE
380
     0
  9
$PSTYLEMODE
290
     1
  9
$FINGERPRINTGUID
  2
{FDEAD576-A652-11D2-9A35-0060089B3A3F}
  9
$VERSIONGUID
  2
{AC598F66-3E47-4277-B369-4DBF7AEAB047}
  9
$EXTNAMES
290
     1
  9
$PSVPSCALE
 40
0.0
  9
$OLESTARTUP
290
     0
  0
ENDSEC
  0
SECTION
  2
CLASSES
  0
CLASS
  1
ACDBDICTIONARYWDFLT
  2
AcDbDictionaryWithDefault
  3
ObjectDBX Classes
 90
        0
280
     0
281
     0
  0
CLASS
  1
ACDBPLACEHOLDER
  2
AcDbPlaceHolder
  3
ObjectDBX Classes
 90
        0
280
     0
281
     0
  0
CLASS
  1
LAYOUT
  2
AcDbLayout
  3
ObjectDBX Classes
 90
        0
280
     0
281
     0
  0
CLASS
  1
DICTIONARYVAR
  2
AcDbDictionaryVar
  3
ObjectDBX Classes
 90
        0
280
     0
281
     0
  0
CLASS
  1
DIMASSOC
  2
AcDbDimAssoc
  3
"AcDbDimAssoc|Product Desc:     AcDim ARX App For Dimension|Company:          Autodesk, Inc.|WEB Address:      www.autodesk.com"
 90
        0
280
     0
281
     0
  0
ENDSEC
  0
SECTION
  2
TABLES
  0
TABLE
  2
VPORT
  5
8
330
0
100
AcDbSymbolTable
 70
     4
  0
VPORT
  5
7A4
330
8
100
AcDbSymbolTableRecord
100
AcDbViewportTableRecord
  2
*Active
 70
     0
 10
0.0
 20
0.0
 11
1.0
 21
1.0
 12
28.66400459262193
 22
14.82619810420376
 13
0.0
 23
0.0
 14
0.5
 24
0.5
 15
0.5
 25
0.5
 16
0.0
 26
0.0
 36
1.0
 17
0.0
 27
0.0
 37
0.0
 40
51.36566314815984
 41
1.294344473007712
 42
50.0
 43
0.0
 44
0.0
 50
0.0
 51
0.0
 71
     0
 72
  1000
 73
     1
 74
     3
 75
     0
 76
     0
 77
     0
 78
     0
281
     0
 65
     1
110
0.0
120
0.0
130
0.0
111
1.0
121
0.0
131
0.0
112
0.0
122
1.0
132
0.0
 79
     0
146
0.0
  0
ENDTAB
  0
TABLE
  2
LTYPE
  5
5
330
0
100
AcDbSymbolTable
 70
     2
  0
LTYPE
  5
14
330
5
100
AcDbSymbolTableRecord
100
AcDbLinetypeTableRecord
  2
ByBlock
 70
     0
  3

 72
    65
 73
     0
 40
0.0
  0
LTYPE
  5
15
330
5
100
AcDbSymbolTableRecord
100
AcDbLinetypeTableRecord
  2
ByLayer
 70
     0
  3

 72
    65
 73
     0
 40
0.0
  0
LTYPE
  5
16
330
5
100
AcDbSymbolTableRecord
100
AcDbLinetypeTableRecord
  2
Continuous
 70
     0
  3
Solid line
 72
    65
 73
     0
 40
0.0
  0
LTYPE
  5
140
330
5
100
AcDbSymbolTableRecord
100
AcDbLinetypeTableRecord
  2
HIDDEN
 70
     0
  3
Hidden __ __ __ __ __ __ __ __ __ __ __ __ __ _
 72
    65
 73
     2
 40
0.375
 49
0.25
 74
     0
 49
-0.125
 74
     0
  0
ENDTAB
  0
TABLE
  2
LAYER
  5
2
102
{ACAD_XDICTIONARY
360
143
102
}
330
0
100
AcDbSymbolTable
 70
     5
  0
LAYER
  5
10
330
2
100
AcDbSymbolTableRecord
100
AcDbLayerTableRecord
  2
0
 70
     0
 62
     7
  6
Continuous
370
    -3
390
F
  0
LAYER
  5
142
330
2
100
AcDbSymbolTableRecord
100
AcDbLayerTableRecord
  2
Defpoints
 70
     0
 62
     7
  6
Continuous
290
     0
370
    -3
390
F
  0
LAYER
  5
2C2
330
2
100
AcDbSymbolTableRecord
100
AcDbLayerTableRecord
  2
TEXT
 70
     0
 62
     7
  6
Continuous
370
    -3
390
F
  0
LAYER
  5
2C3
330
2
100
AcDbSymbolTableRecord
100
AcDbLayerTableRecord
  2
BORDER
 70
     0
 62
     1
  6
Continuous
370
    -3
390
F
  0
LAYER
  5
2C4
330
2
100
AcDbSymbolTableRecord
100
AcDbLayerTableRecord
  2
DIMENSION
 70
     0
 62
     7
  6
Continuous
370
    -3
390
F
  0
ENDTAB
  0
TABLE
  2
STYLE
  5
3
330
0
100
AcDbSymbolTable
 70
     1
  0
STYLE
  5
11
330
3
100
AcDbSymbolTableRecord
100
AcDbTextStyleTableRecord
  2
Standard
 70
     0
 40
0.0
 41
1.0
 50
0.0
 71
     0
 42
0.2
  3
txt
  4

  0
ENDTAB
  0
TABLE
  2
VIEW
  5
6
330
0
100
AcDbSymbolTable
 70
     0
  0
ENDTAB
  0
TABLE
  2
UCS
  5
7
330
0
100
AcDbSymbolTable
 70
     0
  0
ENDTAB
  0
TABLE
  2
APPID
  5
9
330
0
100
AcDbSymbolTable
 70
     1
  0
APPID
  5
12
330
9
100
AcDbSymbolTableRecord
100
AcDbRegAppTableRecord
  2
ACAD
 70
     0
  0
ENDTAB
  0
TABLE
  2
DIMSTYLE
  5
A
330
0
100
AcDbSymbolTable
 70
     1
100
AcDbDimStyleTable
 71
     0
  0
DIMSTYLE
105
27
102
{ACAD_REACTORS
330
18F
330
192
330
195
330
198
330
199
330
19A
330
19B
330
19E
330
1A1
330
1A2
330
1A5
330
1AB
330
1AE
330
1B1
330
1B2
330
1B5
330
1B6
330
1B7
330
1B8
330
652
330
66C
102
}
330
A
100
AcDbSymbolTableRecord
100
AcDbDimStyleTableRecord
  2
Standard
 70
     0
340
11
  0
ENDTAB
  0
TABLE
  2
BLOCK_RECORD
  5
1
330
0
100
AcDbSymbolTable
 70
    86
  0
BLOCK_RECORD
  5
1F
330
1
100
AcDbSymbolTableRecord
100
AcDbBlockTableRecord
  2
*Model_Space
340
22
  0
BLOCK_RECORD
  5
58
330
1
100
AcDbSymbolTableRecord
100
AcDbBlockTableRecord
  2
*Paper_Space
340
59
  0
BLOCK_RECORD
  5
5D
330
1
100
AcDbSymbolTableRecord
100
AcDbBlockTableRecord
  2
*Paper_Space0
340
5E
  0
BLOCK_RECORD
  5
89
330
1
100
AcDbSymbolTableRecord
100
AcDbBlockTableRecord
  2
*D1
340
0
  0
BLOCK_RECORD
  5
91
330
1
100
AcDbSymbolTableRecord
100
AcDbBlockTableRecord
  2
*D2
340
0
  0
BLOCK_RECORD
  5
99
330
1
100
AcDbSymbolTableRecord
100
AcDbBlockTableRecord
  2
*D3
340
0
  0
BLOCK_RECORD
  5
A1
330
1
100
AcDbSymbolTableRecord
100
AcDbBlockTableRecord
  2
*D4
340
0
  0
BLOCK_RECORD
  5
A9
330
1
100
AcDbSymbolTableRecord
100
AcDbBlockTableRecord
  2
*D5
340
0
  0
BLOCK_RECORD
  5
B1
330
1
100
AcDbSymbolTableRecord
100
AcDbBlockTableRecord
  2
*D6
340
0
  0
BLOCK_RECORD
  5
B9
330
1
100
AcDbSymbolTableRecord
100
AcDbBlockTableRecord
  2
*D7
340
0
  0
BLOCK_RECORD
  5
C1
330
1
100
AcDbSymbolTableRecord
100
AcDbBlockTableRecord
  2
*D8
340
0
  0
BLOCK_RECORD
  5
C9
330
1
100
AcDbSymbolTableRecord
100
AcDbBlockTableRecord
  2
*D9
340
0
  0
BLOCK_RECORD
  5
D1
330
1
100
AcDbSymbolTableRecord
100
AcDbBlockTableRecord
  2
*D10
340
0
  0
BLOCK_RECORD
  5
D9
330
1
100
AcDbSymbolTableRecord
100
AcDbBlockTableRecord
  2
*D11
340
0
  0
BLOCK_RECORD
  5
E1
330
1
100
AcDbSymbolTableRecord
100
AcDbBlockTableRecord
  2
*D12
340
0
  0
BLOCK_RECORD
  5
E9
330
1
100
AcDbSymbolTableRecord
100
AcDbBlockTableRecord
  2
*D13
340
0
  0
BLOCK_RECORD
  5
F1
330
1
100
AcDbSymbolTableRecord
100
AcDbBlockTableRecord
  2
*D14
340
0
  0
BLOCK_RECORD
  5
F9
330
1
100
AcDbSymbolTableRecord
100
AcDbBlockTableRecord
  2
*D15
340
0
  0
BLOCK_RECORD
  5
101
330
1
100
AcDbSymbolTableRecord
100
AcDbBlockTableRecord
  2
*D16
340
0
  0
BLOCK_RECORD
  5
10B
330
1
100
AcDbSymbolTableRecord
100
AcDbBlockTableRecord
  2
*D17
340
0
  0
BLOCK_RECORD
  5
115
330
1
100
AcDbSymbolTableRecord
100
AcDbBlockTableRecord
  2
*D18
340
0
  0
BLOCK_RECORD
  5
11F
330
1
100
AcDbSymbolTableRecord
100
AcDbBlockTableRecord
  2
*D19
340
0
  0
BLOCK_RECORD
  5
12A
330
1
100
AcDbSymbolTableRecord
100
AcDbBlockTableRecord
  2
*D20
340
0
  0
BLOCK_RECORD
  5
135
330
1
100
AcDbSymbolTableRecord
100
AcDbBlockTableRecord
  2
*D21
340
0
  0
BLOCK_RECORD
  5
1CF
330
1
100
AcDbSymbolTableRecord
100
AcDbBlockTableRecord
  2
*D22
340
0
  0
BLOCK_RECORD
  5
1D9
330
1
100
AcDbSymbolTableRecord
100
AcDbBlockTableRecord
  2
*D23
340
0
  0
BLOCK_RECORD
  5
1E3
330
1
100
AcDbSymbolTableRecord
100
AcDbBlockTableRecord
  2
*D24
340
0
  0
BLOCK_RECORD
  5
1EB
330
1
100
AcDbSymbolTableRecord
100
AcDbBlockTableRecord
  2
*D25
340
0
  0
BLOCK_RECORD
  5
1F3
330
1
100
AcDbSymbolTableRecord
100
AcDbBlockTableRecord
  2
*D26
340
0
  0
BLOCK_RECORD
  5
1FB
330
1
100
AcDbSymbolTableRecord
100
AcDbBlockTableRecord
  2
*D27
340
0
  0
BLOCK_RECORD
  5
203
330
1
100
AcDbSymbolTableRecord
100
AcDbBlockTableRecord
  2
*D28
340
0
  0
BLOCK_RECORD
  5
20B
330
1
100
AcDbSymbolTableRecord
100
AcDbBlockTableRecord
  2
*D29
340
0
  0
BLOCK_RECORD
  5
213
330
1
100
AcDbSymbolTableRecord
100
AcDbBlockTableRecord
  2
*D30
340
0
  0
BLOCK_RECORD
  5
21E
330
1
100
AcDbSymbolTableRecord
100
AcDbBlockTableRecord
  2
*D31
340
0
  0
BLOCK_RECORD
  5
229
330
1
100
AcDbSymbolTableRecord
100
AcDbBlockTableRecord
  2
*D32
340
0
  0
BLOCK_RECORD
  5
234
330
1
100
AcDbSymbolTableRecord
100
AcDbBlockTableRecord
  2
*D33
340
0
  0
BLOCK_RECORD
  5
251
330
1
100
AcDbSymbolTableRecord
100
AcDbBlockTableRecord
  2
*D34
340
0
  0
BLOCK_RECORD
  5
259
330
1
100
AcDbSymbolTableRecord
100
AcDbBlockTableRecord
  2
*D35
340
0
  0
BLOCK_RECORD
  5
266
330
1
100
AcDbSymbolTableRecord
100
AcDbBlockTableRecord
  2
*D36
340
0
  0
BLOCK_RECORD
  5
26E
330
1
100
AcDbSymbolTableRecord
100
AcDbBlockTableRecord
  2
*D37
340
0
  0
BLOCK_RECORD
  5
276
330
1
100
AcDbSymbolTableRecord
100
AcDbBlockTableRecord
  2
*D38
340
0
  0
BLOCK_RECORD
  5
27E
330
1
100
AcDbSymbolTableRecord
100
AcDbBlockTableRecord
  2
*D39
340
0
  0
BLOCK_RECORD
  5
286
330
1
100
AcDbSymbolTableRecord
100
AcDbBlockTableRecord
  2
*D40
340
0
  0
BLOCK_RECORD
  5
293
330
1
100
AcDbSymbolTableRecord
100
AcDbBlockTableRecord
  2
*D41
340
0
  0
BLOCK_RECORD
  5
2AA
330
1
100
AcDbSymbolTableRecord
100
AcDbBlockTableRecord
  2
*D42
340
0
  0
BLOCK_RECORD
  5
558
330
1
100
AcDbSymbolTableRecord
100
AcDbBlockTableRecord
  2
*D43
340
0
  0
BLOCK_RECORD
  5
560
330
1
100
AcDbSymbolTableRecord
100
AcDbBlockTableRecord
  2
*D44
340
0
  0
BLOCK_RECORD
  5
568
330
1
100
AcDbSymbolTableRecord
100
AcDbBlockTableRecord
  2
*D45
340
0
  0
BLOCK_RECORD
  5
570
330
1
100
AcDbSymbolTableRecord
100
AcDbBlockTableRecord
  2
*D46
340
0
  0
BLOCK_RECORD
  5
578
330
1
100
AcDbSymbolTableRecord
100
AcDbBlockTableRecord
  2
*D47
340
0
  0
BLOCK_RECORD
  5
580
330
1
100
AcDbSymbolTableRecord
100
AcDbBlockTableRecord
  2
*D48
340
0
  0
BLOCK_RECORD
  5
588
330
1
100
AcDbSymbolTableRecord
100
AcDbBlockTableRecord
  2
*D49
340
0
  0
BLOCK_RECORD
  5
590
330
1
100
AcDbSymbolTableRecord
100
AcDbBlockTableRecord
  2
*D50
340
0
  0
BLOCK_RECORD
  5
598
330
1
100
AcDbSymbolTableRecord
100
AcDbBlockTableRecord
  2
*D51
340
0
  0
BLOCK_RECORD
  5
5A0
330
1
100
AcDbSymbolTableRecord
100
AcDbBlockTableRecord
  2
*D52
340
0
  0
BLOCK_RECORD
  5
5A8
330
1
100
AcDbSymbolTableRecord
100
AcDbBlockTableRecord
  2
*D53
340
0
  0
BLOCK_RECORD
  5
5B0
330
1
100
AcDbSymbolTableRecord
100
AcDbBlockTableRecord
  2
*D54
340
0
  0
BLOCK_RECORD
  5
5B8
330
1
100
AcDbSymbolTableRecord
100
AcDbBlockTableRecord
  2
*D55
340
0
  0
BLOCK_RECORD
  5
5C0
330
1
100
AcDbSymbolTableRecord
100
AcDbBlockTableRecord
  2
*D56
340
0
  0
BLOCK_RECORD
  5
5C8
330
1
100
AcDbSymbolTableRecord
100
AcDbBlockTableRecord
  2
*D57
340
0
  0
BLOCK_RECORD
  5
5D0
330
1
100
AcDbSymbolTableRecord
100
AcDbBlockTableRecord
  2
*D58
340
0
  0
BLOCK_RECORD
  5
5DA
330
1
100
AcDbSymbolTableRecord
100
AcDbBlockTableRecord
  2
*D59
340
0
  0
BLOCK_RECORD
  5
5E4
330
1
100
AcDbSymbolTableRecord
100
AcDbBlockTableRecord
  2
*D60
340
0
  0
BLOCK_RECORD
  5
5EE
330
1
100
AcDbSymbolTableRecord
100
AcDbBlockTableRecord
  2
*D61
340
0
  0
BLOCK_RECORD
  5
5F9
330
1
100
AcDbSymbolTableRecord
100
AcDbBlockTableRecord
  2
*D62
340
0
  0
BLOCK_RECORD
  5
604
330
1
100
AcDbSymbolTableRecord
100
AcDbBlockTableRecord
  2
*D63
340
0
  0
BLOCK_RECORD
  5
691
330
1
100
AcDbSymbolTableRecord
100
AcDbBlockTableRecord
  2
*D65
340
0
  0
BLOCK_RECORD
  5
69C
330
1
100
AcDbSymbolTableRecord
100
AcDbBlockTableRecord
  2
*D66
340
0
  0
BLOCK_RECORD
  5
6A6
330
1
100
AcDbSymbolTableRecord
100
AcDbBlockTableRecord
  2
*D67
340
0
  0
BLOCK_RECORD
  5
6B0
330
1
100
AcDbSymbolTableRecord
100
AcDbBlockTableRecord
  2
*D68
340
0
  0
BLOCK_RECORD
  5
6B8
330
1
100
AcDbSymbolTableRecord
100
AcDbBlockTableRecord
  2
*D69
340
0
  0
BLOCK_RECORD
  5
6C0
330
1
100
AcDbSymbolTableRecord
100
AcDbBlockTableRecord
  2
*D70
340
0
  0
BLOCK_RECORD
  5
6C8
330
1
100
AcDbSymbolTableRecord
100
AcDbBlockTableRecord
  2
*D71
340
0
  0
BLOCK_RECORD
  5
6D0
330
1
100
AcDbSymbolTableRecord
100
AcDbBlockTableRecord
  2
*D72
340
0
  0
BLOCK_RECORD
  5
6D8
330
1
100
AcDbSymbolTableRecord
100
AcDbBlockTableRecord
  2
*D73
340
0
  0
BLOCK_RECORD
  5
6E8
330
1
100
AcDbSymbolTableRecord
100
AcDbBlockTableRecord
  2
*D74
340
0
  0
BLOCK_RECORD
  5
6F3
330
1
100
AcDbSymbolTableRecord
100
AcDbBlockTableRecord
  2
*D75
340
0
  0
BLOCK_RECORD
  5
6FE
330
1
100
AcDbSymbolTableRecord
100
AcDbBlockTableRecord
  2
*D76
340
0
  0
BLOCK_RECORD
  5
71B
330
1
100
AcDbSymbolTableRecord
100
AcDbBlockTableRecord
  2
*D77
340
0
  0
BLOCK_RECORD
  5
723
330
1
100
AcDbSymbolTableRecord
100
AcDbBlockTableRecord
  2
*D78
340
0
  0
BLOCK_RECORD
  5
730
330
1
100
AcDbSymbolTableRecord
100
AcDbBlockTableRecord
  2
*D79
340
0
  0
BLOCK_RECORD
  5
738
330
1
100
AcDbSymbolTableRecord
100
AcDbBlockTableRecord
  2
*D80
340
0
  0
BLOCK_RECORD
  5
740
330
1
100
AcDbSymbolTableRecord
100
AcDbBlockTableRecord
  2
*D81
340
0
  0
BLOCK_RECORD
  5
748
330
1
100
AcDbSymbolTableRecord
100
AcDbBlockTableRecord
  2
*D82
340
0
  0
BLOCK_RECORD
  5
750
330
1
100
AcDbSymbolTableRecord
100
AcDbBlockTableRecord
  2
*D83
340
0
  0
BLOCK_RECORD
  5
75D
330
1
100
AcDbSymbolTableRecord
100
AcDbBlockTableRecord
  2
*D84
340
0
  0
BLOCK_RECORD
  5
774
330
1
100
AcDbSymbolTableRecord
100
AcDbBlockTableRecord
  2
*D85
340
0
  0
ENDTAB
  0
ENDSEC
  0
SECTION
  2
BLOCKS
  0
BLOCK
  5
20
330
1F
100
AcDbEntity
  8
0
100
AcDbBlockBegin
  2
*Model_Space
 70
     0
 10
0.0
 20
0.0
 30
0.0
  3
*Model_Space
  1

  0
ENDBLK
  5
21
330
1F
100
AcDbEntity
  8
0
100
AcDbBlockEnd
  0
BLOCK
  5
5A
330
58
100
AcDbEntity
 67
     1
  8
0
100
AcDbBlockBegin
  2
*Paper_Space
 70
     0
 10
0.0
 20
0.0
 30
0.0
  3
*Paper_Space
  1

  0
ENDBLK
  5
5B
330
58
100
AcDbEntity
 67
     1
  8
0
100
AcDbBlockEnd
  0
BLOCK
  5
5F
330
5D
100
AcDbEntity
  8
0
100
AcDbBlockBegin
  2
*Paper_Space0
 70
     0
 10
0.0
 20
0.0
 30
0.0
  3
*Paper_Space0
  1

  0
ENDBLK
  5
60
330
5D
100
AcDbEntity
  8
0
100
AcDbBlockEnd
  0
BLOCK
  5
8A
330
89
100
AcDbEntity
  8
0
100
AcDbBlockBegin
  2
*D1
 70
     1
 10
0.0
 20
0.0
 30
0.0
  3
*D1
  1

  0
LINE
  5
8B
330
89
100
AcDbEntity
  8
0
 62
     0
370
    -2
100
AcDbLine
 10
-10.01662089141294
 20
2.980037195910853
 30
0.0
 11
-10.76662089141294
 21
2.980037195910853
 31
0.0
  0
MTEXT
  5
8C
330
89
100
AcDbEntity
  8
0
 62
     0
100
AcDbMText
 10
-12.02995422474627
 20
2.980037195910853
 30
0.0
 40
0.7040000000000001
 41
0.0
 71
     5
 72
     1
  1
\A1;0.000
 73
     1
 44
1.0
1001
ACAD
1000
MTEXTBEGIN
1070
    73
1070
     1
1070
    44
1040
1.0
1070
    74
1070
     0
1000
MTEXTEND
  0
POINT
  5
8D
330
89
100
AcDbEntity
  8
Defpoints
 62
     0
100
AcDbPoint
 10
-9.766620891412939
 20
2.980037195910853
 30
0.0
  0
POINT
  5
8E
330
89
100
AcDbEntity
  8
Defpoints
 62
     0
100
AcDbPoint
 10
-10.76662089141294
 20
2.980037195910853
 30
0.0
  0
POINT
  5
8F
330
89
100
AcDbEntity
  8
Defpoints
 62
     0
100
AcDbPoint
 10
-9.766620891412827
 20
2.980037195910853
 30
0.0
  0
ENDBLK
  5
90
330
89
100
AcDbEntity
  8
0
100
AcDbBlockEnd
  0
BLOCK
  5
92
330
91
100
AcDbEntity
  8
0
100
AcDbBlockBegin
  2
*D2
 70
     1
 10
0.0
 20
0.0
 30
0.0
  3
*D2
  1

  0
LINE
  5
93
330
91
100
AcDbEntity
  8
0
 62
     0
370
    -2
100
AcDbLine
 10
-9.766620891412827
 20
2.730037195910853
 30
0.0
 11
-9.766620891412827
 21
1.980037195910853
 31
0.0
  0
MTEXT
  5
94
330
91
100
AcDbEntity
  8
0
 62
     0
100
AcDbMText
 10
-9.766620891412827
 20
0.7167038625775181
 30
0.0
 40
0.7040000000000001
 41
0.0
 71
     5
 72
     1
  1
\A1;0.000
 11
0.0000000000000001
 21
1.0
 31
0.0
 73
     1
 44
1.0
1001
ACAD
1000
MTEXTBEGIN
1070
    73
1070
     1
1070
    44
1040
1.0
1070
    74
1070
     0
1000
MTEXTEND
  0
POINT
  5
95
330
91
100
AcDbEntity
  8
Defpoints
 62
     0
100
AcDbPoint
 10
-9.766620891412827
 20
2.980037195910853
 30
0.0
  0
POINT
  5
96
330
91
100
AcDbEntity
  8
Defpoints
 62
     0
100
AcDbPoint
 10
-9.766620891412827
 20
1.980037195910853
 30
0.0
  0
POINT
  5
97
330
91
100
AcDbEntity
  8
Defpoints
 62
     0
100
AcDbPoint
 10
-9.766620891412827
 20
2.980037195910853
 30
0.0
  0
ENDBLK
  5
98
330
91
100
AcDbEntity
  8
0
100
AcDbBlockEnd
  0
BLOCK
  5
9A
330
99
100
AcDbEntity
  8
0
100
AcDbBlockBegin
  2
*D3
 70
     1
 10
0.0
 20
0.0
 30
0.0
  3
*D3
  1

  0
LINE
  5
9B
330
99
100
AcDbEntity
  8
0
 62
     0
370
    -2
100
AcDbLine
 10
-0.4266208914128528
 20
5.570037195910797
 30
0.0
 11
1.913379108587226
 21
5.570037195910841
 31
0.0
  0
MTEXT
  5
9C
330
99
100
AcDbEntity
  8
0
 62
     0
100
AcDbMText
 10
3.35271244192056
 20
5.570037195910841
 30
0.0
 40
0.7040000000000001
 41
0.0
 71
     5
 72
     1
  1
\A1;2.590
 73
     1
 44
1.0
1001
ACAD
1000
MTEXTBEGIN
1070
    73
1070
     1
1070
    44
1040
1.0
1070
    74
1070
     0
1000
MTEXTEND
  0
POINT
  5
9D
330
99
100
AcDbEntity
  8
Defpoints
 62
     0
100
AcDbPoint
 10
-0.6766208914128528
 20
5.570037195910797
 30
0.0
  0
POINT
  5
9E
330
99
100
AcDbEntity
  8
Defpoints
 62
     0
100
AcDbPoint
 10
1.913379108587226
 20
5.570037195910841
 30
0.0
  0
POINT
  5
9F
330
99
100
AcDbEntity
  8
Defpoints
 62
     0
100
AcDbPoint
 10
-9.766620891412827
 20
2.980037195910853
 30
0.0
  0
ENDBLK
  5
A0
330
99
100
AcDbEntity
  8
0
100
AcDbBlockEnd
  0
BLOCK
  5
A2
330
A1
100
AcDbEntity
  8
0
100
AcDbBlockBegin
  2
*D4
 70
     1
 10
0.0
 20
0.0
 30
0.0
  3
*D4
  1

  0
LINE
  5
A3
330
A1
100
AcDbEntity
  8
0
 62
     0
370
    -2
100
AcDbLine
 10
-8.176620891412794
 20
5.320037195910798
 30
0.0
 11
-8.176620891412794
 21
1.98003719591086
 31
0.0
  0
MTEXT
  5
A4
330
A1
100
AcDbEntity
  8
0
 62
     0
100
AcDbMText
 10
-8.176620891412794
 20
0.6580371959108607
 30
0.0
 40
0.7040000000000001
 41
0.0
 71
     5
 72
     1
  1
\A1;1.590
 11
0.0000000000000001
 21
1.0
 31
0.0
 73
     1
 44
1.0
1001
ACAD
1000
MTEXTBEGIN
1070
    73
1070
     1
1070
    44
1040
1.0
1070
    74
1070
     0
1000
MTEXTEND
  0
POINT
  5
A5
330
A1
100
AcDbEntity
  8
Defpoints
 62
     0
100
AcDbPoint
 10
-8.176620891412794
 20
5.570037195910797
 30
0.0
  0
POINT
  5
A6
330
A1
100
AcDbEntity
  8
Defpoints
 62
     0
100
AcDbPoint
 10
-8.176620891412794
 20
1.98003719591086
 30
0.0
  0
POINT
  5
A7
330
A1
100
AcDbEntity
  8
Defpoints
 62
     0
100
AcDbPoint
 10
-9.766620891412827
 20
2.980037195910853
 30
0.0
  0
ENDBLK
  5
A8
330
A1
100
AcDbEntity
  8
0
100
AcDbBlockEnd
  0
BLOCK
  5
AA
330
A9
100
AcDbEntity
  8
0
100
AcDbBlockBegin
  2
*D5
 70
     1
 10
0.0
 20
0.0
 30
0.0
  3
*D5
  1

  0
LINE
  5
AB
330
A9
100
AcDbEntity
  8
0
 62
     0
370
    -2
100
AcDbLine
 10
-0.6766208914128528
 20
5.320037195910798
 30
0.0
 11
-0.6766208914128528
 21
1.9800371959109
 31
0.0
  0
MTEXT
  5
AC
330
A9
100
AcDbEntity
  8
0
 62
     0
100
AcDbMText
 10
-0.6766208914128531
 20
0.5993705292442347
 30
0.0
 40
0.7040000000000001
 41
0.0
 71
     5
 72
     1
  1
\A1;9.090
 11
0.0000000000000001
 21
1.0
 31
0.0
 73
     1
 44
1.0
1001
ACAD
1000
MTEXTBEGIN
1070
    73
1070
     1
1070
    44
1040
1.0
1070
    74
1070
     0
1000
MTEXTEND
  0
POINT
  5
AD
330
A9
100
AcDbEntity
  8
Defpoints
 62
     0
100
AcDbPoint
 10
-0.6766208914128528
 20
5.570037195910797
 30
0.0
  0
POINT
  5
AE
330
A9
100
AcDbEntity
  8
Defpoints
 62
     0
100
AcDbPoint
 10
-0.6766208914128528
 20
1.9800371959109
 30
0.0
  0
POINT
  5
AF
330
A9
100
AcDbEntity
  8
Defpoints
 62
     0
100
AcDbPoint
 10
-9.766620891412827
 20
2.980037195910853
 30
0.0
  0
ENDBLK
  5
B0
330
A9
100
AcDbEntity
  8
0
100
AcDbBlockEnd
  0
BLOCK
  5
B2
330
B1
100
AcDbEntity
  8
0
100
AcDbBlockBegin
  2
*D6
 70
     1
 10
0.0
 20
0.0
 30
0.0
  3
*D6
  1

  0
LINE
  5
B3
330
B1
100
AcDbEntity
  8
0
 62
     0
370
    -2
100
AcDbLine
 10
-0.4266208914128528
 20
12.57003719591083
 30
0.0
 11
1.913379108587205
 21
12.57003719591087
 31
0.0
  0
MTEXT
  5
B4
330
B1
100
AcDbEntity
  8
0
 62
     0
100
AcDbMText
 10
3.352712441920538
 20
12.57003719591087
 30
0.0
 40
0.7040000000000001
 41
0.0
 71
     5
 72
     1
  1
\A1;9.590
 73
     1
 44
1.0
1001
ACAD
1000
MTEXTBEGIN
1070
    73
1070
     1
1070
    44
1040
1.0
1070
    74
1070
     0
1000
MTEXTEND
  0
POINT
  5
B5
330
B1
100
AcDbEntity
  8
Defpoints
 62
     0
100
AcDbPoint
 10
-0.6766208914128528
 20
12.57003719591083
 30
0.0
  0
POINT
  5
B6
330
B1
100
AcDbEntity
  8
Defpoints
 62
     0
100
AcDbPoint
 10
1.913379108587205
 20
12.57003719591087
 30
0.0
  0
POINT
  5
B7
330
B1
100
AcDbEntity
  8
Defpoints
 62
     0
100
AcDbPoint
 10
-9.766620891412827
 20
2.980037195910853
 30
0.0
  0
ENDBLK
  5
B8
330
B1
100
AcDbEntity
  8
0
100
AcDbBlockEnd
  0
BLOCK
  5
BA
330
B9
100
AcDbEntity
  8
0
100
AcDbBlockBegin
  2
*D7
 70
     1
 10
0.0
 20
0.0
 30
0.0
  3
*D7
  1

  0
LINE
  5
BB
330
B9
100
AcDbEntity
  8
0
 62
     0
370
    -2
100
AcDbLine
 10
-9.516620891412882
 20
15.01183597998152
 30
0.0
 11
-10.7666208914129
 21
15.01183597998152
 31
0.0
  0
MTEXT
  5
BC
330
B9
100
AcDbEntity
  8
0
 62
     0
100
AcDbMText
 10
-12.4406208914129
 20
15.01183597998152
 30
0.0
 40
0.7040000000000001
 41
0.0
 71
     5
 72
     1
  1
\A1;12.032
 73
     1
 44
1.0
1001
ACAD
1000
MTEXTBEGIN
1070
    73
1070
     1
1070
    44
1040
1.0
1070
    74
1070
     0
1000
MTEXTEND
  0
POINT
  5
BD
330
B9
100
AcDbEntity
  8
Defpoints
 62
     0
100
AcDbPoint
 10
-9.266620891412882
 20
15.01183597998152
 30
0.0
  0
POINT
  5
BE
330
B9
100
AcDbEntity
  8
Defpoints
 62
     0
100
AcDbPoint
 10
-10.7666208914129
 20
15.01183597998152
 30
0.0
  0
POINT
  5
BF
330
B9
100
AcDbEntity
  8
Defpoints
 62
     0
100
AcDbPoint
 10
-9.766620891412827
 20
2.980037195910853
 30
0.0
  0
ENDBLK
  5
C0
330
B9
100
AcDbEntity
  8
0
100
AcDbBlockEnd
  0
BLOCK
  5
C2
330
C1
100
AcDbEntity
  8
0
100
AcDbBlockBegin
  2
*D8
 70
     1
 10
0.0
 20
0.0
 30
0.0
  3
*D8
  1

  0
LINE
  5
C3
330
C1
100
AcDbEntity
  8
0
 62
     0
370
    -2
100
AcDbLine
 10
-9.516620891412882
 20
18.1180859799818
 30
0.0
 11
-10.76662089141289
 21
18.1180859799818
 31
0.0
  0
MTEXT
  5
C4
330
C1
100
AcDbEntity
  8
0
 62
     0
100
AcDbMText
 10
-12.38195422474622
 20
18.1180859799818
 30
0.0
 40
0.7040000000000001
 41
0.0
 71
     5
 72
     1
  1
\A1;15.138
 73
     1
 44
1.0
1001
ACAD
1000
MTEXTBEGIN
1070
    73
1070
     1
1070
    44
1040
1.0
1070
    74
1070
     0
1000
MTEXTEND
  0
POINT
  5
C5
330
C1
100
AcDbEntity
  8
Defpoints
 62
     0
100
AcDbPoint
 10
-9.266620891412882
 20
18.1180859799818
 30
0.0
  0
POINT
  5
C6
330
C1
100
AcDbEntity
  8
Defpoints
 62
     0
100
AcDbPoint
 10
-10.76662089141289
 20
18.1180859799818
 30
0.0
  0
POINT
  5
C7
330
C1
100
AcDbEntity
  8
Defpoints
 62
     0
100
AcDbPoint
 10
-9.766620891412827
 20
2.980037195910853
 30
0.0
  0
ENDBLK
  5
C8
330
C1
100
AcDbEntity
  8
0
100
AcDbBlockEnd
  0
BLOCK
  5
CA
330
C9
100
AcDbEntity
  8
0
100
AcDbBlockBegin
  2
*D9
 70
     1
 10
0.0
 20
0.0
 30
0.0
  3
*D9
  1

  0
LINE
  5
CB
330
C9
100
AcDbEntity
  8
0
 62
     0
370
    -2
100
AcDbLine
 10
-0.4266208914128528
 20
23.57003719591091
 30
0.0
 11
1.913379108587168
 21
23.57003719591091
 31
0.0
  0
MTEXT
  5
CC
330
C9
100
AcDbEntity
  8
0
 62
     0
100
AcDbMText
 10
3.646045775253834
 20
23.57003719591091
 30
0.0
 40
0.7040000000000001
 41
0.0
 71
     5
 72
     1
  1
\A1;20.590
 73
     1
 44
1.0
1001
ACAD
1000
MTEXTBEGIN
1070
    73
1070
     1
1070
    44
1040
1.0
1070
    74
1070
     0
1000
MTEXTEND
  0
POINT
  5
CD
330
C9
100
AcDbEntity
  8
Defpoints
 62
     0
100
AcDbPoint
 10
-0.6766208914128528
 20
23.57003719591091
 30
0.0
  0
POINT
  5
CE
330
C9
100
AcDbEntity
  8
Defpoints
 62
     0
100
AcDbPoint
 10
1.913379108587168
 20
23.57003719591091
 30
0.0
  0
POINT
  5
CF
330
C9
100
AcDbEntity
  8
Defpoints
 62
     0
100
AcDbPoint
 10
-9.766620891412827
 20
2.980037195910853
 30
0.0
  0
ENDBLK
  5
D0
330
C9
100
AcDbEntity
  8
0
100
AcDbBlockEnd
  0
BLOCK
  5
D2
330
D1
100
AcDbEntity
  8
0
100
AcDbBlockBegin
  2
*D10
 70
     1
 10
0.0
 20
0.0
 30
0.0
  3
*D10
  1

  0
LINE
  5
D3
330
D1
100
AcDbEntity
  8
0
 62
     0
370
    -2
100
AcDbLine
 10
-0.0086845797285662
 20
28.69455855231413
 30
0.0
 11
1.913379108587151
 21
28.69455855231413
 31
0.0
  0
MTEXT
  5
D4
330
D1
100
AcDbEntity
  8
0
 62
     0
100
AcDbMText
 10
3.646045775253818
 20
28.69455855231413
 30
0.0
 40
0.7040000000000001
 41
0.0
 71
     5
 72
     1
  1
\A1;25.715
 73
     1
 44
1.0
1001
ACAD
1000
MTEXTBEGIN
1070
    73
1070
     1
1070
    44
1040
1.0
1070
    74
1070
     0
1000
MTEXTEND
  0
POINT
  5
D5
330
D1
100
AcDbEntity
  8
Defpoints
 62
     0
100
AcDbPoint
 10
-0.2586845797285662
 20
28.69455855231413
 30
0.0
  0
POINT
  5
D6
330
D1
100
AcDbEntity
  8
Defpoints
 62
     0
100
AcDbPoint
 10
1.913379108587151
 20
28.69455855231413
 30
0.0
  0
POINT
  5
D7
330
D1
100
AcDbEntity
  8
Defpoints
 62
     0
100
AcDbPoint
 10
-9.766620891412827
 20
2.980037195910853
 30
0.0
  0
ENDBLK
  5
D8
330
D1
100
AcDbEntity
  8
0
100
AcDbBlockEnd
  0
BLOCK
  5
DA
330
D9
100
AcDbEntity
  8
0
100
AcDbBlockBegin
  2
*D11
 70
     1
 10
0.0
 20
0.0
 30
0.0
  3
*D11
  1

  0
LINE
  5
DB
330
D9
100
AcDbEntity
  8
0
 62
     0
370
    -2
100
AcDbLine
 10
-4.676620891412794
 20
32.74463015287159
 30
0.0
 11
-10.76662089141284
 21
32.74463015287164
 31
0.0
  0
MTEXT
  5
DC
330
D9
100
AcDbEntity
  8
0
 62
     0
100
AcDbMText
 10
-12.61662089141284
 20
32.74463015287164
 30
0.0
 40
0.7040000000000001
 41
0.0
 71
     5
 72
     1
  1
\A1;29.765
 73
     1
 44
1.0
1001
ACAD
1000
MTEXTBEGIN
1070
    73
1070
     1
1070
    44
1040
1.0
1070
    74
1070
     0
1000
MTEXTEND
  0
POINT
  5
DD
330
D9
100
AcDbEntity
  8
Defpoints
 62
     0
100
AcDbPoint
 10
-4.426620891412794
 20
32.74463015287159
 30
0.0
  0
POINT
  5
DE
330
D9
100
AcDbEntity
  8
Defpoints
 62
     0
100
AcDbPoint
 10
-10.76662089141284
 20
32.74463015287164
 30
0.0
  0
POINT
  5
DF
330
D9
100
AcDbEntity
  8
Defpoints
 62
     0
100
AcDbPoint
 10
-9.766620891412827
 20
2.980037195910853
 30
0.0
  0
ENDBLK
  5
E0
330
D9
100
AcDbEntity
  8
0
100
AcDbBlockEnd
  0
BLOCK
  5
E2
330
E1
100
AcDbEntity
  8
0
100
AcDbBlockBegin
  2
*D12
 70
     1
 10
0.0
 20
0.0
 30
0.0
  3
*D12
  1

  0
LINE
  5
E3
330
E1
100
AcDbEntity
  8
0
 62
     0
370
    -2
100
AcDbLine
 10
-4.426620891412851
 20
32.99463015287159
 30
0.0
 11
-4.426620891412887
 21
39.1600371959108
 31
0.0
  0
MTEXT
  5
E4
330
E1
100
AcDbEntity
  8
0
 62
     0
100
AcDbMText
 10
-4.426620891412891
 20
40.59937052924412
 30
0.0
 40
0.7040000000000001
 41
0.0
 71
     5
 72
     1
  1
\A1;5.340
 11
0.0000000000000001
 21
1.0
 31
0.0
 73
     1
 44
1.0
1001
ACAD
1000
MTEXTBEGIN
1070
    73
1070
     1
1070
    44
1040
1.0
1070
    74
1070
     0
1000
MTEXTEND
  0
POINT
  5
E5
330
E1
100
AcDbEntity
  8
Defpoints
 62
     0
100
AcDbPoint
 10
-4.426620891412851
 20
32.74463015287159
 30
0.0
  0
POINT
  5
E6
330
E1
100
AcDbEntity
  8
Defpoints
 62
     0
100
AcDbPoint
 10
-4.426620891412887
 20
39.1600371959108
 30
0.0
  0
POINT
  5
E7
330
E1
100
AcDbEntity
  8
Defpoints
 62
     0
100
AcDbPoint
 10
-9.766620891412827
 20
2.980037195910853
 30
0.0
  0
ENDBLK
  5
E8
330
E1
100
AcDbEntity
  8
0
100
AcDbBlockEnd
  0
BLOCK
  5
EA
330
E9
100
AcDbEntity
  8
0
100
AcDbBlockBegin
  2
*D13
 70
     1
 10
0.0
 20
0.0
 30
0.0
  3
*D13
  1

  0
LINE
  5
EB
330
E9
100
AcDbEntity
  8
0
 62
     0
370
    -2
100
AcDbLine
 10
-0.4266208914128528
 20
37.0700371959108
 30
0.0
 11
1.913379108587125
 21
37.0700371959108
 31
0.0
  0
MTEXT
  5
EC
330
E9
100
AcDbEntity
  8
0
 62
     0
100
AcDbMText
 10
3.646045775253791
 20
37.0700371959108
 30
0.0
 40
0.7040000000000001
 41
0.0
 71
     5
 72
     1
  1
\A1;34.090
 73
     1
 44
1.0
1001
ACAD
1000
MTEXTBEGIN
1070
    73
1070
     1
1070
    44
1040
1.0
1070
    74
1070
     0
1000
MTEXTEND
  0
POINT
  5
ED
330
E9
100
AcDbEntity
  8
Defpoints
 62
     0
100
AcDbPoint
 10
-0.6766208914128528
 20
37.0700371959108
 30
0.0
  0
POINT
  5
EE
330
E9
100
AcDbEntity
  8
Defpoints
 62
     0
100
AcDbPoint
 10
1.913379108587125
 20
37.0700371959108
 30
0.0
  0
POINT
  5
EF
330
E9
100
AcDbEntity
  8
Defpoints
 62
     0
100
AcDbPoint
 10
-9.766620891412827
 20
2.980037195910853
 30
0.0
  0
ENDBLK
  5
F0
330
E9
100
AcDbEntity
  8
0
100
AcDbBlockEnd
  0
BLOCK
  5
F2
330
F1
100
AcDbEntity
  8
0
100
AcDbBlockBegin
  2
*D14
 70
     1
 10
0.0
 20
0.0
 30
0.0
  3
*D14
  1

  0
LINE
  5
F3
330
F1
100
AcDbEntity
  8
0
 62
     0
370
    -2
100
AcDbLine
 10
0.9133791085871223
 20
38.41003719591083
 30
0.0
 11
0.9133791085871223
 21
39.16003719591083
 31
0.0
  0
MTEXT
  5
F4
330
F1
100
AcDbEntity
  8
0
 62
     0
100
AcDbMText
 10
0.9133791085871159
 20
40.77537052924415
 30
0.0
 40
0.7040000000000001
 41
0.0
 71
     5
 72
     1
  1
\A1;10.680
 11
0.0000000000000001
 21
1.0
 31
0.0
 73
     1
 44
1.0
1001
ACAD
1000
MTEXTBEGIN
1070
    73
1070
     1
1070
    44
1040
1.0
1070
    74
1070
     0
1000
MTEXTEND
  0
POINT
  5
F5
330
F1
100
AcDbEntity
  8
Defpoints
 62
     0
100
AcDbPoint
 10
0.9133791085871223
 20
38.16003719591083
 30
0.0
  0
POINT
  5
F6
330
F1
100
AcDbEntity
  8
Defpoints
 62
     0
100
AcDbPoint
 10
0.9133791085871223
 20
39.16003719591083
 30
0.0
  0
POINT
  5
F7
330
F1
100
AcDbEntity
  8
Defpoints
 62
     0
100
AcDbPoint
 10
-9.766620891412827
 20
2.980037195910853
 30
0.0
  0
ENDBLK
  5
F8
330
F1
100
AcDbEntity
  8
0
100
AcDbBlockEnd
  0
BLOCK
  5
FA
330
F9
100
AcDbEntity
  8
0
100
AcDbBlockBegin
  2
*D15
 70
     1
 10
0.0
 20
0.0
 30
0.0
  3
*D15
  1

  0
LINE
  5
FB
330
F9
100
AcDbEntity
  8
0
 62
     0
370
    -2
100
AcDbLine
 10
1.163379108587122
 20
38.16003719591083
 30
0.0
 11
1.913379108587121
 21
38.16003719591083
 31
0.0
  0
MTEXT
  5
FC
330
F9
100
AcDbEntity
  8
0
 62
     0
100
AcDbMText
 10
3.587379108587121
 20
38.16003719591083
 30
0.0
 40
0.7040000000000001
 41
0.0
 71
     5
 72
     1
  1
\A1;35.180
 73
     1
 44
1.0
1001
ACAD
1000
MTEXTBEGIN
1070
    73
1070
     1
1070
    44
1040
1.0
1070
    74
1070
     0
1000
MTEXTEND
  0
POINT
  5
FD
330
F9
100
AcDbEntity
  8
Defpoints
 62
     0
100
AcDbPoint
 10
0.9133791085871223
 20
38.16003719591083
 30
0.0
  0
POINT
  5
FE
330
F9
100
AcDbEntity
  8
Defpoints
 62
     0
100
AcDbPoint
 10
1.913379108587121
 20
38.16003719591083
 30
0.0
  0
POINT
  5
FF
330
F9
100
AcDbEntity
  8
Defpoints
 62
     0
100
AcDbPoint
 10
-9.766620891412827
 20
2.980037195910853
 30
0.0
  0
ENDBLK
  5
100
330
F9
100
AcDbEntity
  8
0
100
AcDbBlockEnd
  0
BLOCK
  5
102
330
101
100
AcDbEntity
  8
0
100
AcDbBlockBegin
  2
*D16
 70
     1
 10
0.0
 20
0.0
 30
0.0
  3
*D16
  1

  0
LINE
  5
103
330
101
100
AcDbEntity
  8
0
 62
     0
370
    -2
100
AcDbLine
 10
-0.2586845797285662
 20
28.44455855231414
 30
0.0
 11
-0.2586845797285664
 21
27.61979745013329
 31
0.0
  0
LINE
  5
104
330
101
100
AcDbEntity
  8
0
 62
     0
370
    -2
100
AcDbLine
 10
-0.2586845797285664
 20
27.61979745013329
 30
0.0
 11
-1.26153583616417
 21
27.25979745013329
 31
0.0
  0
LINE
  5
105
330
101
100
AcDbEntity
  8
0
 62
     0
370
    -2
100
AcDbLine
 10
-1.26153583616417
 20
27.25979745013329
 30
0.0
 11
-1.26153583616417
 21
26.89979745013329
 31
0.0
  0
MTEXT
  5
106
330
101
100
AcDbEntity
  8
0
 62
     0
100
AcDbMText
 10
-1.261535836164175
 20
25.46046411679996
 30
0.0
 40
0.7040000000000001
 41
0.0
 71
     5
 72
     1
  1
\A1;9.508
 11
0.0000000000000001
 21
1.0
 31
0.0
 73
     1
 44
1.0
1001
ACAD
1000
MTEXTBEGIN
1070
    73
1070
     1
1070
    44
1040
1.0
1070
    74
1070
     0
1000
MTEXTEND
  0
POINT
  5
107
330
101
100
AcDbEntity
  8
Defpoints
 62
     0
100
AcDbPoint
 10
-0.2586845797285662
 20
28.69455855231413
 30
0.0
  0
POINT
  5
108
330
101
100
AcDbEntity
  8
Defpoints
 62
     0
100
AcDbPoint
 10
-1.26153583616417
 20
26.89979745013329
 30
0.0
  0
POINT
  5
109
330
101
100
AcDbEntity
  8
Defpoints
 62
     0
100
AcDbPoint
 10
-9.766620891412827
 20
2.980037195910853
 30
0.0
  0
ENDBLK
  5
10A
330
101
100
AcDbEntity
  8
0
100
AcDbBlockEnd
  0
BLOCK
  5
10C
330
10B
100
AcDbEntity
  8
0
100
AcDbBlockBegin
  2
*D17
 70
     1
 10
0.0
 20
0.0
 30
0.0
  3
*D17
  1

  0
LINE
  5
10D
330
10B
100
AcDbEntity
  8
0
 62
     0
370
    -2
100
AcDbLine
 10
-9.266620891412882
 20
14.76183597998153
 30
0.0
 11
-9.266620891412882
 21
13.60903457198342
 31
0.0
  0
LINE
  5
10E
330
10B
100
AcDbEntity
  8
0
 62
     0
370
    -2
100
AcDbLine
 10
-9.266620891412882
 20
13.60903457198342
 30
0.0
 11
-6.872217601492593
 21
13.24903457198341
 31
0.0
  0
LINE
  5
10F
330
10B
100
AcDbEntity
  8
0
 62
     0
370
    -2
100
AcDbLine
 10
-6.872217601492593
 20
13.24903457198341
 30
0.0
 11
-6.872217601492593
 21
12.88903457198341
 31
0.0
  0
MTEXT
  5
110
330
10B
100
AcDbEntity
  8
0
 62
     0
100
AcDbMText
 10
-6.872217601492594
 20
11.56703457198341
 30
0.0
 40
0.7040000000000001
 41
0.0
 71
     5
 72
     1
  1
\A1;0.500
 11
0.0000000000000001
 21
1.0
 31
0.0
 73
     1
 44
1.0
1001
ACAD
1000
MTEXTBEGIN
1070
    73
1070
     1
1070
    44
1040
1.0
1070
    74
1070
     0
1000
MTEXTEND
  0
POINT
  5
111
330
10B
100
AcDbEntity
  8
Defpoints
 62
     0
100
AcDbPoint
 10
-9.266620891412882
 20
15.01183597998152
 30
0.0
  0
POINT
  5
112
330
10B
100
AcDbEntity
  8
Defpoints
 62
     0
100
AcDbPoint
 10
-6.872217601492593
 20
12.88903457198341
 30
0.0
  0
POINT
  5
113
330
10B
100
AcDbEntity
  8
Defpoints
 62
     0
100
AcDbPoint
 10
-9.766620891412827
 20
2.980037195910853
 30
0.0
  0
ENDBLK
  5
114
330
10B
100
AcDbEntity
  8
0
100
AcDbBlockEnd
  0
BLOCK
  5
116
330
115
100
AcDbEntity
  8
0
100
AcDbBlockBegin
  2
*D18
 70
     1
 10
0.0
 20
0.0
 30
0.0
  3
*D18
  1

  0
LINE
  5
117
330
115
100
AcDbEntity
  8
0
 62
     0
370
    -2
100
AcDbLine
 10
0.4133791085871791
 20
14.7618359799815
 30
0.0
 11
0.413379108587179
 21
13.60903457198342
 31
0.0
  0
LINE
  5
118
330
115
100
AcDbEntity
  8
0
 62
     0
370
    -2
100
AcDbLine
 10
0.413379108587179
 20
13.60903457198342
 30
0.0
 11
-1.981024181333054
 21
13.24903457198341
 31
0.0
  0
LINE
  5
119
330
115
100
AcDbEntity
  8
0
 62
     0
370
    -2
100
AcDbLine
 10
-1.981024181333054
 20
13.24903457198341
 30
0.0
 11
-1.981024181333054
 21
12.88903457198341
 31
0.0
  0
MTEXT
  5
11A
330
115
100
AcDbEntity
  8
0
 62
     0
100
AcDbMText
 10
-1.981024181333056
 20
11.39103457198341
 30
0.0
 40
0.7040000000000001
 41
0.0
 71
     5
 72
     1
  1
\A1;10.180
 11
0.0000000000000001
 21
1.0
 31
0.0
 73
     1
 44
1.0
1001
ACAD
1000
MTEXTBEGIN
1070
    73
1070
     1
1070
    44
1040
1.0
1070
    74
1070
     0
1000
MTEXTEND
  0
POINT
  5
11B
330
115
100
AcDbEntity
  8
Defpoints
 62
     0
100
AcDbPoint
 10
0.4133791085871792
 20
15.01183597998149
 30
0.0
  0
POINT
  5
11C
330
115
100
AcDbEntity
  8
Defpoints
 62
     0
100
AcDbPoint
 10
-1.981024181333054
 20
12.88903457198341
 30
0.0
  0
POINT
  5
11D
330
115
100
AcDbEntity
  8
Defpoints
 62
     0
100
AcDbPoint
 10
-9.766620891412827
 20
2.980037195910853
 30
0.0
  0
ENDBLK
  5
11E
330
115
100
AcDbEntity
  8
0
100
AcDbBlockEnd
  0
BLOCK
  5
120
330
11F
100
AcDbEntity
  8
0
100
AcDbBlockBegin
  2
*D19
 70
     1
 10
0.0
 20
0.0
 30
0.0
  3
*D19
  1

  0
LINE
  5
121
330
11F
100
AcDbEntity
  8
0
 62
     0
370
    -2
100
AcDbLine
 10
2.617379108587153
 20
35.17018772308366
 30
0.0
 11
1.913379108587151
 21
35.17018772308366
 31
0.0
  0
LINE
  5
122
330
11F
100
AcDbEntity
  8
0
 62
     0
370
    -2
100
AcDbLine
 10
1.913379108587151
 20
35.17018772308366
 30
0.0
 11
0.5505641529565786
 21
34.64880189777956
 31
0.0
  0
MTEXT
  5
123
330
11F
100
AcDbEntity
  8
0
 62
     0
100
AcDbMText
 10
4.408712441920487
 20
35.17018772308367
 30
0.0
 40
0.7040000000000001
 41
0.0
 71
     5
 72
     1
  1
\A1;\U+22059.250
 73
     1
 44
1.0
1001
ACAD
1000
MTEXTBEGIN
1070
    73
1070
     1
1070
    44
1040
1.0
1070
    74
1070
     0
1000
MTEXTEND
  0
SOLID
  5
124
330
11F
100
AcDbEntity
  8
0
 62
     0
100
AcDbTrace
 10
0.5086383098210554
 20
34.75838900828299
 30
0.0
 11
0.5924899960921019
 21
34.53921478727615
 31
0.0
 12
-0.1069585100638832
 22
34.39724683896642
 32
0.0
 13
-0.1069585100638832
 23
34.39724683896642
 33
0.0
  0
LINE
  5
125
330
11F
100
AcDbEntity
  8
0
 62
     0
370
    -2
100
AcDbLine
 10
-4.516620891412793
 20
32.74463015287159
 30
0.0
 11
-4.336620891412795
 21
32.74463015287159
 31
0.0
  0
LINE
  5
126
330
11F
100
AcDbEntity
  8
0
 62
     0
370
    -2
100
AcDbLine
 10
-4.426620891412794
 20
32.65463015287159
 30
0.0
 11
-4.426620891412794
 21
32.83463015287161
 31
0.0
  0
POINT
  5
127
330
11F
100
AcDbEntity
  8
Defpoints
 62
     0
100
AcDbPoint
 10
-0.1069585100638832
 20
34.39724683896642
 30
0.0
  0
POINT
  5
128
330
11F
100
AcDbEntity
  8
Defpoints
 62
     0
100
AcDbPoint
 10
-8.746283272761706
 20
31.09201346677677
 30
0.0
  0
ENDBLK
  5
129
330
11F
100
AcDbEntity
  8
0
100
AcDbBlockEnd
  0
BLOCK
  5
12B
330
12A
100
AcDbEntity
  8
0
100
AcDbBlockBegin
  2
*D20
 70
     1
 10
0.0
 20
0.0
 30
0.0
  3
*D20
  1

  0
LINE
  5
12C
330
12A
100
AcDbEntity
  8
0
 62
     0
370
    -2
100
AcDbLine
 10
2.617379108587154
 20
31.68138376156747
 30
0.0
 11
1.913379108587154
 21
31.68138376156747
 31
0.0
  0
LINE
  5
12D
330
12A
100
AcDbEntity
  8
0
 62
     0
370
    -2
100
AcDbLine
 10
1.913379108587154
 20
31.68138376156747
 30
0.0
 11
0.5229549278414522
 21
29.76939839164169
 31
0.0
  0
MTEXT
  5
12E
330
12A
100
AcDbEntity
  8
0
 62
     0
100
AcDbMText
 10
4.291379108587153
 20
31.68138376156747
 30
0.0
 40
0.7040000000000001
 41
0.0
 71
     5
 72
     1
  1
\A1;\U+22051.250
 73
     1
 44
1.0
1001
ACAD
1000
MTEXTBEGIN
1070
    73
1070
     1
1070
    44
1040
1.0
1070
    74
1070
     0
1000
MTEXTEND
  0
SOLID
  5
12F
330
12A
100
AcDbEntity
  8
0
 62
     0
100
AcDbTrace
 10
0.4280606154654035
 20
29.83840694610988
 30
0.0
 11
0.6178492402175007
 21
29.70038983717351
 31
0.0
 12
0.1089036010323525
 22
29.20003251738542
 32
0.0
 13
0.1089036010323525
 23
29.20003251738542
 33
0.0
  0
LINE
  5
130
330
12A
100
AcDbEntity
  8
0
 62
     0
370
    -2
100
AcDbLine
 10
-0.348684579728566
 20
28.69455855231413
 30
0.0
 11
-0.1686845797285681
 21
28.69455855231413
 31
0.0
  0
LINE
  5
131
330
12A
100
AcDbEntity
  8
0
 62
     0
370
    -2
100
AcDbLine
 10
-0.2586845797285679
 20
28.60455855231413
 30
0.0
 11
-0.2586845797285662
 21
28.78455855231413
 31
0.0
  0
POINT
  5
132
330
12A
100
AcDbEntity
  8
Defpoints
 62
     0
100
AcDbPoint
 10
0.1089036010323525
 20
29.20003251738542
 30
0.0
  0
POINT
  5
133
330
12A
100
AcDbEntity
  8
Defpoints
 62
     0
100
AcDbPoint
 10
-0.6262727604894849
 20
28.18908458724286
 30
0.0
  0
ENDBLK
  5
134
330
12A
100
AcDbEntity
  8
0
100
AcDbBlockEnd
  0
BLOCK
  5
136
330
135
100
AcDbEntity
  8
0
100
AcDbBlockBegin
  2
*D21
 70
     1
 10
0.0
 20
0.0
 30
0.0
  3
*D21
  1

  0
LINE
  5
137
330
135
100
AcDbEntity
  8
0
 62
     0
370
    -2
100
AcDbLine
 10
2.617379108587148
 20
20.53861155350523
 30
0.0
 11
1.913379108587147
 21
20.53861155350523
 31
0.0
  0
LINE
  5
138
330
135
100
AcDbEntity
  8
0
 62
     0
370
    -2
100
AcDbLine
 10
1.913379108587147
 20
20.53861155350523
 30
0.0
 11
-0.0975192938573955
 21
22.89223664286547
 31
0.0
  0
MTEXT
  5
139
330
135
100
AcDbEntity
  8
0
 62
     0
100
AcDbMText
 10
4.408712441920482
 20
20.53861155350523
 30
0.0
 40
0.7040000000000001
 41
0.0
 71
     5
 72
     1
  1
\A1;\U+22050.375
 73
     1
 44
1.0
1001
ACAD
1000
MTEXTBEGIN
1070
    73
1070
     1
1070
    44
1040
1.0
1070
    74
1070
     0
1000
MTEXTEND
  0
SOLID
  5
13A
330
135
100
AcDbEntity
  8
0
 62
     0
100
AcDbTrace
 10
-0.008311668255601
 20
22.96845416477219
 30
0.0
 11
-0.1867269194591881
 21
22.81601912095875
 31
0.0
 12
-0.5548244252977117
 22
23.42748239647623
 32
0.0
 13
-0.5548244252977117
 23
23.42748239647623
 33
0.0
  0
LINE
  5
13B
330
135
100
AcDbEntity
  8
0
 62
     0
370
    -2
100
AcDbLine
 10
-0.7666208914128509
 20
23.57003719591091
 30
0.0
 11
-0.5866208914128511
 21
23.57003719591092
 31
0.0
  0
LINE
  5
13C
330
135
100
AcDbEntity
  8
0
 62
     0
370
    -2
100
AcDbLine
 10
-0.6766208914128545
 20
23.48003719591091
 30
0.0
 11
-0.6766208914128509
 21
23.66003719591092
 31
0.0
  0
POINT
  5
13D
330
135
100
AcDbEntity
  8
Defpoints
 62
     0
100
AcDbPoint
 10
-0.5548244252977117
 20
23.42748239647623
 30
0.0
  0
POINT
  5
13E
330
135
100
AcDbEntity
  8
Defpoints
 62
     0
100
AcDbPoint
 10
-0.7984173575279936
 20
23.7125919953456
 30
0.0
  0
ENDBLK
  5
13F
330
135
100
AcDbEntity
  8
0
100
AcDbBlockEnd
  0
BLOCK
  5
1D7
330
1CF
100
AcDbEntity
  8
0
100
AcDbBlockBegin
  2
*D22
 70
     1
 10
0.0
 20
0.0
 30
0.0
  3
*D22
  1

  0
LINE
  5
23E
330
1CF
100
AcDbEntity
  8
0
 62
     0
370
    -2
100
AcDbLine
 10
23.20948308716226
 20
7.368545847591092
 30
0.0
 11
23.20948308716226
 21
6.215744439592982
 31
0.0
  0
LINE
  5
23F
330
1CF
100
AcDbEntity
  8
0
 62
     0
370
    -2
100
AcDbLine
 10
23.20948308716226
 20
6.215744439592982
 30
0.0
 11
25.60388637708256
 21
5.855744439592982
 31
0.0
  0
LINE
  5
240
330
1CF
100
AcDbEntity
  8
0
 62
     0
370
    -2
100
AcDbLine
 10
25.60388637708256
 20
5.855744439592982
 30
0.0
 11
25.60388637708256
 21
5.495744439592981
 31
0.0
  0
MTEXT
  5
241
330
1CF
100
AcDbEntity
  8
0
 62
     0
100
AcDbMText
 10
25.60388637708256
 20
4.173744439592986
 30
0.0
 40
0.7040000000000001
 41
0.0
 71
     5
 72
     1
  1
\A1;0.500
 11
0.0000000000000001
 21
1.0
 31
0.0
 73
     1
 44
1.0
1001
ACAD
1000
MTEXTBEGIN
1070
    73
1070
     1
1070
    44
1040
1.0
1070
    74
1070
     0
1000
MTEXTEND
  0
POINT
  5
242
330
1CF
100
AcDbEntity
  8
Defpoints
 62
     0
100
AcDbPoint
 10
23.20948308716226
 20
7.618545847591092
 30
0.0
  0
POINT
  5
243
330
1CF
100
AcDbEntity
  8
Defpoints
 62
     0
100
AcDbPoint
 10
25.60388637708256
 20
5.495744439592981
 30
0.0
  0
POINT
  5
244
330
1CF
100
AcDbEntity
  8
Defpoints
 62
     0
100
AcDbPoint
 10
22.70948308716232
 20
-4.41325293647958
 30
0.0
  0
ENDBLK
  5
1D8
330
1CF
100
AcDbEntity
  8
0
100
AcDbBlockEnd
  0
BLOCK
  5
1E1
330
1D9
100
AcDbEntity
  8
0
100
AcDbBlockBegin
  2
*D23
 70
     1
 10
0.0
 20
0.0
 30
0.0
  3
*D23
  1

  0
LINE
  5
799
330
1D9
100
AcDbEntity
  8
0
 62
     0
370
    -2
100
AcDbLine
 10
32.21741939884658
 20
21.0512684199237
 30
0.0
 11
32.21741939884658
 21
19.50650731774285
 31
0.0
  0
MTEXT
  5
79A
330
1D9
100
AcDbEntity
  8
0
 62
     0
100
AcDbMText
 10
32.21741939884657
 20
18.06717398440952
 30
0.0
 40
0.7040000000000001
 41
0.0
 71
     5
 72
     1
  1
\A1;9.508
 11
0.0000000000000001
 21
1.0
 31
0.0
 73
     1
 44
1.0
1001
ACAD
1000
MTEXTBEGIN
1070
    73
1070
     1
1070
    44
1040
1.0
1070
    74
1070
     0
1000
MTEXTEND
  0
POINT
  5
79B
330
1D9
100
AcDbEntity
  8
Defpoints
 62
     0
100
AcDbPoint
 10
32.21741939884658
 20
21.3012684199237
 30
0.0
  0
POINT
  5
79C
330
1D9
100
AcDbEntity
  8
Defpoints
 62
     0
100
AcDbPoint
 10
32.21741939884658
 20
19.50650731774285
 30
0.0
  0
POINT
  5
79D
330
1D9
100
AcDbEntity
  8
Defpoints
 62
     0
100
AcDbPoint
 10
22.70948308716232
 20
-4.41325293647958
 30
0.0
  0
ENDBLK
  5
1E2
330
1D9
100
AcDbEntity
  8
0
100
AcDbBlockEnd
  0
BLOCK
  5
1E9
330
1E3
100
AcDbEntity
  8
0
100
AcDbBlockBegin
  2
*D24
 70
     1
 10
0.0
 20
0.0
 30
0.0
  3
*D24
  1

  0
LINE
  5
24C
330
1E3
100
AcDbEntity
  8
0
 62
     0
370
    -2
100
AcDbLine
 10
33.63948308716227
 20
30.7667470635204
 30
0.0
 11
34.38948308716227
 21
30.7667470635204
 31
0.0
  0
MTEXT
  5
24D
330
1E3
100
AcDbEntity
  8
0
 62
     0
100
AcDbMText
 10
36.06348308716228
 20
30.7667470635204
 30
0.0
 40
0.7040000000000001
 41
0.0
 71
     5
 72
     1
  1
\A1;35.180
 73
     1
 44
1.0
1001
ACAD
1000
MTEXTBEGIN
1070
    73
1070
     1
1070
    44
1040
1.0
1070
    74
1070
     0
1000
MTEXTEND
  0
POINT
  5
24E
330
1E3
100
AcDbEntity
  8
Defpoints
 62
     0
100
AcDbPoint
 10
33.38948308716227
 20
30.7667470635204
 30
0.0
  0
POINT
  5
24F
330
1E3
100
AcDbEntity
  8
Defpoints
 62
     0
100
AcDbPoint
 10
34.38948308716227
 20
30.7667470635204
 30
0.0
  0
POINT
  5
250
330
1E3
100
AcDbEntity
  8
Defpoints
 62
     0
100
AcDbPoint
 10
22.70948308716232
 20
-4.41325293647958
 30
0.0
  0
ENDBLK
  5
1EA
330
1E3
100
AcDbEntity
  8
0
100
AcDbBlockEnd
  0
BLOCK
  5
1F1
330
1EB
100
AcDbEntity
  8
0
100
AcDbBlockBegin
  2
*D25
 70
     1
 10
0.0
 20
0.0
 30
0.0
  3
*D25
  1

  0
LINE
  5
261
330
1EB
100
AcDbEntity
  8
0
 62
     0
370
    -2
100
AcDbLine
 10
28.04948308716229
 20
25.60134002048116
 30
0.0
 11
28.04948308716226
 21
31.76674706352037
 31
0.0
  0
MTEXT
  5
262
330
1EB
100
AcDbEntity
  8
0
 62
     0
100
AcDbMText
 10
28.04948308716225
 20
33.2060803968537
 30
0.0
 40
0.7040000000000001
 41
0.0
 71
     5
 72
     1
  1
\A1;5.340
 11
0.0000000000000001
 21
1.0
 31
0.0
 73
     1
 44
1.0
1001
ACAD
1000
MTEXTBEGIN
1070
    73
1070
     1
1070
    44
1040
1.0
1070
    74
1070
     0
1000
MTEXTEND
  0
POINT
  5
263
330
1EB
100
AcDbEntity
  8
Defpoints
 62
     0
100
AcDbPoint
 10
28.04948308716229
 20
25.35134002048116
 30
0.0
  0
POINT
  5
264
330
1EB
100
AcDbEntity
  8
Defpoints
 62
     0
100
AcDbPoint
 10
28.04948308716226
 20
31.76674706352037
 30
0.0
  0
POINT
  5
265
330
1EB
100
AcDbEntity
  8
Defpoints
 62
     0
100
AcDbPoint
 10
22.70948308716232
 20
-4.41325293647958
 30
0.0
  0
ENDBLK
  5
1F2
330
1EB
100
AcDbEntity
  8
0
100
AcDbBlockEnd
  0
BLOCK
  5
1F9
330
1F3
100
AcDbEntity
  8
0
100
AcDbBlockBegin
  2
*D26
 70
     1
 10
0.0
 20
0.0
 30
0.0
  3
*D26
  1

  0
LINE
  5
28E
330
1F3
100
AcDbEntity
  8
0
 62
     0
370
    -2
100
AcDbLine
 10
32.04948308716229
 20
5.176747063520393
 30
0.0
 11
34.38948308716236
 21
5.176747063520436
 31
0.0
  0
MTEXT
  5
28F
330
1F3
100
AcDbEntity
  8
0
 62
     0
100
AcDbMText
 10
35.82881642049569
 20
5.176747063520436
 30
0.0
 40
0.7040000000000001
 41
0.0
 71
     5
 72
     1
  1
\A1;9.590
 73
     1
 44
1.0
1001
ACAD
1000
MTEXTBEGIN
1070
    73
1070
     1
1070
    44
1040
1.0
1070
    74
1070
     0
1000
MTEXTEND
  0
POINT
  5
290
330
1F3
100
AcDbEntity
  8
Defpoints
 62
     0
100
AcDbPoint
 10
31.79948308716229
 20
5.176747063520393
 30
0.0
  0
POINT
  5
291
330
1F3
100
AcDbEntity
  8
Defpoints
 62
     0
100
AcDbPoint
 10
34.38948308716236
 20
5.176747063520436
 30
0.0
  0
POINT
  5
292
330
1F3
100
AcDbEntity
  8
Defpoints
 62
     0
100
AcDbPoint
 10
22.70948308716232
 20
-4.41325293647958
 30
0.0
  0
ENDBLK
  5
1FA
330
1F3
100
AcDbEntity
  8
0
100
AcDbBlockEnd
  0
BLOCK
  5
201
330
1FB
100
AcDbEntity
  8
0
100
AcDbBlockBegin
  2
*D27
 70
     1
 10
0.0
 20
0.0
 30
0.0
  3
*D27
  1

  0
LINE
  5
29B
330
1FB
100
AcDbEntity
  8
0
 62
     0
370
    -2
100
AcDbLine
 10
24.29948308716235
 20
-2.073252936479633
 30
0.0
 11
24.29948308716235
 21
-5.413252936479572
 31
0.0
  0
MTEXT
  5
29C
330
1FB
100
AcDbEntity
  8
0
 62
     0
100
AcDbMText
 10
24.29948308716235
 20
-6.735252936479568
 30
0.0
 40
0.7040000000000001
 41
0.0
 71
     5
 72
     1
  1
\A1;1.590
 11
0.0000000000000001
 21
1.0
 31
0.0
 73
     1
 44
1.0
1001
ACAD
1000
MTEXTBEGIN
1070
    73
1070
     1
1070
    44
1040
1.0
1070
    74
1070
     0
1000
MTEXTEND
  0
POINT
  5
29D
330
1FB
100
AcDbEntity
  8
Defpoints
 62
     0
100
AcDbPoint
 10
24.29948308716235
 20
-1.823252936479633
 30
0.0
  0
POINT
  5
29E
330
1FB
100
AcDbEntity
  8
Defpoints
 62
     0
100
AcDbPoint
 10
24.29948308716235
 20
-5.413252936479572
 30
0.0
  0
POINT
  5
29F
330
1FB
100
AcDbEntity
  8
Defpoints
 62
     0
100
AcDbPoint
 10
22.70948308716232
 20
-4.41325293647958
 30
0.0
  0
ENDBLK
  5
202
330
1FB
100
AcDbEntity
  8
0
100
AcDbBlockEnd
  0
BLOCK
  5
209
330
203
100
AcDbEntity
  8
0
100
AcDbBlockBegin
  2
*D28
 70
     1
 10
0.0
 20
0.0
 30
0.0
  3
*D28
  1

  0
LINE
  5
2A0
330
203
100
AcDbEntity
  8
0
 62
     0
370
    -2
100
AcDbLine
 10
32.04948308716229
 20
-1.823252936479633
 30
0.0
 11
34.38948308716238
 21
-1.823252936479589
 31
0.0
  0
MTEXT
  5
2A1
330
203
100
AcDbEntity
  8
0
 62
     0
100
AcDbMText
 10
35.82881642049571
 20
-1.823252936479589
 30
0.0
 40
0.7040000000000001
 41
0.0
 71
     5
 72
     1
  1
\A1;2.590
 73
     1
 44
1.0
1001
ACAD
1000
MTEXTBEGIN
1070
    73
1070
     1
1070
    44
1040
1.0
1070
    74
1070
     0
1000
MTEXTEND
  0
POINT
  5
2A2
330
203
100
AcDbEntity
  8
Defpoints
 62
     0
100
AcDbPoint
 10
31.79948308716229
 20
-1.823252936479633
 30
0.0
  0
POINT
  5
2A3
330
203
100
AcDbEntity
  8
Defpoints
 62
     0
100
AcDbPoint
 10
34.38948308716238
 20
-1.823252936479589
 30
0.0
  0
POINT
  5
2A4
330
203
100
AcDbEntity
  8
Defpoints
 62
     0
100
AcDbPoint
 10
22.70948308716232
 20
-4.41325293647958
 30
0.0
  0
ENDBLK
  5
20A
330
203
100
AcDbEntity
  8
0
100
AcDbBlockEnd
  0
BLOCK
  5
211
330
20B
100
AcDbEntity
  8
0
100
AcDbBlockBegin
  2
*D29
 70
     1
 10
0.0
 20
0.0
 30
0.0
  3
*D29
  1

  0
LINE
  5
2A5
330
20B
100
AcDbEntity
  8
0
 62
     0
370
    -2
100
AcDbLine
 10
22.70948308716232
 20
-4.66325293647958
 30
0.0
 11
22.70948308716232
 21
-5.41325293647958
 31
0.0
  0
MTEXT
  5
2A6
330
20B
100
AcDbEntity
  8
0
 62
     0
100
AcDbMText
 10
22.70948308716232
 20
-6.67658626981291
 30
0.0
 40
0.7040000000000001
 41
0.0
 71
     5
 72
     1
  1
\A1;0.000
 11
0.0000000000000001
 21
1.0
 31
0.0
 73
     1
 44
1.0
1001
ACAD
1000
MTEXTBEGIN
1070
    73
1070
     1
1070
    44
1040
1.0
1070
    74
1070
     0
1000
MTEXTEND
  0
POINT
  5
2A7
330
20B
100
AcDbEntity
  8
Defpoints
 62
     0
100
AcDbPoint
 10
22.70948308716232
 20
-4.41325293647958
 30
0.0
  0
POINT
  5
2A8
330
20B
100
AcDbEntity
  8
Defpoints
 62
     0
100
AcDbPoint
 10
22.70948308716232
 20
-5.41325293647958
 30
0.0
  0
POINT
  5
2A9
330
20B
100
AcDbEntity
  8
Defpoints
 62
     0
100
AcDbPoint
 10
22.70948308716232
 20
-4.41325293647958
 30
0.0
  0
ENDBLK
  5
212
330
20B
100
AcDbEntity
  8
0
100
AcDbBlockEnd
  0
BLOCK
  5
21C
330
213
100
AcDbEntity
  8
0
100
AcDbBlockBegin
  2
*D30
 70
     1
 10
0.0
 20
0.0
 30
0.0
  3
*D30
  1

  0
LINE
  5
214
330
213
100
AcDbEntity
  8
0
 62
     0
370
    -2
100
AcDbLine
 10
35.09348308716234
 20
13.1453214211148
 30
0.0
 11
34.38948308716233
 21
13.1453214211148
 31
0.0
  0
LINE
  5
215
330
213
100
AcDbEntity
  8
0
 62
     0
370
    -2
100
AcDbLine
 10
34.38948308716233
 20
13.1453214211148
 30
0.0
 11
32.37858468471776
 21
15.49894651047504
 31
0.0
  0
MTEXT
  5
216
330
213
100
AcDbEntity
  8
0
 62
     0
100
AcDbMText
 10
36.88481642049566
 20
13.1453214211148
 30
0.0
 40
0.7040000000000001
 41
0.0
 71
     5
 72
     1
  1
\A1;\U+22050.375
 73
     1
 44
1.0
1001
ACAD
1000
MTEXTBEGIN
1070
    73
1070
     1
1070
    44
1040
1.0
1070
    74
1070
     0
1000
MTEXTEND
  0
SOLID
  5
217
330
213
100
AcDbEntity
  8
0
 62
     0
100
AcDbTrace
 10
32.46779231031955
 20
15.57516403238176
 30
0.0
 11
32.28937705911596
 21
15.42272898856831
 31
0.0
 12
31.92127955327744
 22
16.03419226408579
 32
0.0
 13
31.92127955327744
 23
16.03419226408579
 33
0.0
  0
LINE
  5
218
330
213
100
AcDbEntity
  8
0
 62
     0
370
    -2
100
AcDbLine
 10
31.70948308716229
 20
16.17674706352048
 30
0.0
 11
31.88948308716229
 21
16.17674706352048
 31
0.0
  0
LINE
  5
219
330
213
100
AcDbEntity
  8
0
 62
     0
370
    -2
100
AcDbLine
 10
31.79948308716229
 20
16.08674706352047
 30
0.0
 11
31.79948308716229
 21
16.26674706352047
 31
0.0
  0
POINT
  5
21A
330
213
100
AcDbEntity
  8
Defpoints
 62
     0
100
AcDbPoint
 10
31.92127955327744
 20
16.03419226408579
 30
0.0
  0
POINT
  5
21B
330
213
100
AcDbEntity
  8
Defpoints
 62
     0
100
AcDbPoint
 10
31.67768662104715
 20
16.31930186295516
 30
0.0
  0
ENDBLK
  5
21D
330
213
100
AcDbEntity
  8
0
100
AcDbBlockEnd
  0
BLOCK
  5
227
330
21E
100
AcDbEntity
  8
0
100
AcDbBlockBegin
  2
*D31
 70
     1
 10
0.0
 20
0.0
 30
0.0
  3
*D31
  1

  0
LINE
  5
2B2
330
21E
100
AcDbEntity
  8
0
 62
     0
370
    -2
100
AcDbLine
 10
35.09348308716231
 20
24.28809362917704
 30
0.0
 11
34.38948308716229
 21
24.28809362917704
 31
0.0
  0
LINE
  5
2B3
330
21E
100
AcDbEntity
  8
0
 62
     0
370
    -2
100
AcDbLine
 10
34.38948308716229
 20
24.28809362917704
 30
0.0
 11
32.99905890641659
 21
22.37610825925127
 31
0.0
  0
MTEXT
  5
2B4
330
21E
100
AcDbEntity
  8
0
 62
     0
100
AcDbMText
 10
36.76748308716231
 20
24.28809362917704
 30
0.0
 40
0.7040000000000001
 41
0.0
 71
     5
 72
     1
  1
\A1;\U+22051.250
 73
     1
 44
1.0
1001
ACAD
1000
MTEXTBEGIN
1070
    73
1070
     1
1070
    44
1040
1.0
1070
    74
1070
     0
1000
MTEXTEND
  0
SOLID
  5
2B5
330
21E
100
AcDbEntity
  8
0
 62
     0
100
AcDbTrace
 10
32.90416459404055
 20
22.44511681371945
 30
0.0
 11
33.09395321879265
 21
22.30709970478308
 31
0.0
 12
32.5850075796075
 22
21.80674238499499
 32
0.0
 13
32.5850075796075
 23
21.80674238499499
 33
0.0
  0
LINE
  5
2B6
330
21E
100
AcDbEntity
  8
0
 62
     0
370
    -2
100
AcDbLine
 10
32.12741939884658
 20
21.30126841992371
 30
0.0
 11
32.30741939884659
 21
21.30126841992371
 31
0.0
  0
LINE
  5
2B7
330
21E
100
AcDbEntity
  8
0
 62
     0
370
    -2
100
AcDbLine
 10
32.21741939884659
 20
21.21126841992371
 30
0.0
 11
32.21741939884659
 21
21.39126841992371
 31
0.0
  0
POINT
  5
2B8
330
21E
100
AcDbEntity
  8
Defpoints
 62
     0
100
AcDbPoint
 10
32.5850075796075
 20
21.80674238499499
 30
0.0
  0
POINT
  5
2B9
330
21E
100
AcDbEntity
  8
Defpoints
 62
     0
100
AcDbPoint
 10
31.84983121808568
 20
20.79579445485244
 30
0.0
  0
ENDBLK
  5
228
330
21E
100
AcDbEntity
  8
0
100
AcDbBlockEnd
  0
BLOCK
  5
232
330
229
100
AcDbEntity
  8
0
100
AcDbBlockBegin
  2
*D32
 70
     1
 10
0.0
 20
0.0
 30
0.0
  3
*D32
  1

  0
LINE
  5
2BA
330
229
100
AcDbEntity
  8
0
 62
     0
370
    -2
100
AcDbLine
 10
35.09348308716231
 20
27.77689759069323
 30
0.0
 11
34.38948308716231
 21
27.77689759069323
 31
0.0
  0
LINE
  5
2BB
330
229
100
AcDbEntity
  8
0
 62
     0
370
    -2
100
AcDbLine
 10
34.38948308716231
 20
27.77689759069323
 30
0.0
 11
33.02666813153173
 21
27.25551176538913
 31
0.0
  0
MTEXT
  5
2BC
330
229
100
AcDbEntity
  8
0
 62
     0
100
AcDbMText
 10
36.88481642049565
 20
27.77689759069324
 30
0.0
 40
0.7040000000000001
 41
0.0
 71
     5
 72
     1
  1
\A1;\U+22059.250
 73
     1
 44
1.0
1001
ACAD
1000
MTEXTBEGIN
1070
    73
1070
     1
1070
    44
1040
1.0
1070
    74
1070
     0
1000
MTEXTEND
  0
SOLID
  5
2BD
330
229
100
AcDbEntity
  8
0
 62
     0
100
AcDbTrace
 10
32.98474228839622
 20
27.36509887589254
 30
0.0
 11
33.06859397466725
 21
27.14592465488572
 31
0.0
 12
32.36914546851127
 22
27.003956706576
 32
0.0
 13
32.36914546851127
 23
27.003956706576
 33
0.0
  0
LINE
  5
2BE
330
229
100
AcDbEntity
  8
0
 62
     0
370
    -2
100
AcDbLine
 10
27.95948308716238
 20
25.35134002048117
 30
0.0
 11
28.13948308716236
 21
25.35134002048117
 31
0.0
  0
LINE
  5
2BF
330
229
100
AcDbEntity
  8
0
 62
     0
370
    -2
100
AcDbLine
 10
28.04948308716236
 20
25.26134002048117
 30
0.0
 11
28.04948308716236
 21
25.44134002048116
 31
0.0
  0
POINT
  5
2C0
330
229
100
AcDbEntity
  8
Defpoints
 62
     0
100
AcDbPoint
 10
32.36914546851127
 20
27.003956706576
 30
0.0
  0
POINT
  5
2C1
330
229
100
AcDbEntity
  8
Defpoints
 62
     0
100
AcDbPoint
 10
23.72982070581344
 20
23.69872333438634
 30
0.0
  0
ENDBLK
  5
233
330
229
100
AcDbEntity
  8
0
100
AcDbBlockEnd
  0
BLOCK
  5
23C
330
234
100
AcDbEntity
  8
0
100
AcDbBlockBegin
  2
*D33
 70
     1
 10
0.0
 20
0.0
 30
0.0
  3
*D33
  1

  0
LINE
  5
235
330
234
100
AcDbEntity
  8
0
 62
     0
370
    -2
100
AcDbLine
 10
32.88948308716233
 20
7.368545847591065
 30
0.0
 11
32.88948308716233
 21
6.215744439592982
 31
0.0
  0
LINE
  5
236
330
234
100
AcDbEntity
  8
0
 62
     0
370
    -2
100
AcDbLine
 10
32.88948308716233
 20
6.215744439592982
 30
0.0
 11
30.49507979724209
 21
5.855744439592982
 31
0.0
  0
LINE
  5
237
330
234
100
AcDbEntity
  8
0
 62
     0
370
    -2
100
AcDbLine
 10
30.49507979724209
 20
5.855744439592982
 30
0.0
 11
30.49507979724209
 21
5.495744439592981
 31
0.0
  0
MTEXT
  5
238
330
234
100
AcDbEntity
  8
0
 62
     0
100
AcDbMText
 10
30.49507979724209
 20
3.997744439592986
 30
0.0
 40
0.7040000000000001
 41
0.0
 71
     5
 72
     1
  1
\A1;10.180
 11
0.0000000000000001
 21
1.0
 31
0.0
 73
     1
 44
1.0
1001
ACAD
1000
MTEXTBEGIN
1070
    73
1070
     1
1070
    44
1040
1.0
1070
    74
1070
     0
1000
MTEXTEND
  0
POINT
  5
239
330
234
100
AcDbEntity
  8
Defpoints
 62
     0
100
AcDbPoint
 10
32.88948308716233
 20
7.618545847591065
 30
0.0
  0
POINT
  5
23A
330
234
100
AcDbEntity
  8
Defpoints
 62
     0
100
AcDbPoint
 10
30.49507979724209
 20
5.495744439592981
 30
0.0
  0
POINT
  5
23B
330
234
100
AcDbEntity
  8
Defpoints
 62
     0
100
AcDbPoint
 10
22.70948308716232
 20
-4.41325293647958
 30
0.0
  0
ENDBLK
  5
23D
330
234
100
AcDbEntity
  8
0
100
AcDbBlockEnd
  0
BLOCK
  5
257
330
251
100
AcDbEntity
  8
0
100
AcDbBlockBegin
  2
*D34
 70
     1
 10
0.0
 20
0.0
 30
0.0
  3
*D34
  1

  0
LINE
  5
252
330
251
100
AcDbEntity
  8
0
 62
     0
370
    -2
100
AcDbLine
 10
33.38948308716227
 20
31.0167470635204
 30
0.0
 11
33.38948308716227
 21
31.76674706352039
 31
0.0
  0
MTEXT
  5
253
330
251
100
AcDbEntity
  8
0
 62
     0
100
AcDbMText
 10
33.38948308716226
 20
33.38208039685373
 30
0.0
 40
0.7040000000000001
 41
0.0
 71
     5
 72
     1
  1
\A1;10.680
 11
0.0000000000000001
 21
1.0
 31
0.0
 73
     1
 44
1.0
1001
ACAD
1000
MTEXTBEGIN
1070
    73
1070
     1
1070
    44
1040
1.0
1070
    74
1070
     0
1000
MTEXTEND
  0
POINT
  5
254
330
251
100
AcDbEntity
  8
Defpoints
 62
     0
100
AcDbPoint
 10
33.38948308716227
 20
30.7667470635204
 30
0.0
  0
POINT
  5
255
330
251
100
AcDbEntity
  8
Defpoints
 62
     0
100
AcDbPoint
 10
33.38948308716227
 20
31.76674706352039
 30
0.0
  0
POINT
  5
256
330
251
100
AcDbEntity
  8
Defpoints
 62
     0
100
AcDbPoint
 10
22.70948308716232
 20
-4.41325293647958
 30
0.0
  0
ENDBLK
  5
258
330
251
100
AcDbEntity
  8
0
100
AcDbBlockEnd
  0
BLOCK
  5
25F
330
259
100
AcDbEntity
  8
0
100
AcDbBlockBegin
  2
*D35
 70
     1
 10
0.0
 20
0.0
 30
0.0
  3
*D35
  1

  0
LINE
  5
25A
330
259
100
AcDbEntity
  8
0
 62
     0
370
    -2
100
AcDbLine
 10
32.04948308716229
 20
29.67674706352037
 30
0.0
 11
34.38948308716228
 21
29.67674706352037
 31
0.0
  0
MTEXT
  5
25B
330
259
100
AcDbEntity
  8
0
 62
     0
100
AcDbMText
 10
36.12214975382894
 20
29.67674706352037
 30
0.0
 40
0.7040000000000001
 41
0.0
 71
     5
 72
     1
  1
\A1;34.090
 73
     1
 44
1.0
1001
ACAD
1000
MTEXTBEGIN
1070
    73
1070
     1
1070
    44
1040
1.0
1070
    74
1070
     0
1000
MTEXTEND
  0
POINT
  5
25C
330
259
100
AcDbEntity
  8
Defpoints
 62
     0
100
AcDbPoint
 10
31.79948308716229
 20
29.67674706352037
 30
0.0
  0
POINT
  5
25D
330
259
100
AcDbEntity
  8
Defpoints
 62
     0
100
AcDbPoint
 10
34.38948308716228
 20
29.67674706352037
 30
0.0
  0
POINT
  5
25E
330
259
100
AcDbEntity
  8
Defpoints
 62
     0
100
AcDbPoint
 10
22.70948308716232
 20
-4.41325293647958
 30
0.0
  0
ENDBLK
  5
260
330
259
100
AcDbEntity
  8
0
100
AcDbBlockEnd
  0
BLOCK
  5
26C
330
266
100
AcDbEntity
  8
0
100
AcDbBlockBegin
  2
*D36
 70
     1
 10
0.0
 20
0.0
 30
0.0
  3
*D36
  1

  0
LINE
  5
267
330
266
100
AcDbEntity
  8
0
 62
     0
370
    -2
100
AcDbLine
 10
27.79948308716235
 20
25.35134002048116
 30
0.0
 11
21.7094830871623
 21
25.35134002048121
 31
0.0
  0
MTEXT
  5
268
330
266
100
AcDbEntity
  8
0
 62
     0
100
AcDbMText
 10
19.8594830871623
 20
25.35134002048121
 30
0.0
 40
0.7040000000000001
 41
0.0
 71
     5
 72
     1
  1
\A1;29.765
 73
     1
 44
1.0
1001
ACAD
1000
MTEXTBEGIN
1070
    73
1070
     1
1070
    44
1040
1.0
1070
    74
1070
     0
1000
MTEXTEND
  0
POINT
  5
269
330
266
100
AcDbEntity
  8
Defpoints
 62
     0
100
AcDbPoint
 10
28.04948308716235
 20
25.35134002048116
 30
0.0
  0
POINT
  5
26A
330
266
100
AcDbEntity
  8
Defpoints
 62
     0
100
AcDbPoint
 10
21.7094830871623
 20
25.35134002048121
 30
0.0
  0
POINT
  5
26B
330
266
100
AcDbEntity
  8
Defpoints
 62
     0
100
AcDbPoint
 10
22.70948308716232
 20
-4.41325293647958
 30
0.0
  0
ENDBLK
  5
26D
330
266
100
AcDbEntity
  8
0
100
AcDbBlockEnd
  0
BLOCK
  5
274
330
26E
100
AcDbEntity
  8
0
100
AcDbBlockBegin
  2
*D37
 70
     1
 10
0.0
 20
0.0
 30
0.0
  3
*D37
  1

  0
LINE
  5
26F
330
26E
100
AcDbEntity
  8
0
 62
     0
370
    -2
100
AcDbLine
 10
32.46741939884658
 20
21.3012684199237
 30
0.0
 11
34.3894830871623
 21
21.3012684199237
 31
0.0
  0
MTEXT
  5
270
330
26E
100
AcDbEntity
  8
0
 62
     0
100
AcDbMText
 10
36.12214975382896
 20
21.3012684199237
 30
0.0
 40
0.7040000000000001
 41
0.0
 71
     5
 72
     1
  1
\A1;25.715
 73
     1
 44
1.0
1001
ACAD
1000
MTEXTBEGIN
1070
    73
1070
     1
1070
    44
1040
1.0
1070
    74
1070
     0
1000
MTEXTEND
  0
POINT
  5
271
330
26E
100
AcDbEntity
  8
Defpoints
 62
     0
100
AcDbPoint
 10
32.21741939884658
 20
21.3012684199237
 30
0.0
  0
POINT
  5
272
330
26E
100
AcDbEntity
  8
Defpoints
 62
     0
100
AcDbPoint
 10
34.3894830871623
 20
21.3012684199237
 30
0.0
  0
POINT
  5
273
330
26E
100
AcDbEntity
  8
Defpoints
 62
     0
100
AcDbPoint
 10
22.70948308716232
 20
-4.41325293647958
 30
0.0
  0
ENDBLK
  5
275
330
26E
100
AcDbEntity
  8
0
100
AcDbBlockEnd
  0
BLOCK
  5
27C
330
276
100
AcDbEntity
  8
0
100
AcDbBlockBegin
  2
*D38
 70
     1
 10
0.0
 20
0.0
 30
0.0
  3
*D38
  1

  0
LINE
  5
277
330
276
100
AcDbEntity
  8
0
 62
     0
370
    -2
100
AcDbLine
 10
32.04948308716229
 20
16.17674706352048
 30
0.0
 11
34.38948308716232
 21
16.17674706352048
 31
0.0
  0
MTEXT
  5
278
330
276
100
AcDbEntity
  8
0
 62
     0
100
AcDbMText
 10
36.122149753829
 20
16.17674706352048
 30
0.0
 40
0.7040000000000001
 41
0.0
 71
     5
 72
     1
  1
\A1;20.590
 73
     1
 44
1.0
1001
ACAD
1000
MTEXTBEGIN
1070
    73
1070
     1
1070
    44
1040
1.0
1070
    74
1070
     0
1000
MTEXTEND
  0
POINT
  5
279
330
276
100
AcDbEntity
  8
Defpoints
 62
     0
100
AcDbPoint
 10
31.79948308716229
 20
16.17674706352048
 30
0.0
  0
POINT
  5
27A
330
276
100
AcDbEntity
  8
Defpoints
 62
     0
100
AcDbPoint
 10
34.38948308716232
 20
16.17674706352048
 30
0.0
  0
POINT
  5
27B
330
276
100
AcDbEntity
  8
Defpoints
 62
     0
100
AcDbPoint
 10
22.70948308716232
 20
-4.41325293647958
 30
0.0
  0
ENDBLK
  5
27D
330
276
100
AcDbEntity
  8
0
100
AcDbBlockEnd
  0
BLOCK
  5
284
330
27E
100
AcDbEntity
  8
0
100
AcDbBlockBegin
  2
*D39
 70
     1
 10
0.0
 20
0.0
 30
0.0
  3
*D39
  1

  0
LINE
  5
27F
330
27E
100
AcDbEntity
  8
0
 62
     0
370
    -2
100
AcDbLine
 10
22.95948308716226
 20
10.72479584759136
 30
0.0
 11
21.70948308716226
 21
10.72479584759136
 31
0.0
  0
MTEXT
  5
280
330
27E
100
AcDbEntity
  8
0
 62
     0
100
AcDbMText
 10
20.09414975382892
 20
10.72479584759136
 30
0.0
 40
0.7040000000000001
 41
0.0
 71
     5
 72
     1
  1
\A1;15.138
 73
     1
 44
1.0
1001
ACAD
1000
MTEXTBEGIN
1070
    73
1070
     1
1070
    44
1040
1.0
1070
    74
1070
     0
1000
MTEXTEND
  0
POINT
  5
281
330
27E
100
AcDbEntity
  8
Defpoints
 62
     0
100
AcDbPoint
 10
23.20948308716226
 20
10.72479584759136
 30
0.0
  0
POINT
  5
282
330
27E
100
AcDbEntity
  8
Defpoints
 62
     0
100
AcDbPoint
 10
21.70948308716226
 20
10.72479584759136
 30
0.0
  0
POINT
  5
283
330
27E
100
AcDbEntity
  8
Defpoints
 62
     0
100
AcDbPoint
 10
22.70948308716232
 20
-4.41325293647958
 30
0.0
  0
ENDBLK
  5
285
330
27E
100
AcDbEntity
  8
0
100
AcDbBlockEnd
  0
BLOCK
  5
28C
330
286
100
AcDbEntity
  8
0
100
AcDbBlockBegin
  2
*D40
 70
     1
 10
0.0
 20
0.0
 30
0.0
  3
*D40
  1

  0
LINE
  5
287
330
286
100
AcDbEntity
  8
0
 62
     0
370
    -2
100
AcDbLine
 10
22.95948308716226
 20
7.618545847591092
 30
0.0
 11
21.70948308716225
 21
7.618545847591092
 31
0.0
  0
MTEXT
  5
288
330
286
100
AcDbEntity
  8
0
 62
     0
100
AcDbMText
 10
20.03548308716224
 20
7.618545847591092
 30
0.0
 40
0.7040000000000001
 41
0.0
 71
     5
 72
     1
  1
\A1;12.032
 73
     1
 44
1.0
1001
ACAD
1000
MTEXTBEGIN
1070
    73
1070
     1
1070
    44
1040
1.0
1070
    74
1070
     0
1000
MTEXTEND
  0
POINT
  5
289
330
286
100
AcDbEntity
  8
Defpoints
 62
     0
100
AcDbPoint
 10
23.20948308716226
 20
7.618545847591092
 30
0.0
  0
POINT
  5
28A
330
286
100
AcDbEntity
  8
Defpoints
 62
     0
100
AcDbPoint
 10
21.70948308716225
 20
7.618545847591092
 30
0.0
  0
POINT
  5
28B
330
286
100
AcDbEntity
  8
Defpoints
 62
     0
100
AcDbPoint
 10
22.70948308716232
 20
-4.41325293647958
 30
0.0
  0
ENDBLK
  5
28D
330
286
100
AcDbEntity
  8
0
100
AcDbBlockEnd
  0
BLOCK
  5
299
330
293
100
AcDbEntity
  8
0
100
AcDbBlockBegin
  2
*D41
 70
     1
 10
0.0
 20
0.0
 30
0.0
  3
*D41
  1

  0
LINE
  5
294
330
293
100
AcDbEntity
  8
0
 62
     0
370
    -2
100
AcDbLine
 10
31.79948308716229
 20
-2.073252936479633
 30
0.0
 11
31.79948308716229
 21
-5.41325293647953
 31
0.0
  0
MTEXT
  5
295
330
293
100
AcDbEntity
  8
0
 62
     0
100
AcDbMText
 10
31.79948308716229
 20
-6.793919603146191
 30
0.0
 40
0.7040000000000001
 41
0.0
 71
     5
 72
     1
  1
\A1;9.090
 11
0.0000000000000001
 21
1.0
 31
0.0
 73
     1
 44
1.0
1001
ACAD
1000
MTEXTBEGIN
1070
    73
1070
     1
1070
    44
1040
1.0
1070
    74
1070
     0
1000
MTEXTEND
  0
POINT
  5
296
330
293
100
AcDbEntity
  8
Defpoints
 62
     0
100
AcDbPoint
 10
31.79948308716229
 20
-1.823252936479633
 30
0.0
  0
POINT
  5
297
330
293
100
AcDbEntity
  8
Defpoints
 62
     0
100
AcDbPoint
 10
31.79948308716229
 20
-5.41325293647953
 30
0.0
  0
POINT
  5
298
330
293
100
AcDbEntity
  8
Defpoints
 62
     0
100
AcDbPoint
 10
22.70948308716232
 20
-4.41325293647958
 30
0.0
  0
ENDBLK
  5
29A
330
293
100
AcDbEntity
  8
0
100
AcDbBlockEnd
  0
BLOCK
  5
2B0
330
2AA
100
AcDbEntity
  8
0
100
AcDbBlockBegin
  2
*D42
 70
     1
 10
0.0
 20
0.0
 30
0.0
  3
*D42
  1

  0
LINE
  5
2AB
330
2AA
100
AcDbEntity
  8
0
 62
     0
370
    -2
100
AcDbLine
 10
22.4594830871622
 20
-4.41325293647958
 30
0.0
 11
21.70948308716221
 21
-4.41325293647958
 31
0.0
  0
MTEXT
  5
2AC
330
2AA
100
AcDbEntity
  8
0
 62
     0
100
AcDbMText
 10
20.44614975382887
 20
-4.41325293647958
 30
0.0
 40
0.7040000000000001
 41
0.0
 71
     5
 72
     1
  1
\A1;0.000
 73
     1
 44
1.0
1001
ACAD
1000
MTEXTBEGIN
1070
    73
1070
     1
1070
    44
1040
1.0
1070
    74
1070
     0
1000
MTEXTEND
  0
POINT
  5
2AD
330
2AA
100
AcDbEntity
  8
Defpoints
 62
     0
100
AcDbPoint
 10
22.70948308716221
 20
-4.41325293647958
 30
0.0
  0
POINT
  5
2AE
330
2AA
100
AcDbEntity
  8
Defpoints
 62
     0
100
AcDbPoint
 10
21.70948308716221
 20
-4.41325293647958
 30
0.0
  0
POINT
  5
2AF
330
2AA
100
AcDbEntity
  8
Defpoints
 62
     0
100
AcDbPoint
 10
22.70948308716232
 20
-4.41325293647958
 30
0.0
  0
ENDBLK
  5
2B1
330
2AA
100
AcDbEntity
  8
0
100
AcDbBlockEnd
  0
BLOCK
  5
559
330
558
100
AcDbEntity
  8
0
100
AcDbBlockBegin
  2
*D43
 70
     1
 10
0.0
 20
0.0
 30
0.0
  3
*D43
  1

  0
LINE
  5
55A
330
558
100
AcDbEntity
  8
0
 62
     0
370
    -2
100
AcDbLine
 10
-10.01662089141294
 20
2.980037195910853
 30
0.0
 11
-10.76662089141294
 21
2.980037195910853
 31
0.0
  0
MTEXT
  5
55B
330
558
100
AcDbEntity
  8
0
 62
     0
100
AcDbMText
 10
-12.02995422474627
 20
2.980037195910853
 30
0.0
 40
0.7040000000000001
 41
0.0
 71
     5
 72
     1
  1
\A1;0.000
 73
     1
 44
1.0
1001
ACAD
1000
MTEXTBEGIN
1070
    73
1070
     1
1070
    44
1040
1.0
1070
    74
1070
     0
1000
MTEXTEND
  0
POINT
  5
55C
330
558
100
AcDbEntity
  8
Defpoints
 62
     0
100
AcDbPoint
 10
-9.766620891412939
 20
2.980037195910853
 30
0.0
  0
POINT
  5
55D
330
558
100
AcDbEntity
  8
Defpoints
 62
     0
100
AcDbPoint
 10
-10.76662089141294
 20
2.980037195910853
 30
0.0
  0
POINT
  5
55E
330
558
100
AcDbEntity
  8
Defpoints
 62
     0
100
AcDbPoint
 10
-9.766620891412827
 20
2.980037195910853
 30
0.0
  0
ENDBLK
  5
55F
330
558
100
AcDbEntity
  8
0
100
AcDbBlockEnd
  0
BLOCK
  5
561
330
560
100
AcDbEntity
  8
0
100
AcDbBlockBegin
  2
*D44
 70
     1
 10
0.0
 20
0.0
 30
0.0
  3
*D44
  1

  0
LINE
  5
562
330
560
100
AcDbEntity
  8
0
 62
     0
370
    -2
100
AcDbLine
 10
-9.766620891412827
 20
2.730037195910853
 30
0.0
 11
-9.766620891412827
 21
1.980037195910853
 31
0.0
  0
MTEXT
  5
563
330
560
100
AcDbEntity
  8
0
 62
     0
100
AcDbMText
 10
-9.766620891412827
 20
0.7167038625775181
 30
0.0
 40
0.7040000000000001
 41
0.0
 71
     5
 72
     1
  1
\A1;0.000
 11
0.0000000000000001
 21
1.0
 31
0.0
 73
     1
 44
1.0
1001
ACAD
1000
MTEXTBEGIN
1070
    73
1070
     1
1070
    44
1040
1.0
1070
    74
1070
     0
1000
MTEXTEND
  0
POINT
  5
564
330
560
100
AcDbEntity
  8
Defpoints
 62
     0
100
AcDbPoint
 10
-9.766620891412827
 20
2.980037195910853
 30
0.0
  0
POINT
  5
565
330
560
100
AcDbEntity
  8
Defpoints
 62
     0
100
AcDbPoint
 10
-9.766620891412827
 20
1.980037195910853
 30
0.0
  0
POINT
  5
566
330
560
100
AcDbEntity
  8
Defpoints
 62
     0
100
AcDbPoint
 10
-9.766620891412827
 20
2.980037195910853
 30
0.0
  0
ENDBLK
  5
567
330
560
100
AcDbEntity
  8
0
100
AcDbBlockEnd
  0
BLOCK
  5
569
330
568
100
AcDbEntity
  8
0
100
AcDbBlockBegin
  2
*D45
 70
     1
 10
0.0
 20
0.0
 30
0.0
  3
*D45
  1

  0
LINE
  5
56A
330
568
100
AcDbEntity
  8
0
 62
     0
370
    -2
100
AcDbLine
 10
-0.4266208914128529
 20
5.570037195910797
 30
0.0
 11
1.913379108587226
 21
5.570037195910841
 31
0.0
  0
MTEXT
  5
56B
330
568
100
AcDbEntity
  8
0
 62
     0
100
AcDbMText
 10
3.35271244192056
 20
5.570037195910841
 30
0.0
 40
0.7040000000000001
 41
0.0
 71
     5
 72
     1
  1
\A1;2.590
 73
     1
 44
1.0
1001
ACAD
1000
MTEXTBEGIN
1070
    73
1070
     1
1070
    44
1040
1.0
1070
    74
1070
     0
1000
MTEXTEND
  0
POINT
  5
56C
330
568
100
AcDbEntity
  8
Defpoints
 62
     0
100
AcDbPoint
 10
-0.6766208914128528
 20
5.570037195910797
 30
0.0
  0
POINT
  5
56D
330
568
100
AcDbEntity
  8
Defpoints
 62
     0
100
AcDbPoint
 10
1.913379108587226
 20
5.570037195910841
 30
0.0
  0
POINT
  5
56E
330
568
100
AcDbEntity
  8
Defpoints
 62
     0
100
AcDbPoint
 10
-9.766620891412827
 20
2.980037195910853
 30
0.0
  0
ENDBLK
  5
56F
330
568
100
AcDbEntity
  8
0
100
AcDbBlockEnd
  0
BLOCK
  5
571
330
570
100
AcDbEntity
  8
0
100
AcDbBlockBegin
  2
*D46
 70
     1
 10
0.0
 20
0.0
 30
0.0
  3
*D46
  1

  0
LINE
  5
572
330
570
100
AcDbEntity
  8
0
 62
     0
370
    -2
100
AcDbLine
 10
-8.176620891412794
 20
5.320037195910797
 30
0.0
 11
-8.176620891412794
 21
1.98003719591086
 31
0.0
  0
MTEXT
  5
573
330
570
100
AcDbEntity
  8
0
 62
     0
100
AcDbMText
 10
-8.176620891412794
 20
0.6580371959108609
 30
0.0
 40
0.7040000000000001
 41
0.0
 71
     5
 72
     1
  1
\A1;1.590
 11
0.0000000000000001
 21
1.0
 31
0.0
 73
     1
 44
1.0
1001
ACAD
1000
MTEXTBEGIN
1070
    73
1070
     1
1070
    44
1040
1.0
1070
    74
1070
     0
1000
MTEXTEND
  0
POINT
  5
574
330
570
100
AcDbEntity
  8
Defpoints
 62
     0
100
AcDbPoint
 10
-8.176620891412794
 20
5.570037195910797
 30
0.0
  0
POINT
  5
575
330
570
100
AcDbEntity
  8
Defpoints
 62
     0
100
AcDbPoint
 10
-8.176620891412794
 20
1.98003719591086
 30
0.0
  0
POINT
  5
576
330
570
100
AcDbEntity
  8
Defpoints
 62
     0
100
AcDbPoint
 10
-9.766620891412827
 20
2.980037195910853
 30
0.0
  0
ENDBLK
  5
577
330
570
100
AcDbEntity
  8
0
100
AcDbBlockEnd
  0
BLOCK
  5
579
330
578
100
AcDbEntity
  8
0
100
AcDbBlockBegin
  2
*D47
 70
     1
 10
0.0
 20
0.0
 30
0.0
  3
*D47
  1

  0
LINE
  5
57A
330
578
100
AcDbEntity
  8
0
 62
     0
370
    -2
100
AcDbLine
 10
-0.6766208914128528
 20
5.320037195910797
 30
0.0
 11
-0.6766208914128528
 21
1.9800371959109
 31
0.0
  0
MTEXT
  5
57B
330
578
100
AcDbEntity
  8
0
 62
     0
100
AcDbMText
 10
-0.6766208914128531
 20
0.5993705292442347
 30
0.0
 40
0.7040000000000001
 41
0.0
 71
     5
 72
     1
  1
\A1;9.090
 11
0.0000000000000001
 21
1.0
 31
0.0
 73
     1
 44
1.0
1001
ACAD
1000
MTEXTBEGIN
1070
    73
1070
     1
1070
    44
1040
1.0
1070
    74
1070
     0
1000
MTEXTEND
  0
POINT
  5
57C
330
578
100
AcDbEntity
  8
Defpoints
 62
     0
100
AcDbPoint
 10
-0.6766208914128528
 20
5.570037195910797
 30
0.0
  0
POINT
  5
57D
330
578
100
AcDbEntity
  8
Defpoints
 62
     0
100
AcDbPoint
 10
-0.6766208914128528
 20
1.9800371959109
 30
0.0
  0
POINT
  5
57E
330
578
100
AcDbEntity
  8
Defpoints
 62
     0
100
AcDbPoint
 10
-9.766620891412827
 20
2.980037195910853
 30
0.0
  0
ENDBLK
  5
57F
330
578
100
AcDbEntity
  8
0
100
AcDbBlockEnd
  0
BLOCK
  5
581
330
580
100
AcDbEntity
  8
0
100
AcDbBlockBegin
  2
*D48
 70
     1
 10
0.0
 20
0.0
 30
0.0
  3
*D48
  1

  0
LINE
  5
582
330
580
100
AcDbEntity
  8
0
 62
     0
370
    -2
100
AcDbLine
 10
-0.4266208914128529
 20
12.57003719591083
 30
0.0
 11
1.913379108587205
 21
12.57003719591087
 31
0.0
  0
MTEXT
  5
583
330
580
100
AcDbEntity
  8
0
 62
     0
100
AcDbMText
 10
3.352712441920537
 20
12.57003719591087
 30
0.0
 40
0.7040000000000001
 41
0.0
 71
     5
 72
     1
  1
\A1;9.590
 73
     1
 44
1.0
1001
ACAD
1000
MTEXTBEGIN
1070
    73
1070
     1
1070
    44
1040
1.0
1070
    74
1070
     0
1000
MTEXTEND
  0
POINT
  5
584
330
580
100
AcDbEntity
  8
Defpoints
 62
     0
100
AcDbPoint
 10
-0.6766208914128528
 20
12.57003719591083
 30
0.0
  0
POINT
  5
585
330
580
100
AcDbEntity
  8
Defpoints
 62
     0
100
AcDbPoint
 10
1.913379108587205
 20
12.57003719591087
 30
0.0
  0
POINT
  5
586
330
580
100
AcDbEntity
  8
Defpoints
 62
     0
100
AcDbPoint
 10
-9.766620891412827
 20
2.980037195910853
 30
0.0
  0
ENDBLK
  5
587
330
580
100
AcDbEntity
  8
0
100
AcDbBlockEnd
  0
BLOCK
  5
589
330
588
100
AcDbEntity
  8
0
100
AcDbBlockBegin
  2
*D49
 70
     1
 10
0.0
 20
0.0
 30
0.0
  3
*D49
  1

  0
LINE
  5
58A
330
588
100
AcDbEntity
  8
0
 62
     0
370
    -2
100
AcDbLine
 10
-9.516620891412882
 20
15.01183597998152
 30
0.0
 11
-10.7666208914129
 21
15.01183597998152
 31
0.0
  0
MTEXT
  5
58B
330
588
100
AcDbEntity
  8
0
 62
     0
100
AcDbMText
 10
-12.4406208914129
 20
15.01183597998152
 30
0.0
 40
0.7040000000000001
 41
0.0
 71
     5
 72
     1
  1
\A1;12.032
 73
     1
 44
1.0
1001
ACAD
1000
MTEXTBEGIN
1070
    73
1070
     1
1070
    44
1040
1.0
1070
    74
1070
     0
1000
MTEXTEND
  0
POINT
  5
58C
330
588
100
AcDbEntity
  8
Defpoints
 62
     0
100
AcDbPoint
 10
-9.266620891412882
 20
15.01183597998152
 30
0.0
  0
POINT
  5
58D
330
588
100
AcDbEntity
  8
Defpoints
 62
     0
100
AcDbPoint
 10
-10.7666208914129
 20
15.01183597998152
 30
0.0
  0
POINT
  5
58E
330
588
100
AcDbEntity
  8
Defpoints
 62
     0
100
AcDbPoint
 10
-9.766620891412827
 20
2.980037195910853
 30
0.0
  0
ENDBLK
  5
58F
330
588
100
AcDbEntity
  8
0
100
AcDbBlockEnd
  0
BLOCK
  5
591
330
590
100
AcDbEntity
  8
0
100
AcDbBlockBegin
  2
*D50
 70
     1
 10
0.0
 20
0.0
 30
0.0
  3
*D50
  1

  0
LINE
  5
592
330
590
100
AcDbEntity
  8
0
 62
     0
370
    -2
100
AcDbLine
 10
-9.516620891412882
 20
18.1180859799818
 30
0.0
 11
-10.76662089141289
 21
18.1180859799818
 31
0.0
  0
MTEXT
  5
593
330
590
100
AcDbEntity
  8
0
 62
     0
100
AcDbMText
 10
-12.38195422474622
 20
18.1180859799818
 30
0.0
 40
0.7040000000000001
 41
0.0
 71
     5
 72
     1
  1
\A1;15.138
 73
     1
 44
1.0
1001
ACAD
1000
MTEXTBEGIN
1070
    73
1070
     1
1070
    44
1040
1.0
1070
    74
1070
     0
1000
MTEXTEND
  0
POINT
  5
594
330
590
100
AcDbEntity
  8
Defpoints
 62
     0
100
AcDbPoint
 10
-9.266620891412882
 20
18.1180859799818
 30
0.0
  0
POINT
  5
595
330
590
100
AcDbEntity
  8
Defpoints
 62
     0
100
AcDbPoint
 10
-10.76662089141289
 20
18.1180859799818
 30
0.0
  0
POINT
  5
596
330
590
100
AcDbEntity
  8
Defpoints
 62
     0
100
AcDbPoint
 10
-9.766620891412827
 20
2.980037195910853
 30
0.0
  0
ENDBLK
  5
597
330
590
100
AcDbEntity
  8
0
100
AcDbBlockEnd
  0
BLOCK
  5
599
330
598
100
AcDbEntity
  8
0
100
AcDbBlockBegin
  2
*D51
 70
     1
 10
0.0
 20
0.0
 30
0.0
  3
*D51
  1

  0
LINE
  5
59A
330
598
100
AcDbEntity
  8
0
 62
     0
370
    -2
100
AcDbLine
 10
-0.4266208914126556
 20
27.69812782696615
 30
0.0
 11
1.913379108587168
 21
27.69812782696615
 31
0.0
  0
MTEXT
  5
59B
330
598
100
AcDbEntity
  8
0
 62
     0
100
AcDbMText
 10
3.646045775253833
 20
27.69812782696615
 30
0.0
 40
0.7040000000000001
 41
0.0
 71
     5
 72
     1
  1
\A1;24.718
 73
     1
 44
1.0
1001
ACAD
1000
MTEXTBEGIN
1070
    73
1070
     1
1070
    44
1040
1.0
1070
    74
1070
     0
1000
MTEXTEND
  0
POINT
  5
59C
330
598
100
AcDbEntity
  8
Defpoints
 62
     0
100
AcDbPoint
 10
-0.6766208914126556
 20
27.69812782696615
 30
0.0
  0
POINT
  5
59D
330
598
100
AcDbEntity
  8
Defpoints
 62
     0
100
AcDbPoint
 10
1.913379108587168
 20
27.69812782696615
 30
0.0
  0
POINT
  5
59E
330
598
100
AcDbEntity
  8
Defpoints
 62
     0
100
AcDbPoint
 10
-9.766620891412827
 20
2.980037195910853
 30
0.0
  0
ENDBLK
  5
59F
330
598
100
AcDbEntity
  8
0
100
AcDbBlockEnd
  0
BLOCK
  5
5A1
330
5A0
100
AcDbEntity
  8
0
100
AcDbBlockBegin
  2
*D52
 70
     1
 10
0.0
 20
0.0
 30
0.0
  3
*D52
  1

  0
LINE
  5
5A2
330
5A0
100
AcDbEntity
  8
0
 62
     0
370
    -2
100
AcDbLine
 10
-0.0086845797285662
 20
28.69455855231413
 30
0.0
 11
1.913379108587149
 21
28.69455855231413
 31
0.0
  0
MTEXT
  5
5A3
330
5A0
100
AcDbEntity
  8
0
 62
     0
100
AcDbMText
 10
3.646045775253818
 20
28.69455855231413
 30
0.0
 40
0.7040000000000001
 41
0.0
 71
     5
 72
     1
  1
\A1;25.715
 73
     1
 44
1.0
1001
ACAD
1000
MTEXTBEGIN
1070
    73
1070
     1
1070
    44
1040
1.0
1070
    74
1070
     0
1000
MTEXTEND
  0
POINT
  5
5A4
330
5A0
100
AcDbEntity
  8
Defpoints
 62
     0
100
AcDbPoint
 10
-0.2586845797285662
 20
28.69455855231413
 30
0.0
  0
POINT
  5
5A5
330
5A0
100
AcDbEntity
  8
Defpoints
 62
     0
100
AcDbPoint
 10
1.913379108587149
 20
28.69455855231413
 30
0.0
  0
POINT
  5
5A6
330
5A0
100
AcDbEntity
  8
Defpoints
 62
     0
100
AcDbPoint
 10
-9.766620891412827
 20
2.980037195910853
 30
0.0
  0
ENDBLK
  5
5A7
330
5A0
100
AcDbEntity
  8
0
100
AcDbBlockEnd
  0
BLOCK
  5
5A9
330
5A8
100
AcDbEntity
  8
0
100
AcDbBlockBegin
  2
*D53
 70
     1
 10
0.0
 20
0.0
 30
0.0
  3
*D53
  1

  0
LINE
  5
5AA
330
5A8
100
AcDbEntity
  8
0
 62
     0
370
    -2
100
AcDbLine
 10
-4.676620891412794
 20
32.74463015287159
 30
0.0
 11
-10.76662089141284
 21
32.74463015287164
 31
0.0
  0
MTEXT
  5
5AB
330
5A8
100
AcDbEntity
  8
0
 62
     0
100
AcDbMText
 10
-12.61662089141284
 20
32.74463015287164
 30
0.0
 40
0.7040000000000001
 41
0.0
 71
     5
 72
     1
  1
\A1;29.765
 73
     1
 44
1.0
1001
ACAD
1000
MTEXTBEGIN
1070
    73
1070
     1
1070
    44
1040
1.0
1070
    74
1070
     0
1000
MTEXTEND
  0
POINT
  5
5AC
330
5A8
100
AcDbEntity
  8
Defpoints
 62
     0
100
AcDbPoint
 10
-4.426620891412794
 20
32.74463015287159
 30
0.0
  0
POINT
  5
5AD
330
5A8
100
AcDbEntity
  8
Defpoints
 62
     0
100
AcDbPoint
 10
-10.76662089141284
 20
32.74463015287164
 30
0.0
  0
POINT
  5
5AE
330
5A8
100
AcDbEntity
  8
Defpoints
 62
     0
100
AcDbPoint
 10
-9.766620891412827
 20
2.980037195910853
 30
0.0
  0
ENDBLK
  5
5AF
330
5A8
100
AcDbEntity
  8
0
100
AcDbBlockEnd
  0
BLOCK
  5
5B1
330
5B0
100
AcDbEntity
  8
0
100
AcDbBlockBegin
  2
*D54
 70
     1
 10
0.0
 20
0.0
 30
0.0
  3
*D54
  1

  0
LINE
  5
5B2
330
5B0
100
AcDbEntity
  8
0
 62
     0
370
    -2
100
AcDbLine
 10
-4.426620891412851
 20
32.99463015287159
 30
0.0
 11
-4.426620891412887
 21
39.1600371959108
 31
0.0
  0
MTEXT
  5
5B3
330
5B0
100
AcDbEntity
  8
0
 62
     0
100
AcDbMText
 10
-4.426620891412891
 20
40.59937052924412
 30
0.0
 40
0.7040000000000001
 41
0.0
 71
     5
 72
     1
  1
\A1;5.340
 11
0.0000000000000001
 21
1.0
 31
0.0
 73
     1
 44
1.0
1001
ACAD
1000
MTEXTBEGIN
1070
    73
1070
     1
1070
    44
1040
1.0
1070
    74
1070
     0
1000
MTEXTEND
  0
POINT
  5
5B4
330
5B0
100
AcDbEntity
  8
Defpoints
 62
     0
100
AcDbPoint
 10
-4.426620891412851
 20
32.74463015287159
 30
0.0
  0
POINT
  5
5B5
330
5B0
100
AcDbEntity
  8
Defpoints
 62
     0
100
AcDbPoint
 10
-4.426620891412887
 20
39.1600371959108
 30
0.0
  0
POINT
  5
5B6
330
5B0
100
AcDbEntity
  8
Defpoints
 62
     0
100
AcDbPoint
 10
-9.766620891412827
 20
2.980037195910853
 30
0.0
  0
ENDBLK
  5
5B7
330
5B0
100
AcDbEntity
  8
0
100
AcDbBlockEnd
  0
BLOCK
  5
5B9
330
5B8
100
AcDbEntity
  8
0
100
AcDbBlockBegin
  2
*D55
 70
     1
 10
0.0
 20
0.0
 30
0.0
  3
*D55
  1

  0
LINE
  5
5BA
330
5B8
100
AcDbEntity
  8
0
 62
     0
370
    -2
100
AcDbLine
 10
-0.4266208914128529
 20
37.0700371959108
 30
0.0
 11
1.913379108587125
 21
37.0700371959108
 31
0.0
  0
MTEXT
  5
5BB
330
5B8
100
AcDbEntity
  8
0
 62
     0
100
AcDbMText
 10
3.646045775253791
 20
37.0700371959108
 30
0.0
 40
0.7040000000000001
 41
0.0
 71
     5
 72
     1
  1
\A1;34.090
 73
     1
 44
1.0
1001
ACAD
1000
MTEXTBEGIN
1070
    73
1070
     1
1070
    44
1040
1.0
1070
    74
1070
     0
1000
MTEXTEND
  0
POINT
  5
5BC
330
5B8
100
AcDbEntity
  8
Defpoints
 62
     0
100
AcDbPoint
 10
-0.6766208914128528
 20
37.0700371959108
 30
0.0
  0
POINT
  5
5BD
330
5B8
100
AcDbEntity
  8
Defpoints
 62
     0
100
AcDbPoint
 10
1.913379108587125
 20
37.0700371959108
 30
0.0
  0
POINT
  5
5BE
330
5B8
100
AcDbEntity
  8
Defpoints
 62
     0
100
AcDbPoint
 10
-9.766620891412827
 20
2.980037195910853
 30
0.0
  0
ENDBLK
  5
5BF
330
5B8
100
AcDbEntity
  8
0
100
AcDbBlockEnd
  0
BLOCK
  5
5C1
330
5C0
100
AcDbEntity
  8
0
100
AcDbBlockBegin
  2
*D56
 70
     1
 10
0.0
 20
0.0
 30
0.0
  3
*D56
  1

  0
LINE
  5
5C2
330
5C0
100
AcDbEntity
  8
0
 62
     0
370
    -2
100
AcDbLine
 10
0.9133791085871223
 20
38.41003719591083
 30
0.0
 11
0.9133791085871223
 21
39.16003719591083
 31
0.0
  0
MTEXT
  5
5C3
330
5C0
100
AcDbEntity
  8
0
 62
     0
100
AcDbMText
 10
0.9133791085871159
 20
40.77537052924415
 30
0.0
 40
0.7040000000000001
 41
0.0
 71
     5
 72
     1
  1
\A1;10.680
 11
0.0000000000000001
 21
1.0
 31
0.0
 73
     1
 44
1.0
1001
ACAD
1000
MTEXTBEGIN
1070
    73
1070
     1
1070
    44
1040
1.0
1070
    74
1070
     0
1000
MTEXTEND
  0
POINT
  5
5C4
330
5C0
100
AcDbEntity
  8
Defpoints
 62
     0
100
AcDbPoint
 10
0.9133791085871223
 20
38.16003719591083
 30
0.0
  0
POINT
  5
5C5
330
5C0
100
AcDbEntity
  8
Defpoints
 62
     0
100
AcDbPoint
 10
0.9133791085871223
 20
39.16003719591083
 30
0.0
  0
POINT
  5
5C6
330
5C0
100
AcDbEntity
  8
Defpoints
 62
     0
100
AcDbPoint
 10
-9.766620891412827
 20
2.980037195910853
 30
0.0
  0
ENDBLK
  5
5C7
330
5C0
100
AcDbEntity
  8
0
100
AcDbBlockEnd
  0
BLOCK
  5
5C9
330
5C8
100
AcDbEntity
  8
0
100
AcDbBlockBegin
  2
*D57
 70
     1
 10
0.0
 20
0.0
 30
0.0
  3
*D57
  1

  0
LINE
  5
5CA
330
5C8
100
AcDbEntity
  8
0
 62
     0
370
    -2
100
AcDbLine
 10
1.163379108587122
 20
38.16003719591083
 30
0.0
 11
1.91337910858712
 21
38.16003719591083
 31
0.0
  0
MTEXT
  5
5CB
330
5C8
100
AcDbEntity
  8
0
 62
     0
100
AcDbMText
 10
3.587379108587121
 20
38.16003719591083
 30
0.0
 40
0.7040000000000001
 41
0.0
 71
     5
 72
     1
  1
\A1;35.180
 73
     1
 44
1.0
1001
ACAD
1000
MTEXTBEGIN
1070
    73
1070
     1
1070
    44
1040
1.0
1070
    74
1070
     0
1000
MTEXTEND
  0
POINT
  5
5CC
330
5C8
100
AcDbEntity
  8
Defpoints
 62
     0
100
AcDbPoint
 10
0.9133791085871223
 20
38.16003719591083
 30
0.0
  0
POINT
  5
5CD
330
5C8
100
AcDbEntity
  8
Defpoints
 62
     0
100
AcDbPoint
 10
1.91337910858712
 20
38.16003719591083
 30
0.0
  0
POINT
  5
5CE
330
5C8
100
AcDbEntity
  8
Defpoints
 62
     0
100
AcDbPoint
 10
-9.766620891412827
 20
2.980037195910853
 30
0.0
  0
ENDBLK
  5
5CF
330
5C8
100
AcDbEntity
  8
0
100
AcDbBlockEnd
  0
BLOCK
  5
5D1
330
5D0
100
AcDbEntity
  8
0
100
AcDbBlockBegin
  2
*D58
 70
     1
 10
0.0
 20
0.0
 30
0.0
  3
*D58
  1

  0
LINE
  5
5D2
330
5D0
100
AcDbEntity
  8
0
 62
     0
370
    -2
100
AcDbLine
 10
-0.2586845797285662
 20
28.44455855231413
 30
0.0
 11
-0.2586845797285668
 21
25.70003719591085
 31
0.0
  0
LINE
  5
5D3
330
5D0
100
AcDbEntity
  8
0
 62
     0
370
    -2
100
AcDbLine
 10
-0.2586845797285668
 20
25.70003719591085
 30
0.0
 11
-1.261535836164169
 21
25.34003719591086
 31
0.0
  0
LINE
  5
5D4
330
5D0
100
AcDbEntity
  8
0
 62
     0
370
    -2
100
AcDbLine
 10
-1.261535836164169
 20
25.34003719591086
 30
0.0
 11
-1.261535836164169
 21
24.98003719591086
 31
0.0
  0
MTEXT
  5
5D5
330
5D0
100
AcDbEntity
  8
0
 62
     0
100
AcDbMText
 10
-1.261535836164175
 20
23.54070386257752
 30
0.0
 40
0.7040000000000001
 41
0.0
 71
     5
 72
     1
  1
\A1;9.508
 11
0.0000000000000001
 21
1.0
 31
0.0
 73
     1
 44
1.0
1001
ACAD
1000
MTEXTBEGIN
1070
    73
1070
     1
1070
    44
1040
1.0
1070
    74
1070
     0
1000
MTEXTEND
  0
POINT
  5
5D6
330
5D0
100
AcDbEntity
  8
Defpoints
 62
     0
100
AcDbPoint
 10
-0.2586845797285662
 20
28.69455855231413
 30
0.0
  0
POINT
  5
5D7
330
5D0
100
AcDbEntity
  8
Defpoints
 62
     0
100
AcDbPoint
 10
-1.261535836164169
 20
24.98003719591086
 30
0.0
  0
POINT
  5
5D8
330
5D0
100
AcDbEntity
  8
Defpoints
 62
     0
100
AcDbPoint
 10
-9.766620891412827
 20
2.980037195910853
 30
0.0
  0
ENDBLK
  5
5D9
330
5D0
100
AcDbEntity
  8
0
100
AcDbBlockEnd
  0
BLOCK
  5
5DB
330
5DA
100
AcDbEntity
  8
0
100
AcDbBlockBegin
  2
*D59
 70
     1
 10
0.0
 20
0.0
 30
0.0
  3
*D59
  1

  0
LINE
  5
5DC
330
5DA
100
AcDbEntity
  8
0
 62
     0
370
    -2
100
AcDbLine
 10
-9.266620891412882
 20
14.76183597998153
 30
0.0
 11
-9.266620891412882
 21
13.60903457198342
 31
0.0
  0
LINE
  5
5DD
330
5DA
100
AcDbEntity
  8
0
 62
     0
370
    -2
100
AcDbLine
 10
-9.266620891412882
 20
13.60903457198342
 30
0.0
 11
-6.872217601492593
 21
13.24903457198341
 31
0.0
  0
LINE
  5
5DE
330
5DA
100
AcDbEntity
  8
0
 62
     0
370
    -2
100
AcDbLine
 10
-6.872217601492593
 20
13.24903457198341
 30
0.0
 11
-6.872217601492593
 21
12.88903457198341
 31
0.0
  0
MTEXT
  5
5DF
330
5DA
100
AcDbEntity
  8
0
 62
     0
100
AcDbMText
 10
-6.872217601492593
 20
11.56703457198341
 30
0.0
 40
0.7040000000000001
 41
0.0
 71
     5
 72
     1
  1
\A1;0.500
 11
0.0000000000000001
 21
1.0
 31
0.0
 73
     1
 44
1.0
1001
ACAD
1000
MTEXTBEGIN
1070
    73
1070
     1
1070
    44
1040
1.0
1070
    74
1070
     0
1000
MTEXTEND
  0
POINT
  5
5E0
330
5DA
100
AcDbEntity
  8
Defpoints
 62
     0
100
AcDbPoint
 10
-9.266620891412882
 20
15.01183597998152
 30
0.0
  0
POINT
  5
5E1
330
5DA
100
AcDbEntity
  8
Defpoints
 62
     0
100
AcDbPoint
 10
-6.872217601492593
 20
12.88903457198341
 30
0.0
  0
POINT
  5
5E2
330
5DA
100
AcDbEntity
  8
Defpoints
 62
     0
100
AcDbPoint
 10
-9.766620891412827
 20
2.980037195910853
 30
0.0
  0
ENDBLK
  5
5E3
330
5DA
100
AcDbEntity
  8
0
100
AcDbBlockEnd
  0
BLOCK
  5
5E5
330
5E4
100
AcDbEntity
  8
0
100
AcDbBlockBegin
  2
*D60
 70
     1
 10
0.0
 20
0.0
 30
0.0
  3
*D60
  1

  0
LINE
  5
5E6
330
5E4
100
AcDbEntity
  8
0
 62
     0
370
    -2
100
AcDbLine
 10
0.4133791085871791
 20
14.7618359799815
 30
0.0
 11
0.4133791085871791
 21
13.60903457198342
 31
0.0
  0
LINE
  5
5E7
330
5E4
100
AcDbEntity
  8
0
 62
     0
370
    -2
100
AcDbLine
 10
0.4133791085871791
 20
13.60903457198342
 30
0.0
 11
-1.981024181333054
 21
13.24903457198341
 31
0.0
  0
LINE
  5
5E8
330
5E4
100
AcDbEntity
  8
0
 62
     0
370
    -2
100
AcDbLine
 10
-1.981024181333054
 20
13.24903457198341
 30
0.0
 11
-1.981024181333054
 21
12.88903457198341
 31
0.0
  0
MTEXT
  5
5E9
330
5E4
100
AcDbEntity
  8
0
 62
     0
100
AcDbMText
 10
-1.981024181333054
 20
11.39103457198341
 30
0.0
 40
0.7040000000000001
 41
0.0
 71
     5
 72
     1
  1
\A1;10.180
 11
0.0000000000000001
 21
1.0
 31
0.0
 73
     1
 44
1.0
1001
ACAD
1000
MTEXTBEGIN
1070
    73
1070
     1
1070
    44
1040
1.0
1070
    74
1070
     0
1000
MTEXTEND
  0
POINT
  5
5EA
330
5E4
100
AcDbEntity
  8
Defpoints
 62
     0
100
AcDbPoint
 10
0.4133791085871792
 20
15.01183597998149
 30
0.0
  0
POINT
  5
5EB
330
5E4
100
AcDbEntity
  8
Defpoints
 62
     0
100
AcDbPoint
 10
-1.981024181333054
 20
12.88903457198341
 30
0.0
  0
POINT
  5
5EC
330
5E4
100
AcDbEntity
  8
Defpoints
 62
     0
100
AcDbPoint
 10
-9.766620891412827
 20
2.980037195910853
 30
0.0
  0
ENDBLK
  5
5ED
330
5E4
100
AcDbEntity
  8
0
100
AcDbBlockEnd
  0
BLOCK
  5
5EF
330
5EE
100
AcDbEntity
  8
0
100
AcDbBlockBegin
  2
*D61
 70
     1
 10
0.0
 20
0.0
 30
0.0
  3
*D61
  1

  0
LINE
  5
5F0
330
5EE
100
AcDbEntity
  8
0
 62
     0
370
    -2
100
AcDbLine
 10
2.617379108587153
 20
35.17018772308366
 30
0.0
 11
1.913379108587149
 21
35.17018772308366
 31
0.0
  0
LINE
  5
5F1
330
5EE
100
AcDbEntity
  8
0
 62
     0
370
    -2
100
AcDbLine
 10
1.913379108587149
 20
35.17018772308366
 30
0.0
 11
0.5505641529565786
 21
34.64880189777956
 31
0.0
  0
MTEXT
  5
5F2
330
5EE
100
AcDbEntity
  8
0
 62
     0
100
AcDbMText
 10
4.408712441920487
 20
35.17018772308367
 30
0.0
 40
0.7040000000000001
 41
0.0
 71
     5
 72
     1
  1
\A1;\U+22059.250
 73
     1
 44
1.0
1001
ACAD
1000
MTEXTBEGIN
1070
    73
1070
     1
1070
    44
1040
1.0
1070
    74
1070
     0
1000
MTEXTEND
  0
SOLID
  5
5F3
330
5EE
100
AcDbEntity
  8
0
 62
     0
100
AcDbTrace
 10
0.5086383098210554
 20
34.75838900828299
 30
0.0
 11
0.5924899960921019
 21
34.53921478727615
 31
0.0
 12
-0.1069585100638832
 22
34.39724683896642
 32
0.0
 13
-0.1069585100638832
 23
34.39724683896642
 33
0.0
  0
LINE
  5
5F4
330
5EE
100
AcDbEntity
  8
0
 62
     0
370
    -2
100
AcDbLine
 10
-4.516620891412792
 20
32.74463015287159
 30
0.0
 11
-4.336620891412795
 21
32.74463015287159
 31
0.0
  0
LINE
  5
5F5
330
5EE
100
AcDbEntity
  8
0
 62
     0
370
    -2
100
AcDbLine
 10
-4.426620891412794
 20
32.65463015287159
 30
0.0
 11
-4.426620891412794
 21
32.83463015287161
 31
0.0
  0
POINT
  5
5F6
330
5EE
100
AcDbEntity
  8
Defpoints
 62
     0
100
AcDbPoint
 10
-0.1069585100638832
 20
34.39724683896642
 30
0.0
  0
POINT
  5
5F7
330
5EE
100
AcDbEntity
  8
Defpoints
 62
     0
100
AcDbPoint
 10
-8.746283272761706
 20
31.09201346677677
 30
0.0
  0
ENDBLK
  5
5F8
330
5EE
100
AcDbEntity
  8
0
100
AcDbBlockEnd
  0
BLOCK
  5
5FA
330
5F9
100
AcDbEntity
  8
0
100
AcDbBlockBegin
  2
*D62
 70
     1
 10
0.0
 20
0.0
 30
0.0
  3
*D62
  1

  0
LINE
  5
5FB
330
5F9
100
AcDbEntity
  8
0
 62
     0
370
    -2
100
AcDbLine
 10
2.617379108587154
 20
31.68138376156747
 30
0.0
 11
1.913379108587154
 21
31.68138376156747
 31
0.0
  0
LINE
  5
5FC
330
5F9
100
AcDbEntity
  8
0
 62
     0
370
    -2
100
AcDbLine
 10
1.913379108587154
 20
31.68138376156747
 30
0.0
 11
0.5229549278414522
 21
29.76939839164169
 31
0.0
  0
MTEXT
  5
5FD
330
5F9
100
AcDbEntity
  8
0
 62
     0
100
AcDbMText
 10
4.291379108587153
 20
31.68138376156747
 30
0.0
 40
0.7040000000000001
 41
0.0
 71
     5
 72
     1
  1
\A1;\U+22051.250
 73
     1
 44
1.0
1001
ACAD
1000
MTEXTBEGIN
1070
    73
1070
     1
1070
    44
1040
1.0
1070
    74
1070
     0
1000
MTEXTEND
  0
SOLID
  5
5FE
330
5F9
100
AcDbEntity
  8
0
 62
     0
100
AcDbTrace
 10
0.4280606154654035
 20
29.83840694610988
 30
0.0
 11
0.6178492402175007
 21
29.70038983717351
 31
0.0
 12
0.1089036010323525
 22
29.20003251738542
 32
0.0
 13
0.1089036010323525
 23
29.20003251738542
 33
0.0
  0
LINE
  5
5FF
330
5F9
100
AcDbEntity
  8
0
 62
     0
370
    -2
100
AcDbLine
 10
-0.348684579728566
 20
28.69455855231413
 30
0.0
 11
-0.1686845797285681
 21
28.69455855231413
 31
0.0
  0
LINE
  5
600
330
5F9
100
AcDbEntity
  8
0
 62
     0
370
    -2
100
AcDbLine
 10
-0.2586845797285679
 20
28.60455855231413
 30
0.0
 11
-0.2586845797285662
 21
28.78455855231413
 31
0.0
  0
POINT
  5
601
330
5F9
100
AcDbEntity
  8
Defpoints
 62
     0
100
AcDbPoint
 10
0.1089036010323525
 20
29.20003251738542
 30
0.0
  0
POINT
  5
602
330
5F9
100
AcDbEntity
  8
Defpoints
 62
     0
100
AcDbPoint
 10
-0.6262727604894849
 20
28.18908458724286
 30
0.0
  0
ENDBLK
  5
603
330
5F9
100
AcDbEntity
  8
0
100
AcDbBlockEnd
  0
BLOCK
  5
605
330
604
100
AcDbEntity
  8
0
100
AcDbBlockBegin
  2
*D63
 70
     1
 10
0.0
 20
0.0
 30
0.0
  3
*D63
  1

  0
LINE
  5
606
330
604
100
AcDbEntity
  8
0
 62
     0
370
    -2
100
AcDbLine
 10
-11.55583137259786
 20
24.66670218456047
 30
0.0
 11
-10.85183137259786
 21
24.66670218456048
 31
0.0
  0
LINE
  5
607
330
604
100
AcDbEntity
  8
0
 62
     0
370
    -2
100
AcDbLine
 10
-10.85183137259786
 20
24.66670218456048
 30
0.0
 11
-8.766509040525406
 21
27.02969367049577
 31
0.0
  0
MTEXT
  5
608
330
604
100
AcDbEntity
  8
0
 62
     0
100
AcDbMText
 10
-14.52049803926453
 20
24.66670218456047
 30
0.0
 40
0.7040000000000001
 41
0.0
 71
     5
 72
     1
  1
\A1;(8) \U+22050.375
 73
     1
 44
1.0
1001
ACAD
1000
MTEXTBEGIN
1070
    73
1070
     1
1070
    44
1040
1.0
1070
    74
1070
     0
1000
MTEXTEND
  0
SOLID
  5
609
330
604
100
AcDbEntity
  8
0
 62
     0
100
AcDbTrace
 10
-8.854483922962337
 20
27.10733084697275
 30
0.0
 11
-8.678534158088471
 21
26.95205649401879
 31
0.0
 12
-8.300685981663468
 22
27.55754296511736
 32
0.0
 13
-8.300685981663468
 23
27.55754296511736
 33
0.0
  0
LINE
  5
60A
330
604
100
AcDbEntity
  8
0
 62
     0
370
    -2
100
AcDbLine
 10
-8.266620891412594
 20
27.69812782696615
 30
0.0
 11
-8.086620891412593
 21
27.69812782696615
 31
0.0
  0
LINE
  5
60B
330
604
100
AcDbEntity
  8
0
 62
     0
370
    -2
100
AcDbLine
 10
-8.176620891412596
 20
27.60812782696615
 30
0.0
 11
-8.176620891412593
 21
27.78812782696614
 31
0.0
  0
POINT
  5
60C
330
604
100
AcDbEntity
  8
Defpoints
 62
     0
100
AcDbPoint
 10
-8.300685981663468
 20
27.55754296511736
 30
0.0
  0
POINT
  5
60D
330
604
100
AcDbEntity
  8
Defpoints
 62
     0
100
AcDbPoint
 10
-8.052555801161723
 20
27.83871268881493
 30
0.0
  0
ENDBLK
  5
60E
330
604
100
AcDbEntity
  8
0
100
AcDbBlockEnd
  0
BLOCK
  5
69A
330
691
100
AcDbEntity
  8
0
100
AcDbBlockBegin
  2
*D65
 70
     1
 10
0.0
 20
0.0
 30
0.0
  3
*D65
  1

  0
LINE
  5
78C
330
691
100
AcDbEntity
  8
0
 62
     0
370
    -2
100
AcDbLine
 10
20.92027260597715
 20
17.27341205217004
 30
0.0
 11
21.62427260597715
 21
17.27341205217005
 31
0.0
  0
LINE
  5
78D
330
691
100
AcDbEntity
  8
0
 62
     0
370
    -2
100
AcDbLine
 10
21.62427260597715
 20
17.27341205217005
 30
0.0
 11
23.70959493804976
 21
19.63640353810536
 31
0.0
  0
MTEXT
  5
78E
330
691
100
AcDbEntity
  8
0
 62
     0
100
AcDbMText
 10
17.95560593931048
 20
17.27341205217005
 30
0.0
 40
0.7040000000000001
 41
0.0
 71
     5
 72
     1
  1
\A1;(8) \U+22050.375
 73
     1
 44
1.0
1001
ACAD
1000
MTEXTBEGIN
1070
    73
1070
     1
1070
    44
1040
1.0
1070
    74
1070
     0
1000
MTEXTEND
  0
SOLID
  5
78F
330
691
100
AcDbEntity
  8
0
 62
     0
100
AcDbTrace
 10
23.62162005561283
 20
19.71404071458236
 30
0.0
 11
23.79756982048669
 21
19.55876636162837
 31
0.0
 12
24.17541799691172
 22
20.16425283272694
 32
0.0
 13
24.17541799691172
 23
20.16425283272694
 33
0.0
  0
LINE
  5
790
330
691
100
AcDbEntity
  8
0
 62
     0
370
    -2
100
AcDbLine
 10
24.20948308716259
 20
20.30483769457572
 30
0.0
 11
24.38948308716259
 21
20.30483769457572
 31
0.0
  0
LINE
  5
791
330
691
100
AcDbEntity
  8
0
 62
     0
370
    -2
100
AcDbLine
 10
24.29948308716259
 20
20.21483769457571
 30
0.0
 11
24.29948308716259
 21
20.39483769457572
 31
0.0
  0
POINT
  5
792
330
691
100
AcDbEntity
  8
Defpoints
 62
     0
100
AcDbPoint
 10
24.17541799691172
 20
20.16425283272694
 30
0.0
  0
POINT
  5
793
330
691
100
AcDbEntity
  8
Defpoints
 62
     0
100
AcDbPoint
 10
24.42354817741346
 20
20.4454225564245
 30
0.0
  0
ENDBLK
  5
69B
330
691
100
AcDbEntity
  8
0
100
AcDbBlockEnd
  0
BLOCK
  5
6A4
330
69C
100
AcDbEntity
  8
0
100
AcDbBlockBegin
  2
*D66
 70
     1
 10
0.0
 20
0.0
 30
0.0
  3
*D66
  1

  0
LINE
  5
708
330
69C
100
AcDbEntity
  8
0
 62
     0
370
    -2
100
AcDbLine
 10
56.17378808058564
 20
9.148401854735272
 30
0.0
 11
56.17378808058564
 21
7.995600446737164
 31
0.0
  0
LINE
  5
709
330
69C
100
AcDbEntity
  8
0
 62
     0
370
    -2
100
AcDbLine
 10
56.17378808058564
 20
7.995600446737164
 30
0.0
 11
58.56819137050592
 21
7.635600446737163
 31
0.0
  0
LINE
  5
70A
330
69C
100
AcDbEntity
  8
0
 62
     0
370
    -2
100
AcDbLine
 10
58.56819137050592
 20
7.635600446737163
 30
0.0
 11
58.56819137050592
 21
7.275600446737163
 31
0.0
  0
MTEXT
  5
70B
330
69C
100
AcDbEntity
  8
0
 62
     0
100
AcDbMText
 10
58.56819137050592
 20
5.953600446737173
 30
0.0
 40
0.7040000000000001
 41
0.0
 71
     5
 72
     1
  1
\A1;0.500
 11
0.0000000000000001
 21
1.0
 31
0.0
 73
     1
 44
1.0
1001
ACAD
1000
MTEXTBEGIN
1070
    73
1070
     1
1070
    44
1040
1.0
1070
    74
1070
     0
1000
MTEXTEND
  0
POINT
  5
70C
330
69C
100
AcDbEntity
  8
Defpoints
 62
     0
100
AcDbPoint
 10
56.17378808058564
 20
9.398401854735272
 30
0.0
  0
POINT
  5
70D
330
69C
100
AcDbEntity
  8
Defpoints
 62
     0
100
AcDbPoint
 10
58.56819137050592
 20
7.275600446737163
 30
0.0
  0
POINT
  5
70E
330
69C
100
AcDbEntity
  8
Defpoints
 62
     0
100
AcDbPoint
 10
55.67378808058569
 20
-2.633396929335393
 30
0.0
  0
ENDBLK
  5
6A5
330
69C
100
AcDbEntity
  8
0
100
AcDbBlockEnd
  0
BLOCK
  5
6AE
330
6A6
100
AcDbEntity
  8
0
100
AcDbBlockBegin
  2
*D67
 70
     1
 10
0.0
 20
0.0
 30
0.0
  3
*D67
  1

  0
LINE
  5
70F
330
6A6
100
AcDbEntity
  8
0
 62
     0
370
    -2
100
AcDbLine
 10
65.18172439226995
 20
22.83112442706788
 30
0.0
 11
65.18172439226995
 21
20.08660307066461
 31
0.0
  0
LINE
  5
710
330
6A6
100
AcDbEntity
  8
0
 62
     0
370
    -2
100
AcDbLine
 10
65.18172439226995
 20
20.08660307066461
 30
0.0
 11
64.17887313583435
 21
19.72660307066461
 31
0.0
  0
LINE
  5
711
330
6A6
100
AcDbEntity
  8
0
 62
     0
370
    -2
100
AcDbLine
 10
64.17887313583435
 20
19.72660307066461
 30
0.0
 11
64.17887313583435
 21
19.36660307066461
 31
0.0
  0
MTEXT
  5
712
330
6A6
100
AcDbEntity
  8
0
 62
     0
100
AcDbMText
 10
64.17887313583435
 20
17.92726973733129
 30
0.0
 40
0.7040000000000001
 41
0.0
 71
     5
 72
     1
  1
\A1;9.508
 11
0.0000000000000001
 21
1.0
 31
0.0
 73
     1
 44
1.0
1001
ACAD
1000
MTEXTBEGIN
1070
    73
1070
     1
1070
    44
1040
1.0
1070
    74
1070
     0
1000
MTEXTEND
  0
POINT
  5
713
330
6A6
100
AcDbEntity
  8
Defpoints
 62
     0
100
AcDbPoint
 10
65.18172439226995
 20
23.08112442706788
 30
0.0
  0
POINT
  5
714
330
6A6
100
AcDbEntity
  8
Defpoints
 62
     0
100
AcDbPoint
 10
64.17887313583435
 20
19.36660307066461
 30
0.0
  0
POINT
  5
715
330
6A6
100
AcDbEntity
  8
Defpoints
 62
     0
100
AcDbPoint
 10
55.67378808058569
 20
-2.633396929335393
 30
0.0
  0
ENDBLK
  5
6AF
330
6A6
100
AcDbEntity
  8
0
100
AcDbBlockEnd
  0
BLOCK
  5
6B6
330
6B0
100
AcDbEntity
  8
0
100
AcDbBlockBegin
  2
*D68
 70
     1
 10
0.0
 20
0.0
 30
0.0
  3
*D68
  1

  0
LINE
  5
716
330
6B0
100
AcDbEntity
  8
0
 62
     0
370
    -2
100
AcDbLine
 10
66.60378808058564
 20
32.54660307066459
 30
0.0
 11
67.35378808058564
 21
32.54660307066459
 31
0.0
  0
MTEXT
  5
717
330
6B0
100
AcDbEntity
  8
0
 62
     0
100
AcDbMText
 10
69.02778808058565
 20
32.54660307066459
 30
0.0
 40
0.7040000000000001
 41
0.0
 71
     5
 72
     1
  1
\A1;35.180
 73
     1
 44
1.0
1001
ACAD
1000
MTEXTBEGIN
1070
    73
1070
     1
1070
    44
1040
1.0
1070
    74
1070
     0
1000
MTEXTEND
  0
POINT
  5
718
330
6B0
100
AcDbEntity
  8
Defpoints
 62
     0
100
AcDbPoint
 10
66.35378808058565
 20
32.54660307066459
 30
0.0
  0
POINT
  5
719
330
6B0
100
AcDbEntity
  8
Defpoints
 62
     0
100
AcDbPoint
 10
67.35378808058564
 20
32.54660307066459
 30
0.0
  0
POINT
  5
71A
330
6B0
100
AcDbEntity
  8
Defpoints
 62
     0
100
AcDbPoint
 10
55.67378808058569
 20
-2.633396929335393
 30
0.0
  0
ENDBLK
  5
6B7
330
6B0
100
AcDbEntity
  8
0
100
AcDbBlockEnd
  0
BLOCK
  5
6BE
330
6B8
100
AcDbEntity
  8
0
100
AcDbBlockBegin
  2
*D69
 70
     1
 10
0.0
 20
0.0
 30
0.0
  3
*D69
  1

  0
LINE
  5
72B
330
6B8
100
AcDbEntity
  8
0
 62
     0
370
    -2
100
AcDbLine
 10
61.01378808058568
 20
27.38119602762534
 30
0.0
 11
61.01378808058564
 21
33.54660307066455
 31
0.0
  0
MTEXT
  5
72C
330
6B8
100
AcDbEntity
  8
0
 62
     0
100
AcDbMText
 10
61.01378808058563
 20
34.98593640399788
 30
0.0
 40
0.7040000000000001
 41
0.0
 71
     5
 72
     1
  1
\A1;5.340
 11
0.0000000000000001
 21
1.0
 31
0.0
 73
     1
 44
1.0
1001
ACAD
1000
MTEXTBEGIN
1070
    73
1070
     1
1070
    44
1040
1.0
1070
    74
1070
     0
1000
MTEXTEND
  0
POINT
  5
72D
330
6B8
100
AcDbEntity
  8
Defpoints
 62
     0
100
AcDbPoint
 10
61.01378808058568
 20
27.13119602762534
 30
0.0
  0
POINT
  5
72E
330
6B8
100
AcDbEntity
  8
Defpoints
 62
     0
100
AcDbPoint
 10
61.01378808058564
 20
33.54660307066455
 30
0.0
  0
POINT
  5
72F
330
6B8
100
AcDbEntity
  8
Defpoints
 62
     0
100
AcDbPoint
 10
55.67378808058569
 20
-2.633396929335393
 30
0.0
  0
ENDBLK
  5
6BF
330
6B8
100
AcDbEntity
  8
0
100
AcDbBlockEnd
  0
BLOCK
  5
6C6
330
6C0
100
AcDbEntity
  8
0
100
AcDbBlockBegin
  2
*D70
 70
     1
 10
0.0
 20
0.0
 30
0.0
  3
*D70
  1

  0
LINE
  5
758
330
6C0
100
AcDbEntity
  8
0
 62
     0
370
    -2
100
AcDbLine
 10
65.01378808058567
 20
6.956603070664582
 30
0.0
 11
67.35378808058573
 21
6.956603070664622
 31
0.0
  0
MTEXT
  5
759
330
6C0
100
AcDbEntity
  8
0
 62
     0
100
AcDbMText
 10
68.79312141391906
 20
6.956603070664622
 30
0.0
 40
0.7040000000000001
 41
0.0
 71
     5
 72
     1
  1
\A1;9.590
 73
     1
 44
1.0
1001
ACAD
1000
MTEXTBEGIN
1070
    73
1070
     1
1070
    44
1040
1.0
1070
    74
1070
     0
1000
MTEXTEND
  0
POINT
  5
75A
330
6C0
100
AcDbEntity
  8
Defpoints
 62
     0
100
AcDbPoint
 10
64.76378808058567
 20
6.956603070664582
 30
0.0
  0
POINT
  5
75B
330
6C0
100
AcDbEntity
  8
Defpoints
 62
     0
100
AcDbPoint
 10
67.35378808058573
 20
6.956603070664622
 30
0.0
  0
POINT
  5
75C
330
6C0
100
AcDbEntity
  8
Defpoints
 62
     0
100
AcDbPoint
 10
55.67378808058569
 20
-2.633396929335393
 30
0.0
  0
ENDBLK
  5
6C7
330
6C0
100
AcDbEntity
  8
0
100
AcDbBlockEnd
  0
BLOCK
  5
6CE
330
6C8
100
AcDbEntity
  8
0
100
AcDbBlockBegin
  2
*D71
 70
     1
 10
0.0
 20
0.0
 30
0.0
  3
*D71
  1

  0
LINE
  5
765
330
6C8
100
AcDbEntity
  8
0
 62
     0
370
    -2
100
AcDbLine
 10
57.26378808058573
 20
-0.2933969293354508
 30
0.0
 11
57.26378808058573
 21
-3.633396929335386
 31
0.0
  0
MTEXT
  5
766
330
6C8
100
AcDbEntity
  8
0
 62
     0
100
AcDbMText
 10
57.26378808058573
 20
-4.955396929335377
 30
0.0
 40
0.7040000000000001
 41
0.0
 71
     5
 72
     1
  1
\A1;1.590
 11
0.0000000000000001
 21
1.0
 31
0.0
 73
     1
 44
1.0
1001
ACAD
1000
MTEXTBEGIN
1070
    73
1070
     1
1070
    44
1040
1.0
1070
    74
1070
     0
1000
MTEXTEND
  0
POINT
  5
767
330
6C8
100
AcDbEntity
  8
Defpoints
 62
     0
100
AcDbPoint
 10
57.26378808058573
 20
-0.0433969293354508
 30
0.0
  0
POINT
  5
768
330
6C8
100
AcDbEntity
  8
Defpoints
 62
     0
100
AcDbPoint
 10
57.26378808058573
 20
-3.633396929335386
 30
0.0
  0
POINT
  5
769
330
6C8
100
AcDbEntity
  8
Defpoints
 62
     0
100
AcDbPoint
 10
55.67378808058569
 20
-2.633396929335393
 30
0.0
  0
ENDBLK
  5
6CF
330
6C8
100
AcDbEntity
  8
0
100
AcDbBlockEnd
  0
BLOCK
  5
6D6
330
6D0
100
AcDbEntity
  8
0
100
AcDbBlockBegin
  2
*D72
 70
     1
 10
0.0
 20
0.0
 30
0.0
  3
*D72
  1

  0
LINE
  5
76A
330
6D0
100
AcDbEntity
  8
0
 62
     0
370
    -2
100
AcDbLine
 10
65.01378808058567
 20
-0.0433969293354508
 30
0.0
 11
67.35378808058576
 21
-0.0433969293354046
 31
0.0
  0
MTEXT
  5
76B
330
6D0
100
AcDbEntity
  8
0
 62
     0
100
AcDbMText
 10
68.7931214139191
 20
-0.0433969293354046
 30
0.0
 40
0.7040000000000001
 41
0.0
 71
     5
 72
     1
  1
\A1;2.590
 73
     1
 44
1.0
1001
ACAD
1000
MTEXTBEGIN
1070
    73
1070
     1
1070
    44
1040
1.0
1070
    74
1070
     0
1000
MTEXTEND
  0
POINT
  5
76C
330
6D0
100
AcDbEntity
  8
Defpoints
 62
     0
100
AcDbPoint
 10
64.76378808058567
 20
-0.0433969293354508
 30
0.0
  0
POINT
  5
76D
330
6D0
100
AcDbEntity
  8
Defpoints
 62
     0
100
AcDbPoint
 10
67.35378808058576
 20
-0.0433969293354046
 30
0.0
  0
POINT
  5
76E
330
6D0
100
AcDbEntity
  8
Defpoints
 62
     0
100
AcDbPoint
 10
55.67378808058569
 20
-2.633396929335393
 30
0.0
  0
ENDBLK
  5
6D7
330
6D0
100
AcDbEntity
  8
0
100
AcDbBlockEnd
  0
BLOCK
  5
6DE
330
6D8
100
AcDbEntity
  8
0
100
AcDbBlockBegin
  2
*D73
 70
     1
 10
0.0
 20
0.0
 30
0.0
  3
*D73
  1

  0
LINE
  5
76F
330
6D8
100
AcDbEntity
  8
0
 62
     0
370
    -2
100
AcDbLine
 10
55.67378808058569
 20
-2.883396929335393
 30
0.0
 11
55.67378808058569
 21
-3.633396929335393
 31
0.0
  0
MTEXT
  5
770
330
6D8
100
AcDbEntity
  8
0
 62
     0
100
AcDbMText
 10
55.67378808058569
 20
-4.896730262668718
 30
0.0
 40
0.7040000000000001
 41
0.0
 71
     5
 72
     1
  1
\A1;0.000
 11
0.0000000000000001
 21
1.0
 31
0.0
 73
     1
 44
1.0
1001
ACAD
1000
MTEXTBEGIN
1070
    73
1070
     1
1070
    44
1040
1.0
1070
    74
1070
     0
1000
MTEXTEND
  0
POINT
  5
771
330
6D8
100
AcDbEntity
  8
Defpoints
 62
     0
100
AcDbPoint
 10
55.67378808058569
 20
-2.633396929335393
 30
0.0
  0
POINT
  5
772
330
6D8
100
AcDbEntity
  8
Defpoints
 62
     0
100
AcDbPoint
 10
55.67378808058569
 20
-3.633396929335393
 30
0.0
  0
POINT
  5
773
330
6D8
100
AcDbEntity
  8
Defpoints
 62
     0
100
AcDbPoint
 10
55.67378808058569
 20
-2.633396929335393
 30
0.0
  0
ENDBLK
  5
6DF
330
6D8
100
AcDbEntity
  8
0
100
AcDbBlockEnd
  0
BLOCK
  5
6F1
330
6E8
100
AcDbEntity
  8
0
100
AcDbBlockBegin
  2
*D74
 70
     1
 10
0.0
 20
0.0
 30
0.0
  3
*D74
  1

  0
LINE
  5
77C
330
6E8
100
AcDbEntity
  8
0
 62
     0
370
    -2
100
AcDbLine
 10
68.05778808058569
 20
26.06794963632121
 30
0.0
 11
67.35378808058557
 21
26.06794963632121
 31
0.0
  0
LINE
  5
77D
330
6E8
100
AcDbEntity
  8
0
 62
     0
370
    -2
100
AcDbLine
 10
67.35378808058557
 20
26.06794963632121
 30
0.0
 11
65.96336389983995
 21
24.15596426639547
 31
0.0
  0
MTEXT
  5
77E
330
6E8
100
AcDbEntity
  8
0
 62
     0
100
AcDbMText
 10
69.73178808058569
 20
26.06794963632121
 30
0.0
 40
0.7040000000000001
 41
0.0
 71
     5
 72
     1
  1
\A1;\U+22051.250
 73
     1
 44
1.0
1001
ACAD
1000
MTEXTBEGIN
1070
    73
1070
     1
1070
    44
1040
1.0
1070
    74
1070
     0
1000
MTEXTEND
  0
SOLID
  5
77F
330
6E8
100
AcDbEntity
  8
0
 62
     0
100
AcDbTrace
 10
65.86846958746391
 20
24.22497282086365
 30
0.0
 11
66.058258212216
 21
24.08695571192728
 31
0.0
 12
65.54931257303086
 22
23.58659839213917
 32
0.0
 13
65.54931257303086
 23
23.58659839213917
 33
0.0
  0
LINE
  5
780
330
6E8
100
AcDbEntity
  8
0
 62
     0
370
    -2
100
AcDbLine
 10
65.09172439226997
 20
23.08112442706789
 30
0.0
 11
65.27172439226996
 21
23.08112442706789
 31
0.0
  0
LINE
  5
781
330
6E8
100
AcDbEntity
  8
0
 62
     0
370
    -2
100
AcDbLine
 10
65.18172439226997
 20
22.99112442706789
 30
0.0
 11
65.18172439226995
 21
23.1711244270679
 31
0.0
  0
POINT
  5
782
330
6E8
100
AcDbEntity
  8
Defpoints
 62
     0
100
AcDbPoint
 10
65.54931257303086
 20
23.58659839213917
 30
0.0
  0
POINT
  5
783
330
6E8
100
AcDbEntity
  8
Defpoints
 62
     0
100
AcDbPoint
 10
64.81413621150903
 20
22.57565046199661
 30
0.0
  0
ENDBLK
  5
6F2
330
6E8
100
AcDbEntity
  8
0
100
AcDbBlockEnd
  0
BLOCK
  5
6FC
330
6F3
100
AcDbEntity
  8
0
100
AcDbBlockBegin
  2
*D75
 70
     1
 10
0.0
 20
0.0
 30
0.0
  3
*D75
  1

  0
LINE
  5
784
330
6F3
100
AcDbEntity
  8
0
 62
     0
370
    -2
100
AcDbLine
 10
68.05778808058573
 20
29.55675359783742
 30
0.0
 11
67.3537880805857
 21
29.55675359783742
 31
0.0
  0
LINE
  5
785
330
6F3
100
AcDbEntity
  8
0
 62
     0
370
    -2
100
AcDbLine
 10
67.3537880805857
 20
29.55675359783742
 30
0.0
 11
65.9909731249551
 21
29.03536777253331
 31
0.0
  0
MTEXT
  5
786
330
6F3
100
AcDbEntity
  8
0
 62
     0
100
AcDbMText
 10
69.84912141391905
 20
29.55675359783742
 30
0.0
 40
0.7040000000000001
 41
0.0
 71
     5
 72
     1
  1
\A1;\U+22059.250
 73
     1
 44
1.0
1001
ACAD
1000
MTEXTBEGIN
1070
    73
1070
     1
1070
    44
1040
1.0
1070
    74
1070
     0
1000
MTEXTEND
  0
SOLID
  5
787
330
6F3
100
AcDbEntity
  8
0
 62
     0
100
AcDbTrace
 10
65.94904728181958
 20
29.14495488303672
 30
0.0
 11
66.03289896809063
 21
28.9257806620299
 31
0.0
 12
65.33345046193464
 22
28.78381271372017
 32
0.0
 13
65.33345046193464
 23
28.78381271372017
 33
0.0
  0
LINE
  5
788
330
6F3
100
AcDbEntity
  8
0
 62
     0
370
    -2
100
AcDbLine
 10
60.92378808058573
 20
27.13119602762534
 30
0.0
 11
61.10378808058575
 21
27.13119602762534
 31
0.0
  0
LINE
  5
789
330
6F3
100
AcDbEntity
  8
0
 62
     0
370
    -2
100
AcDbLine
 10
61.01378808058574
 20
27.04119602762534
 30
0.0
 11
61.01378808058573
 21
27.22119602762534
 31
0.0
  0
POINT
  5
78A
330
6F3
100
AcDbEntity
  8
Defpoints
 62
     0
100
AcDbPoint
 10
65.33345046193464
 20
28.78381271372017
 30
0.0
  0
POINT
  5
78B
330
6F3
100
AcDbEntity
  8
Defpoints
 62
     0
100
AcDbPoint
 10
56.69412569923682
 20
25.47857934153051
 30
0.0
  0
ENDBLK
  5
6FD
330
6F3
100
AcDbEntity
  8
0
100
AcDbBlockEnd
  0
BLOCK
  5
706
330
6FE
100
AcDbEntity
  8
0
100
AcDbBlockBegin
  2
*D76
 70
     1
 10
0.0
 20
0.0
 30
0.0
  3
*D76
  1

  0
LINE
  5
6FF
330
6FE
100
AcDbEntity
  8
0
 62
     0
370
    -2
100
AcDbLine
 10
65.8537880805857
 20
9.148401854735242
 30
0.0
 11
65.8537880805857
 21
7.995600446737163
 31
0.0
  0
LINE
  5
700
330
6FE
100
AcDbEntity
  8
0
 62
     0
370
    -2
100
AcDbLine
 10
65.8537880805857
 20
7.995600446737163
 30
0.0
 11
63.45938479066547
 21
7.635600446737163
 31
0.0
  0
LINE
  5
701
330
6FE
100
AcDbEntity
  8
0
 62
     0
370
    -2
100
AcDbLine
 10
63.45938479066547
 20
7.635600446737163
 30
0.0
 11
63.45938479066547
 21
7.275600446737163
 31
0.0
  0
MTEXT
  5
702
330
6FE
100
AcDbEntity
  8
0
 62
     0
100
AcDbMText
 10
63.45938479066547
 20
5.777600446737173
 30
0.0
 40
0.7040000000000001
 41
0.0
 71
     5
 72
     1
  1
\A1;10.180
 11
0.0000000000000001
 21
1.0
 31
0.0
 73
     1
 44
1.0
1001
ACAD
1000
MTEXTBEGIN
1070
    73
1070
     1
1070
    44
1040
1.0
1070
    74
1070
     0
1000
MTEXTEND
  0
POINT
  5
703
330
6FE
100
AcDbEntity
  8
Defpoints
 62
     0
100
AcDbPoint
 10
65.8537880805857
 20
9.398401854735242
 30
0.0
  0
POINT
  5
704
330
6FE
100
AcDbEntity
  8
Defpoints
 62
     0
100
AcDbPoint
 10
63.45938479066547
 20
7.275600446737163
 30
0.0
  0
POINT
  5
705
330
6FE
100
AcDbEntity
  8
Defpoints
 62
     0
100
AcDbPoint
 10
55.67378808058569
 20
-2.633396929335393
 30
0.0
  0
ENDBLK
  5
707
330
6FE
100
AcDbEntity
  8
0
100
AcDbBlockEnd
  0
BLOCK
  5
721
330
71B
100
AcDbEntity
  8
0
100
AcDbBlockBegin
  2
*D77
 70
     1
 10
0.0
 20
0.0
 30
0.0
  3
*D77
  1

  0
LINE
  5
71C
330
71B
100
AcDbEntity
  8
0
 62
     0
370
    -2
100
AcDbLine
 10
66.35378808058565
 20
32.79660307066459
 30
0.0
 11
66.35378808058565
 21
33.54660307066459
 31
0.0
  0
MTEXT
  5
71D
330
71B
100
AcDbEntity
  8
0
 62
     0
100
AcDbMText
 10
66.35378808058563
 20
35.16193640399793
 30
0.0
 40
0.7040000000000001
 41
0.0
 71
     5
 72
     1
  1
\A1;10.680
 11
0.0000000000000001
 21
1.0
 31
0.0
 73
     1
 44
1.0
1001
ACAD
1000
MTEXTBEGIN
1070
    73
1070
     1
1070
    44
1040
1.0
1070
    74
1070
     0
1000
MTEXTEND
  0
POINT
  5
71E
330
71B
100
AcDbEntity
  8
Defpoints
 62
     0
100
AcDbPoint
 10
66.35378808058565
 20
32.54660307066459
 30
0.0
  0
POINT
  5
71F
330
71B
100
AcDbEntity
  8
Defpoints
 62
     0
100
AcDbPoint
 10
66.35378808058565
 20
33.54660307066459
 30
0.0
  0
POINT
  5
720
330
71B
100
AcDbEntity
  8
Defpoints
 62
     0
100
AcDbPoint
 10
55.67378808058569
 20
-2.633396929335393
 30
0.0
  0
ENDBLK
  5
722
330
71B
100
AcDbEntity
  8
0
100
AcDbBlockEnd
  0
BLOCK
  5
729
330
723
100
AcDbEntity
  8
0
100
AcDbBlockBegin
  2
*D78
 70
     1
 10
0.0
 20
0.0
 30
0.0
  3
*D78
  1

  0
LINE
  5
724
330
723
100
AcDbEntity
  8
0
 62
     0
370
    -2
100
AcDbLine
 10
65.01378808058567
 20
31.45660307066455
 30
0.0
 11
67.35378808058564
 21
31.45660307066455
 31
0.0
  0
MTEXT
  5
725
330
723
100
AcDbEntity
  8
0
 62
     0
100
AcDbMText
 10
69.08645474725232
 20
31.45660307066455
 30
0.0
 40
0.7040000000000001
 41
0.0
 71
     5
 72
     1
  1
\A1;34.090
 73
     1
 44
1.0
1001
ACAD
1000
MTEXTBEGIN
1070
    73
1070
     1
1070
    44
1040
1.0
1070
    74
1070
     0
1000
MTEXTEND
  0
POINT
  5
726
330
723
100
AcDbEntity
  8
Defpoints
 62
     0
100
AcDbPoint
 10
64.76378808058567
 20
31.45660307066455
 30
0.0
  0
POINT
  5
727
330
723
100
AcDbEntity
  8
Defpoints
 62
     0
100
AcDbPoint
 10
67.35378808058564
 20
31.45660307066455
 30
0.0
  0
POINT
  5
728
330
723
100
AcDbEntity
  8
Defpoints
 62
     0
100
AcDbPoint
 10
55.67378808058569
 20
-2.633396929335393
 30
0.0
  0
ENDBLK
  5
72A
330
723
100
AcDbEntity
  8
0
100
AcDbBlockEnd
  0
BLOCK
  5
736
330
730
100
AcDbEntity
  8
0
100
AcDbBlockBegin
  2
*D79
 70
     1
 10
0.0
 20
0.0
 30
0.0
  3
*D79
  1

  0
LINE
  5
731
330
730
100
AcDbEntity
  8
0
 62
     0
370
    -2
100
AcDbLine
 10
60.76378808058573
 20
27.13119602762534
 30
0.0
 11
54.67378808058569
 21
27.1311960276254
 31
0.0
  0
MTEXT
  5
732
330
730
100
AcDbEntity
  8
0
 62
     0
100
AcDbMText
 10
52.82378808058568
 20
27.1311960276254
 30
0.0
 40
0.7040000000000001
 41
0.0
 71
     5
 72
     1
  1
\A1;29.765
 73
     1
 44
1.0
1001
ACAD
1000
MTEXTBEGIN
1070
    73
1070
     1
1070
    44
1040
1.0
1070
    74
1070
     0
1000
MTEXTEND
  0
POINT
  5
733
330
730
100
AcDbEntity
  8
Defpoints
 62
     0
100
AcDbPoint
 10
61.01378808058573
 20
27.13119602762534
 30
0.0
  0
POINT
  5
734
330
730
100
AcDbEntity
  8
Defpoints
 62
     0
100
AcDbPoint
 10
54.67378808058569
 20
27.1311960276254
 30
0.0
  0
POINT
  5
735
330
730
100
AcDbEntity
  8
Defpoints
 62
     0
100
AcDbPoint
 10
55.67378808058569
 20
-2.633396929335393
 30
0.0
  0
ENDBLK
  5
737
330
730
100
AcDbEntity
  8
0
100
AcDbBlockEnd
  0
BLOCK
  5
73E
330
738
100
AcDbEntity
  8
0
100
AcDbBlockBegin
  2
*D80
 70
     1
 10
0.0
 20
0.0
 30
0.0
  3
*D80
  1

  0
LINE
  5
739
330
738
100
AcDbEntity
  8
0
 62
     0
370
    -2
100
AcDbLine
 10
65.43172439226996
 20
23.08112442706788
 30
0.0
 11
67.35378808058567
 21
23.08112442706788
 31
0.0
  0
MTEXT
  5
73A
330
738
100
AcDbEntity
  8
0
 62
     0
100
AcDbMText
 10
69.08645474725235
 20
23.08112442706788
 30
0.0
 40
0.7040000000000001
 41
0.0
 71
     5
 72
     1
  1
\A1;25.715
 73
     1
 44
1.0
1001
ACAD
1000
MTEXTBEGIN
1070
    73
1070
     1
1070
    44
1040
1.0
1070
    74
1070
     0
1000
MTEXTEND
  0
POINT
  5
73B
330
738
100
AcDbEntity
  8
Defpoints
 62
     0
100
AcDbPoint
 10
65.18172439226995
 20
23.08112442706788
 30
0.0
  0
POINT
  5
73C
330
738
100
AcDbEntity
  8
Defpoints
 62
     0
100
AcDbPoint
 10
67.35378808058567
 20
23.08112442706788
 30
0.0
  0
POINT
  5
73D
330
738
100
AcDbEntity
  8
Defpoints
 62
     0
100
AcDbPoint
 10
55.67378808058569
 20
-2.633396929335393
 30
0.0
  0
ENDBLK
  5
73F
330
738
100
AcDbEntity
  8
0
100
AcDbBlockEnd
  0
BLOCK
  5
746
330
740
100
AcDbEntity
  8
0
100
AcDbBlockBegin
  2
*D81
 70
     1
 10
0.0
 20
0.0
 30
0.0
  3
*D81
  1

  0
LINE
  5
794
330
740
100
AcDbEntity
  8
0
 62
     0
370
    -2
100
AcDbLine
 10
32.04948308716254
 20
20.30483769457572
 30
0.0
 11
34.38948308716238
 21
20.30483769457572
 31
0.0
  0
MTEXT
  5
795
330
740
100
AcDbEntity
  8
0
 62
     0
100
AcDbMText
 10
36.12214975382904
 20
20.30483769457572
 30
0.0
 40
0.7040000000000001
 41
0.0
 71
     5
 72
     1
  1
\A1;24.718
 73
     1
 44
1.0
1001
ACAD
1000
MTEXTBEGIN
1070
    73
1070
     1
1070
    44
1040
1.0
1070
    74
1070
     0
1000
MTEXTEND
  0
POINT
  5
796
330
740
100
AcDbEntity
  8
Defpoints
 62
     0
100
AcDbPoint
 10
31.79948308716254
 20
20.30483769457572
 30
0.0
  0
POINT
  5
797
330
740
100
AcDbEntity
  8
Defpoints
 62
     0
100
AcDbPoint
 10
34.38948308716238
 20
20.30483769457572
 30
0.0
  0
POINT
  5
798
330
740
100
AcDbEntity
  8
Defpoints
 62
     0
100
AcDbPoint
 10
22.70948308716237
 20
-4.413252936479572
 30
0.0
  0
ENDBLK
  5
747
330
740
100
AcDbEntity
  8
0
100
AcDbBlockEnd
  0
BLOCK
  5
74E
330
748
100
AcDbEntity
  8
0
100
AcDbBlockBegin
  2
*D82
 70
     1
 10
0.0
 20
0.0
 30
0.0
  3
*D82
  1

  0
LINE
  5
749
330
748
100
AcDbEntity
  8
0
 62
     0
370
    -2
100
AcDbLine
 10
55.92378808058565
 20
12.50465185473556
 30
0.0
 11
54.67378808058564
 21
12.50465185473556
 31
0.0
  0
MTEXT
  5
74A
330
748
100
AcDbEntity
  8
0
 62
     0
100
AcDbMText
 10
53.05845474725231
 20
12.50465185473556
 30
0.0
 40
0.7040000000000001
 41
0.0
 71
     5
 72
     1
  1
\A1;15.138
 73
     1
 44
1.0
1001
ACAD
1000
MTEXTBEGIN
1070
    73
1070
     1
1070
    44
1040
1.0
1070
    74
1070
     0
1000
MTEXTEND
  0
POINT
  5
74B
330
748
100
AcDbEntity
  8
Defpoints
 62
     0
100
AcDbPoint
 10
56.17378808058564
 20
12.50465185473556
 30
0.0
  0
POINT
  5
74C
330
748
100
AcDbEntity
  8
Defpoints
 62
     0
100
AcDbPoint
 10
54.67378808058564
 20
12.50465185473556
 30
0.0
  0
POINT
  5
74D
330
748
100
AcDbEntity
  8
Defpoints
 62
     0
100
AcDbPoint
 10
55.67378808058569
 20
-2.633396929335393
 30
0.0
  0
ENDBLK
  5
74F
330
748
100
AcDbEntity
  8
0
100
AcDbBlockEnd
  0
BLOCK
  5
756
330
750
100
AcDbEntity
  8
0
100
AcDbBlockBegin
  2
*D83
 70
     1
 10
0.0
 20
0.0
 30
0.0
  3
*D83
  1

  0
LINE
  5
751
330
750
100
AcDbEntity
  8
0
 62
     0
370
    -2
100
AcDbLine
 10
55.92378808058565
 20
9.398401854735272
 30
0.0
 11
54.67378808058562
 21
9.398401854735272
 31
0.0
  0
MTEXT
  5
752
330
750
100
AcDbEntity
  8
0
 62
     0
100
AcDbMText
 10
52.99978808058562
 20
9.398401854735272
 30
0.0
 40
0.7040000000000001
 41
0.0
 71
     5
 72
     1
  1
\A1;12.032
 73
     1
 44
1.0
1001
ACAD
1000
MTEXTBEGIN
1070
    73
1070
     1
1070
    44
1040
1.0
1070
    74
1070
     0
1000
MTEXTEND
  0
POINT
  5
753
330
750
100
AcDbEntity
  8
Defpoints
 62
     0
100
AcDbPoint
 10
56.17378808058564
 20
9.398401854735272
 30
0.0
  0
POINT
  5
754
330
750
100
AcDbEntity
  8
Defpoints
 62
     0
100
AcDbPoint
 10
54.67378808058562
 20
9.398401854735272
 30
0.0
  0
POINT
  5
755
330
750
100
AcDbEntity
  8
Defpoints
 62
     0
100
AcDbPoint
 10
55.67378808058569
 20
-2.633396929335393
 30
0.0
  0
ENDBLK
  5
757
330
750
100
AcDbEntity
  8
0
100
AcDbBlockEnd
  0
BLOCK
  5
763
330
75D
100
AcDbEntity
  8
0
100
AcDbBlockBegin
  2
*D84
 70
     1
 10
0.0
 20
0.0
 30
0.0
  3
*D84
  1

  0
LINE
  5
75E
330
75D
100
AcDbEntity
  8
0
 62
     0
370
    -2
100
AcDbLine
 10
64.76378808058567
 20
-0.2933969293354508
 30
0.0
 11
64.76378808058567
 21
-3.633396929335347
 31
0.0
  0
MTEXT
  5
75F
330
75D
100
AcDbEntity
  8
0
 62
     0
100
AcDbMText
 10
64.76378808058567
 20
-5.014063596002003
 30
0.0
 40
0.7040000000000001
 41
0.0
 71
     5
 72
     1
  1
\A1;9.090
 11
0.0000000000000001
 21
1.0
 31
0.0
 73
     1
 44
1.0
1001
ACAD
1000
MTEXTBEGIN
1070
    73
1070
     1
1070
    44
1040
1.0
1070
    74
1070
     0
1000
MTEXTEND
  0
POINT
  5
760
330
75D
100
AcDbEntity
  8
Defpoints
 62
     0
100
AcDbPoint
 10
64.76378808058567
 20
-0.0433969293354508
 30
0.0
  0
POINT
  5
761
330
75D
100
AcDbEntity
  8
Defpoints
 62
     0
100
AcDbPoint
 10
64.76378808058567
 20
-3.633396929335347
 30
0.0
  0
POINT
  5
762
330
75D
100
AcDbEntity
  8
Defpoints
 62
     0
100
AcDbPoint
 10
55.67378808058569
 20
-2.633396929335393
 30
0.0
  0
ENDBLK
  5
764
330
75D
100
AcDbEntity
  8
0
100
AcDbBlockEnd
  0
BLOCK
  5
77A
330
774
100
AcDbEntity
  8
0
100
AcDbBlockBegin
  2
*D85
 70
     1
 10
0.0
 20
0.0
 30
0.0
  3
*D85
  1

  0
LINE
  5
775
330
774
100
AcDbEntity
  8
0
 62
     0
370
    -2
100
AcDbLine
 10
55.42378808058558
 20
-2.633396929335393
 30
0.0
 11
54.67378808058558
 21
-2.633396929335393
 31
0.0
  0
MTEXT
  5
776
330
774
100
AcDbEntity
  8
0
 62
     0
100
AcDbMText
 10
53.41045474725225
 20
-2.633396929335393
 30
0.0
 40
0.7040000000000001
 41
0.0
 71
     5
 72
     1
  1
\A1;0.000
 73
     1
 44
1.0
1001
ACAD
1000
MTEXTBEGIN
1070
    73
1070
     1
1070
    44
1040
1.0
1070
    74
1070
     0
1000
MTEXTEND
  0
POINT
  5
777
330
774
100
AcDbEntity
  8
Defpoints
 62
     0
100
AcDbPoint
 10
55.67378808058559
 20
-2.633396929335393
 30
0.0
  0
POINT
  5
778
330
774
100
AcDbEntity
  8
Defpoints
 62
     0
100
AcDbPoint
 10
54.67378808058558
 20
-2.633396929335393
 30
0.0
  0
POINT
  5
779
330
774
100
AcDbEntity
  8
Defpoints
 62
     0
100
AcDbPoint
 10
55.67378808058569
 20
-2.633396929335393
 30
0.0
  0
ENDBLK
  5
77B
330
774
100
AcDbEntity
  8
0
100
AcDbBlockEnd
  0
ENDSEC
  0
SECTION
  2
ENTITIES
  0
DIMENSION
  5
18F
102
{ACAD_XDICTIONARY
360
190
102
}
102
{ACAD_REACTORS
330
191
102
}
330
1F
100
AcDbEntity
  8
0
100
AcDbDimension
  2
*D31
 10
31.84983121808568
 20
20.79579445485244
 30
0.0
 11
36.76748308716231
 21
24.28809362917704
 31
0.0
 70
   163
 71
     5
 42
1.249999999999985
  3
Standard
100
AcDbDiametricDimension
 15
32.5850075796075
 25
21.80674238499499
 35
0.0
 40
0.0
1001
ACAD
1000
DSTYLE
1002
{
1070
    41
1040
0.7040000000000001
1070
    42
1040
0.25
1070
   140
1040
0.7040000000000001
1070
   271
1070
     3
1002
}
  0
DIMENSION
  5
192
102
{ACAD_XDICTIONARY
360
193
102
}
102
{ACAD_REACTORS
330
194
102
}
330
1F
100
AcDbEntity
  8
0
100
AcDbDimension
  2
*D32
 10
23.72982070581344
 20
23.69872333438634
 30
0.0
 11
36.88481642049565
 21
27.77689759069324
 31
0.0
 70
   163
 71
     5
 42
9.25
  3
Standard
100
AcDbDiametricDimension
 15
32.36914546851127
 25
27.003956706576
 35
0.0
 40
0.0
1001
ACAD
1000
DSTYLE
1002
{
1070
    41
1040
0.7040000000000001
1070
    42
1040
0.25
1070
   140
1040
0.7040000000000001
1070
   271
1070
     3
1002
}
  0
DIMENSION
  5
195
102
{ACAD_XDICTIONARY
360
196
102
}
102
{ACAD_REACTORS
330
197
102
}
330
1F
100
AcDbEntity
  8
0
100
AcDbDimension
  2
*D33
 10
22.70948308716232
 20
-4.41325293647958
 30
0.0
 11
30.49507979724209
 21
3.997744439592986
 31
0.0
 70
   102
 71
     5
 42
10.18
  3
Standard
100
AcDbOrdinateDimension
 13
32.88948308716233
 23
7.618545847591065
 33
0.0
 14
30.49507979724209
 24
5.495744439592981
 34
0.0
1001
ACAD
1000
DSTYLE
1002
{
1070
    42
1040
0.25
1070
   140
1040
0.7040000000000001
1070
   271
1070
     3
1002
}
  0
DIMENSION
  5
198
330
1F
100
AcDbEntity
  8
0
100
AcDbDimension
  2
*D22
 10
22.70948308716232
 20
-4.41325293647958
 30
0.0
 11
25.60388637708256
 21
4.173744439592986
 31
0.0
 70
   102
 71
     5
 42
0.4999999999999433
  3
Standard
100
AcDbOrdinateDimension
 13
23.20948308716226
 23
7.618545847591092
 33
0.0
 14
25.60388637708256
 24
5.495744439592981
 34
0.0
1001
ACAD
1000
DSTYLE
1002
{
1070
    42
1040
0.25
1070
   140
1040
0.7040000000000001
1070
   271
1070
     3
1002
}
  0
DIMENSION
  5
199
330
1F
100
AcDbEntity
  8
0
100
AcDbDimension
  2
*D23
 10
22.70948308716232
 20
-4.41325293647958
 30
0.0
 11
32.21741939884657
 21
18.06717398440952
 31
0.0
 70
   102
 71
     5
 42
9.507936311684254
  3
Standard
100
AcDbOrdinateDimension
 13
32.21741939884658
 23
21.3012684199237
 33
0.0
 14
32.21741939884658
 24
19.50650731774285
 34
0.0
1001
ACAD
1000
DSTYLE
1002
{
1070
    42
1040
0.25
1070
   140
1040
0.7040000000000001
1070
   271
1070
     3
1002
}
  0
DIMENSION
  5
19A
330
1F
100
AcDbEntity
  8
0
100
AcDbDimension
  2
*D24
 10
22.70948308716232
 20
-4.41325293647958
 30
0.0
 11
36.06348308716228
 21
30.7667470635204
 31
0.0
 70
    38
 71
     5
 42
35.17999999999998
  3
Standard
100
AcDbOrdinateDimension
 13
33.38948308716227
 23
30.7667470635204
 33
0.0
 14
34.38948308716227
 24
30.7667470635204
 34
0.0
1001
ACAD
1000
DSTYLE
1002
{
1070
    42
1040
0.25
1070
   140
1040
0.7040000000000001
1070
   271
1070
     3
1002
}
  0
DIMENSION
  5
19B
102
{ACAD_XDICTIONARY
360
19C
102
}
102
{ACAD_REACTORS
330
19D
102
}
330
1F
100
AcDbEntity
  8
0
100
AcDbDimension
  2
*D34
 10
22.70948308716232
 20
-4.41325293647958
 30
0.0
 11
33.38948308716226
 21
33.38208039685373
 31
0.0
 70
   102
 71
     5
 42
10.67999999999994
  3
Standard
100
AcDbOrdinateDimension
 13
33.38948308716227
 23
30.7667470635204
 33
0.0
 14
33.38948308716227
 24
31.76674706352039
 34
0.0
1001
ACAD
1000
DSTYLE
1002
{
1070
    42
1040
0.25
1070
   140
1040
0.7040000000000001
1070
   271
1070
     3
1002
}
  0
DIMENSION
  5
19E
102
{ACAD_XDICTIONARY
360
19F
102
}
102
{ACAD_REACTORS
330
1A0
102
}
330
1F
100
AcDbEntity
  8
0
100
AcDbDimension
  2
*D35
 10
22.70948308716232
 20
-4.41325293647958
 30
0.0
 11
36.12214975382894
 21
29.67674706352037
 31
0.0
 70
    38
 71
     5
 42
34.08999999999995
  3
Standard
100
AcDbOrdinateDimension
 13
31.79948308716229
 23
29.67674706352037
 33
0.0
 14
34.38948308716228
 24
29.67674706352037
 34
0.0
1001
ACAD
1000
DSTYLE
1002
{
1070
    42
1040
0.25
1070
   140
1040
0.7040000000000001
1070
   271
1070
     3
1002
}
  0
DIMENSION
  5
1A1
330
1F
100
AcDbEntity
  8
0
100
AcDbDimension
  2
*D25
 10
22.70948308716232
 20
-4.41325293647958
 30
0.0
 11
28.04948308716225
 21
33.2060803968537
 31
0.0
 70
   102
 71
     5
 42
5.339999999999966
  3
Standard
100
AcDbOrdinateDimension
 13
28.04948308716229
 23
25.35134002048116
 33
0.0
 14
28.04948308716226
 24
31.76674706352037
 34
0.0
1001
ACAD
1000
DSTYLE
1002
{
1070
    42
1040
0.25
1070
   140
1040
0.7040000000000001
1070
   271
1070
     3
1002
}
  0
DIMENSION
  5
1A2
102
{ACAD_XDICTIONARY
360
1A3
102
}
102
{ACAD_REACTORS
330
1A4
102
}
330
1F
100
AcDbEntity
  8
0
100
AcDbDimension
  2
*D36
 10
22.70948308716232
 20
-4.41325293647958
 30
0.0
 11
19.8594830871623
 21
25.35134002048121
 31
0.0
 70
    38
 71
     5
 42
29.76459295696074
  3
Standard
100
AcDbOrdinateDimension
 13
28.04948308716235
 23
25.35134002048116
 33
0.0
 14
21.7094830871623
 24
25.35134002048121
 34
0.0
1001
ACAD
1000
DSTYLE
1002
{
1070
    42
1040
0.25
1070
   140
1040
0.7040000000000001
1070
   271
1070
     3
1002
}
  0
DIMENSION
  5
1A5
102
{ACAD_XDICTIONARY
360
1A6
102
}
102
{ACAD_REACTORS
330
1A7
102
}
330
1F
100
AcDbEntity
  8
0
100
AcDbDimension
  2
*D37
 10
22.70948308716232
 20
-4.41325293647958
 30
0.0
 11
36.12214975382896
 21
21.3012684199237
 31
0.0
 70
    38
 71
     5
 42
25.71452135640328
  3
Standard
100
AcDbOrdinateDimension
 13
32.21741939884658
 23
21.3012684199237
 33
0.0
 14
34.3894830871623
 24
21.3012684199237
 34
0.0
1001
ACAD
1000
DSTYLE
1002
{
1070
    42
1040
0.25
1070
   140
1040
0.7040000000000001
1070
   271
1070
     3
1002
}
  0
DIMENSION
  5
1AB
102
{ACAD_XDICTIONARY
360
1AC
102
}
102
{ACAD_REACTORS
330
1AD
102
}
330
1F
100
AcDbEntity
  8
0
100
AcDbDimension
  2
*D39
 10
22.70948308716232
 20
-4.41325293647958
 30
0.0
 11
20.09414975382892
 21
10.72479584759136
 31
0.0
 70
    38
 71
     5
 42
15.13804878407094
  3
Standard
100
AcDbOrdinateDimension
 13
23.20948308716226
 23
10.72479584759136
 33
0.0
 14
21.70948308716226
 24
10.72479584759136
 34
0.0
1001
ACAD
1000
DSTYLE
1002
{
1070
    42
1040
0.25
1070
   140
1040
0.7040000000000001
1070
   271
1070
     3
1002
}
  0
DIMENSION
  5
1AE
102
{ACAD_XDICTIONARY
360
1AF
102
}
102
{ACAD_REACTORS
330
1B0
102
}
330
1F
100
AcDbEntity
  8
0
100
AcDbDimension
  2
*D40
 10
22.70948308716232
 20
-4.41325293647958
 30
0.0
 11
20.03548308716224
 21
7.618545847591092
 31
0.0
 70
    38
 71
     5
 42
12.03179878407067
  3
Standard
100
AcDbOrdinateDimension
 13
23.20948308716226
 23
7.618545847591092
 33
0.0
 14
21.70948308716225
 24
7.618545847591092
 34
0.0
1001
ACAD
1000
DSTYLE
1002
{
1070
    42
1040
0.25
1070
   140
1040
0.7040000000000001
1070
   271
1070
     3
1002
}
  0
DIMENSION
  5
1B1
330
1F
100
AcDbEntity
  8
0
100
AcDbDimension
  2
*D26
 10
22.70948308716232
 20
-4.41325293647958
 30
0.0
 11
35.82881642049569
 21
5.176747063520436
 31
0.0
 70
    38
 71
     5
 42
9.589999999999974
  3
Standard
100
AcDbOrdinateDimension
 13
31.79948308716229
 23
5.176747063520393
 33
0.0
 14
34.38948308716236
 24
5.176747063520436
 34
0.0
1001
ACAD
1000
DSTYLE
1002
{
1070
    42
1040
0.25
1070
   140
1040
0.7040000000000001
1070
   271
1070
     3
1002
}
  0
DIMENSION
  5
1B2
102
{ACAD_XDICTIONARY
360
1B3
102
}
102
{ACAD_REACTORS
330
1B4
102
}
330
1F
100
AcDbEntity
  8
0
100
AcDbDimension
  2
*D41
 10
22.70948308716232
 20
-4.41325293647958
 30
0.0
 11
31.79948308716229
 21
-6.793919603146191
 31
0.0
 70
   102
 71
     5
 42
9.089999999999974
  3
Standard
100
AcDbOrdinateDimension
 13
31.79948308716229
 23
-1.823252936479633
 33
0.0
 14
31.79948308716229
 24
-5.41325293647953
 34
0.0
1001
ACAD
1000
DSTYLE
1002
{
1070
    42
1040
0.25
1070
   140
1040
0.7040000000000001
1070
   271
1070
     3
1002
}
  0
DIMENSION
  5
1B5
330
1F
100
AcDbEntity
  8
0
100
AcDbDimension
  2
*D27
 10
22.70948308716232
 20
-4.41325293647958
 30
0.0
 11
24.29948308716235
 21
-6.735252936479568
 31
0.0
 70
   102
 71
     5
 42
1.59000000000003
  3
Standard
100
AcDbOrdinateDimension
 13
24.29948308716235
 23
-1.823252936479633
 33
0.0
 14
24.29948308716235
 24
-5.413252936479572
 34
0.0
1001
ACAD
1000
DSTYLE
1002
{
1070
    42
1040
0.25
1070
   140
1040
0.7040000000000001
1070
   271
1070
     3
1002
}
  0
DIMENSION
  5
1B6
330
1F
100
AcDbEntity
  8
0
100
AcDbDimension
  2
*D28
 10
22.70948308716232
 20
-4.41325293647958
 30
0.0
 11
35.82881642049571
 21
-1.823252936479589
 31
0.0
 70
    38
 71
     5
 42
2.589999999999945
  3
Standard
100
AcDbOrdinateDimension
 13
31.79948308716229
 23
-1.823252936479633
 33
0.0
 14
34.38948308716238
 24
-1.823252936479589
 34
0.0
1001
ACAD
1000
DSTYLE
1002
{
1070
    42
1040
0.25
1070
   140
1040
0.7040000000000001
1070
   271
1070
     3
1002
}
  0
DIMENSION
  5
1B7
330
1F
100
AcDbEntity
  8
0
100
AcDbDimension
  2
*D29
 10
22.70948308716232
 20
-4.41325293647958
 30
0.0
 11
22.70948308716232
 21
-6.67658626981291
 31
0.0
 70
   102
 71
     5
 42
0.0
  3
Standard
100
AcDbOrdinateDimension
 13
22.70948308716232
 23
-4.41325293647958
 33
0.0
 14
22.70948308716232
 24
-5.41325293647958
 34
0.0
1001
ACAD
1000
DSTYLE
1002
{
1070
    42
1040
0.25
1070
   140
1040
0.7040000000000001
1070
   271
1070
     3
1002
}
  0
DIMENSION
  5
1B8
102
{ACAD_XDICTIONARY
360
1B9
102
}
102
{ACAD_REACTORS
330
1BA
102
}
330
1F
100
AcDbEntity
  8
0
100
AcDbDimension
  2
*D42
 10
22.70948308716232
 20
-4.41325293647958
 30
0.0
 11
20.44614975382887
 21
-4.41325293647958
 31
0.0
 70
    38
 71
     5
 42
0.0
  3
Standard
100
AcDbOrdinateDimension
 13
22.70948308716221
 23
-4.41325293647958
 33
0.0
 14
21.70948308716221
 24
-4.41325293647958
 34
0.0
1001
ACAD
1000
DSTYLE
1002
{
1070
    42
1040
0.25
1070
   140
1040
0.7040000000000001
1070
   271
1070
     3
1002
}
  0
CIRCLE
  5
1BB
330
1F
100
AcDbEntity
  8
0
100
AcDbCircle
 10
24.29948308716235
 20
29.67674706352037
 30
0.0
 40
0.1875
  0
CIRCLE
  5
1BC
102
{ACAD_REACTORS
330
1A0
102
}
330
1F
100
AcDbEntity
  8
0
100
AcDbCircle
 10
31.79948308716229
 20
29.67674706352037
 30
0.0
 40
0.1875
  0
CIRCLE
  5
1BF
330
1F
100
AcDbEntity
  8
0
100
AcDbCircle
 10
31.79948308716229
 20
5.176747063520393
 30
0.0
 40
0.1875
  0
CIRCLE
  5
1C0
330
1F
100
AcDbEntity
  8
0
100
AcDbCircle
 10
24.29948308716235
 20
5.176747063520393
 30
0.0
 40
0.1875
  0
CIRCLE
  5
1C1
102
{ACAD_REACTORS
330
1B4
102
}
330
1F
100
AcDbEntity
  8
0
100
AcDbCircle
 10
31.79948308716229
 20
-1.823252936479633
 30
0.0
 40
0.1875
  0
CIRCLE
  5
1C2
330
1F
100
AcDbEntity
  8
0
100
AcDbCircle
 10
24.29948308716235
 20
-1.823252936479633
 30
0.0
 40
0.1875
  0
CIRCLE
  5
1C3
102
{ACAD_REACTORS
330
1A7
330
191
102
}
330
1F
100
AcDbEntity
  8
0
100
AcDbCircle
 10
32.21741939884658
 20
21.3012684199237
 30
0.0
 40
0.625
  0
CIRCLE
  5
1C4
102
{ACAD_REACTORS
330
1A4
330
194
102
}
330
1F
100
AcDbEntity
  8
0
100
AcDbCircle
 10
28.04948308716235
 20
25.35134002048116
 30
0.0
 40
4.625
  0
LINE
  5
1C5
102
{ACAD_REACTORS
330
1B0
330
1AD
102
}
330
1F
100
AcDbEntity
  8
0
100
AcDbLine
 10
23.20948308716226
 20
10.72479584759136
 30
0.0
 11
23.20948308716226
 21
7.618545847591092
 31
0.0
  0
LINE
  5
1C6
330
1F
100
AcDbEntity
  8
0
100
AcDbLine
 10
23.20948308716226
 20
10.72479584759136
 30
0.0
 11
32.88948308716233
 21
10.72479584759136
 31
0.0
  0
LINE
  5
1C7
102
{ACAD_REACTORS
330
197
102
}
330
1F
100
AcDbEntity
  8
0
100
AcDbLine
 10
23.20948308716226
 20
7.618545847591065
 30
0.0
 11
32.88948308716233
 21
7.618545847591065
 31
0.0
  0
LINE
  5
1C8
330
1F
100
AcDbEntity
  8
0
100
AcDbLine
 10
32.88948308716233
 20
7.618545847591092
 30
0.0
 11
32.88948308716233
 21
10.72479584759136
 31
0.0
  0
LINE
  5
1C9
102
{ACAD_REACTORS
330
19D
102
}
330
1F
100
AcDbEntity
  8
0
  6
HIDDEN
100
AcDbLine
 10
33.38948308716227
 20
30.7667470635204
 30
0.0
 11
22.70948308716232
 21
30.76674706352034
 31
0.0
  0
LINE
  5
1CA
102
{ACAD_REACTORS
330
1BA
102
}
330
1F
100
AcDbEntity
  8
0
  6
HIDDEN
100
AcDbLine
 10
22.70948308716221
 20
-4.41325293647955
 30
0.0
 11
22.70948308716232
 21
30.7667470635204
 31
0.0
  0
LINE
  5
1CB
330
1F
100
AcDbEntity
  8
0
  6
HIDDEN
100
AcDbLine
 10
33.38948308716239
 20
-4.413252936479523
 30
0.0
 11
33.38948308716227
 21
30.7667470635204
 31
0.0
  0
LINE
  5
1CC
102
{ACAD_REACTORS
330
1BA
102
}
330
1F
100
AcDbEntity
  8
0
  6
HIDDEN
100
AcDbLine
 10
33.38948308716227
 20
-4.413252936479523
 30
0.0
 11
22.70948308716232
 21
-4.41325293647958
 31
0.0
  0
TEXT
  5
1CD
330
1F
100
AcDbEntity
  8
TEXT
100
AcDbText
 10
24.5339706227742
 20
37.34359887190746
 30
0.0
 40
0.7031024928776187
  1
IQ2200HE-CF
 72
     1
 11
28.04948308716229
 21
37.34359887190746
 31
0.0
100
AcDbText
  0
TEXT
  5
1CE
330
1F
100
AcDbEntity
  8
TEXT
100
AcDbText
 10
22.89339813939308
 20
36.09171519567596
 30
0.0
 40
0.7031024928776187
  1
CUT OUT DRAWING
 72
     1
 11
28.04948308716229
 21
36.09171519567596
 31
0.0
100
AcDbText
  0
LINE
  5
403
330
1F
100
AcDbEntity
  8
BORDER
100
AcDbLine
 10
9.297177301984428
 20
-10.65785259815988
 30
0.0
 11
9.297177301984428
 21
-8.211384510260181
 31
0.0
  0
LWPOLYLINE
  5
404
330
1F
100
AcDbEntity
  8
BORDER
100
AcDbPolyline
 90
        4
 70
     1
 43
0.0
 10
9.297177301984444
 20
40.31023256641424
 10
48.03151798715791
 20
40.31023256641424
 10
48.03151798715791
 20
-10.65785259815988
 10
9.297177301984444
 20
-10.65785259815988
  0
TEXT
  5
405
330
1F
100
AcDbEntity
  8
TEXT
100
AcDbText
 10
47.24789980318623
 20
-10.47568768796781
 30
0.0
 40
0.5096808516457411
  1
1
 72
     1
 11
47.33284661179385
 21
-10.22084726214494
 31
0.0
100
AcDbText
 73
     2
  0
TEXT
  5
406
330
1F
100
AcDbEntity
  8
TEXT
100
AcDbText
 10
42.25020526003565
 20
-10.47568768796781
 30
0.0
 40
0.5096808516457411
  1
IQ291229
 72
     1
 11
44.03408824079575
 21
-10.22084726214494
 31
0.0
100
AcDbText
 73
     2
  0
TEXT
  5
407
330
1F
100
AcDbEntity
  8
TEXT
100
AcDbText
 10
42.1840695644961
 20
-9.439807351269301
 30
0.0
 40
0.5096808516457411
  1
IQ2200HE-CF
 72
     1
 11
44.7324738227248
 21
-9.184966925446431
 31
0.0
100
AcDbText
 73
     2
  0
TEXT
  5
408
330
1F
100
AcDbEntity
  8
TEXT
100
AcDbText
 10
44.02133009407091
 20
-8.273912403129669
 30
0.0
 40
0.1274202129114353
  1
724-837-2204  *  1-888-867-8234
 72
     1
 11
45.9432516388184
 21
-8.210202296673951
 31
0.0
100
AcDbText
 73
     2
  0
TEXT
  5
409
330
1F
100
AcDbEntity
  8
TEXT
100
AcDbText
 10
44.71152291400785
 20
-8.019071977306726
 30
0.0
 40
0.1274202129114353
  1
GREENSBURG, PA  15601
 72
     1
 11
45.9432516388184
 21
-7.955361870851008
 31
0.0
100
AcDbText
 73
     2
  0
TEXT
  5
40A
330
1F
100
AcDbEntity
  8
TEXT
100
AcDbText
 10
44.902653233375
 20
-7.764231551483931
 30
0.0
 40
0.1274202129114353
  1
141 WILSON AVENUE
 72
     1
 11
45.9432516388184
 21
-7.700521445028214
 31
0.0
100
AcDbText
 73
     2
  0
TEXT
  5
40B
330
1F
100
AcDbEntity
  8
TEXT
100
AcDbText
 10
44.26555216881783
 20
-7.522133146952129
 30
0.0
 40
0.1274202129114353
  1
INDUSTRIAL COOLING EQUIPMENT
 72
     1
 11
45.9432516388184
 21
-7.458423040496412
 31
0.0
100
AcDbText
 73
     2
  0
TEXT
  5
40C
330
1F
100
AcDbEntity
  8
TEXT
100
AcDbText
 10
44.8814165312231
 20
-8.528752828952468
 30
0.0
 40
0.1274202129114353
  1
FAX  724-837-3386
 72
     1
 11
45.9432516388184
 21
-8.46504272249675
 31
0.0
100
AcDbText
 73
     2
  0
LINE
  5
40D
330
1F
100
AcDbEntity
  8
BORDER
100
AcDbLine
 10
41.43400124516171
 20
-7.299147774357115
 30
0.0
 11
48.03151798715792
 21
-7.299147774357115
 31
0.0
  0
LINE
  5
40E
330
1F
100
AcDbEntity
  8
BORDER
100
AcDbLine
 10
41.43400124516171
 20
-8.573349903471481
 30
0.0
 11
48.03151798715792
 21
-8.573349903471481
 31
0.0
  0
LINE
  5
40F
330
1F
100
AcDbEntity
  8
BORDER
100
AcDbLine
 10
41.43400124516171
 20
-9.592711606762952
 30
0.0
 11
48.03151798715792
 21
-9.592711606762952
 31
0.0
  0
LINE
  5
410
330
1F
100
AcDbEntity
  8
BORDER
100
AcDbLine
 10
46.63417523642988
 20
-9.592711606762952
 30
0.0
 11
46.63417523642988
 21
-10.65785259815988
 31
0.0
  0
TEXT
  5
411
330
1F
100
AcDbEntity
  8
TEXT
100
AcDbText
 10
38.26158580828711
 20
-10.50550479646051
 30
0.0
 40
0.2548404258228705
  1
SHEET 1 OF 1
 72
     1
 11
39.6632081503129
 21
-10.37808458354908
 31
0.0
100
AcDbText
 73
     2
  0
LINE
  5
412
330
1F
100
AcDbEntity
  8
BORDER
100
AcDbLine
 10
37.86623528364152
 20
-10.10239245840869
 30
0.0
 11
41.43400124516171
 21
-10.10239245840869
 31
0.0
  0
TEXT
  5
413
330
1F
100
AcDbEntity
  8
TEXT
100
AcDbText
 10
38.77941347617348
 20
-9.970866226629878
 30
0.0
 40
0.2548404258228705
  1
12-31-09
 72
     1
 11
39.65011826440162
 21
-9.843446013718443
 31
0.0
100
AcDbText
 73
     2
  0
TEXT
  5
414
330
1F
100
AcDbEntity
  8
TEXT
100
AcDbText
 10
37.99365549655296
 20
-9.783841926130113
 30
0.0
 40
0.1274202129114353
  1
DATE
100
AcDbText
  0
TEXT
  5
415
330
1F
100
AcDbEntity
  8
TEXT
100
AcDbText
 10
38.47657810348731
 20
-9.547350010966471
 30
0.0
 40
0.1911303193671529
  1
JMH
 72
     1
 11
38.73141852931018
 21
-9.451784851282894
 31
0.0
100
AcDbText
 73
     2
  0
TEXT
  5
416
330
1F
100
AcDbEntity
  8
TEXT
100
AcDbText
 10
37.94013900713018
 20
-9.274161074484366
 30
0.0
 40
0.1274202129114353
  1
DRAWN
100
AcDbText
  0
TEXT
  5
417
330
1F
100
AcDbEntity
  8
TEXT
100
AcDbText
 10
39.77753847731305
 20
-9.274161074484366
 30
0.0
 40
0.1274202129114353
  1
SCALE
100
AcDbText
  0
TEXT
  5
418
330
1F
100
AcDbEntity
  8
TEXT
100
AcDbText
 10
40.21841241398663
 20
-9.547350010966471
 30
0.0
 40
0.1911303193671529
  1
NONE
 72
     1
 11
40.56881799949308
 21
-9.451784851282894
 31
0.0
100
AcDbText
 73
     2
  0
LINE
  5
419
330
1F
100
AcDbEntity
  8
BORDER
100
AcDbLine
 10
37.86623528364152
 20
-9.083030755117212
 30
0.0
 11
41.43400124516171
 21
-9.083030755117212
 31
0.0
  0
LINE
  5
41A
330
1F
100
AcDbEntity
  8
BORDER
100
AcDbLine
 10
37.86623528364152
 20
-9.592711606762952
 30
0.0
 11
41.43400124516171
 21
-9.592711606762952
 31
0.0
  0
LINE
  5
41B
330
1F
100
AcDbEntity
  8
BORDER
100
AcDbLine
 10
41.43400124516171
 20
-10.65785259815988
 30
0.0
 11
41.43400124516171
 21
-7.299147774357115
 31
0.0
  0
LINE
  5
41C
330
1F
100
AcDbEntity
  8
TEXT
100
AcDbLine
 10
42.1632277358197
 20
-8.365685524204049
 30
0.0
 11
42.18502665202652
 21
-8.379481554282866
 31
0.0
  0
ARC
  5
41D
330
1F
100
AcDbEntity
  8
TEXT
100
AcDbCircle
 10
42.30553861189401
 20
-8.219196222037705
 30
0.0
 40
0.083974120160085
100
AcDbArc
 50
287.1920036507392
 51
335.8997504051536
  0
ARC
  5
41E
330
1F
100
AcDbEntity
  8
TEXT
100
AcDbCircle
 10
42.47353990363472
 20
-8.332328950078339
 30
0.0
 40
0.0390640318638282
100
AcDbArc
 50
67.37252950712535
 51
112.6274704928676
  0
ARC
  5
41F
330
1F
100
AcDbEntity
  8
TEXT
100
AcDbCircle
 10
42.46123347285703
 20
-8.264838766027764
 30
0.0
 40
0.0551762408426592
100
AcDbArc
 50
330.1916644163828
 51
19.91318758187999
  0
ARC
  5
420
330
1F
100
AcDbEntity
  8
TEXT
100
AcDbCircle
 10
42.38782376078097
 20
-8.233939965901846
 30
0.0
 40
0.0203406993533431
100
AcDbArc
 50
253.9290889125597
 51
38.652674775114
  0
ARC
  5
421
330
1F
100
AcDbEntity
  8
TEXT
100
AcDbCircle
 10
42.73352527344131
 20
-8.254993912544081
 30
0.0
 40
0.0422636225364738
100
AcDbArc
 50
188.1927496775747
 51
244.8496170020148
  0
ARC
  5
422
330
1F
100
AcDbEntity
  8
TEXT
100
AcDbCircle
 10
42.73300843143746
 20
-8.214083581028418
 30
0.0
 40
0.0810664487178012
100
AcDbArc
 50
257.573093086619
 51
314.4273867462269
  0
LINE
  5
423
330
1F
100
AcDbEntity
  8
TEXT
100
AcDbLine
 10
42.87426961850014
 20
-8.304210354742579
 30
0.0
 11
42.87555989411456
 21
-8.289382658593261
 31
0.0
  0
LINE
  5
424
330
1F
100
AcDbEntity
  8
TEXT
100
AcDbLine
 10
42.87555989411456
 20
-8.289382658593261
 30
0.0
 11
42.85362491093252
 21
-8.290672026766058
 31
0.0
  0
ARC
  5
425
330
1F
100
AcDbEntity
  8
TEXT
100
AcDbCircle
 10
42.85318135189704
 20
-8.272801324360957
 30
0.0
 40
0.0178762062270483
100
AcDbArc
 50
155.9964711746264
 51
271.4218156194853
  0
ARC
  5
426
330
1F
100
AcDbEntity
  8
TEXT
100
AcDbCircle
 10
43.00847164454952
 20
-8.264060340888597
 30
0.0
 40
0.0418959370992066
100
AcDbArc
 50
203.9135879631542
 51
286.1701931802543
  0
ARC
  5
427
330
1F
100
AcDbEntity
  8
TEXT
100
AcDbCircle
 10
43.02851743317819
 20
-8.245741623731181
 30
0.0
 40
0.0591535141697652
100
AcDbArc
 50
261.8576121462839
 51
331.2394802847383
  0
ARC
  5
428
330
1F
100
AcDbEntity
  8
TEXT
100
AcDbCircle
 10
43.0260089076634
 20
-8.236550811404072
 30
0.0
 40
0.0661304742957596
100
AcDbArc
 50
325.2939034707313
 51
356.4132772462207
  0
LINE
  5
429
330
1F
100
AcDbEntity
  8
TEXT
100
AcDbLine
 10
42.44814299782457
 20
-7.638935879238037
 30
0.0
 11
42.61775794181793
 21
-7.638935879238037
 31
0.0
  0
ARC
  5
42A
330
1F
100
AcDbEntity
  8
TEXT
100
AcDbCircle
 10
42.54071197155546
 20
-7.635353187336633
 30
0.0
 40
0.0771292241304657
100
AcDbArc
 50
357.337623744369
 51
85.63084243886233
  0
ARC
  5
42B
330
1F
100
AcDbEntity
  8
TEXT
100
AcDbCircle
 10
42.51666809411586
 20
-7.701121160384079
 30
0.0
 40
0.1457765134379907
100
AcDbArc
 50
78.15621523985548
 51
106.6122408520358
  0
LINE
  5
42C
330
1F
100
AcDbEntity
  8
TEXT
100
AcDbLine
 10
42.44814299782457
 20
-7.620623851395341
 30
0.0
 11
42.55937290333869
 21
-7.620623851395341
 31
0.0
  0
ARC
  5
42D
330
1F
100
AcDbEntity
  8
TEXT
100
AcDbCircle
 10
42.50233680387757
 20
-7.631208514408771
 30
0.0
 40
0.0552177843238222
100
AcDbArc
 50
103.9179608005984
 51
168.9486088950471
  0
ARC
  5
42E
330
1F
100
AcDbEntity
  8
TEXT
100
AcDbCircle
 10
42.51504171559868
 20
-7.619223626002923
 30
0.0
 40
0.0443532956790781
100
AcDbArc
 50
358.1908821763629
 51
69.74957583402929
  0
ARC
  5
42F
330
1F
100
AcDbEntity
  8
TEXT
100
AcDbCircle
 10
42.50972429879888
 20
-7.745941515035755
 30
0.0
 40
0.1695938859987873
100
AcDbArc
 50
82.99970676551479
 51
97.00029323448521
  0
ARC
  5
430
330
1F
100
AcDbEntity
  8
TEXT
100
AcDbCircle
 10
42.50850054691755
 20
-7.661335361778987
 30
0.0
 40
0.1053760102407792
100
AcDbArc
 50
108.54166133208
 51
149.7652339536173
  0
ARC
  5
431
330
1F
100
AcDbEntity
  8
TEXT
100
AcDbCircle
 10
42.50917497185372
 20
-7.664545395217379
 30
0.0
 40
0.1076026138767659
100
AcDbArc
 50
148.4692011102835
 51
195.5802361373379
  0
ARC
  5
432
330
1F
100
AcDbEntity
  8
TEXT
100
AcDbCircle
 10
42.50718449837338
 20
-7.667751420310302
 30
0.0
 40
0.1048552806696757
100
AcDbArc
 50
194.1847393568155
 51
248.6586767321129
  0
ARC
  5
433
330
1F
100
AcDbEntity
  8
TEXT
100
AcDbCircle
 10
42.55025440973667
 20
-7.640190650501831
 30
0.0
 40
0.1021191210970161
100
AcDbArc
 50
179.2959701761241
 51
227.5915484940839
  0
ARC
  5
434
330
1F
100
AcDbEntity
  8
TEXT
100
AcDbCircle
 10
42.52798409113245
 20
-7.65836881802146
 30
0.0
 40
0.0737965061688043
100
AcDbArc
 50
230.841648863773
 51
280.5326941523482
  0
ARC
  5
435
330
1F
100
AcDbEntity
  8
TEXT
100
AcDbCircle
 10
42.53762854713828
 20
-7.638373398177082
 30
0.0
 40
0.0926283604078677
100
AcDbArc
 50
272.3792098458871
 51
327.3581874363218
  0
ARC
  5
436
330
1F
100
AcDbEntity
  8
TEXT
100
AcDbCircle
 10
42.51024479459688
 20
-7.618922795279612
 30
0.0
 40
0.1521824787564249
100
AcDbArc
 50
254.2847830849396
 51
294.1819270465994
  0
ARC
  5
437
330
1F
100
AcDbEntity
  8
TEXT
100
AcDbCircle
 10
42.52259835804757
 20
-7.656716552995432
 30
0.0
 40
0.1127234158522562
100
AcDbArc
 50
296.3233923707218
 51
339.8348331475783
  0
ARC
  5
438
330
1F
100
AcDbEntity
  8
TEXT
100
AcDbCircle
 10
42.62078618350392
 20
-7.694133821884245
 30
0.0
 40
0.0077610208654275
100
AcDbArc
 50
349.2952029716974
 51
131.6626905469361
  0
ARC
  5
439
330
1F
100
AcDbEntity
  8
TEXT
100
AcDbCircle
 10
42.2916398879814
 20
-7.88033364035299
 30
0.0
 40
0.3252162371354315
100
AcDbArc
 50
84.62122141578795
 51
95.37877858421206
  0
ARC
  5
43A
330
1F
100
AcDbEntity
  8
TEXT
100
AcDbCircle
 10
42.31114015907418
 20
-7.630703512955692
 30
0.0
 40
0.0749633841299307
100
AcDbArc
 50
43.16761867319049
 51
81.57335966331341
  0
ARC
  5
43B
330
1F
100
AcDbEntity
  8
TEXT
100
AcDbCircle
 10
42.33979162125288
 20
-7.598987397123124
 30
0.0
 40
0.032560190718427
100
AcDbArc
 50
321.1558234807585
 51
36.94217904229961
  0
ARC
  5
43C
330
1F
100
AcDbEntity
  8
TEXT
100
AcDbCircle
 10
42.34597528477229
 20
-7.594569778295422
 30
0.0
 40
0.0313802526613191
100
AcDbArc
 50
205.1359642898991
 51
307.6679722285764
  0
ARC
  5
43D
330
1F
100
AcDbEntity
  8
TEXT
100
AcDbCircle
 10
42.35253068942774
 20
-7.593896656366901
 30
0.0
 40
0.0376636582082259
100
AcDbArc
 50
180.010674400693
 51
201.825185271803
  0
ARC
  5
43E
330
1F
100
AcDbEntity
  8
TEXT
100
AcDbCircle
 10
42.27783255783758
 20
-7.605026416741292
 30
0.0
 40
0.0386686913429353
100
AcDbArc
 50
16.716844407307
 51
45.97719400399777
  0
ARC
  5
43F
330
1F
100
AcDbEntity
  8
TEXT
100
AcDbCircle
 10
42.2844907362101
 20
-7.891030903092075
 30
0.0
 40
0.3144601147480231
100
AcDbArc
 50
86.31431733544657
 51
93.90381943516564
  0
ARC
  5
440
330
1F
100
AcDbEntity
  8
TEXT
100
AcDbCircle
 10
42.27315654747736
 20
-7.653382672361946
 30
0.0
 40
0.0975742562336998
100
AcDbArc
 50
97.06566064011505
 51
142.4986334312246
  0
ARC
  5
441
330
1F
100
AcDbEntity
  8
TEXT
100
AcDbCircle
 10
42.2722735119751
 20
-7.668635927930458
 30
0.0
 40
0.1069092726291883
100
AcDbArc
 50
135.7093780000635
 51
195.2317137751529
  0
ARC
  5
442
330
1F
100
AcDbEntity
  8
TEXT
100
AcDbCircle
 10
42.26216180553386
 20
-7.671878040630192
 30
0.0
 40
0.0963021545161457
100
AcDbArc
 50
194.9511061487671
 51
259.6103135862126
  0
ARC
  5
443
330
1F
100
AcDbEntity
  8
TEXT
100
AcDbCircle
 10
42.27754120224128
 20
-7.667961100010836
 30
0.0
 40
0.1039337363525359
100
AcDbArc
 50
251.6347706403311
 51
316.4182924463649
  0
ARC
  5
444
330
1F
100
AcDbEntity
  8
TEXT
100
AcDbCircle
 10
42.26447735159081
 20
-7.635117058641808
 30
0.0
 40
0.1368405513058665
100
AcDbArc
 50
310.2152586008202
 51
331.3072507285896
  0
ARC
  5
445
330
1F
100
AcDbEntity
  8
TEXT
100
AcDbCircle
 10
42.30400425638387
 20
-7.656341543433356
 30
0.0
 40
0.0890064783056415
100
AcDbArc
 50
117.3722826858102
 51
160.0902491401813
  0
ARC
  5
446
330
1F
100
AcDbEntity
  8
TEXT
100
AcDbCircle
 10
42.31550106516555
 20
-7.647930898202003
 30
0.0
 40
0.0976702040753471
100
AcDbArc
 50
167.0430028911411
 51
212.1309371309446
  0
ARC
  5
447
330
1F
100
AcDbEntity
  8
TEXT
100
AcDbCircle
 10
42.2946367151552
 20
-7.659489237233071
 30
0.0
 40
0.0738657704904844
100
AcDbArc
 50
213.1462108998123
 51
285.6537258536394
  0
ARC
  5
448
330
1F
100
AcDbEntity
  8
TEXT
100
AcDbCircle
 10
42.29530804567423
 20
-7.641256815983602
 30
0.0
 40
0.0914104226032628
100
AcDbArc
 50
282.1628426667851
 51
326.5593609179303
  0
ARC
  5
449
330
1F
100
AcDbEntity
  8
TEXT
100
AcDbCircle
 10
42.37437367035613
 20
-7.701398525852518
 30
0.0
 40
0.0101578825912818
100
AcDbArc
 50
3.288025410275707
 51
105.9275278804377
  0
LINE
  5
44A
330
1F
100
AcDbEntity
  8
TEXT
100
AcDbLine
 10
41.89565353922668
 20
-7.337769957597313
 30
0.0
 11
41.89897269721447
 21
-7.609744886723579
 31
0.0
  0
LINE
  5
44B
330
1F
100
AcDbEntity
  8
TEXT
100
AcDbLine
 10
41.92220680312874
 20
-7.370937638341143
 30
0.0
 11
41.92386638212274
 21
-7.609744886723579
 31
0.0
  0
ARC
  5
44C
330
1F
100
AcDbEntity
  8
TEXT
100
AcDbCircle
 10
41.91141953966858
 20
-7.610201404292383
 30
0.0
 40
0.0124552115746212
100
AcDbArc
 50
177.899482485688
 51
2.100517514311817
  0
LINE
  5
44D
330
1F
100
AcDbEntity
  8
TEXT
100
AcDbLine
 10
41.97926567461176
 20
-7.382930674429237
 30
0.0
 11
41.97926567461176
 21
-7.798680219735249
 31
0.0
  0
LINE
  5
44E
330
1F
100
AcDbEntity
  8
TEXT
100
AcDbLine
 10
42.09982539558594
 20
-7.382930674429237
 30
0.0
 11
42.09982539558594
 21
-7.798680219735249
 31
0.0
  0
ARC
  5
44F
330
1F
100
AcDbEntity
  8
TEXT
100
AcDbCircle
 10
41.93429605747562
 20
-7.371518319661351
 30
0.0
 40
0.0121031922010387
100
AcDbArc
 50
38.20381851856394
 51
177.2500340797979
  0
LINE
  5
450
330
1F
100
AcDbEntity
  8
TEXT
100
AcDbLine
 10
41.94380693565075
 20
-7.364032970117627
 30
0.0
 11
41.97926567461176
 21
-7.382930674429237
 31
0.0
  0
LINE
  5
451
330
1F
100
AcDbEntity
  8
TEXT
100
AcDbLine
 10
42.1352841345467
 20
-7.364032970117627
 30
0.0
 11
42.09982539558594
 21
-7.382930674429237
 31
0.0
  0
LINE
  5
452
330
1F
100
AcDbEntity
  8
TEXT
100
AcDbLine
 10
42.15688426706871
 20
-7.370937638341143
 30
0.0
 11
42.15674755002761
 21
-7.390610712366789
 31
0.0
  0
LINE
  5
453
330
1F
100
AcDbEntity
  8
TEXT
100
AcDbLine
 10
42.18343753097077
 20
-7.337769957597313
 30
0.0
 11
42.18279266707166
 21
-7.390610712366789
 31
0.0
  0
ARC
  5
454
330
1F
100
AcDbEntity
  8
TEXT
100
AcDbCircle
 10
42.1447950127221
 20
-7.371518319661351
 30
0.0
 40
0.0121031922010387
100
AcDbArc
 50
2.7499659202021
 51
141.796181481436
  0
ARC
  5
455
330
1F
100
AcDbEntity
  8
TEXT
100
AcDbCircle
 10
42.16977010854972
 20
-7.399214302702175
 30
0.0
 40
0.0156079722295946
100
AcDbArc
 50
146.5485285753441
 51
33.45147142465556
  0
ARC
  5
456
330
1F
100
AcDbEntity
  8
TEXT
100
AcDbCircle
 10
43.39647612743542
 20
-8.248894063864652
 30
0.0
 40
0.0077610208654275
100
AcDbArc
 50
349.2952029716974
 51
131.6626905469361
  0
ARC
  5
457
330
1F
100
AcDbEntity
  8
TEXT
100
AcDbCircle
 10
43.29828830197905
 20
-8.211476794976089
 30
0.0
 40
0.1127234158522562
100
AcDbArc
 50
296.3233923707218
 51
339.8348331475783
  0
ARC
  5
458
330
1F
100
AcDbEntity
  8
TEXT
100
AcDbCircle
 10
43.28593473852843
 20
-8.173683037260172
 30
0.0
 40
0.1521824787564249
100
AcDbArc
 50
254.2847830849396
 51
294.1819270465994
  0
ARC
  5
459
330
1F
100
AcDbEntity
  8
TEXT
100
AcDbCircle
 10
43.31331849106985
 20
-8.193133640157636
 30
0.0
 40
0.0926283604078677
100
AcDbArc
 50
272.3792098458871
 51
327.3581874363218
  0
ARC
  5
45A
330
1F
100
AcDbEntity
  8
TEXT
100
AcDbCircle
 10
43.30367403506399
 20
-8.213129060002007
 30
0.0
 40
0.0737965061688043
100
AcDbArc
 50
230.841648863773
 51
280.5326941523482
  0
ARC
  5
45B
330
1F
100
AcDbEntity
  8
TEXT
100
AcDbCircle
 10
43.32594435366821
 20
-8.194950892482465
 30
0.0
 40
0.1021191210970161
100
AcDbArc
 50
179.2959701761241
 51
227.5915484940839
  0
ARC
  5
45C
330
1F
100
AcDbEntity
  8
TEXT
100
AcDbCircle
 10
43.28287444230485
 20
-8.222511662290955
 30
0.0
 40
0.1048552806696757
100
AcDbArc
 50
194.1847393568155
 51
248.6586767321129
  0
ARC
  5
45D
330
1F
100
AcDbEntity
  8
TEXT
100
AcDbCircle
 10
43.28486491578518
 20
-8.219305637197898
 30
0.0
 40
0.1076026138767659
100
AcDbArc
 50
148.4692011102835
 51
195.5802361373379
  0
ARC
  5
45E
330
1F
100
AcDbEntity
  8
TEXT
100
AcDbCircle
 10
43.28419049084902
 20
-8.216095603759605
 30
0.0
 40
0.1053760102407792
100
AcDbArc
 50
108.54166133208
 51
149.7652339536173
  0
ARC
  5
45F
330
1F
100
AcDbEntity
  8
TEXT
100
AcDbCircle
 10
43.28541424273042
 20
-8.300701757016422
 30
0.0
 40
0.1695938859987873
100
AcDbArc
 50
82.99970676551479
 51
97.00029323448521
  0
ARC
  5
460
330
1F
100
AcDbEntity
  8
TEXT
100
AcDbCircle
 10
43.29073165953011
 20
-8.173983867983476
 30
0.0
 40
0.0443532956790781
100
AcDbArc
 50
358.1908821763629
 51
69.74957583402929
  0
ARC
  5
461
330
1F
100
AcDbEntity
  8
TEXT
100
AcDbCircle
 10
43.27802674780913
 20
-8.185968756389351
 30
0.0
 40
0.0552177843238222
100
AcDbArc
 50
103.9179608005984
 51
168.9486088950471
  0
LINE
  5
462
330
1F
100
AcDbEntity
  8
TEXT
100
AcDbLine
 10
43.22383294175602
 20
-8.175384093375923
 30
0.0
 11
43.33506284727024
 21
-8.175384093375923
 31
0.0
  0
ARC
  5
463
330
1F
100
AcDbEntity
  8
TEXT
100
AcDbCircle
 10
43.29235803804745
 20
-8.255881402364732
 30
0.0
 40
0.1457765134379907
100
AcDbArc
 50
78.15621523985548
 51
106.6122408520358
  0
ARC
  5
464
330
1F
100
AcDbEntity
  8
TEXT
100
AcDbCircle
 10
43.31640191548696
 20
-8.19011342931725
 30
0.0
 40
0.0771292241304657
100
AcDbArc
 50
357.337623744369
 51
85.63084243886233
  0
LINE
  5
465
330
1F
100
AcDbEntity
  8
TEXT
100
AcDbLine
 10
43.22383294175602
 20
-8.193696121218772
 30
0.0
 11
43.3934478857495
 21
-8.193696121218772
 31
0.0
  0
ARC
  5
466
330
1F
100
AcDbEntity
  8
TEXT
100
AcDbCircle
 10
41.98826822035129
 20
-7.824161928332701
 30
0.0
 40
0.0270252345565322
100
AcDbArc
 50
109.4580308571273
 51
191.0341765877007
  0
ARC
  5
467
330
1F
100
AcDbEntity
  8
TEXT
100
AcDbCircle
 10
41.95372574028957
 20
-7.830844135341102
 30
0.0
 40
0.0081577723279197
100
AcDbArc
 50
155.9249042338181
 51
10.66497725508799
  0
ARC
  5
468
330
1F
100
AcDbEntity
  8
TEXT
100
AcDbCircle
 10
41.93105563190971
 20
-7.837208426435792
 30
0.0
 40
0.0180456507765809
100
AcDbArc
 50
32.48569494743564
 51
175.1979664789355
  0
ARC
  5
469
330
1F
100
AcDbEntity
  8
TEXT
100
AcDbCircle
 10
41.9070309048079
 20
-7.838575602894517
 30
0.0
 40
0.0066927394348194
100
AcDbArc
 50
158.7719549350954
 51
25.46716058584087
  0
ARC
  5
46A
330
1F
100
AcDbEntity
  8
TEXT
100
AcDbCircle
 10
41.89137266920266
 20
-7.834170810072883
 30
0.0
 40
0.0096257735995931
100
AcDbArc
 50
348.1206509806774
 51
136.2651890953773
  0
ARC
  5
46B
330
1F
100
AcDbEntity
  8
TEXT
100
AcDbCircle
 10
41.89021699784762
 20
-7.839242693088922
 30
0.0
 40
0.0130820970569145
100
AcDbArc
 50
116.3151684036785
 51
258.4674100382152
  0
ARC
  5
46C
330
1F
100
AcDbEntity
  8
TEXT
100
AcDbCircle
 10
41.8946847712987
 20
-7.858778340131858
 30
0.0
 40
0.0097621171375419
100
AcDbArc
 50
356.7423630506751
 51
136.5172760690069
  0
ARC
  5
46D
330
1F
100
AcDbEntity
  8
TEXT
100
AcDbCircle
 10
41.90790290200545
 20
-7.864438446112639
 30
0.0
 40
0.0061739830866347
100
AcDbArc
 50
124.2167745950174
 51
319.7988197133694
  0
ARC
  5
46E
330
1F
100
AcDbEntity
  8
TEXT
100
AcDbCircle
 10
41.93262810264892
 20
-7.875602737930361
 30
0.0
 40
0.0212585287293903
100
AcDbArc
 50
160.2627782819637
 51
255.1333022011724
  0
ARC
  5
46F
330
1F
100
AcDbEntity
  8
TEXT
100
AcDbCircle
 10
41.93248267934388
 20
-7.894056758423448
 30
0.0
 40
0.0057065395840888
100
AcDbArc
 50
201.5154657473976
 51
41.96660508022736
  0
ARC
  5
470
330
1F
100
AcDbEntity
  8
TEXT
100
AcDbCircle
 10
41.95235999610196
 20
-7.879903186594165
 30
0.0
 40
0.0187429455981067
100
AcDbArc
 50
121.2424246402128
 51
213.473239708375
  0
ARC
  5
471
330
1F
100
AcDbEntity
  8
TEXT
100
AcDbCircle
 10
41.94784798051421
 20
-7.873060182883032
 30
0.0
 40
0.010556616597499
100
AcDbArc
 50
332.2921775479049
 51
119.5678571759903
  0
ARC
  5
472
330
1F
100
AcDbEntity
  8
TEXT
100
AcDbCircle
 10
41.94982646743335
 20
-7.895318183171172
 30
0.0
 40
0.0188491112553039
100
AcDbArc
 50
312.9867785858861
 51
66.99118422926638
  0
ARC
  5
473
330
1F
100
AcDbEntity
  8
TEXT
100
AcDbCircle
 10
42.03100015408316
 20
-8.041351738275459
 30
0.0
 40
0.1488511596759254
100
AcDbArc
 50
117.322218089242
 51
179.3383492613259
  0
ARC
  5
474
330
1F
100
AcDbEntity
  8
TEXT
100
AcDbCircle
 10
42.51136866739246
 20
-8.090123772937968
 30
0.0
 40
0.6312323191318453
100
AcDbArc
 50
175.4121316267021
 51
191.7939289657055
  0
ARC
  5
475
330
1F
100
AcDbEntity
  8
TEXT
100
AcDbCircle
 10
41.89222898130134
 20
-8.247957188880063
 30
0.0
 40
0.0288407518815704
100
AcDbArc
 50
15.17145974978874
 51
87.54918714297627
  0
ARC
  5
476
330
1F
100
AcDbEntity
  8
TEXT
100
AcDbCircle
 10
44.49602513337339
 20
-8.328273825787771
 30
0.0
 40
2.577458655362939
100
AcDbArc
 50
178.0464319449979
 51
181.7502526685598
  0
LINE
  5
477
330
1F
100
AcDbEntity
  8
TEXT
100
AcDbLine
 10
41.94737885325075
 20
-8.279432408604634
 30
0.0
 11
41.94634510152737
 21
-8.403909423113145
 31
0.0
  0
ARC
  5
478
330
1F
100
AcDbEntity
  8
TEXT
100
AcDbCircle
 10
41.95169363525315
 20
-8.278509585419335
 30
0.0
 40
0.0044123628997899
100
AcDbArc
 50
333.6879001367225
 51
192.072245755338
  0
LINE
  5
479
330
1F
100
AcDbEntity
  8
TEXT
100
AcDbLine
 10
41.95564884577087
 20
-8.280465411618353
 30
0.0
 11
41.95564884577087
 21
-8.299059491091133
 31
0.0
  0
ARC
  5
47A
330
1F
100
AcDbEntity
  8
TEXT
100
AcDbCircle
 10
41.96149410575256
 20
-8.297711436636632
 30
0.0
 40
0.00599869277985
100
AcDbArc
 50
192.9866902548923
 51
33.38063139741052
  0
ARC
  5
47B
330
1F
100
AcDbEntity
  8
TEXT
100
AcDbCircle
 10
41.97713772410302
 20
-8.301367045105353
 30
0.0
 40
0.012707469463738
100
AcDbArc
 50
17.66955929970848
 51
146.8111142491861
  0
ARC
  5
47C
330
1F
100
AcDbEntity
  8
TEXT
100
AcDbCircle
 10
42.01694913694931
 20
-8.28191249251207
 30
0.0
 40
0.0317924943799086
100
AcDbArc
 50
209.3802246625984
 51
263.8421008682747
  0
LINE
  5
47D
330
1F
100
AcDbEntity
  8
TEXT
100
AcDbLine
 10
42.01353879341089
 20
-8.313521545896309
 30
0.0
 11
42.01664002731397
 21
-8.356907735536932
 31
0.0
  0
ARC
  5
47E
330
1F
100
AcDbEntity
  8
TEXT
100
AcDbCircle
 10
42.0297179047121
 20
-8.358735074067576
 30
0.0
 40
0.0132049249656259
100
AcDbArc
 50
172.0457056516397
 51
14.81661014794206
  0
LINE
  5
47F
330
1F
100
AcDbEntity
  8
TEXT
100
AcDbLine
 10
42.04248375659729
 20
-8.355358231016317
 30
0.0
 11
42.04455126004407
 21
-8.337280653050411
 31
0.0
  0
ARC
  5
480
330
1F
100
AcDbEntity
  8
TEXT
100
AcDbCircle
 10
42.04926133954486
 20
-8.336730311377413
 30
0.0
 40
0.0047421224004218
100
AcDbArc
 50
318.6510821797593
 51
186.6644145786489
  0
LINE
  5
481
330
1F
100
AcDbEntity
  8
TEXT
100
AcDbLine
 10
42.05282125256407
 20
-8.339863160584826
 30
0.0
 11
42.0554056106054
 21
-8.363622255126253
 31
0.0
  0
ARC
  5
482
330
1F
100
AcDbEntity
  8
TEXT
100
AcDbCircle
 10
42.06425384337184
 20
-8.365451900590953
 30
0.0
 40
0.009035420610806
100
AcDbArc
 50
168.3169857564316
 51
15.04995211451588
  0
LINE
  5
483
330
1F
100
AcDbEntity
  8
TEXT
100
AcDbLine
 10
42.07297934736883
 20
-8.363105753619441
 30
0.0
 11
42.07297934736883
 21
-8.343478671132954
 31
0.0
  0
ARC
  5
484
330
1F
100
AcDbEntity
  8
TEXT
100
AcDbCircle
 10
42.08475170340286
 20
-8.353693909328708
 30
0.0
 40
0.0155865152612638
100
AcDbArc
 50
65.19241843010743
 51
139.050810698879
  0
ARC
  5
485
330
1F
100
AcDbEntity
  8
TEXT
100
AcDbCircle
 10
42.09479479069718
 20
-8.354670840090005
 30
0.0
 40
0.0155255981649413
100
AcDbArc
 50
7.606980527162162
 51
103.0413594591621
  0
LINE
  5
486
330
1F
100
AcDbEntity
  8
TEXT
100
AcDbLine
 10
42.11018375458841
 20
-8.352615605618424
 30
0.0
 11
42.11672341243676
 21
-8.442652837957414
 31
0.0
  0
LINE
  5
487
330
1F
100
AcDbEntity
  8
TEXT
100
AcDbLine
 10
42.1450619864921
 20
-8.439748417210637
 30
0.0
 11
42.14724188661949
 21
-8.368589957563521
 31
0.0
  0
ARC
  5
488
330
1F
100
AcDbEntity
  8
TEXT
100
AcDbCircle
 10
42.15510913942265
 20
-8.366446049890187
 30
0.0
 40
0.0081541404684094
100
AcDbArc
 50
5.351678383090964
 51
195.2435488026394
  0
LINE
  5
489
330
1F
100
AcDbEntity
  8
TEXT
100
AcDbLine
 10
42.18502665202652
 20
-8.379481554282866
 30
0.0
 11
42.18647991877825
 21
-8.424500176758593
 31
0.0
  0
ARC
  5
48A
330
1F
100
AcDbEntity
  8
TEXT
100
AcDbCircle
 10
42.22613957906967
 20
-8.38964705212172
 30
0.0
 40
0.0076060349786647
100
AcDbArc
 50
354.5219056877808
 51
214.9448543763829
  0
ARC
  5
48B
330
1F
100
AcDbEntity
  8
TEXT
100
AcDbCircle
 10
42.2471863947825
 20
-8.390893720298389
 30
0.0
 40
0.0134855699988159
100
AcDbArc
 50
177.787775166229
 51
326.3805826419357
  0
ARC
  5
48C
330
1F
100
AcDbEntity
  8
TEXT
100
AcDbCircle
 10
42.38652275109873
 20
-8.37480622316904
 30
0.0
 40
0.0073758297633604
100
AcDbArc
 50
144.5711585108376
 51
21.75301147887019
  0
LINE
  5
48D
330
1F
100
AcDbEntity
  8
TEXT
100
AcDbLine
 10
42.39337334857789
 20
-8.372072694519719
 30
0.0
 11
42.39388777872182
 21
-8.333004301583798
 31
0.0
  0
ARC
  5
48E
330
1F
100
AcDbEntity
  8
TEXT
100
AcDbCircle
 10
42.38653955089022
 20
-8.337459982085125
 30
0.0
 40
0.0085935755651832
100
AcDbArc
 50
31.23099864076726
 51
160.1819529381846
  0
ARC
  5
48F
330
1F
100
AcDbEntity
  8
TEXT
100
AcDbCircle
 10
42.41481914203588
 20
-8.350517867092236
 30
0.0
 40
0.0397170113195697
100
AcDbArc
 50
156.2885975497952
 51
210.2571046136444
  0
ARC
  5
490
330
1F
100
AcDbEntity
  8
TEXT
100
AcDbCircle
 10
42.52718814495541
 20
-8.413314984954897
 30
0.0
 40
0.0245218569695123
100
AcDbArc
 50
341.5477100758359
 51
84.99888070834156
  0
ARC
  5
491
330
1F
100
AcDbEntity
  8
TEXT
100
AcDbCircle
 10
42.53786441258617
 20
-8.441772238993133
 30
0.0
 40
0.0535706111637416
100
AcDbArc
 50
99.17143729878524
 51
127.7955283290939
  0
ARC
  5
492
330
1F
100
AcDbEntity
  8
TEXT
100
AcDbCircle
 10
42.43393150196786
 20
-8.394027197026595
 30
0.0
 40
0.0059394709973391
100
AcDbArc
 50
312.7998628402736
 51
120.0581864533373
  0
ARC
  5
493
330
1F
100
AcDbEntity
  8
TEXT
100
AcDbCircle
 10
42.43448038537457
 20
-8.375838282029459
 30
0.0
 40
0.0135156575674083
100
AcDbArc
 50
129.1527393458021
 51
254.8870408388504
  0
ARC
  5
494
330
1F
100
AcDbEntity
  8
TEXT
100
AcDbCircle
 10
42.3828913328638
 20
-8.33254691766065
 30
0.0
 40
0.0541321766727322
100
AcDbArc
 50
322.6907301981534
 51
8.220255073940986
  0
ARC
  5
495
330
1F
100
AcDbEntity
  8
TEXT
100
AcDbCircle
 10
42.44136546614403
 20
-8.320091320928709
 30
0.0
 40
0.0067993222353269
100
AcDbArc
 50
89.05883162362073
 51
223.9137905963005
  0
ARC
  5
496
330
1F
100
AcDbEntity
  8
TEXT
100
AcDbCircle
 10
42.30556149432179
 20
-8.160246003110602
 30
0.0
 40
0.2046861573993906
100
AcDbArc
 50
311.6071689301104
 51
318.3515702307968
  0
ARC
  5
497
330
1F
100
AcDbEntity
  8
TEXT
100
AcDbCircle
 10
42.44057838449065
 20
-8.316296630003995
 30
0.0
 40
0.0520011725460635
100
AcDbArc
 50
337.3510782224615
 51
22.64892177753837
  0
ARC
  5
498
330
1F
100
AcDbEntity
  8
TEXT
100
AcDbCircle
 10
42.52548686006654
 20
-8.343184688240018
 30
0.0
 40
0.0375500914051544
100
AcDbArc
 50
169.468486757319
 51
223.1418439421427
  0
ARC
  5
499
330
1F
100
AcDbEntity
  8
TEXT
100
AcDbCircle
 10
42.49312112316278
 20
-8.347298691825169
 30
0.0
 40
0.0221276418564234
100
AcDbArc
 50
282.9712622283036
 51
25.35441378639511
  0
ARC
  5
49A
330
1F
100
AcDbEntity
  8
TEXT
100
AcDbCircle
 10
42.74504441995259
 20
-8.294464970280071
 30
0.0
 40
0.2359451402591565
100
AcDbArc
 50
179.4662202071271
 51
190.5890997840383
  0
ARC
  5
49B
330
1F
100
AcDbEntity
  8
TEXT
100
AcDbCircle
 10
42.33612021024234
 20
-8.086533511958734
 30
0.0
 40
0.2382642639125382
100
AcDbArc
 50
317.9732863042375
 51
40.61894937560235
  0
ARC
  5
49C
330
1F
100
AcDbEntity
  8
TEXT
100
AcDbCircle
 10
42.49422003157572
 20
-7.959529835299107
 30
0.0
 40
0.0361683096150365
100
AcDbArc
 50
51.01090143870957
 51
107.577946053111
  0
ARC
  5
49D
330
1F
100
AcDbEntity
  8
TEXT
100
AcDbCircle
 10
42.43216251609381
 20
-7.922172785923141
 30
0.0
 40
0.051215480035304
100
AcDbArc
 50
356.7791343814141
 51
50.8280133429896
  0
ARC
  5
49E
330
1F
100
AcDbEntity
  8
TEXT
100
AcDbCircle
 10
42.44502475939181
 20
-7.979526070334852
 30
0.0
 40
0.098995400017639
100
AcDbArc
 50
78.6467194011529
 51
92.8865786316482
  0
ARC
  5
49F
330
1F
100
AcDbEntity
  8
TEXT
100
AcDbCircle
 10
42.43385462534122
 20
-7.868401483087928
 30
0.0
 40
0.0137270555609936
100
AcDbArc
 50
296.7794474250819
 51
150.4674482996606
  0
ARC
  5
4A0
330
1F
100
AcDbEntity
  8
TEXT
100
AcDbCircle
 10
42.41185383020461
 20
-7.848791867242546
 30
0.0
 40
0.0163125120544415
100
AcDbArc
 50
174.1982733486934
 51
308.0634596483615
  0
ARC
  5
4A1
330
1F
100
AcDbEntity
  8
TEXT
100
AcDbCircle
 10
42.36533360242165
 20
-7.873729187282097
 30
0.0
 40
0.0403037486330172
100
AcDbArc
 50
41.27304036069129
 51
94.61991284103847
  0
ARC
  5
4A2
330
1F
100
AcDbEntity
  8
TEXT
100
AcDbCircle
 10
42.34919619467732
 20
-7.837347460852615
 30
0.0
 40
0.013437017058543
100
AcDbArc
 50
136.6395135700791
 51
16.38775991618533
  0
ARC
  5
4A3
330
1F
100
AcDbEntity
  8
TEXT
100
AcDbCircle
 10
42.32847446921272
 20
-7.840123332743651
 30
0.0
 40
0.0162478100079606
100
AcDbArc
 50
47.61705801860722
 51
152.6179806586006
  0
ARC
  5
4A4
330
1F
100
AcDbEntity
  8
TEXT
100
AcDbCircle
 10
42.29506959605076
 20
-7.841402464225282
 30
0.0
 40
0.0208983057746847
100
AcDbArc
 50
24.75773987532596
 51
121.5483884163393
  0
ARC
  5
4A5
330
1F
100
AcDbEntity
  8
TEXT
100
AcDbCircle
 10
42.26827286550257
 20
-7.829647946528902
 30
0.0
 40
0.0169787241644715
100
AcDbArc
 50
20.89289471578039
 51
159.1071052842194
  0
ARC
  5
4A6
330
1F
100
AcDbEntity
  8
TEXT
100
AcDbCircle
 10
42.24395216142847
 20
-7.821236099146567
 30
0.0
 40
0.0087805760921113
100
AcDbArc
 50
183.5606974541693
 51
344.4298925613464
  0
ARC
  5
4A7
330
1F
100
AcDbEntity
  8
TEXT
100
AcDbCircle
 10
42.21701205232386
 20
-7.840892753531345
 30
0.0
 40
0.0263747499599874
100
AcDbArc
 50
46.43616582623992
 51
130.6283095026662
  0
ARC
  5
4A8
330
1F
100
AcDbEntity
  8
TEXT
100
AcDbCircle
 10
42.19032074836125
 20
-7.823717311056909
 30
0.0
 40
0.0099325749901857
100
AcDbArc
 50
163.375655046466
 51
16.62434495353051
  0
ARC
  5
4A9
330
1F
100
AcDbEntity
  8
TEXT
100
AcDbCircle
 10
42.15278130540696
 20
-7.898094814580285
 30
0.0
 40
0.0821464222617712
100
AcDbArc
 50
70.05468846035579
 51
100.2232656721042
  0
ARC
  5
4AA
330
1F
100
AcDbEntity
  8
TEXT
100
AcDbCircle
 10
42.13140345039818
 20
-7.861090515772485
 30
0.0
 40
0.0443619141316411
100
AcDbArc
 50
81.18509483549694
 51
120.0392913824104
  0
ARC
  5
4AB
330
1F
100
AcDbEntity
  8
TEXT
100
AcDbCircle
 10
42.09840525800223
 20
-7.813066900940835
 30
0.0
 40
0.0144566035729705
100
AcDbArc
 50
318.2823815987276
 51
84.36248438139953
  0
ARC
  5
4AC
330
1F
100
AcDbEntity
  8
TEXT
100
AcDbCircle
 10
42.03336205701877
 20
-7.877338696403174
 30
0.0
 40
0.0207902913992979
100
AcDbArc
 50
35.60679995345922
 51
177.5845513854531
  0
LINE
  5
4AD
330
1F
100
AcDbEntity
  8
TEXT
100
AcDbLine
 10
42.05026522231429
 20
-7.865234184043848
 30
0.0
 11
42.04894330123924
 21
-7.88438835441596
 31
0.0
  0
LINE
  5
4AE
330
1F
100
AcDbEntity
  8
TEXT
100
AcDbLine
 10
42.01259023773348
 20
-7.876462488639035
 30
0.0
 11
42.01192927719588
 21
-7.925999133978399
 31
0.0
  0
ARC
  5
4AF
330
1F
100
AcDbEntity
  8
TEXT
100
AcDbCircle
 10
42.09582042990894
 20
-7.963354878909071
 30
0.0
 40
0.0918323319035131
100
AcDbArc
 50
120.6947626763568
 51
155.9971516553446
  0
ARC
  5
4B0
330
1F
100
AcDbEntity
  8
TEXT
100
AcDbCircle
 10
42.06203321777343
 20
-7.937890871700215
 30
0.0
 40
0.0170859295256878
100
AcDbArc
 50
218.6904014524232
 51
353.6659411500759
  0
ARC
  5
4B1
330
1F
100
AcDbEntity
  8
TEXT
100
AcDbCircle
 10
42.05259368331802
 20
-7.964553337530442
 30
0.0
 40
0.0164500218150791
100
AcDbArc
 50
103.7022990326946
 51
207.0193065629252
  0
ARC
  5
4B2
330
1F
100
AcDbEntity
  8
TEXT
100
AcDbCircle
 10
42.29669998709993
 20
-8.100828646285329
 30
0.0
 40
0.2890453171215877
100
AcDbArc
 50
153.5374647244112
 51
193.3327646348701
  0
ARC
  5
4B3
330
1F
100
AcDbEntity
  8
TEXT
100
AcDbCircle
 10
41.95968925284107
 20
-8.205109934207692
 30
0.0
 40
0.0672638203720832
100
AcDbArc
 50
346.9852122362369
 51
34.01252680042893
  0
ARC
  5
4B4
330
1F
100
AcDbEntity
  8
TEXT
100
AcDbCircle
 10
42.01593926434664
 20
-8.249640834115883
 30
0.0
 40
0.0308153276330387
100
AcDbArc
 50
345.4259909574664
 51
72.46181126870012
  0
ARC
  5
4B5
330
1F
100
AcDbEntity
  8
TEXT
100
AcDbCircle
 10
42.04800267721582
 20
-8.315751094962369
 30
0.0
 40
0.0583991497394838
100
AcDbArc
 50
18.24878221232236
 51
92.19784172829085
  0
ARC
  5
4B6
330
1F
100
AcDbEntity
  8
TEXT
100
AcDbCircle
 10
42.11051291798357
 20
-8.300593110305888
 30
0.0
 40
0.0077116990206751
100
AcDbArc
 50
156.0593073728624
 51
8.762281217119962
  0
ARC
  5
4B7
330
1F
100
AcDbEntity
  8
TEXT
100
AcDbCircle
 10
42.12715055174188
 20
-8.302627149938299
 30
0.0
 40
0.0095699306000212
100
AcDbArc
 50
1.658272028068491
 51
160.4091839300748
  0
ARC
  5
4B8
330
1F
100
AcDbEntity
  8
TEXT
100
AcDbCircle
 10
42.16314678004248
 20
-8.283985152857095
 30
0.0
 40
0.0321844135807072
100
AcDbArc
 50
214.7934494581965
 51
299.0409507876109
  0
ARC
  5
4B9
330
1F
100
AcDbEntity
  8
TEXT
100
AcDbCircle
 10
42.19933824162178
 20
-8.292922592553837
 30
0.0
 40
0.02813723678398
100
AcDbArc
 50
223.0305625061276
 51
311.2487591160724
  0
ARC
  5
4BA
330
1F
100
AcDbEntity
  8
TEXT
100
AcDbCircle
 10
42.23384658136441
 20
-8.309845489018091
 30
0.0
 40
0.0165083467576814
100
AcDbArc
 50
194.8546182240452
 51
330.451099434079
  0
ARC
  5
4BB
330
1F
100
AcDbEntity
  8
TEXT
100
AcDbCircle
 10
42.25994369724666
 20
-8.357410640382671
 30
0.0
 40
0.0411335309552485
100
AcDbArc
 50
33.67851647490044
 51
106.5775508010124
  0
ARC
  5
4BC
330
1F
100
AcDbEntity
  8
TEXT
100
AcDbCircle
 10
42.30590938851354
 20
-8.310471299293332
 30
0.0
 40
0.026832125695654
100
AcDbArc
 50
244.0629515517945
 51
24.326120312643
  0
ARC
  5
4BD
330
1F
100
AcDbEntity
  8
TEXT
100
AcDbCircle
 10
42.36809735036426
 20
-8.161148288777027
 30
0.0
 40
0.0698470511177751
100
AcDbArc
 50
300.6537348898141
 51
16.68245916375874
  0
ARC
  5
4BE
330
1F
100
AcDbEntity
  8
TEXT
100
AcDbCircle
 10
42.2327948400754
 20
-8.08650470749701
 30
0.0
 40
0.2094496260443933
100
AcDbArc
 50
344.8914411173256
 51
24.57723374822075
  0
ARC
  5
4BF
330
1F
100
AcDbEntity
  8
TEXT
100
AcDbCircle
 10
42.46495770194374
 20
-7.978326630397169
 30
0.0
 40
0.0467083108140666
100
AcDbArc
 50
155.9906329013486
 51
206.805730457695
  0
ARC
  5
4C0
330
1F
100
AcDbEntity
  8
TEXT
100
AcDbCircle
 10
42.4153603774577
 20
-7.959708373788962
 30
0.0
 40
0.0069410461327112
100
AcDbArc
 50
3.193725348484569
 51
193.0548754998599
  0
ARC
  5
4C1
330
1F
100
AcDbEntity
  8
TEXT
100
AcDbCircle
 10
42.39930778698608
 20
-7.971769852174681
 30
0.0
 40
0.0140156112859535
100
AcDbArc
 50
131.5213803610223
 51
48.47861963898633
  0
ARC
  5
4C2
330
1F
100
AcDbEntity
  8
TEXT
100
AcDbCircle
 10
42.35285783222967
 20
-7.941421649170563
 30
0.0
 40
0.0421307167368596
100
AcDbArc
 50
331.8837666959812
 51
33.32508059324594
  0
ARC
  5
4C3
330
1F
100
AcDbEntity
  8
TEXT
100
AcDbCircle
 10
42.37868738811165
 20
-7.920868792026261
 30
0.0
 40
0.0097255952255765
100
AcDbArc
 50
15.46471151433632
 51
237.0036058083551
  0
ARC
  5
4C4
330
1F
100
AcDbEntity
  8
TEXT
100
AcDbCircle
 10
42.36015924228595
 20
-7.935170920603932
 30
0.0
 40
0.0145891127578092
100
AcDbArc
 50
124.5991194751616
 51
24.91162951380403
  0
ARC
  5
4C5
330
1F
100
AcDbEntity
  8
TEXT
100
AcDbCircle
 10
42.31843447150867
 20
-7.907910016372477
 30
0.0
 40
0.0367545493655517
100
AcDbArc
 50
335.4827230531638
 51
36.54383594003193
  0
ARC
  5
4C6
330
1F
100
AcDbEntity
  8
TEXT
100
AcDbCircle
 10
42.27183360852288
 20
-8.022374198294128
 30
0.0
 40
0.1561627845554878
100
AcDbArc
 50
60.82353397560649
 51
101.6183182656855
  0
LINE
  5
4C7
330
1F
100
AcDbEntity
  8
TEXT
100
AcDbLine
 10
42.240383814369
 20
-7.869411046758365
 30
0.0
 11
42.23940582501028
 21
-7.906548048708617
 31
0.0
  0
ARC
  5
4C8
330
1F
100
AcDbEntity
  8
TEXT
100
AcDbCircle
 10
42.22500044295363
 20
-7.907253567041414
 30
0.0
 40
0.0144226484501158
100
AcDbArc
 50
165.3922446503685
 51
2.803879044206374
  0
LINE
  5
4C9
330
1F
100
AcDbEntity
  8
TEXT
100
AcDbLine
 10
42.21104400600295
 20
-7.903616170176255
 30
0.0
 11
42.20908802728518
 21
-7.875274791210426
 31
0.0
  0
ARC
  5
4CA
330
1F
100
AcDbEntity
  8
TEXT
100
AcDbCircle
 10
42.19642660898581
 20
-7.881617758673401
 30
0.0
 40
0.0141613823332594
100
AcDbArc
 50
26.60941129939736
 51
166.0619000058106
  0
LINE
  5
4CB
330
1F
100
AcDbEntity
  8
TEXT
100
AcDbLine
 10
42.18268218699545
 20
-7.878206657130268
 30
0.0
 11
42.18268218699545
 21
-7.890911413653324
 31
0.0
  0
ARC
  5
4CC
330
1F
100
AcDbEntity
  8
TEXT
100
AcDbCircle
 10
42.17147145438413
 20
-7.897956634948747
 30
0.0
 40
0.0132406823383822
100
AcDbArc
 50
179.1163546128549
 51
32.14670843865947
  0
LINE
  5
4CD
330
1F
100
AcDbEntity
  8
TEXT
100
AcDbLine
 10
42.15823234669023
 20
-7.89775243833683
 30
0.0
 11
42.15823234669023
 21
-7.944662330890397
 31
0.0
  0
ARC
  5
4CE
330
1F
100
AcDbEntity
  8
TEXT
100
AcDbCircle
 10
42.1406211711535
 20
-7.944888244222838
 30
0.0
 40
0.0176126244670897
100
AcDbArc
 50
182.4450201076249
 51
0.7349407504797699
  0
LINE
  5
4CF
330
1F
100
AcDbEntity
  8
TEXT
100
AcDbLine
 10
42.12302458090426
 20
-7.945639611121932
 30
0.0
 11
42.13084851704161
 21
-7.887002254889441
 31
0.0
  0
ARC
  5
4D0
330
1F
100
AcDbEntity
  8
TEXT
100
AcDbCircle
 10
42.12172964802753
 20
-7.888303738994245
 30
0.0
 40
0.0092112774886861
100
AcDbArc
 50
8.122642540875256
 51
202.9043136183461
  0
LINE
  5
4D1
330
1F
100
AcDbEntity
  8
TEXT
100
AcDbLine
 10
42.11324462351504
 20
-7.891888706497372
 30
0.0
 11
42.10933266607984
 21
-7.922184671151497
 31
0.0
  0
ARC
  5
4D2
330
1F
100
AcDbEntity
  8
TEXT
100
AcDbCircle
 10
42.09808573528618
 20
-7.921590395164012
 30
0.0
 40
0.0112626203092204
100
AcDbArc
 50
183.0246359049376
 51
356.9753640950624
  0
LINE
  5
4D3
330
1F
100
AcDbEntity
  8
TEXT
100
AcDbLine
 10
42.08683880449235
 20
-7.922184671151497
 30
0.0
 11
42.07901484708775
 21
-7.939775879282471
 31
0.0
  0
LINE
  5
4D4
330
1F
100
AcDbEntity
  8
TEXT
100
AcDbLine
 10
42.60782385480808
 20
-8.122409896432913
 30
0.0
 11
42.69040268507914
 21
-8.119186488613486
 31
0.0
  0
LINE
  5
4D5
330
1F
100
AcDbEntity
  8
TEXT
100
AcDbLine
 10
42.75298194558952
 20
-8.122409896432913
 30
0.0
 11
42.83556077586043
 21
-8.119186488613486
 31
0.0
  0
LINE
  5
4D6
330
1F
100
AcDbEntity
  8
TEXT
100
AcDbLine
 10
42.64137148865536
 20
-8.148197196825645
 30
0.0
 11
42.64266178553679
 21
-8.273265594271128
 31
0.0
  0
LINE
  5
4D7
330
1F
100
AcDbEntity
  8
TEXT
100
AcDbLine
 10
42.69040268507914
 20
-8.119186488613486
 30
0.0
 11
42.69169298196054
 21
-8.261016634467582
 31
0.0
  0
LINE
  5
4D8
330
1F
100
AcDbEntity
  8
TEXT
100
AcDbLine
 10
42.83556077586043
 20
-8.119186488613486
 30
0.0
 11
42.83685107274185
 21
-8.265529410459611
 31
0.0
  0
ARC
  5
4D9
330
1F
100
AcDbEntity
  8
TEXT
100
AcDbCircle
 10
42.62628031578469
 20
-8.147850134441402
 30
0.0
 40
0.0150951631627368
100
AcDbArc
 50
358.6825606331185
 51
106.404935772954
  0
LINE
  5
4DA
330
1F
100
AcDbEntity
  8
TEXT
100
AcDbLine
 10
42.60782385480808
 20
-8.122409896432913
 30
0.0
 11
42.60846899261525
 21
-8.131435461029898
 31
0.0
  0
LINE
  5
4DB
330
1F
100
AcDbEntity
  8
TEXT
100
AcDbLine
 10
42.62201707796903
 20
-8.133369500676407
 30
0.0
 11
42.60846899261525
 21
-8.131435461029898
 31
0.0
  0
LINE
  5
4DC
330
1F
100
AcDbEntity
  8
TEXT
100
AcDbLine
 10
42.75298194558952
 20
-8.122409896432913
 30
0.0
 11
42.75233680778237
 21
-8.134658868849204
 31
0.0
  0
LINE
  5
4DD
330
1F
100
AcDbEntity
  8
TEXT
100
AcDbLine
 10
42.75233680778237
 20
-8.134658868849204
 30
0.0
 11
42.77556210911287
 21
-8.135948237021999
 31
0.0
  0
LINE
  5
4DE
330
1F
100
AcDbEntity
  8
TEXT
100
AcDbLine
 10
42.78975533227364
 20
-8.271976226098342
 30
0.0
 11
42.78911019446653
 21
-8.148841880912055
 31
0.0
  0
ARC
  5
4DF
330
1F
100
AcDbEntity
  8
TEXT
100
AcDbCircle
 10
42.77989025628865
 20
-8.144965100554745
 30
0.0
 40
0.0100018341289752
100
AcDbArc
 50
337.1943218370272
 51
115.6412778855146
  0
ARC
  5
4E0
330
1F
100
AcDbEntity
  8
TEXT
100
AcDbCircle
 10
42.69231078753454
 20
-8.272608111023894
 30
0.0
 40
0.0496533552099118
100
AcDbArc
 50
180.7587023263156
 51
270.031539090741
  0
ARC
  5
4E1
330
1F
100
AcDbEntity
  8
TEXT
100
AcDbCircle
 10
42.7119330414523
 20
-8.209993100141723
 30
0.0
 40
0.1139655443179979
100
AcDbArc
 50
260.0995263030863
 51
313.0673878832467
  0
LINE
  5
4E2
330
1F
100
AcDbEntity
  8
TEXT
100
AcDbLine
 10
42.78975533227364
 20
-8.293250750499082
 30
0.0
 11
42.79040049134802
 21
-8.317748682718928
 31
0.0
  0
ARC
  5
4E3
330
1F
100
AcDbEntity
  8
TEXT
100
AcDbCircle
 10
42.79802926540535
 20
-8.314712731838111
 30
0.0
 40
0.0082106754514664
100
AcDbArc
 50
201.700602772435
 51
343.0678677067636
  0
ARC
  5
4E4
330
1F
100
AcDbEntity
  8
TEXT
100
AcDbCircle
 10
42.86918582870096
 20
-8.465046238075611
 30
0.0
 40
0.1609162088984523
100
AcDbArc
 50
88.18956599987521
 51
113.1652090520224
  0
LINE
  5
4E5
330
1F
100
AcDbEntity
  8
TEXT
100
AcDbLine
 10
42.91541363039897
 20
-8.047803145035047
 30
0.0
 11
42.92020500413427
 21
-8.296090960135579
 31
0.0
  0
LINE
  5
4E6
330
1F
100
AcDbEntity
  8
TEXT
100
AcDbLine
 10
42.96742654912217
 20
-8.014280182368494
 30
0.0
 11
42.96880320218131
 21
-8.138089616373902
 31
0.0
  0
ARC
  5
4E7
330
1F
100
AcDbEntity
  8
TEXT
100
AcDbCircle
 10
42.86616295031786
 20
-7.721448438007486
 30
0.0
 40
0.3098463279568098
100
AcDbArc
 50
273.5403564160214
 51
289.075801678542
  0
LINE
  5
4E8
330
1F
100
AcDbEntity
  8
TEXT
100
AcDbLine
 10
42.88529644533052
 20
-8.030703440096273
 30
0.0
 11
42.88666540925482
 21
-8.045751176910878
 31
0.0
  0
LINE
  5
4E9
330
1F
100
AcDbEntity
  8
TEXT
100
AcDbLine
 10
42.88666540925482
 20
-8.045751176910878
 30
0.0
 11
42.91541363039897
 21
-8.047803145035047
 31
0.0
  0
LINE
  5
4EA
330
1F
100
AcDbEntity
  8
TEXT
100
AcDbLine
 10
42.96948766287643
 20
-8.163397193809622
 30
0.0
 11
42.97017214483865
 21
-8.281043210708281
 31
0.0
  0
ARC
  5
4EB
330
1F
100
AcDbEntity
  8
TEXT
100
AcDbCircle
 10
43.04938870498196
 20
-8.244594594165686
 30
0.0
 40
0.1335564807715121
100
AcDbArc
 50
71.07988584761956
 51
127.1124618564865
  0
ARC
  5
4EC
330
1F
100
AcDbEntity
  8
TEXT
100
AcDbCircle
 10
43.04948693102541
 20
-8.200804914583155
 30
0.0
 40
0.0931747810414895
100
AcDbArc
 50
359.8698564192901
 51
62.37231490188333
  0
ARC
  5
4ED
330
1F
100
AcDbEntity
  8
TEXT
100
AcDbCircle
 10
43.01175456726097
 20
-8.191090655571871
 30
0.0
 40
0.0505313667995682
100
AcDbArc
 50
78.87075864991584
 51
146.7670066549814
  0
ARC
  5
4EE
330
1F
100
AcDbEntity
  8
TEXT
100
AcDbCircle
 10
43.027029118533
 20
-8.200089068250921
 30
0.0
 40
0.0588390828812146
100
AcDbArc
 50
21.58325850317256
 51
95.38396011116695
  0
ARC
  5
4EF
330
1F
100
AcDbEntity
  8
TEXT
100
AcDbCircle
 10
43.02241673984204
 20
-8.220199252394161
 30
0.0
 40
0.0725464324839344
100
AcDbArc
 50
343.5952529167626
 51
35.13836089167873
  0
ARC
  5
4F0
330
1F
100
AcDbEntity
  8
TEXT
100
AcDbCircle
 10
42.99898427339106
 20
-8.196362117077184
 30
0.0
 40
0.1270905795188049
100
AcDbArc
 50
231.6935697703408
 51
269.6626044169122
  0
ARC
  5
4F1
330
1F
100
AcDbEntity
  8
TEXT
100
AcDbCircle
 10
43.01215971567788
 20
-8.174305327753444
 30
0.0
 40
0.1497937029023418
100
AcDbArc
 50
264.6664639047648
 51
308.6423664458134
  0
ARC
  5
4F2
330
1F
100
AcDbEntity
  8
TEXT
100
AcDbCircle
 10
43.02965384230045
 20
-8.207461955574917
 30
0.0
 40
0.1131912871862471
100
AcDbArc
 50
312.2086974257856
 51
3.264333629957775
  0
ARC
  5
4F3
330
1F
100
AcDbEntity
  8
TEXT
100
AcDbCircle
 10
41.91209274420393
 20
-7.33500626837133
 30
0.0
 40
0.0166698961729974
100
AcDbArc
 50
32.93635467158786
 51
189.5430854165199
  0
ARC
  5
4F4
330
1F
100
AcDbEntity
  8
TEXT
100
AcDbCircle
 10
41.93841131019967
 20
-7.325526999492763
 30
0.0
 40
0.0123349458017271
100
AcDbArc
 50
181.931421762249
 51
21.08009584438978
  0
ARC
  5
4F5
330
1F
100
AcDbEntity
  8
TEXT
100
AcDbCircle
 10
41.95910492525971
 20
-7.322956556467406
 30
0.0
 40
0.0093718083089122
100
AcDbArc
 50
3.320051391017456
 51
168.5145862198274
  0
ARC
  5
4F6
330
1F
100
AcDbEntity
  8
TEXT
100
AcDbCircle
 10
41.97903046236913
 20
-7.328126095212699
 30
0.0
 40
0.0120143135725805
100
AcDbArc
 50
151.6108765070449
 51
6.217261201770576
  0
ARC
  5
4F7
330
1F
100
AcDbEntity
  8
TEXT
100
AcDbCircle
 10
42.00049970163784
 20
-7.32631676286152
 30
0.0
 40
0.0095391359425647
100
AcDbArc
 50
7.567610287757016
 51
183.0538693842452
  0
ARC
  5
4F8
330
1F
100
AcDbEntity
  8
TEXT
100
AcDbCircle
 10
42.01756258421506
 20
-7.320938000067098
 30
0.0
 40
0.0086521012861941
100
AcDbArc
 50
208.4553291170971
 51
16.75507449313882
  0
ARC
  5
4F9
330
1F
100
AcDbEntity
  8
TEXT
100
AcDbCircle
 10
42.03070116766251
 20
-7.32701894423366
 30
0.0
 40
0.0098535834517892
100
AcDbArc
 50
340.2175703033615
 51
119.511112702139
  0
ARC
  5
4FA
330
1F
100
AcDbEntity
  8
TEXT
100
AcDbCircle
 10
42.05415945424227
 20
-7.330406194410141
 30
0.0
 40
0.0141863127243638
100
AcDbArc
 50
179.7887253899368
 51
338.318548208448
  0
ARC
  5
4FB
330
1F
100
AcDbEntity
  8
TEXT
100
AcDbCircle
 10
42.08669414058575
 20
-7.345048699316262
 30
0.0
 40
0.0215148249408907
100
AcDbArc
 50
51.76909225769996
 51
154.0890012254433
  0
ARC
  5
4FC
330
1F
100
AcDbEntity
  8
TEXT
100
AcDbCircle
 10
42.11402234712779
 20
-7.325229077438237
 30
0.0
 40
0.0143149571224328
100
AcDbArc
 50
191.7667831442131
 51
294.1224948725133
  0
ARC
  5
4FD
330
1F
100
AcDbEntity
  8
TEXT
100
AcDbCircle
 10
42.13078490677095
 20
-7.334764238525717
 30
0.0
 40
0.0114688708054357
100
AcDbArc
 50
13.33841226381423
 51
197.9246330182951
  0
ARC
  5
4FE
330
1F
100
AcDbEntity
  8
TEXT
100
AcDbCircle
 10
42.15410047740228
 20
-7.3314654025205
 30
0.0
 40
0.0121736024573829
100
AcDbArc
 50
183.0745908828774
 51
5.2387267458245
  0
ARC
  5
4FF
330
1F
100
AcDbEntity
  8
TEXT
100
AcDbCircle
 10
42.17711931490656
 20
-7.328748811595382
 30
0.0
 40
0.0110136701159894
100
AcDbArc
 50
305.0065695458966
 51
188.3798152009863
  0
ARC
  5
500
330
1F
100
AcDbEntity
  8
TEXT
100
AcDbCircle
 10
41.93179325971338
 20
-8.394575080902642
 30
0.0
 40
0.0172883210487108
100
AcDbArc
 50
225.9317407159999
 51
327.321681293723
  0
ARC
  5
501
330
1F
100
AcDbEntity
  8
TEXT
100
AcDbCircle
 10
42.1313683005161
 20
-8.445841090107546
 30
0.0
 40
0.0149879184222679
100
AcDbArc
 50
167.7181143692787
 51
23.98551077365507
  0
ARC
  5
502
330
1F
100
AcDbEntity
  8
TEXT
100
AcDbCircle
 10
42.2044127532269
 20
-8.427428024620617
 30
0.0
 40
0.0181702736486337
100
AcDbArc
 50
170.7272794785986
 51
21.15794103948676
  0
LINE
  5
503
330
1F
100
AcDbEntity
  8
TEXT
100
AcDbLine
 10
42.22135815068187
 20
-8.420869644518829
 30
0.0
 11
42.21990488393022
 21
-8.394003695854474
 31
0.0
  0
LINE
  5
504
330
1F
100
AcDbEntity
  8
TEXT
100
AcDbLine
 10
42.25841628271315
 20
-8.398360326974671
 30
0.0
 11
42.2656825952044
 21
-8.436117884970883
 31
0.0
  0
ARC
  5
505
330
1F
100
AcDbEntity
  8
TEXT
100
AcDbCircle
 10
42.27461149930835
 20
-8.437905748468107
 30
0.0
 40
0.0091061399276468
100
AcDbArc
 50
168.6772178130462
 51
20.84321825743623
  0
LINE
  5
506
330
1F
100
AcDbEntity
  8
TEXT
100
AcDbLine
 10
42.28312171115624
 20
-8.434665674597539
 30
0.0
 11
42.28312171115624
 21
-8.4092519363065
 31
0.0
  0
ARC
  5
507
330
1F
100
AcDbEntity
  8
TEXT
100
AcDbCircle
 10
42.29474251684925
 20
-8.410397406046174
 30
0.0
 40
0.0116771240414276
100
AcDbArc
 50
354.9255052590734
 51
174.3705062402905
  0
LINE
  5
508
330
1F
100
AcDbEntity
  8
TEXT
100
AcDbLine
 10
42.30637387284775
 20
-8.41143025817302
 30
0.0
 11
42.30928038508403
 21
-8.482588717820162
 31
0.0
  0
ARC
  5
509
330
1F
100
AcDbEntity
  8
TEXT
100
AcDbCircle
 10
42.32378299856856
 20
-8.481099399179402
 30
0.0
 40
0.014578884315911
100
AcDbArc
 50
185.8633287467241
 51
2.70882780951028
  0
LINE
  5
50A
330
1F
100
AcDbEntity
  8
TEXT
100
AcDbLine
 10
42.33834559251514
 20
-8.480410395953741
 30
0.0
 11
42.33253256804252
 21
-8.421595743399214
 31
0.0
  0
LINE
  5
50B
330
1F
100
AcDbEntity
  8
TEXT
100
AcDbLine
 10
42.33253256804252
 20
-8.421595743399214
 30
0.0
 11
42.33907222589095
 21
-8.436843983851257
 31
0.0
  0
ARC
  5
50C
330
1F
100
AcDbEntity
  8
TEXT
100
AcDbCircle
 10
42.34863452355731
 20
-8.431607299396576
 30
0.0
 40
0.010902311715342
100
AcDbArc
 50
208.7068196476631
 51
351.5282258973499
  0
LINE
  5
50D
330
1F
100
AcDbEntity
  8
TEXT
100
AcDbLine
 10
42.35941787534613
 20
-8.433213451611536
 30
0.0
 11
42.35869124197029
 21
-8.422321854892278
 31
0.0
  0
ARC
  5
50E
330
1F
100
AcDbEntity
  8
TEXT
100
AcDbCircle
 10
42.37336251866524
 20
-8.426483357754307
 30
0.0
 40
0.0152500644565484
100
AcDbArc
 50
7.472141028409409
 51
164.1640293291679
  0
LINE
  5
50F
330
1F
100
AcDbEntity
  8
TEXT
100
AcDbLine
 10
42.38848308277722
 20
-8.424500176758593
 30
0.0
 11
42.39574937400156
 21
-8.484767027073885
 31
0.0
  0
ARC
  5
510
330
1F
100
AcDbEntity
  8
TEXT
100
AcDbCircle
 10
42.40992758901038
 20
-8.488396393339384
 30
0.0
 40
0.0146353708640564
100
AcDbArc
 50
165.6416373020916
 51
23.37981978602067
  0
LINE
  5
511
330
1F
100
AcDbEntity
  8
TEXT
100
AcDbLine
 10
42.42336131468092
 20
-8.482588717820162
 30
0.0
 11
42.42115249128263
 21
-8.428619059022716
 31
0.0
  0
ARC
  5
512
330
1F
100
AcDbEntity
  8
TEXT
100
AcDbCircle
 10
42.42530355019564
 20
-8.424141113693679
 30
0.0
 40
0.0061060039689248
100
AcDbArc
 50
60.02231951668158
 51
227.1694577924201
  0
LINE
  5
513
330
1F
100
AcDbEntity
  8
TEXT
100
AcDbLine
 10
42.42835449203084
 20
-8.418851970248205
 30
0.0
 11
42.45328150250172
 21
-8.42265963484534
 31
0.0
  0
ARC
  5
514
330
1F
100
AcDbEntity
  8
TEXT
100
AcDbCircle
 10
42.45138836064604
 20
-8.433550188079323
 30
0.0
 40
0.0110538742453156
100
AcDbArc
 50
327.1504341221702
 51
80.13862259361689
  0
LINE
  5
515
330
1F
100
AcDbEntity
  8
TEXT
100
AcDbLine
 10
42.4606746945764
 20
-8.439546198249981
 30
0.0
 11
42.46437130124724
 21
-8.544559590493417
 31
0.0
  0
LINE
  5
516
330
1F
100
AcDbEntity
  8
TEXT
100
AcDbLine
 10
42.49552836296689
 20
-8.542448759031687
 30
0.0
 11
42.49605644659609
 21
-8.435852262111037
 31
0.0
  0
ARC
  5
517
330
1F
100
AcDbEntity
  8
TEXT
100
AcDbCircle
 10
42.50436819892732
 20
-8.435113176590366
 30
0.0
 40
0.0083445475744706
100
AcDbArc
 50
32.94435831946177
 51
185.0814072168599
  0
ARC
  5
518
330
1F
100
AcDbEntity
  8
TEXT
100
AcDbCircle
 10
42.52824206799436
 20
-8.414849358703783
 30
0.0
 40
0.0230637695186895
100
AcDbArc
 50
222.9877626572327
 51
344.3358851615585
  0
ARC
  5
519
330
1F
100
AcDbEntity
  8
TEXT
100
AcDbCircle
 10
42.49618589461479
 20
-8.394939656082227
 30
0.0
 40
0.0099270234210487
100
AcDbArc
 50
193.9319034609791
 51
333.0378283509304
  0
ARC
  5
51A
330
1F
100
AcDbEntity
  8
TEXT
100
AcDbCircle
 10
42.47801383279144
 20
-8.407107709690503
 30
0.0
 40
0.012980353752801
100
AcDbArc
 50
48.87596376793599
 51
143.7953529790059
  0
ARC
  5
51B
330
1F
100
AcDbEntity
  8
TEXT
100
AcDbCircle
 10
42.45320094182585
 20
-8.386373262340287
 30
0.0
 40
0.0193999637572149
100
AcDbArc
 50
218.2556843178653
 51
317.6564247238853
  0
ARC
  5
51C
330
1F
100
AcDbEntity
  8
TEXT
100
AcDbCircle
 10
42.48007300931234
 20
-8.545322339716166
 30
0.0
 40
0.0157202233616527
100
AcDbArc
 50
177.2189023070876
 51
10.53261226457849
  0
LINE
  5
51D
330
1F
100
AcDbEntity
  8
DIMENSION
100
AcDbLine
 10
37.86623528364152
 20
-9.083030755117212
 30
0.0
 11
37.86623528364152
 21
-10.65785259815988
 31
0.0
  0
TEXT
  5
51E
330
1F
100
AcDbEntity
  8
TEXT
100
AcDbText
 10
34.52437970288728
 20
-10.46672227879272
 30
0.0
 40
0.1274202129114353
  1
ICE QUBE, INC.
 72
     1
 11
35.27828262927994
 21
-10.40301217233701
 31
0.0
100
AcDbText
 73
     2
  0
TEXT
  5
51F
330
1F
100
AcDbEntity
  8
TEXT
100
AcDbText
 10
33.11213900978554
 20
-10.27559195942556
 30
0.0
 40
0.1274202129114353
  1
OR ALTERED WITHOUT AUTHORIZATION OF
 72
     1
 11
35.27828262927994
 21
-10.21188185296985
 31
0.0
100
AcDbText
 73
     2
  0
TEXT
  5
520
330
1F
100
AcDbEntity
  8
TEXT
100
AcDbText
 10
33.01657385010196
 20
-10.08446164005843
 30
0.0
 40
0.1274202129114353
  1
QUBE, INC. AND IS NOT TO BE DUPLICATED
 72
     1
 11
35.27828262927994
 21
-10.02075153360271
 31
0.0
100
AcDbText
 73
     2
  0
TEXT
  5
521
330
1F
100
AcDbEntity
  8
TEXT
100
AcDbText
 10
33.13337571193744
 20
-9.893331320691274
 30
0.0
 40
0.1274202129114353
  1
THIS DRAWING IS THE PROPERTY OF ICE
 72
     1
 11
35.27828262927994
 21
-9.829621214235556
 31
0.0
100
AcDbText
 73
     2
  0
TEXT
  5
522
330
1F
100
AcDbEntity
  8
TEXT
100
AcDbText
 10
32.94224539257029
 20
-9.638490894868402
 30
0.0
 40
0.2548404258228705
  1
PROPRIETARY DRAWING
 72
     1
 11
35.27828262927994
 21
-9.511070681956967
 31
0.0
100
AcDbText
 73
     2
  0
LINE
  5
523
330
1F
100
AcDbEntity
  8
BORDER
100
AcDbLine
 10
37.86623528364152
 20
-10.65785259815988
 30
0.0
 11
32.6903299749183
 21
-10.65785259815988
 31
0.0
  0
LINE
  5
524
330
1F
100
AcDbEntity
  8
BORDER
100
AcDbLine
 10
37.86623528364152
 20
-10.65785259815988
 30
0.0
 11
37.86623528364152
 21
-9.256230256134088
 31
0.0
  0
LINE
  5
525
330
1F
100
AcDbEntity
  8
BORDER
100
AcDbLine
 10
37.86623528364152
 20
-9.083030755117212
 30
0.0
 11
32.73874373289884
 21
-9.083030755117212
 31
0.0
  0
LINE
  5
526
330
1F
100
AcDbEntity
  8
BORDER
100
AcDbLine
 10
32.73874373289884
 20
-9.083030755117212
 30
0.0
 11
32.73874373289884
 21
-10.65785259815988
 31
0.0
  0
LINE
  5
527
330
1F
100
AcDbEntity
  8
BORDER
100
AcDbLine
 10
22.54521238965885
 20
-9.434618554210032
 30
0.0
 11
9.297177301984428
 21
-9.434618554210032
 31
0.0
  0
TEXT
  5
528
330
1F
100
AcDbEntity
  8
TEXT
100
AcDbText
 10
9.692179962009879
 20
-9.740427065197549
 30
0.0
 40
0.2038723406582964
  1
0
 72
     1
 11
9.743148047174452
 21
-9.6384908948684
 31
0.0
100
AcDbText
 73
     2
  0
LINE
  5
529
330
1F
100
AcDbEntity
  8
BORDER
100
AcDbLine
 10
10.18911879236457
 20
-9.842363235526692
 30
0.0
 11
10.18911879236457
 21
-9.026873872893373
 31
0.0
  0
TEXT
  5
52A
330
1F
100
AcDbEntity
  8
TEXT
100
AcDbText
 10
13.05947145521624
 20
-9.740427065197549
 30
0.0
 40
0.2038723406582964
  1
INITIAL RELEASE
 72
     1
 11
14.45259911638127
 21
-9.6384908948684
 31
0.0
100
AcDbText
 73
     2
  0
TEXT
  5
52B
330
1F
100
AcDbEntity
  8
TEXT
100
AcDbText
 10
21.25585442638039
 20
-9.740427065197549
 30
0.0
 40
0.2038723406582964
  1
JMH
 72
     1
 11
21.52768421392478
 21
-9.6384908948684
 31
0.0
100
AcDbText
 73
     2
  0
LINE
  5
52C
330
1F
100
AcDbEntity
  8
BORDER
100
AcDbLine
 10
20.51015603819073
 20
-9.842363235526692
 30
0.0
 11
20.51015603819073
 21
-9.026873872893373
 31
0.0
  0
TEXT
  5
52D
330
1F
100
AcDbEntity
  8
TEXT
100
AcDbText
 10
18.91655390871181
 20
-9.740427065197549
 30
0.0
 40
0.2038723406582964
  1
12-31-09
 72
     1
 11
19.61311773929432
 21
-9.6384908948684
 31
0.0
100
AcDbText
 73
     2
  0
LINE
  5
52E
330
1F
100
AcDbEntity
  8
BORDER
100
AcDbLine
 10
18.7160794403978
 20
-9.842363235526692
 30
0.0
 11
18.7160794403978
 21
-9.026873872893373
 31
0.0
  0
LINE
  5
52F
330
1F
100
AcDbEntity
  8
BORDER
100
AcDbLine
 10
22.54521238965885
 20
-10.25010791684328
 30
0.0
 11
9.297177301984428
 21
-10.25010791684328
 31
0.0
  0
LINE
  5
530
330
1F
100
AcDbEntity
  8
BORDER
100
AcDbLine
 10
22.54521238965885
 20
-9.842363235526692
 30
0.0
 11
9.297177301984428
 21
-9.842363235526692
 31
0.0
  0
TEXT
  5
531
330
1F
100
AcDbEntity
  8
TEXT
100
AcDbText
 10
9.437339536187007
 20
-10.14817174651414
 30
0.0
 40
0.2038723406582964
  1
REV
 72
     1
 11
9.743148047174452
 21
-10.04623557618499
 31
0.0
100
AcDbText
 73
     2
  0
LINE
  5
532
330
1F
100
AcDbEntity
  8
BORDER
100
AcDbLine
 10
10.18911879236457
 20
-10.25010791684328
 30
0.0
 11
10.18911879236457
 21
-9.842363235526692
 31
0.0
  0
TEXT
  5
533
330
1F
100
AcDbEntity
  8
TEXT
100
AcDbText
 10
13.43323741308978
 20
-10.14817174651414
 30
0.0
 40
0.2038723406582964
  1
DESCRIPTION
 72
     1
 11
14.45259911638127
 21
-10.04623557618499
 31
0.0
100
AcDbText
 73
     2
  0
TEXT
  5
534
330
1F
100
AcDbEntity
  8
TEXT
100
AcDbText
 10
20.84810974506379
 20
-10.14817174651414
 30
0.0
 40
0.2038723406582964
  1
CHECKED
 72
     1
 11
21.52768421392478
 21
-10.04623557618499
 31
0.0
100
AcDbText
 73
     2
  0
LINE
  5
535
330
1F
100
AcDbEntity
  8
BORDER
100
AcDbLine
 10
20.51015603819073
 20
-10.25010791684328
 30
0.0
 11
20.51015603819073
 21
-9.842363235526692
 31
0.0
  0
TEXT
  5
536
330
1F
100
AcDbEntity
  8
TEXT
100
AcDbText
 10
19.23935178142078
 20
-10.14817174651414
 30
0.0
 40
0.2038723406582964
  1
DATE
 72
     1
 11
19.61311773929432
 21
-10.04623557618499
 31
0.0
100
AcDbText
 73
     2
  0
LINE
  5
537
330
1F
100
AcDbEntity
  8
BORDER
100
AcDbLine
 10
18.7160794403978
 20
-10.25010791684328
 30
0.0
 11
18.7160794403978
 21
-9.842363235526692
 31
0.0
  0
LINE
  5
538
330
1F
100
AcDbEntity
  8
BORDER
100
AcDbLine
 10
9.297177301984428
 20
-10.25010791684328
 30
0.0
 11
22.54521238965885
 21
-10.25010791684328
 31
0.0
  0
LINE
  5
539
330
1F
100
AcDbEntity
  8
BORDER
100
AcDbLine
 10
22.54521238965885
 20
-9.026873872893373
 30
0.0
 11
22.54521238965885
 21
-10.65785259815988
 31
0.0
  0
LINE
  5
53A
330
1F
100
AcDbEntity
  8
BORDER
100
AcDbLine
 10
22.54521238965885
 20
-10.65785259815988
 30
0.0
 11
9.297177301984428
 21
-10.65785259815988
 31
0.0
  0
TEXT
  5
53B
330
1F
100
AcDbEntity
  8
TEXT
100
AcDbText
 10
13.60313103030503
 20
-10.55591642783074
 30
0.0
 40
0.2038723406582964
  1
REVISIONS
 72
     1
 11
14.45259911638127
 21
-10.45398025750159
 31
0.0
100
AcDbText
 73
     2
  0
DIMENSION
  5
652
330
1F
100
AcDbEntity
  8
0
100
AcDbDimension
  2
*D65
 10
24.42354817741346
 20
20.4454225564245
 30
0.0
 11
17.95560593931048
 21
17.27341205217005
 31
0.0
 70
   163
  1
(8) <>
 71
     5
 42
0.3749999999999929
  3
Standard
100
AcDbDiametricDimension
 15
24.17541799691172
 25
20.16425283272694
 35
0.0
 40
0.0
1001
ACAD
1000
DSTYLE
1002
{
1070
    41
1040
0.7040000000000001
1070
    42
1040
0.25
1070
   140
1040
0.7040000000000001
1070
   271
1070
     3
1002
}
  0
DIMENSION
  5
66C
102
{ACAD_XDICTIONARY
360
66D
102
}
102
{ACAD_REACTORS
330
66E
102
}
330
1F
100
AcDbEntity
  8
0
100
AcDbDimension
  2
*D81
 10
22.70948308716237
 20
-4.413252936479572
 30
0.0
 11
36.12214975382904
 21
20.30483769457572
 31
0.0
 70
    38
 71
     5
 42
24.7180906310553
  3
Standard
100
AcDbOrdinateDimension
 13
31.79948308716254
 23
20.30483769457572
 33
0.0
 14
34.38948308716238
 24
20.30483769457572
 34
0.0
1001
ACAD
1000
DSTYLE
1002
{
1070
    42
1040
0.25
1070
   140
1040
0.7040000000000001
1070
   271
1070
     3
1002
}
  0
CIRCLE
  5
681
102
{ACAD_REACTORS
330
66E
102
}
330
1F
100
AcDbEntity
  8
0
100
AcDbCircle
 10
31.79948308716254
 20
20.30483769457572
 30
0.0
 40
0.1875
  0
CIRCLE
  5
682
330
1F
100
AcDbEntity
  8
0
100
AcDbCircle
 10
24.2994830871626
 20
20.30483769457572
 30
0.0
 40
0.1875
  0
TEXT
  5
79F
330
1F
100
AcDbEntity
  8
TEXT
100
AcDbText
 10
19.03547944076249
 20
-9.332682383880889
 30
0.0
 40
0.2038723406582964
  1
4-19-11
 72
     1
 11
19.61311773929432
 21
-9.230746213551741
 31
0.0
100
AcDbText
 73
     2
  0
TEXT
  5
7A0
330
1F
100
AcDbEntity
  8
TEXT
100
AcDbText
 10
21.25585442638039
 20
-9.332682383880889
 30
0.0
 40
0.2038723406582964
  1
JMH
 72
     1
 11
21.52768421392478
 21
-9.230746213551741
 31
0.0
100
AcDbText
 73
     2
  0
TEXT
  5
7A1
330
1F
100
AcDbEntity
  8
TEXT
100
AcDbText
 10
12.07408847536781
 20
-9.332682383880889
 30
0.0
 40
0.2038723406582964
  1
RELOCATED (2) %%C.375 HOLES
 72
     1
 11
14.45259911638127
 21
-9.230746213551741
 31
0.0
100
AcDbText
 73
     2
  0
TEXT
  5
7A2
330
1F
100
AcDbEntity
  8
TEXT
100
AcDbText
 10
9.709169323731403
 20
-9.332682383880889
 30
0.0
 40
0.2038723406582964
  1
1
 72
     1
 11
9.743148047174452
 21
-9.230746213551741
 31
0.0
100
AcDbText
 73
     2
  0
LINE
  5
7A3
330
1F
100
AcDbEntity
  8
BORDER
100
AcDbLine
 10
22.54521238965885
 20
-9.026873872893373
 30
0.0
 11
9.297177301984428
 21
-9.026873872893373
 31
0.0
  0
ENDSEC
  0
SECTION
  2
OBJECTS
  0
DICTIONARY
  5
C
330
0
100
AcDbDictionary
281
     1
  3
ACAD_COLOR
350
73
  3
ACAD_GROUP
350
D
  3
ACAD_LAYOUT
350
1A
  3
ACAD_MATERIAL
350
72
  3
ACAD_MLINESTYLE
350
17
  3
ACAD_PLOTSETTINGS
350
19
  3
ACAD_PLOTSTYLENAME
350
E
  3
ACDBHEADERROUNDTRIPXREC
350
7A5
  3
AcDbVariableDictionary
350
66
  0
DICTIONARY
  5
143
330
2
100
AcDbDictionary
280
     1
281
     1
  3
ACAD_LAYERFILTERS
360
53C
  3
ACAD_LAYERSTATES
360
144
  0
DICTIONARY
  5
190
330
18F
100
AcDbDictionary
280
     1
281
     1
  3
ACAD_DIMASSOC
360
191
  0
DICTIONARY
  5
193
330
192
100
AcDbDictionary
280
     1
281
     1
  3
ACAD_DIMASSOC
360
194
  0
DICTIONARY
  5
196
330
195
100
AcDbDictionary
280
     1
281
     1
  3
ACAD_DIMASSOC
360
197
  0
DICTIONARY
  5
19C
330
19B
100
AcDbDictionary
280
     1
281
     1
  3
ACAD_DIMASSOC
360
19D
  0
DICTIONARY
  5
19F
330
19E
100
AcDbDictionary
280
     1
281
     1
  3
ACAD_DIMASSOC
360
1A0
  0
DICTIONARY
  5
1A3
330
1A2
100
AcDbDictionary
280
     1
281
     1
  3
ACAD_DIMASSOC
360
1A4
  0
DICTIONARY
  5
1A6
330
1A5
100
AcDbDictionary
280
     1
281
     1
  3
ACAD_DIMASSOC
360
1A7
  0
DICTIONARY
  5
1AC
330
1AB
100
AcDbDictionary
280
     1
281
     1
  3
ACAD_DIMASSOC
360
1AD
  0
DICTIONARY
  5
1AF
330
1AE
100
AcDbDictionary
280
     1
281
     1
  3
ACAD_DIMASSOC
360
1B0
  0
DICTIONARY
  5
1B3
330
1B2
100
AcDbDictionary
280
     1
281
     1
  3
ACAD_DIMASSOC
360
1B4
  0
DICTIONARY
  5
1B9
330
1B8
100
AcDbDictionary
280
     1
281
     1
  3
ACAD_DIMASSOC
360
1BA
  0
DICTIONARY
  5
66D
330
66C
100
AcDbDictionary
280
     1
281
     1
  3
ACAD_DIMASSOC
360
66E
  0
DICTIONARY
  5
73
102
{ACAD_REACTORS
330
C
102
}
330
C
100
AcDbDictionary
281
     1
  0
DICTIONARY
  5
D
102
{ACAD_REACTORS
330
C
102
}
330
C
100
AcDbDictionary
281
     1
  0
DICTIONARY
  5
1A
102
{ACAD_REACTORS
330
C
102
}
330
C
100
AcDbDictionary
281
     1
  3
Layout1
350
59
  3
Layout2
350
5E
  3
Model
350
22
  0
DICTIONARY
  5
72
102
{ACAD_REACTORS
330
C
102
}
330
C
100
AcDbDictionary
281
     1
  0
DICTIONARY
  5
17
102
{ACAD_REACTORS
330
C
102
}
330
C
100
AcDbDictionary
281
     1
  3
Standard
350
18
  0
DICTIONARY
  5
19
102
{ACAD_REACTORS
330
C
102
}
330
C
100
AcDbDictionary
281
     1
  0
ACDBDICTIONARYWDFLT
  5
E
102
{ACAD_REACTORS
330
C
102
}
330
C
100
AcDbDictionary
281
     1
  3
Normal
350
F
100
AcDbDictionaryWithDefault
340
F
  0
DICTIONARY
  5
7A5
102
{ACAD_REACTORS
330
C
102
}
330
C
100
AcDbDictionary
281
     1
  3
COLORDICT
350
7A7
  3
MATERIALDICT
350
7A6
  0
DICTIONARY
  5
66
102
{ACAD_REACTORS
330
C
102
}
330
C
100
AcDbDictionary
281
     1
  3
DIMASSOC
350
67
  3
HIDETEXT
350
6B
  3
PROJECTNAME
350
53D
  0
DICTIONARY
  5
53C
102
{ACAD_REACTORS
330
143
102
}
330
143
100
AcDbDictionary
281
     1
  0
DICTIONARY
  5
144
102
{ACAD_REACTORS
330
143
102
}
330
143
100
AcDbDictionary
281
     1
  0
DIMASSOC
  5
191
102
{ACAD_REACTORS
330
190
102
}
330
190
100
AcDbDimAssoc
330
18F
 90
        2
 70
     0
 71
     0
  1
AcDbOsnapPointRef
 72
     3
331
1C3
 73
     2
 91
        0
 40
0.0
 10
0.0
 20
0.0
 30
0.0
 75
     0
  0
DIMASSOC
  5
194
102
{ACAD_REACTORS
330
193
102
}
330
193
100
AcDbDimAssoc
330
192
 90
        2
 70
     0
 71
     0
  1
AcDbOsnapPointRef
 72
     3
331
1C4
 73
     2
 91
        0
 40
0.0
 10
0.0
 20
0.0
 30
0.0
 75
     0
  0
DIMASSOC
  5
197
102
{ACAD_REACTORS
330
196
102
}
330
196
100
AcDbDimAssoc
330
195
 90
        2
 70
     0
 71
     0
  1
AcDbOsnapPointRef
 72
     1
331
1C7
 73
     2
 91
        0
 40
1.0
 10
0.0
 20
0.0
 30
2.000000000000000E+50
 75
     0
  0
DIMASSOC
  5
19D
102
{ACAD_REACTORS
330
19C
102
}
330
19C
100
AcDbDimAssoc
330
19B
 90
        2
 70
     0
 71
     0
  1
AcDbOsnapPointRef
 72
    13
331
1C9
 73
     2
 91
        0
 40
0.0
 10
0.0
 20
0.0
 30
2.000000000000000E+50
 75
     0
  0
DIMASSOC
  5
1A0
102
{ACAD_REACTORS
330
19F
102
}
330
19F
100
AcDbDimAssoc
330
19E
 90
        2
 70
     0
 71
     0
  1
AcDbOsnapPointRef
 72
     3
331
1BC
 73
     2
 91
        0
 40
0.0
 10
0.0
 20
0.0
 30
0.0
 75
     0
  0
DIMASSOC
  5
1A4
102
{ACAD_REACTORS
330
1A3
102
}
330
1A3
100
AcDbDimAssoc
330
1A2
 90
        2
 70
     0
 71
     0
  1
AcDbOsnapPointRef
 72
     3
331
1C4
 73
     2
 91
        0
 40
0.0
 10
0.0
 20
0.0
 30
0.0
 75
     0
  0
DIMASSOC
  5
1A7
102
{ACAD_REACTORS
330
1A6
102
}
330
1A6
100
AcDbDimAssoc
330
1A5
 90
        2
 70
     0
 71
     0
  1
AcDbOsnapPointRef
 72
     3
331
1C3
 73
     2
 91
        0
 40
0.0
 10
0.0
 20
0.0
 30
0.0
 75
     0
  0
DIMASSOC
  5
1AD
102
{ACAD_REACTORS
330
1AC
102
}
330
1AC
100
AcDbDimAssoc
330
1AB
 90
        2
 70
     0
 71
     0
  1
AcDbOsnapPointRef
 72
    13
331
1C5
 73
     2
 91
        0
 40
0.0
 10
0.0
 20
0.0
 30
2.000000000000000E+50
 75
     0
  0
DIMASSOC
  5
1B0
102
{ACAD_REACTORS
330
1AF
102
}
330
1AF
100
AcDbDimAssoc
330
1AE
 90
        2
 70
     0
 71
     0
  1
AcDbOsnapPointRef
 72
     1
331
1C5
 73
     2
 91
        0
 40
1.0
 10
0.0
 20
0.0
 30
2.000000000000000E+50
 75
     0
  0
DIMASSOC
  5
1B4
102
{ACAD_REACTORS
330
1B3
102
}
330
1B3
100
AcDbDimAssoc
330
1B2
 90
        2
 70
     0
 71
     0
  1
AcDbOsnapPointRef
 72
     3
331
1C1
 73
     2
 91
        0
 40
0.0
 10
0.0
 20
0.0
 30
0.0
 75
     0
  0
DIMASSOC
  5
1BA
102
{ACAD_REACTORS
330
1B9
102
}
330
1B9
100
AcDbDimAssoc
330
1B8
 90
        2
 70
     0
 71
     0
  1
AcDbOsnapPointRef
 72
    11
331
1CA
 73
     2
 91
        0
 40
-0.0000000000000008
 10
0.0
 20
0.0
 30
0.0
332
1CC
 74
     2
 92
        0
 75
     0
  0
DIMASSOC
  5
66E
102
{ACAD_REACTORS
330
66D
102
}
330
66D
100
AcDbDimAssoc
330
66C
 90
        2
 70
     0
 71
     0
  1
AcDbOsnapPointRef
 72
     3
331
681
 73
     2
 91
        0
 40
0.0
 10
0.0
 20
0.0
 30
0.0
 75
     0
  0
LAYOUT
  5
59
102
{ACAD_XDICTIONARY
360
7AA
102
}
102
{ACAD_REACTORS
330
1A
102
}
330
1A
100
AcDbPlotSettings
  1

  2
None
  4

  6

 40
0.0
 41
0.0
 42
0.0
 43
0.0
 44
0.0
 45
0.0
 46
0.0
 47
0.0
 48
0.0
 49
0.0
140
0.0
141
0.0
142
1.0
143
1.0
 70
   688
 72
     0
 73
     0
 74
     5
  7

 75
    16
147
1.0
148
0.0
149
0.0
100
AcDbLayout
  1
Layout1
 70
     1
 71
     1
 10
0.0
 20
0.0
 11
12.0
 21
9.0
 12
0.0
 22
0.0
 32
0.0
 14
0.0
 24
0.0
 34
0.0
 15
0.0
 25
0.0
 35
0.0
146
0.0
 13
0.0
 23
0.0
 33
0.0
 16
1.0
 26
0.0
 36
0.0
 17
0.0
 27
1.0
 37
0.0
 76
     0
330
58
  0
LAYOUT
  5
5E
102
{ACAD_XDICTIONARY
360
7AC
102
}
102
{ACAD_REACTORS
330
1A
102
}
330
1A
100
AcDbPlotSettings
  1

  2
None
  4

  6

 40
0.0
 41
0.0
 42
0.0
 43
0.0
 44
0.0
 45
0.0
 46
0.0
 47
0.0
 48
0.0
 49
0.0
140
0.0
141
0.0
142
1.0
143
1.0
 70
   688
 72
     0
 73
     0
 74
     5
  7

 75
    16
147
1.0
148
0.0
149
0.0
100
AcDbLayout
  1
Layout2
 70
     1
 71
     2
 10
0.0
 20
0.0
 11
12.0
 21
9.0
 12
0.0
 22
0.0
 32
0.0
 14
0.0
 24
0.0
 34
0.0
 15
0.0
 25
0.0
 35
0.0
146
0.0
 13
0.0
 23
0.0
 33
0.0
 16
1.0
 26
0.0
 36
0.0
 17
0.0
 27
1.0
 37
0.0
 76
     0
330
5D
  0
LAYOUT
  5
22
102
{ACAD_XDICTIONARY
360
7A8
102
}
102
{ACAD_REACTORS
330
1A
102
}
330
1A
100
AcDbPlotSettings
  1

  2
none_device
  4
ANSI_A_(8.50_x_11.00_Inches)
  6

 40
6.349999904632567
 41
19.04999923706055
 42
6.350006103515625
 43
19.04998779296875
 44
215.8999938964844
 45
279.3999938964844
 46
0.0
 47
0.0
 48
0.0
 49
0.0
140
0.0
141
0.0
142
1.0
143
2.584895464708373
 70
 11952
 72
     0
 73
     1
 74
     0
  7

 75
     0
147
0.3868628397755418
148
0.0
149
0.0
100
AcDbLayout
  1
Model
 70
     1
 71
     0
 10
0.0
 20
0.0
 11
12.0
 21
9.0
 12
0.0
 22
0.0
 32
0.0
 14
0.0
 24
0.0
 34
0.0
 15
0.0
 25
0.0
 35
0.0
146
0.0
 13
0.0
 23
0.0
 33
0.0
 16
1.0
 26
0.0
 36
0.0
 17
0.0
 27
1.0
 37
0.0
 76
     0
330
1F
  0
MLINESTYLE
  5
18
102
{ACAD_REACTORS
330
17
102
}
330
17
100
AcDbMlineStyle
  2
STANDARD
 70
     0
  3

 62
   256
 51
90.0
 52
90.0
 71
     2
 49
0.5
 62
   256
  6
BYLAYER
 49
-0.5
 62
   256
  6
BYLAYER
  0
ACDBPLACEHOLDER
  5
F
102
{ACAD_REACTORS
330
E
102
}
330
E
  0
XRECORD
  5
7A7
102
{ACAD_REACTORS
330
7A5
102
}
330
7A5
100
AcDbXrecord
280
     1
340
73
  0
XRECORD
  5
7A6
102
{ACAD_REACTORS
330
7A5
102
}
330
7A5
100
AcDbXrecord
280
     1
340
72
  0
DICTIONARYVAR
  5
67
102
{ACAD_REACTORS
330
66
102
}
330
66
100
DictionaryVariables
280
     0
  1
2
  0
DICTIONARYVAR
  5
6B
102
{ACAD_REACTORS
330
66
102
}
330
66
100
DictionaryVariables
280
     0
  1
1
  0
DICTIONARYVAR
  5
53D
102
{ACAD_REACTORS
330
66
102
}
330
66
100
DictionaryVariables
280
     0
  1

  0
DICTIONARY
  5
7AA
330
59
100
AcDbDictionary
280
     1
281
     1
  3
ACAD_XREC_ROUNDTRIP
360
7AB
  0
DICTIONARY
  5
7AC
330
5E
100
AcDbDictionary
280
     1
281
     1
  3
ACAD_XREC_ROUNDTRIP
360
7AD
  0
DICTIONARY
  5
7A8
330
22
100
AcDbDictionary
280
     1
281
     1
  3
ACAD_XREC_ROUNDTRIP
360
7A9
  0
XRECORD
  5
7AB
102
{ACAD_REACTORS
330
7AA
102
}
330
7AA
100
AcDbXrecord
280
     1
102
SHADEPLOT
 70
     0
102
SHADEPLOTRESLEVEL
 70
     2
102
SHADEPLOTCUSTOMDPI
 70
   300
  0
XRECORD
  5
7AD
102
{ACAD_REACTORS
330
7AC
102
}
330
7AC
100
AcDbXrecord
280
     1
102
SHADEPLOT
 70
     0
102
SHADEPLOTRESLEVEL
 70
     2
102
SHADEPLOTCUSTOMDPI
 70
   300
  0
XRECORD
  5
7A9
102
{ACAD_REACTORS
330
7A8
102
}
330
7A8
100
AcDbXrecord
280
     1
102
SHADEPLOT
 70
     0
102
SHADEPLOTRESLEVEL
 70
     2
102
SHADEPLOTCUSTOMDPI
 70
   300
  0
ENDSEC
  0
EOF
