  0
SECTION
  2
HEADER
  9
$ACADVER
  1
AC1015
  9
$ACADMAINTVER
 70
    20
  9
$DWGCODEPAGE
  3
ANSI_1252
  9
$INSBASE
 10
0.0
 20
0.0
 30
0.0
  9
$EXTMIN
 10
-418.6841534056882
 20
-83.82473416924598
 30
0.0
  9
$EXTMAX
 10
-195.9327896484284
 20
-29.92787003376487
 30
0.0
  9
$LIMMIN
 10
0.0
 20
0.0
  9
$LIMMAX
 10
12.0
 20
9.0
  9
$ORTHOMODE
 70
     1
  9
$REGENMODE
 70
     1
  9
$FILLMODE
 70
     1
  9
$QTEXTMODE
 70
     0
  9
$MIRRTEXT
 70
     0
  9
$LTSCALE
 40
1.0
  9
$ATTMODE
 70
     1
  9
$TEXTSIZE
 40
0.2
  9
$TRACEWID
 40
0.05
  9
$TEXTSTYLE
  7
Standard
  9
$CLAYER
  8
0
  9
$CELTYPE
  6
ByLayer
  9
$CECOLOR
 62
   256
  9
$CELTSCALE
 40
1.0
  9
$DISPSILH
 70
     0
  9
$DIMSCALE
 40
1.0
  9
$DIMASZ
 40
0.75
  9
$DIMEXO
 40
0.2
  9
$DIMDLI
 40
0.38
  9
$DIMRND
 40
0.0
  9
$DIMDLE
 40
0.0
  9
$DIMEXE
 40
0.18
  9
$DIMTP
 40
0.0
  9
$DIMTM
 40
0.0
  9
$DIMTXT
 40
0.75
  9
$DIMCEN
 40
0.09
  9
$DIMTSZ
 40
0.0
  9
$DIMTOL
 70
     0
  9
$DIMLIM
 70
     0
  9
$DIMTIH
 70
     1
  9
$DIMTOH
 70
     1
  9
$DIMSE1
 70
     0
  9
$DIMSE2
 70
     0
  9
$DIMTAD
 70
     0
  9
$DIMZIN
 70
     0
  9
$DIMBLK
  1

  9
$DIMASO
 70
     1
  9
$DIMSHO
 70
     1
  9
$DIMPOST
  1

  9
$DIMAPOST
  1

  9
$DIMALT
 70
     0
  9
$DIMALTD
 70
     2
  9
$DIMALTF
 40
25.4
  9
$DIMLFAC
 40
1.0
  9
$DIMTOFL
 70
     0
  9
$DIMTVP
 40
0.0
  9
$DIMTIX
 70
     0
  9
$DIMSOXD
 70
     0
  9
$DIMSAH
 70
     0
  9
$DIMBLK1
  1

  9
$DIMBLK2
  1

  9
$DIMSTYLE
  2
Standard
  9
$DIMCLRD
 70
     0
  9
$DIMCLRE
 70
     0
  9
$DIMCLRT
 70
     0
  9
$DIMTFAC
 40
1.0
  9
$DIMGAP
 40
0.09
  9
$DIMJUST
 70
     0
  9
$DIMSD1
 70
     0
  9
$DIMSD2
 70
     0
  9
$DIMTOLJ
 70
     1
  9
$DIMTZIN
 70
     0
  9
$DIMALTZ
 70
     0
  9
$DIMALTTZ
 70
     0
  9
$DIMUPT
 70
     0
  9
$DIMDEC
 70
     3
  9
$DIMTDEC
 70
     3
  9
$DIMALTU
 70
     2
  9
$DIMALTTD
 70
     2
  9
$DIMTXSTY
  7
Standard
  9
$DIMAUNIT
 70
     0
  9
$DIMADEC
 70
     0
  9
$DIMALTRND
 40
0.0
  9
$DIMAZIN
 70
     0
  9
$DIMDSEP
 70
    46
  9
$DIMATFIT
 70
     3
  9
$DIMFRAC
 70
     0
  9
$DIMLDRBLK
  1

  9
$DIMLUNIT
 70
     2
  9
$DIMLWD
 70
    -2
  9
$DIMLWE
 70
    -2
  9
$DIMTMOVE
 70
     0
  9
$LUNITS
 70
     2
  9
$LUPREC
 70
     4
  9
$SKETCHINC
 40
0.1
  9
$FILLETRAD
 40
0.0
  9
$AUNITS
 70
     0
  9
$AUPREC
 70
     0
  9
$MENU
  1
.
  9
$ELEVATION
 40
0.0
  9
$PELEVATION
 40
0.0
  9
$THICKNESS
 40
0.0
  9
$LIMCHECK
 70
     0
  9
$CHAMFERA
 40
0.0
  9
$CHAMFERB
 40
0.0
  9
$CHAMFERC
 40
0.0
  9
$CHAMFERD
 40
0.0
  9
$SKPOLY
 70
     0
  9
$TDCREATE
 40
2455303.337863646
  9
$TDUCREATE
 40
2455303.504530313
  9
$TDUPDATE
 40
2455729.435786667
  9
$TDUUPDATE
 40
2455729.602453334
  9
$TDINDWG
 40
0.0143405903
  9
$TDUSRTIMER
 40
0.0143405903
  9
$USRTIMER
 70
     1
  9
$ANGBASE
 50
0.0
  9
$ANGDIR
 70
     0
  9
$PDMODE
 70
     0
  9
$PDSIZE
 40
0.0
  9
$PLINEWID
 40
0.0
  9
$SPLFRAME
 70
     0
  9
$SPLINETYPE
 70
     6
  9
$SPLINESEGS
 70
     8
  9
$HANDSEED
  5
ADE
  9
$SURFTAB1
 70
     6
  9
$SURFTAB2
 70
     6
  9
$SURFTYPE
 70
     6
  9
$SURFU
 70
     6
  9
$SURFV
 70
     6
  9
$UCSBASE
  2

  9
$UCSNAME
  2

  9
$UCSORG
 10
0.0
 20
0.0
 30
0.0
  9
$UCSXDIR
 10
1.0
 20
0.0
 30
0.0
  9
$UCSYDIR
 10
0.0
 20
1.0
 30
0.0
  9
$UCSORTHOREF
  2

  9
$UCSORTHOVIEW
 70
     0
  9
$UCSORGTOP
 10
0.0
 20
0.0
 30
0.0
  9
$UCSORGBOTTOM
 10
0.0
 20
0.0
 30
0.0
  9
$UCSORGLEFT
 10
0.0
 20
0.0
 30
0.0
  9
$UCSORGRIGHT
 10
0.0
 20
0.0
 30
0.0
  9
$UCSORGFRONT
 10
0.0
 20
0.0
 30
0.0
  9
$UCSORGBACK
 10
0.0
 20
0.0
 30
0.0
  9
$PUCSBASE
  2

  9
$PUCSNAME
  2

  9
$PUCSORG
 10
0.0
 20
0.0
 30
0.0
  9
$PUCSXDIR
 10
1.0
 20
0.0
 30
0.0
  9
$PUCSYDIR
 10
0.0
 20
1.0
 30
0.0
  9
$PUCSORTHOREF
  2

  9
$PUCSORTHOVIEW
 70
     0
  9
$PUCSORGTOP
 10
0.0
 20
0.0
 30
0.0
  9
$PUCSORGBOTTOM
 10
0.0
 20
0.0
 30
0.0
  9
$PUCSORGLEFT
 10
0.0
 20
0.0
 30
0.0
  9
$PUCSORGRIGHT
 10
0.0
 20
0.0
 30
0.0
  9
$PUCSORGFRONT
 10
0.0
 20
0.0
 30
0.0
  9
$PUCSORGBACK
 10
0.0
 20
0.0
 30
0.0
  9
$USERI1
 70
     0
  9
$USERI2
 70
     0
  9
$USERI3
 70
     0
  9
$USERI4
 70
     0
  9
$USERI5
 70
     0
  9
$USERR1
 40
0.0
  9
$USERR2
 40
0.0
  9
$USERR3
 40
0.0
  9
$USERR4
 40
0.0
  9
$USERR5
 40
0.0
  9
$WORLDVIEW
 70
     1
  9
$SHADEDGE
 70
     3
  9
$SHADEDIF
 70
    70
  9
$TILEMODE
 70
     1
  9
$MAXACTVP
 70
    64
  9
$PINSBASE
 10
0.0
 20
0.0
 30
0.0
  9
$PLIMCHECK
 70
     0
  9
$PEXTMIN
 10
0.0
 20
0.0
 30
0.0
  9
$PEXTMAX
 10
0.0
 20
0.0
 30
0.0
  9
$PLIMMIN
 10
0.0
 20
0.0
  9
$PLIMMAX
 10
12.0
 20
9.0
  9
$UNITMODE
 70
     0
  9
$VISRETAIN
 70
     1
  9
$PLINEGEN
 70
     0
  9
$PSLTSCALE
 70
     1
  9
$TREEDEPTH
 70
  3020
  9
$CMLSTYLE
  2
Standard
  9
$CMLJUST
 70
     0
  9
$CMLSCALE
 40
1.0
  9
$PROXYGRAPHICS
 70
     1
  9
$MEASUREMENT
 70
     0
  9
$CELWEIGHT
370
    -1
  9
$ENDCAPS
280
     0
  9
$JOINSTYLE
280
     0
  9
$LWDISPLAY
290
     0
  9
$INSUNITS
 70
     1
  9
$HYPERLINKBASE
  1

  9
$STYLESHEET
  1

  9
$XEDIT
290
     1
  9
$CEPSNTYPE
380
     0
  9
$PSTYLEMODE
290
     1
  9
$FINGERPRINTGUID
  2
{FDEAD576-A652-11D2-9A35-0060089B3A3F}
  9
$VERSIONGUID
  2
{898B5C0D-CB28-4773-925C-E81377F55B4B}
  9
$EXTNAMES
290
     1
  9
$PSVPSCALE
 40
0.0
  9
$OLESTARTUP
290
     0
  0
ENDSEC
  0
SECTION
  2
CLASSES
  0
CLASS
  1
ACDBDICTIONARYWDFLT
  2
AcDbDictionaryWithDefault
  3
ObjectDBX Classes
 90
        0
280
     0
281
     0
  0
CLASS
  1
ACDBPLACEHOLDER
  2
AcDbPlaceHolder
  3
ObjectDBX Classes
 90
        0
280
     0
281
     0
  0
CLASS
  1
LAYOUT
  2
AcDbLayout
  3
ObjectDBX Classes
 90
        0
280
     0
281
     0
  0
CLASS
  1
DICTIONARYVAR
  2
AcDbDictionaryVar
  3
ObjectDBX Classes
 90
        0
280
     0
281
     0
  0
CLASS
  1
SORTENTSTABLE
  2
AcDbSortentsTable
  3
ObjectDBX Classes
 90
    32768
280
     0
281
     0
  0
ENDSEC
  0
SECTION
  2
TABLES
  0
TABLE
  2
VPORT
  5
8
330
0
100
AcDbSymbolTable
 70
     2
  0
VPORT
  5
AD4
330
8
100
AcDbSymbolTableRecord
100
AcDbViewportTableRecord
  2
*Active
 70
     0
 10
0.0
 20
0.0
 11
1.0
 21
1.0
 12
-222.4338140955397
 22
-57.05917102708099
 13
0.0
 23
0.0
 14
0.5
 24
0.5
 15
0.5
 25
0.5
 16
0.0
 26
0.0
 36
1.0
 17
0.0
 27
0.0
 37
0.0
 40
82.74669445085555
 41
2.028571428571428
 42
50.0
 43
0.0
 44
0.0
 50
0.0
 51
0.0
 71
     0
 72
  1000
 73
     1
 74
     3
 75
     0
 76
     0
 77
     0
 78
     0
281
     0
 65
     1
110
0.0
120
0.0
130
0.0
111
1.0
121
0.0
131
0.0
112
0.0
122
1.0
132
0.0
 79
     0
146
0.0
  0
ENDTAB
  0
TABLE
  2
LTYPE
  5
5
330
0
100
AcDbSymbolTable
 70
     2
  0
LTYPE
  5
14
330
5
100
AcDbSymbolTableRecord
100
AcDbLinetypeTableRecord
  2
ByBlock
 70
     0
  3

 72
    65
 73
     0
 40
0.0
  0
LTYPE
  5
15
330
5
100
AcDbSymbolTableRecord
100
AcDbLinetypeTableRecord
  2
ByLayer
 70
     0
  3

 72
    65
 73
     0
 40
0.0
  0
LTYPE
  5
16
330
5
100
AcDbSymbolTableRecord
100
AcDbLinetypeTableRecord
  2
Continuous
 70
     0
  3
Solid line
 72
    65
 73
     0
 40
0.0
  0
LTYPE
  5
133
330
5
100
AcDbSymbolTableRecord
100
AcDbLinetypeTableRecord
  2
DASHDOT
 70
     0
  3
Dash dot __ . __ . __ . __ . __ . __ . __ . __
 72
    65
 73
     4
 40
1.0
 49
0.5
 74
     0
 49
-0.25
 74
     0
 49
0.0
 74
     0
 49
-0.25
 74
     0
  0
ENDTAB
  0
TABLE
  2
LAYER
  5
2
102
{ACAD_XDICTIONARY
360
139
102
}
330
0
100
AcDbSymbolTable
 70
     7
  0
LAYER
  5
10
330
2
100
AcDbSymbolTableRecord
100
AcDbLayerTableRecord
  2
0
 70
     0
 62
     7
  6
Continuous
370
    -3
390
F
  0
LAYER
  5
134
330
2
100
AcDbSymbolTableRecord
100
AcDbLayerTableRecord
  2
Defpoints
 70
     0
 62
     7
  6
Continuous
290
     0
370
    -3
390
F
  0
LAYER
  5
135
330
2
100
AcDbSymbolTableRecord
100
AcDbLayerTableRecord
  2
DIMENSION
 70
     0
 62
     7
  6
Continuous
370
    -3
390
F
  0
LAYER
  5
136
330
2
100
AcDbSymbolTableRecord
100
AcDbLayerTableRecord
  2
TEXT
 70
     0
 62
    -7
  6
Continuous
370
    -3
390
F
  0
LAYER
  5
137
330
2
100
AcDbSymbolTableRecord
100
AcDbLayerTableRecord
  2
TEMPLATE
 70
     0
 62
     7
  6
Continuous
370
    -3
390
F
  0
LAYER
  5
138
330
2
100
AcDbSymbolTableRecord
100
AcDbLayerTableRecord
  2
BORDER
 70
     0
 62
     7
  6
Continuous
370
    -3
390
F
  0
LAYER
  5
74E
330
2
100
AcDbSymbolTableRecord
100
AcDbLayerTableRecord
  2
Washer
 70
     0
 62
     7
  6
Continuous
370
    -3
390
F
  0
ENDTAB
  0
TABLE
  2
STYLE
  5
3
330
0
100
AcDbSymbolTable
 70
     1
  0
STYLE
  5
11
330
3
100
AcDbSymbolTableRecord
100
AcDbTextStyleTableRecord
  2
Standard
 70
     0
 40
0.0
 41
1.0
 50
0.0
 71
     0
 42
0.2
  3
txt
  4

  0
ENDTAB
  0
TABLE
  2
VIEW
  5
6
330
0
100
AcDbSymbolTable
 70
     0
  0
ENDTAB
  0
TABLE
  2
UCS
  5
7
330
0
100
AcDbSymbolTable
 70
     0
  0
ENDTAB
  0
TABLE
  2
APPID
  5
9
330
0
100
AcDbSymbolTable
 70
     1
  0
APPID
  5
12
330
9
100
AcDbSymbolTableRecord
100
AcDbRegAppTableRecord
  2
ACAD
 70
     0
  0
ENDTAB
  0
TABLE
  2
DIMSTYLE
  5
A
330
0
100
AcDbSymbolTable
 70
     1
100
AcDbDimStyleTable
 71
     1
340
27
  0
DIMSTYLE
105
27
102
{ACAD_REACTORS
330
7B1
330
7B2
330
7B9
330
7BF
330
7C0
330
7C1
330
7C2
330
791
330
794
330
795
330
796
330
797
330
798
330
799
330
79A
330
79B
330
79C
330
79D
330
79E
330
79F
330
7A0
330
7A1
330
7CC
102
}
330
A
100
AcDbSymbolTableRecord
100
AcDbDimStyleTableRecord
  2
Standard
 70
     0
 41
0.75
 42
0.2
140
0.75
271
     3
272
     3
340
11
  0
ENDTAB
  0
TABLE
  2
BLOCK_RECORD
  5
1
330
0
100
AcDbSymbolTable
 70
    87
  0
BLOCK_RECORD
  5
1F
330
1
100
AcDbSymbolTableRecord
100
AcDbBlockTableRecord
  2
*Model_Space
340
22
  0
BLOCK_RECORD
  5
58
330
1
100
AcDbSymbolTableRecord
100
AcDbBlockTableRecord
  2
*Paper_Space
340
59
  0
BLOCK_RECORD
  5
5D
330
1
100
AcDbSymbolTableRecord
100
AcDbBlockTableRecord
  2
*Paper_Space0
340
5E
  0
BLOCK_RECORD
  5
89
330
1
100
AcDbSymbolTableRecord
100
AcDbBlockTableRecord
  2
*D1
340
0
  0
BLOCK_RECORD
  5
91
330
1
100
AcDbSymbolTableRecord
100
AcDbBlockTableRecord
  2
*D2
340
0
  0
BLOCK_RECORD
  5
99
330
1
100
AcDbSymbolTableRecord
100
AcDbBlockTableRecord
  2
*D3
340
0
  0
BLOCK_RECORD
  5
A1
330
1
100
AcDbSymbolTableRecord
100
AcDbBlockTableRecord
  2
*D4
340
0
  0
BLOCK_RECORD
  5
A9
330
1
100
AcDbSymbolTableRecord
100
AcDbBlockTableRecord
  2
*D5
340
0
  0
BLOCK_RECORD
  5
B1
330
1
100
AcDbSymbolTableRecord
100
AcDbBlockTableRecord
  2
*D6
340
0
  0
BLOCK_RECORD
  5
B9
330
1
100
AcDbSymbolTableRecord
100
AcDbBlockTableRecord
  2
*D7
340
0
  0
BLOCK_RECORD
  5
C1
330
1
100
AcDbSymbolTableRecord
100
AcDbBlockTableRecord
  2
*D8
340
0
  0
BLOCK_RECORD
  5
CB
330
1
100
AcDbSymbolTableRecord
100
AcDbBlockTableRecord
  2
*D9
340
0
  0
BLOCK_RECORD
  5
D3
330
1
100
AcDbSymbolTableRecord
100
AcDbBlockTableRecord
  2
*D10
340
0
  0
BLOCK_RECORD
  5
DB
330
1
100
AcDbSymbolTableRecord
100
AcDbBlockTableRecord
  2
*D11
340
0
  0
BLOCK_RECORD
  5
E3
330
1
100
AcDbSymbolTableRecord
100
AcDbBlockTableRecord
  2
*D12
340
0
  0
BLOCK_RECORD
  5
EB
330
1
100
AcDbSymbolTableRecord
100
AcDbBlockTableRecord
  2
*D13
340
0
  0
BLOCK_RECORD
  5
F3
330
1
100
AcDbSymbolTableRecord
100
AcDbBlockTableRecord
  2
*D14
340
0
  0
BLOCK_RECORD
  5
FB
330
1
100
AcDbSymbolTableRecord
100
AcDbBlockTableRecord
  2
*D15
340
0
  0
BLOCK_RECORD
  5
105
330
1
100
AcDbSymbolTableRecord
100
AcDbBlockTableRecord
  2
*D16
340
0
  0
BLOCK_RECORD
  5
10F
330
1
100
AcDbSymbolTableRecord
100
AcDbBlockTableRecord
  2
*D17
340
0
  0
BLOCK_RECORD
  5
117
330
1
100
AcDbSymbolTableRecord
100
AcDbBlockTableRecord
  2
*D18
340
0
  0
BLOCK_RECORD
  5
121
330
1
100
AcDbSymbolTableRecord
100
AcDbBlockTableRecord
  2
*D19
340
0
  0
BLOCK_RECORD
  5
12B
330
1
100
AcDbSymbolTableRecord
100
AcDbBlockTableRecord
  2
*D20
340
0
  0
BLOCK_RECORD
  5
411
330
1
100
AcDbSymbolTableRecord
100
AcDbBlockTableRecord
  2
*D21
340
0
  0
BLOCK_RECORD
  5
419
330
1
100
AcDbSymbolTableRecord
100
AcDbBlockTableRecord
  2
*D22
340
0
  0
BLOCK_RECORD
  5
421
330
1
100
AcDbSymbolTableRecord
100
AcDbBlockTableRecord
  2
*D23
340
0
  0
BLOCK_RECORD
  5
429
330
1
100
AcDbSymbolTableRecord
100
AcDbBlockTableRecord
  2
*D24
340
0
  0
BLOCK_RECORD
  5
431
330
1
100
AcDbSymbolTableRecord
100
AcDbBlockTableRecord
  2
*D25
340
0
  0
BLOCK_RECORD
  5
43B
330
1
100
AcDbSymbolTableRecord
100
AcDbBlockTableRecord
  2
*D26
340
0
  0
BLOCK_RECORD
  5
443
330
1
100
AcDbSymbolTableRecord
100
AcDbBlockTableRecord
  2
*D27
340
0
  0
BLOCK_RECORD
  5
44B
330
1
100
AcDbSymbolTableRecord
100
AcDbBlockTableRecord
  2
*D28
340
0
  0
BLOCK_RECORD
  5
453
330
1
100
AcDbSymbolTableRecord
100
AcDbBlockTableRecord
  2
*D29
340
0
  0
BLOCK_RECORD
  5
45B
330
1
100
AcDbSymbolTableRecord
100
AcDbBlockTableRecord
  2
*D30
340
0
  0
BLOCK_RECORD
  5
463
330
1
100
AcDbSymbolTableRecord
100
AcDbBlockTableRecord
  2
*D31
340
0
  0
BLOCK_RECORD
  5
46B
330
1
100
AcDbSymbolTableRecord
100
AcDbBlockTableRecord
  2
*D32
340
0
  0
BLOCK_RECORD
  5
475
330
1
100
AcDbSymbolTableRecord
100
AcDbBlockTableRecord
  2
*D33
340
0
  0
BLOCK_RECORD
  5
47F
330
1
100
AcDbSymbolTableRecord
100
AcDbBlockTableRecord
  2
*D34
340
0
  0
BLOCK_RECORD
  5
487
330
1
100
AcDbSymbolTableRecord
100
AcDbBlockTableRecord
  2
*D35
340
0
  0
BLOCK_RECORD
  5
491
330
1
100
AcDbSymbolTableRecord
100
AcDbBlockTableRecord
  2
*D36
340
0
  0
BLOCK_RECORD
  5
49B
330
1
100
AcDbSymbolTableRecord
100
AcDbBlockTableRecord
  2
*D37
340
0
  0
BLOCK_RECORD
  5
4A3
330
1
100
AcDbSymbolTableRecord
100
AcDbBlockTableRecord
  2
*D38
340
0
  0
BLOCK_RECORD
  5
4AB
330
1
100
AcDbSymbolTableRecord
100
AcDbBlockTableRecord
  2
*D39
340
0
  0
BLOCK_RECORD
  5
4B3
330
1
100
AcDbSymbolTableRecord
100
AcDbBlockTableRecord
  2
*D40
340
0
  0
BLOCK_RECORD
  5
68C
330
1
100
AcDbSymbolTableRecord
100
AcDbBlockTableRecord
  2
*D41
340
0
  0
BLOCK_RECORD
  5
694
330
1
100
AcDbSymbolTableRecord
100
AcDbBlockTableRecord
  2
*D42
340
0
  0
BLOCK_RECORD
  5
69C
330
1
100
AcDbSymbolTableRecord
100
AcDbBlockTableRecord
  2
*D43
340
0
  0
BLOCK_RECORD
  5
6A4
330
1
100
AcDbSymbolTableRecord
100
AcDbBlockTableRecord
  2
*D44
340
0
  0
BLOCK_RECORD
  5
6AC
330
1
100
AcDbSymbolTableRecord
100
AcDbBlockTableRecord
  2
*D45
340
0
  0
BLOCK_RECORD
  5
6B6
330
1
100
AcDbSymbolTableRecord
100
AcDbBlockTableRecord
  2
*D46
340
0
  0
BLOCK_RECORD
  5
6BE
330
1
100
AcDbSymbolTableRecord
100
AcDbBlockTableRecord
  2
*D47
340
0
  0
BLOCK_RECORD
  5
6C6
330
1
100
AcDbSymbolTableRecord
100
AcDbBlockTableRecord
  2
*D48
340
0
  0
BLOCK_RECORD
  5
6CE
330
1
100
AcDbSymbolTableRecord
100
AcDbBlockTableRecord
  2
*D49
340
0
  0
BLOCK_RECORD
  5
6D6
330
1
100
AcDbSymbolTableRecord
100
AcDbBlockTableRecord
  2
*D50
340
0
  0
BLOCK_RECORD
  5
6DE
330
1
100
AcDbSymbolTableRecord
100
AcDbBlockTableRecord
  2
*D51
340
0
  0
BLOCK_RECORD
  5
6E6
330
1
100
AcDbSymbolTableRecord
100
AcDbBlockTableRecord
  2
*D52
340
0
  0
BLOCK_RECORD
  5
6F0
330
1
100
AcDbSymbolTableRecord
100
AcDbBlockTableRecord
  2
*D53
340
0
  0
BLOCK_RECORD
  5
6FA
330
1
100
AcDbSymbolTableRecord
100
AcDbBlockTableRecord
  2
*D54
340
0
  0
BLOCK_RECORD
  5
704
330
1
100
AcDbSymbolTableRecord
100
AcDbBlockTableRecord
  2
*D55
340
0
  0
BLOCK_RECORD
  5
70C
330
1
100
AcDbSymbolTableRecord
100
AcDbBlockTableRecord
  2
*D56
340
0
  0
BLOCK_RECORD
  5
714
330
1
100
AcDbSymbolTableRecord
100
AcDbBlockTableRecord
  2
*D57
340
0
  0
BLOCK_RECORD
  5
71C
330
1
100
AcDbSymbolTableRecord
100
AcDbBlockTableRecord
  2
*D58
340
0
  0
BLOCK_RECORD
  5
724
330
1
100
AcDbSymbolTableRecord
100
AcDbBlockTableRecord
  2
*D59
340
0
  0
BLOCK_RECORD
  5
72C
330
1
100
AcDbSymbolTableRecord
100
AcDbBlockTableRecord
  2
*D60
340
0
  0
BLOCK_RECORD
  5
734
330
1
100
AcDbSymbolTableRecord
100
AcDbBlockTableRecord
  2
*D61
340
0
  0
BLOCK_RECORD
  5
73C
330
1
100
AcDbSymbolTableRecord
100
AcDbBlockTableRecord
  2
*D62
340
0
  0
BLOCK_RECORD
  5
744
330
1
100
AcDbSymbolTableRecord
100
AcDbBlockTableRecord
  2
*D63
340
0
  0
BLOCK_RECORD
  5
7CD
330
1
100
AcDbSymbolTableRecord
100
AcDbBlockTableRecord
  2
*D64
340
0
  0
BLOCK_RECORD
  5
7D5
330
1
100
AcDbSymbolTableRecord
100
AcDbBlockTableRecord
  2
*D65
340
0
  0
BLOCK_RECORD
  5
7DD
330
1
100
AcDbSymbolTableRecord
100
AcDbBlockTableRecord
  2
*D66
340
0
  0
BLOCK_RECORD
  5
7E5
330
1
100
AcDbSymbolTableRecord
100
AcDbBlockTableRecord
  2
*D67
340
0
  0
BLOCK_RECORD
  5
7ED
330
1
100
AcDbSymbolTableRecord
100
AcDbBlockTableRecord
  2
*D68
340
0
  0
BLOCK_RECORD
  5
7F5
330
1
100
AcDbSymbolTableRecord
100
AcDbBlockTableRecord
  2
*D69
340
0
  0
BLOCK_RECORD
  5
7FD
330
1
100
AcDbSymbolTableRecord
100
AcDbBlockTableRecord
  2
*D70
340
0
  0
BLOCK_RECORD
  5
805
330
1
100
AcDbSymbolTableRecord
100
AcDbBlockTableRecord
  2
*D71
340
0
  0
BLOCK_RECORD
  5
80D
330
1
100
AcDbSymbolTableRecord
100
AcDbBlockTableRecord
  2
*D72
340
0
  0
BLOCK_RECORD
  5
815
330
1
100
AcDbSymbolTableRecord
100
AcDbBlockTableRecord
  2
*D73
340
0
  0
BLOCK_RECORD
  5
81D
330
1
100
AcDbSymbolTableRecord
100
AcDbBlockTableRecord
  2
*D74
340
0
  0
BLOCK_RECORD
  5
825
330
1
100
AcDbSymbolTableRecord
100
AcDbBlockTableRecord
  2
*D75
340
0
  0
BLOCK_RECORD
  5
82F
330
1
100
AcDbSymbolTableRecord
100
AcDbBlockTableRecord
  2
*D76
340
0
  0
BLOCK_RECORD
  5
837
330
1
100
AcDbSymbolTableRecord
100
AcDbBlockTableRecord
  2
*D77
340
0
  0
BLOCK_RECORD
  5
83F
330
1
100
AcDbSymbolTableRecord
100
AcDbBlockTableRecord
  2
*D78
340
0
  0
BLOCK_RECORD
  5
847
330
1
100
AcDbSymbolTableRecord
100
AcDbBlockTableRecord
  2
*D79
340
0
  0
BLOCK_RECORD
  5
84F
330
1
100
AcDbSymbolTableRecord
100
AcDbBlockTableRecord
  2
*D80
340
0
  0
BLOCK_RECORD
  5
857
330
1
100
AcDbSymbolTableRecord
100
AcDbBlockTableRecord
  2
*D81
340
0
  0
BLOCK_RECORD
  5
85F
330
1
100
AcDbSymbolTableRecord
100
AcDbBlockTableRecord
  2
*D82
340
0
  0
BLOCK_RECORD
  5
869
330
1
100
AcDbSymbolTableRecord
100
AcDbBlockTableRecord
  2
*D83
340
0
  0
BLOCK_RECORD
  5
873
330
1
100
AcDbSymbolTableRecord
100
AcDbBlockTableRecord
  2
*D84
340
0
  0
BLOCK_RECORD
  5
87D
330
1
100
AcDbSymbolTableRecord
100
AcDbBlockTableRecord
  2
*D85
340
0
  0
BLOCK_RECORD
  5
885
330
1
100
AcDbSymbolTableRecord
100
AcDbBlockTableRecord
  2
*D86
340
0
  0
ENDTAB
  0
ENDSEC
  0
SECTION
  2
BLOCKS
  0
BLOCK
  5
20
330
1F
100
AcDbEntity
  8
0
100
AcDbBlockBegin
  2
*Model_Space
 70
     0
 10
0.0
 20
0.0
 30
0.0
  3
*Model_Space
  1

  0
ENDBLK
  5
21
330
1F
100
AcDbEntity
  8
0
100
AcDbBlockEnd
  0
BLOCK
  5
5A
330
58
100
AcDbEntity
 67
     1
  8
0
100
AcDbBlockBegin
  2
*Paper_Space
 70
     0
 10
0.0
 20
0.0
 30
0.0
  3
*Paper_Space
  1

  0
ENDBLK
  5
5B
330
58
100
AcDbEntity
 67
     1
  8
0
100
AcDbBlockEnd
  0
BLOCK
  5
5F
330
5D
100
AcDbEntity
  8
0
100
AcDbBlockBegin
  2
*Paper_Space0
 70
     0
 10
0.0
 20
0.0
 30
0.0
  3
*Paper_Space0
  1

  0
ENDBLK
  5
60
330
5D
100
AcDbEntity
  8
0
100
AcDbBlockEnd
  0
BLOCK
  5
8A
330
89
100
AcDbEntity
  8
0
100
AcDbBlockBegin
  2
*D1
 70
     1
 10
0.0
 20
0.0
 30
0.0
  3
*D1
  1

  0
LINE
  5
8B
330
89
100
AcDbEntity
  8
0
 62
     0
370
    -2
100
AcDbLine
 10
386.3964364538773
 20
115.419259172537
 30
0.0
 11
378.8921914884284
 21
115.419259172537
 31
0.0
  0
MTEXT
  5
8C
330
89
100
AcDbEntity
  8
0
 62
     0
100
AcDbMText
 10
376.8921914884284
 20
115.419259172537
 30
0.0
 40
0.75
 41
0.0
 71
     5
 72
     1
  1
\A1;18.174
 73
     1
 44
1.0
1001
ACAD
1000
MTEXTBEGIN
1070
    73
1070
     1
1070
    44
1040
1.0
1070
    74
1070
     0
1000
MTEXTEND
  0
POINT
  5
8D
330
89
100
AcDbEntity
  8
Defpoints
 62
     0
100
AcDbPoint
 10
386.7714364538774
 20
115.419259172537
 30
0.0
  0
POINT
  5
8E
330
89
100
AcDbEntity
  8
Defpoints
 62
     0
100
AcDbPoint
 10
378.8921914884284
 20
115.419259172537
 30
0.0
  0
POINT
  5
8F
330
89
100
AcDbEntity
  8
Defpoints
 62
     0
100
AcDbPoint
 10
381.7714364538773
 20
97.24525917253668
 30
0.0
  0
ENDBLK
  5
90
330
89
100
AcDbEntity
  8
0
100
AcDbBlockEnd
  0
BLOCK
  5
92
330
91
100
AcDbEntity
  8
0
100
AcDbBlockBegin
  2
*D2
 70
     1
 10
0.0
 20
0.0
 30
0.0
  3
*D2
  1

  0
LINE
  5
93
330
91
100
AcDbEntity
  8
0
 62
     0
370
    -2
100
AcDbLine
 10
386.7714364538774
 20
115.044259172537
 30
0.0
 11
386.7714364538774
 21
113.9863872927876
 31
0.0
  0
MTEXT
  5
94
330
91
100
AcDbEntity
  8
0
 62
     0
100
AcDbMText
 10
386.7714364538774
 20
112.2988872927876
 30
0.0
 40
0.75
 41
0.0
 71
     5
 72
     1
  1
\A1;5.000
 11
0.0000000000000001
 21
1.0
 31
0.0
 73
     1
 44
1.0
1001
ACAD
1000
MTEXTBEGIN
1070
    73
1070
     1
1070
    44
1040
1.0
1070
    74
1070
     0
1000
MTEXTEND
  0
POINT
  5
95
330
91
100
AcDbEntity
  8
Defpoints
 62
     0
100
AcDbPoint
 10
386.7714364538774
 20
115.419259172537
 30
0.0
  0
POINT
  5
96
330
91
100
AcDbEntity
  8
Defpoints
 62
     0
100
AcDbPoint
 10
386.7714364538774
 20
113.9863872927876
 30
0.0
  0
POINT
  5
97
330
91
100
AcDbEntity
  8
Defpoints
 62
     0
100
AcDbPoint
 10
381.7714364538773
 20
97.24525917253668
 30
0.0
  0
ENDBLK
  5
98
330
91
100
AcDbEntity
  8
0
100
AcDbBlockEnd
  0
BLOCK
  5
9A
330
99
100
AcDbEntity
  8
0
100
AcDbBlockBegin
  2
*D3
 70
     1
 10
0.0
 20
0.0
 30
0.0
  3
*D3
  1

  0
LINE
  5
9B
330
99
100
AcDbEntity
  8
0
 62
     0
370
    -2
100
AcDbLine
 10
381.3964364538774
 20
125.2752591725369
 30
0.0
 11
378.7714364538774
 21
125.2752591725369
 31
0.0
  0
MTEXT
  5
9C
330
99
100
AcDbEntity
  8
0
 62
     0
100
AcDbMText
 10
376.6464364538773
 20
125.2752591725369
 30
0.0
 40
0.75
 41
0.0
 71
     5
 72
     1
  1
\A1;28.030
 73
     1
 44
1.0
1001
ACAD
1000
MTEXTBEGIN
1070
    73
1070
     1
1070
    44
1040
1.0
1070
    74
1070
     0
1000
MTEXTEND
  0
POINT
  5
9D
330
99
100
AcDbEntity
  8
Defpoints
 62
     0
100
AcDbPoint
 10
381.7714364538773
 20
125.2752591725369
 30
0.0
  0
POINT
  5
9E
330
99
100
AcDbEntity
  8
Defpoints
 62
     0
100
AcDbPoint
 10
378.7714364538774
 20
125.2752591725369
 30
0.0
  0
POINT
  5
9F
330
99
100
AcDbEntity
  8
Defpoints
 62
     0
100
AcDbPoint
 10
381.7714364538775
 20
97.24525917253668
 30
0.0
  0
ENDBLK
  5
A0
330
99
100
AcDbEntity
  8
0
100
AcDbBlockEnd
  0
BLOCK
  5
A2
330
A1
100
AcDbEntity
  8
0
100
AcDbBlockBegin
  2
*D4
 70
     1
 10
0.0
 20
0.0
 30
0.0
  3
*D4
  1

  0
LINE
  5
A3
330
A1
100
AcDbEntity
  8
DIMENSION
 62
     0
370
    -2
100
AcDbLine
 10
381.3964364538774
 20
97.24525917253668
 30
0.0
 11
378.7714364538774
 21
97.24525917253668
 31
0.0
  0
MTEXT
  5
A4
330
A1
100
AcDbEntity
  8
DIMENSION
 62
     0
100
AcDbMText
 10
377.1464364538774
 20
97.24525917253668
 30
0.0
 40
0.75
 41
0.0
 71
     5
 72
     1
  1
\A1;0.000
 73
     1
 44
1.0
1001
ACAD
1000
MTEXTBEGIN
1070
    73
1070
     1
1070
    44
1040
1.0
1070
    74
1070
     0
1000
MTEXTEND
  0
POINT
  5
A5
330
A1
100
AcDbEntity
  8
Defpoints
 62
     0
100
AcDbPoint
 10
381.7714364538773
 20
97.24525917253668
 30
0.0
  0
POINT
  5
A6
330
A1
100
AcDbEntity
  8
Defpoints
 62
     0
100
AcDbPoint
 10
378.7714364538774
 20
97.24525917253668
 30
0.0
  0
POINT
  5
A7
330
A1
100
AcDbEntity
  8
Defpoints
 62
     0
100
AcDbPoint
 10
381.7714364538773
 20
97.24525917253668
 30
0.0
  0
ENDBLK
  5
A8
330
A1
100
AcDbEntity
  8
0
100
AcDbBlockEnd
  0
BLOCK
  5
AA
330
A9
100
AcDbEntity
  8
0
100
AcDbBlockBegin
  2
*D5
 70
     1
 10
0.0
 20
0.0
 30
0.0
  3
*D5
  1

  0
LINE
  5
AB
330
A9
100
AcDbEntity
  8
DIMENSION
 62
     0
370
    -2
100
AcDbLine
 10
391.1464364538773
 20
121.025259172537
 30
0.0
 11
391.1464364538773
 21
128.2752591725369
 31
0.0
  0
MTEXT
  5
AC
330
A9
100
AcDbEntity
  8
DIMENSION
 62
     0
100
AcDbMText
 10
391.1464364538773
 20
130.1502591725369
 30
0.0
 40
0.75
 41
0.0
 71
     5
 72
     1
  1
\A1;9.375
 11
0.0000000000000001
 21
1.0
 31
0.0
 73
     1
 44
1.0
1001
ACAD
1000
MTEXTBEGIN
1070
    73
1070
     1
1070
    44
1040
1.0
1070
    74
1070
     0
1000
MTEXTEND
  0
POINT
  5
AD
330
A9
100
AcDbEntity
  8
Defpoints
 62
     0
100
AcDbPoint
 10
391.1464364538773
 20
120.650259172537
 30
0.0
  0
POINT
  5
AE
330
A9
100
AcDbEntity
  8
Defpoints
 62
     0
100
AcDbPoint
 10
391.1464364538773
 20
128.2752591725369
 30
0.0
  0
POINT
  5
AF
330
A9
100
AcDbEntity
  8
Defpoints
 62
     0
100
AcDbPoint
 10
381.7714364538773
 20
97.24525917253668
 30
0.0
  0
ENDBLK
  5
B0
330
A9
100
AcDbEntity
  8
0
100
AcDbBlockEnd
  0
BLOCK
  5
B2
330
B1
100
AcDbEntity
  8
0
100
AcDbBlockBegin
  2
*D6
 70
     1
 10
0.0
 20
0.0
 30
0.0
  3
*D6
  1

  0
LINE
  5
B3
330
B1
100
AcDbEntity
  8
DIMENSION
 62
     0
370
    -2
100
AcDbLine
 10
387.7494364538775
 20
123.493009172537
 30
0.0
 11
387.7494364538775
 21
128.2752591725369
 31
0.0
  0
MTEXT
  5
B4
330
B1
100
AcDbEntity
  8
DIMENSION
 62
     0
100
AcDbMText
 10
387.7494364538774
 20
130.1502591725369
 30
0.0
 40
0.75
 41
0.0
 71
     5
 72
     1
  1
\A1;5.978
 11
0.0000000000000001
 21
1.0
 31
0.0
 73
     1
 44
1.0
1001
ACAD
1000
MTEXTBEGIN
1070
    73
1070
     1
1070
    44
1040
1.0
1070
    74
1070
     0
1000
MTEXTEND
  0
POINT
  5
B5
330
B1
100
AcDbEntity
  8
Defpoints
 62
     0
100
AcDbPoint
 10
387.7494364538775
 20
123.118009172537
 30
0.0
  0
POINT
  5
B6
330
B1
100
AcDbEntity
  8
Defpoints
 62
     0
100
AcDbPoint
 10
387.7494364538775
 20
128.2752591725369
 30
0.0
  0
POINT
  5
B7
330
B1
100
AcDbEntity
  8
Defpoints
 62
     0
100
AcDbPoint
 10
381.7714364538773
 20
97.24525917253668
 30
0.0
  0
ENDBLK
  5
B8
330
B1
100
AcDbEntity
  8
0
100
AcDbBlockEnd
  0
BLOCK
  5
BA
330
B9
100
AcDbEntity
  8
0
100
AcDbBlockBegin
  2
*D7
 70
     1
 10
0.0
 20
0.0
 30
0.0
  3
*D7
  1

  0
LINE
  5
BB
330
B9
100
AcDbEntity
  8
DIMENSION
 62
     0
370
    -2
100
AcDbLine
 10
383.2994364538775
 20
123.493009172537
 30
0.0
 11
383.2994364538775
 21
128.2752591725369
 31
0.0
  0
MTEXT
  5
BC
330
B9
100
AcDbEntity
  8
DIMENSION
 62
     0
100
AcDbMText
 10
383.2994364538775
 20
130.0252591725369
 30
0.0
 40
0.75
 41
0.0
 71
     5
 72
     1
  1
\A1;1.528
 11
0.0000000000000001
 21
1.0
 31
0.0
 73
     1
 44
1.0
1001
ACAD
1000
MTEXTBEGIN
1070
    73
1070
     1
1070
    44
1040
1.0
1070
    74
1070
     0
1000
MTEXTEND
  0
POINT
  5
BD
330
B9
100
AcDbEntity
  8
Defpoints
 62
     0
100
AcDbPoint
 10
383.2994364538775
 20
123.118009172537
 30
0.0
  0
POINT
  5
BE
330
B9
100
AcDbEntity
  8
Defpoints
 62
     0
100
AcDbPoint
 10
383.2994364538775
 20
128.2752591725369
 30
0.0
  0
POINT
  5
BF
330
B9
100
AcDbEntity
  8
Defpoints
 62
     0
100
AcDbPoint
 10
381.7714364538773
 20
97.24525917253668
 30
0.0
  0
ENDBLK
  5
C0
330
B9
100
AcDbEntity
  8
0
100
AcDbBlockEnd
  0
BLOCK
  5
C2
330
C1
100
AcDbEntity
  8
0
100
AcDbBlockBegin
  2
*D8
 70
     1
 10
0.0
 20
0.0
 30
0.0
  3
*D8
  1

  0
LINE
  5
C3
330
C1
100
AcDbEntity
  8
DIMENSION
 62
     0
370
    -2
100
AcDbLine
 10
382.3964364538774
 20
121.0252591725369
 30
0.0
 11
382.3964364538774
 21
125.2752591725369
 31
0.0
  0
LINE
  5
C4
330
C1
100
AcDbEntity
  8
DIMENSION
 62
     0
370
    -2
100
AcDbLine
 10
382.3964364538774
 20
125.2752591725369
 30
0.0
 11
382.2994364538773
 21
126.7752591725369
 31
0.0
  0
LINE
  5
C5
330
C1
100
AcDbEntity
  8
DIMENSION
 62
     0
370
    -2
100
AcDbLine
 10
382.2994364538773
 20
126.7752591725369
 30
0.0
 11
382.2994364538774
 21
128.2752591725369
 31
0.0
  0
MTEXT
  5
C6
330
C1
100
AcDbEntity
  8
DIMENSION
 62
     0
100
AcDbMText
 10
382.2994364538773
 20
130.087759172537
 30
0.0
 40
0.75
 41
0.0
 71
     5
 72
     1
  1
\A1;0.625
 11
0.0000000000000001
 21
1.0
 31
0.0
 73
     1
 44
1.0
1001
ACAD
1000
MTEXTBEGIN
1070
    73
1070
     1
1070
    44
1040
1.0
1070
    74
1070
     0
1000
MTEXTEND
  0
POINT
  5
C7
330
C1
100
AcDbEntity
  8
Defpoints
 62
     0
100
AcDbPoint
 10
382.3964364538774
 20
120.6502591725369
 30
0.0
  0
POINT
  5
C8
330
C1
100
AcDbEntity
  8
Defpoints
 62
     0
100
AcDbPoint
 10
382.2994364538774
 20
128.2752591725369
 30
0.0
  0
POINT
  5
C9
330
C1
100
AcDbEntity
  8
Defpoints
 62
     0
100
AcDbPoint
 10
381.7714364538773
 20
97.24525917253668
 30
0.0
  0
ENDBLK
  5
CA
330
C1
100
AcDbEntity
  8
0
100
AcDbBlockEnd
  0
BLOCK
  5
CC
330
CB
100
AcDbEntity
  8
0
100
AcDbBlockBegin
  2
*D9
 70
     1
 10
0.0
 20
0.0
 30
0.0
  3
*D9
  1

  0
LINE
  5
CD
330
CB
100
AcDbEntity
  8
DIMENSION
 62
     0
370
    -2
100
AcDbLine
 10
382.9244364538775
 20
123.118009172537
 30
0.0
 11
378.7714364538774
 21
123.118009172537
 31
0.0
  0
MTEXT
  5
CE
330
CB
100
AcDbEntity
  8
DIMENSION
 62
     0
100
AcDbMText
 10
376.5214364538774
 20
123.118009172537
 30
0.0
 40
0.75
 41
0.0
 71
     5
 72
     1
  1
\A1;25.873
 73
     1
 44
1.0
1001
ACAD
1000
MTEXTBEGIN
1070
    73
1070
     1
1070
    44
1040
1.0
1070
    74
1070
     0
1000
MTEXTEND
  0
POINT
  5
CF
330
CB
100
AcDbEntity
  8
Defpoints
 62
     0
100
AcDbPoint
 10
383.2994364538775
 20
123.118009172537
 30
0.0
  0
POINT
  5
D0
330
CB
100
AcDbEntity
  8
Defpoints
 62
     0
100
AcDbPoint
 10
378.7714364538774
 20
123.118009172537
 30
0.0
  0
POINT
  5
D1
330
CB
100
AcDbEntity
  8
Defpoints
 62
     0
100
AcDbPoint
 10
381.7714364538773
 20
97.24525917253668
 30
0.0
  0
ENDBLK
  5
D2
330
CB
100
AcDbEntity
  8
0
100
AcDbBlockEnd
  0
BLOCK
  5
D4
330
D3
100
AcDbEntity
  8
0
100
AcDbBlockBegin
  2
*D10
 70
     1
 10
0.0
 20
0.0
 30
0.0
  3
*D10
  1

  0
LINE
  5
D5
330
D3
100
AcDbEntity
  8
DIMENSION
 62
     0
370
    -2
100
AcDbLine
 10
391.5214364538774
 20
120.650259172537
 30
0.0
 11
394.7714364538775
 21
120.650259172537
 31
0.0
  0
MTEXT
  5
D6
330
D3
100
AcDbEntity
  8
DIMENSION
 62
     0
100
AcDbMText
 10
396.9589364538775
 20
120.650259172537
 30
0.0
 40
0.75
 41
0.0
 71
     5
 72
     1
  1
\A1;23.405
 73
     1
 44
1.0
1001
ACAD
1000
MTEXTBEGIN
1070
    73
1070
     1
1070
    44
1040
1.0
1070
    74
1070
     0
1000
MTEXTEND
  0
POINT
  5
D7
330
D3
100
AcDbEntity
  8
Defpoints
 62
     0
100
AcDbPoint
 10
391.1464364538773
 20
120.650259172537
 30
0.0
  0
POINT
  5
D8
330
D3
100
AcDbEntity
  8
Defpoints
 62
     0
100
AcDbPoint
 10
394.7714364538775
 20
120.650259172537
 30
0.0
  0
POINT
  5
D9
330
D3
100
AcDbEntity
  8
Defpoints
 62
     0
100
AcDbPoint
 10
381.7714364538773
 20
97.24525917253668
 30
0.0
  0
ENDBLK
  5
DA
330
D3
100
AcDbEntity
  8
0
100
AcDbBlockEnd
  0
BLOCK
  5
DC
330
DB
100
AcDbEntity
  8
0
100
AcDbBlockBegin
  2
*D11
 70
     1
 10
0.0
 20
0.0
 30
0.0
  3
*D11
  1

  0
LINE
  5
DD
330
DB
100
AcDbEntity
  8
DIMENSION
 62
     0
370
    -2
100
AcDbLine
 10
382.9244364538775
 20
120.280509172537
 30
0.0
 11
378.7714364538774
 21
120.280509172537
 31
0.0
  0
MTEXT
  5
DE
330
DB
100
AcDbEntity
  8
DIMENSION
 62
     0
100
AcDbMText
 10
376.5839364538773
 20
120.280509172537
 30
0.0
 40
0.75
 41
0.0
 71
     5
 72
     1
  1
\A1;23.035
 73
     1
 44
1.0
1001
ACAD
1000
MTEXTBEGIN
1070
    73
1070
     1
1070
    44
1040
1.0
1070
    74
1070
     0
1000
MTEXTEND
  0
POINT
  5
DF
330
DB
100
AcDbEntity
  8
Defpoints
 62
     0
100
AcDbPoint
 10
383.2994364538775
 20
120.280509172537
 30
0.0
  0
POINT
  5
E0
330
DB
100
AcDbEntity
  8
Defpoints
 62
     0
100
AcDbPoint
 10
378.7714364538774
 20
120.280509172537
 30
0.0
  0
POINT
  5
E1
330
DB
100
AcDbEntity
  8
Defpoints
 62
     0
100
AcDbPoint
 10
381.7714364538773
 20
97.24525917253668
 30
0.0
  0
ENDBLK
  5
E2
330
DB
100
AcDbEntity
  8
0
100
AcDbBlockEnd
  0
BLOCK
  5
E4
330
E3
100
AcDbEntity
  8
0
100
AcDbBlockBegin
  2
*D12
 70
     1
 10
0.0
 20
0.0
 30
0.0
  3
*D12
  1

  0
LINE
  5
E5
330
E3
100
AcDbEntity
  8
DIMENSION
 62
     0
370
    -2
100
AcDbLine
 10
391.2714364538773
 20
107.9282591725371
 30
0.0
 11
394.7714364538775
 21
107.9282591725371
 31
0.0
  0
MTEXT
  5
E6
330
E3
100
AcDbEntity
  8
DIMENSION
 62
     0
100
AcDbMText
 10
396.8339364538775
 20
107.9282591725371
 30
0.0
 40
0.75
 41
0.0
 71
     5
 72
     1
  1
\A1;10.683
 73
     1
 44
1.0
1001
ACAD
1000
MTEXTBEGIN
1070
    73
1070
     1
1070
    44
1040
1.0
1070
    74
1070
     0
1000
MTEXTEND
  0
POINT
  5
E7
330
E3
100
AcDbEntity
  8
Defpoints
 62
     0
100
AcDbPoint
 10
390.8964364538773
 20
107.9282591725371
 30
0.0
  0
POINT
  5
E8
330
E3
100
AcDbEntity
  8
Defpoints
 62
     0
100
AcDbPoint
 10
394.7714364538775
 20
107.9282591725371
 30
0.0
  0
POINT
  5
E9
330
E3
100
AcDbEntity
  8
Defpoints
 62
     0
100
AcDbPoint
 10
381.7714364538773
 20
97.24525917253668
 30
0.0
  0
ENDBLK
  5
EA
330
E3
100
AcDbEntity
  8
0
100
AcDbBlockEnd
  0
BLOCK
  5
EC
330
EB
100
AcDbEntity
  8
0
100
AcDbBlockBegin
  2
*D13
 70
     1
 10
0.0
 20
0.0
 30
0.0
  3
*D13
  1

  0
LINE
  5
ED
330
EB
100
AcDbEntity
  8
DIMENSION
 62
     0
370
    -2
100
AcDbLine
 10
391.2714364538773
 20
110.1782591725371
 30
0.0
 11
394.7714364538775
 21
110.1782591725371
 31
0.0
  0
MTEXT
  5
EE
330
EB
100
AcDbEntity
  8
DIMENSION
 62
     0
100
AcDbMText
 10
396.8964364538775
 20
110.1782591725371
 30
0.0
 40
0.75
 41
0.0
 71
     5
 72
     1
  1
\A1;12.933
 73
     1
 44
1.0
1001
ACAD
1000
MTEXTBEGIN
1070
    73
1070
     1
1070
    44
1040
1.0
1070
    74
1070
     0
1000
MTEXTEND
  0
POINT
  5
EF
330
EB
100
AcDbEntity
  8
Defpoints
 62
     0
100
AcDbPoint
 10
390.8964364538773
 20
110.1782591725371
 30
0.0
  0
POINT
  5
F0
330
EB
100
AcDbEntity
  8
Defpoints
 62
     0
100
AcDbPoint
 10
394.7714364538775
 20
110.1782591725371
 30
0.0
  0
POINT
  5
F1
330
EB
100
AcDbEntity
  8
Defpoints
 62
     0
100
AcDbPoint
 10
381.7714364538773
 20
97.24525917253668
 30
0.0
  0
ENDBLK
  5
F2
330
EB
100
AcDbEntity
  8
0
100
AcDbBlockEnd
  0
BLOCK
  5
F4
330
F3
100
AcDbEntity
  8
0
100
AcDbBlockBegin
  2
*D14
 70
     1
 10
0.0
 20
0.0
 30
0.0
  3
*D14
  1

  0
LINE
  5
F5
330
F3
100
AcDbEntity
  8
DIMENSION
 62
     0
370
    -2
100
AcDbLine
 10
382.0214364538774
 20
106.6502591725369
 30
0.0
 11
378.7714364538774
 21
106.6502591725369
 31
0.0
  0
MTEXT
  5
F6
330
F3
100
AcDbEntity
  8
DIMENSION
 62
     0
100
AcDbMText
 10
376.9589364538774
 20
106.6502591725369
 30
0.0
 40
0.75
 41
0.0
 71
     5
 72
     1
  1
\A1;9.405
 73
     1
 44
1.0
1001
ACAD
1000
MTEXTBEGIN
1070
    73
1070
     1
1070
    44
1040
1.0
1070
    74
1070
     0
1000
MTEXTEND
  0
POINT
  5
F7
330
F3
100
AcDbEntity
  8
Defpoints
 62
     0
100
AcDbPoint
 10
382.3964364538774
 20
106.6502591725369
 30
0.0
  0
POINT
  5
F8
330
F3
100
AcDbEntity
  8
Defpoints
 62
     0
100
AcDbPoint
 10
378.7714364538774
 20
106.6502591725369
 30
0.0
  0
POINT
  5
F9
330
F3
100
AcDbEntity
  8
Defpoints
 62
     0
100
AcDbPoint
 10
381.7714364538773
 20
97.24525917253668
 30
0.0
  0
ENDBLK
  5
FA
330
F3
100
AcDbEntity
  8
0
100
AcDbBlockEnd
  0
BLOCK
  5
FC
330
FB
100
AcDbEntity
  8
0
100
AcDbBlockBegin
  2
*D15
 70
     1
 10
0.0
 20
0.0
 30
0.0
  3
*D15
  1

  0
LINE
  5
FD
330
FB
100
AcDbEntity
  8
DIMENSION
 62
     0
370
    -2
100
AcDbLine
 10
390.8964364538773
 20
107.5532591725371
 30
0.0
 11
390.8964364538773
 21
97.24525917253657
 31
0.0
  0
LINE
  5
FE
330
FB
100
AcDbEntity
  8
DIMENSION
 62
     0
370
    -2
100
AcDbLine
 10
390.8964364538773
 20
97.24525917253657
 30
0.0
 11
389.7714364538775
 21
95.74525917253657
 31
0.0
  0
LINE
  5
FF
330
FB
100
AcDbEntity
  8
DIMENSION
 62
     0
370
    -2
100
AcDbLine
 10
389.7714364538775
 20
95.74525917253657
 30
0.0
 11
389.7714364538775
 21
94.24525917253658
 31
0.0
  0
MTEXT
  5
100
330
FB
100
AcDbEntity
  8
DIMENSION
 62
     0
100
AcDbMText
 10
389.7714364538775
 20
92.49525917253663
 30
0.0
 40
0.75
 41
0.0
 71
     5
 72
     1
  1
\A1;9.125
 11
0.0000000000000001
 21
1.0
 31
0.0
 73
     1
 44
1.0
1001
ACAD
1000
MTEXTBEGIN
1070
    73
1070
     1
1070
    44
1040
1.0
1070
    74
1070
     0
1000
MTEXTEND
  0
POINT
  5
101
330
FB
100
AcDbEntity
  8
Defpoints
 62
     0
100
AcDbPoint
 10
390.8964364538773
 20
107.9282591725371
 30
0.0
  0
POINT
  5
102
330
FB
100
AcDbEntity
  8
Defpoints
 62
     0
100
AcDbPoint
 10
389.7714364538775
 20
94.24525917253658
 30
0.0
  0
POINT
  5
103
330
FB
100
AcDbEntity
  8
Defpoints
 62
     0
100
AcDbPoint
 10
381.7714364538773
 20
97.24525917253668
 30
0.0
  0
ENDBLK
  5
104
330
FB
100
AcDbEntity
  8
0
100
AcDbBlockEnd
  0
BLOCK
  5
106
330
105
100
AcDbEntity
  8
0
100
AcDbBlockBegin
  2
*D16
 70
     1
 10
0.0
 20
0.0
 30
0.0
  3
*D16
  1

  0
LINE
  5
107
330
105
100
AcDbEntity
  8
DIMENSION
 62
     0
370
    -2
100
AcDbLine
 10
391.1464364538773
 20
106.275259172537
 30
0.0
 11
391.1464364538773
 21
97.24525917253657
 31
0.0
  0
LINE
  5
108
330
105
100
AcDbEntity
  8
DIMENSION
 62
     0
370
    -2
100
AcDbLine
 10
391.1464364538773
 20
97.24525917253657
 30
0.0
 11
390.7714364538774
 21
95.74525917253657
 31
0.0
  0
LINE
  5
109
330
105
100
AcDbEntity
  8
DIMENSION
 62
     0
370
    -2
100
AcDbLine
 10
390.7714364538774
 20
95.74525917253657
 30
0.0
 11
390.7714364538774
 21
94.24525917253658
 31
0.0
  0
MTEXT
  5
10A
330
105
100
AcDbEntity
  8
DIMENSION
 62
     0
100
AcDbMText
 10
390.7714364538774
 20
92.37025917253664
 30
0.0
 40
0.75
 41
0.0
 71
     5
 72
     1
  1
\A1;9.375
 11
0.0000000000000001
 21
1.0
 31
0.0
 73
     1
 44
1.0
1001
ACAD
1000
MTEXTBEGIN
1070
    73
1070
     1
1070
    44
1040
1.0
1070
    74
1070
     0
1000
MTEXTEND
  0
POINT
  5
10B
330
105
100
AcDbEntity
  8
Defpoints
 62
     0
100
AcDbPoint
 10
391.1464364538773
 20
106.650259172537
 30
0.0
  0
POINT
  5
10C
330
105
100
AcDbEntity
  8
Defpoints
 62
     0
100
AcDbPoint
 10
390.7714364538774
 20
94.24525917253658
 30
0.0
  0
POINT
  5
10D
330
105
100
AcDbEntity
  8
Defpoints
 62
     0
100
AcDbPoint
 10
381.7714364538773
 20
97.24525917253668
 30
0.0
  0
ENDBLK
  5
10E
330
105
100
AcDbEntity
  8
0
100
AcDbBlockEnd
  0
BLOCK
  5
110
330
10F
100
AcDbEntity
  8
0
100
AcDbBlockBegin
  2
*D17
 70
     1
 10
0.0
 20
0.0
 30
0.0
  3
*D17
  1

  0
LINE
  5
111
330
10F
100
AcDbEntity
  8
DIMENSION
 62
     0
370
    -2
100
AcDbLine
 10
391.7714364538777
 20
96.87025917253672
 30
0.0
 11
391.7714364538777
 21
94.24525917253658
 31
0.0
  0
MTEXT
  5
112
330
10F
100
AcDbEntity
  8
DIMENSION
 62
     0
100
AcDbMText
 10
391.7714364538777
 20
92.37025917253664
 30
0.0
 40
0.75
 41
0.0
 71
     5
 72
     1
  1
\A1;10.000
 11
0.0000000000000001
 21
1.0
 31
0.0
 73
     1
 44
1.0
1001
ACAD
1000
MTEXTBEGIN
1070
    73
1070
     1
1070
    44
1040
1.0
1070
    74
1070
     0
1000
MTEXTEND
  0
POINT
  5
113
330
10F
100
AcDbEntity
  8
Defpoints
 62
     0
100
AcDbPoint
 10
391.7714364538777
 20
97.24525917253671
 30
0.0
  0
POINT
  5
114
330
10F
100
AcDbEntity
  8
Defpoints
 62
     0
100
AcDbPoint
 10
391.7714364538777
 20
94.24525917253658
 30
0.0
  0
POINT
  5
115
330
10F
100
AcDbEntity
  8
Defpoints
 62
     0
100
AcDbPoint
 10
381.7714364538773
 20
97.24525917253668
 30
0.0
  0
ENDBLK
  5
116
330
10F
100
AcDbEntity
  8
0
100
AcDbBlockEnd
  0
BLOCK
  5
118
330
117
100
AcDbEntity
  8
0
100
AcDbBlockBegin
  2
*D18
 70
     1
 10
0.0
 20
0.0
 30
0.0
  3
*D18
  1

  0
LINE
  5
119
330
117
100
AcDbEntity
  8
DIMENSION
 62
     0
370
    -2
100
AcDbLine
 10
382.6464364538777
 20
107.5532591725371
 30
0.0
 11
382.6464364538777
 21
97.24525917253657
 31
0.0
  0
LINE
  5
11A
330
117
100
AcDbEntity
  8
DIMENSION
 62
     0
370
    -2
100
AcDbLine
 10
382.6464364538777
 20
97.24525917253657
 30
0.0
 11
383.7714364538773
 21
95.74525917253657
 31
0.0
  0
LINE
  5
11B
330
117
100
AcDbEntity
  8
DIMENSION
 62
     0
370
    -2
100
AcDbLine
 10
383.7714364538773
 20
95.74525917253657
 30
0.0
 11
383.7714364538773
 21
94.24525917253658
 31
0.0
  0
MTEXT
  5
11C
330
117
100
AcDbEntity
  8
DIMENSION
 62
     0
100
AcDbMText
 10
383.7714364538773
 20
92.43275917253663
 30
0.0
 40
0.75
 41
0.0
 71
     5
 72
     1
  1
\A1;0.875
 11
0.0000000000000001
 21
1.0
 31
0.0
 73
     1
 44
1.0
1001
ACAD
1000
MTEXTBEGIN
1070
    73
1070
     1
1070
    44
1040
1.0
1070
    74
1070
     0
1000
MTEXTEND
  0
POINT
  5
11D
330
117
100
AcDbEntity
  8
Defpoints
 62
     0
100
AcDbPoint
 10
382.6464364538777
 20
107.9282591725371
 30
0.0
  0
POINT
  5
11E
330
117
100
AcDbEntity
  8
Defpoints
 62
     0
100
AcDbPoint
 10
383.7714364538773
 20
94.24525917253658
 30
0.0
  0
POINT
  5
11F
330
117
100
AcDbEntity
  8
Defpoints
 62
     0
100
AcDbPoint
 10
381.7714364538773
 20
97.24525917253668
 30
0.0
  0
ENDBLK
  5
120
330
117
100
AcDbEntity
  8
0
100
AcDbBlockEnd
  0
BLOCK
  5
122
330
121
100
AcDbEntity
  8
0
100
AcDbBlockBegin
  2
*D19
 70
     1
 10
0.0
 20
0.0
 30
0.0
  3
*D19
  1

  0
LINE
  5
123
330
121
100
AcDbEntity
  8
DIMENSION
 62
     0
370
    -2
100
AcDbLine
 10
382.3964364538774
 20
106.2752591725369
 30
0.0
 11
382.3964364538774
 21
97.24525917253657
 31
0.0
  0
LINE
  5
124
330
121
100
AcDbEntity
  8
DIMENSION
 62
     0
370
    -2
100
AcDbLine
 10
382.3964364538774
 20
97.24525917253657
 30
0.0
 11
382.7714364538774
 21
95.74525917253657
 31
0.0
  0
LINE
  5
125
330
121
100
AcDbEntity
  8
DIMENSION
 62
     0
370
    -2
100
AcDbLine
 10
382.7714364538774
 20
95.74525917253657
 30
0.0
 11
382.7714364538774
 21
94.24525917253658
 31
0.0
  0
MTEXT
  5
126
330
121
100
AcDbEntity
  8
DIMENSION
 62
     0
100
AcDbMText
 10
382.7714364538774
 20
92.43275917253663
 30
0.0
 40
0.75
 41
0.0
 71
     5
 72
     1
  1
\A1;0.625
 11
0.0000000000000001
 21
1.0
 31
0.0
 73
     1
 44
1.0
1001
ACAD
1000
MTEXTBEGIN
1070
    73
1070
     1
1070
    44
1040
1.0
1070
    74
1070
     0
1000
MTEXTEND
  0
POINT
  5
127
330
121
100
AcDbEntity
  8
Defpoints
 62
     0
100
AcDbPoint
 10
382.3964364538774
 20
106.6502591725369
 30
0.0
  0
POINT
  5
128
330
121
100
AcDbEntity
  8
Defpoints
 62
     0
100
AcDbPoint
 10
382.7714364538774
 20
94.24525917253658
 30
0.0
  0
POINT
  5
129
330
121
100
AcDbEntity
  8
Defpoints
 62
     0
100
AcDbPoint
 10
381.7714364538773
 20
97.24525917253668
 30
0.0
  0
ENDBLK
  5
12A
330
121
100
AcDbEntity
  8
0
100
AcDbBlockEnd
  0
BLOCK
  5
12C
330
12B
100
AcDbEntity
  8
0
100
AcDbBlockBegin
  2
*D20
 70
     1
 10
0.0
 20
0.0
 30
0.0
  3
*D20
  1

  0
LINE
  5
12D
330
12B
100
AcDbEntity
  8
DIMENSION
 62
     0
370
    -2
100
AcDbLine
 10
381.7714364538773
 20
96.87025917253668
 30
0.0
 11
381.7714364538773
 21
94.24525917253658
 31
0.0
  0
MTEXT
  5
12E
330
12B
100
AcDbEntity
  8
DIMENSION
 62
     0
100
AcDbMText
 10
381.7714364538773
 20
92.62025917253664
 30
0.0
 40
0.75
 41
0.0
 71
     5
 72
     1
  1
\A1;0.000
 11
0.0000000000000001
 21
1.0
 31
0.0
 73
     1
 44
1.0
1001
ACAD
1000
MTEXTBEGIN
1070
    73
1070
     1
1070
    44
1040
1.0
1070
    74
1070
     0
1000
MTEXTEND
  0
POINT
  5
12F
330
12B
100
AcDbEntity
  8
Defpoints
 62
     0
100
AcDbPoint
 10
381.7714364538773
 20
97.24525917253668
 30
0.0
  0
POINT
  5
130
330
12B
100
AcDbEntity
  8
Defpoints
 62
     0
100
AcDbPoint
 10
381.7714364538773
 20
94.24525917253658
 30
0.0
  0
POINT
  5
131
330
12B
100
AcDbEntity
  8
Defpoints
 62
     0
100
AcDbPoint
 10
381.7714364538773
 20
97.24525917253668
 30
0.0
  0
ENDBLK
  5
132
330
12B
100
AcDbEntity
  8
0
100
AcDbBlockEnd
  0
BLOCK
  5
417
330
411
100
AcDbEntity
  8
0
100
AcDbBlockBegin
  2
*D21
 70
     1
 10
0.0
 20
0.0
 30
0.0
  3
*D21
  1

  0
LINE
  5
9B0
330
411
100
AcDbEntity
  8
DIMENSION
 62
     0
370
    -2
100
AcDbLine
 10
-179.7244046660948
 20
-71.21110347416518
 30
0.0
 11
-182.5244046660947
 21
-71.21110347416518
 31
0.0
  0
MTEXT
  5
9B1
330
411
100
AcDbEntity
  8
DIMENSION
 62
     0
100
AcDbMText
 10
-183.8644046660947
 20
-71.21110347416518
 30
0.0
 40
0.75
 41
0.0
 71
     5
 72
     1
  1
\A1;0.000
 73
     1
 44
1.0
1001
ACAD
1000
MTEXTBEGIN
1070
    73
1070
     1
1070
    44
1040
1.0
1070
    74
1070
     0
1000
MTEXTEND
  0
POINT
  5
9B2
330
411
100
AcDbEntity
  8
Defpoints
 62
     0
100
AcDbPoint
 10
-179.5244046660948
 20
-71.21110347416518
 30
0.0
  0
POINT
  5
9B3
330
411
100
AcDbEntity
  8
Defpoints
 62
     0
100
AcDbPoint
 10
-182.5244046660947
 20
-71.21110347416518
 30
0.0
  0
POINT
  5
9B4
330
411
100
AcDbEntity
  8
Defpoints
 62
     0
100
AcDbPoint
 10
-179.5244046660948
 20
-71.21110347416518
 30
0.0
  0
ENDBLK
  5
418
330
411
100
AcDbEntity
  8
0
100
AcDbBlockEnd
  0
BLOCK
  5
41F
330
419
100
AcDbEntity
  8
0
100
AcDbBlockBegin
  2
*D22
 70
     1
 10
0.0
 20
0.0
 30
0.0
  3
*D22
  1

  0
LINE
  5
9F3
330
419
100
AcDbEntity
  8
DIMENSION
 62
     0
370
    -2
100
AcDbLine
 10
-170.1494046660948
 20
-47.60610347416484
 30
0.0
 11
-170.1494046660948
 21
-40.18110347416492
 31
0.0
  0
MTEXT
  5
9F4
330
419
100
AcDbEntity
  8
DIMENSION
 62
     0
100
AcDbMText
 10
-170.1494046660948
 20
-38.59110347416495
 30
0.0
 40
0.75
 41
0.0
 71
     5
 72
     1
  1
\A1;9.375
 11
0.0000000000000001
 21
1.0
 31
0.0
 73
     1
 44
1.0
1001
ACAD
1000
MTEXTBEGIN
1070
    73
1070
     1
1070
    44
1040
1.0
1070
    74
1070
     0
1000
MTEXTEND
  0
POINT
  5
9F5
330
419
100
AcDbEntity
  8
Defpoints
 62
     0
100
AcDbPoint
 10
-170.1494046660948
 20
-47.80610347416485
 30
0.0
  0
POINT
  5
9F6
330
419
100
AcDbEntity
  8
Defpoints
 62
     0
100
AcDbPoint
 10
-170.1494046660948
 20
-40.18110347416492
 30
0.0
  0
POINT
  5
9F7
330
419
100
AcDbEntity
  8
Defpoints
 62
     0
100
AcDbPoint
 10
-179.5244046660948
 20
-71.21110347416518
 30
0.0
  0
ENDBLK
  5
420
330
419
100
AcDbEntity
  8
0
100
AcDbBlockEnd
  0
BLOCK
  5
427
330
421
100
AcDbEntity
  8
0
100
AcDbBlockBegin
  2
*D23
 70
     1
 10
0.0
 20
0.0
 30
0.0
  3
*D23
  1

  0
LINE
  5
9EE
330
421
100
AcDbEntity
  8
DIMENSION
 62
     0
370
    -2
100
AcDbLine
 10
-173.5464046660946
 20
-45.13835347416485
 30
0.0
 11
-173.5464046660946
 21
-40.18110347416492
 31
0.0
  0
MTEXT
  5
9EF
330
421
100
AcDbEntity
  8
DIMENSION
 62
     0
100
AcDbMText
 10
-173.5464046660946
 20
-38.59110347416495
 30
0.0
 40
0.75
 41
0.0
 71
     5
 72
     1
  1
\A1;5.978
 11
0.0000000000000001
 21
1.0
 31
0.0
 73
     1
 44
1.0
1001
ACAD
1000
MTEXTBEGIN
1070
    73
1070
     1
1070
    44
1040
1.0
1070
    74
1070
     0
1000
MTEXTEND
  0
POINT
  5
9F0
330
421
100
AcDbEntity
  8
Defpoints
 62
     0
100
AcDbPoint
 10
-173.5464046660946
 20
-45.33835347416484
 30
0.0
  0
POINT
  5
9F1
330
421
100
AcDbEntity
  8
Defpoints
 62
     0
100
AcDbPoint
 10
-173.5464046660946
 20
-40.18110347416492
 30
0.0
  0
POINT
  5
9F2
330
421
100
AcDbEntity
  8
Defpoints
 62
     0
100
AcDbPoint
 10
-179.5244046660948
 20
-71.21110347416518
 30
0.0
  0
ENDBLK
  5
428
330
421
100
AcDbEntity
  8
0
100
AcDbBlockEnd
  0
BLOCK
  5
42F
330
429
100
AcDbEntity
  8
0
100
AcDbBlockBegin
  2
*D24
 70
     1
 10
0.0
 20
0.0
 30
0.0
  3
*D24
  1

  0
LINE
  5
9E9
330
429
100
AcDbEntity
  8
DIMENSION
 62
     0
370
    -2
100
AcDbLine
 10
-177.9964046660946
 20
-45.13835347416485
 30
0.0
 11
-177.9964046660946
 21
-40.18110347416492
 31
0.0
  0
MTEXT
  5
9EA
330
429
100
AcDbEntity
  8
DIMENSION
 62
     0
100
AcDbMText
 10
-177.9964046660946
 20
-38.71610347416496
 30
0.0
 40
0.75
 41
0.0
 71
     5
 72
     1
  1
\A1;1.528
 11
0.0000000000000001
 21
1.0
 31
0.0
 73
     1
 44
1.0
1001
ACAD
1000
MTEXTBEGIN
1070
    73
1070
     1
1070
    44
1040
1.0
1070
    74
1070
     0
1000
MTEXTEND
  0
POINT
  5
9EB
330
429
100
AcDbEntity
  8
Defpoints
 62
     0
100
AcDbPoint
 10
-177.9964046660946
 20
-45.33835347416484
 30
0.0
  0
POINT
  5
9EC
330
429
100
AcDbEntity
  8
Defpoints
 62
     0
100
AcDbPoint
 10
-177.9964046660946
 20
-40.18110347416492
 30
0.0
  0
POINT
  5
9ED
330
429
100
AcDbEntity
  8
Defpoints
 62
     0
100
AcDbPoint
 10
-179.5244046660948
 20
-71.21110347416518
 30
0.0
  0
ENDBLK
  5
430
330
429
100
AcDbEntity
  8
0
100
AcDbBlockEnd
  0
BLOCK
  5
439
330
431
100
AcDbEntity
  8
0
100
AcDbBlockBegin
  2
*D25
 70
     1
 10
0.0
 20
0.0
 30
0.0
  3
*D25
  1

  0
LINE
  5
9E2
330
431
100
AcDbEntity
  8
DIMENSION
 62
     0
370
    -2
100
AcDbLine
 10
-178.8994046660948
 20
-47.60610347416493
 30
0.0
 11
-178.8994046660948
 21
-43.18110347416492
 31
0.0
  0
LINE
  5
9E3
330
431
100
AcDbEntity
  8
DIMENSION
 62
     0
370
    -2
100
AcDbLine
 10
-178.8994046660948
 20
-43.18110347416492
 30
0.0
 11
-178.9964046660947
 21
-41.68110347416493
 31
0.0
  0
LINE
  5
9E4
330
431
100
AcDbEntity
  8
DIMENSION
 62
     0
370
    -2
100
AcDbLine
 10
-178.9964046660947
 20
-41.68110347416493
 30
0.0
 11
-178.9964046660947
 21
-40.18110347416492
 31
0.0
  0
MTEXT
  5
9E5
330
431
100
AcDbEntity
  8
DIMENSION
 62
     0
100
AcDbMText
 10
-178.9964046660947
 20
-38.65360347416496
 30
0.0
 40
0.75
 41
0.0
 71
     5
 72
     1
  1
\A1;0.625
 11
0.0000000000000001
 21
1.0
 31
0.0
 73
     1
 44
1.0
1001
ACAD
1000
MTEXTBEGIN
1070
    73
1070
     1
1070
    44
1040
1.0
1070
    74
1070
     0
1000
MTEXTEND
  0
POINT
  5
9E6
330
431
100
AcDbEntity
  8
Defpoints
 62
     0
100
AcDbPoint
 10
-178.8994046660948
 20
-47.80610347416494
 30
0.0
  0
POINT
  5
9E7
330
431
100
AcDbEntity
  8
Defpoints
 62
     0
100
AcDbPoint
 10
-178.9964046660947
 20
-40.18110347416492
 30
0.0
  0
POINT
  5
9E8
330
431
100
AcDbEntity
  8
Defpoints
 62
     0
100
AcDbPoint
 10
-179.5244046660948
 20
-71.21110347416518
 30
0.0
  0
ENDBLK
  5
43A
330
431
100
AcDbEntity
  8
0
100
AcDbBlockEnd
  0
BLOCK
  5
441
330
43B
100
AcDbEntity
  8
0
100
AcDbBlockBegin
  2
*D26
 70
     1
 10
0.0
 20
0.0
 30
0.0
  3
*D26
  1

  0
LINE
  5
9DD
330
43B
100
AcDbEntity
  8
DIMENSION
 62
     0
370
    -2
100
AcDbLine
 10
-178.1964046660946
 20
-45.33835347416484
 30
0.0
 11
-182.5244046660947
 21
-45.33835347416484
 31
0.0
  0
MTEXT
  5
9DE
330
43B
100
AcDbEntity
  8
DIMENSION
 62
     0
100
AcDbMText
 10
-184.4894046660947
 20
-45.33835347416484
 30
0.0
 40
0.75
 41
0.0
 71
     5
 72
     1
  1
\A1;25.873
 73
     1
 44
1.0
1001
ACAD
1000
MTEXTBEGIN
1070
    73
1070
     1
1070
    44
1040
1.0
1070
    74
1070
     0
1000
MTEXTEND
  0
POINT
  5
9DF
330
43B
100
AcDbEntity
  8
Defpoints
 62
     0
100
AcDbPoint
 10
-177.9964046660946
 20
-45.33835347416484
 30
0.0
  0
POINT
  5
9E0
330
43B
100
AcDbEntity
  8
Defpoints
 62
     0
100
AcDbPoint
 10
-182.5244046660947
 20
-45.33835347416484
 30
0.0
  0
POINT
  5
9E1
330
43B
100
AcDbEntity
  8
Defpoints
 62
     0
100
AcDbPoint
 10
-179.5244046660948
 20
-71.21110347416518
 30
0.0
  0
ENDBLK
  5
442
330
43B
100
AcDbEntity
  8
0
100
AcDbBlockEnd
  0
BLOCK
  5
449
330
443
100
AcDbEntity
  8
0
100
AcDbBlockBegin
  2
*D27
 70
     1
 10
0.0
 20
0.0
 30
0.0
  3
*D27
  1

  0
LINE
  5
9D8
330
443
100
AcDbEntity
  8
DIMENSION
 62
     0
370
    -2
100
AcDbLine
 10
-169.9494046660948
 20
-47.80610347416485
 30
0.0
 11
-166.5244046660946
 21
-47.80610347416485
 31
0.0
  0
MTEXT
  5
9D9
330
443
100
AcDbEntity
  8
DIMENSION
 62
     0
100
AcDbMText
 10
-164.6219046660946
 20
-47.80610347416485
 30
0.0
 40
0.75
 41
0.0
 71
     5
 72
     1
  1
\A1;23.405
 73
     1
 44
1.0
1001
ACAD
1000
MTEXTBEGIN
1070
    73
1070
     1
1070
    44
1040
1.0
1070
    74
1070
     0
1000
MTEXTEND
  0
POINT
  5
9DA
330
443
100
AcDbEntity
  8
Defpoints
 62
     0
100
AcDbPoint
 10
-170.1494046660948
 20
-47.80610347416485
 30
0.0
  0
POINT
  5
9DB
330
443
100
AcDbEntity
  8
Defpoints
 62
     0
100
AcDbPoint
 10
-166.5244046660946
 20
-47.80610347416485
 30
0.0
  0
POINT
  5
9DC
330
443
100
AcDbEntity
  8
Defpoints
 62
     0
100
AcDbPoint
 10
-179.5244046660948
 20
-71.21110347416518
 30
0.0
  0
ENDBLK
  5
44A
330
443
100
AcDbEntity
  8
0
100
AcDbBlockEnd
  0
BLOCK
  5
451
330
44B
100
AcDbEntity
  8
0
100
AcDbBlockBegin
  2
*D28
 70
     1
 10
0.0
 20
0.0
 30
0.0
  3
*D28
  1

  0
LINE
  5
9D3
330
44B
100
AcDbEntity
  8
DIMENSION
 62
     0
370
    -2
100
AcDbLine
 10
-178.1964046660946
 20
-48.17585347416485
 30
0.0
 11
-182.5244046660947
 21
-48.17585347416485
 31
0.0
  0
MTEXT
  5
9D4
330
44B
100
AcDbEntity
  8
DIMENSION
 62
     0
100
AcDbMText
 10
-184.4269046660947
 20
-48.17585347416485
 30
0.0
 40
0.75
 41
0.0
 71
     5
 72
     1
  1
\A1;23.035
 73
     1
 44
1.0
1001
ACAD
1000
MTEXTBEGIN
1070
    73
1070
     1
1070
    44
1040
1.0
1070
    74
1070
     0
1000
MTEXTEND
  0
POINT
  5
9D5
330
44B
100
AcDbEntity
  8
Defpoints
 62
     0
100
AcDbPoint
 10
-177.9964046660946
 20
-48.17585347416485
 30
0.0
  0
POINT
  5
9D6
330
44B
100
AcDbEntity
  8
Defpoints
 62
     0
100
AcDbPoint
 10
-182.5244046660947
 20
-48.17585347416485
 30
0.0
  0
POINT
  5
9D7
330
44B
100
AcDbEntity
  8
Defpoints
 62
     0
100
AcDbPoint
 10
-179.5244046660948
 20
-71.21110347416518
 30
0.0
  0
ENDBLK
  5
452
330
44B
100
AcDbEntity
  8
0
100
AcDbBlockEnd
  0
BLOCK
  5
459
330
453
100
AcDbEntity
  8
0
100
AcDbBlockBegin
  2
*D29
 70
     1
 10
0.0
 20
0.0
 30
0.0
  3
*D29
  1

  0
LINE
  5
9CE
330
453
100
AcDbEntity
  8
DIMENSION
 62
     0
370
    -2
100
AcDbLine
 10
-170.1994046660948
 20
-60.52810347416476
 30
0.0
 11
-166.5244046660946
 21
-60.52810347416476
 31
0.0
  0
MTEXT
  5
9CF
330
453
100
AcDbEntity
  8
DIMENSION
 62
     0
100
AcDbMText
 10
-164.7469046660946
 20
-60.52810347416476
 30
0.0
 40
0.75
 41
0.0
 71
     5
 72
     1
  1
\A1;10.683
 73
     1
 44
1.0
1001
ACAD
1000
MTEXTBEGIN
1070
    73
1070
     1
1070
    44
1040
1.0
1070
    74
1070
     0
1000
MTEXTEND
  0
POINT
  5
9D0
330
453
100
AcDbEntity
  8
Defpoints
 62
     0
100
AcDbPoint
 10
-170.3994046660948
 20
-60.52810347416476
 30
0.0
  0
POINT
  5
9D1
330
453
100
AcDbEntity
  8
Defpoints
 62
     0
100
AcDbPoint
 10
-166.5244046660946
 20
-60.52810347416476
 30
0.0
  0
POINT
  5
9D2
330
453
100
AcDbEntity
  8
Defpoints
 62
     0
100
AcDbPoint
 10
-179.5244046660948
 20
-71.21110347416518
 30
0.0
  0
ENDBLK
  5
45A
330
453
100
AcDbEntity
  8
0
100
AcDbBlockEnd
  0
BLOCK
  5
461
330
45B
100
AcDbEntity
  8
0
100
AcDbBlockBegin
  2
*D30
 70
     1
 10
0.0
 20
0.0
 30
0.0
  3
*D30
  1

  0
LINE
  5
9C9
330
45B
100
AcDbEntity
  8
DIMENSION
 62
     0
370
    -2
100
AcDbLine
 10
-170.1994046660948
 20
-58.27810347416477
 30
0.0
 11
-166.5244046660946
 21
-58.27810347416477
 31
0.0
  0
MTEXT
  5
9CA
330
45B
100
AcDbEntity
  8
DIMENSION
 62
     0
100
AcDbMText
 10
-164.6844046660946
 20
-58.27810347416477
 30
0.0
 40
0.75
 41
0.0
 71
     5
 72
     1
  1
\A1;12.933
 73
     1
 44
1.0
1001
ACAD
1000
MTEXTBEGIN
1070
    73
1070
     1
1070
    44
1040
1.0
1070
    74
1070
     0
1000
MTEXTEND
  0
POINT
  5
9CB
330
45B
100
AcDbEntity
  8
Defpoints
 62
     0
100
AcDbPoint
 10
-170.3994046660948
 20
-58.27810347416477
 30
0.0
  0
POINT
  5
9CC
330
45B
100
AcDbEntity
  8
Defpoints
 62
     0
100
AcDbPoint
 10
-166.5244046660946
 20
-58.27810347416477
 30
0.0
  0
POINT
  5
9CD
330
45B
100
AcDbEntity
  8
Defpoints
 62
     0
100
AcDbPoint
 10
-179.5244046660948
 20
-71.21110347416518
 30
0.0
  0
ENDBLK
  5
462
330
45B
100
AcDbEntity
  8
0
100
AcDbBlockEnd
  0
BLOCK
  5
469
330
463
100
AcDbEntity
  8
0
100
AcDbBlockBegin
  2
*D31
 70
     1
 10
0.0
 20
0.0
 30
0.0
  3
*D31
  1

  0
LINE
  5
9C4
330
463
100
AcDbEntity
  8
DIMENSION
 62
     0
370
    -2
100
AcDbLine
 10
-179.0994046660948
 20
-61.80610347416497
 30
0.0
 11
-182.5244046660947
 21
-61.80610347416497
 31
0.0
  0
MTEXT
  5
9C5
330
463
100
AcDbEntity
  8
DIMENSION
 62
     0
100
AcDbMText
 10
-184.0519046660947
 20
-61.80610347416497
 30
0.0
 40
0.75
 41
0.0
 71
     5
 72
     1
  1
\A1;9.405
 73
     1
 44
1.0
1001
ACAD
1000
MTEXTBEGIN
1070
    73
1070
     1
1070
    44
1040
1.0
1070
    74
1070
     0
1000
MTEXTEND
  0
POINT
  5
9C6
330
463
100
AcDbEntity
  8
Defpoints
 62
     0
100
AcDbPoint
 10
-178.8994046660948
 20
-61.80610347416497
 30
0.0
  0
POINT
  5
9C7
330
463
100
AcDbEntity
  8
Defpoints
 62
     0
100
AcDbPoint
 10
-182.5244046660947
 20
-61.80610347416497
 30
0.0
  0
POINT
  5
9C8
330
463
100
AcDbEntity
  8
Defpoints
 62
     0
100
AcDbPoint
 10
-179.5244046660948
 20
-71.21110347416518
 30
0.0
  0
ENDBLK
  5
46A
330
463
100
AcDbEntity
  8
0
100
AcDbBlockEnd
  0
BLOCK
  5
473
330
46B
100
AcDbEntity
  8
0
100
AcDbBlockBegin
  2
*D32
 70
     1
 10
0.0
 20
0.0
 30
0.0
  3
*D32
  1

  0
LINE
  5
9A9
330
46B
100
AcDbEntity
  8
DIMENSION
 62
     0
370
    -2
100
AcDbLine
 10
-170.3994046660948
 20
-60.72810347416477
 30
0.0
 11
-170.3994046660948
 21
-71.21110347416527
 31
0.0
  0
LINE
  5
9AA
330
46B
100
AcDbEntity
  8
DIMENSION
 62
     0
370
    -2
100
AcDbLine
 10
-170.3994046660948
 20
-71.21110347416527
 30
0.0
 11
-171.5244046660946
 21
-72.71110347416527
 31
0.0
  0
LINE
  5
9AB
330
46B
100
AcDbEntity
  8
DIMENSION
 62
     0
370
    -2
100
AcDbLine
 10
-171.5244046660946
 20
-72.71110347416527
 30
0.0
 11
-171.5244046660946
 21
-74.21110347416527
 31
0.0
  0
MTEXT
  5
9AC
330
46B
100
AcDbEntity
  8
DIMENSION
 62
     0
100
AcDbMText
 10
-171.5244046660946
 20
-75.6761034741653
 30
0.0
 40
0.75
 41
0.0
 71
     5
 72
     1
  1
\A1;9.125
 11
0.0000000000000001
 21
1.0
 31
0.0
 73
     1
 44
1.0
1001
ACAD
1000
MTEXTBEGIN
1070
    73
1070
     1
1070
    44
1040
1.0
1070
    74
1070
     0
1000
MTEXTEND
  0
POINT
  5
9AD
330
46B
100
AcDbEntity
  8
Defpoints
 62
     0
100
AcDbPoint
 10
-170.3994046660948
 20
-60.52810347416476
 30
0.0
  0
POINT
  5
9AE
330
46B
100
AcDbEntity
  8
Defpoints
 62
     0
100
AcDbPoint
 10
-171.5244046660946
 20
-74.21110347416527
 30
0.0
  0
POINT
  5
9AF
330
46B
100
AcDbEntity
  8
Defpoints
 62
     0
100
AcDbPoint
 10
-179.5244046660948
 20
-71.21110347416518
 30
0.0
  0
ENDBLK
  5
474
330
46B
100
AcDbEntity
  8
0
100
AcDbBlockEnd
  0
BLOCK
  5
47D
330
475
100
AcDbEntity
  8
0
100
AcDbBlockBegin
  2
*D33
 70
     1
 10
0.0
 20
0.0
 30
0.0
  3
*D33
  1

  0
LINE
  5
9A2
330
475
100
AcDbEntity
  8
DIMENSION
 62
     0
370
    -2
100
AcDbLine
 10
-170.1494046660948
 20
-62.00610347416485
 30
0.0
 11
-170.1494046660948
 21
-71.21110347416527
 31
0.0
  0
LINE
  5
9A3
330
475
100
AcDbEntity
  8
DIMENSION
 62
     0
370
    -2
100
AcDbLine
 10
-170.1494046660948
 20
-71.21110347416527
 30
0.0
 11
-170.5244046660946
 21
-72.71110347416527
 31
0.0
  0
LINE
  5
9A4
330
475
100
AcDbEntity
  8
DIMENSION
 62
     0
370
    -2
100
AcDbLine
 10
-170.5244046660946
 20
-72.71110347416527
 30
0.0
 11
-170.5244046660946
 21
-74.21110347416527
 31
0.0
  0
MTEXT
  5
9A5
330
475
100
AcDbEntity
  8
DIMENSION
 62
     0
100
AcDbMText
 10
-170.5244046660946
 20
-75.8011034741653
 30
0.0
 40
0.75
 41
0.0
 71
     5
 72
     1
  1
\A1;9.375
 11
0.0000000000000001
 21
1.0
 31
0.0
 73
     1
 44
1.0
1001
ACAD
1000
MTEXTBEGIN
1070
    73
1070
     1
1070
    44
1040
1.0
1070
    74
1070
     0
1000
MTEXTEND
  0
POINT
  5
9A6
330
475
100
AcDbEntity
  8
Defpoints
 62
     0
100
AcDbPoint
 10
-170.1494046660948
 20
-61.80610347416485
 30
0.0
  0
POINT
  5
9A7
330
475
100
AcDbEntity
  8
Defpoints
 62
     0
100
AcDbPoint
 10
-170.5244046660946
 20
-74.21110347416527
 30
0.0
  0
POINT
  5
9A8
330
475
100
AcDbEntity
  8
Defpoints
 62
     0
100
AcDbPoint
 10
-179.5244046660948
 20
-71.21110347416518
 30
0.0
  0
ENDBLK
  5
47E
330
475
100
AcDbEntity
  8
0
100
AcDbBlockEnd
  0
BLOCK
  5
485
330
47F
100
AcDbEntity
  8
0
100
AcDbBlockBegin
  2
*D34
 70
     1
 10
0.0
 20
0.0
 30
0.0
  3
*D34
  1

  0
LINE
  5
99D
330
47F
100
AcDbEntity
  8
DIMENSION
 62
     0
370
    -2
100
AcDbLine
 10
-169.5244046660945
 20
-71.41110347416513
 30
0.0
 11
-169.5244046660945
 21
-74.21110347416527
 31
0.0
  0
MTEXT
  5
99E
330
47F
100
AcDbEntity
  8
DIMENSION
 62
     0
100
AcDbMText
 10
-169.5244046660945
 20
-75.8011034741653
 30
0.0
 40
0.75
 41
0.0
 71
     5
 72
     1
  1
\A1;10.000
 11
0.0000000000000001
 21
1.0
 31
0.0
 73
     1
 44
1.0
1001
ACAD
1000
MTEXTBEGIN
1070
    73
1070
     1
1070
    44
1040
1.0
1070
    74
1070
     0
1000
MTEXTEND
  0
POINT
  5
99F
330
47F
100
AcDbEntity
  8
Defpoints
 62
     0
100
AcDbPoint
 10
-169.5244046660945
 20
-71.21110347416513
 30
0.0
  0
POINT
  5
9A0
330
47F
100
AcDbEntity
  8
Defpoints
 62
     0
100
AcDbPoint
 10
-169.5244046660945
 20
-74.21110347416527
 30
0.0
  0
POINT
  5
9A1
330
47F
100
AcDbEntity
  8
Defpoints
 62
     0
100
AcDbPoint
 10
-179.5244046660948
 20
-71.21110347416518
 30
0.0
  0
ENDBLK
  5
486
330
47F
100
AcDbEntity
  8
0
100
AcDbBlockEnd
  0
BLOCK
  5
48F
330
487
100
AcDbEntity
  8
0
100
AcDbBlockBegin
  2
*D35
 70
     1
 10
0.0
 20
0.0
 30
0.0
  3
*D35
  1

  0
LINE
  5
996
330
487
100
AcDbEntity
  8
DIMENSION
 62
     0
370
    -2
100
AcDbLine
 10
-178.6494046660944
 20
-60.72810347416477
 30
0.0
 11
-178.6494046660944
 21
-71.21110347416527
 31
0.0
  0
LINE
  5
997
330
487
100
AcDbEntity
  8
DIMENSION
 62
     0
370
    -2
100
AcDbLine
 10
-178.6494046660944
 20
-71.21110347416527
 30
0.0
 11
-177.5244046660948
 21
-72.71110347416527
 31
0.0
  0
LINE
  5
998
330
487
100
AcDbEntity
  8
DIMENSION
 62
     0
370
    -2
100
AcDbLine
 10
-177.5244046660948
 20
-72.71110347416527
 30
0.0
 11
-177.5244046660948
 21
-74.21110347416527
 31
0.0
  0
MTEXT
  5
999
330
487
100
AcDbEntity
  8
DIMENSION
 62
     0
100
AcDbMText
 10
-177.5244046660947
 20
-75.7386034741653
 30
0.0
 40
0.75
 41
0.0
 71
     5
 72
     1
  1
\A1;0.875
 11
0.0000000000000001
 21
1.0
 31
0.0
 73
     1
 44
1.0
1001
ACAD
1000
MTEXTBEGIN
1070
    73
1070
     1
1070
    44
1040
1.0
1070
    74
1070
     0
1000
MTEXTEND
  0
POINT
  5
99A
330
487
100
AcDbEntity
  8
Defpoints
 62
     0
100
AcDbPoint
 10
-178.6494046660944
 20
-60.52810347416476
 30
0.0
  0
POINT
  5
99B
330
487
100
AcDbEntity
  8
Defpoints
 62
     0
100
AcDbPoint
 10
-177.5244046660948
 20
-74.21110347416527
 30
0.0
  0
POINT
  5
99C
330
487
100
AcDbEntity
  8
Defpoints
 62
     0
100
AcDbPoint
 10
-179.5244046660948
 20
-71.21110347416518
 30
0.0
  0
ENDBLK
  5
490
330
487
100
AcDbEntity
  8
0
100
AcDbBlockEnd
  0
BLOCK
  5
499
330
491
100
AcDbEntity
  8
0
100
AcDbBlockBegin
  2
*D36
 70
     1
 10
0.0
 20
0.0
 30
0.0
  3
*D36
  1

  0
LINE
  5
98F
330
491
100
AcDbEntity
  8
DIMENSION
 62
     0
370
    -2
100
AcDbLine
 10
-178.8994046660948
 20
-62.00610347416496
 30
0.0
 11
-178.8994046660948
 21
-71.21110347416527
 31
0.0
  0
LINE
  5
990
330
491
100
AcDbEntity
  8
DIMENSION
 62
     0
370
    -2
100
AcDbLine
 10
-178.8994046660948
 20
-71.21110347416527
 30
0.0
 11
-178.5244046660947
 21
-72.71110347416527
 31
0.0
  0
LINE
  5
991
330
491
100
AcDbEntity
  8
DIMENSION
 62
     0
370
    -2
100
AcDbLine
 10
-178.5244046660947
 20
-72.71110347416527
 30
0.0
 11
-178.5244046660947
 21
-74.21110347416527
 31
0.0
  0
MTEXT
  5
992
330
491
100
AcDbEntity
  8
DIMENSION
 62
     0
100
AcDbMText
 10
-178.5244046660947
 20
-75.7386034741653
 30
0.0
 40
0.75
 41
0.0
 71
     5
 72
     1
  1
\A1;0.625
 11
0.0000000000000001
 21
1.0
 31
0.0
 73
     1
 44
1.0
1001
ACAD
1000
MTEXTBEGIN
1070
    73
1070
     1
1070
    44
1040
1.0
1070
    74
1070
     0
1000
MTEXTEND
  0
POINT
  5
993
330
491
100
AcDbEntity
  8
Defpoints
 62
     0
100
AcDbPoint
 10
-178.8994046660948
 20
-61.80610347416497
 30
0.0
  0
POINT
  5
994
330
491
100
AcDbEntity
  8
Defpoints
 62
     0
100
AcDbPoint
 10
-178.5244046660947
 20
-74.21110347416527
 30
0.0
  0
POINT
  5
995
330
491
100
AcDbEntity
  8
Defpoints
 62
     0
100
AcDbPoint
 10
-179.5244046660948
 20
-71.21110347416518
 30
0.0
  0
ENDBLK
  5
49A
330
491
100
AcDbEntity
  8
0
100
AcDbBlockEnd
  0
BLOCK
  5
4A1
330
49B
100
AcDbEntity
  8
0
100
AcDbBlockBegin
  2
*D37
 70
     1
 10
0.0
 20
0.0
 30
0.0
  3
*D37
  1

  0
LINE
  5
98A
330
49B
100
AcDbEntity
  8
DIMENSION
 62
     0
370
    -2
100
AcDbLine
 10
-179.5244046660948
 20
-71.41110347416518
 30
0.0
 11
-179.5244046660948
 21
-74.21110347416527
 31
0.0
  0
MTEXT
  5
98B
330
49B
100
AcDbEntity
  8
DIMENSION
 62
     0
100
AcDbMText
 10
-179.5244046660947
 20
-75.5511034741653
 30
0.0
 40
0.75
 41
0.0
 71
     5
 72
     1
  1
\A1;0.000
 11
0.0000000000000001
 21
1.0
 31
0.0
 73
     1
 44
1.0
1001
ACAD
1000
MTEXTBEGIN
1070
    73
1070
     1
1070
    44
1040
1.0
1070
    74
1070
     0
1000
MTEXTEND
  0
POINT
  5
98C
330
49B
100
AcDbEntity
  8
Defpoints
 62
     0
100
AcDbPoint
 10
-179.5244046660948
 20
-71.21110347416518
 30
0.0
  0
POINT
  5
98D
330
49B
100
AcDbEntity
  8
Defpoints
 62
     0
100
AcDbPoint
 10
-179.5244046660948
 20
-74.21110347416527
 30
0.0
  0
POINT
  5
98E
330
49B
100
AcDbEntity
  8
Defpoints
 62
     0
100
AcDbPoint
 10
-179.5244046660948
 20
-71.21110347416518
 30
0.0
  0
ENDBLK
  5
4A2
330
49B
100
AcDbEntity
  8
0
100
AcDbBlockEnd
  0
BLOCK
  5
4A9
330
4A3
100
AcDbEntity
  8
0
100
AcDbBlockBegin
  2
*D38
 70
     1
 10
0.0
 20
0.0
 30
0.0
  3
*D38
  1

  0
LINE
  5
9BF
330
4A3
100
AcDbEntity
  8
DIMENSION
 62
     0
370
    -2
100
AcDbLine
 10
-174.7244046660947
 20
-53.03710347416486
 30
0.0
 11
-182.4036496315437
 21
-53.03710347416486
 31
0.0
  0
MTEXT
  5
9C0
330
4A3
100
AcDbEntity
  8
DIMENSION
 62
     0
100
AcDbMText
 10
-184.1186496315437
 20
-53.03710347416486
 30
0.0
 40
0.75
 41
0.0
 71
     5
 72
     1
  1
\A1;18.174
 73
     1
 44
1.0
1001
ACAD
1000
MTEXTBEGIN
1070
    73
1070
     1
1070
    44
1040
1.0
1070
    74
1070
     0
1000
MTEXTEND
  0
POINT
  5
9C1
330
4A3
100
AcDbEntity
  8
Defpoints
 62
     0
100
AcDbPoint
 10
-174.5244046660947
 20
-53.03710347416486
 30
0.0
  0
POINT
  5
9C2
330
4A3
100
AcDbEntity
  8
Defpoints
 62
     0
100
AcDbPoint
 10
-182.4036496315437
 20
-53.03710347416486
 30
0.0
  0
POINT
  5
9C3
330
4A3
100
AcDbEntity
  8
Defpoints
 62
     0
100
AcDbPoint
 10
-179.5244046660948
 20
-71.21110347416518
 30
0.0
  0
ENDBLK
  5
4AA
330
4A3
100
AcDbEntity
  8
0
100
AcDbBlockEnd
  0
BLOCK
  5
4B1
330
4AB
100
AcDbEntity
  8
0
100
AcDbBlockBegin
  2
*D39
 70
     1
 10
0.0
 20
0.0
 30
0.0
  3
*D39
  1

  0
LINE
  5
9BA
330
4AB
100
AcDbEntity
  8
DIMENSION
 62
     0
370
    -2
100
AcDbLine
 10
-174.5244046660947
 20
-53.23710347416485
 30
0.0
 11
-174.5244046660947
 21
-54.46997535391427
 31
0.0
  0
MTEXT
  5
9BB
330
4AB
100
AcDbEntity
  8
DIMENSION
 62
     0
100
AcDbMText
 10
-174.5244046660947
 20
-55.8724753539143
 30
0.0
 40
0.75
 41
0.0
 71
     5
 72
     1
  1
\A1;5.000
 11
0.0000000000000001
 21
1.0
 31
0.0
 73
     1
 44
1.0
1001
ACAD
1000
MTEXTBEGIN
1070
    73
1070
     1
1070
    44
1040
1.0
1070
    74
1070
     0
1000
MTEXTEND
  0
POINT
  5
9BC
330
4AB
100
AcDbEntity
  8
Defpoints
 62
     0
100
AcDbPoint
 10
-174.5244046660947
 20
-53.03710347416486
 30
0.0
  0
POINT
  5
9BD
330
4AB
100
AcDbEntity
  8
Defpoints
 62
     0
100
AcDbPoint
 10
-174.5244046660947
 20
-54.46997535391427
 30
0.0
  0
POINT
  5
9BE
330
4AB
100
AcDbEntity
  8
Defpoints
 62
     0
100
AcDbPoint
 10
-179.5244046660948
 20
-71.21110347416518
 30
0.0
  0
ENDBLK
  5
4B2
330
4AB
100
AcDbEntity
  8
0
100
AcDbBlockEnd
  0
BLOCK
  5
4B9
330
4B3
100
AcDbEntity
  8
0
100
AcDbBlockBegin
  2
*D40
 70
     1
 10
0.0
 20
0.0
 30
0.0
  3
*D40
  1

  0
LINE
  5
9B5
330
4B3
100
AcDbEntity
  8
DIMENSION
 62
     0
370
    -2
100
AcDbLine
 10
-179.7244046660948
 20
-43.18110347416495
 30
0.0
 11
-182.5244046660947
 21
-43.18110347416495
 31
0.0
  0
MTEXT
  5
9B6
330
4B3
100
AcDbEntity
  8
DIMENSION
 62
     0
100
AcDbMText
 10
-184.3644046660947
 20
-43.18110347416495
 30
0.0
 40
0.75
 41
0.0
 71
     5
 72
     1
  1
\A1;28.030
 73
     1
 44
1.0
1001
ACAD
1000
MTEXTBEGIN
1070
    73
1070
     1
1070
    44
1040
1.0
1070
    74
1070
     0
1000
MTEXTEND
  0
POINT
  5
9B7
330
4B3
100
AcDbEntity
  8
Defpoints
 62
     0
100
AcDbPoint
 10
-179.5244046660948
 20
-43.18110347416495
 30
0.0
  0
POINT
  5
9B8
330
4B3
100
AcDbEntity
  8
Defpoints
 62
     0
100
AcDbPoint
 10
-182.5244046660947
 20
-43.18110347416495
 30
0.0
  0
POINT
  5
9B9
330
4B3
100
AcDbEntity
  8
Defpoints
 62
     0
100
AcDbPoint
 10
-179.5244046660946
 20
-71.21110347416518
 30
0.0
  0
ENDBLK
  5
4BA
330
4B3
100
AcDbEntity
  8
0
100
AcDbBlockEnd
  0
BLOCK
  5
68D
330
68C
100
AcDbEntity
  8
0
100
AcDbBlockBegin
  2
*D41
 70
     1
 10
0.0
 20
0.0
 30
0.0
  3
*D41
  1

  0
LINE
  5
68E
330
68C
100
AcDbEntity
  8
DIMENSION
 62
     0
370
    -2
100
AcDbLine
 10
271.4483173133178
 20
97.24525917253668
 30
0.0
 11
268.8233173133178
 21
97.24525917253668
 31
0.0
  0
MTEXT
  5
68F
330
68C
100
AcDbEntity
  8
DIMENSION
 62
     0
100
AcDbMText
 10
267.1983173133178
 20
97.24525917253668
 30
0.0
 40
0.75
 41
0.0
 71
     5
 72
     1
  1
\A1;0.000
 73
     1
 44
1.0
1001
ACAD
1000
MTEXTBEGIN
1070
    73
1070
     1
1070
    44
1040
1.0
1070
    74
1070
     0
1000
MTEXTEND
  0
POINT
  5
690
330
68C
100
AcDbEntity
  8
Defpoints
 62
     0
100
AcDbPoint
 10
271.8233173133178
 20
97.24525917253668
 30
0.0
  0
POINT
  5
691
330
68C
100
AcDbEntity
  8
Defpoints
 62
     0
100
AcDbPoint
 10
268.8233173133178
 20
97.24525917253668
 30
0.0
  0
POINT
  5
692
330
68C
100
AcDbEntity
  8
Defpoints
 62
     0
100
AcDbPoint
 10
271.8233173133178
 20
97.24525917253668
 30
0.0
  0
ENDBLK
  5
693
330
68C
100
AcDbEntity
  8
0
100
AcDbBlockEnd
  0
BLOCK
  5
695
330
694
100
AcDbEntity
  8
0
100
AcDbBlockBegin
  2
*D42
 70
     1
 10
0.0
 20
0.0
 30
0.0
  3
*D42
  1

  0
LINE
  5
696
330
694
100
AcDbEntity
  8
DIMENSION
 62
     0
370
    -2
100
AcDbLine
 10
281.1983173133178
 20
121.025259172537
 30
0.0
 11
281.1983173133178
 21
128.2752591725369
 31
0.0
  0
MTEXT
  5
697
330
694
100
AcDbEntity
  8
DIMENSION
 62
     0
100
AcDbMText
 10
281.1983173133177
 20
131.4002591725369
 30
0.0
 40
0.75
 41
0.0
 71
     5
 72
     1
  1
\A1;9.375 (2)
 11
0.0000000000000001
 21
1.0
 31
0.0
 73
     1
 44
1.0
1001
ACAD
1000
MTEXTBEGIN
1070
    73
1070
     1
1070
    44
1040
1.0
1070
    74
1070
     0
1000
MTEXTEND
  0
POINT
  5
698
330
694
100
AcDbEntity
  8
Defpoints
 62
     0
100
AcDbPoint
 10
281.1983173133178
 20
120.650259172537
 30
0.0
  0
POINT
  5
699
330
694
100
AcDbEntity
  8
Defpoints
 62
     0
100
AcDbPoint
 10
281.1983173133178
 20
128.2752591725369
 30
0.0
  0
POINT
  5
69A
330
694
100
AcDbEntity
  8
Defpoints
 62
     0
100
AcDbPoint
 10
271.8233173133178
 20
97.24525917253668
 30
0.0
  0
ENDBLK
  5
69B
330
694
100
AcDbEntity
  8
0
100
AcDbBlockEnd
  0
BLOCK
  5
69D
330
69C
100
AcDbEntity
  8
0
100
AcDbBlockBegin
  2
*D43
 70
     1
 10
0.0
 20
0.0
 30
0.0
  3
*D43
  1

  0
LINE
  5
69E
330
69C
100
AcDbEntity
  8
DIMENSION
 62
     0
370
    -2
100
AcDbLine
 10
277.8013173133179
 20
123.493009172537
 30
0.0
 11
277.8013173133179
 21
128.2752591725369
 31
0.0
  0
MTEXT
  5
69F
330
69C
100
AcDbEntity
  8
DIMENSION
 62
     0
100
AcDbMText
 10
277.8013173133178
 20
130.1502591725369
 30
0.0
 40
0.75
 41
0.0
 71
     5
 72
     1
  1
\A1;5.978
 11
0.0000000000000001
 21
1.0
 31
0.0
 73
     1
 44
1.0
1001
ACAD
1000
MTEXTBEGIN
1070
    73
1070
     1
1070
    44
1040
1.0
1070
    74
1070
     0
1000
MTEXTEND
  0
POINT
  5
6A0
330
69C
100
AcDbEntity
  8
Defpoints
 62
     0
100
AcDbPoint
 10
277.8013173133179
 20
123.118009172537
 30
0.0
  0
POINT
  5
6A1
330
69C
100
AcDbEntity
  8
Defpoints
 62
     0
100
AcDbPoint
 10
277.8013173133179
 20
128.2752591725369
 30
0.0
  0
POINT
  5
6A2
330
69C
100
AcDbEntity
  8
Defpoints
 62
     0
100
AcDbPoint
 10
271.8233173133178
 20
97.24525917253668
 30
0.0
  0
ENDBLK
  5
6A3
330
69C
100
AcDbEntity
  8
0
100
AcDbBlockEnd
  0
BLOCK
  5
6A5
330
6A4
100
AcDbEntity
  8
0
100
AcDbBlockBegin
  2
*D44
 70
     1
 10
0.0
 20
0.0
 30
0.0
  3
*D44
  1

  0
LINE
  5
6A6
330
6A4
100
AcDbEntity
  8
DIMENSION
 62
     0
370
    -2
100
AcDbLine
 10
273.3513173133179
 20
123.493009172537
 30
0.0
 11
273.3513173133179
 21
128.2752591725369
 31
0.0
  0
MTEXT
  5
6A7
330
6A4
100
AcDbEntity
  8
DIMENSION
 62
     0
100
AcDbMText
 10
273.3513173133179
 20
130.0252591725369
 30
0.0
 40
0.75
 41
0.0
 71
     5
 72
     1
  1
\A1;1.528
 11
0.0000000000000001
 21
1.0
 31
0.0
 73
     1
 44
1.0
1001
ACAD
1000
MTEXTBEGIN
1070
    73
1070
     1
1070
    44
1040
1.0
1070
    74
1070
     0
1000
MTEXTEND
  0
POINT
  5
6A8
330
6A4
100
AcDbEntity
  8
Defpoints
 62
     0
100
AcDbPoint
 10
273.3513173133179
 20
123.118009172537
 30
0.0
  0
POINT
  5
6A9
330
6A4
100
AcDbEntity
  8
Defpoints
 62
     0
100
AcDbPoint
 10
273.3513173133179
 20
128.2752591725369
 30
0.0
  0
POINT
  5
6AA
330
6A4
100
AcDbEntity
  8
Defpoints
 62
     0
100
AcDbPoint
 10
271.8233173133178
 20
97.24525917253668
 30
0.0
  0
ENDBLK
  5
6AB
330
6A4
100
AcDbEntity
  8
0
100
AcDbBlockEnd
  0
BLOCK
  5
6AD
330
6AC
100
AcDbEntity
  8
0
100
AcDbBlockBegin
  2
*D45
 70
     1
 10
0.0
 20
0.0
 30
0.0
  3
*D45
  1

  0
LINE
  5
6AE
330
6AC
100
AcDbEntity
  8
DIMENSION
 62
     0
370
    -2
100
AcDbLine
 10
272.4483173133178
 20
121.0252591725369
 30
0.0
 11
272.4483173133178
 21
125.2752591725369
 31
0.0
  0
LINE
  5
6AF
330
6AC
100
AcDbEntity
  8
DIMENSION
 62
     0
370
    -2
100
AcDbLine
 10
272.4483173133178
 20
125.2752591725369
 30
0.0
 11
272.3513173133177
 21
126.7752591725369
 31
0.0
  0
LINE
  5
6B0
330
6AC
100
AcDbEntity
  8
DIMENSION
 62
     0
370
    -2
100
AcDbLine
 10
272.3513173133177
 20
126.7752591725369
 30
0.0
 11
272.3513173133178
 21
128.2752591725369
 31
0.0
  0
MTEXT
  5
6B1
330
6AC
100
AcDbEntity
  8
DIMENSION
 62
     0
100
AcDbMText
 10
272.3513173133177
 20
131.3377591725369
 30
0.0
 40
0.75
 41
0.0
 71
     5
 72
     1
  1
\A1;0.625 (2)
 11
0.0000000000000001
 21
1.0
 31
0.0
 73
     1
 44
1.0
1001
ACAD
1000
MTEXTBEGIN
1070
    73
1070
     1
1070
    44
1040
1.0
1070
    74
1070
     0
1000
MTEXTEND
  0
POINT
  5
6B2
330
6AC
100
AcDbEntity
  8
Defpoints
 62
     0
100
AcDbPoint
 10
272.4483173133178
 20
120.6502591725369
 30
0.0
  0
POINT
  5
6B3
330
6AC
100
AcDbEntity
  8
Defpoints
 62
     0
100
AcDbPoint
 10
272.3513173133178
 20
128.2752591725369
 30
0.0
  0
POINT
  5
6B4
330
6AC
100
AcDbEntity
  8
Defpoints
 62
     0
100
AcDbPoint
 10
271.8233173133178
 20
97.24525917253668
 30
0.0
  0
ENDBLK
  5
6B5
330
6AC
100
AcDbEntity
  8
0
100
AcDbBlockEnd
  0
BLOCK
  5
6B7
330
6B6
100
AcDbEntity
  8
0
100
AcDbBlockBegin
  2
*D46
 70
     1
 10
0.0
 20
0.0
 30
0.0
  3
*D46
  1

  0
LINE
  5
6B8
330
6B6
100
AcDbEntity
  8
DIMENSION
 62
     0
370
    -2
100
AcDbLine
 10
272.9763173133179
 20
123.118009172537
 30
0.0
 11
268.8233173133178
 21
123.118009172537
 31
0.0
  0
MTEXT
  5
6B9
330
6B6
100
AcDbEntity
  8
DIMENSION
 62
     0
100
AcDbMText
 10
266.5733173133178
 20
123.118009172537
 30
0.0
 40
0.75
 41
0.0
 71
     5
 72
     1
  1
\A1;25.873
 73
     1
 44
1.0
1001
ACAD
1000
MTEXTBEGIN
1070
    73
1070
     1
1070
    44
1040
1.0
1070
    74
1070
     0
1000
MTEXTEND
  0
POINT
  5
6BA
330
6B6
100
AcDbEntity
  8
Defpoints
 62
     0
100
AcDbPoint
 10
273.3513173133179
 20
123.118009172537
 30
0.0
  0
POINT
  5
6BB
330
6B6
100
AcDbEntity
  8
Defpoints
 62
     0
100
AcDbPoint
 10
268.8233173133178
 20
123.118009172537
 30
0.0
  0
POINT
  5
6BC
330
6B6
100
AcDbEntity
  8
Defpoints
 62
     0
100
AcDbPoint
 10
271.8233173133178
 20
97.24525917253668
 30
0.0
  0
ENDBLK
  5
6BD
330
6B6
100
AcDbEntity
  8
0
100
AcDbBlockEnd
  0
BLOCK
  5
6BF
330
6BE
100
AcDbEntity
  8
0
100
AcDbBlockBegin
  2
*D47
 70
     1
 10
0.0
 20
0.0
 30
0.0
  3
*D47
  1

  0
LINE
  5
6C0
330
6BE
100
AcDbEntity
  8
DIMENSION
 62
     0
370
    -2
100
AcDbLine
 10
281.5733173133178
 20
120.650259172537
 30
0.0
 11
284.8233173133179
 21
120.650259172537
 31
0.0
  0
MTEXT
  5
6C1
330
6BE
100
AcDbEntity
  8
DIMENSION
 62
     0
100
AcDbMText
 10
287.0108173133179
 20
120.650259172537
 30
0.0
 40
0.75
 41
0.0
 71
     5
 72
     1
  1
\A1;23.405
 73
     1
 44
1.0
1001
ACAD
1000
MTEXTBEGIN
1070
    73
1070
     1
1070
    44
1040
1.0
1070
    74
1070
     0
1000
MTEXTEND
  0
POINT
  5
6C2
330
6BE
100
AcDbEntity
  8
Defpoints
 62
     0
100
AcDbPoint
 10
281.1983173133178
 20
120.650259172537
 30
0.0
  0
POINT
  5
6C3
330
6BE
100
AcDbEntity
  8
Defpoints
 62
     0
100
AcDbPoint
 10
284.8233173133179
 20
120.650259172537
 30
0.0
  0
POINT
  5
6C4
330
6BE
100
AcDbEntity
  8
Defpoints
 62
     0
100
AcDbPoint
 10
271.8233173133178
 20
97.24525917253668
 30
0.0
  0
ENDBLK
  5
6C5
330
6BE
100
AcDbEntity
  8
0
100
AcDbBlockEnd
  0
BLOCK
  5
6C7
330
6C6
100
AcDbEntity
  8
0
100
AcDbBlockBegin
  2
*D48
 70
     1
 10
0.0
 20
0.0
 30
0.0
  3
*D48
  1

  0
LINE
  5
6C8
330
6C6
100
AcDbEntity
  8
DIMENSION
 62
     0
370
    -2
100
AcDbLine
 10
272.9763173133179
 20
120.280509172537
 30
0.0
 11
268.8233173133178
 21
120.280509172537
 31
0.0
  0
MTEXT
  5
6C9
330
6C6
100
AcDbEntity
  8
DIMENSION
 62
     0
100
AcDbMText
 10
266.6358173133178
 20
120.280509172537
 30
0.0
 40
0.75
 41
0.0
 71
     5
 72
     1
  1
\A1;23.035
 73
     1
 44
1.0
1001
ACAD
1000
MTEXTBEGIN
1070
    73
1070
     1
1070
    44
1040
1.0
1070
    74
1070
     0
1000
MTEXTEND
  0
POINT
  5
6CA
330
6C6
100
AcDbEntity
  8
Defpoints
 62
     0
100
AcDbPoint
 10
273.3513173133179
 20
120.280509172537
 30
0.0
  0
POINT
  5
6CB
330
6C6
100
AcDbEntity
  8
Defpoints
 62
     0
100
AcDbPoint
 10
268.8233173133178
 20
120.280509172537
 30
0.0
  0
POINT
  5
6CC
330
6C6
100
AcDbEntity
  8
Defpoints
 62
     0
100
AcDbPoint
 10
271.8233173133178
 20
97.24525917253668
 30
0.0
  0
ENDBLK
  5
6CD
330
6C6
100
AcDbEntity
  8
0
100
AcDbBlockEnd
  0
BLOCK
  5
6CF
330
6CE
100
AcDbEntity
  8
0
100
AcDbBlockBegin
  2
*D49
 70
     1
 10
0.0
 20
0.0
 30
0.0
  3
*D49
  1

  0
LINE
  5
6D0
330
6CE
100
AcDbEntity
  8
DIMENSION
 62
     0
370
    -2
100
AcDbLine
 10
281.3233173133178
 20
107.9282591725371
 30
0.0
 11
284.8233173133179
 21
107.9282591725371
 31
0.0
  0
MTEXT
  5
6D1
330
6CE
100
AcDbEntity
  8
DIMENSION
 62
     0
100
AcDbMText
 10
286.8858173133179
 20
107.9282591725371
 30
0.0
 40
0.75
 41
0.0
 71
     5
 72
     1
  1
\A1;10.683
 73
     1
 44
1.0
1001
ACAD
1000
MTEXTBEGIN
1070
    73
1070
     1
1070
    44
1040
1.0
1070
    74
1070
     0
1000
MTEXTEND
  0
POINT
  5
6D2
330
6CE
100
AcDbEntity
  8
Defpoints
 62
     0
100
AcDbPoint
 10
280.9483173133178
 20
107.9282591725371
 30
0.0
  0
POINT
  5
6D3
330
6CE
100
AcDbEntity
  8
Defpoints
 62
     0
100
AcDbPoint
 10
284.8233173133179
 20
107.9282591725371
 30
0.0
  0
POINT
  5
6D4
330
6CE
100
AcDbEntity
  8
Defpoints
 62
     0
100
AcDbPoint
 10
271.8233173133178
 20
97.24525917253668
 30
0.0
  0
ENDBLK
  5
6D5
330
6CE
100
AcDbEntity
  8
0
100
AcDbBlockEnd
  0
BLOCK
  5
6D7
330
6D6
100
AcDbEntity
  8
0
100
AcDbBlockBegin
  2
*D50
 70
     1
 10
0.0
 20
0.0
 30
0.0
  3
*D50
  1

  0
LINE
  5
6D8
330
6D6
100
AcDbEntity
  8
DIMENSION
 62
     0
370
    -2
100
AcDbLine
 10
281.3233173133178
 20
110.1782591725371
 30
0.0
 11
284.8233173133179
 21
110.1782591725371
 31
0.0
  0
MTEXT
  5
6D9
330
6D6
100
AcDbEntity
  8
DIMENSION
 62
     0
100
AcDbMText
 10
286.9483173133179
 20
110.1782591725371
 30
0.0
 40
0.75
 41
0.0
 71
     5
 72
     1
  1
\A1;12.933
 73
     1
 44
1.0
1001
ACAD
1000
MTEXTBEGIN
1070
    73
1070
     1
1070
    44
1040
1.0
1070
    74
1070
     0
1000
MTEXTEND
  0
POINT
  5
6DA
330
6D6
100
AcDbEntity
  8
Defpoints
 62
     0
100
AcDbPoint
 10
280.9483173133178
 20
110.1782591725371
 30
0.0
  0
POINT
  5
6DB
330
6D6
100
AcDbEntity
  8
Defpoints
 62
     0
100
AcDbPoint
 10
284.8233173133179
 20
110.1782591725371
 30
0.0
  0
POINT
  5
6DC
330
6D6
100
AcDbEntity
  8
Defpoints
 62
     0
100
AcDbPoint
 10
271.8233173133178
 20
97.24525917253668
 30
0.0
  0
ENDBLK
  5
6DD
330
6D6
100
AcDbEntity
  8
0
100
AcDbBlockEnd
  0
BLOCK
  5
6DF
330
6DE
100
AcDbEntity
  8
0
100
AcDbBlockBegin
  2
*D51
 70
     1
 10
0.0
 20
0.0
 30
0.0
  3
*D51
  1

  0
LINE
  5
6E0
330
6DE
100
AcDbEntity
  8
DIMENSION
 62
     0
370
    -2
100
AcDbLine
 10
272.0733173133178
 20
106.6502591725369
 30
0.0
 11
268.8233173133178
 21
106.6502591725369
 31
0.0
  0
MTEXT
  5
6E1
330
6DE
100
AcDbEntity
  8
DIMENSION
 62
     0
100
AcDbMText
 10
267.0108173133178
 20
106.6502591725369
 30
0.0
 40
0.75
 41
0.0
 71
     5
 72
     1
  1
\A1;9.405
 73
     1
 44
1.0
1001
ACAD
1000
MTEXTBEGIN
1070
    73
1070
     1
1070
    44
1040
1.0
1070
    74
1070
     0
1000
MTEXTEND
  0
POINT
  5
6E2
330
6DE
100
AcDbEntity
  8
Defpoints
 62
     0
100
AcDbPoint
 10
272.4483173133178
 20
106.6502591725369
 30
0.0
  0
POINT
  5
6E3
330
6DE
100
AcDbEntity
  8
Defpoints
 62
     0
100
AcDbPoint
 10
268.8233173133178
 20
106.6502591725369
 30
0.0
  0
POINT
  5
6E4
330
6DE
100
AcDbEntity
  8
Defpoints
 62
     0
100
AcDbPoint
 10
271.8233173133178
 20
97.24525917253668
 30
0.0
  0
ENDBLK
  5
6E5
330
6DE
100
AcDbEntity
  8
0
100
AcDbBlockEnd
  0
BLOCK
  5
6E7
330
6E6
100
AcDbEntity
  8
0
100
AcDbBlockBegin
  2
*D52
 70
     1
 10
0.0
 20
0.0
 30
0.0
  3
*D52
  1

  0
LINE
  5
6E8
330
6E6
100
AcDbEntity
  8
DIMENSION
 62
     0
370
    -2
100
AcDbLine
 10
280.9483173133178
 20
107.5532591725371
 30
0.0
 11
280.9483173133178
 21
106.4282591725371
 31
0.0
  0
LINE
  5
6E9
330
6E6
100
AcDbEntity
  8
DIMENSION
 62
     0
370
    -2
100
AcDbLine
 10
280.9483173133178
 20
106.4282591725371
 30
0.0
 11
279.8233173133179
 21
105.9472161268594
 31
0.0
  0
LINE
  5
6EA
330
6E6
100
AcDbEntity
  8
DIMENSION
 62
     0
370
    -2
100
AcDbLine
 10
279.8233173133179
 20
105.9472161268594
 30
0.0
 11
279.8233173133179
 21
104.4472161268594
 31
0.0
  0
MTEXT
  5
6EB
330
6E6
100
AcDbEntity
  8
DIMENSION
 62
     0
100
AcDbMText
 10
279.8233173133179
 20
102.6972161268595
 30
0.0
 40
0.75
 41
0.0
 71
     5
 72
     1
  1
\A1;9.125
 11
0.0000000000000001
 21
1.0
 31
0.0
 73
     1
 44
1.0
1001
ACAD
1000
MTEXTBEGIN
1070
    73
1070
     1
1070
    44
1040
1.0
1070
    74
1070
     0
1000
MTEXTEND
  0
POINT
  5
6EC
330
6E6
100
AcDbEntity
  8
Defpoints
 62
     0
100
AcDbPoint
 10
280.9483173133178
 20
107.9282591725371
 30
0.0
  0
POINT
  5
6ED
330
6E6
100
AcDbEntity
  8
Defpoints
 62
     0
100
AcDbPoint
 10
279.8233173133179
 20
104.4472161268594
 30
0.0
  0
POINT
  5
6EE
330
6E6
100
AcDbEntity
  8
Defpoints
 62
     0
100
AcDbPoint
 10
271.8233173133178
 20
97.24525917253668
 30
0.0
  0
ENDBLK
  5
6EF
330
6E6
100
AcDbEntity
  8
0
100
AcDbBlockEnd
  0
BLOCK
  5
6F1
330
6F0
100
AcDbEntity
  8
0
100
AcDbBlockBegin
  2
*D53
 70
     1
 10
0.0
 20
0.0
 30
0.0
  3
*D53
  1

  0
LINE
  5
6F2
330
6F0
100
AcDbEntity
  8
DIMENSION
 62
     0
370
    -2
100
AcDbLine
 10
281.823317313318
 20
96.87025917253672
 30
0.0
 11
281.823317313318
 21
95.74525917253671
 31
0.0
  0
LINE
  5
6F3
330
6F0
100
AcDbEntity
  8
DIMENSION
 62
     0
370
    -2
100
AcDbLine
 10
281.823317313318
 20
95.74525917253671
 30
0.0
 11
282.5572630988637
 21
95.56056954795669
 31
0.0
  0
LINE
  5
6F4
330
6F0
100
AcDbEntity
  8
DIMENSION
 62
     0
370
    -2
100
AcDbLine
 10
282.5572630988637
 20
95.56056954795669
 30
0.0
 11
282.5572630988637
 21
94.06056954795669
 31
0.0
  0
MTEXT
  5
6F5
330
6F0
100
AcDbEntity
  8
DIMENSION
 62
     0
100
AcDbMText
 10
282.5572630988637
 20
92.18556954795671
 30
0.0
 40
0.75
 41
0.0
 71
     5
 72
     1
  1
\A1;10.000
 11
0.0000000000000001
 21
1.0
 31
0.0
 73
     1
 44
1.0
1001
ACAD
1000
MTEXTBEGIN
1070
    73
1070
     1
1070
    44
1040
1.0
1070
    74
1070
     0
1000
MTEXTEND
  0
POINT
  5
6F6
330
6F0
100
AcDbEntity
  8
Defpoints
 62
     0
100
AcDbPoint
 10
281.823317313318
 20
97.24525917253671
 30
0.0
  0
POINT
  5
6F7
330
6F0
100
AcDbEntity
  8
Defpoints
 62
     0
100
AcDbPoint
 10
282.5572630988637
 20
94.06056954795669
 30
0.0
  0
POINT
  5
6F8
330
6F0
100
AcDbEntity
  8
Defpoints
 62
     0
100
AcDbPoint
 10
271.8233173133178
 20
97.24525917253668
 30
0.0
  0
ENDBLK
  5
6F9
330
6F0
100
AcDbEntity
  8
0
100
AcDbBlockEnd
  0
BLOCK
  5
6FB
330
6FA
100
AcDbEntity
  8
0
100
AcDbBlockBegin
  2
*D54
 70
     1
 10
0.0
 20
0.0
 30
0.0
  3
*D54
  1

  0
LINE
  5
6FC
330
6FA
100
AcDbEntity
  8
DIMENSION
 62
     0
370
    -2
100
AcDbLine
 10
272.6983173133181
 20
107.5532591725371
 30
0.0
 11
272.6983173133181
 21
106.4282591725371
 31
0.0
  0
LINE
  5
6FD
330
6FA
100
AcDbEntity
  8
DIMENSION
 62
     0
370
    -2
100
AcDbLine
 10
272.6983173133181
 20
106.4282591725371
 30
0.0
 11
273.8233173133178
 21
105.9530300336055
 31
0.0
  0
LINE
  5
6FE
330
6FA
100
AcDbEntity
  8
DIMENSION
 62
     0
370
    -2
100
AcDbLine
 10
273.8233173133178
 20
105.9530300336055
 30
0.0
 11
273.8233173133178
 21
104.4530300336055
 31
0.0
  0
MTEXT
  5
6FF
330
6FA
100
AcDbEntity
  8
DIMENSION
 62
     0
100
AcDbMText
 10
273.8233173133178
 20
102.6405300336056
 30
0.0
 40
0.75
 41
0.0
 71
     5
 72
     1
  1
\A1;0.875
 11
0.0000000000000001
 21
1.0
 31
0.0
 73
     1
 44
1.0
1001
ACAD
1000
MTEXTBEGIN
1070
    73
1070
     1
1070
    44
1040
1.0
1070
    74
1070
     0
1000
MTEXTEND
  0
POINT
  5
700
330
6FA
100
AcDbEntity
  8
Defpoints
 62
     0
100
AcDbPoint
 10
272.6983173133181
 20
107.9282591725371
 30
0.0
  0
POINT
  5
701
330
6FA
100
AcDbEntity
  8
Defpoints
 62
     0
100
AcDbPoint
 10
273.8233173133178
 20
104.4530300336055
 30
0.0
  0
POINT
  5
702
330
6FA
100
AcDbEntity
  8
Defpoints
 62
     0
100
AcDbPoint
 10
271.8233173133178
 20
97.24525917253668
 30
0.0
  0
ENDBLK
  5
703
330
6FA
100
AcDbEntity
  8
0
100
AcDbBlockEnd
  0
BLOCK
  5
705
330
704
100
AcDbEntity
  8
0
100
AcDbBlockBegin
  2
*D55
 70
     1
 10
0.0
 20
0.0
 30
0.0
  3
*D55
  1

  0
LINE
  5
706
330
704
100
AcDbEntity
  8
DIMENSION
 62
     0
370
    -2
100
AcDbLine
 10
271.8233173133178
 20
96.87025917253668
 30
0.0
 11
271.8233173133178
 21
94.24525917253658
 31
0.0
  0
MTEXT
  5
707
330
704
100
AcDbEntity
  8
DIMENSION
 62
     0
100
AcDbMText
 10
271.8233173133178
 20
92.62025917253662
 30
0.0
 40
0.75
 41
0.0
 71
     5
 72
     1
  1
\A1;0.000
 11
0.0000000000000001
 21
1.0
 31
0.0
 73
     1
 44
1.0
1001
ACAD
1000
MTEXTBEGIN
1070
    73
1070
     1
1070
    44
1040
1.0
1070
    74
1070
     0
1000
MTEXTEND
  0
POINT
  5
708
330
704
100
AcDbEntity
  8
Defpoints
 62
     0
100
AcDbPoint
 10
271.8233173133178
 20
97.24525917253668
 30
0.0
  0
POINT
  5
709
330
704
100
AcDbEntity
  8
Defpoints
 62
     0
100
AcDbPoint
 10
271.8233173133178
 20
94.24525917253658
 30
0.0
  0
POINT
  5
70A
330
704
100
AcDbEntity
  8
Defpoints
 62
     0
100
AcDbPoint
 10
271.8233173133178
 20
97.24525917253668
 30
0.0
  0
ENDBLK
  5
70B
330
704
100
AcDbEntity
  8
0
100
AcDbBlockEnd
  0
BLOCK
  5
70D
330
70C
100
AcDbEntity
  8
0
100
AcDbBlockBegin
  2
*D56
 70
     1
 10
0.0
 20
0.0
 30
0.0
  3
*D56
  1

  0
LINE
  5
70E
330
70C
100
AcDbEntity
  8
0
 62
     0
370
    -2
100
AcDbLine
 10
276.4483173133178
 20
115.419259172537
 30
0.0
 11
268.9440723478688
 21
115.419259172537
 31
0.0
  0
MTEXT
  5
70F
330
70C
100
AcDbEntity
  8
0
 62
     0
100
AcDbMText
 10
266.9440723478688
 20
115.419259172537
 30
0.0
 40
0.75
 41
0.0
 71
     5
 72
     1
  1
\A1;18.174
 73
     1
 44
1.0
1001
ACAD
1000
MTEXTBEGIN
1070
    73
1070
     1
1070
    44
1040
1.0
1070
    74
1070
     0
1000
MTEXTEND
  0
POINT
  5
710
330
70C
100
AcDbEntity
  8
Defpoints
 62
     0
100
AcDbPoint
 10
276.8233173133178
 20
115.419259172537
 30
0.0
  0
POINT
  5
711
330
70C
100
AcDbEntity
  8
Defpoints
 62
     0
100
AcDbPoint
 10
268.9440723478688
 20
115.419259172537
 30
0.0
  0
POINT
  5
712
330
70C
100
AcDbEntity
  8
Defpoints
 62
     0
100
AcDbPoint
 10
271.8233173133178
 20
97.24525917253668
 30
0.0
  0
ENDBLK
  5
713
330
70C
100
AcDbEntity
  8
0
100
AcDbBlockEnd
  0
BLOCK
  5
715
330
714
100
AcDbEntity
  8
0
100
AcDbBlockBegin
  2
*D57
 70
     1
 10
0.0
 20
0.0
 30
0.0
  3
*D57
  1

  0
LINE
  5
716
330
714
100
AcDbEntity
  8
0
 62
     0
370
    -2
100
AcDbLine
 10
276.8233173133178
 20
115.044259172537
 30
0.0
 11
276.8233173133178
 21
113.9863872927876
 31
0.0
  0
MTEXT
  5
717
330
714
100
AcDbEntity
  8
0
 62
     0
100
AcDbMText
 10
276.8233173133178
 20
112.2988872927876
 30
0.0
 40
0.75
 41
0.0
 71
     5
 72
     1
  1
\A1;5.000
 11
0.0000000000000001
 21
1.0
 31
0.0
 73
     1
 44
1.0
1001
ACAD
1000
MTEXTBEGIN
1070
    73
1070
     1
1070
    44
1040
1.0
1070
    74
1070
     0
1000
MTEXTEND
  0
POINT
  5
718
330
714
100
AcDbEntity
  8
Defpoints
 62
     0
100
AcDbPoint
 10
276.8233173133178
 20
115.419259172537
 30
0.0
  0
POINT
  5
719
330
714
100
AcDbEntity
  8
Defpoints
 62
     0
100
AcDbPoint
 10
276.8233173133178
 20
113.9863872927876
 30
0.0
  0
POINT
  5
71A
330
714
100
AcDbEntity
  8
Defpoints
 62
     0
100
AcDbPoint
 10
271.8233173133178
 20
97.24525917253668
 30
0.0
  0
ENDBLK
  5
71B
330
714
100
AcDbEntity
  8
0
100
AcDbBlockEnd
  0
BLOCK
  5
71D
330
71C
100
AcDbEntity
  8
0
100
AcDbBlockBegin
  2
*D58
 70
     1
 10
0.0
 20
0.0
 30
0.0
  3
*D58
  1

  0
LINE
  5
71E
330
71C
100
AcDbEntity
  8
0
 62
     0
370
    -2
100
AcDbLine
 10
271.4483173133178
 20
125.2752591725369
 30
0.0
 11
268.8233173133178
 21
125.2752591725369
 31
0.0
  0
MTEXT
  5
71F
330
71C
100
AcDbEntity
  8
0
 62
     0
100
AcDbMText
 10
266.6983173133178
 20
125.2752591725369
 30
0.0
 40
0.75
 41
0.0
 71
     5
 72
     1
  1
\A1;28.030
 73
     1
 44
1.0
1001
ACAD
1000
MTEXTBEGIN
1070
    73
1070
     1
1070
    44
1040
1.0
1070
    74
1070
     0
1000
MTEXTEND
  0
POINT
  5
720
330
71C
100
AcDbEntity
  8
Defpoints
 62
     0
100
AcDbPoint
 10
271.8233173133178
 20
125.2752591725369
 30
0.0
  0
POINT
  5
721
330
71C
100
AcDbEntity
  8
Defpoints
 62
     0
100
AcDbPoint
 10
268.8233173133178
 20
125.2752591725369
 30
0.0
  0
POINT
  5
722
330
71C
100
AcDbEntity
  8
Defpoints
 62
     0
100
AcDbPoint
 10
271.8233173133179
 20
97.24525917253668
 30
0.0
  0
ENDBLK
  5
723
330
71C
100
AcDbEntity
  8
0
100
AcDbBlockEnd
  0
BLOCK
  5
725
330
724
100
AcDbEntity
  8
0
100
AcDbBlockBegin
  2
*D59
 70
     1
 10
0.0
 20
0.0
 30
0.0
  3
*D59
  1

  0
LINE
  5
726
330
724
100
AcDbEntity
  8
0
 62
     0
370
    -2
100
AcDbLine
 10
281.542317313318
 20
97.96225917253671
 30
0.0
 11
283.2192308912117
 21
97.96225917253671
 31
0.0
  0
MTEXT
  5
727
330
724
100
AcDbEntity
  8
0
 62
     0
100
AcDbMText
 10
284.9067308912117
 20
97.96225917253671
 30
0.0
 40
0.75
 41
0.0
 71
     5
 72
     1
  1
\A1;0.717
 73
     1
 44
1.0
1001
ACAD
1000
MTEXTBEGIN
1070
    73
1070
     1
1070
    44
1040
1.0
1070
    74
1070
     0
1000
MTEXTEND
  0
POINT
  5
728
330
724
100
AcDbEntity
  8
Defpoints
 62
     0
100
AcDbPoint
 10
281.167317313318
 20
97.96225917253671
 30
0.0
  0
POINT
  5
729
330
724
100
AcDbEntity
  8
Defpoints
 62
     0
100
AcDbPoint
 10
283.2192308912117
 20
97.96225917253671
 30
0.0
  0
POINT
  5
72A
330
724
100
AcDbEntity
  8
Defpoints
 62
     0
100
AcDbPoint
 10
271.8233173133179
 20
97.24525917253668
 30
0.0
  0
ENDBLK
  5
72B
330
724
100
AcDbEntity
  8
0
100
AcDbBlockEnd
  0
BLOCK
  5
72D
330
72C
100
AcDbEntity
  8
0
100
AcDbBlockBegin
  2
*D60
 70
     1
 10
0.0
 20
0.0
 30
0.0
  3
*D60
  1

  0
LINE
  5
72E
330
72C
100
AcDbEntity
  8
0
 62
     0
370
    -2
100
AcDbLine
 10
281.5423173133181
 20
101.0872591725367
 30
0.0
 11
283.2821013007235
 21
101.0872591725367
 31
0.0
  0
MTEXT
  5
72F
330
72C
100
AcDbEntity
  8
0
 62
     0
100
AcDbMText
 10
285.1571013007235
 20
101.0872591725367
 30
0.0
 40
0.75
 41
0.0
 71
     5
 72
     1
  1
\A1;3.842
 73
     1
 44
1.0
1001
ACAD
1000
MTEXTBEGIN
1070
    73
1070
     1
1070
    44
1040
1.0
1070
    74
1070
     0
1000
MTEXTEND
  0
POINT
  5
730
330
72C
100
AcDbEntity
  8
Defpoints
 62
     0
100
AcDbPoint
 10
281.1673173133181
 20
101.0872591725367
 30
0.0
  0
POINT
  5
731
330
72C
100
AcDbEntity
  8
Defpoints
 62
     0
100
AcDbPoint
 10
283.2821013007235
 20
101.0872591725367
 30
0.0
  0
POINT
  5
732
330
72C
100
AcDbEntity
  8
Defpoints
 62
     0
100
AcDbPoint
 10
271.8233173133179
 20
97.24525917253668
 30
0.0
  0
ENDBLK
  5
733
330
72C
100
AcDbEntity
  8
0
100
AcDbBlockEnd
  0
BLOCK
  5
735
330
734
100
AcDbEntity
  8
0
100
AcDbBlockBegin
  2
*D61
 70
     1
 10
0.0
 20
0.0
 30
0.0
  3
*D61
  1

  0
LINE
  5
736
330
734
100
AcDbEntity
  8
0
 62
     0
370
    -2
100
AcDbLine
 10
281.167317313318
 20
97.58725917253672
 30
0.0
 11
281.167317313318
 21
94.5950226352183
 31
0.0
  0
MTEXT
  5
737
330
734
100
AcDbEntity
  8
0
 62
     0
100
AcDbMText
 10
281.167317313318
 20
92.72002263521835
 30
0.0
 40
0.75
 41
0.0
 71
     5
 72
     1
  1
\A1;9.344
 11
0.0000000000000001
 21
1.0
 31
0.0
 73
     1
 44
1.0
1001
ACAD
1000
MTEXTBEGIN
1070
    73
1070
     1
1070
    44
1040
1.0
1070
    74
1070
     0
1000
MTEXTEND
  0
POINT
  5
738
330
734
100
AcDbEntity
  8
Defpoints
 62
     0
100
AcDbPoint
 10
281.167317313318
 20
97.96225917253671
 30
0.0
  0
POINT
  5
739
330
734
100
AcDbEntity
  8
Defpoints
 62
     0
100
AcDbPoint
 10
281.167317313318
 20
94.5950226352183
 30
0.0
  0
POINT
  5
73A
330
734
100
AcDbEntity
  8
Defpoints
 62
     0
100
AcDbPoint
 10
271.8233173133179
 20
97.24525917253668
 30
0.0
  0
ENDBLK
  5
73B
330
734
100
AcDbEntity
  8
0
100
AcDbBlockEnd
  0
BLOCK
  5
73D
330
73C
100
AcDbEntity
  8
0
100
AcDbBlockBegin
  2
*D62
 70
     1
 10
0.0
 20
0.0
 30
0.0
  3
*D62
  1

  0
LINE
  5
73E
330
73C
100
AcDbEntity
  8
0
 62
     0
370
    -2
100
AcDbLine
 10
278.8873173133178
 20
97.58725917253672
 30
0.0
 11
278.8873173133178
 21
94.4204741113552
 31
0.0
  0
MTEXT
  5
73F
330
73C
100
AcDbEntity
  8
0
 62
     0
100
AcDbMText
 10
278.8873173133178
 20
92.60797411135524
 30
0.0
 40
0.75
 41
0.0
 71
     5
 72
     1
  1
\A1;7.064
 11
0.0000000000000001
 21
1.0
 31
0.0
 73
     1
 44
1.0
1001
ACAD
1000
MTEXTBEGIN
1070
    73
1070
     1
1070
    44
1040
1.0
1070
    74
1070
     0
1000
MTEXTEND
  0
POINT
  5
740
330
73C
100
AcDbEntity
  8
Defpoints
 62
     0
100
AcDbPoint
 10
278.8873173133178
 20
97.96225917253671
 30
0.0
  0
POINT
  5
741
330
73C
100
AcDbEntity
  8
Defpoints
 62
     0
100
AcDbPoint
 10
278.8873173133178
 20
94.4204741113552
 30
0.0
  0
POINT
  5
742
330
73C
100
AcDbEntity
  8
Defpoints
 62
     0
100
AcDbPoint
 10
271.8233173133179
 20
97.24525917253668
 30
0.0
  0
ENDBLK
  5
743
330
73C
100
AcDbEntity
  8
0
100
AcDbBlockEnd
  0
BLOCK
  5
745
330
744
100
AcDbEntity
  8
0
100
AcDbBlockBegin
  2
*D63
 70
     1
 10
0.0
 20
0.0
 30
0.0
  3
*D63
  1

  0
LINE
  5
746
330
744
100
AcDbEntity
  8
0
 62
     0
370
    -2
100
AcDbLine
 10
284.7561219261916
 20
115.0574458568503
 30
0.0
 11
278.1968893687667
 21
115.3566108805432
 31
0.0
  0
MTEXT
  5
747
330
744
100
AcDbEntity
  8
0
 62
     0
100
AcDbMText
 10
285.1311219261916
 20
117.9324458568503
 30
0.0
 40
0.75
 41
0.0
 71
     1
 72
     1
  1
\A1;\U+22051.250 (1) \POPTIONAL:\PETHERNET\PCONNECTION\PPORT
 73
     1
 44
1.0
1001
ACAD
1000
MTEXTBEGIN
1070
    73
1070
     1
1070
    44
1040
1.0
1070
    74
1070
     0
1000
MTEXTEND
  0
SOLID
  5
748
330
744
100
AcDbEntity
  8
0
 62
     0
100
AcDbTrace
 10
278.2025846680388
 20
115.4814810674022
 30
0.0
 11
278.1911940694945
 21
115.2317406936842
 31
0.0
 12
277.4476682476127
 22
115.3907826761762
 32
0.0
 13
277.4476682476127
 23
115.3907826761762
 33
0.0
  0
LINE
  5
749
330
744
100
AcDbEntity
  8
0
 62
     0
370
    -2
100
AcDbLine
 10
276.7333173133177
 20
115.4192591725369
 30
0.0
 11
276.9133173133177
 21
115.4192591725369
 31
0.0
  0
LINE
  5
74A
330
744
100
AcDbEntity
  8
0
 62
     0
370
    -2
100
AcDbLine
 10
276.8233173133177
 20
115.329259172537
 30
0.0
 11
276.8233173133178
 21
115.509259172537
 31
0.0
  0
POINT
  5
74B
330
744
100
AcDbEntity
  8
Defpoints
 62
     0
100
AcDbPoint
 10
277.4476682476127
 20
115.3907826761762
 30
0.0
  0
POINT
  5
74C
330
744
100
AcDbEntity
  8
Defpoints
 62
     0
100
AcDbPoint
 10
276.1989663790227
 20
115.4477356688977
 30
0.0
  0
ENDBLK
  5
74D
330
744
100
AcDbEntity
  8
0
100
AcDbBlockEnd
  0
BLOCK
  5
7D3
330
7CD
100
AcDbEntity
  8
0
100
AcDbBlockBegin
  2
*D64
 70
     1
 10
0.0
 20
0.0
 30
0.0
  3
*D64
  1

  0
LINE
  5
A1D
330
7CD
100
AcDbEntity
  8
0
 62
     0
370
    -2
100
AcDbLine
 10
-215.1321009626078
 20
-53.03710347416487
 30
0.0
 11
-222.8113459280567
 21
-53.03710347416487
 31
0.0
  0
MTEXT
  5
A1E
330
7CD
100
AcDbEntity
  8
0
 62
     0
100
AcDbMText
 10
-224.5263459280567
 20
-53.03710347416487
 30
0.0
 40
0.75
 41
0.0
 71
     5
 72
     1
  1
\A1;18.174
 73
     1
 44
1.0
1001
ACAD
1000
MTEXTBEGIN
1070
    73
1070
     1
1070
    44
1040
1.0
1070
    74
1070
     0
1000
MTEXTEND
  0
POINT
  5
A1F
330
7CD
100
AcDbEntity
  8
Defpoints
 62
     0
100
AcDbPoint
 10
-214.9321009626078
 20
-53.03710347416487
 30
0.0
  0
POINT
  5
A20
330
7CD
100
AcDbEntity
  8
Defpoints
 62
     0
100
AcDbPoint
 10
-222.8113459280567
 20
-53.03710347416487
 30
0.0
  0
POINT
  5
A21
330
7CD
100
AcDbEntity
  8
Defpoints
 62
     0
100
AcDbPoint
 10
-219.9321009626078
 20
-71.21110347416518
 30
0.0
  0
ENDBLK
  5
7D4
330
7CD
100
AcDbEntity
  8
0
100
AcDbBlockEnd
  0
BLOCK
  5
7DB
330
7D5
100
AcDbEntity
  8
0
100
AcDbBlockBegin
  2
*D65
 70
     1
 10
0.0
 20
0.0
 30
0.0
  3
*D65
  1

  0
LINE
  5
A18
330
7D5
100
AcDbEntity
  8
0
 62
     0
370
    -2
100
AcDbLine
 10
-214.9321009626078
 20
-53.23710347416485
 30
0.0
 11
-214.9321009626078
 21
-54.46997535391428
 31
0.0
  0
MTEXT
  5
A19
330
7D5
100
AcDbEntity
  8
0
 62
     0
100
AcDbMText
 10
-214.9321009626078
 20
-55.87247535391431
 30
0.0
 40
0.75
 41
0.0
 71
     5
 72
     1
  1
\A1;5.000
 11
0.0000000000000001
 21
1.0
 31
0.0
 73
     1
 44
1.0
1001
ACAD
1000
MTEXTBEGIN
1070
    73
1070
     1
1070
    44
1040
1.0
1070
    74
1070
     0
1000
MTEXTEND
  0
POINT
  5
A1A
330
7D5
100
AcDbEntity
  8
Defpoints
 62
     0
100
AcDbPoint
 10
-214.9321009626078
 20
-53.03710347416487
 30
0.0
  0
POINT
  5
A1B
330
7D5
100
AcDbEntity
  8
Defpoints
 62
     0
100
AcDbPoint
 10
-214.9321009626078
 20
-54.46997535391428
 30
0.0
  0
POINT
  5
A1C
330
7D5
100
AcDbEntity
  8
Defpoints
 62
     0
100
AcDbPoint
 10
-219.9321009626078
 20
-71.21110347416518
 30
0.0
  0
ENDBLK
  5
7DC
330
7D5
100
AcDbEntity
  8
0
100
AcDbBlockEnd
  0
BLOCK
  5
7E3
330
7DD
100
AcDbEntity
  8
0
100
AcDbBlockBegin
  2
*D66
 70
     1
 10
0.0
 20
0.0
 30
0.0
  3
*D66
  1

  0
LINE
  5
A13
330
7DD
100
AcDbEntity
  8
0
 62
     0
370
    -2
100
AcDbLine
 10
-220.1321009626078
 20
-43.18110347416495
 30
0.0
 11
-222.9321009626078
 21
-43.18110347416495
 31
0.0
  0
MTEXT
  5
A14
330
7DD
100
AcDbEntity
  8
0
 62
     0
100
AcDbMText
 10
-224.7721009626078
 20
-43.18110347416495
 30
0.0
 40
0.75
 41
0.0
 71
     5
 72
     1
  1
\A1;28.030
 73
     1
 44
1.0
1001
ACAD
1000
MTEXTBEGIN
1070
    73
1070
     1
1070
    44
1040
1.0
1070
    74
1070
     0
1000
MTEXTEND
  0
POINT
  5
A15
330
7DD
100
AcDbEntity
  8
Defpoints
 62
     0
100
AcDbPoint
 10
-219.9321009626078
 20
-43.18110347416495
 30
0.0
  0
POINT
  5
A16
330
7DD
100
AcDbEntity
  8
Defpoints
 62
     0
100
AcDbPoint
 10
-222.9321009626078
 20
-43.18110347416495
 30
0.0
  0
POINT
  5
A17
330
7DD
100
AcDbEntity
  8
Defpoints
 62
     0
100
AcDbPoint
 10
-219.9321009626077
 20
-71.21110347416518
 30
0.0
  0
ENDBLK
  5
7E4
330
7DD
100
AcDbEntity
  8
0
100
AcDbBlockEnd
  0
BLOCK
  5
7EB
330
7E5
100
AcDbEntity
  8
0
100
AcDbBlockBegin
  2
*D67
 70
     1
 10
0.0
 20
0.0
 30
0.0
  3
*D67
  1

  0
LINE
  5
A0E
330
7E5
100
AcDbEntity
  8
0
 62
     0
370
    -2
100
AcDbLine
 10
-210.3881009626076
 20
-70.49410347416515
 30
0.0
 11
-208.5361873847138
 21
-70.49410347416515
 31
0.0
  0
MTEXT
  5
A0F
330
7E5
100
AcDbEntity
  8
0
 62
     0
100
AcDbMText
 10
-207.1336873847138
 20
-70.49410347416515
 30
0.0
 40
0.75
 41
0.0
 71
     5
 72
     1
  1
\A1;0.717
 73
     1
 44
1.0
1001
ACAD
1000
MTEXTBEGIN
1070
    73
1070
     1
1070
    44
1040
1.0
1070
    74
1070
     0
1000
MTEXTEND
  0
POINT
  5
A10
330
7E5
100
AcDbEntity
  8
Defpoints
 62
     0
100
AcDbPoint
 10
-210.5881009626076
 20
-70.49410347416515
 30
0.0
  0
POINT
  5
A11
330
7E5
100
AcDbEntity
  8
Defpoints
 62
     0
100
AcDbPoint
 10
-208.5361873847138
 20
-70.49410347416515
 30
0.0
  0
POINT
  5
A12
330
7E5
100
AcDbEntity
  8
Defpoints
 62
     0
100
AcDbPoint
 10
-219.9321009626077
 20
-71.21110347416518
 30
0.0
  0
ENDBLK
  5
7EC
330
7E5
100
AcDbEntity
  8
0
100
AcDbBlockEnd
  0
BLOCK
  5
7F3
330
7ED
100
AcDbEntity
  8
0
100
AcDbBlockBegin
  2
*D68
 70
     1
 10
0.0
 20
0.0
 30
0.0
  3
*D68
  1

  0
LINE
  5
A09
330
7ED
100
AcDbEntity
  8
0
 62
     0
370
    -2
100
AcDbLine
 10
-210.3881009626075
 20
-67.36910347416515
 30
0.0
 11
-208.473316975202
 21
-67.36910347416515
 31
0.0
  0
MTEXT
  5
A0A
330
7ED
100
AcDbEntity
  8
0
 62
     0
100
AcDbMText
 10
-206.8833169752021
 20
-67.36910347416515
 30
0.0
 40
0.75
 41
0.0
 71
     5
 72
     1
  1
\A1;3.842
 73
     1
 44
1.0
1001
ACAD
1000
MTEXTBEGIN
1070
    73
1070
     1
1070
    44
1040
1.0
1070
    74
1070
     0
1000
MTEXTEND
  0
POINT
  5
A0B
330
7ED
100
AcDbEntity
  8
Defpoints
 62
     0
100
AcDbPoint
 10
-210.5881009626075
 20
-67.36910347416515
 30
0.0
  0
POINT
  5
A0C
330
7ED
100
AcDbEntity
  8
Defpoints
 62
     0
100
AcDbPoint
 10
-208.473316975202
 20
-67.36910347416515
 30
0.0
  0
POINT
  5
A0D
330
7ED
100
AcDbEntity
  8
Defpoints
 62
     0
100
AcDbPoint
 10
-219.9321009626077
 20
-71.21110347416518
 30
0.0
  0
ENDBLK
  5
7F4
330
7ED
100
AcDbEntity
  8
0
100
AcDbBlockEnd
  0
BLOCK
  5
7FB
330
7F5
100
AcDbEntity
  8
0
100
AcDbBlockBegin
  2
*D69
 70
     1
 10
0.0
 20
0.0
 30
0.0
  3
*D69
  1

  0
LINE
  5
A7A
330
7F5
100
AcDbEntity
  8
0
 62
     0
370
    -2
100
AcDbLine
 10
-210.5881009626076
 20
-70.69410347416514
 30
0.0
 11
-210.5881009626076
 21
-74.36872868274213
 31
0.0
  0
MTEXT
  5
A7B
330
7F5
100
AcDbEntity
  8
0
 62
     0
100
AcDbMText
 10
-210.5881009626076
 20
-75.95872868274216
 30
0.0
 40
0.75
 41
0.0
 71
     5
 72
     1
  1
\A1;9.344
 11
0.0000000000000001
 21
1.0
 31
0.0
 73
     1
 44
1.0
1001
ACAD
1000
MTEXTBEGIN
1070
    73
1070
     1
1070
    44
1040
1.0
1070
    74
1070
     0
1000
MTEXTEND
  0
POINT
  5
A7C
330
7F5
100
AcDbEntity
  8
Defpoints
 62
     0
100
AcDbPoint
 10
-210.5881009626076
 20
-70.49410347416515
 30
0.0
  0
POINT
  5
A7D
330
7F5
100
AcDbEntity
  8
Defpoints
 62
     0
100
AcDbPoint
 10
-210.5881009626076
 20
-74.36872868274213
 30
0.0
  0
POINT
  5
A7E
330
7F5
100
AcDbEntity
  8
Defpoints
 62
     0
100
AcDbPoint
 10
-219.9321009626077
 20
-71.21110347416518
 30
0.0
  0
ENDBLK
  5
7FC
330
7F5
100
AcDbEntity
  8
0
100
AcDbBlockEnd
  0
BLOCK
  5
803
330
7FD
100
AcDbEntity
  8
0
100
AcDbBlockBegin
  2
*D70
 70
     1
 10
0.0
 20
0.0
 30
0.0
  3
*D70
  1

  0
LINE
  5
A7F
330
7FD
100
AcDbEntity
  8
0
 62
     0
370
    -2
100
AcDbLine
 10
-212.8681009626077
 20
-70.69410347416514
 30
0.0
 11
-212.8681009626077
 21
-74.67628500326032
 31
0.0
  0
MTEXT
  5
A80
330
7FD
100
AcDbEntity
  8
0
 62
     0
100
AcDbMText
 10
-212.8681009626077
 20
-76.20378500326035
 30
0.0
 40
0.75
 41
0.0
 71
     5
 72
     1
  1
\A1;7.064
 11
0.0000000000000001
 21
1.0
 31
0.0
 73
     1
 44
1.0
1001
ACAD
1000
MTEXTBEGIN
1070
    73
1070
     1
1070
    44
1040
1.0
1070
    74
1070
     0
1000
MTEXTEND
  0
POINT
  5
A81
330
7FD
100
AcDbEntity
  8
Defpoints
 62
     0
100
AcDbPoint
 10
-212.8681009626077
 20
-70.49410347416515
 30
0.0
  0
POINT
  5
A82
330
7FD
100
AcDbEntity
  8
Defpoints
 62
     0
100
AcDbPoint
 10
-212.8681009626077
 20
-74.67628500326032
 30
0.0
  0
POINT
  5
A83
330
7FD
100
AcDbEntity
  8
Defpoints
 62
     0
100
AcDbPoint
 10
-219.9321009626077
 20
-71.21110347416518
 30
0.0
  0
ENDBLK
  5
804
330
7FD
100
AcDbEntity
  8
0
100
AcDbBlockEnd
  0
BLOCK
  5
80B
330
805
100
AcDbEntity
  8
0
100
AcDbBlockBegin
  2
*D71
 70
     1
 10
0.0
 20
0.0
 30
0.0
  3
*D71
  1

  0
LINE
  5
A70
330
805
100
AcDbEntity
  8
DIMENSION
 62
     0
370
    -2
100
AcDbLine
 10
-220.1321009626078
 20
-71.21110347416518
 30
0.0
 11
-222.9321009626078
 21
-71.21110347416518
 31
0.0
  0
MTEXT
  5
A71
330
805
100
AcDbEntity
  8
DIMENSION
 62
     0
100
AcDbMText
 10
-224.2721009626078
 20
-71.21110347416518
 30
0.0
 40
0.75
 41
0.0
 71
     5
 72
     1
  1
\A1;0.000
 73
     1
 44
1.0
1001
ACAD
1000
MTEXTBEGIN
1070
    73
1070
     1
1070
    44
1040
1.0
1070
    74
1070
     0
1000
MTEXTEND
  0
POINT
  5
A72
330
805
100
AcDbEntity
  8
Defpoints
 62
     0
100
AcDbPoint
 10
-219.9321009626078
 20
-71.21110347416518
 30
0.0
  0
POINT
  5
A73
330
805
100
AcDbEntity
  8
Defpoints
 62
     0
100
AcDbPoint
 10
-222.9321009626078
 20
-71.21110347416518
 30
0.0
  0
POINT
  5
A74
330
805
100
AcDbEntity
  8
Defpoints
 62
     0
100
AcDbPoint
 10
-219.9321009626078
 20
-71.21110347416518
 30
0.0
  0
ENDBLK
  5
80C
330
805
100
AcDbEntity
  8
0
100
AcDbBlockEnd
  0
BLOCK
  5
813
330
80D
100
AcDbEntity
  8
0
100
AcDbBlockBegin
  2
*D72
 70
     1
 10
0.0
 20
0.0
 30
0.0
  3
*D72
  1

  0
LINE
  5
A6B
330
80D
100
AcDbEntity
  8
DIMENSION
 62
     0
370
    -2
100
AcDbLine
 10
-210.5571009626078
 20
-47.60610347416484
 30
0.0
 11
-210.5571009626078
 21
-40.18110347416494
 31
0.0
  0
MTEXT
  5
A6C
330
80D
100
AcDbEntity
  8
DIMENSION
 62
     0
100
AcDbMText
 10
-210.5571009626078
 20
-37.34110347416498
 30
0.0
 40
0.75
 41
0.0
 71
     5
 72
     1
  1
\A1;9.375 (2)
 11
0.0000000000000001
 21
1.0
 31
0.0
 73
     1
 44
1.0
1001
ACAD
1000
MTEXTBEGIN
1070
    73
1070
     1
1070
    44
1040
1.0
1070
    74
1070
     0
1000
MTEXTEND
  0
POINT
  5
A6D
330
80D
100
AcDbEntity
  8
Defpoints
 62
     0
100
AcDbPoint
 10
-210.5571009626078
 20
-47.80610347416486
 30
0.0
  0
POINT
  5
A6E
330
80D
100
AcDbEntity
  8
Defpoints
 62
     0
100
AcDbPoint
 10
-210.5571009626078
 20
-40.18110347416494
 30
0.0
  0
POINT
  5
A6F
330
80D
100
AcDbEntity
  8
Defpoints
 62
     0
100
AcDbPoint
 10
-219.9321009626078
 20
-71.21110347416518
 30
0.0
  0
ENDBLK
  5
814
330
80D
100
AcDbEntity
  8
0
100
AcDbBlockEnd
  0
BLOCK
  5
81B
330
815
100
AcDbEntity
  8
0
100
AcDbBlockBegin
  2
*D73
 70
     1
 10
0.0
 20
0.0
 30
0.0
  3
*D73
  1

  0
LINE
  5
A66
330
815
100
AcDbEntity
  8
DIMENSION
 62
     0
370
    -2
100
AcDbLine
 10
-213.9541009626077
 20
-45.13835347416486
 30
0.0
 11
-213.9541009626077
 21
-40.18110347416494
 31
0.0
  0
MTEXT
  5
A67
330
815
100
AcDbEntity
  8
DIMENSION
 62
     0
100
AcDbMText
 10
-213.9541009626077
 20
-38.59110347416498
 30
0.0
 40
0.75
 41
0.0
 71
     5
 72
     1
  1
\A1;5.978
 11
0.0000000000000001
 21
1.0
 31
0.0
 73
     1
 44
1.0
1001
ACAD
1000
MTEXTBEGIN
1070
    73
1070
     1
1070
    44
1040
1.0
1070
    74
1070
     0
1000
MTEXTEND
  0
POINT
  5
A68
330
815
100
AcDbEntity
  8
Defpoints
 62
     0
100
AcDbPoint
 10
-213.9541009626077
 20
-45.33835347416484
 30
0.0
  0
POINT
  5
A69
330
815
100
AcDbEntity
  8
Defpoints
 62
     0
100
AcDbPoint
 10
-213.9541009626077
 20
-40.18110347416494
 30
0.0
  0
POINT
  5
A6A
330
815
100
AcDbEntity
  8
Defpoints
 62
     0
100
AcDbPoint
 10
-219.9321009626078
 20
-71.21110347416518
 30
0.0
  0
ENDBLK
  5
81C
330
815
100
AcDbEntity
  8
0
100
AcDbBlockEnd
  0
BLOCK
  5
823
330
81D
100
AcDbEntity
  8
0
100
AcDbBlockBegin
  2
*D74
 70
     1
 10
0.0
 20
0.0
 30
0.0
  3
*D74
  1

  0
LINE
  5
A61
330
81D
100
AcDbEntity
  8
DIMENSION
 62
     0
370
    -2
100
AcDbLine
 10
-218.4041009626076
 20
-45.13835347416486
 30
0.0
 11
-218.4041009626076
 21
-40.18110347416494
 31
0.0
  0
MTEXT
  5
A62
330
81D
100
AcDbEntity
  8
DIMENSION
 62
     0
100
AcDbMText
 10
-218.4041009626076
 20
-38.71610347416498
 30
0.0
 40
0.75
 41
0.0
 71
     5
 72
     1
  1
\A1;1.528
 11
0.0000000000000001
 21
1.0
 31
0.0
 73
     1
 44
1.0
1001
ACAD
1000
MTEXTBEGIN
1070
    73
1070
     1
1070
    44
1040
1.0
1070
    74
1070
     0
1000
MTEXTEND
  0
POINT
  5
A63
330
81D
100
AcDbEntity
  8
Defpoints
 62
     0
100
AcDbPoint
 10
-218.4041009626076
 20
-45.33835347416484
 30
0.0
  0
POINT
  5
A64
330
81D
100
AcDbEntity
  8
Defpoints
 62
     0
100
AcDbPoint
 10
-218.4041009626076
 20
-40.18110347416494
 30
0.0
  0
POINT
  5
A65
330
81D
100
AcDbEntity
  8
Defpoints
 62
     0
100
AcDbPoint
 10
-219.9321009626078
 20
-71.21110347416518
 30
0.0
  0
ENDBLK
  5
824
330
81D
100
AcDbEntity
  8
0
100
AcDbBlockEnd
  0
BLOCK
  5
82D
330
825
100
AcDbEntity
  8
0
100
AcDbBlockBegin
  2
*D75
 70
     1
 10
0.0
 20
0.0
 30
0.0
  3
*D75
  1

  0
LINE
  5
A5A
330
825
100
AcDbEntity
  8
DIMENSION
 62
     0
370
    -2
100
AcDbLine
 10
-219.3071009626078
 20
-47.60610347416495
 30
0.0
 11
-219.3071009626078
 21
-43.18110347416493
 31
0.0
  0
LINE
  5
A5B
330
825
100
AcDbEntity
  8
DIMENSION
 62
     0
370
    -2
100
AcDbLine
 10
-219.3071009626078
 20
-43.18110347416493
 30
0.0
 11
-219.4041009626078
 21
-41.68110347416494
 31
0.0
  0
LINE
  5
A5C
330
825
100
AcDbEntity
  8
DIMENSION
 62
     0
370
    -2
100
AcDbLine
 10
-219.4041009626078
 20
-41.68110347416494
 30
0.0
 11
-219.4041009626078
 21
-40.18110347416494
 31
0.0
  0
MTEXT
  5
A5D
330
825
100
AcDbEntity
  8
DIMENSION
 62
     0
100
AcDbMText
 10
-219.4041009626078
 20
-37.40360347416498
 30
0.0
 40
0.75
 41
0.0
 71
     5
 72
     1
  1
\A1;0.625 (2)
 11
0.0000000000000001
 21
1.0
 31
0.0
 73
     1
 44
1.0
1001
ACAD
1000
MTEXTBEGIN
1070
    73
1070
     1
1070
    44
1040
1.0
1070
    74
1070
     0
1000
MTEXTEND
  0
POINT
  5
A5E
330
825
100
AcDbEntity
  8
Defpoints
 62
     0
100
AcDbPoint
 10
-219.3071009626078
 20
-47.80610347416495
 30
0.0
  0
POINT
  5
A5F
330
825
100
AcDbEntity
  8
Defpoints
 62
     0
100
AcDbPoint
 10
-219.4041009626078
 20
-40.18110347416494
 30
0.0
  0
POINT
  5
A60
330
825
100
AcDbEntity
  8
Defpoints
 62
     0
100
AcDbPoint
 10
-219.9321009626078
 20
-71.21110347416518
 30
0.0
  0
ENDBLK
  5
82E
330
825
100
AcDbEntity
  8
0
100
AcDbBlockEnd
  0
BLOCK
  5
835
330
82F
100
AcDbEntity
  8
0
100
AcDbBlockBegin
  2
*D76
 70
     1
 10
0.0
 20
0.0
 30
0.0
  3
*D76
  1

  0
LINE
  5
A55
330
82F
100
AcDbEntity
  8
DIMENSION
 62
     0
370
    -2
100
AcDbLine
 10
-218.6041009626077
 20
-45.33835347416484
 30
0.0
 11
-222.9321009626078
 21
-45.33835347416484
 31
0.0
  0
MTEXT
  5
A56
330
82F
100
AcDbEntity
  8
DIMENSION
 62
     0
100
AcDbMText
 10
-224.8971009626078
 20
-45.33835347416484
 30
0.0
 40
0.75
 41
0.0
 71
     5
 72
     1
  1
\A1;25.873
 73
     1
 44
1.0
1001
ACAD
1000
MTEXTBEGIN
1070
    73
1070
     1
1070
    44
1040
1.0
1070
    74
1070
     0
1000
MTEXTEND
  0
POINT
  5
A57
330
82F
100
AcDbEntity
  8
Defpoints
 62
     0
100
AcDbPoint
 10
-218.4041009626076
 20
-45.33835347416484
 30
0.0
  0
POINT
  5
A58
330
82F
100
AcDbEntity
  8
Defpoints
 62
     0
100
AcDbPoint
 10
-222.9321009626078
 20
-45.33835347416484
 30
0.0
  0
POINT
  5
A59
330
82F
100
AcDbEntity
  8
Defpoints
 62
     0
100
AcDbPoint
 10
-219.9321009626078
 20
-71.21110347416518
 30
0.0
  0
ENDBLK
  5
836
330
82F
100
AcDbEntity
  8
0
100
AcDbBlockEnd
  0
BLOCK
  5
83D
330
837
100
AcDbEntity
  8
0
100
AcDbBlockBegin
  2
*D77
 70
     1
 10
0.0
 20
0.0
 30
0.0
  3
*D77
  1

  0
LINE
  5
A50
330
837
100
AcDbEntity
  8
DIMENSION
 62
     0
370
    -2
100
AcDbLine
 10
-210.3571009626078
 20
-47.80610347416486
 30
0.0
 11
-206.9321009626077
 21
-47.80610347416486
 31
0.0
  0
MTEXT
  5
A51
330
837
100
AcDbEntity
  8
DIMENSION
 62
     0
100
AcDbMText
 10
-205.0296009626077
 20
-47.80610347416486
 30
0.0
 40
0.75
 41
0.0
 71
     5
 72
     1
  1
\A1;23.405
 73
     1
 44
1.0
1001
ACAD
1000
MTEXTBEGIN
1070
    73
1070
     1
1070
    44
1040
1.0
1070
    74
1070
     0
1000
MTEXTEND
  0
POINT
  5
A52
330
837
100
AcDbEntity
  8
Defpoints
 62
     0
100
AcDbPoint
 10
-210.5571009626078
 20
-47.80610347416486
 30
0.0
  0
POINT
  5
A53
330
837
100
AcDbEntity
  8
Defpoints
 62
     0
100
AcDbPoint
 10
-206.9321009626077
 20
-47.80610347416486
 30
0.0
  0
POINT
  5
A54
330
837
100
AcDbEntity
  8
Defpoints
 62
     0
100
AcDbPoint
 10
-219.9321009626078
 20
-71.21110347416518
 30
0.0
  0
ENDBLK
  5
83E
330
837
100
AcDbEntity
  8
0
100
AcDbBlockEnd
  0
BLOCK
  5
845
330
83F
100
AcDbEntity
  8
0
100
AcDbBlockBegin
  2
*D78
 70
     1
 10
0.0
 20
0.0
 30
0.0
  3
*D78
  1

  0
LINE
  5
A4B
330
83F
100
AcDbEntity
  8
DIMENSION
 62
     0
370
    -2
100
AcDbLine
 10
-218.6041009626077
 20
-48.17585347416486
 30
0.0
 11
-222.9321009626078
 21
-48.17585347416486
 31
0.0
  0
MTEXT
  5
A4C
330
83F
100
AcDbEntity
  8
DIMENSION
 62
     0
100
AcDbMText
 10
-224.8346009626078
 20
-48.17585347416486
 30
0.0
 40
0.75
 41
0.0
 71
     5
 72
     1
  1
\A1;23.035
 73
     1
 44
1.0
1001
ACAD
1000
MTEXTBEGIN
1070
    73
1070
     1
1070
    44
1040
1.0
1070
    74
1070
     0
1000
MTEXTEND
  0
POINT
  5
A4D
330
83F
100
AcDbEntity
  8
Defpoints
 62
     0
100
AcDbPoint
 10
-218.4041009626076
 20
-48.17585347416486
 30
0.0
  0
POINT
  5
A4E
330
83F
100
AcDbEntity
  8
Defpoints
 62
     0
100
AcDbPoint
 10
-222.9321009626078
 20
-48.17585347416486
 30
0.0
  0
POINT
  5
A4F
330
83F
100
AcDbEntity
  8
Defpoints
 62
     0
100
AcDbPoint
 10
-219.9321009626078
 20
-71.21110347416518
 30
0.0
  0
ENDBLK
  5
846
330
83F
100
AcDbEntity
  8
0
100
AcDbBlockEnd
  0
BLOCK
  5
84D
330
847
100
AcDbEntity
  8
0
100
AcDbBlockBegin
  2
*D79
 70
     1
 10
0.0
 20
0.0
 30
0.0
  3
*D79
  1

  0
LINE
  5
A46
330
847
100
AcDbEntity
  8
DIMENSION
 62
     0
370
    -2
100
AcDbLine
 10
-210.6071009626078
 20
-60.52810347416476
 30
0.0
 11
-206.9321009626077
 21
-60.52810347416476
 31
0.0
  0
MTEXT
  5
A47
330
847
100
AcDbEntity
  8
DIMENSION
 62
     0
100
AcDbMText
 10
-205.1546009626077
 20
-60.52810347416476
 30
0.0
 40
0.75
 41
0.0
 71
     5
 72
     1
  1
\A1;10.683
 73
     1
 44
1.0
1001
ACAD
1000
MTEXTBEGIN
1070
    73
1070
     1
1070
    44
1040
1.0
1070
    74
1070
     0
1000
MTEXTEND
  0
POINT
  5
A48
330
847
100
AcDbEntity
  8
Defpoints
 62
     0
100
AcDbPoint
 10
-210.8071009626078
 20
-60.52810347416476
 30
0.0
  0
POINT
  5
A49
330
847
100
AcDbEntity
  8
Defpoints
 62
     0
100
AcDbPoint
 10
-206.9321009626077
 20
-60.52810347416476
 30
0.0
  0
POINT
  5
A4A
330
847
100
AcDbEntity
  8
Defpoints
 62
     0
100
AcDbPoint
 10
-219.9321009626078
 20
-71.21110347416518
 30
0.0
  0
ENDBLK
  5
84E
330
847
100
AcDbEntity
  8
0
100
AcDbBlockEnd
  0
BLOCK
  5
855
330
84F
100
AcDbEntity
  8
0
100
AcDbBlockBegin
  2
*D80
 70
     1
 10
0.0
 20
0.0
 30
0.0
  3
*D80
  1

  0
LINE
  5
A41
330
84F
100
AcDbEntity
  8
DIMENSION
 62
     0
370
    -2
100
AcDbLine
 10
-210.6071009626078
 20
-58.27810347416477
 30
0.0
 11
-206.9321009626077
 21
-58.27810347416477
 31
0.0
  0
MTEXT
  5
A42
330
84F
100
AcDbEntity
  8
DIMENSION
 62
     0
100
AcDbMText
 10
-205.0921009626077
 20
-58.27810347416477
 30
0.0
 40
0.75
 41
0.0
 71
     5
 72
     1
  1
\A1;12.933
 73
     1
 44
1.0
1001
ACAD
1000
MTEXTBEGIN
1070
    73
1070
     1
1070
    44
1040
1.0
1070
    74
1070
     0
1000
MTEXTEND
  0
POINT
  5
A43
330
84F
100
AcDbEntity
  8
Defpoints
 62
     0
100
AcDbPoint
 10
-210.8071009626078
 20
-58.27810347416477
 30
0.0
  0
POINT
  5
A44
330
84F
100
AcDbEntity
  8
Defpoints
 62
     0
100
AcDbPoint
 10
-206.9321009626077
 20
-58.27810347416477
 30
0.0
  0
POINT
  5
A45
330
84F
100
AcDbEntity
  8
Defpoints
 62
     0
100
AcDbPoint
 10
-219.9321009626078
 20
-71.21110347416518
 30
0.0
  0
ENDBLK
  5
856
330
84F
100
AcDbEntity
  8
0
100
AcDbBlockEnd
  0
BLOCK
  5
85D
330
857
100
AcDbEntity
  8
0
100
AcDbBlockBegin
  2
*D81
 70
     1
 10
0.0
 20
0.0
 30
0.0
  3
*D81
  1

  0
LINE
  5
A3C
330
857
100
AcDbEntity
  8
DIMENSION
 62
     0
370
    -2
100
AcDbLine
 10
-219.5071009626078
 20
-61.80610347416497
 30
0.0
 11
-222.9321009626078
 21
-61.80610347416497
 31
0.0
  0
MTEXT
  5
A3D
330
857
100
AcDbEntity
  8
DIMENSION
 62
     0
100
AcDbMText
 10
-224.4596009626078
 20
-61.80610347416497
 30
0.0
 40
0.75
 41
0.0
 71
     5
 72
     1
  1
\A1;9.405
 73
     1
 44
1.0
1001
ACAD
1000
MTEXTBEGIN
1070
    73
1070
     1
1070
    44
1040
1.0
1070
    74
1070
     0
1000
MTEXTEND
  0
POINT
  5
A3E
330
857
100
AcDbEntity
  8
Defpoints
 62
     0
100
AcDbPoint
 10
-219.3071009626078
 20
-61.80610347416497
 30
0.0
  0
POINT
  5
A3F
330
857
100
AcDbEntity
  8
Defpoints
 62
     0
100
AcDbPoint
 10
-222.9321009626078
 20
-61.80610347416497
 30
0.0
  0
POINT
  5
A40
330
857
100
AcDbEntity
  8
Defpoints
 62
     0
100
AcDbPoint
 10
-219.9321009626078
 20
-71.21110347416518
 30
0.0
  0
ENDBLK
  5
85E
330
857
100
AcDbEntity
  8
0
100
AcDbBlockEnd
  0
BLOCK
  5
867
330
85F
100
AcDbEntity
  8
0
100
AcDbBlockBegin
  2
*D82
 70
     1
 10
0.0
 20
0.0
 30
0.0
  3
*D82
  1

  0
LINE
  5
A35
330
85F
100
AcDbEntity
  8
DIMENSION
 62
     0
370
    -2
100
AcDbLine
 10
-210.8071009626078
 20
-60.72810347416477
 30
0.0
 11
-210.8071009626078
 21
-62.02810347416477
 31
0.0
  0
LINE
  5
A36
330
85F
100
AcDbEntity
  8
DIMENSION
 62
     0
370
    -2
100
AcDbLine
 10
-210.8071009626078
 20
-62.02810347416477
 30
0.0
 11
-211.9321009626077
 21
-62.50914651984238
 31
0.0
  0
LINE
  5
A37
330
85F
100
AcDbEntity
  8
DIMENSION
 62
     0
370
    -2
100
AcDbLine
 10
-211.9321009626077
 20
-62.50914651984238
 30
0.0
 11
-211.9321009626077
 21
-64.00914651984239
 31
0.0
  0
MTEXT
  5
A38
330
85F
100
AcDbEntity
  8
DIMENSION
 62
     0
100
AcDbMText
 10
-211.9321009626077
 20
-65.47414651984242
 30
0.0
 40
0.75
 41
0.0
 71
     5
 72
     1
  1
\A1;9.125
 11
0.0000000000000001
 21
1.0
 31
0.0
 73
     1
 44
1.0
1001
ACAD
1000
MTEXTBEGIN
1070
    73
1070
     1
1070
    44
1040
1.0
1070
    74
1070
     0
1000
MTEXTEND
  0
POINT
  5
A39
330
85F
100
AcDbEntity
  8
Defpoints
 62
     0
100
AcDbPoint
 10
-210.8071009626078
 20
-60.52810347416476
 30
0.0
  0
POINT
  5
A3A
330
85F
100
AcDbEntity
  8
Defpoints
 62
     0
100
AcDbPoint
 10
-211.9321009626077
 20
-64.00914651984239
 30
0.0
  0
POINT
  5
A3B
330
85F
100
AcDbEntity
  8
Defpoints
 62
     0
100
AcDbPoint
 10
-219.9321009626078
 20
-71.21110347416518
 30
0.0
  0
ENDBLK
  5
868
330
85F
100
AcDbEntity
  8
0
100
AcDbBlockEnd
  0
BLOCK
  5
871
330
869
100
AcDbEntity
  8
0
100
AcDbBlockBegin
  2
*D83
 70
     1
 10
0.0
 20
0.0
 30
0.0
  3
*D83
  1

  0
LINE
  5
A2E
330
869
100
AcDbEntity
  8
DIMENSION
 62
     0
370
    -2
100
AcDbLine
 10
-209.9321009626076
 20
-71.41110347416514
 30
0.0
 11
-209.9321009626076
 21
-72.71110347416514
 31
0.0
  0
LINE
  5
A2F
330
869
100
AcDbEntity
  8
DIMENSION
 62
     0
370
    -2
100
AcDbLine
 10
-209.9321009626076
 20
-72.71110347416514
 30
0.0
 11
-209.198155177062
 21
-73.1807930987451
 31
0.0
  0
LINE
  5
A30
330
869
100
AcDbEntity
  8
DIMENSION
 62
     0
370
    -2
100
AcDbLine
 10
-209.198155177062
 20
-73.1807930987451
 30
0.0
 11
-209.198155177062
 21
-74.6807930987451
 31
0.0
  0
MTEXT
  5
A31
330
869
100
AcDbEntity
  8
DIMENSION
 62
     0
100
AcDbMText
 10
-209.198155177062
 20
-76.27079309874513
 30
0.0
 40
0.75
 41
0.0
 71
     5
 72
     1
  1
\A1;10.000
 11
0.0000000000000001
 21
1.0
 31
0.0
 73
     1
 44
1.0
1001
ACAD
1000
MTEXTBEGIN
1070
    73
1070
     1
1070
    44
1040
1.0
1070
    74
1070
     0
1000
MTEXTEND
  0
POINT
  5
A32
330
869
100
AcDbEntity
  8
Defpoints
 62
     0
100
AcDbPoint
 10
-209.9321009626076
 20
-71.21110347416514
 30
0.0
  0
POINT
  5
A33
330
869
100
AcDbEntity
  8
Defpoints
 62
     0
100
AcDbPoint
 10
-209.198155177062
 20
-74.6807930987451
 30
0.0
  0
POINT
  5
A34
330
869
100
AcDbEntity
  8
Defpoints
 62
     0
100
AcDbPoint
 10
-219.9321009626078
 20
-71.21110347416518
 30
0.0
  0
ENDBLK
  5
872
330
869
100
AcDbEntity
  8
0
100
AcDbBlockEnd
  0
BLOCK
  5
87B
330
873
100
AcDbEntity
  8
0
100
AcDbBlockBegin
  2
*D84
 70
     1
 10
0.0
 20
0.0
 30
0.0
  3
*D84
  1

  0
LINE
  5
A27
330
873
100
AcDbEntity
  8
DIMENSION
 62
     0
370
    -2
100
AcDbLine
 10
-219.0571009626074
 20
-60.72810347416477
 30
0.0
 11
-219.0571009626074
 21
-62.02810347416477
 31
0.0
  0
LINE
  5
A28
330
873
100
AcDbEntity
  8
DIMENSION
 62
     0
370
    -2
100
AcDbLine
 10
-219.0571009626074
 20
-62.02810347416477
 30
0.0
 11
-217.9321009626077
 21
-62.5033326130963
 31
0.0
  0
LINE
  5
A29
330
873
100
AcDbEntity
  8
DIMENSION
 62
     0
370
    -2
100
AcDbLine
 10
-217.9321009626077
 20
-62.5033326130963
 30
0.0
 11
-217.9321009626078
 21
-64.00333261309629
 31
0.0
  0
MTEXT
  5
A2A
330
873
100
AcDbEntity
  8
DIMENSION
 62
     0
100
AcDbMText
 10
-217.9321009626077
 20
-65.53083261309634
 30
0.0
 40
0.75
 41
0.0
 71
     5
 72
     1
  1
\A1;0.875
 11
0.0000000000000001
 21
1.0
 31
0.0
 73
     1
 44
1.0
1001
ACAD
1000
MTEXTBEGIN
1070
    73
1070
     1
1070
    44
1040
1.0
1070
    74
1070
     0
1000
MTEXTEND
  0
POINT
  5
A2B
330
873
100
AcDbEntity
  8
Defpoints
 62
     0
100
AcDbPoint
 10
-219.0571009626074
 20
-60.52810347416476
 30
0.0
  0
POINT
  5
A2C
330
873
100
AcDbEntity
  8
Defpoints
 62
     0
100
AcDbPoint
 10
-217.9321009626078
 20
-64.00333261309629
 30
0.0
  0
POINT
  5
A2D
330
873
100
AcDbEntity
  8
Defpoints
 62
     0
100
AcDbPoint
 10
-219.9321009626078
 20
-71.21110347416518
 30
0.0
  0
ENDBLK
  5
87C
330
873
100
AcDbEntity
  8
0
100
AcDbBlockEnd
  0
BLOCK
  5
883
330
87D
100
AcDbEntity
  8
0
100
AcDbBlockBegin
  2
*D85
 70
     1
 10
0.0
 20
0.0
 30
0.0
  3
*D85
  1

  0
LINE
  5
A84
330
87D
100
AcDbEntity
  8
DIMENSION
 62
     0
370
    -2
100
AcDbLine
 10
-219.9321009626078
 20
-71.41110347416518
 30
0.0
 11
-219.9321009626078
 21
-74.86378500326032
 31
0.0
  0
MTEXT
  5
A85
330
87D
100
AcDbEntity
  8
DIMENSION
 62
     0
100
AcDbMText
 10
-219.9321009626078
 20
-76.20378500326035
 30
0.0
 40
0.75
 41
0.0
 71
     5
 72
     1
  1
\A1;0.000
 11
0.0000000000000001
 21
1.0
 31
0.0
 73
     1
 44
1.0
1001
ACAD
1000
MTEXTBEGIN
1070
    73
1070
     1
1070
    44
1040
1.0
1070
    74
1070
     0
1000
MTEXTEND
  0
POINT
  5
A86
330
87D
100
AcDbEntity
  8
Defpoints
 62
     0
100
AcDbPoint
 10
-219.9321009626078
 20
-71.21110347416518
 30
0.0
  0
POINT
  5
A87
330
87D
100
AcDbEntity
  8
Defpoints
 62
     0
100
AcDbPoint
 10
-219.9321009626078
 20
-74.86378500326032
 30
0.0
  0
POINT
  5
A88
330
87D
100
AcDbEntity
  8
Defpoints
 62
     0
100
AcDbPoint
 10
-219.9321009626078
 20
-71.21110347416518
 30
0.0
  0
ENDBLK
  5
884
330
87D
100
AcDbEntity
  8
0
100
AcDbBlockEnd
  0
BLOCK
  5
88D
330
885
100
AcDbEntity
  8
0
100
AcDbBlockBegin
  2
*D86
 70
     1
 10
0.0
 20
0.0
 30
0.0
  3
*D86
  1

  0
LINE
  5
9F8
330
885
100
AcDbEntity
  8
0
 62
     0
370
    -2
100
AcDbLine
 10
-206.999296349734
 20
-53.3989167898515
 30
0.0
 11
-213.5585289071589
 21
-53.09975176615861
 31
0.0
  0
MTEXT
  5
9F9
330
885
100
AcDbEntity
  8
0
 62
     0
100
AcDbMText
 10
-206.909296349734
 20
-50.5239167898515
 30
0.0
 40
0.75
 41
0.0
 71
     1
 72
     1
  1
\A1;\U+22051.250 (1) \POPTIONAL:\PETHERNET\PCONNECTION\PPORT
 73
     1
 44
1.0
1001
ACAD
1000
MTEXTBEGIN
1070
    73
1070
     1
1070
    44
1040
1.0
1070
    74
1070
     0
1000
MTEXTEND
  0
SOLID
  5
9FA
330
885
100
AcDbEntity
  8
0
 62
     0
100
AcDbTrace
 10
-213.5528336078868
 20
-52.97488157929961
 30
0.0
 11
-213.5642242064311
 21
-53.2246219530176
 31
0.0
 12
-214.3077500283129
 22
-53.06557997052568
 32
0.0
 13
-214.3077500283129
 23
-53.06557997052568
 33
0.0
  0
LINE
  5
9FB
330
885
100
AcDbEntity
  8
0
 62
     0
370
    -2
100
AcDbLine
 10
-215.0221009626079
 20
-53.03710347416489
 30
0.0
 11
-214.8421009626078
 21
-53.03710347416489
 31
0.0
  0
LINE
  5
9FC
330
885
100
AcDbEntity
  8
0
 62
     0
370
    -2
100
AcDbLine
 10
-214.9321009626079
 20
-53.1271034741649
 30
0.0
 11
-214.9321009626079
 21
-52.94710347416488
 31
0.0
  0
POINT
  5
9FD
330
885
100
AcDbEntity
  8
Defpoints
 62
     0
100
AcDbPoint
 10
-214.3077500283129
 20
-53.06557997052568
 30
0.0
  0
POINT
  5
9FE
330
885
100
AcDbEntity
  8
Defpoints
 62
     0
100
AcDbPoint
 10
-215.5564518969028
 20
-53.00862697780409
 30
0.0
  0
ENDBLK
  5
88E
330
885
100
AcDbEntity
  8
0
100
AcDbBlockEnd
  0
ENDSEC
  0
SECTION
  2
ENTITIES
  0
TEXT
  5
2A8
330
1F
100
AcDbEntity
  8
DIMENSION
100
AcDbText
 10
-223.0987676292742
 20
-31.45205696775941
 30
0.0
 40
1.0
  1
IQ2000VXS-2400VXS
 72
     1
 11
-215.0154342959408
 21
-30.95205696775941
 31
0.0
100
AcDbText
 73
     2
  0
LINE
  5
2A9
330
1F
100
AcDbEntity
  8
BORDER
100
AcDbLine
 10
-220.9350096800468
 20
-78.72787003376481
 30
0.0
 11
-233.9314122767865
 21
-78.72787003376481
 31
0.0
  0
TEXT
  5
2AA
330
1F
100
AcDbEntity
  8
TEXT
100
AcDbText
 10
-233.5439122767865
 20
-79.02787003376485
 30
0.0
 40
0.2
  1
0
 72
     1
 11
-233.4939122767865
 21
-78.92787003376486
 31
0.0
100
AcDbText
 73
     2
  0
LINE
  5
2AB
330
1F
100
AcDbEntity
  8
BORDER
100
AcDbLine
 10
-233.0564122767865
 20
-79.12787003376483
 30
0.0
 11
-233.0564122767865
 21
-78.3278700337648
 31
0.0
  0
TEXT
  5
2AC
330
1F
100
AcDbEntity
  8
TEXT
100
AcDbText
 10
-230.2405789434532
 20
-79.02787003376485
 30
0.0
 40
0.2
  1
INITIAL RELEASE
 72
     1
 11
-228.8739122767865
 21
-78.92787003376486
 31
0.0
100
AcDbText
 73
     2
  0
TEXT
  5
2AD
330
1F
100
AcDbEntity
  8
TEXT
100
AcDbText
 10
-222.1998776450833
 20
-79.02787003376485
 30
0.0
 40
0.2
  1
JMH
 72
     1
 11
-221.9332109784166
 21
-78.92787003376486
 31
0.0
100
AcDbText
 73
     2
  0
LINE
  5
2AE
330
1F
100
AcDbEntity
  8
BORDER
100
AcDbLine
 10
-222.9314122767866
 20
-79.12787003376483
 30
0.0
 11
-222.9314122767865
 21
-78.3278700337648
 31
0.0
  0
TEXT
  5
2AF
330
1F
100
AcDbEntity
  8
TEXT
100
AcDbText
 10
-224.3947456101199
 20
-79.02787003376485
 30
0.0
 40
0.2
  1
4-15-10
 72
     1
 11
-223.8114122767866
 21
-78.92787003376486
 31
0.0
100
AcDbText
 73
     2
  0
LINE
  5
2B0
330
1F
100
AcDbEntity
  8
BORDER
100
AcDbLine
 10
-224.6914122767865
 20
-79.12787003376483
 30
0.0
 11
-224.6914122767865
 21
-78.3278700337648
 31
0.0
  0
LINE
  5
2B1
330
1F
100
AcDbEntity
  8
BORDER
100
AcDbLine
 10
-220.9350096800468
 20
-79.52787003376489
 30
0.0
 11
-233.9314122767865
 21
-79.52787003376489
 31
0.0
  0
LINE
  5
2B2
330
1F
100
AcDbEntity
  8
BORDER
100
AcDbLine
 10
-220.9350096800468
 20
-79.12787003376483
 30
0.0
 11
-233.9314122767865
 21
-79.12787003376483
 31
0.0
  0
TEXT
  5
2B3
330
1F
100
AcDbEntity
  8
TEXT
100
AcDbText
 10
-233.7939122767865
 20
-79.42787003376487
 30
0.0
 40
0.2
  1
REV
 72
     1
 11
-233.4939122767865
 21
-79.32787003376488
 31
0.0
100
AcDbText
 73
     2
  0
LINE
  5
2B4
330
1F
100
AcDbEntity
  8
BORDER
100
AcDbLine
 10
-233.9314122767865
 20
-79.92787003376486
 30
0.0
 11
-233.9314122767865
 21
-77.52787003376472
 31
0.0
  0
LINE
  5
2B5
330
1F
100
AcDbEntity
  8
BORDER
100
AcDbLine
 10
-233.0564122767865
 20
-79.52787003376489
 30
0.0
 11
-233.0564122767865
 21
-79.12787003376483
 31
0.0
  0
TEXT
  5
2B6
330
1F
100
AcDbEntity
  8
TEXT
100
AcDbText
 10
-229.8739122767865
 20
-79.42787003376487
 30
0.0
 40
0.2
  1
DESCRIPTION
 72
     1
 11
-228.8739122767865
 21
-79.32787003376488
 31
0.0
100
AcDbText
 73
     2
  0
TEXT
  5
2B7
330
1F
100
AcDbEntity
  8
TEXT
100
AcDbText
 10
-222.5998776450833
 20
-79.42787003376487
 30
0.0
 40
0.2
  1
CHECKED
 72
     1
 11
-221.9332109784166
 21
-79.32787003376488
 31
0.0
100
AcDbText
 73
     2
  0
LINE
  5
2B8
330
1F
100
AcDbEntity
  8
BORDER
100
AcDbLine
 10
-222.9314122767866
 20
-79.52787003376489
 30
0.0
 11
-222.9314122767866
 21
-79.12787003376483
 31
0.0
  0
TEXT
  5
2B9
330
1F
100
AcDbEntity
  8
TEXT
100
AcDbText
 10
-224.1780789434532
 20
-79.42787003376487
 30
0.0
 40
0.2
  1
DATE
 72
     1
 11
-223.8114122767866
 21
-79.32787003376488
 31
0.0
100
AcDbText
 73
     2
  0
LINE
  5
2BA
330
1F
100
AcDbEntity
  8
BORDER
100
AcDbLine
 10
-224.6914122767865
 20
-79.52787003376489
 30
0.0
 11
-224.6914122767865
 21
-79.12787003376483
 31
0.0
  0
LINE
  5
2BB
330
1F
100
AcDbEntity
  8
BORDER
100
AcDbLine
 10
-233.9314122767865
 20
-79.52787003376489
 30
0.0
 11
-220.9350096800468
 21
-79.52787003376489
 31
0.0
  0
LINE
  5
2BC
330
1F
100
AcDbEntity
  8
BORDER
100
AcDbLine
 10
-220.9350096800468
 20
-78.3278700337648
 30
0.0
 11
-220.9350096800468
 21
-79.92787003376486
 31
0.0
  0
LINE
  5
2BD
330
1F
100
AcDbEntity
  8
BORDER
100
AcDbLine
 10
-220.9350096800468
 20
-79.92787003376486
 30
0.0
 11
-233.9314122767865
 21
-79.92787003376486
 31
0.0
  0
TEXT
  5
2BE
330
1F
100
AcDbEntity
  8
TEXT
100
AcDbText
 10
-229.7072456101199
 20
-79.82787003376492
 30
0.0
 40
0.2
  1
REVISIONS
 72
     1
 11
-228.8739122767865
 21
-79.72787003376493
 31
0.0
100
AcDbText
 73
     2
  0
TEXT
  5
2BF
330
1F
100
AcDbEntity
  8
TEXT
100
AcDbText
 10
-196.7431904959469
 20
-79.74916515442339
 30
0.0
 40
0.5
  1
0
 72
     1
 11
-196.6181904959469
 21
-79.49916515442339
 31
0.0
100
AcDbText
 73
     2
  0
TEXT
  5
2C0
330
1F
100
AcDbEntity
  8
TEXT
100
AcDbText
 10
-201.6042924216389
 20
-79.74916515442339
 30
0.0
 40
0.5
  1
IQ300443
 72
     1
 11
-199.8542924216389
 21
-79.49916515442339
 31
0.0
100
AcDbText
 73
     2
  0
TEXT
  5
2C1
330
1F
100
AcDbEntity
  8
TEXT
100
AcDbText
 10
-199.866808240787
 20
-77.58921027508193
 30
0.0
 40
0.125
  1
724-837-2204  *  1-888-867-8234
 72
     1
 11
-197.9813915741203
 21
-77.52671027508194
 31
0.0
100
AcDbText
 73
     2
  0
TEXT
  5
2C2
330
1F
100
AcDbEntity
  8
TEXT
100
AcDbText
 10
-199.1897249074536
 20
-77.33921027508194
 30
0.0
 40
0.125
  1
GREENSBURG, PA  15601
 72
     1
 11
-197.9813915741203
 21
-77.27671027508193
 31
0.0
100
AcDbText
 73
     2
  0
TEXT
  5
2C3
330
1F
100
AcDbEntity
  8
TEXT
100
AcDbText
 10
-199.0022249074536
 20
-77.08921027508194
 30
0.0
 40
0.125
  1
141 WILSON AVENUE
 72
     1
 11
-197.9813915741203
 21
-77.02671027508194
 31
0.0
100
AcDbText
 73
     2
  0
TEXT
  5
2C4
330
1F
100
AcDbEntity
  8
TEXT
100
AcDbText
 10
-199.6272249074536
 20
-76.85171027508193
 30
0.0
 40
0.125
  1
INDUSTRIAL COOLING EQUIPMENT
 72
     1
 11
-197.9813915741203
 21
-76.78921027508192
 31
0.0
100
AcDbText
 73
     2
  0
TEXT
  5
2C5
330
1F
100
AcDbEntity
  8
TEXT
100
AcDbText
 10
-199.023058240787
 20
-77.83921027508194
 30
0.0
 40
0.125
  1
FAX  724-837-3386
 72
     1
 11
-197.9813915741203
 21
-77.77671027508194
 31
0.0
100
AcDbText
 73
     2
  0
LINE
  5
2C6
330
1F
100
AcDbEntity
  8
BORDER
100
AcDbLine
 10
-202.4049934998122
 20
-76.6329602750819
 30
0.0
 11
-195.9327896484284
 21
-76.63296027508192
 31
0.0
  0
LINE
  5
2C7
330
1F
100
AcDbEntity
  8
BORDER
100
AcDbLine
 10
-202.4049934998122
 20
-77.88296027508192
 30
0.0
 11
-195.9327896484284
 21
-77.88296027508192
 31
0.0
  0
LINE
  5
2C8
330
1F
100
AcDbEntity
  8
BORDER
100
AcDbLine
 10
-202.4049934998122
 20
-78.88296027508194
 30
0.0
 11
-195.9327896484284
 21
-78.88296027508194
 31
0.0
  0
LINE
  5
2C9
330
1F
100
AcDbEntity
  8
BORDER
100
AcDbLine
 10
-197.3035913434656
 20
-78.88296027508194
 30
0.0
 11
-197.3035913434656
 21
-79.92787003376486
 31
0.0
  0
TEXT
  5
2CA
330
1F
100
AcDbEntity
  8
TEXT
100
AcDbText
 10
-205.5171522425145
 20
-79.77841591830475
 30
0.0
 40
0.25
  1
SHEET 1 OF 1
 72
     1
 11
-204.1421522425145
 21
-79.65341591830474
 31
0.0
100
AcDbText
 73
     2
  0
LINE
  5
2CB
330
1F
100
AcDbEntity
  8
BORDER
100
AcDbLine
 10
-205.9049934998122
 20
-79.38296027508194
 30
0.0
 11
-202.4049934998122
 21
-79.38296027508194
 31
0.0
  0
TEXT
  5
2CC
330
1F
100
AcDbEntity
  8
TEXT
100
AcDbText
 10
-204.8841601664789
 20
-79.25393224572383
 30
0.0
 40
0.25
  1
4-15-10
 72
     1
 11
-204.1549934998122
 21
-79.12893224572383
 31
0.0
100
AcDbText
 73
     2
  0
TEXT
  5
2CD
330
1F
100
AcDbEntity
  8
TEXT
100
AcDbText
 10
-205.7799934998122
 20
-79.07046027508194
 30
0.0
 40
0.125
  1
DATE
100
AcDbText
  0
TEXT
  5
2CE
330
1F
100
AcDbEntity
  8
TEXT
100
AcDbText
 10
-205.3062434998122
 20
-78.83846027508194
 30
0.0
 40
0.1875
  1
JJH
 72
     1
 11
-205.0562434998122
 21
-78.74471027508194
 31
0.0
100
AcDbText
 73
     2
  0
TEXT
  5
2CF
330
1F
100
AcDbEntity
  8
TEXT
100
AcDbText
 10
-205.8324934998122
 20
-78.57046027508194
 30
0.0
 40
0.125
  1
DRAWN
100
AcDbText
  0
TEXT
  5
2D0
330
1F
100
AcDbEntity
  8
TEXT
100
AcDbText
 10
-204.0299934998122
 20
-78.57046027508194
 30
0.0
 40
0.125
  1
SCALE
100
AcDbText
  0
TEXT
  5
2D1
330
1F
100
AcDbEntity
  8
TEXT
100
AcDbText
 10
-203.5974934998122
 20
-78.83846027508194
 30
0.0
 40
0.1875
  1
NONE
 72
     1
 11
-203.2537434998122
 21
-78.74471027508194
 31
0.0
100
AcDbText
 73
     2
  0
LINE
  5
2D2
330
1F
100
AcDbEntity
  8
BORDER
100
AcDbLine
 10
-205.9049934998122
 20
-78.38296027508192
 30
0.0
 11
-202.4049934998122
 21
-78.38296027508192
 31
0.0
  0
LINE
  5
2D3
330
1F
100
AcDbEntity
  8
BORDER
100
AcDbLine
 10
-205.9049934998122
 20
-78.88296027508194
 30
0.0
 11
-202.4049934998122
 21
-78.88296027508194
 31
0.0
  0
LINE
  5
2D4
330
1F
100
AcDbEntity
  8
BORDER
100
AcDbLine
 10
-202.4049934998122
 20
-79.9278700337649
 30
0.0
 11
-202.4049934998122
 21
-76.63296027508192
 31
0.0
  0
LINE
  5
2D5
330
1F
100
AcDbEntity
  8
TEXT
100
AcDbLine
 10
-201.6896178992737
 20
-77.67924026225742
 30
0.0
 11
-201.66823303055
 21
-77.69277425125676
 31
0.0
  0
ARC
  5
2D6
330
1F
100
AcDbEntity
  8
TEXT
100
AcDbCircle
 10
-201.5500100685942
 20
-77.53553337029416
 30
0.0
 40
0.0823791200796888
100
AcDbArc
 50
287.1920036507392
 51
335.8997504051526
  0
ARC
  5
2D7
330
1F
100
AcDbEntity
  8
TEXT
100
AcDbCircle
 10
-201.3851997846701
 20
-77.64651726116955
 30
0.0
 40
0.0383220516698752
100
AcDbArc
 50
67.37252950712535
 51
112.6274704928676
  0
ARC
  5
2D8
330
1F
100
AcDbEntity
  8
TEXT
100
AcDbCircle
 10
-201.3972724677403
 20
-77.58030898217234
 30
0.0
 40
0.0541282261875221
100
AcDbArc
 50
330.1916644163827
 51
19.91318758188063
  0
ARC
  5
2D9
330
1F
100
AcDbEntity
  8
TEXT
100
AcDbCircle
 10
-201.4692878395549
 20
-77.54999707225261
 30
0.0
 40
0.0199543491654275
100
AcDbArc
 50
253.9290889125597
 51
38.652674775114
  0
ARC
  5
2DA
330
1F
100
AcDbEntity
  8
TEXT
100
AcDbCircle
 10
-201.1301525634855
 20
-77.57065112132487
 30
0.0
 40
0.0414608694833307
100
AcDbArc
 50
188.1927496775747
 51
244.8496170020148
  0
ARC
  5
2DB
330
1F
100
AcDbEntity
  8
TEXT
100
AcDbCircle
 10
-201.1306595886192
 20
-77.53051783852294
 30
0.0
 40
0.079526676797883
100
AcDbArc
 50
257.573093086619
 51
314.427386746227
  0
LINE
  5
2DC
330
1F
100
AcDbEntity
  8
TEXT
100
AcDbLine
 10
-200.9920815092125
 20
-77.61893274897428
 30
0.0
 11
-200.9908157410263
 21
-77.60438668931619
 31
0.0
  0
LINE
  5
2DD
330
1F
100
AcDbEntity
  8
TEXT
100
AcDbLine
 10
-200.9908157410263
 20
-77.60438668931619
 30
0.0
 11
-201.012334092276
 21
-77.60565156729683
 31
0.0
  0
ARC
  5
2DE
330
1F
100
AcDbEntity
  8
TEXT
100
AcDbCircle
 10
-201.0127692263743
 20
-77.58812030008574
 30
0.0
 40
0.0175366664936761
100
AcDbArc
 50
155.9964711746293
 51
271.4218156194853
  0
ARC
  5
2DF
330
1F
100
AcDbEntity
  8
TEXT
100
AcDbCircle
 10
-200.8604285094815
 20
-77.57954534239984
 30
0.0
 40
0.0411001678441775
100
AcDbArc
 50
203.9135879631563
 51
286.1701931802543
  0
ARC
  5
2E0
330
1F
100
AcDbEntity
  8
TEXT
100
AcDbCircle
 10
-200.8407634695217
 20
-77.5615745700054
 30
0.0
 40
0.0580299553914578
100
AcDbArc
 50
261.8576121462839
 51
331.2394802847377
  0
ARC
  5
2E1
330
1F
100
AcDbEntity
  8
TEXT
100
AcDbCircle
 10
-200.8432243482332
 20
-77.5525583274907
 30
0.0
 40
0.0648743954988957
100
AcDbArc
 50
325.2939034707337
 51
356.4132772462207
  0
LINE
  5
2E2
330
1F
100
AcDbEntity
  8
TEXT
100
AcDbLine
 10
-201.4101143029695
 20
-76.96629446233242
 30
0.0
 11
-201.2437210164198
 21
-76.96629446233242
 31
0.0
  0
ARC
  5
2E3
330
1F
100
AcDbEntity
  8
TEXT
100
AcDbCircle
 10
-201.3193035795217
 20
-76.96277981989505
 30
0.0
 40
0.075664235650033
100
AcDbArc
 50
357.337623744369
 51
85.63084243886233
  0
ARC
  5
2E4
330
1F
100
AcDbEntity
  8
TEXT
100
AcDbCircle
 10
-201.3428907688008
 20
-77.02729859947557
 30
0.0
 40
0.1430076419069735
100
AcDbArc
 50
78.15621523985548
 51
106.6122408520358
  0
LINE
  5
2E5
330
1F
100
AcDbEntity
  8
TEXT
100
AcDbLine
 10
-201.4101143029695
 20
-76.9483302521962
 30
0.0
 11
-201.3009970925082
 21
-76.9483302521962
 31
0.0
  0
ARC
  5
2E6
330
1F
100
AcDbEntity
  8
TEXT
100
AcDbCircle
 10
-201.356949851256
 20
-76.95871387066969
 30
0.0
 40
0.0541689805939598
100
AcDbArc
 50
103.9179608005984
 51
168.9486088950479
  0
ARC
  5
2E7
330
1F
100
AcDbEntity
  8
TEXT
100
AcDbCircle
 10
-201.344486255969
 20
-76.94695662261223
 30
0.0
 40
0.0435108514827101
100
AcDbArc
 50
358.1908821763629
 51
69.74957583402936
  0
ARC
  5
2E8
330
1F
100
AcDbEntity
  8
TEXT
100
AcDbCircle
 10
-201.3497026740299
 20
-77.07126763863698
 30
0.0
 40
0.1663726285293775
100
AcDbArc
 50
82.99970676551479
 51
97.00029323448521
  0
ARC
  5
2E9
330
1F
100
AcDbEntity
  8
TEXT
100
AcDbCircle
 10
-201.3509031820315
 20
-76.9882684902644
 30
0.0
 40
0.1033745037708635
100
AcDbArc
 50
108.54166133208
 51
149.7652339536166
  0
ARC
  5
2EA
330
1F
100
AcDbEntity
  8
TEXT
100
AcDbCircle
 10
-201.3502415670877
 20
-76.99141755249423
 30
0.0
 40
0.1055588154129402
100
AcDbArc
 50
148.4692011102813
 51
195.5802361373361
  0
ARC
  5
2EB
330
1F
100
AcDbEntity
  8
TEXT
100
AcDbCircle
 10
-201.352194233618
 20
-76.99456268251299
 30
0.0
 40
0.1028636649102098
100
AcDbArc
 50
194.1847393568173
 51
248.6586767321129
  0
ARC
  5
2EC
330
1F
100
AcDbEntity
  8
TEXT
100
AcDbCircle
 10
-201.3099423899159
 20
-76.96752540053589
 30
0.0
 40
0.1001794758104775
100
AcDbArc
 50
179.2959701761241
 51
227.5915484940839
  0
ARC
  5
2ED
330
1F
100
AcDbEntity
  8
TEXT
100
AcDbCircle
 10
-201.3317897072442
 20
-76.98535829288505
 30
0.0
 40
0.0723948191603805
100
AcDbArc
 50
230.841648863773
 51
280.5326941523482
  0
ARC
  5
2EE
330
1F
100
AcDbEntity
  8
TEXT
100
AcDbCircle
 10
-201.3223284375353
 20
-76.9657426650075
 30
0.0
 40
0.0908689821373259
100
AcDbArc
 50
272.3792098458871
 51
327.3581874363218
  0
ARC
  5
2EF
330
1F
100
AcDbEntity
  8
TEXT
100
AcDbCircle
 10
-201.3491920645021
 20
-76.94666150585209
 30
0.0
 40
0.1492919326525934
100
AcDbArc
 50
254.2847830849396
 51
294.1819270465994
  0
ARC
  5
2F0
330
1F
100
AcDbEntity
  8
TEXT
100
AcDbCircle
 10
-201.3370731439946
 20
-76.98373741089523
 30
0.0
 40
0.1105823531414574
100
AcDbArc
 50
296.3233923707218
 51
339.8348331475798
  0
ARC
  5
2F1
330
1F
100
AcDbEntity
  8
TEXT
100
AcDbCircle
 10
-201.2407502929993
 20
-77.02044397812045
 30
0.0
 40
0.0076136084378759
100
AcDbArc
 50
349.2952029716972
 51
131.6626905469361
  0
ARC
  5
2F2
330
1F
100
AcDbEntity
  8
TEXT
100
AcDbCircle
 10
-201.5636448008661
 20
-77.20310712690033
 30
0.0
 40
0.3190390968047161
100
AcDbArc
 50
84.62122141578795
 51
95.37877858421206
  0
ARC
  5
2F3
330
1F
100
AcDbEntity
  8
TEXT
100
AcDbCircle
 10
-201.5445149169104
 20
-76.95821846118801
 30
0.0
 40
0.0735395335020696
100
AcDbArc
 50
43.16761867319064
 51
81.57335966331341
  0
ARC
  5
2F4
330
1F
100
AcDbEntity
  8
TEXT
100
AcDbCircle
 10
-201.5164076591175
 20
-76.92710475961368
 30
0.0
 40
0.0319417441456662
100
AcDbArc
 50
321.1558234807585
 51
36.94217904230046
  0
ARC
  5
2F5
330
1F
100
AcDbEntity
  8
TEXT
100
AcDbCircle
 10
-201.5103414477822
 20
-76.92277104880862
 30
0.0
 40
0.0307842177707809
100
AcDbArc
 50
205.1359642898999
 51
307.6679722285764
  0
ARC
  5
2F6
330
1F
100
AcDbEntity
  8
TEXT
100
AcDbCircle
 10
-201.5039105561424
 20
-76.92211071212312
 30
0.0
 40
0.0369482766388136
100
AcDbArc
 50
180.010674400693
 51
201.8251852718025
  0
ARC
  5
2F7
330
1F
100
AcDbEntity
  8
TEXT
100
AcDbCircle
 10
-201.5771898752977
 20
-76.9330290744065
 30
0.0
 40
0.0379342202263196
100
AcDbArc
 50
16.71684440730591
 51
45.97719400399777
  0
ARC
  5
2F8
330
1F
100
AcDbEntity
  8
TEXT
100
AcDbCircle
 10
-201.5706581620196
 20
-77.21360120638613
 30
0.0
 40
0.308487275647734
100
AcDbArc
 50
86.31431733544657
 51
93.90381943516564
  0
ARC
  5
2F9
330
1F
100
AcDbEntity
  8
TEXT
100
AcDbCircle
 10
-201.5817770697599
 20
-76.98046685381743
 30
0.0
 40
0.0957209358745145
100
AcDbArc
 50
97.06566064011505
 51
142.4986334312254
  0
ARC
  5
2FA
330
1F
100
AcDbEntity
  8
TEXT
100
AcDbCircle
 10
-201.5826433329315
 20
-76.9954303898413
 30
0.0
 40
0.1048786434530375
100
AcDbArc
 50
135.7093780000635
 51
195.2317137751539
  0
ARC
  5
2FB
330
1F
100
AcDbEntity
  8
TEXT
100
AcDbCircle
 10
-201.5925629781453
 20
-76.99861092202064
 30
0.0
 40
0.0944729963909665
100
AcDbArc
 50
194.9511061487653
 51
259.6103135862126
  0
ARC
  5
2FC
330
1F
100
AcDbEntity
  8
TEXT
100
AcDbCircle
 10
-201.5774756969009
 20
-76.9947683795682
 30
0.0
 40
0.1019596243580053
100
AcDbArc
 50
251.6347706403311
 51
316.4182924463649
  0
ARC
  5
2FD
330
1F
100
AcDbEntity
  8
TEXT
100
AcDbCircle
 10
-201.5902914134501
 20
-76.96254817621642
 30
0.0
 40
0.1342414089758457
100
AcDbArc
 50
310.2152586008202
 51
331.3072507285896
  0
ARC
  5
2FE
330
1F
100
AcDbEntity
  8
TEXT
100
AcDbCircle
 10
-201.5515152806354
 20
-76.98336952424526
 30
0.0
 40
0.087315893875788
100
AcDbArc
 50
117.3722826858102
 51
160.0902491401804
  0
ARC
  5
2FF
330
1F
100
AcDbEntity
  8
TEXT
100
AcDbCircle
 10
-201.5402368416431
 20
-76.97511863037298
 30
0.0
 40
0.0958150612878369
100
AcDbArc
 50
167.043002891143
 51
212.130937130944
  0
ARC
  5
300
330
1F
100
AcDbEntity
  8
TEXT
100
AcDbCircle
 10
-201.5607048952722
 20
-76.98645743091231
 30
0.0
 40
0.0724627678791291
100
AcDbArc
 50
213.1462108998124
 51
285.6537258536394
  0
ARC
  5
301
330
1F
100
AcDbEntity
  8
TEXT
100
AcDbCircle
 10
-201.5600463159702
 20
-76.96857131532587
 30
0.0
 40
0.0896741777801754
100
AcDbArc
 50
282.1628426667851
 51
326.5593609179329
  0
ARC
  5
302
330
1F
100
AcDbEntity
  8
TEXT
100
AcDbCircle
 10
-201.4824824596603
 20
-77.0275706966786
 30
0.0
 40
0.0099649442964969
100
AcDbArc
 50
3.288025410275718
 51
105.9275278804377
  0
LINE
  5
303
330
1F
100
AcDbEntity
  8
TEXT
100
AcDbLine
 10
-201.9521098054627
 20
-76.670848870578
 30
0.0
 11
-201.9488536913894
 21
-76.93765792201485
 31
0.0
  0
LINE
  5
304
330
1F
100
AcDbEntity
  8
TEXT
100
AcDbLine
 10
-201.9260608928771
 20
-76.70338656611504
 30
0.0
 11
-201.9244328358405
 21
-76.93765792201485
 31
0.0
  0
ARC
  5
305
330
1F
100
AcDbEntity
  8
TEXT
100
AcDbCircle
 10
-201.936643263615
 20
-76.93810576851266
 30
0.0
 40
0.012218637932349
100
AcDbArc
 50
177.899482485688
 51
2.100517514311817
  0
LINE
  5
306
330
1F
100
AcDbEntity
  8
TEXT
100
AcDbLine
 10
-201.870085794638
 20
-76.7151518070981
 30
0.0
 11
-201.870085794638
 21
-77.12300462711636
 31
0.0
  0
LINE
  5
307
330
1F
100
AcDbEntity
  8
TEXT
100
AcDbLine
 10
-201.7518159787475
 20
-76.7151518070981
 30
0.0
 11
-201.7518159787475
 21
-77.12300462711636
 31
0.0
  0
ARC
  5
308
330
1F
100
AcDbEntity
  8
TEXT
100
AcDbCircle
 10
-201.9142012612
 20
-76.70395621800441
 30
0.0
 40
0.0118733047964798
100
AcDbArc
 50
38.20381851856326
 51
177.2500340797978
  0
LINE
  5
309
330
1F
100
AcDbEntity
  8
TEXT
100
AcDbLine
 10
-201.9048710321513
 20
-76.69661304480143
 30
0.0
 11
-201.870085794638
 21
-76.7151518070981
 31
0.0
  0
LINE
  5
30A
330
1F
100
AcDbEntity
  8
TEXT
100
AcDbLine
 10
-201.7170307412343
 20
-76.69661304480143
 30
0.0
 11
-201.7518159787475
 21
-76.7151518070981
 31
0.0
  0
LINE
  5
30B
330
1F
100
AcDbEntity
  8
TEXT
100
AcDbLine
 10
-201.6958408805084
 20
-76.70338656611504
 30
0.0
 11
-201.6959750007532
 21
-76.72268597079363
 31
0.0
  0
LINE
  5
30C
330
1F
100
AcDbEntity
  8
TEXT
100
AcDbLine
 10
-201.6697919679228
 20
-76.670848870578
 30
0.0
 11
-201.6704245833106
 21
-76.72268597079363
 31
0.0
  0
ARC
  5
30D
330
1F
100
AcDbEntity
  8
TEXT
100
AcDbCircle
 10
-201.7077005121854
 20
-76.70395621800441
 30
0.0
 40
0.0118733047964798
100
AcDbArc
 50
2.749965920202108
 51
141.7961814814367
  0
ARC
  5
30E
330
1F
100
AcDbEntity
  8
TEXT
100
AcDbCircle
 10
-201.6831997920319
 20
-76.73112614498066
 30
0.0
 40
0.0153115152150576
100
AcDbArc
 50
146.5485285753436
 51
33.45147142465568
  0
ARC
  5
30F
330
1F
100
AcDbEntity
  8
TEXT
100
AcDbCircle
 10
-200.4797937636077
 20
-77.56466713285473
 30
0.0
 40
0.0076136084378759
100
AcDbArc
 50
349.2952029716972
 51
131.6626905469361
  0
ARC
  5
310
330
1F
100
AcDbEntity
  8
TEXT
100
AcDbCircle
 10
-200.5761166146028
 20
-77.52796056562956
 30
0.0
 40
0.1105823531414574
100
AcDbArc
 50
296.3233923707218
 51
339.8348331475798
  0
ARC
  5
311
330
1F
100
AcDbEntity
  8
TEXT
100
AcDbCircle
 10
-200.5882355351104
 20
-77.49088466058634
 30
0.0
 40
0.1492919326525934
100
AcDbArc
 50
254.2847830849396
 51
294.1819270465994
  0
ARC
  5
312
330
1F
100
AcDbEntity
  8
TEXT
100
AcDbCircle
 10
-200.5613719081436
 20
-77.50996581974184
 30
0.0
 40
0.0908689821373259
100
AcDbArc
 50
272.3792098458871
 51
327.3581874363218
  0
ARC
  5
313
330
1F
100
AcDbEntity
  8
TEXT
100
AcDbCircle
 10
-200.5708331778526
 20
-77.52958144761938
 30
0.0
 40
0.0723948191603805
100
AcDbArc
 50
230.841648863773
 51
280.5326941523482
  0
ARC
  5
314
330
1F
100
AcDbEntity
  8
TEXT
100
AcDbCircle
 10
-200.5489858605242
 20
-77.5117485552702
 30
0.0
 40
0.1001794758104775
100
AcDbArc
 50
179.2959701761241
 51
227.5915484940839
  0
ARC
  5
315
330
1F
100
AcDbEntity
  8
TEXT
100
AcDbCircle
 10
-200.5912377042263
 20
-77.53878583724726
 30
0.0
 40
0.1028636649102098
100
AcDbArc
 50
194.1847393568173
 51
248.6586767321129
  0
ARC
  5
316
330
1F
100
AcDbEntity
  8
TEXT
100
AcDbCircle
 10
-200.5892850376959
 20
-77.53564070722855
 30
0.0
 40
0.1055588154129402
100
AcDbArc
 50
148.4692011102813
 51
195.5802361373361
  0
ARC
  5
317
330
1F
100
AcDbEntity
  8
TEXT
100
AcDbCircle
 10
-200.5899466526399
 20
-77.53249164499869
 30
0.0
 40
0.1033745037708635
100
AcDbArc
 50
108.54166133208
 51
149.7652339536166
  0
ARC
  5
318
330
1F
100
AcDbEntity
  8
TEXT
100
AcDbCircle
 10
-200.5887461446381
 20
-77.61549079337126
 30
0.0
 40
0.1663726285293775
100
AcDbArc
 50
82.99970676551479
 51
97.00029323448521
  0
ARC
  5
319
330
1F
100
AcDbEntity
  8
TEXT
100
AcDbCircle
 10
-200.5835297265772
 20
-77.49117977734653
 30
0.0
 40
0.0435108514827101
100
AcDbArc
 50
358.1908821763629
 51
69.74957583402936
  0
ARC
  5
31A
330
1F
100
AcDbEntity
  8
TEXT
100
AcDbCircle
 10
-200.5959933218644
 20
-77.50293702540398
 30
0.0
 40
0.0541689805939598
100
AcDbArc
 50
103.9179608005984
 51
168.9486088950479
  0
LINE
  5
31B
330
1F
100
AcDbEntity
  8
TEXT
100
AcDbLine
 10
-200.6491577735778
 20
-77.49255340693048
 30
0.0
 11
-200.5400405631164
 21
-77.49255340693048
 31
0.0
  0
ARC
  5
31C
330
1F
100
AcDbEntity
  8
TEXT
100
AcDbCircle
 10
-200.5819342394092
 20
-77.57152175420987
 30
0.0
 40
0.1430076419069735
100
AcDbArc
 50
78.15621523985548
 51
106.6122408520358
  0
ARC
  5
31D
330
1F
100
AcDbEntity
  8
TEXT
100
AcDbCircle
 10
-200.5583470501299
 20
-77.50700297462936
 30
0.0
 40
0.075664235650033
100
AcDbArc
 50
357.337623744369
 51
85.63084243886233
  0
LINE
  5
31E
330
1F
100
AcDbEntity
  8
TEXT
100
AcDbLine
 10
-200.6491577735778
 20
-77.51051761706674
 30
0.0
 11
-200.4827644870281
 21
-77.51051761706674
 31
0.0
  0
ARC
  5
31F
330
1F
100
AcDbEntity
  8
TEXT
100
AcDbCircle
 10
-201.861254242785
 20
-77.14800233746301
 30
0.0
 40
0.0265119186538681
100
AcDbArc
 50
109.4580308571273
 51
191.0341765876997
  0
ARC
  5
320
330
1F
100
AcDbEntity
  8
TEXT
100
AcDbCircle
 10
-201.895140624773
 20
-77.15455762297847
 30
0.0
 40
0.0080028240236793
100
AcDbArc
 50
155.9249042338174
 51
10.66497725508716
  0
ARC
  5
321
330
1F
100
AcDbEntity
  8
TEXT
100
AcDbCircle
 10
-201.9173801382909
 20
-77.16080103105821
 30
0.0
 40
0.0177028926222284
100
AcDbArc
 50
32.48569494743501
 51
175.1979664789355
  0
ARC
  5
322
330
1F
100
AcDbEntity
  8
TEXT
100
AcDbCircle
 10
-201.9409485409728
 20
-77.16214223943819
 30
0.0
 40
0.0065656178893212
100
AcDbArc
 50
158.7719549350961
 51
25.46716058583969
  0
ARC
  5
323
330
1F
100
AcDbEntity
  8
TEXT
100
AcDbCircle
 10
-201.9563093648637
 20
-77.15782111102294
 30
0.0
 40
0.0094429421553819
100
AcDbArc
 50
348.1206509806762
 51
136.2651890953769
  0
ARC
  5
324
330
1F
100
AcDbEntity
  8
TEXT
100
AcDbCircle
 10
-201.9574430854569
 20
-77.16279665895616
 30
0.0
 40
0.0128336163843245
100
AcDbArc
 50
116.3151684036785
 51
258.4674100382152
  0
ARC
  5
325
330
1F
100
AcDbEntity
  8
TEXT
100
AcDbCircle
 10
-201.953060172663
 20
-77.18196124693301
 30
0.0
 40
0.0095766959912467
100
AcDbArc
 50
356.7423630506751
 51
136.5172760690068
  0
ARC
  5
326
330
1F
100
AcDbEntity
  8
TEXT
100
AcDbCircle
 10
-201.9400931064449
 20
-77.18751384515446
 30
0.0
 40
0.0060567147722924
100
AcDbArc
 50
124.2167745950174
 51
319.7988197133694
  0
ARC
  5
327
330
1F
100
AcDbEntity
  8
TEXT
100
AcDbCircle
 10
-201.9158375349793
 20
-77.19846608299278
 30
0.0
 40
0.0208547453379377
100
AcDbArc
 50
160.262778281965
 51
255.1333022011724
  0
ARC
  5
328
330
1F
100
AcDbEntity
  8
TEXT
100
AcDbCircle
 10
-201.9159801961217
 20
-77.21656958877836
 30
0.0
 40
0.0055981498673755
100
AcDbArc
 50
201.5154657473989
 51
41.96660508022721
  0
ARC
  5
329
330
1F
100
AcDbEntity
  8
TEXT
100
AcDbCircle
 10
-201.8964804280864
 20
-77.20268484915783
 30
0.0
 40
0.0183869430621009
100
AcDbArc
 50
121.2424246402129
 51
213.4732397083749
  0
ARC
  5
32A
330
1F
100
AcDbEntity
  8
TEXT
100
AcDbCircle
 10
-201.9009067426842
 20
-77.19597182110405
 30
0.0
 40
0.0103561047696926
100
AcDbArc
 50
332.2921775479049
 51
119.5678571759903
  0
ARC
  5
32B
330
1F
100
AcDbEntity
  8
TEXT
100
AcDbCircle
 10
-201.898965835043
 20
-77.21780705408986
 30
0.0
 40
0.0184910922143149
100
AcDbArc
 50
312.9867785858861
 51
66.99118422926638
  0
ARC
  5
32C
330
1F
100
AcDbEntity
  8
TEXT
100
AcDbCircle
 10
-201.8193339571848
 20
-77.361066855427
 30
0.0
 40
0.1460238884738267
100
AcDbArc
 50
117.322218089242
 51
179.3383492613259
  0
ARC
  5
32D
330
1F
100
AcDbEntity
  8
TEXT
100
AcDbCircle
 10
-201.3480895384882
 20
-77.40891251659428
 30
0.0
 40
0.6192427252207131
100
AcDbArc
 50
175.4121316267021
 51
191.7939289657072
  0
ARC
  5
32E
330
1F
100
AcDbEntity
  8
TEXT
100
AcDbCircle
 10
-201.9554693175126
 20
-77.5637480528249
 30
0.0
 40
0.0282929521370527
100
AcDbArc
 50
15.17145974978953
 51
87.54918714297627
  0
ARC
  5
32F
330
1F
100
AcDbEntity
  8
TEXT
100
AcDbCircle
 10
-199.4011295344263
 20
-77.64253915969925
 30
0.0
 40
2.528502539422874
100
AcDbArc
 50
178.0464319449979
 51
181.7502526685598
  0
LINE
  5
330
330
1F
100
AcDbEntity
  8
TEXT
100
AcDbLine
 10
-201.9013669593688
 20
-77.59462543385942
 30
0.0
 11
-201.9023810760656
 21
-77.7167381384142
 31
0.0
  0
ARC
  5
331
330
1F
100
AcDbEntity
  8
TEXT
100
AcDbCircle
 10
-201.8971341321119
 20
-77.5937201387298
 30
0.0
 40
0.0043285547078555
100
AcDbArc
 50
333.6879001367241
 51
192.0722457553363
  0
LINE
  5
332
330
1F
100
AcDbEntity
  8
TEXT
100
AcDbLine
 10
-201.8932540466575
 20
-77.59563881606755
 30
0.0
 11
-201.8932540466575
 21
-77.61387972055977
 31
0.0
  0
ARC
  5
333
330
1F
100
AcDbEntity
  8
TEXT
100
AcDbCircle
 10
-201.8875198112405
 20
-77.61255727098156
 30
0.0
 40
0.005884753920498
100
AcDbArc
 50
192.9866902548912
 51
33.38063139741165
  0
ARC
  5
334
330
1F
100
AcDbEntity
  8
TEXT
100
AcDbCircle
 10
-201.8721733269651
 20
-77.61614344501277
 30
0.0
 40
0.012466104448211
100
AcDbArc
 50
17.66955929970654
 51
146.8111142491889
  0
ARC
  5
335
330
1F
100
AcDbEntity
  8
TEXT
100
AcDbCircle
 10
-201.8331180900284
 20
-77.59705841118179
 30
0.0
 40
0.0311886293915612
100
AcDbArc
 50
209.3802246625985
 51
263.8421008682747
  0
LINE
  5
336
330
1F
100
AcDbEntity
  8
TEXT
100
AcDbLine
 10
-201.8364636576787
 20
-77.62806708384649
 30
0.0
 11
-201.8334213284515
 21
-77.67062919845267
 31
0.0
  0
ARC
  5
337
330
1F
100
AcDbEntity
  8
TEXT
100
AcDbCircle
 10
-201.8205918515779
 20
-77.67242182861008
 30
0.0
 40
0.0129541113061121
100
AcDbArc
 50
172.045705651638
 51
14.81661014794038
  0
LINE
  5
338
330
1F
100
AcDbEntity
  8
TEXT
100
AcDbLine
 10
-201.8080684736209
 20
-77.66910912514048
 30
0.0
 11
-201.8060402402273
 21
-77.65137491175233
 31
0.0
  0
ARC
  5
339
330
1F
100
AcDbEntity
  8
TEXT
100
AcDbCircle
 10
-201.8014196237321
 20
-77.65083502324052
 30
0.0
 40
0.0046520507736455
100
AcDbArc
 50
318.6510821797595
 51
186.6644145786481
  0
LINE
  5
33A
330
1F
100
AcDbEntity
  8
TEXT
100
AcDbLine
 10
-201.797927327516
 20
-77.65390836727259
 30
0.0
 11
-201.7953920566372
 21
-77.67721618280541
 31
0.0
  0
ARC
  5
33B
330
1F
100
AcDbEntity
  8
TEXT
100
AcDbCircle
 10
-201.7867118867447
 20
-77.67901107607906
 30
0.0
 40
0.0088638023006269
100
AcDbArc
 50
168.3169857564307
 51
15.04995211451781
  0
LINE
  5
33C
330
1F
100
AcDbEntity
  8
TEXT
100
AcDbLine
 10
-201.7781521145179
 20
-77.67670949170136
 30
0.0
 11
-201.7781521145179
 21
-77.65745520500101
 31
0.0
  0
ARC
  5
33D
330
1F
100
AcDbEntity
  8
TEXT
100
AcDbCircle
 10
-201.7666033620034
 20
-77.66747641549267
 30
0.0
 40
0.0152904657992698
100
AcDbArc
 50
65.19241843010743
 51
139.050810698879
  0
ARC
  5
33E
330
1F
100
AcDbEntity
  8
TEXT
100
AcDbCircle
 10
-201.7567510325881
 20
-77.66843479048176
 30
0.0
 40
0.0152307057591135
100
AcDbArc
 50
7.606980527161358
 51
103.0413594591621
  0
LINE
  5
33F
330
1F
100
AcDbEntity
  8
TEXT
100
AcDbLine
 10
-201.7416543658783
 20
-77.66641859302712
 30
0.0
 11
-201.7352389219517
 21
-77.75474566284763
 31
0.0
  0
LINE
  5
340
330
1F
100
AcDbEntity
  8
TEXT
100
AcDbLine
 10
-201.7074386093014
 20
-77.75189640851781
 30
0.0
 11
-201.7053001140837
 21
-77.68208952896031
 31
0.0
  0
ARC
  5
341
330
1F
100
AcDbEntity
  8
TEXT
100
AcDbCircle
 10
-201.6975822914722
 20
-77.67998634255801
 30
0.0
 40
0.00799926114752
100
AcDbArc
 50
5.351678383090743
 51
195.2435488026408
  0
LINE
  5
342
330
1F
100
AcDbEntity
  8
TEXT
100
AcDbLine
 10
-201.66823303055
 20
-77.69277425125676
 30
0.0
 11
-201.6668073670715
 21
-77.73693779235355
 31
0.0
  0
ARC
  5
343
330
1F
100
AcDbEntity
  8
TEXT
100
AcDbCircle
 10
-201.6279010003095
 20
-77.70274666615728
 30
0.0
 40
0.007461566345003
100
AcDbArc
 50
354.5219056877808
 51
214.9448543763829
  0
ARC
  5
344
330
1F
100
AcDbEntity
  8
TEXT
100
AcDbCircle
 10
-201.6072539467222
 20
-77.70396965518336
 30
0.0
 40
0.0132294257821061
100
AcDbArc
 50
177.787775166229
 51
326.3805826419353
  0
ARC
  5
345
330
1F
100
AcDbEntity
  8
TEXT
100
AcDbCircle
 10
-201.4705641379268
 20
-77.68818772313955
 30
0.0
 40
0.0072357336356114
100
AcDbArc
 50
144.5711585108376
 51
21.75301147886973
  0
LINE
  5
346
330
1F
100
AcDbEntity
  8
TEXT
100
AcDbLine
 10
-201.4638436603406
 20
-77.68550611499151
 30
0.0
 11
-201.4633390012562
 21
-77.64717978508357
 31
0.0
  0
ARC
  5
347
330
1F
100
AcDbEntity
  8
TEXT
100
AcDbCircle
 10
-201.4705476572296
 20
-77.65155083462068
 30
0.0
 40
0.0084303496368707
100
AcDbArc
 50
31.23099864076771
 51
160.1819529381849
  0
ARC
  5
348
330
1F
100
AcDbEntity
  8
TEXT
100
AcDbCircle
 10
-201.4428052071705
 20
-77.6643606988377
 30
0.0
 40
0.0389626284677215
100
AcDbArc
 50
156.2885975497968
 51
210.2571046136429
  0
ARC
  5
349
330
1F
100
AcDbEntity
  8
TEXT
100
AcDbCircle
 10
-201.332570535261
 20
-77.72596505150244
 30
0.0
 40
0.0240560900908206
100
AcDbArc
 50
341.5477100758345
 51
84.99888070834156
  0
ARC
  5
34A
330
1F
100
AcDbEntity
  8
TEXT
100
AcDbCircle
 10
-201.3220970521035
 20
-77.75388178993431
 30
0.0
 40
0.0525530937554001
100
AcDbArc
 50
99.17143729878524
 51
127.7955283290939
  0
ARC
  5
34B
330
1F
100
AcDbEntity
  8
TEXT
100
AcDbCircle
 10
-201.4240558664114
 20
-77.70704361481715
 30
0.0
 40
0.0058266569934507
100
AcDbArc
 50
312.7998628402736
 51
120.0581864533373
  0
ARC
  5
34C
330
1F
100
AcDbEntity
  8
TEXT
100
AcDbCircle
 10
-201.4235174084675
 20
-77.68920017912755
 30
0.0
 40
0.0132589418689821
100
AcDbArc
 50
129.1527393458022
 51
254.8870408388504
  0
ARC
  5
34D
330
1F
100
AcDbEntity
  8
TEXT
100
AcDbCircle
 10
-201.4741265811923
 20
-77.64673108868691
 30
0.0
 40
0.0531039929182559
100
AcDbArc
 50
322.6907301981532
 51
8.220255073941821
  0
ARC
  5
34E
330
1F
100
AcDbEntity
  8
TEXT
100
AcDbCircle
 10
-201.4167631025649
 20
-77.63451207291296
 30
0.0
 40
0.006670176261647
100
AcDbArc
 50
89.05883162362073
 51
223.9137905963005
  0
ARC
  5
34F
330
1F
100
AcDbEntity
  8
TEXT
100
AcDbCircle
 10
-201.5499876207941
 20
-77.47770284876608
 30
0.0
 40
0.2007983591481478
100
AcDbArc
 50
311.6071689301104
 51
318.3515702307968
  0
ARC
  5
350
330
1F
100
AcDbEntity
  8
TEXT
100
AcDbCircle
 10
-201.4175352344302
 20
-77.63078945815067
 30
0.0
 40
0.0510134649733786
100
AcDbArc
 50
337.3510782224612
 51
22.64892177753882
  0
ARC
  5
351
330
1F
100
AcDbEntity
  8
TEXT
100
AcDbCircle
 10
-201.334239506033
 20
-77.65716680600393
 30
0.0
 40
0.036836866917706
100
AcDbArc
 50
169.468486757318
 51
223.1418439421429
  0
ARC
  5
352
330
1F
100
AcDbEntity
  8
TEXT
100
AcDbCircle
 10
-201.3659904898096
 20
-77.66120266841847
 30
0.0
 40
0.0217073505753394
100
AcDbArc
 50
282.9712622283036
 51
25.35441378639511
  0
ARC
  5
353
330
1F
100
AcDbEntity
  8
TEXT
100
AcDbCircle
 10
-201.1188522110453
 20
-77.60937246783857
 30
0.0
 40
0.2314636105096927
100
AcDbArc
 50
179.4662202071271
 51
190.5890997840366
  0
ARC
  5
354
330
1F
100
AcDbEntity
  8
TEXT
100
AcDbCircle
 10
-201.5200093355379
 20
-77.40539044884574
 30
0.0
 40
0.2337386848487555
100
AcDbArc
 50
317.9732863042374
 51
40.61894937560235
  0
ARC
  5
355
330
1F
100
AcDbEntity
  8
TEXT
100
AcDbCircle
 10
-201.3649124540062
 20
-77.2807990734297
 30
0.0
 40
0.0354813306192006
100
AcDbArc
 50
51.01090143870957
 51
107.577946053111
  0
ARC
  5
356
330
1F
100
AcDbEntity
  8
TEXT
100
AcDbCircle
 10
-201.4257912522595
 20
-77.24415158191075
 30
0.0
 40
0.0502426958653941
100
AcDbArc
 50
356.7791343814141
 51
50.82801334298971
  0
ARC
  5
357
330
1F
100
AcDbEntity
  8
TEXT
100
AcDbCircle
 10
-201.4131733137431
 20
-77.30041550101486
 30
0.0
 40
0.0971150865271732
100
AcDbArc
 50
78.6467194011529
 51
92.8865786316482
  0
ARC
  5
358
330
1F
100
AcDbEntity
  8
TEXT
100
AcDbCircle
 10
-201.4241312828473
 20
-77.19140160841118
 30
0.0
 40
0.0134663245800479
100
AcDbArc
 50
296.7794474250819
 51
150.4674482996605
  0
ARC
  5
359
330
1F
100
AcDbEntity
  8
TEXT
100
AcDbCircle
 10
-201.4457141960229
 20
-77.17216445659143
 30
0.0
 40
0.0160026730470342
100
AcDbArc
 50
174.1982733486936
 51
308.0634596483615
  0
ARC
  5
35A
330
1F
100
AcDbEntity
  8
TEXT
100
AcDbCircle
 10
-201.4913508210135
 20
-77.19662811846834
 30
0.0
 40
0.0395382213230867
100
AcDbArc
 50
41.27304036069129
 51
94.61991284103847
  0
ARC
  5
35B
330
1F
100
AcDbEntity
  8
TEXT
100
AcDbCircle
 10
-201.5071817156726
 20
-77.16093742466256
 30
0.0
 40
0.013181795053861
100
AcDbArc
 50
136.6395135700789
 51
16.38775991618321
  0
ARC
  5
35C
330
1F
100
AcDbEntity
  8
TEXT
100
AcDbCircle
 10
-201.5275098537591
 20
-77.16366057178696
 30
0.0
 40
0.0159391999478664
100
AcDbArc
 50
47.6170580186072
 51
152.6179806585999
  0
ARC
  5
35D
330
1F
100
AcDbEntity
  8
TEXT
100
AcDbCircle
 10
-201.5602802364938
 20
-77.16491540751167
 30
0.0
 40
0.0205013644393397
100
AcDbArc
 50
24.75773987532823
 51
121.5483884163393
  0
ARC
  5
35E
330
1F
100
AcDbEntity
  8
TEXT
100
AcDbCircle
 10
-201.5865679913326
 20
-77.15338415451433
 30
0.0
 40
0.0166562311588201
100
AcDbArc
 50
20.89289471578123
 51
159.1071052842187
  0
ARC
  5
35F
330
1F
100
AcDbEntity
  8
TEXT
100
AcDbCircle
 10
-201.6104267492157
 20
-77.14513208132465
 30
0.0
 40
0.0086137982854948
100
AcDbArc
 50
183.5606974541693
 51
344.4298925613476
  0
ARC
  5
360
330
1F
100
AcDbEntity
  8
TEXT
100
AcDbCircle
 10
-201.6368551592861
 20
-77.16441537823612
 30
0.0
 40
0.0258737893279925
100
AcDbArc
 50
46.43616582623992
 51
130.6283095026662
  0
ARC
  5
361
330
1F
100
AcDbEntity
  8
TEXT
100
AcDbCircle
 10
-201.6630394900064
 20
-77.1475661652247
 30
0.0
 40
0.0097439161762835
100
AcDbArc
 50
163.3756550464642
 51
16.62434495352947
  0
ARC
  5
362
330
1F
100
AcDbEntity
  8
TEXT
100
AcDbCircle
 10
-201.6998659107293
 20
-77.22053094630616
 30
0.0
 40
0.0805861373804051
100
AcDbArc
 50
70.05468846035579
 51
100.2232656721041
  0
ARC
  5
363
330
1F
100
AcDbEntity
  8
TEXT
100
AcDbCircle
 10
-201.7208377158695
 20
-77.18422950522946
 30
0.0
 40
0.0435193062368324
100
AcDbArc
 50
81.18509483549694
 51
120.0392913824104
  0
ARC
  5
364
330
1F
100
AcDbEntity
  8
TEXT
100
AcDbCircle
 10
-201.7532091423116
 20
-77.1371180484457
 30
0.0
 40
0.014182015594946
100
AcDbArc
 50
318.2823815987273
 51
84.36248438139953
  0
ARC
  5
365
330
1F
100
AcDbEntity
  8
TEXT
100
AcDbCircle
 10
-201.8170169161111
 20
-77.20016906876049
 30
0.0
 40
0.0203954016833934
100
AcDbArc
 50
35.6067999534595
 51
177.5845513854531
  0
LINE
  5
366
330
1F
100
AcDbEntity
  8
TEXT
100
AcDbLine
 10
-201.8004348086599
 20
-77.1882944688807
 30
0.0
 11
-201.8017316212347
 21
-77.2070848259347
 31
0.0
  0
LINE
  5
367
330
1F
100
AcDbEntity
  8
TEXT
100
AcDbLine
 10
-201.8373941965388
 20
-77.19930950364116
 30
0.0
 11
-201.8380426028262
 21
-77.24790525250964
 31
0.0
  0
ARC
  5
368
330
1F
100
AcDbEntity
  8
TEXT
100
AcDbCircle
 10
-201.7557448743142
 20
-77.28455146435971
 30
0.0
 40
0.0900880733570722
100
AcDbArc
 50
120.6947626763568
 51
155.9971516553453
  0
ARC
  5
369
330
1F
100
AcDbEntity
  8
TEXT
100
AcDbCircle
 10
-201.7888903338958
 20
-77.25957111918233
 30
0.0
 40
0.016761400266969
100
AcDbArc
 50
218.6904014524229
 51
353.6659411500755
  0
ARC
  5
36A
330
1F
100
AcDbEntity
  8
TEXT
100
AcDbCircle
 10
-201.7981505743236
 20
-77.28572715952026
 30
0.0
 40
0.0161375709544144
100
AcDbArc
 50
103.7022990326946
 51
207.0193065629245
  0
ARC
  5
36B
330
1F
100
AcDbEntity
  8
TEXT
100
AcDbCircle
 10
-201.5586808130076
 20
-77.41941406213283
 30
0.0
 40
0.2835552053684878
100
AcDbArc
 50
153.5374647244104
 51
193.3327646348719
  0
ARC
  5
36C
330
1F
100
AcDbEntity
  8
TEXT
100
AcDbCircle
 10
-201.8892903828696
 20
-77.52171463668419
 30
0.0
 40
0.0659862148586619
100
AcDbArc
 50
346.9852122362359
 51
34.01252680042674
  0
ARC
  5
36D
330
1F
100
AcDbEntity
  8
TEXT
100
AcDbCircle
 10
-201.8341087811633
 20
-77.56539971899053
 30
0.0
 40
0.0302300228991703
100
AcDbArc
 50
345.4259909574675
 51
72.46181126870012
  0
ARC
  5
36E
330
1F
100
AcDbEntity
  8
TEXT
100
AcDbCircle
 10
-201.8026543790942
 20
-77.63025428497335
 30
0.0
 40
0.0572899193200167
100
AcDbArc
 50
18.24878221232049
 51
92.19784172829085
  0
ARC
  5
36F
330
1F
100
AcDbEntity
  8
TEXT
100
AcDbCircle
 10
-201.7413314545955
 20
-77.61538421029077
 30
0.0
 40
0.007565223409683
100
AcDbArc
 50
156.0593073728625
 51
8.762281217120968
  0
ARC
  5
370
330
1F
100
AcDbEntity
  8
TEXT
100
AcDbCircle
 10
-201.7250098351894
 20
-77.6173796154799
 30
0.0
 40
0.0093881598348459
100
AcDbArc
 50
1.658272028068489
 51
160.4091839300757
  0
ARC
  5
371
330
1F
100
AcDbEntity
  8
TEXT
100
AcDbCircle
 10
-201.689697317381
 20
-77.59909170352381
 30
0.0
 40
0.0315731044993989
100
AcDbArc
 50
214.7934494581958
 51
299.040950787611
  0
ARC
  5
372
330
1F
100
AcDbEntity
  8
TEXT
100
AcDbCircle
 10
-201.6541932745449
 20
-77.60785938595486
 30
0.0
 40
0.0276027995687162
100
AcDbArc
 50
223.0305625061276
 51
311.2487591160724
  0
ARC
  5
373
330
1F
100
AcDbEntity
  8
TEXT
100
AcDbCircle
 10
-201.6203403844165
 20
-77.62446084980187
 30
0.0
 40
0.0161947880760839
100
AcDbArc
 50
194.8546182240441
 51
330.4510994340798
  0
ARC
  5
374
330
1F
100
AcDbEntity
  8
TEXT
100
AcDbCircle
 10
-201.5947389557989
 20
-77.67112255114985
 30
0.0
 40
0.0403522428029519
100
AcDbArc
 50
33.67851647490054
 51
106.5775508010124
  0
ARC
  5
375
330
1F
100
AcDbEntity
  8
TEXT
100
AcDbCircle
 10
-201.5496463344865
 20
-77.62507477346924
 30
0.0
 40
0.0263224776926718
100
AcDbArc
 50
244.0629515517946
 51
24.32612031264081
  0
ARC
  5
376
330
1F
100
AcDbEntity
  8
TEXT
100
AcDbCircle
 10
-201.488639567556
 20
-77.47858799646542
 30
0.0
 40
0.0685203798536295
100
AcDbArc
 50
300.6537348898141
 51
16.68245916376087
  0
ARC
  5
377
330
1F
100
AcDbEntity
  8
TEXT
100
AcDbCircle
 10
-201.621372148986
 20
-77.40536219149452
 30
0.0
 40
0.2054713507169124
100
AcDbArc
 50
344.8914411173236
 51
24.57723374821993
  0
ARC
  5
378
330
1F
100
AcDbEntity
  8
TEXT
100
AcDbCircle
 10
-201.3936189764677
 20
-77.29923884317701
 30
0.0
 40
0.0458211355824406
100
AcDbArc
 50
155.9906329013508
 51
206.8057304576936
  0
ARC
  5
379
330
1F
100
AcDbEntity
  8
TEXT
100
AcDbCircle
 10
-201.4422742519463
 20
-77.28097422076865
 30
0.0
 40
0.0068092082626793
100
AcDbArc
 50
3.193725348484568
 51
193.0548754998607
  0
ARC
  5
37A
330
1F
100
AcDbEntity
  8
TEXT
100
AcDbCircle
 10
-201.4580219403475
 20
-77.29280660405987
 30
0.0
 40
0.0137493994925429
100
AcDbArc
 50
131.5213803610223
 51
48.47861963898633
  0
ARC
  5
37B
330
1F
100
AcDbEntity
  8
TEXT
100
AcDbCircle
 10
-201.503589627074
 20
-77.26303483324861
 30
0.0
 40
0.041330488089577
100
AcDbArc
 50
331.8837666959819
 51
33.3250805932443
  0
ARC
  5
37C
330
1F
100
AcDbEntity
  8
TEXT
100
AcDbCircle
 10
-201.4782506764359
 20
-77.24287235600636
 30
0.0
 40
0.0095408677745818
100
AcDbArc
 50
15.46471151433554
 51
237.0036058083551
  0
ARC
  5
37D
330
1F
100
AcDbEntity
  8
TEXT
100
AcDbCircle
 10
-201.4964268996213
 20
-77.25690283069598
 30
0.0
 40
0.0143120079072046
100
AcDbArc
 50
124.5991194751615
 51
24.91162951380475
  0
ARC
  5
37E
330
1F
100
AcDbEntity
  8
TEXT
100
AcDbCircle
 10
-201.5373591522677
 20
-77.23015971866479
 30
0.0
 40
0.0360564353623179
100
AcDbArc
 50
335.4827230531626
 51
36.54383594003182
  0
ARC
  5
37F
330
1F
100
AcDbEntity
  8
TEXT
100
AcDbCircle
 10
-201.5830748808805
 20
-77.34244977385543
 30
0.0
 40
0.1531966367298711
100
AcDbArc
 50
60.82353397560649
 51
101.6183182656855
  0
LINE
  5
380
330
1F
100
AcDbEntity
  8
TEXT
100
AcDbLine
 10
-201.6139273192763
 20
-77.19239199648163
 30
0.0
 11
-201.6148867327559
 21
-77.22882362014414
 31
0.0
  0
ARC
  5
381
330
1F
100
AcDbEntity
  8
TEXT
100
AcDbCircle
 10
-201.6290184997334
 20
-77.22951573789828
 30
0.0
 40
0.0141487054139326
100
AcDbArc
 50
165.392244650368
 51
2.803879044206374
  0
LINE
  5
382
330
1F
100
AcDbEntity
  8
TEXT
100
AcDbLine
 10
-201.642709848845
 20
-77.22594742956042
 30
0.0
 11
-201.6446286758042
 21
-77.19814436527588
 31
0.0
  0
ARC
  5
383
330
1F
100
AcDbEntity
  8
TEXT
100
AcDbCircle
 10
-201.6570496037817
 20
-77.20436685474401
 30
0.0
 40
0.0138924017721412
100
AcDbArc
 50
26.60941129939663
 51
166.0619000058112
  0
LINE
  5
384
330
1F
100
AcDbEntity
  8
TEXT
100
AcDbLine
 10
-201.670532964934
 20
-77.20102054348648
 30
0.0
 11
-201.670532964934
 21
-77.21348398652344
 31
0.0
  0
ARC
  5
385
330
1F
100
AcDbEntity
  8
TEXT
100
AcDbCircle
 10
-201.6815307614719
 20
-77.22039539125137
 30
0.0
 40
0.012989189505186
100
AcDbArc
 50
179.1163546128549
 51
32.14670843865782
  0
LINE
  5
386
330
1F
100
AcDbEntity
  8
TEXT
100
AcDbLine
 10
-201.6945184062412
 20
-77.22019507313922
 30
0.0
 11
-201.6945184062412
 21
-77.26621396162812
 31
0.0
  0
ARC
  5
387
330
1F
100
AcDbEntity
  8
TEXT
100
AcDbCircle
 10
-201.7117950760237
 20
-77.26643558397441
 30
0.0
 40
0.0172780911919873
100
AcDbArc
 50
182.4450201076249
 51
0.7349407504797699
  0
LINE
  5
388
330
1F
100
AcDbEntity
  8
TEXT
100
AcDbLine
 10
-201.7290574375511
 20
-77.2671726794496
 30
0.0
 11
-201.7213821088506
 21
-77.20964907811829
 31
0.0
  0
ARC
  5
389
330
1F
100
AcDbEntity
  8
TEXT
100
AcDbCircle
 10
-201.73032777454
 20
-77.21092584190163
 30
0.0
 40
0.0090363189620948
100
AcDbArc
 50
8.122642540875059
 51
202.9043136183469
  0
LINE
  5
38A
330
1F
100
AcDbEntity
  8
TEXT
100
AcDbLine
 10
-201.7386516349372
 20
-77.21444271671804
 30
0.0
 11
-201.7424892888558
 21
-77.2441632413917
 31
0.0
  0
ARC
  5
38B
330
1F
100
AcDbEntity
  8
TEXT
100
AcDbCircle
 10
-201.7535225960298
 20
-77.24358025305156
 30
0.0
 40
0.0110486986835525
100
AcDbArc
 50
183.0246359049376
 51
356.9753640950624
  0
LINE
  5
38C
330
1F
100
AcDbEntity
  8
TEXT
100
AcDbLine
 10
-201.7645559032037
 20
-77.2441632413917
 30
0.0
 11
-201.7722312527674
 21
-77.2614203230284
 31
0.0
  0
LINE
  5
38D
330
1F
100
AcDbEntity
  8
TEXT
100
AcDbLine
 10
-201.2534664158966
 20
-77.44058539913504
 30
0.0
 11
-201.1724560836422
 21
-77.43742321655651
 31
0.0
  0
LINE
  5
38E
330
1F
100
AcDbEntity
  8
TEXT
100
AcDbLine
 10
-201.1110654503584
 20
-77.44058539913504
 30
0.0
 11
-201.0300551181041
 21
-77.43742321655651
 31
0.0
  0
LINE
  5
38F
330
1F
100
AcDbEntity
  8
TEXT
100
AcDbLine
 10
-201.2205559840656
 20
-77.46588289688242
 30
0.0
 11
-201.2192901950162
 21
-77.58857575167741
 31
0.0
  0
LINE
  5
390
330
1F
100
AcDbEntity
  8
TEXT
100
AcDbLine
 10
-201.1724560836422
 20
-77.43742321655651
 30
0.0
 11
-201.1711902945928
 21
-77.57655944798063
 31
0.0
  0
LINE
  5
391
330
1F
100
AcDbEntity
  8
TEXT
100
AcDbLine
 10
-201.0300551181041
 20
-77.43742321655651
 30
0.0
 11
-201.0287893290547
 21
-77.58098650853975
 31
0.0
  0
ARC
  5
392
330
1F
100
AcDbEntity
  8
TEXT
100
AcDbCircle
 10
-201.2353605159819
 20
-77.46554242658304
 30
0.0
 40
0.0148084464170029
100
AcDbArc
 50
358.6825606331185
 51
106.404935772954
  0
LINE
  5
393
330
1F
100
AcDbEntity
  8
TEXT
100
AcDbLine
 10
-201.2534664158966
 20
-77.44058539913504
 30
0.0
 11
-201.2528335318035
 21
-77.44943953262645
 31
0.0
  0
LINE
  5
394
330
1F
100
AcDbEntity
  8
TEXT
100
AcDbLine
 10
-201.2395427780798
 20
-77.45133683722435
 30
0.0
 11
-201.2528335318035
 21
-77.44943953262645
 31
0.0
  0
LINE
  5
395
330
1F
100
AcDbEntity
  8
TEXT
100
AcDbLine
 10
-201.1110654503584
 20
-77.44058539913504
 30
0.0
 11
-201.1116983344515
 21
-77.45260171520495
 31
0.0
  0
LINE
  5
396
330
1F
100
AcDbEntity
  8
TEXT
100
AcDbLine
 10
-201.1116983344515
 20
-77.45260171520495
 30
0.0
 11
-201.0889141732892
 21
-77.45386659318561
 31
0.0
  0
LINE
  5
397
330
1F
100
AcDbEntity
  8
TEXT
100
AcDbLine
 10
-201.0749905354725
 20
-77.58731087369676
 30
0.0
 11
-201.0756234195655
 21
-77.46651533587274
 31
0.0
  0
ARC
  5
398
330
1F
100
AcDbEntity
  8
TEXT
100
AcDbCircle
 10
-201.0846682347162
 20
-77.46271219088033
 30
0.0
 40
0.0098118598105851
100
AcDbArc
 50
337.1943218370273
 51
115.6412778855146
  0
ARC
  5
399
330
1F
100
AcDbEntity
  8
TEXT
100
AcDbCircle
 10
-201.1705842235858
 20
-77.58793075663286
 30
0.0
 40
0.0487102419578673
100
AcDbArc
 50
180.7587023263156
 51
270.031539090741
  0
ARC
  5
39A
330
1F
100
AcDbEntity
  8
TEXT
100
AcDbCircle
 10
-201.1513346737407
 20
-77.52650505201791
 30
0.0
 40
0.1118008886835824
100
AcDbArc
 50
260.0995263030863
 51
313.0673878832467
  0
LINE
  5
39B
330
1F
100
AcDbEntity
  8
TEXT
100
AcDbLine
 10
-201.0749905354725
 20
-77.60818131088504
 30
0.0
 11
-201.0743576305162
 21
-77.63221393065173
 31
0.0
  0
ARC
  5
39C
330
1F
100
AcDbEntity
  8
TEXT
100
AcDbCircle
 10
-201.0668737569974
 20
-77.62923564446436
 30
0.0
 40
0.0080547223080428
100
AcDbArc
 50
201.7006027724378
 51
343.0678677067624
  0
ARC
  5
39D
330
1F
100
AcDbEntity
  8
TEXT
100
AcDbCircle
 10
-200.9970687377722
 20
-77.77671372388606
 30
0.0
 40
0.1578597747775492
100
AcDbArc
 50
88.18956599987521
 51
113.1652090520224
  0
LINE
  5
39E
330
1F
100
AcDbEntity
  8
TEXT
100
AcDbLine
 10
-200.9517189845405
 20
-77.36739572450153
 30
0.0
 11
-200.9470186179095
 21
-77.61096757372719
 31
0.0
  0
LINE
  5
39F
330
1F
100
AcDbEntity
  8
TEXT
100
AcDbLine
 10
-200.9006939964963
 20
-77.33450949524808
 30
0.0
 11
-200.8993434915139
 21
-77.45596729928917
 31
0.0
  0
ARC
  5
3A0
330
1F
100
AcDbEntity
  8
TEXT
100
AcDbCircle
 10
-201.0000341997602
 20
-77.04723978184266
 30
0.0
 40
0.3039611228833958
100
AcDbArc
 50
273.5403564160214
 51
289.075801678542
  0
LINE
  5
3A1
330
1F
100
AcDbEntity
  8
TEXT
100
AcDbLine
 10
-200.9812641253588
 20
-77.35062081047084
 30
0.0
 11
-200.9799211634643
 21
-77.36538273135337
 31
0.0
  0
LINE
  5
3A2
330
1F
100
AcDbEntity
  8
TEXT
100
AcDbLine
 10
-200.9799211634643
 20
-77.36538273135337
 30
0.0
 11
-200.9517189845405
 21
-77.36739572450153
 31
0.0
  0
LINE
  5
3A3
330
1F
100
AcDbEntity
  8
TEXT
100
AcDbLine
 10
-200.8986720314297
 20
-77.48079418591245
 30
0.0
 11
-200.8980005504825
 21
-77.59620564047151
 31
0.0
  0
ARC
  5
3A4
330
1F
100
AcDbEntity
  8
TEXT
100
AcDbCircle
 10
-200.8202886255715
 20
-77.56044932706005
 30
0.0
 40
0.1310197159067905
100
AcDbArc
 50
71.07988584761956
 51
127.1124618564865
  0
ARC
  5
3A5
330
1F
100
AcDbEntity
  8
TEXT
100
AcDbCircle
 10
-200.8201922652283
 20
-77.51749138637895
 30
0.0
 40
0.0914050240857897
100
AcDbArc
 50
359.8698564192901
 51
62.37231490188325
  0
ARC
  5
3A6
330
1F
100
AcDbEntity
  8
TEXT
100
AcDbCircle
 10
-200.8572079424336
 20
-77.50796163949928
 30
0.0
 40
0.0495715766409551
100
AcDbArc
 50
78.87075864991584
 51
146.7670066549792
  0
ARC
  5
3A7
330
1F
100
AcDbEntity
  8
TEXT
100
AcDbCircle
 10
-200.8422235151958
 20
-77.51678913679491
 30
0.0
 40
0.0577214963944842
100
AcDbArc
 50
21.58325850317309
 51
95.38396011116695
  0
ARC
  5
3A8
330
1F
100
AcDbEntity
  8
TEXT
100
AcDbCircle
 10
-200.8467482866052
 20
-77.53651734914405
 30
0.0
 40
0.0711684893102072
100
AcDbArc
 50
343.5952529167622
 51
35.13836089167873
  0
ARC
  5
3A9
330
1F
100
AcDbEntity
  8
TEXT
100
AcDbCircle
 10
-200.8697356780045
 20
-77.51313297513823
 30
0.0
 40
0.1246766276469226
100
AcDbArc
 50
231.6935697703408
 51
269.6626044169122
  0
ARC
  5
3AA
330
1F
100
AcDbEntity
  8
TEXT
100
AcDbCircle
 10
-200.8568104893848
 20
-77.49149513132619
 30
0.0
 40
0.1469485290831148
100
AcDbArc
 50
264.6664639047648
 51
308.6423664458132
  0
ARC
  5
3AB
330
1F
100
AcDbEntity
  8
TEXT
100
AcDbCircle
 10
-200.8396486452954
 20
-77.52402198387962
 30
0.0
 40
0.1110413377516112
100
AcDbArc
 50
312.208697425786
 51
3.264333629957773
  0
ARC
  5
3AC
330
1F
100
AcDbEntity
  8
TEXT
100
AcDbCircle
 10
-201.9359828458917
 20
-76.66813767472172
 30
0.0
 40
0.016353269030189
100
AcDbArc
 50
32.9363546715887
 51
189.5430854165193
  0
ARC
  5
3AD
330
1F
100
AcDbEntity
  8
TEXT
100
AcDbCircle
 10
-201.9101641733726
 20
-76.65883845458438
 30
0.0
 40
0.0121006564813039
100
AcDbArc
 50
181.931421762249
 51
21.08009584438978
  0
ARC
  5
3AE
330
1F
100
AcDbEntity
  8
TEXT
100
AcDbCircle
 10
-201.8898636117631
 20
-76.65631683442047
 30
0.0
 40
0.0091938006682525
100
AcDbArc
 50
3.320051391017444
 51
168.5145862198264
  0
ARC
  5
3AF
330
1F
100
AcDbEntity
  8
TEXT
100
AcDbCircle
 10
-201.8703165392715
 20
-76.66138818321505
 30
0.0
 40
0.0117861143240782
100
AcDbArc
 50
151.6108765070434
 51
6.217261201770576
  0
ARC
  5
3B0
330
1F
100
AcDbEntity
  8
TEXT
100
AcDbCircle
 10
-201.8492550856193
 20
-76.65961321722867
 30
0.0
 40
0.009357950089515
100
AcDbArc
 50
7.567610287756384
 51
183.0538693842452
  0
ARC
  5
3B1
330
1F
100
AcDbEntity
  8
TEXT
100
AcDbCircle
 10
-201.8325162945483
 20
-76.65433661837562
 30
0.0
 40
0.0084877637233739
100
AcDbArc
 50
208.4553291170978
 51
16.75507449313773
  0
ARC
  5
3B2
330
1F
100
AcDbEntity
  8
TEXT
100
AcDbCircle
 10
-201.8196272646729
 20
-76.66030206140425
 30
0.0
 40
0.0096664249990678
100
AcDbArc
 50
340.2175703033623
 51
119.511112702139
  0
ARC
  5
3B3
330
1F
100
AcDbEntity
  8
TEXT
100
AcDbCircle
 10
-201.7966145435711
 20
-76.66362497432665
 30
0.0
 40
0.0139168586366907
100
AcDbArc
 50
179.7887253899368
 51
338.3185482084493
  0
ARC
  5
3B4
330
1F
100
AcDbEntity
  8
TEXT
100
AcDbCircle
 10
-201.7646978193716
 20
-76.67798936025445
 30
0.0
 40
0.0211061734724976
100
AcDbArc
 50
51.76909225769996
 51
154.0890012254439
  0
ARC
  5
3B5
330
1F
100
AcDbEntity
  8
TEXT
100
AcDbCircle
 10
-201.7378886833664
 20
-76.65854619124587
 30
0.0
 40
0.0140430595697389
100
AcDbArc
 50
191.7667831442123
 51
294.1224948725133
  0
ARC
  5
3B6
330
1F
100
AcDbEntity
  8
TEXT
100
AcDbCircle
 10
-201.7214445109112
 20
-76.6679002419786
 30
0.0
 40
0.0112510316685463
100
AcDbArc
 50
13.3384122638161
 51
197.9246330182941
  0
ARC
  5
3B7
330
1F
100
AcDbEntity
  8
TEXT
100
AcDbCircle
 10
-201.6985717950184
 20
-76.66466406389315
 30
0.0
 40
0.0119423776840691
100
AcDbArc
 50
183.0745908828774
 51
5.238726745824315
  0
ARC
  5
3B8
330
1F
100
AcDbEntity
  8
TEXT
100
AcDbCircle
 10
-201.6759901761191
 20
-76.66199907175502
 30
0.0
 40
0.0108044770373722
100
AcDbArc
 50
305.0065695458967
 51
188.3798152009865
  0
ARC
  5
3B9
330
1F
100
AcDbEntity
  8
TEXT
100
AcDbCircle
 10
-201.9166565209514
 20
-77.70758109221531
 30
0.0
 40
0.016959947575907
100
AcDbArc
 50
225.9317407159997
 51
327.3216812937231
  0
ARC
  5
3BA
330
1F
100
AcDbEntity
  8
TEXT
100
AcDbCircle
 10
-201.7208721981164
 20
-77.75787335750186
 30
0.0
 40
0.014703238677569
100
AcDbArc
 50
167.7181143692779
 51
23.98551077365442
  0
ARC
  5
3BB
330
1F
100
AcDbEntity
  8
TEXT
100
AcDbCircle
 10
-201.6492151479497
 20
-77.7398100288252
 30
0.0
 40
0.0178251484139167
100
AcDbArc
 50
170.7272794785981
 51
21.1579410394863
  0
LINE
  5
3BC
330
1F
100
AcDbEntity
  8
TEXT
100
AcDbLine
 10
-201.6325916104947
 20
-77.73337621825476
 30
0.0
 11
-201.6340172739731
 21
-77.70702056002511
 31
0.0
  0
LINE
  5
3BD
330
1F
100
AcDbEntity
  8
TEXT
100
AcDbLine
 10
-201.5962373587001
 20
-77.71129444151981
 30
0.0
 11
-201.5891090621712
 21
-77.74833483441901
 31
0.0
  0
ARC
  5
3BE
330
1F
100
AcDbEntity
  8
TEXT
100
AcDbCircle
 10
-201.5803497532083
 20
-77.75008873932964
 30
0.0
 40
0.0089331783784337
100
AcDbArc
 50
168.6772178130471
 51
20.84321825743706
  0
LINE
  5
3BF
330
1F
100
AcDbEntity
  8
TEXT
100
AcDbLine
 10
-201.5720011838827
 20
-77.74691020725409
 30
0.0
 11
-201.5720011838827
 21
-77.72197917618931
 31
0.0
  0
ARC
  5
3C0
330
1F
100
AcDbEntity
  8
TEXT
100
AcDbCircle
 10
-201.56060110317
 20
-77.72310288893618
 30
0.0
 40
0.0114553293533812
100
AcDbArc
 50
354.9255052590734
 51
174.3705062402905
  0
LINE
  5
3C1
330
1F
100
AcDbEntity
  8
TEXT
100
AcDbLine
 10
-201.5491906725436
 20
-77.72411612312324
 30
0.0
 11
-201.5463393664499
 21
-77.79392300268077
 31
0.0
  0
ARC
  5
3C2
330
1F
100
AcDbEntity
  8
TEXT
100
AcDbCircle
 10
-201.5321122148533
 20
-77.79246197208101
 30
0.0
 40
0.0143019737438009
100
AcDbArc
 50
185.8633287467241
 51
2.70882780951028
  0
LINE
  5
3C3
330
1F
100
AcDbEntity
  8
TEXT
100
AcDbLine
 10
-201.5178262220604
 20
-77.79178605574681
 30
0.0
 11
-201.5235288342478
 21
-77.73408852565065
 31
0.0
  0
LINE
  5
3C4
330
1F
100
AcDbEntity
  8
TEXT
100
AcDbLine
 10
-201.5235288342478
 20
-77.73408852565065
 30
0.0
 11
-201.5171133903213
 21
-77.74904714181491
 31
0.0
  0
ARC
  5
3C5
330
1F
100
AcDbEntity
  8
TEXT
100
AcDbCircle
 10
-201.5077327184406
 20
-77.74390992267304
 30
0.0
 40
0.0106952337724075
100
AcDbArc
 50
208.7068196476631
 51
351.5282258973491
  0
LINE
  5
3C6
330
1F
100
AcDbEntity
  8
TEXT
100
AcDbLine
 10
-201.4971541850759
 20
-77.74548556771612
 30
0.0
 11
-201.4978670168152
 21
-77.73480084541967
 31
0.0
  0
ARC
  5
3C7
330
1F
100
AcDbEntity
  8
TEXT
100
AcDbCircle
 10
-201.4834744055884
 20
-77.73888330491235
 30
0.0
 40
0.0149604055236787
100
AcDbArc
 50
7.472141028409409
 51
164.164029329166
  0
LINE
  5
3C8
330
1F
100
AcDbEntity
  8
TEXT
100
AcDbLine
 10
-201.4686410406865
 20
-77.73693779235355
 30
0.0
 11
-201.4615127650206
 21
-77.79605993724152
 31
0.0
  0
ARC
  5
3C9
330
1F
100
AcDbEntity
  8
TEXT
100
AcDbCircle
 10
-201.4476038502917
 20
-77.79962036751263
 30
0.0
 40
0.0143573873893823
100
AcDbArc
 50
165.6416373020935
 51
23.37981978602113
  0
LINE
  5
3CA
330
1F
100
AcDbEntity
  8
TEXT
100
AcDbLine
 10
-201.4344252841095
 20
-77.79392300268077
 30
0.0
 11
-201.4365921532307
 21
-77.74097844078164
 31
0.0
  0
ARC
  5
3CB
330
1F
100
AcDbEntity
  8
TEXT
100
AcDbCircle
 10
-201.4325199393153
 20
-77.73658554931387
 30
0.0
 40
0.0059900268464165
100
AcDbArc
 50
60.02231951668158
 51
227.1694577924201
  0
LINE
  5
3CC
330
1F
100
AcDbEntity
  8
TEXT
100
AcDbLine
 10
-201.429526946911
 20
-77.73139686758447
 30
0.0
 11
-201.4050733987834
 21
-77.73513220959779
 31
0.0
  0
ARC
  5
3CD
330
1F
100
AcDbEntity
  8
TEXT
100
AcDbCircle
 10
-201.4069305824009
 20
-77.74581590822895
 30
0.0
 40
0.0108439175315524
100
AcDbArc
 50
327.1504341221703
 51
80.13862259361689
  0
LINE
  5
3CE
330
1F
100
AcDbEntity
  8
TEXT
100
AcDbLine
 10
-201.3978206326154
 20
-77.75169803049357
 30
0.0
 11
-201.3941942390998
 21
-77.85471680381448
 31
0.0
  0
LINE
  5
3CF
330
1F
100
AcDbEntity
  8
TEXT
100
AcDbLine
 10
-201.3636289729935
 20
-77.85264606537606
 30
0.0
 11
-201.3631109197573
 21
-77.74807425678597
 31
0.0
  0
ARC
  5
3D0
330
1F
100
AcDbEntity
  8
TEXT
100
AcDbCircle
 10
-201.3549570404185
 20
-77.74734920941728
 30
0.0
 40
0.0081860516708901
100
AcDbArc
 50
32.94435831946177
 51
185.0814072168599
  0
ARC
  5
3D1
330
1F
100
AcDbEntity
  8
TEXT
100
AcDbCircle
 10
-201.3315366303817
 20
-77.72747028143601
 30
0.0
 40
0.0226256974773698
100
AcDbArc
 50
222.9877626572325
 51
344.3358851615574
  0
ARC
  5
3D2
330
1F
100
AcDbEntity
  8
TEXT
100
AcDbCircle
 10
-201.3629839304675
 20
-77.70793874267281
 30
0.0
 40
0.0097384700533625
100
AcDbArc
 50
193.9319034609808
 51
333.0378283509296
  0
ARC
  5
3D3
330
1F
100
AcDbEntity
  8
TEXT
100
AcDbCircle
 10
-201.3808108330917
 20
-77.71987567690235
 30
0.0
 40
0.0127338055872493
100
AcDbArc
 50
48.87596376793599
 51
143.7953529790059
  0
ARC
  5
3D4
330
1F
100
AcDbEntity
  8
TEXT
100
AcDbCircle
 10
-201.4051524292939
 20
-77.69953505856905
 30
0.0
 40
0.0190314818523916
100
AcDbArc
 50
218.2556843178661
 51
317.6564247238852
  0
ARC
  5
3D5
330
1F
100
AcDbEntity
  8
TEXT
100
AcDbCircle
 10
-201.3787907684627
 20
-77.85546506541813
 30
0.0
 40
0.0154216342549388
100
AcDbArc
 50
177.2189023070876
 51
10.53261226457933
  0
LWPOLYLINE
  5
3D6
330
1F
100
AcDbEntity
  8
BORDER
100
AcDbPolyline
 90
        4
 70
     1
 43
0.0
 10
-233.9314122767865
 20
-29.92787003376487
 10
-195.9327896484284
 20
-29.92787003376487
 10
-195.9327896484284
 20
-79.92787003376486
 10
-233.9314122767865
 20
-79.92787003376486
  0
TEXT
  5
3D7
330
1F
100
AcDbEntity
  8
TEXT
100
AcDbText
 10
-209.1833740490947
 20
-79.74037003376486
 30
0.0
 40
0.125
  1
ICE QUBE, INC.
 72
     1
 11
-208.4437907157613
 21
-79.67787003376486
 31
0.0
100
AcDbText
 73
     2
  0
TEXT
  5
3D8
330
1F
100
AcDbEntity
  8
TEXT
100
AcDbText
 10
-210.5687907157613
 20
-79.55287003376486
 30
0.0
 40
0.125
  1
OR ALTERED WITHOUT AUTHORIZATION OF
 72
     1
 11
-208.4437907157613
 21
-79.49037003376486
 31
0.0
100
AcDbText
 73
     2
  0
TEXT
  5
3D9
330
1F
100
AcDbEntity
  8
TEXT
100
AcDbText
 10
-210.6625407157613
 20
-79.36537003376486
 30
0.0
 40
0.125
  1
QUBE, INC. AND IS NOT TO BE DUPLICATED
 72
     1
 11
-208.4437907157613
 21
-79.30287003376486
 31
0.0
100
AcDbText
 73
     2
  0
TEXT
  5
3DA
330
1F
100
AcDbEntity
  8
TEXT
100
AcDbText
 10
-210.5479573824279
 20
-79.17787003376486
 30
0.0
 40
0.125
  1
THIS DRAWING IS THE PROPERTY OF ICE
 72
     1
 11
-208.4437907157613
 21
-79.11537003376486
 31
0.0
100
AcDbText
 73
     2
  0
TEXT
  5
3DB
330
1F
100
AcDbEntity
  8
TEXT
100
AcDbText
 10
-210.735457382428
 20
-78.92787003376486
 30
0.0
 40
0.25
  1
PROPRIETARY DRAWING
 72
     1
 11
-208.4437907157613
 21
-78.80287003376486
 31
0.0
100
AcDbText
 73
     2
  0
LINE
  5
3DC
330
1F
100
AcDbEntity
  8
BORDER
100
AcDbLine
 10
-205.9049934998122
 20
-79.92787003376486
 30
0.0
 11
-210.9825879317104
 21
-79.92787003376486
 31
0.0
  0
LINE
  5
3DD
330
1F
100
AcDbEntity
  8
BORDER
100
AcDbLine
 10
-205.9049934998122
 20
-78.38296027508192
 30
0.0
 11
-210.9350937421365
 21
-78.38296027508192
 31
0.0
  0
LINE
  5
3DE
330
1F
100
AcDbEntity
  8
BORDER
100
AcDbLine
 10
-210.9350937421365
 20
-78.38296027508192
 30
0.0
 11
-210.9350937421365
 21
-79.92787003376486
 31
0.0
  0
LINE
  5
3DF
330
1F
100
AcDbEntity
  8
BORDER
100
AcDbLine
 10
-205.9049934998122
 20
-79.92787003376486
 30
0.0
 11
-205.9049934998122
 21
-78.38296027508192
 31
0.0
  0
TEXT
  5
3E0
330
1F
100
AcDbEntity
  8
TEXT
100
AcDbText
 10
-200.0595165741204
 20
-78.77740653228477
 30
0.0
 40
0.1875
  1
480-400VAC
 72
     1
 11
-199.1688915741204
 21
-78.68365653228477
 31
0.0
100
AcDbText
 73
     2
  0
TEXT
  5
3E1
330
1F
100
AcDbEntity
  8
TEXT
100
AcDbText
 10
-201.9608386058763
 20
-78.44497380808667
 30
0.0
 40
0.5
  1
IQ20/2400VXS
 72
     1
 11
-199.1691719392096
 21
-78.19497380808667
 31
0.0
100
AcDbText
 73
     2
  0
TEXT
  5
40C
330
1F
100
AcDbEntity
  8
DIMENSION
100
AcDbText
 10
-221.7654342959408
 20
-34.16589281030729
 30
0.0
 40
1.0
  1
CUTOUT DRAWING
 72
     1
 11
-214.9321009626075
 21
-33.66589281030729
 31
0.0
100
AcDbText
 73
     2
  0
TEXT
  5
40E
330
1F
100
AcDbEntity
  8
DIMENSION
100
AcDbText
 10
-219.7654342959408
 20
-32.83799048913945
 30
0.0
 40
1.0
  1
480-400VAC
 72
     1
 11
-215.0154342959408
 21
-32.33799048913944
 31
0.0
100
AcDbText
 73
     2
  0
DIMENSION
  5
791
330
1F
100
AcDbEntity
  8
DIMENSION
100
AcDbDimension
  2
*D71
 10
-219.9321009626078
 20
-71.21110347416518
 30
0.0
 11
-224.2721009626078
 21
-71.21110347416518
 31
0.0
 70
    38
  1
0.000
 71
     5
 42
0.0
  3
Standard
100
AcDbOrdinateDimension
 13
-219.9321009626078
 23
-71.21110347416518
 33
0.0
 14
-222.9321009626078
 24
-71.21110347416518
 34
0.0
  0
MTEXT
  5
792
102
{ACAD_REACTORS
330
793
102
}
330
1F
100
AcDbEntity
  8
DIMENSION
100
AcDbMText
 10
-206.5571009626077
 20
-48.93110347416484
 30
0.0
 40
0.75
 41
0.0
 71
     1
 72
     1
  1
%%C0.375 (4)
 73
     1
 44
1.0
1001
ACAD
1000
MTEXTBEGIN
1070
    73
1070
     1
1070
    44
1040
1.0
1070
    74
1070
     0
1000
MTEXTEND
  0
LEADER
  5
793
330
1F
100
AcDbEntity
  8
DIMENSION
100
AcDbLeader
  3
Standard
 73
     0
 40
0.75
 41
6.25
 76
     3
 10
-210.2507380138834
 20
-48.02235967326436
 30
0.0
 10
-208.4321009626076
 20
-49.30610347416486
 30
0.0
 10
-206.9321009626077
 20
-49.30610347416486
 30
0.0
213
0.0
223
-0.375
233
0.0
1001
ACAD
1000
DSTYLE
1002
{
1070
   147
1040
0.375
1070
    77
1070
     0
1002
}
  0
DIMENSION
  5
794
330
1F
100
AcDbEntity
  8
DIMENSION
100
AcDbDimension
  2
*D72
 10
-219.9321009626078
 20
-71.21110347416518
 30
0.0
 11
-210.5571009626078
 21
-37.34110347416498
 31
0.0
 70
   102
  1
<> (2)
 71
     5
 42
9.374999999999973
  3
Standard
100
AcDbOrdinateDimension
 13
-210.5571009626078
 23
-47.80610347416486
 33
0.0
 14
-210.5571009626078
 24
-40.18110347416494
 34
0.0
  0
DIMENSION
  5
795
330
1F
100
AcDbEntity
  8
DIMENSION
100
AcDbDimension
  2
*D73
 10
-219.9321009626078
 20
-71.21110347416518
 30
0.0
 11
-213.9541009626077
 21
-38.59110347416498
 31
0.0
 70
   102
 71
     5
 42
5.978000000000093
  3
Standard
100
AcDbOrdinateDimension
 13
-213.9541009626077
 23
-45.33835347416484
 33
0.0
 14
-213.9541009626077
 24
-40.18110347416494
 34
0.0
  0
DIMENSION
  5
796
330
1F
100
AcDbEntity
  8
DIMENSION
100
AcDbDimension
  2
*D74
 10
-219.9321009626078
 20
-71.21110347416518
 30
0.0
 11
-218.4041009626076
 21
-38.71610347416498
 31
0.0
 70
   102
 71
     5
 42
1.528000000000103
  3
Standard
100
AcDbOrdinateDimension
 13
-218.4041009626076
 23
-45.33835347416484
 33
0.0
 14
-218.4041009626076
 24
-40.18110347416494
 34
0.0
  0
DIMENSION
  5
797
330
1F
100
AcDbEntity
  8
DIMENSION
100
AcDbDimension
  2
*D75
 10
-219.9321009626078
 20
-71.21110347416518
 30
0.0
 11
-219.4041009626078
 21
-37.40360347416498
 31
0.0
 70
   102
  1
<> (2)
 71
     5
 42
0.6249999999999716
  3
Standard
100
AcDbOrdinateDimension
 13
-219.3071009626078
 23
-47.80610347416495
 33
0.0
 14
-219.4041009626078
 24
-40.18110347416494
 34
0.0
  0
DIMENSION
  5
798
330
1F
100
AcDbEntity
  8
DIMENSION
100
AcDbDimension
  2
*D76
 10
-219.9321009626078
 20
-71.21110347416518
 30
0.0
 11
-224.8971009626078
 21
-45.33835347416484
 31
0.0
 70
    38
 71
     5
 42
25.87275000000032
  3
Standard
100
AcDbOrdinateDimension
 13
-218.4041009626076
 23
-45.33835347416484
 33
0.0
 14
-222.9321009626078
 24
-45.33835347416484
 34
0.0
  0
DIMENSION
  5
799
330
1F
100
AcDbEntity
  8
DIMENSION
100
AcDbDimension
  2
*D77
 10
-219.9321009626078
 20
-71.21110347416518
 30
0.0
 11
-205.0296009626077
 21
-47.80610347416486
 31
0.0
 70
    38
 71
     5
 42
23.40500000000033
  3
Standard
100
AcDbOrdinateDimension
 13
-210.5571009626078
 23
-47.80610347416486
 33
0.0
 14
-206.9321009626077
 24
-47.80610347416486
 34
0.0
  0
DIMENSION
  5
79A
330
1F
100
AcDbEntity
  8
DIMENSION
100
AcDbDimension
  2
*D78
 10
-219.9321009626078
 20
-71.21110347416518
 30
0.0
 11
-224.8346009626078
 21
-48.17585347416486
 31
0.0
 70
    38
 71
     5
 42
23.03525000000033
  3
Standard
100
AcDbOrdinateDimension
 13
-218.4041009626076
 23
-48.17585347416486
 33
0.0
 14
-222.9321009626078
 24
-48.17585347416486
 34
0.0
  0
DIMENSION
  5
79B
330
1F
100
AcDbEntity
  8
DIMENSION
100
AcDbDimension
  2
*D79
 10
-219.9321009626078
 20
-71.21110347416518
 30
0.0
 11
-205.1546009626077
 21
-60.52810347416476
 31
0.0
 70
    38
 71
     5
 42
10.68300000000042
  3
Standard
100
AcDbOrdinateDimension
 13
-210.8071009626078
 23
-60.52810347416476
 33
0.0
 14
-206.9321009626077
 24
-60.52810347416476
 34
0.0
  0
DIMENSION
  5
79C
330
1F
100
AcDbEntity
  8
DIMENSION
100
AcDbDimension
  2
*D80
 10
-219.9321009626078
 20
-71.21110347416518
 30
0.0
 11
-205.0921009626077
 21
-58.27810347416477
 31
0.0
 70
    38
 71
     5
 42
12.93300000000042
  3
Standard
100
AcDbOrdinateDimension
 13
-210.8071009626078
 23
-58.27810347416477
 33
0.0
 14
-206.9321009626077
 24
-58.27810347416477
 34
0.0
  0
DIMENSION
  5
79D
330
1F
100
AcDbEntity
  8
DIMENSION
100
AcDbDimension
  2
*D81
 10
-219.9321009626078
 20
-71.21110347416518
 30
0.0
 11
-224.4596009626078
 21
-61.80610347416497
 31
0.0
 70
    38
 71
     5
 42
9.405000000000226
  3
Standard
100
AcDbOrdinateDimension
 13
-219.3071009626078
 23
-61.80610347416497
 33
0.0
 14
-222.9321009626078
 24
-61.80610347416497
 34
0.0
  0
DIMENSION
  5
79E
330
1F
100
AcDbEntity
  8
DIMENSION
100
AcDbDimension
  2
*D82
 10
-219.9321009626078
 20
-71.21110347416518
 30
0.0
 11
-211.9321009626077
 21
-65.47414651984242
 31
0.0
 70
   102
 71
     5
 42
9.124999999999973
  3
Standard
100
AcDbOrdinateDimension
 13
-210.8071009626078
 23
-60.52810347416476
 33
0.0
 14
-211.9321009626077
 24
-64.00914651984239
 34
0.0
  0
DIMENSION
  5
79F
330
1F
100
AcDbEntity
  8
DIMENSION
100
AcDbDimension
  2
*D83
 10
-219.9321009626078
 20
-71.21110347416518
 30
0.0
 11
-209.198155177062
 21
-76.27079309874513
 31
0.0
 70
   230
 71
     5
 42
10.00000000000023
  3
Standard
100
AcDbOrdinateDimension
 13
-209.9321009626076
 23
-71.21110347416514
 33
0.0
 14
-209.198155177062
 24
-74.6807930987451
 34
0.0
  0
DIMENSION
  5
7A0
330
1F
100
AcDbEntity
  8
DIMENSION
100
AcDbDimension
  2
*D84
 10
-219.9321009626078
 20
-71.21110347416518
 30
0.0
 11
-217.9321009626077
 21
-65.53083261309634
 31
0.0
 70
   102
 71
     5
 42
0.8750000000003126
  3
Standard
100
AcDbOrdinateDimension
 13
-219.0571009626074
 23
-60.52810347416476
 33
0.0
 14
-217.9321009626078
 24
-64.00333261309629
 34
0.0
  0
DIMENSION
  5
7A1
330
1F
100
AcDbEntity
  8
DIMENSION
100
AcDbDimension
  2
*D85
 10
-219.9321009626078
 20
-71.21110347416518
 30
0.0
 11
-219.9321009626078
 21
-76.20378500326035
 31
0.0
 70
   230
 71
     5
 42
0.0
  3
Standard
100
AcDbOrdinateDimension
 13
-219.9321009626078
 23
-71.21110347416518
 33
0.0
 14
-219.9321009626078
 24
-74.86378500326032
 34
0.0
  0
CIRCLE
  5
7A2
330
1F
100
AcDbEntity
  8
TEMPLATE
100
AcDbCircle
 10
-210.5571009626078
 20
-47.80610347416486
 30
0.0
 40
0.1875
  0
LINE
  5
7A3
330
1F
100
AcDbEntity
  8
TEMPLATE
100
AcDbLine
 10
-213.9541009626077
 20
-45.33835347416484
 30
0.0
 11
-213.9541009626077
 21
-48.17585347416486
 31
0.0
  0
CIRCLE
  5
7A4
330
1F
100
AcDbEntity
  8
TEMPLATE
100
AcDbCircle
 10
-219.3071009626078
 20
-47.80610347416495
 30
0.0
 40
0.1875
  0
LINE
  5
7A5
330
1F
100
AcDbEntity
  8
TEMPLATE
100
AcDbLine
 10
-218.4041009626076
 20
-48.17585347416486
 30
0.0
 11
-218.4041009626076
 21
-45.33835347416484
 31
0.0
  0
LINE
  5
7A6
330
1F
100
AcDbEntity
  8
TEMPLATE
  6
DASHDOT
100
AcDbLine
 10
-209.9321009626076
 20
-43.18110347416495
 30
0.0
 11
-219.9321009626078
 21
-43.18110347416495
 31
0.0
  0
LINE
  5
7A7
330
1F
100
AcDbEntity
  8
TEMPLATE
100
AcDbLine
 10
-213.9541009626077
 20
-45.33835347416484
 30
0.0
 11
-218.4041009626076
 21
-45.33835347416484
 31
0.0
  0
LINE
  5
7A8
330
1F
100
AcDbEntity
  8
TEMPLATE
100
AcDbLine
 10
-218.4041009626076
 20
-48.17585347416486
 30
0.0
 11
-213.9541009626077
 21
-48.17585347416486
 31
0.0
  0
CIRCLE
  5
7A9
330
1F
100
AcDbEntity
  8
TEMPLATE
100
AcDbCircle
 10
-210.5571009626078
 20
-61.80610347416486
 30
0.0
 40
0.1875
  0
LINE
  5
7AA
330
1F
100
AcDbEntity
  8
TEMPLATE
100
AcDbLine
 10
-210.8071009626078
 20
-58.27810347416477
 30
0.0
 11
-210.8071009626078
 21
-60.52810347416476
 31
0.0
  0
CIRCLE
  5
7AB
330
1F
100
AcDbEntity
  8
TEMPLATE
100
AcDbCircle
 10
-219.3071009626078
 20
-61.80610347416497
 30
0.0
 40
0.1875
  0
LINE
  5
7AC
330
1F
100
AcDbEntity
  8
TEMPLATE
100
AcDbLine
 10
-219.0571009626074
 20
-60.52810347416476
 30
0.0
 11
-219.0571009626074
 21
-58.27810347416477
 31
0.0
  0
LINE
  5
7AD
330
1F
100
AcDbEntity
  8
TEMPLATE
100
AcDbLine
 10
-210.8071009626078
 20
-58.27810347416477
 30
0.0
 11
-219.0571009626074
 21
-58.27810347416477
 31
0.0
  0
LINE
  5
7AE
330
1F
100
AcDbEntity
  8
TEMPLATE
100
AcDbLine
 10
-219.0571009626074
 20
-60.52810347416476
 30
0.0
 11
-210.8071009626078
 21
-60.52810347416476
 31
0.0
  0
LINE
  5
7AF
330
1F
100
AcDbEntity
  8
TEMPLATE
  6
DASHDOT
100
AcDbLine
 10
-219.9321009626078
 20
-71.21110347416518
 30
0.0
 11
-219.9321009626078
 21
-43.18110347416495
 31
0.0
  0
LINE
  5
7B0
330
1F
100
AcDbEntity
  8
TEMPLATE
  6
DASHDOT
100
AcDbLine
 10
-209.9321009626076
 20
-43.18110347416495
 30
0.0
 11
-209.9321009626076
 21
-71.21110347416515
 31
0.0
  0
DIMENSION
  5
7B1
330
1F
100
AcDbEntity
  8
0
100
AcDbDimension
  2
*D64
 10
-219.9321009626078
 20
-71.21110347416518
 30
0.0
 11
-224.5263459280567
 21
-53.03710347416487
 31
0.0
 70
    38
 71
     5
 42
18.17400000000032
  3
Standard
100
AcDbOrdinateDimension
 13
-214.9321009626078
 23
-53.03710347416487
 33
0.0
 14
-222.8113459280567
 24
-53.03710347416487
 34
0.0
  0
DIMENSION
  5
7B2
330
1F
100
AcDbEntity
  8
0
100
AcDbDimension
  2
*D65
 10
-219.9321009626078
 20
-71.21110347416518
 30
0.0
 11
-214.9321009626078
 21
-55.87247535391431
 31
0.0
 70
   102
 71
     5
 42
4.999999999999971
  3
Standard
100
AcDbOrdinateDimension
 13
-214.9321009626078
 23
-53.03710347416487
 33
0.0
 14
-214.9321009626078
 24
-54.46997535391428
 34
0.0
  0
LINE
  5
7B3
330
1F
100
AcDbEntity
  8
0
100
AcDbLine
 10
-215.0221009626076
 20
-53.03710347416495
 30
0.0
 11
-214.8421009626078
 21
-53.03710347416487
 31
0.0
  0
LINE
  5
7B4
330
1F
100
AcDbEntity
  8
0
100
AcDbLine
 10
-214.9321009626078
 20
-53.12710347416495
 30
0.0
 11
-214.9321009626078
 21
-52.94710347416486
 31
0.0
  0
TEXT
  5
7B5
330
1F
100
AcDbEntity
  8
TEXT
100
AcDbText
 10
-416.6008200723549
 20
-81.80386508738807
 30
0.0
 40
1.0
  1
480-400VAC
 72
     1
 11
-411.8508200723549
 21
-81.30386508738807
 31
0.0
100
AcDbText
 73
     2
  0
TEXT
  5
7B6
330
1F
100
AcDbEntity
  8
TEXT
100
AcDbText
 10
-418.6841534056882
 20
-83.82473416924598
 30
0.0
 40
1.0
  1
CUTOUT DRAWING
 72
     1
 11
-411.8508200723549
 21
-83.32473416924598
 31
0.0
100
AcDbText
 73
     2
  0
TEXT
  5
7B7
330
1F
100
AcDbEntity
  8
TEXT
100
AcDbText
 10
-416.1008200723547
 20
-79.78299600553021
 30
0.0
 40
1.0
  1
IQ2400VXS
 72
     1
 11
-411.934153405688
 21
-79.28299600553021
 31
0.0
100
AcDbText
 73
     2
  0
LINE
  5
7B8
330
1F
100
AcDbEntity
  8
TEMPLATE
  6
DASHDOT
100
AcDbLine
 10
-219.9321009626077
 20
-71.21110347416518
 30
0.0
 11
-209.9321009626077
 21
-71.21110347416515
 31
0.0
  0
DIMENSION
  5
7B9
330
1F
100
AcDbEntity
  8
0
100
AcDbDimension
  2
*D66
 10
-219.9321009626077
 20
-71.21110347416518
 30
0.0
 11
-224.7721009626078
 21
-43.18110347416495
 31
0.0
 70
    38
 71
     5
 42
28.03000000000023
  3
Standard
100
AcDbOrdinateDimension
 13
-219.9321009626078
 23
-43.18110347416495
 33
0.0
 14
-222.9321009626078
 24
-43.18110347416495
 34
0.0
  0
LINE
  5
7BA
330
1F
100
AcDbEntity
  8
Washer
100
AcDbLine
 10
-210.5881009626076
 20
-70.49410347416515
 30
0.0
 11
-212.8681009626077
 21
-70.49410347416515
 31
0.0
  0
LINE
  5
7BB
330
1F
100
AcDbEntity
  8
Washer
100
AcDbLine
 10
-212.8681009626077
 20
-70.49410347416515
 30
0.0
 11
-212.8681009626077
 21
-67.36910347416515
 31
0.0
  0
LINE
  5
7BC
330
1F
100
AcDbEntity
  8
Washer
100
AcDbLine
 10
-210.5881009626076
 20
-67.36910347416515
 30
0.0
 11
-212.8681009626077
 21
-67.36910347416515
 31
0.0
  0
LINE
  5
7BD
330
1F
100
AcDbEntity
  8
Washer
100
AcDbLine
 10
-210.5881009626076
 20
-70.49410347416515
 30
0.0
 11
-210.5881009626076
 21
-67.36910347416515
 31
0.0
  0
TEXT
  5
7BE
330
1F
100
AcDbEntity
  8
TEXT
100
AcDbText
 10
-416.0884917101724
 20
-77.79655871622107
 30
0.0
 40
1.0
  1
IQ2000VXS
 72
     1
 11
-412.0051583768391
 21
-77.29655871622107
 31
0.0
100
AcDbText
 73
     2
  0
DIMENSION
  5
7BF
330
1F
100
AcDbEntity
  8
0
100
AcDbDimension
  2
*D67
 10
-219.9321009626077
 20
-71.21110347416518
 30
0.0
 11
-207.1336873847138
 21
-70.49410347416515
 31
0.0
 70
    38
 71
     5
 42
0.7170000000000414
  3
Standard
100
AcDbOrdinateDimension
 13
-210.5881009626076
 23
-70.49410347416515
 33
0.0
 14
-208.5361873847138
 24
-70.49410347416515
 34
0.0
  0
DIMENSION
  5
7C0
330
1F
100
AcDbEntity
  8
0
100
AcDbDimension
  2
*D68
 10
-219.9321009626077
 20
-71.21110347416518
 30
0.0
 11
-206.8833169752021
 21
-67.36910347416515
 31
0.0
 70
    38
 71
     5
 42
3.842000000000041
  3
Standard
100
AcDbOrdinateDimension
 13
-210.5881009626075
 23
-67.36910347416515
 33
0.0
 14
-208.473316975202
 24
-67.36910347416515
 34
0.0
  0
DIMENSION
  5
7C1
330
1F
100
AcDbEntity
  8
0
100
AcDbDimension
  2
*D69
 10
-219.9321009626077
 20
-71.21110347416518
 30
0.0
 11
-210.5881009626076
 21
-75.95872868274216
 31
0.0
 70
   230
 71
     5
 42
9.344000000000107
  3
Standard
100
AcDbOrdinateDimension
 13
-210.5881009626076
 23
-70.49410347416515
 33
0.0
 14
-210.5881009626076
 24
-74.36872868274213
 34
0.0
  0
DIMENSION
  5
7C2
330
1F
100
AcDbEntity
  8
0
100
AcDbDimension
  2
*D70
 10
-219.9321009626077
 20
-71.21110347416518
 30
0.0
 11
-212.8681009626077
 21
-76.20378500326035
 31
0.0
 70
   230
 71
     5
 42
7.063999999999905
  3
Standard
100
AcDbOrdinateDimension
 13
-212.8681009626077
 23
-70.49410347416515
 33
0.0
 14
-212.8681009626077
 24
-74.67628500326032
 34
0.0
  0
LINE
  5
7C3
330
1F
100
AcDbEntity
  8
0
100
AcDbLine
 10
-219.3971009626078
 20
-47.80610347416495
 30
0.0
 11
-219.2171009626078
 21
-47.80610347416495
 31
0.0
  0
LINE
  5
7C4
330
1F
100
AcDbEntity
  8
0
100
AcDbLine
 10
-219.3071009626078
 20
-47.89610347416496
 30
0.0
 11
-219.3071009626078
 21
-47.71610347416495
 31
0.0
  0
LINE
  5
7C5
330
1F
100
AcDbEntity
  8
0
100
AcDbLine
 10
-210.6471009626078
 20
-47.80610347416486
 30
0.0
 11
-210.4671009626078
 21
-47.80610347416486
 31
0.0
  0
LINE
  5
7C6
330
1F
100
AcDbEntity
  8
0
100
AcDbLine
 10
-210.5571009626078
 20
-47.89610347416486
 30
0.0
 11
-210.5571009626078
 21
-47.71610347416484
 31
0.0
  0
LINE
  5
7C7
330
1F
100
AcDbEntity
  8
0
100
AcDbLine
 10
-210.6471009626078
 20
-61.80610347416486
 30
0.0
 11
-210.4671009626078
 21
-61.80610347416486
 31
0.0
  0
LINE
  5
7C8
330
1F
100
AcDbEntity
  8
0
100
AcDbLine
 10
-210.5571009626078
 20
-61.89610347416486
 30
0.0
 11
-210.5571009626078
 21
-61.71610347416486
 31
0.0
  0
LINE
  5
7C9
330
1F
100
AcDbEntity
  8
0
100
AcDbLine
 10
-219.3971009626078
 20
-61.80610347416497
 30
0.0
 11
-219.2171009626078
 21
-61.80610347416497
 31
0.0
  0
LINE
  5
7CA
330
1F
100
AcDbEntity
  8
0
100
AcDbLine
 10
-219.3071009626078
 20
-61.89610347416496
 30
0.0
 11
-219.3071009626078
 21
-61.71610347416495
 31
0.0
  0
CIRCLE
  5
7CB
330
1F
100
AcDbEntity
  8
0
100
AcDbCircle
 10
-214.9321009626078
 20
-53.03710347416487
 30
0.0
 40
0.625
  0
DIMENSION
  5
7CC
330
1F
100
AcDbEntity
  8
0
100
AcDbDimension
  2
*D86
 10
-215.5564518969028
 20
-53.00862697780409
 30
0.0
 11
-206.999296349734
 21
-53.3989167898515
 31
0.0
 70
   163
  1
<> (1) \POPTIONAL:\PETHERNET\PCONNECTION\PPORT
 71
     5
 42
1.249999999999914
  3
Standard
100
AcDbDiametricDimension
 15
-214.3077500283129
 25
-53.06557997052568
 35
0.0
 40
0.0
  0
TEXT
  5
A89
330
1F
100
AcDbEntity
  8
TEXT
100
AcDbText
 10
-222.1998776450833
 20
-78.62787003376483
 30
0.0
 40
0.2
  1
JJH
 72
     1
 11
-221.9332109784166
 21
-78.52787003376484
 31
0.0
100
AcDbText
 73
     2
  0
TEXT
  5
A8A
330
1F
100
AcDbEntity
  8
TEXT
100
AcDbText
 10
-224.3780789434532
 20
-78.62787003376483
 30
0.0
 40
0.2
  1
6-15-11
 72
     1
 11
-223.8114122767866
 21
-78.52787003376484
 31
0.0
100
AcDbText
 73
     2
  0
TEXT
  5
A8B
330
1F
100
AcDbEntity
  8
TEXT
100
AcDbText
 10
-232.3072456101198
 20
-78.62787003376483
 30
0.0
 40
0.2
  1
%%c 1.250 WAS %%C0.750, ADDED FUSE CUTOUT
 72
     1
 11
-228.8739122767865
 21
-78.52787003376484
 31
0.0
100
AcDbText
 73
     2
  0
TEXT
  5
A8C
330
1F
100
AcDbEntity
  8
TEXT
100
AcDbText
 10
-233.5272456101198
 20
-78.62787003376483
 30
0.0
 40
0.2
  1
1
 72
     1
 11
-233.4939122767865
 21
-78.52787003376484
 31
0.0
100
AcDbText
 73
     2
  0
LINE
  5
A8D
330
1F
100
AcDbEntity
  8
BORDER
100
AcDbLine
 10
-220.9350096800468
 20
-78.3278700337648
 30
0.0
 11
-233.9314122767865
 21
-78.3278700337648
 31
0.0
  0
ENDSEC
  0
SECTION
  2
OBJECTS
  0
DICTIONARY
  5
C
330
0
100
AcDbDictionary
281
     1
  3
ACAD_COLOR
350
73
  3
ACAD_GROUP
350
D
  3
ACAD_LAYOUT
350
1A
  3
ACAD_MATERIAL
350
72
  3
ACAD_MLINESTYLE
350
17
  3
ACAD_PLOTSETTINGS
350
19
  3
ACAD_PLOTSTYLENAME
350
E
  3
ACDBHEADERROUNDTRIPXREC
350
AD5
  3
AcDbVariableDictionary
350
66
  0
DICTIONARY
  5
139
330
2
100
AcDbDictionary
280
     1
281
     1
  3
ACAD_LAYERSTATES
360
13A
  0
DICTIONARY
  5
73
102
{ACAD_REACTORS
330
C
102
}
330
C
100
AcDbDictionary
281
     1
  0
DICTIONARY
  5
D
102
{ACAD_REACTORS
330
C
102
}
330
C
100
AcDbDictionary
281
     1
  0
DICTIONARY
  5
1A
102
{ACAD_REACTORS
330
C
102
}
330
C
100
AcDbDictionary
281
     1
  3
Layout1
350
59
  3
Layout2
350
5E
  3
Model
350
22
  0
DICTIONARY
  5
72
102
{ACAD_REACTORS
330
C
102
}
330
C
100
AcDbDictionary
281
     1
  0
DICTIONARY
  5
17
102
{ACAD_REACTORS
330
C
102
}
330
C
100
AcDbDictionary
281
     1
  3
Standard
350
18
  0
DICTIONARY
  5
19
102
{ACAD_REACTORS
330
C
102
}
330
C
100
AcDbDictionary
281
     1
  0
ACDBDICTIONARYWDFLT
  5
E
102
{ACAD_REACTORS
330
C
102
}
330
C
100
AcDbDictionary
281
     1
  3
Normal
350
F
100
AcDbDictionaryWithDefault
340
F
  0
DICTIONARY
  5
AD5
102
{ACAD_REACTORS
330
C
102
}
330
C
100
AcDbDictionary
281
     1
  3
COLORDICT
350
AD7
  3
MATERIALDICT
350
AD6
  0
DICTIONARY
  5
66
102
{ACAD_REACTORS
330
C
102
}
330
C
100
AcDbDictionary
281
     1
  3
DIMASSOC
350
67
  3
HIDETEXT
350
6B
  3
PROJECTNAME
350
673
  0
DICTIONARY
  5
13A
102
{ACAD_REACTORS
330
139
102
}
330
139
100
AcDbDictionary
281
     1
  0
LAYOUT
  5
59
102
{ACAD_XDICTIONARY
360
ADA
102
}
102
{ACAD_REACTORS
330
1A
102
}
330
1A
100
AcDbPlotSettings
  1

  2
None
  4

  6

 40
0.0
 41
0.0
 42
0.0
 43
0.0
 44
0.0
 45
0.0
 46
0.0
 47
0.0
 48
0.0
 49
0.0
140
0.0
141
0.0
142
1.0
143
1.0
 70
   688
 72
     0
 73
     0
 74
     5
  7

 75
    16
147
1.0
148
0.0
149
0.0
100
AcDbLayout
  1
Layout1
 70
     1
 71
     1
 10
0.0
 20
0.0
 11
12.0
 21
9.0
 12
0.0
 22
0.0
 32
0.0
 14
0.0
 24
0.0
 34
0.0
 15
0.0
 25
0.0
 35
0.0
146
0.0
 13
0.0
 23
0.0
 33
0.0
 16
1.0
 26
0.0
 36
0.0
 17
0.0
 27
1.0
 37
0.0
 76
     0
330
58
  0
LAYOUT
  5
5E
102
{ACAD_XDICTIONARY
360
ADC
102
}
102
{ACAD_REACTORS
330
1A
102
}
330
1A
100
AcDbPlotSettings
  1

  2
None
  4

  6

 40
0.0
 41
0.0
 42
0.0
 43
0.0
 44
0.0
 45
0.0
 46
0.0
 47
0.0
 48
0.0
 49
0.0
140
0.0
141
0.0
142
1.0
143
1.0
 70
   688
 72
     0
 73
     0
 74
     5
  7

 75
    16
147
1.0
148
0.0
149
0.0
100
AcDbLayout
  1
Layout2
 70
     1
 71
     2
 10
0.0
 20
0.0
 11
12.0
 21
9.0
 12
0.0
 22
0.0
 32
0.0
 14
0.0
 24
0.0
 34
0.0
 15
0.0
 25
0.0
 35
0.0
146
0.0
 13
0.0
 23
0.0
 33
0.0
 16
1.0
 26
0.0
 36
0.0
 17
0.0
 27
1.0
 37
0.0
 76
     0
330
5D
  0
LAYOUT
  5
22
102
{ACAD_XDICTIONARY
360
AD8
102
}
102
{ACAD_REACTORS
330
1A
102
}
330
1A
100
AcDbPlotSettings
  1

  2
none_device
  4
ANSI_A_(8.50_x_11.00_Inches)
  6

 40
6.349999904632567
 41
19.04999923706055
 42
6.350006103515625
 43
19.04998779296875
 44
215.8999938964844
 45
279.3999938964844
 46
0.0
 47
0.0
 48
0.0
 49
0.0
140
0.0
141
0.0
142
1.0
143
2.584895464708373
 70
 11952
 72
     0
 73
     1
 74
     0
  7

 75
     0
147
0.3868628397755418
148
0.0
149
0.0
100
AcDbLayout
  1
Model
 70
     1
 71
     0
 10
0.0
 20
0.0
 11
12.0
 21
9.0
 12
0.0
 22
0.0
 32
0.0
 14
0.0
 24
0.0
 34
0.0
 15
0.0
 25
0.0
 35
0.0
146
0.0
 13
0.0
 23
0.0
 33
0.0
 16
1.0
 26
0.0
 36
0.0
 17
0.0
 27
1.0
 37
0.0
 76
     0
330
1F
  0
MLINESTYLE
  5
18
102
{ACAD_REACTORS
330
17
102
}
330
17
100
AcDbMlineStyle
  2
STANDARD
 70
     0
  3

 62
   256
 51
90.0
 52
90.0
 71
     2
 49
0.5
 62
   256
  6
BYLAYER
 49
-0.5
 62
   256
  6
BYLAYER
  0
ACDBPLACEHOLDER
  5
F
102
{ACAD_REACTORS
330
E
102
}
330
E
  0
XRECORD
  5
AD7
102
{ACAD_REACTORS
330
AD5
102
}
330
AD5
100
AcDbXrecord
280
     1
340
73
  0
XRECORD
  5
AD6
102
{ACAD_REACTORS
330
AD5
102
}
330
AD5
100
AcDbXrecord
280
     1
340
72
  0
DICTIONARYVAR
  5
67
102
{ACAD_REACTORS
330
66
102
}
330
66
100
DictionaryVariables
280
     0
  1
2
  0
DICTIONARYVAR
  5
6B
102
{ACAD_REACTORS
330
66
102
}
330
66
100
DictionaryVariables
280
     0
  1
1
  0
DICTIONARYVAR
  5
673
102
{ACAD_REACTORS
330
66
102
}
330
66
100
DictionaryVariables
280
     0
  1

  0
DICTIONARY
  5
ADA
330
59
100
AcDbDictionary
280
     1
281
     1
  3
ACAD_XREC_ROUNDTRIP
360
ADB
  0
DICTIONARY
  5
ADC
330
5E
100
AcDbDictionary
280
     1
281
     1
  3
ACAD_XREC_ROUNDTRIP
360
ADD
  0
DICTIONARY
  5
AD8
330
22
100
AcDbDictionary
280
     1
281
     1
  3
ACAD_XREC_ROUNDTRIP
360
AD9
  0
XRECORD
  5
ADB
102
{ACAD_REACTORS
330
ADA
102
}
330
ADA
100
AcDbXrecord
280
     1
102
SHADEPLOT
 70
     0
102
SHADEPLOTRESLEVEL
 70
     2
102
SHADEPLOTCUSTOMDPI
 70
   300
  0
XRECORD
  5
ADD
102
{ACAD_REACTORS
330
ADC
102
}
330
ADC
100
AcDbXrecord
280
     1
102
SHADEPLOT
 70
     0
102
SHADEPLOTRESLEVEL
 70
     2
102
SHADEPLOTCUSTOMDPI
 70
   300
  0
XRECORD
  5
AD9
102
{ACAD_REACTORS
330
AD8
102
}
330
AD8
100
AcDbXrecord
280
     1
102
SHADEPLOT
 70
     0
102
SHADEPLOTRESLEVEL
 70
     2
102
SHADEPLOTCUSTOMDPI
 70
   300
  0
ENDSEC
  0
EOF
