  0
SECTION
  2
HEADER
  9
$ACADVER
  1
AC1015
  9
$ACADMAINTVER
 70
    20
  9
$DWGCODEPAGE
  3
ANSI_1252
  9
$INSBASE
 10
0.0
 20
0.0
 30
0.0
  9
$EXTMIN
 10
560.5190163588961
 20
-239.4151335781598
 30
0.0
  9
$EXTMAX
 10
608.0172946443436
 20
-158.6048561967404
 30
0.0
  9
$LIMMIN
 10
0.0
 20
0.0
  9
$LIMMAX
 10
12.0
 20
9.0
  9
$ORTHOMODE
 70
     1
  9
$REGENMODE
 70
     1
  9
$FILLMODE
 70
     1
  9
$QTEXTMODE
 70
     0
  9
$MIRRTEXT
 70
     0
  9
$LTSCALE
 40
1.0
  9
$ATTMODE
 70
     1
  9
$TEXTSIZE
 40
1.0
  9
$TRACEWID
 40
0.05
  9
$TEXTSTYLE
  7
Standard
  9
$CLAYER
  8
THERMOSTATCVR
  9
$CELTYPE
  6
ByLayer
  9
$CECOLOR
 62
   256
  9
$CELTSCALE
 40
1.0
  9
$DISPSILH
 70
     0
  9
$DIMSCALE
 40
1.0
  9
$DIMASZ
 40
0.75
  9
$DIMEXO
 40
0.3
  9
$DIMDLI
 40
0.38
  9
$DIMRND
 40
0.0
  9
$DIMDLE
 40
0.0
  9
$DIMEXE
 40
0.18
  9
$DIMTP
 40
0.0
  9
$DIMTM
 40
0.0
  9
$DIMTXT
 40
0.75
  9
$DIMCEN
 40
0.09
  9
$DIMTSZ
 40
0.0
  9
$DIMTOL
 70
     0
  9
$DIMLIM
 70
     0
  9
$DIMTIH
 70
     1
  9
$DIMTOH
 70
     1
  9
$DIMSE1
 70
     0
  9
$DIMSE2
 70
     0
  9
$DIMTAD
 70
     0
  9
$DIMZIN
 70
     0
  9
$DIMBLK
  1

  9
$DIMASO
 70
     1
  9
$DIMSHO
 70
     1
  9
$DIMPOST
  1

  9
$DIMAPOST
  1

  9
$DIMALT
 70
     0
  9
$DIMALTD
 70
     2
  9
$DIMALTF
 40
25.4
  9
$DIMLFAC
 40
1.0
  9
$DIMTOFL
 70
     0
  9
$DIMTVP
 40
0.0
  9
$DIMTIX
 70
     0
  9
$DIMSOXD
 70
     0
  9
$DIMSAH
 70
     0
  9
$DIMBLK1
  1

  9
$DIMBLK2
  1

  9
$DIMSTYLE
  2
Standard
  9
$DIMCLRD
 70
     0
  9
$DIMCLRE
 70
     0
  9
$DIMCLRT
 70
     0
  9
$DIMTFAC
 40
1.0
  9
$DIMGAP
 40
0.09
  9
$DIMJUST
 70
     0
  9
$DIMSD1
 70
     0
  9
$DIMSD2
 70
     0
  9
$DIMTOLJ
 70
     1
  9
$DIMTZIN
 70
     0
  9
$DIMALTZ
 70
     0
  9
$DIMALTTZ
 70
     0
  9
$DIMUPT
 70
     0
  9
$DIMDEC
 70
     3
  9
$DIMTDEC
 70
     3
  9
$DIMALTU
 70
     2
  9
$DIMALTTD
 70
     2
  9
$DIMTXSTY
  7
Standard
  9
$DIMAUNIT
 70
     0
  9
$DIMADEC
 70
     0
  9
$DIMALTRND
 40
0.0
  9
$DIMAZIN
 70
     0
  9
$DIMDSEP
 70
    46
  9
$DIMATFIT
 70
     2
  9
$DIMFRAC
 70
     0
  9
$DIMLDRBLK
  1

  9
$DIMLUNIT
 70
     2
  9
$DIMLWD
 70
    -2
  9
$DIMLWE
 70
    -2
  9
$DIMTMOVE
 70
     0
  9
$LUNITS
 70
     2
  9
$LUPREC
 70
     4
  9
$SKETCHINC
 40
0.1
  9
$FILLETRAD
 40
0.0
  9
$AUNITS
 70
     0
  9
$AUPREC
 70
     0
  9
$MENU
  1
.
  9
$ELEVATION
 40
0.0
  9
$PELEVATION
 40
0.0
  9
$THICKNESS
 40
0.0
  9
$LIMCHECK
 70
     0
  9
$CHAMFERA
 40
0.0
  9
$CHAMFERB
 40
0.0
  9
$CHAMFERC
 40
0.0
  9
$CHAMFERD
 40
0.0
  9
$SKPOLY
 70
     0
  9
$TDCREATE
 40
2453634.647303958
  9
$TDUCREATE
 40
2453634.855637291
  9
$TDUPDATE
 40
2455580.414914456
  9
$TDUUPDATE
 40
2455580.623247790
  9
$TDINDWG
 40
1.8027465741
  9
$TDUSRTIMER
 40
1.8027463889
  9
$USRTIMER
 70
     1
  9
$ANGBASE
 50
0.0
  9
$ANGDIR
 70
     0
  9
$PDMODE
 70
     0
  9
$PDSIZE
 40
0.0
  9
$PLINEWID
 40
0.0
  9
$SPLFRAME
 70
     0
  9
$SPLINETYPE
 70
     6
  9
$SPLINESEGS
 70
     8
  9
$HANDSEED
  5
B8C6
  9
$SURFTAB1
 70
     6
  9
$SURFTAB2
 70
     6
  9
$SURFTYPE
 70
     6
  9
$SURFU
 70
     6
  9
$SURFV
 70
     6
  9
$UCSBASE
  2

  9
$UCSNAME
  2

  9
$UCSORG
 10
881.7440345153062
 20
-207.0019554703571
 30
0.0
  9
$UCSXDIR
 10
1.0
 20
0.0
 30
0.0
  9
$UCSYDIR
 10
0.0
 20
1.0
 30
0.0
  9
$UCSORTHOREF
  2

  9
$UCSORTHOVIEW
 70
     0
  9
$UCSORGTOP
 10
0.0
 20
0.0
 30
0.0
  9
$UCSORGBOTTOM
 10
0.0
 20
0.0
 30
0.0
  9
$UCSORGLEFT
 10
0.0
 20
0.0
 30
0.0
  9
$UCSORGRIGHT
 10
0.0
 20
0.0
 30
0.0
  9
$UCSORGFRONT
 10
0.0
 20
0.0
 30
0.0
  9
$UCSORGBACK
 10
0.0
 20
0.0
 30
0.0
  9
$PUCSBASE
  2

  9
$PUCSNAME
  2

  9
$PUCSORG
 10
0.0
 20
0.0
 30
0.0
  9
$PUCSXDIR
 10
1.0
 20
0.0
 30
0.0
  9
$PUCSYDIR
 10
0.0
 20
1.0
 30
0.0
  9
$PUCSORTHOREF
  2

  9
$PUCSORTHOVIEW
 70
     0
  9
$PUCSORGTOP
 10
0.0
 20
0.0
 30
0.0
  9
$PUCSORGBOTTOM
 10
0.0
 20
0.0
 30
0.0
  9
$PUCSORGLEFT
 10
0.0
 20
0.0
 30
0.0
  9
$PUCSORGRIGHT
 10
0.0
 20
0.0
 30
0.0
  9
$PUCSORGFRONT
 10
0.0
 20
0.0
 30
0.0
  9
$PUCSORGBACK
 10
0.0
 20
0.0
 30
0.0
  9
$USERI1
 70
     0
  9
$USERI2
 70
     0
  9
$USERI3
 70
     0
  9
$USERI4
 70
     0
  9
$USERI5
 70
     0
  9
$USERR1
 40
0.0
  9
$USERR2
 40
0.0
  9
$USERR3
 40
0.0
  9
$USERR4
 40
0.0
  9
$USERR5
 40
0.0
  9
$WORLDVIEW
 70
     1
  9
$SHADEDGE
 70
     3
  9
$SHADEDIF
 70
    70
  9
$TILEMODE
 70
     1
  9
$MAXACTVP
 70
    64
  9
$PINSBASE
 10
0.0
 20
0.0
 30
0.0
  9
$PLIMCHECK
 70
     0
  9
$PEXTMIN
 10
0.0
 20
0.0
 30
0.0
  9
$PEXTMAX
 10
0.0
 20
0.0
 30
0.0
  9
$PLIMMIN
 10
0.0
 20
0.0
  9
$PLIMMAX
 10
12.0
 20
9.0
  9
$UNITMODE
 70
     0
  9
$VISRETAIN
 70
     1
  9
$PLINEGEN
 70
     0
  9
$PSLTSCALE
 70
     1
  9
$TREEDEPTH
 70
  3020
  9
$CMLSTYLE
  2
Standard
  9
$CMLJUST
 70
     0
  9
$CMLSCALE
 40
1.0
  9
$PROXYGRAPHICS
 70
     1
  9
$MEASUREMENT
 70
     0
  9
$CELWEIGHT
370
    -1
  9
$ENDCAPS
280
     0
  9
$JOINSTYLE
280
     0
  9
$LWDISPLAY
290
     0
  9
$INSUNITS
 70
     1
  9
$HYPERLINKBASE
  1

  9
$STYLESHEET
  1
MONOCHROME.CTB
  9
$XEDIT
290
     1
  9
$CEPSNTYPE
380
     0
  9
$PSTYLEMODE
290
     1
  9
$FINGERPRINTGUID
  2
{FDEAD576-A652-11D2-9A35-0060089B3A3F}
  9
$VERSIONGUID
  2
{94F28828-D15C-4DE1-9F35-95411B22CBF4}
  9
$EXTNAMES
290
     1
  9
$PSVPSCALE
 40
0.0
  9
$OLESTARTUP
290
     0
  0
ENDSEC
  0
SECTION
  2
CLASSES
  0
CLASS
  1
ACDBDICTIONARYWDFLT
  2
AcDbDictionaryWithDefault
  3
ObjectDBX Classes
 90
        0
280
     0
281
     0
  0
CLASS
  1
ACDBPLACEHOLDER
  2
AcDbPlaceHolder
  3
ObjectDBX Classes
 90
        0
280
     0
281
     0
  0
CLASS
  1
LAYOUT
  2
AcDbLayout
  3
ObjectDBX Classes
 90
        0
280
     0
281
     0
  0
CLASS
  1
DICTIONARYVAR
  2
AcDbDictionaryVar
  3
ObjectDBX Classes
 90
        0
280
     0
281
     0
  0
CLASS
  1
DIMASSOC
  2
AcDbDimAssoc
  3
"AcDbDimAssoc|Product Desc:     AcDim ARX App For Dimension|Company:          Autodesk, Inc.|WEB Address:      www.autodesk.com"
 90
        0
280
     0
281
     0
  0
CLASS
  1
SORTENTSTABLE
  2
AcDbSortentsTable
  3
ObjectDBX Classes
 90
        0
280
     0
281
     0
  0
ENDSEC
  0
SECTION
  2
TABLES
  0
TABLE
  2
VPORT
  5
8
330
0
100
AcDbSymbolTable
 70
     4
  0
VPORT
  5
B8BB
330
8
100
AcDbSymbolTableRecord
100
AcDbViewportTableRecord
  2
*Active
 70
     0
 10
0.0
 20
0.0
 11
1.0
 21
1.0
 12
584.7418108209309
 22
-213.9316670618911
 13
0.0
 23
0.0
 14
0.5
 24
0.5
 15
0.5
 25
0.5
 16
0.0
 26
0.0
 36
1.0
 17
0.0
 27
0.0
 37
0.0
 40
31.98914549516901
 41
2.126785714285714
 42
50.0
 43
0.0
 44
0.0
 50
0.0
 51
0.0
 71
     0
 72
  1000
 73
     1
 74
     3
 75
     0
 76
     0
 77
     0
 78
     0
281
     0
 65
     1
110
881.7440345153062
120
-207.0019554703571
130
0.0
111
1.0
121
0.0
131
0.0
112
0.0
122
1.0
132
0.0
 79
     0
146
0.0
  0
ENDTAB
  0
TABLE
  2
LTYPE
  5
5
330
0
100
AcDbSymbolTable
 70
     3
  0
LTYPE
  5
14
330
5
100
AcDbSymbolTableRecord
100
AcDbLinetypeTableRecord
  2
ByBlock
 70
     0
  3

 72
    65
 73
     0
 40
0.0
  0
LTYPE
  5
15
330
5
100
AcDbSymbolTableRecord
100
AcDbLinetypeTableRecord
  2
ByLayer
 70
     0
  3

 72
    65
 73
     0
 40
0.0
  0
LTYPE
  5
16
330
5
100
AcDbSymbolTableRecord
100
AcDbLinetypeTableRecord
  2
Continuous
 70
     0
  3
Solid line
 72
    65
 73
     0
 40
0.0
  0
LTYPE
  5
93
330
5
100
AcDbSymbolTableRecord
100
AcDbLinetypeTableRecord
  2
HIDDEN
 70
     0
  3
Hidden __ __ __ __ __ __ __ __ __ __ __ __ __ _
 72
    65
 73
     2
 40
0.375
 49
0.25
 74
     0
 49
-0.125
 74
     0
  0
LTYPE
  5
2824
330
5
100
AcDbSymbolTableRecord
100
AcDbLinetypeTableRecord
  2
DASHED
 70
     0
  3
__ __ __ __ __ __ __ __ __ __ __ __ __ __ __ __
 72
    65
 73
     2
 40
0.75
 49
0.5
 74
     0
 49
-0.25
 74
     0
  0
ENDTAB
  0
TABLE
  2
LAYER
  5
2
330
0
100
AcDbSymbolTable
 70
    22
  0
LAYER
  5
10
330
2
100
AcDbSymbolTableRecord
100
AcDbLayerTableRecord
  2
0
 70
     0
 62
     7
  6
Continuous
370
    -3
390
F
  0
LAYER
  5
94
330
2
100
AcDbSymbolTableRecord
100
AcDbLayerTableRecord
  2
DIMENSION
 70
     0
 62
     7
  6
Continuous
370
    -3
390
F
  0
LAYER
  5
95
330
2
100
AcDbSymbolTableRecord
100
AcDbLayerTableRecord
  2
THERMOSTATCVR
 70
     0
 62
     7
  6
Continuous
370
    -3
390
F
  0
LAYER
  5
96
330
2
100
AcDbSymbolTableRecord
100
AcDbLayerTableRecord
  2
38VS
 70
     0
 62
     7
  6
Continuous
370
    -3
390
F
  0
LAYER
  5
97
330
2
100
AcDbSymbolTableRecord
100
AcDbLayerTableRecord
  2
TBLKCOVER
 70
     0
 62
     7
  6
Continuous
370
    -3
390
F
  0
LAYER
  5
98
330
2
100
AcDbSymbolTableRecord
100
AcDbLayerTableRecord
  2
CXJ684
 70
     0
 62
     7
  6
Continuous
370
    -3
390
F
  0
LAYER
  5
10BD
330
2
100
AcDbSymbolTableRecord
100
AcDbLayerTableRecord
  2
Defpoints
 70
     0
 62
     7
  6
Continuous
290
     0
370
    -3
390
F
  0
LAYER
  5
10BE
330
2
100
AcDbSymbolTableRecord
100
AcDbLayerTableRecord
  2
OBJ
 70
     0
 62
     7
  6
Continuous
370
    -3
390
F
  0
LAYER
  5
10BF
330
2
100
AcDbSymbolTableRecord
100
AcDbLayerTableRecord
  2
DIM
 70
     0
 62
     7
  6
Continuous
370
    -3
390
F
  0
LAYER
  5
10C0
330
2
100
AcDbSymbolTableRecord
100
AcDbLayerTableRecord
  2
TEXT
 70
     0
 62
    -7
  6
Continuous
370
    -3
390
F
  0
LAYER
  5
10C1
330
2
100
AcDbSymbolTableRecord
100
AcDbLayerTableRecord
  2
TEMPLATE
 70
     0
 62
     7
  6
Continuous
370
    -3
390
F
  0
LAYER
  5
2825
330
2
100
AcDbSymbolTableRecord
100
AcDbLayerTableRecord
  2
THERMOSTAT
 70
     0
 62
     7
  6
Continuous
370
    -3
390
F
  0
LAYER
  5
2826
330
2
100
AcDbSymbolTableRecord
100
AcDbLayerTableRecord
  2
HIDDEN
 70
     0
 62
     7
  6
HIDDEN
370
    -3
390
F
  0
LAYER
  5
2827
330
2
100
AcDbSymbolTableRecord
100
AcDbLayerTableRecord
  2
IQNIPPLE.75
 70
     0
 62
     7
  6
Continuous
370
    -3
390
F
  0
LAYER
  5
2828
330
2
100
AcDbSymbolTableRecord
100
AcDbLayerTableRecord
  2
IQNIPPLE.50
 70
     0
 62
     7
  6
Continuous
370
    -3
390
F
  0
LAYER
  5
2829
330
2
100
AcDbSymbolTableRecord
100
AcDbLayerTableRecord
  2
IQEYS452EYS453
 70
     0
 62
     7
  6
Continuous
370
    -3
390
F
  0
LAYER
  5
282A
330
2
100
AcDbSymbolTableRecord
100
AcDbLayerTableRecord
  2
IQELMFL90-75
 70
     0
 62
     7
  6
Continuous
370
    -3
390
F
  0
LAYER
  5
282B
330
2
100
AcDbSymbolTableRecord
100
AcDbLayerTableRecord
  2
IQELMFL90-50
 70
     0
 62
     7
  6
Continuous
370
    -3
390
F
  0
LAYER
  5
4247
330
2
100
AcDbSymbolTableRecord
100
AcDbLayerTableRecord
  2
cutout
 70
     0
 62
   255
  6
Continuous
370
    -3
390
F
  0
LAYER
  5
6A26
330
2
100
AcDbSymbolTableRecord
100
AcDbLayerTableRecord
  2
IQNIPPLE_75
 70
     0
 62
     7
  6
Continuous
370
    -3
390
F
  0
LAYER
  5
6A27
330
2
100
AcDbSymbolTableRecord
100
AcDbLayerTableRecord
  2
IQNIPPLE_50
 70
     0
 62
     7
  6
Continuous
370
    -3
390
F
  0
LAYER
  5
8E07
330
2
100
AcDbSymbolTableRecord
100
AcDbLayerTableRecord
  2
BORDER
 70
     0
 62
     7
  6
Continuous
370
    -3
390
F
  0
ENDTAB
  0
TABLE
  2
STYLE
  5
3
330
0
100
AcDbSymbolTable
 70
     1
  0
STYLE
  5
11
330
3
100
AcDbSymbolTableRecord
100
AcDbTextStyleTableRecord
  2
Standard
 70
     0
 40
0.0
 41
1.0
 50
0.0
 71
     0
 42
1.0
  3
txt
  4

  0
ENDTAB
  0
TABLE
  2
VIEW
  5
6
330
0
100
AcDbSymbolTable
 70
     0
  0
ENDTAB
  0
TABLE
  2
UCS
  5
7
330
0
100
AcDbSymbolTable
 70
     0
  0
ENDTAB
  0
TABLE
  2
APPID
  5
9
330
0
100
AcDbSymbolTable
 70
     1
  0
APPID
  5
12
330
9
100
AcDbSymbolTableRecord
100
AcDbRegAppTableRecord
  2
ACAD
 70
     0
  0
ENDTAB
  0
TABLE
  2
DIMSTYLE
  5
A
330
0
100
AcDbSymbolTable
 70
     1
100
AcDbDimStyleTable
 71
     1
340
27
  0
DIMSTYLE
105
27
102
{ACAD_REACTORS
330
935E
330
935D
330
935A
330
9357
330
9354
330
9351
330
934E
330
934B
330
9348
330
9345
330
9342
330
9339
330
9330
330
932D
330
932A
330
9327
330
9324
330
9321
330
931E
102
}
330
A
100
AcDbSymbolTableRecord
100
AcDbDimStyleTableRecord
  2
Standard
 70
     0
 41
0.75
 42
0.3
140
0.75
271
     3
272
     3
340
11
  0
ENDTAB
  0
TABLE
  2
BLOCK_RECORD
  5
1
330
0
100
AcDbSymbolTable
 70
    39
  0
BLOCK_RECORD
  5
1F
102
{ACAD_XDICTIONARY
360
A61C
102
}
330
1
100
AcDbSymbolTableRecord
100
AcDbBlockTableRecord
  2
*Model_Space
340
22
  0
BLOCK_RECORD
  5
58
330
1
100
AcDbSymbolTableRecord
100
AcDbBlockTableRecord
  2
*Paper_Space
340
59
  0
BLOCK_RECORD
  5
5D
330
1
100
AcDbSymbolTableRecord
100
AcDbBlockTableRecord
  2
*Paper_Space0
340
5E
  0
BLOCK_RECORD
  5
89
330
1
100
AcDbSymbolTableRecord
100
AcDbBlockTableRecord
  2
31HT
340
0
  0
BLOCK_RECORD
  5
FDE
330
1
100
AcDbSymbolTableRecord
100
AcDbBlockTableRecord
  2
*X2
340
0
  0
BLOCK_RECORD
  5
FE3
330
1
100
AcDbSymbolTableRecord
100
AcDbBlockTableRecord
  2
*X3
340
0
  0
BLOCK_RECORD
  5
9DD1
330
1
100
AcDbSymbolTableRecord
100
AcDbBlockTableRecord
  2
*D4
340
0
  0
BLOCK_RECORD
  5
9DDE
330
1
100
AcDbSymbolTableRecord
100
AcDbBlockTableRecord
  2
*D5
340
0
  0
BLOCK_RECORD
  5
9DEB
330
1
100
AcDbSymbolTableRecord
100
AcDbBlockTableRecord
  2
*D6
340
0
  0
BLOCK_RECORD
  5
9DF8
330
1
100
AcDbSymbolTableRecord
100
AcDbBlockTableRecord
  2
*D7
340
0
  0
BLOCK_RECORD
  5
9E00
330
1
100
AcDbSymbolTableRecord
100
AcDbBlockTableRecord
  2
*D8
340
0
  0
BLOCK_RECORD
  5
9E0A
330
1
100
AcDbSymbolTableRecord
100
AcDbBlockTableRecord
  2
*D9
340
0
  0
BLOCK_RECORD
  5
9E17
330
1
100
AcDbSymbolTableRecord
100
AcDbBlockTableRecord
  2
*D10
340
0
  0
BLOCK_RECORD
  5
9E24
330
1
100
AcDbSymbolTableRecord
100
AcDbBlockTableRecord
  2
*D11
340
0
  0
BLOCK_RECORD
  5
9E31
330
1
100
AcDbSymbolTableRecord
100
AcDbBlockTableRecord
  2
*D12
340
0
  0
BLOCK_RECORD
  5
9E5C
330
1
100
AcDbSymbolTableRecord
100
AcDbBlockTableRecord
  2
*D13
340
0
  0
BLOCK_RECORD
  5
9E69
330
1
100
AcDbSymbolTableRecord
100
AcDbBlockTableRecord
  2
*D14
340
0
  0
BLOCK_RECORD
  5
9E71
330
1
100
AcDbSymbolTableRecord
100
AcDbBlockTableRecord
  2
*D15
340
0
  0
BLOCK_RECORD
  5
9E7B
330
1
100
AcDbSymbolTableRecord
100
AcDbBlockTableRecord
  2
*D16
340
0
  0
BLOCK_RECORD
  5
9E85
330
1
100
AcDbSymbolTableRecord
100
AcDbBlockTableRecord
  2
*D17
340
0
  0
BLOCK_RECORD
  5
9E8F
330
1
100
AcDbSymbolTableRecord
100
AcDbBlockTableRecord
  2
*D18
340
0
  0
BLOCK_RECORD
  5
9E97
330
1
100
AcDbSymbolTableRecord
100
AcDbBlockTableRecord
  2
*D19
340
0
  0
BLOCK_RECORD
  5
9E9F
330
1
100
AcDbSymbolTableRecord
100
AcDbBlockTableRecord
  2
*D20
340
0
  0
BLOCK_RECORD
  5
9EA7
330
1
100
AcDbSymbolTableRecord
100
AcDbBlockTableRecord
  2
*D21
340
0
  0
BLOCK_RECORD
  5
9EAF
330
1
100
AcDbSymbolTableRecord
100
AcDbBlockTableRecord
  2
*D22
340
0
  0
BLOCK_RECORD
  5
9EC0
330
1
100
AcDbSymbolTableRecord
100
AcDbBlockTableRecord
  2
*D23
340
0
  0
BLOCK_RECORD
  5
9ECA
330
1
100
AcDbSymbolTableRecord
100
AcDbBlockTableRecord
  2
*D24
340
0
  0
BLOCK_RECORD
  5
9ED2
330
1
100
AcDbSymbolTableRecord
100
AcDbBlockTableRecord
  2
*D25
340
0
  0
BLOCK_RECORD
  5
9EDC
330
1
100
AcDbSymbolTableRecord
100
AcDbBlockTableRecord
  2
*D26
340
0
  0
BLOCK_RECORD
  5
9EE4
330
1
100
AcDbSymbolTableRecord
100
AcDbBlockTableRecord
  2
*D27
340
0
  0
BLOCK_RECORD
  5
9EEC
330
1
100
AcDbSymbolTableRecord
100
AcDbBlockTableRecord
  2
*D28
340
0
  0
BLOCK_RECORD
  5
9EF6
330
1
100
AcDbSymbolTableRecord
100
AcDbBlockTableRecord
  2
*D29
340
0
  0
BLOCK_RECORD
  5
9F15
330
1
100
AcDbSymbolTableRecord
100
AcDbBlockTableRecord
  2
*D30
340
0
  0
BLOCK_RECORD
  5
9F2F
330
1
100
AcDbSymbolTableRecord
100
AcDbBlockTableRecord
  2
*D31
340
0
  0
BLOCK_RECORD
  5
9F3C
330
1
100
AcDbSymbolTableRecord
100
AcDbBlockTableRecord
  2
*D32
340
0
  0
BLOCK_RECORD
  5
9F49
330
1
100
AcDbSymbolTableRecord
100
AcDbBlockTableRecord
  2
*D33
340
0
  0
BLOCK_RECORD
  5
9F56
330
1
100
AcDbSymbolTableRecord
100
AcDbBlockTableRecord
  2
*D34
340
0
  0
BLOCK_RECORD
  5
9F63
330
1
100
AcDbSymbolTableRecord
100
AcDbBlockTableRecord
  2
*D35
340
0
  0
BLOCK_RECORD
  5
B5D5
330
1
100
AcDbSymbolTableRecord
100
AcDbBlockTableRecord
  2
*D36
340
0
  0
BLOCK_RECORD
  5
B707
330
1
100
AcDbSymbolTableRecord
100
AcDbBlockTableRecord
  2
*D37
340
0
  0
ENDTAB
  0
ENDSEC
  0
SECTION
  2
BLOCKS
  0
BLOCK
  5
20
330
1F
100
AcDbEntity
  8
0
100
AcDbBlockBegin
  2
*Model_Space
 70
     0
 10
0.0
 20
0.0
 30
0.0
  3
*Model_Space
  1

  0
ENDBLK
  5
21
330
1F
100
AcDbEntity
  8
0
100
AcDbBlockEnd
  0
BLOCK
  5
5A
330
58
100
AcDbEntity
 67
     1
  8
0
100
AcDbBlockBegin
  2
*Paper_Space
 70
     0
 10
0.0
 20
0.0
 30
0.0
  3
*Paper_Space
  1

  0
ENDBLK
  5
5B
330
58
100
AcDbEntity
 67
     1
  8
0
100
AcDbBlockEnd
  0
BLOCK
  5
5F
330
5D
100
AcDbEntity
  8
0
100
AcDbBlockBegin
  2
*Paper_Space0
 70
     0
 10
0.0
 20
0.0
 30
0.0
  3
*Paper_Space0
  1

  0
ENDBLK
  5
60
330
5D
100
AcDbEntity
  8
0
100
AcDbBlockEnd
  0
BLOCK
  5
8A
330
89
100
AcDbEntity
  8
0
100
AcDbBlockBegin
  2
31HT
 70
     0
 10
0.0
 20
0.0
 30
0.0
  3
31HT
  1

  0
LINE
  5
8B
330
89
100
AcDbEntity
  8
0
100
AcDbLine
 10
0.25
 20
-0.144338
 30
0.0
 11
0.25
 21
0.144338
 31
0.0
  0
LINE
  5
8C
330
89
100
AcDbEntity
  8
0
100
AcDbLine
 10
0.25
 20
0.144338
 30
0.0
 11
0.0
 21
0.288675
 31
0.0
  0
LINE
  5
8D
330
89
100
AcDbEntity
  8
0
100
AcDbLine
 10
0.0
 20
0.288675
 30
0.0
 11
-0.25
 21
0.144338
 31
0.0
  0
LINE
  5
8E
330
89
100
AcDbEntity
  8
0
100
AcDbLine
 10
-0.25
 20
0.144338
 30
0.0
 11
-0.25
 21
-0.144338
 31
0.0
  0
LINE
  5
8F
330
89
100
AcDbEntity
  8
0
100
AcDbLine
 10
-0.25
 20
-0.144338
 30
0.0
 11
0.0
 21
-0.288675
 31
0.0
  0
LINE
  5
90
330
89
100
AcDbEntity
  8
0
100
AcDbLine
 10
0.0
 20
-0.288675
 30
0.0
 11
0.25
 21
-0.144338
 31
0.0
  0
CIRCLE
  5
91
330
89
100
AcDbEntity
  8
0
100
AcDbCircle
 10
0.0
 20
0.0
 30
0.0
 40
0.25
  0
ENDBLK
  5
92
330
89
100
AcDbEntity
  8
0
100
AcDbBlockEnd
  0
BLOCK
  5
FDF
330
FDE
100
AcDbEntity
  8
0
100
AcDbBlockBegin
  2
*X2
 70
     1
 10
0.0
 20
0.0
 30
0.0
  3
*X2
  1

  0
LINE
  5
FE0
330
FDE
100
AcDbEntity
  8
0
 62
     0
100
AcDbLine
 10
58.66851760115173
 20
-14.87058764224921
 30
0.0
 11
58.91924182298996
 21
-14.61986342041098
 31
0.0
  0
LINE
  5
FE1
330
FDE
100
AcDbEntity
  8
0
 62
     0
100
AcDbLine
 10
58.66851760115173
 20
-14.69381094695257
 30
0.0
 11
58.74246512769332
 21
-14.61986342041098
 31
0.0
  0
ENDBLK
  5
FE2
330
FDE
100
AcDbEntity
  8
0
100
AcDbBlockEnd
  0
BLOCK
  5
FE4
330
FE3
100
AcDbEntity
  8
0
100
AcDbBlockBegin
  2
*X3
 70
     1
 10
0.0
 20
0.0
 30
0.0
  3
*X3
  1

  0
LINE
  5
FE5
330
FE3
100
AcDbEntity
  8
0
 62
     0
100
AcDbLine
 10
70.46176521769962
 20
-44.61986342041098
 30
0.0
 11
70.79351760115173
 21
-44.28811103695887
 31
0.0
  0
LINE
  5
FE6
330
FE3
100
AcDbEntity
  8
0
 62
     0
100
AcDbLine
 10
70.63854191299625
 20
-44.61986342041098
 30
0.0
 11
70.79351760115173
 21
-44.46488773225548
 31
0.0
  0
LINE
  5
FE7
330
FE3
100
AcDbEntity
  8
0
 62
     0
100
AcDbLine
 10
70.79351760115173
 20
-44.64166442755213
 30
0.0
 11
70.8153186082929
 21
-44.61986342041098
 31
0.0
  0
ENDBLK
  5
FE8
330
FE3
100
AcDbEntity
  8
0
100
AcDbBlockEnd
  0
BLOCK
  5
9DDC
330
9DD1
100
AcDbEntity
  8
0
100
AcDbBlockBegin
  2
*D4
 70
     1
 10
0.0
 20
0.0
 30
0.0
  3
*D4
  1

  0
LINE
  5
B6A4
330
9DD1
100
AcDbEntity
  8
DIMENSION
 62
     0
370
    -2
100
AcDbLine
 10
598.7704078123266
 20
-73.66210014880845
 30
0.0
 11
602.0078002528215
 21
-73.66210014880845
 31
0.0
  0
LINE
  5
B6A5
330
9DD1
100
AcDbEntity
  8
DIMENSION
 62
     0
370
    -2
100
AcDbLine
 10
598.7704078123266
 20
-103.7531001488086
 30
0.0
 11
602.0078002528215
 21
-103.7531001488086
 31
0.0
  0
LINE
  5
B6A6
330
9DD1
100
AcDbEntity
  8
DIMENSION
 62
     0
370
    -2
100
AcDbLine
 10
601.8278002528217
 20
-74.41210014880843
 30
0.0
 11
601.8278002528217
 21
-88.19896598240056
 31
0.0
  0
LINE
  5
B6A7
330
9DD1
100
AcDbEntity
  8
DIMENSION
 62
     0
370
    -2
100
AcDbLine
 10
601.8278002528217
 20
-103.0031001488086
 30
0.0
 11
601.8278002528217
 21
-89.12896598240058
 31
0.0
  0
SOLID
  5
B6A8
330
9DD1
100
AcDbEntity
  8
DIMENSION
 62
     0
100
AcDbTrace
 10
601.7028002528213
 20
-74.41210014880843
 30
0.0
 11
601.9528002528216
 21
-74.41210014880843
 31
0.0
 12
601.8278002528217
 22
-73.66210014880845
 32
0.0
 13
601.8278002528217
 23
-73.66210014880845
 33
0.0
  0
SOLID
  5
B6A9
330
9DD1
100
AcDbEntity
  8
DIMENSION
 62
     0
100
AcDbTrace
 10
601.7028002528213
 20
-103.0031001488086
 30
0.0
 11
601.9528002528216
 21
-103.0031001488086
 31
0.0
 12
601.8278002528217
 22
-103.7531001488086
 32
0.0
 13
601.8278002528217
 23
-103.7531001488086
 33
0.0
  0
MTEXT
  5
B6AA
330
9DD1
100
AcDbEntity
  8
DIMENSION
 62
     0
100
AcDbMText
 10
601.8278002528217
 20
-88.66396598240049
 30
0.0
 40
0.75
 41
0.0
 71
     5
 72
     1
  1
\A1;30.091
 73
     1
 44
1.0
1001
ACAD
1000
MTEXTBEGIN
1070
    73
1070
     1
1070
    44
1040
1.0
1070
    74
1070
     0
1000
MTEXTEND
  0
POINT
  5
B6AB
330
9DD1
100
AcDbEntity
  8
Defpoints
 62
     0
100
AcDbPoint
 10
598.4704078123266
 20
-73.66210014880845
 30
0.0
  0
POINT
  5
B6AC
330
9DD1
100
AcDbEntity
  8
Defpoints
 62
     0
100
AcDbPoint
 10
598.4704078123266
 20
-103.7531001488086
 30
0.0
  0
POINT
  5
B6AD
330
9DD1
100
AcDbEntity
  8
Defpoints
 62
     0
100
AcDbPoint
 10
601.8278002528217
 20
-103.7531001488086
 30
0.0
  0
ENDBLK
  5
9DDD
330
9DD1
100
AcDbEntity
  8
0
100
AcDbBlockEnd
  0
BLOCK
  5
9DE9
330
9DDE
100
AcDbEntity
  8
0
100
AcDbBlockBegin
  2
*D5
 70
     1
 10
0.0
 20
0.0
 30
0.0
  3
*D5
  1

  0
LINE
  5
B621
330
9DDE
100
AcDbEntity
  8
DIMENSION
 62
     0
370
    -2
100
AcDbLine
 10
598.7704078123266
 20
-47.16361988795044
 30
0.0
 11
602.0426379552787
 21
-47.16361988795044
 31
0.0
  0
LINE
  5
B622
330
9DDE
100
AcDbEntity
  8
DIMENSION
 62
     0
370
    -2
100
AcDbLine
 10
598.7704078123266
 20
-55.49961988795025
 30
0.0
 11
602.0426379552787
 21
-55.49961988795025
 31
0.0
  0
LINE
  5
B623
330
9DDE
100
AcDbEntity
  8
DIMENSION
 62
     0
370
    -2
100
AcDbLine
 10
601.8626379552787
 20
-47.91361988795046
 30
0.0
 11
601.8626379552787
 21
-50.97999993242947
 31
0.0
  0
LINE
  5
B624
330
9DDE
100
AcDbEntity
  8
DIMENSION
 62
     0
370
    -2
100
AcDbLine
 10
601.8626379552787
 20
-54.74961988795024
 30
0.0
 11
601.8626379552787
 21
-51.90999993242947
 31
0.0
  0
SOLID
  5
B625
330
9DDE
100
AcDbEntity
  8
DIMENSION
 62
     0
100
AcDbTrace
 10
601.7376379552787
 20
-47.91361988795046
 30
0.0
 11
601.9876379552787
 21
-47.91361988795046
 31
0.0
 12
601.8626379552787
 22
-47.16361988795044
 32
0.0
 13
601.8626379552787
 23
-47.16361988795044
 33
0.0
  0
SOLID
  5
B626
330
9DDE
100
AcDbEntity
  8
DIMENSION
 62
     0
100
AcDbTrace
 10
601.7376379552787
 20
-54.74961988795024
 30
0.0
 11
601.9876379552787
 21
-54.74961988795024
 31
0.0
 12
601.8626379552787
 22
-55.49961988795025
 32
0.0
 13
601.8626379552787
 23
-55.49961988795025
 33
0.0
  0
MTEXT
  5
B627
330
9DDE
100
AcDbEntity
  8
DIMENSION
 62
     0
100
AcDbMText
 10
601.8626379552787
 20
-51.44499993242937
 30
0.0
 40
0.75
 41
0.0
 71
     5
 72
     1
  1
\A1;8.336
 73
     1
 44
1.0
1001
ACAD
1000
MTEXTBEGIN
1070
    73
1070
     1
1070
    44
1040
1.0
1070
    74
1070
     0
1000
MTEXTEND
  0
POINT
  5
B628
330
9DDE
100
AcDbEntity
  8
Defpoints
 62
     0
100
AcDbPoint
 10
598.4704078123266
 20
-47.16361988795044
 30
0.0
  0
POINT
  5
B629
330
9DDE
100
AcDbEntity
  8
Defpoints
 62
     0
100
AcDbPoint
 10
598.4704078123266
 20
-55.49961988795025
 30
0.0
  0
POINT
  5
B62A
330
9DDE
100
AcDbEntity
  8
Defpoints
 62
     0
100
AcDbPoint
 10
601.8626379552787
 20
-55.49961988795025
 30
0.0
  0
ENDBLK
  5
9DEA
330
9DDE
100
AcDbEntity
  8
0
100
AcDbBlockEnd
  0
BLOCK
  5
9DF6
330
9DEB
100
AcDbEntity
  8
0
100
AcDbBlockBegin
  2
*D6
 70
     1
 10
0.0
 20
0.0
 30
0.0
  3
*D6
  1

  0
LINE
  5
B7C2
330
9DEB
100
AcDbEntity
  8
DIMENSION
 62
     0
370
    -2
100
AcDbLine
 10
585.7114078123267
 20
-156.6960890984565
 30
0.0
 11
585.7114078123267
 21
-158.3703664124462
 31
0.0
  0
LINE
  5
B7C3
330
9DEB
100
AcDbEntity
  8
DIMENSION
 62
     0
370
    -2
100
AcDbLine
 10
586.2004078123267
 20
-157.2585890984565
 30
0.0
 11
586.2004078123267
 21
-158.3703664124462
 31
0.0
  0
LINE
  5
B7C4
330
9DEB
100
AcDbEntity
  8
DIMENSION
 62
     0
370
    -2
100
AcDbLine
 10
586.9504078123267
 20
-158.1903664124462
 30
0.0
 11
587.7004078123267
 21
-158.1903664124462
 31
0.0
  0
LINE
  5
B7C5
330
9DEB
100
AcDbEntity
  8
DIMENSION
 62
     0
370
    -2
100
AcDbLine
 10
584.9614078123266
 20
-158.1903664124462
 30
0.0
 11
582.6972411456599
 21
-158.1903664124462
 31
0.0
  0
SOLID
  5
B7C6
330
9DEB
100
AcDbEntity
  8
DIMENSION
 62
     0
100
AcDbTrace
 10
586.9504078123267
 20
-158.0653664124462
 30
0.0
 11
586.9504078123267
 21
-158.3153664124462
 31
0.0
 12
586.2004078123267
 22
-158.1903664124462
 32
0.0
 13
586.2004078123267
 23
-158.1903664124462
 33
0.0
  0
SOLID
  5
B7C7
330
9DEB
100
AcDbEntity
  8
DIMENSION
 62
     0
100
AcDbTrace
 10
584.9614078123266
 20
-158.0653664124462
 30
0.0
 11
584.9614078123266
 21
-158.3153664124462
 31
0.0
 12
585.7114078123267
 22
-158.1903664124462
 32
0.0
 13
585.7114078123267
 23
-158.1903664124462
 33
0.0
  0
MTEXT
  5
B7C8
330
9DEB
100
AcDbEntity
  8
DIMENSION
 62
     0
100
AcDbMText
 10
581.2947411456597
 20
-158.1903664124462
 30
0.0
 40
0.75
 41
0.0
 71
     5
 72
     1
  1
\A1;0.500
 73
     1
 44
1.0
1001
ACAD
1000
MTEXTBEGIN
1070
    73
1070
     1
1070
    44
1040
1.0
1070
    74
1070
     0
1000
MTEXTEND
  0
POINT
  5
B7C9
330
9DEB
100
AcDbEntity
  8
Defpoints
 62
     0
100
AcDbPoint
 10
585.7114078123267
 20
-156.3960890984565
 30
0.0
  0
POINT
  5
B7CA
330
9DEB
100
AcDbEntity
  8
Defpoints
 62
     0
100
AcDbPoint
 10
586.2004078123267
 20
-156.9585890984565
 30
0.0
  0
POINT
  5
B7CB
330
9DEB
100
AcDbEntity
  8
Defpoints
 62
     0
100
AcDbPoint
 10
586.2004078123267
 20
-158.1903664124462
 30
0.0
  0
ENDBLK
  5
9DF7
330
9DEB
100
AcDbEntity
  8
0
100
AcDbBlockEnd
  0
BLOCK
  5
9DFE
330
9DF8
100
AcDbEntity
  8
0
100
AcDbBlockBegin
  2
*D7
 70
     1
 10
0.0
 20
0.0
 30
0.0
  3
*D7
  1

  0
LINE
  5
B83B
330
9DF8
100
AcDbEntity
  8
DIMENSION
 62
     0
370
    -2
100
AcDbLine
 10
577.8331555016201
 20
-201.9151625016796
 30
0.0
 11
575.6934746352292
 21
-201.9151625016796
 31
0.0
  0
MTEXT
  5
B83C
330
9DF8
100
AcDbEntity
  8
DIMENSION
 62
     0
100
AcDbMText
 10
574.3534746352292
 20
-201.9151625016796
 30
0.0
 40
0.75
 41
0.0
 71
     5
 72
     1
  1
\A1;0.000
 73
     1
 44
1.0
1001
ACAD
1000
MTEXTBEGIN
1070
    73
1070
     1
1070
    44
1040
1.0
1070
    74
1070
     0
1000
MTEXTEND
  0
POINT
  5
B83D
330
9DF8
100
AcDbEntity
  8
Defpoints
 62
     0
100
AcDbPoint
 10
578.13315550162
 20
-201.9151625016796
 30
0.0
  0
POINT
  5
B83E
330
9DF8
100
AcDbEntity
  8
Defpoints
 62
     0
100
AcDbPoint
 10
575.6934746352292
 20
-201.9151625016796
 30
0.0
  0
POINT
  5
B83F
330
9DF8
100
AcDbEntity
  8
Defpoints
 62
     0
100
AcDbPoint
 10
578.13315550162
 20
-201.9151625016796
 30
0.0
  0
ENDBLK
  5
9DFF
330
9DF8
100
AcDbEntity
  8
0
100
AcDbBlockEnd
  0
BLOCK
  5
9E08
330
9E00
100
AcDbEntity
  8
0
100
AcDbBlockBegin
  2
*D8
 70
     1
 10
0.0
 20
0.0
 30
0.0
  3
*D8
  1

  0
LINE
  5
B875
330
9E00
100
AcDbEntity
  8
DIMENSION
 62
     0
370
    -2
100
AcDbLine
 10
590.0171555016201
 20
-173.6751625016796
 30
0.0
 11
590.0171555016201
 21
-172.1126167045706
 31
0.0
  0
LINE
  5
B876
330
9E00
100
AcDbEntity
  8
DIMENSION
 62
     0
370
    -2
100
AcDbLine
 10
590.0171555016201
 20
-172.1126167045706
 30
0.0
 11
588.0782385340681
 21
-170.6126167045706
 31
0.0
  0
LINE
  5
B877
330
9E00
100
AcDbEntity
  8
DIMENSION
 62
     0
370
    -2
100
AcDbLine
 10
588.0782385340681
 20
-170.6126167045706
 30
0.0
 11
588.0782385340681
 21
-169.1126167045706
 31
0.0
  0
MTEXT
  5
B878
330
9E00
100
AcDbEntity
  8
DIMENSION
 62
     0
100
AcDbMText
 10
588.0782385340681
 20
-167.3976167045705
 30
0.0
 40
0.75
 41
0.0
 71
     5
 72
     1
  1
\A1;11.884
 11
0.0000000000000001
 21
1.0
 31
0.0
 73
     1
 44
1.0
1001
ACAD
1000
MTEXTBEGIN
1070
    73
1070
     1
1070
    44
1040
1.0
1070
    74
1070
     0
1000
MTEXTEND
  0
POINT
  5
B879
330
9E00
100
AcDbEntity
  8
Defpoints
 62
     0
100
AcDbPoint
 10
590.0171555016201
 20
-173.9751625016796
 30
0.0
  0
POINT
  5
B87A
330
9E00
100
AcDbEntity
  8
Defpoints
 62
     0
100
AcDbPoint
 10
588.0782385340681
 20
-169.1126167045706
 30
0.0
  0
POINT
  5
B87B
330
9E00
100
AcDbEntity
  8
Defpoints
 62
     0
100
AcDbPoint
 10
578.13315550162
 20
-201.9151625016796
 30
0.0
  0
ENDBLK
  5
9E09
330
9E00
100
AcDbEntity
  8
0
100
AcDbBlockEnd
  0
BLOCK
  5
9E15
330
9E0A
100
AcDbEntity
  8
0
100
AcDbBlockBegin
  2
*D9
 70
     1
 10
0.0
 20
0.0
 30
0.0
  3
*D9
  1

  0
LINE
  5
B63F
330
9E0A
100
AcDbEntity
  8
DIMENSION
 62
     0
370
    -2
100
AcDbLine
 10
586.2004078123267
 20
-46.86393761854088
 30
0.0
 11
586.2004078123267
 21
-40.96117655462336
 31
0.0
  0
LINE
  5
B640
330
9E0A
100
AcDbEntity
  8
DIMENSION
 62
     0
370
    -2
100
AcDbLine
 10
598.4704078123266
 20
-46.86393761854088
 30
0.0
 11
598.4704078123266
 21
-40.96117655462336
 31
0.0
  0
LINE
  5
B641
330
9E0A
100
AcDbEntity
  8
DIMENSION
 62
     0
370
    -2
100
AcDbLine
 10
586.9504078123267
 20
-41.14117655462336
 30
0.0
 11
590.5579078123266
 21
-41.14117655462336
 31
0.0
  0
LINE
  5
B642
330
9E0A
100
AcDbEntity
  8
DIMENSION
 62
     0
370
    -2
100
AcDbLine
 10
597.7204078123267
 20
-41.14117655462336
 30
0.0
 11
594.1129078123267
 21
-41.14117655462336
 31
0.0
  0
SOLID
  5
B643
330
9E0A
100
AcDbEntity
  8
DIMENSION
 62
     0
100
AcDbTrace
 10
586.9504078123267
 20
-41.01617655462336
 30
0.0
 11
586.9504078123267
 21
-41.26617655462336
 31
0.0
 12
586.2004078123267
 22
-41.14117655462336
 32
0.0
 13
586.2004078123267
 23
-41.14117655462336
 33
0.0
  0
SOLID
  5
B644
330
9E0A
100
AcDbEntity
  8
DIMENSION
 62
     0
100
AcDbTrace
 10
597.7204078123267
 20
-41.01617655462336
 30
0.0
 11
597.7204078123267
 21
-41.26617655462336
 31
0.0
 12
598.4704078123266
 22
-41.14117655462336
 32
0.0
 13
598.4704078123266
 23
-41.14117655462336
 33
0.0
  0
MTEXT
  5
B645
330
9E0A
100
AcDbEntity
  8
DIMENSION
 62
     0
100
AcDbMText
 10
592.3354078123266
 20
-41.14117655462336
 30
0.0
 40
0.75
 41
0.0
 71
     5
 72
     1
  1
\A1;12.270
 73
     1
 44
1.0
1001
ACAD
1000
MTEXTBEGIN
1070
    73
1070
     1
1070
    44
1040
1.0
1070
    74
1070
     0
1000
MTEXTEND
  0
POINT
  5
B646
330
9E0A
100
AcDbEntity
  8
Defpoints
 62
     0
100
AcDbPoint
 10
586.2004078123267
 20
-47.1639376185409
 30
0.0
  0
POINT
  5
B647
330
9E0A
100
AcDbEntity
  8
Defpoints
 62
     0
100
AcDbPoint
 10
598.4704078123266
 20
-47.1639376185409
 30
0.0
  0
POINT
  5
B648
330
9E0A
100
AcDbEntity
  8
Defpoints
 62
     0
100
AcDbPoint
 10
598.4704078123266
 20
-41.14117655462336
 30
0.0
  0
ENDBLK
  5
9E16
330
9E0A
100
AcDbEntity
  8
0
100
AcDbBlockEnd
  0
BLOCK
  5
9E22
330
9E17
100
AcDbEntity
  8
0
100
AcDbBlockBegin
  2
*D10
 70
     1
 10
0.0
 20
0.0
 30
0.0
  3
*D10
  1

  0
LINE
  5
B653
330
9E17
100
AcDbEntity
  8
DIMENSION
 62
     0
370
    -2
100
AcDbLine
 10
590.7830327712397
 20
-45.46459286950637
 30
0.0
 11
590.7830327712397
 21
-43.42329334804064
 31
0.0
  0
LINE
  5
B654
330
9E17
100
AcDbEntity
  8
DIMENSION
 62
     0
370
    -2
100
AcDbLine
 10
586.2004078123267
 20
-45.46459286950637
 30
0.0
 11
586.2004078123267
 21
-43.42329334804064
 31
0.0
  0
LINE
  5
B655
330
9E17
100
AcDbEntity
  8
DIMENSION
 62
     0
370
    -2
100
AcDbLine
 10
590.0330327712397
 20
-43.60329334804066
 30
0.0
 11
586.9504078123267
 21
-43.60329334804066
 31
0.0
  0
LINE
  5
B656
330
9E17
100
AcDbEntity
  8
DIMENSION
 62
     0
370
    -2
100
AcDbLine
 10
586.2004078123267
 20
-43.60329334804066
 30
0.0
 11
585.4504078123267
 21
-43.60329334804066
 31
0.0
  0
SOLID
  5
B657
330
9E17
100
AcDbEntity
  8
DIMENSION
 62
     0
100
AcDbTrace
 10
590.0330327712397
 20
-43.47829334804067
 30
0.0
 11
590.0330327712397
 21
-43.72829334804064
 31
0.0
 12
590.7830327712397
 22
-43.60329334804066
 32
0.0
 13
590.7830327712397
 23
-43.60329334804066
 33
0.0
  0
SOLID
  5
B658
330
9E17
100
AcDbEntity
  8
DIMENSION
 62
     0
100
AcDbTrace
 10
586.9504078123267
 20
-43.47829334804067
 30
0.0
 11
586.9504078123267
 21
-43.72829334804064
 31
0.0
 12
586.2004078123267
 22
-43.60329334804066
 32
0.0
 13
586.2004078123267
 23
-43.60329334804066
 33
0.0
  0
MTEXT
  5
B659
330
9E17
100
AcDbEntity
  8
DIMENSION
 62
     0
100
AcDbMText
 10
583.8604078123267
 20
-43.60329334804066
 30
0.0
 40
0.75
 41
0.0
 71
     5
 72
     1
  1
\A1;4.583\PREF
 73
     1
 44
1.0
1001
ACAD
1000
MTEXTBEGIN
1070
    73
1070
     1
1070
    44
1040
1.0
1070
    74
1070
     0
1000
MTEXTEND
  0
POINT
  5
B65A
330
9E17
100
AcDbEntity
  8
Defpoints
 62
     0
100
AcDbPoint
 10
590.7830327712397
 20
-45.76459286950636
 30
0.0
  0
POINT
  5
B65B
330
9E17
100
AcDbEntity
  8
Defpoints
 62
     0
100
AcDbPoint
 10
586.2004078123267
 20
-45.76459286950636
 30
0.0
  0
POINT
  5
B65C
330
9E17
100
AcDbEntity
  8
Defpoints
 62
     0
100
AcDbPoint
 10
586.2004078123267
 20
-43.60329334804066
 30
0.0
  0
ENDBLK
  5
9E23
330
9E17
100
AcDbEntity
  8
0
100
AcDbBlockEnd
  0
BLOCK
  5
9E2F
330
9E24
100
AcDbEntity
  8
0
100
AcDbBlockBegin
  2
*D11
 70
     1
 10
0.0
 20
0.0
 30
0.0
  3
*D11
  1

  0
LINE
  5
B69A
330
9E24
100
AcDbEntity
  8
DIMENSION
 62
     0
370
    -2
100
AcDbLine
 10
587.0129085877667
 20
-100.4281001488086
 30
0.0
 11
587.0129085877667
 21
-107.1662259469079
 31
0.0
  0
LINE
  5
B69B
330
9E24
100
AcDbEntity
  8
DIMENSION
 62
     0
370
    -2
100
AcDbLine
 10
596.7629085877667
 20
-100.4281001488086
 30
0.0
 11
596.7629085877667
 21
-107.1662259469079
 31
0.0
  0
LINE
  5
B69C
330
9E24
100
AcDbEntity
  8
DIMENSION
 62
     0
370
    -2
100
AcDbLine
 10
587.7629085877666
 20
-106.9862259469079
 30
0.0
 11
590.2979085877667
 21
-106.9862259469079
 31
0.0
  0
LINE
  5
B69D
330
9E24
100
AcDbEntity
  8
DIMENSION
 62
     0
370
    -2
100
AcDbLine
 10
596.0129085877666
 20
-106.9862259469079
 30
0.0
 11
593.4779085877667
 21
-106.9862259469079
 31
0.0
  0
SOLID
  5
B69E
330
9E24
100
AcDbEntity
  8
DIMENSION
 62
     0
100
AcDbTrace
 10
587.7629085877666
 20
-106.8612259469079
 30
0.0
 11
587.7629085877666
 21
-107.1112259469079
 31
0.0
 12
587.0129085877667
 22
-106.9862259469079
 32
0.0
 13
587.0129085877667
 23
-106.9862259469079
 33
0.0
  0
SOLID
  5
B69F
330
9E24
100
AcDbEntity
  8
DIMENSION
 62
     0
100
AcDbTrace
 10
596.0129085877666
 20
-106.8612259469079
 30
0.0
 11
596.0129085877666
 21
-107.1112259469079
 31
0.0
 12
596.7629085877667
 22
-106.9862259469079
 32
0.0
 13
596.7629085877667
 23
-106.9862259469079
 33
0.0
  0
MTEXT
  5
B6A0
330
9E24
100
AcDbEntity
  8
DIMENSION
 62
     0
100
AcDbMText
 10
591.8879085877667
 20
-106.9862259469079
 30
0.0
 40
0.75
 41
0.0
 71
     5
 72
     1
  1
\A1;10.000\PMAX
 73
     1
 44
1.0
1001
ACAD
1000
MTEXTBEGIN
1070
    73
1070
     1
1070
    44
1040
1.0
1070
    74
1070
     0
1000
MTEXTEND
  0
POINT
  5
B6A1
330
9E24
100
AcDbEntity
  8
Defpoints
 62
     0
100
AcDbPoint
 10
587.0129085877667
 20
-100.1281001488086
 30
0.0
  0
POINT
  5
B6A2
330
9E24
100
AcDbEntity
  8
Defpoints
 62
     0
100
AcDbPoint
 10
596.7629085877667
 20
-100.1281001488086
 30
0.0
  0
POINT
  5
B6A3
330
9E24
100
AcDbEntity
  8
Defpoints
 62
     0
100
AcDbPoint
 10
596.7629085877667
 20
-106.9862259469079
 30
0.0
  0
ENDBLK
  5
9E30
330
9E24
100
AcDbEntity
  8
0
100
AcDbBlockEnd
  0
BLOCK
  5
9E3C
330
9E31
100
AcDbEntity
  8
0
100
AcDbBlockBegin
  2
*D12
 70
     1
 10
0.0
 20
0.0
 30
0.0
  3
*D12
  1

  0
LINE
  5
B67B
330
9E31
100
AcDbEntity
  8
DIMENSION
 62
     0
370
    -2
100
AcDbLine
 10
574.1999557415922
 20
-73.96210014880844
 30
0.0
 11
574.1999557415922
 21
-81.1060413469587
 31
0.0
  0
LINE
  5
B67C
330
9E31
100
AcDbEntity
  8
DIMENSION
 62
     0
370
    -2
100
AcDbLine
 10
580.6219373956308
 20
-93.45010014880859
 30
0.0
 11
580.6219373956308
 21
-80.74604134695869
 31
0.0
  0
LINE
  5
B67D
330
9E31
100
AcDbEntity
  8
DIMENSION
 62
     0
370
    -2
100
AcDbLine
 10
574.9499557415925
 20
-80.9260413469587
 30
0.0
 11
575.9459465686115
 21
-80.9260413469587
 31
0.0
  0
LINE
  5
B67E
330
9E31
100
AcDbEntity
  8
DIMENSION
 62
     0
370
    -2
100
AcDbLine
 10
579.8719373956307
 20
-80.9260413469587
 30
0.0
 11
578.8759465686116
 21
-80.9260413469587
 31
0.0
  0
SOLID
  5
B67F
330
9E31
100
AcDbEntity
  8
DIMENSION
 62
     0
100
AcDbTrace
 10
574.9499557415925
 20
-80.8010413469587
 30
0.0
 11
574.9499557415925
 21
-81.05104134695869
 31
0.0
 12
574.1999557415922
 22
-80.9260413469587
 32
0.0
 13
574.1999557415922
 23
-80.9260413469587
 33
0.0
  0
SOLID
  5
B680
330
9E31
100
AcDbEntity
  8
DIMENSION
 62
     0
100
AcDbTrace
 10
579.8719373956307
 20
-80.8010413469587
 30
0.0
 11
579.8719373956307
 21
-81.05104134695869
 31
0.0
 12
580.6219373956308
 22
-80.9260413469587
 32
0.0
 13
580.6219373956308
 23
-80.9260413469587
 33
0.0
  0
MTEXT
  5
B681
330
9E31
100
AcDbEntity
  8
DIMENSION
 62
     0
100
AcDbMText
 10
577.4109465686116
 20
-80.9260413469587
 30
0.0
 40
0.75
 41
0.0
 71
     5
 72
     1
  1
\A1;6.500\PMAX
 73
     1
 44
1.0
1001
ACAD
1000
MTEXTBEGIN
1070
    73
1070
     1
1070
    44
1040
1.0
1070
    74
1070
     0
1000
MTEXTEND
  0
POINT
  5
B682
330
9E31
100
AcDbEntity
  8
Defpoints
 62
     0
100
AcDbPoint
 10
574.1999557415922
 20
-73.66210014880845
 30
0.0
  0
POINT
  5
B683
330
9E31
100
AcDbEntity
  8
Defpoints
 62
     0
100
AcDbPoint
 10
580.6219373956308
 20
-93.7501001488086
 30
0.0
  0
POINT
  5
B684
330
9E31
100
AcDbEntity
  8
Defpoints
 62
     0
100
AcDbPoint
 10
580.6219373956308
 20
-80.9260413469587
 30
0.0
  0
ENDBLK
  5
9E3D
330
9E31
100
AcDbEntity
  8
0
100
AcDbBlockEnd
  0
BLOCK
  5
9E62
330
9E5C
100
AcDbEntity
  8
0
100
AcDbBlockBegin
  2
*D13
 70
     1
 10
0.0
 20
0.0
 30
0.0
  3
*D13
  1

  0
LINE
  5
B836
330
9E5C
100
AcDbEntity
  8
DIMENSION
 62
     0
370
    -2
100
AcDbLine
 10
578.13315550162
 20
-202.2151625016797
 30
0.0
 11
578.13315550162
 21
-204.8734840590203
 31
0.0
  0
MTEXT
  5
B837
330
9E5C
100
AcDbEntity
  8
DIMENSION
 62
     0
100
AcDbMText
 10
578.13315550162
 20
-206.2134840590202
 30
0.0
 40
0.75
 41
0.0
 71
     5
 72
     1
  1
\A1;0.000
 11
0.0000000000000001
 21
1.0
 31
0.0
 73
     1
 44
1.0
1001
ACAD
1000
MTEXTBEGIN
1070
    73
1070
     1
1070
    44
1040
1.0
1070
    74
1070
     0
1000
MTEXTEND
  0
POINT
  5
B838
330
9E5C
100
AcDbEntity
  8
Defpoints
 62
     0
100
AcDbPoint
 10
578.13315550162
 20
-201.9151625016796
 30
0.0
  0
POINT
  5
B839
330
9E5C
100
AcDbEntity
  8
Defpoints
 62
     0
100
AcDbPoint
 10
578.13315550162
 20
-204.8734840590203
 30
0.0
  0
POINT
  5
B83A
330
9E5C
100
AcDbEntity
  8
Defpoints
 62
     0
100
AcDbPoint
 10
578.13315550162
 20
-201.9151625016796
 30
0.0
  0
ENDBLK
  5
9E63
330
9E5C
100
AcDbEntity
  8
0
100
AcDbBlockEnd
  0
BLOCK
  5
9E6F
330
9E69
100
AcDbEntity
  8
0
100
AcDbBlockBegin
  2
*D14
 70
     1
 10
0.0
 20
0.0
 30
0.0
  3
*D14
  1

  0
LINE
  5
B840
330
9E69
100
AcDbEntity
  8
DIMENSION
 62
     0
370
    -2
100
AcDbLine
 10
580.0296555016201
 20
-199.9751625016796
 30
0.0
 11
575.7734346968525
 21
-199.9751625016796
 31
0.0
  0
MTEXT
  5
B841
330
9E69
100
AcDbEntity
  8
DIMENSION
 62
     0
100
AcDbMText
 10
574.3709346968524
 20
-199.9751625016796
 30
0.0
 40
0.75
 41
0.0
 71
     5
 72
     1
  1
\A1;1.940
 73
     1
 44
1.0
1001
ACAD
1000
MTEXTBEGIN
1070
    73
1070
     1
1070
    44
1040
1.0
1070
    74
1070
     0
1000
MTEXTEND
  0
POINT
  5
B842
330
9E69
100
AcDbEntity
  8
Defpoints
 62
     0
100
AcDbPoint
 10
580.3296555016201
 20
-199.9751625016796
 30
0.0
  0
POINT
  5
B843
330
9E69
100
AcDbEntity
  8
Defpoints
 62
     0
100
AcDbPoint
 10
575.7734346968525
 20
-199.9751625016796
 30
0.0
  0
POINT
  5
B844
330
9E69
100
AcDbEntity
  8
Defpoints
 62
     0
100
AcDbPoint
 10
578.13315550162
 20
-201.9151625016796
 30
0.0
  0
ENDBLK
  5
9E70
330
9E69
100
AcDbEntity
  8
0
100
AcDbBlockEnd
  0
BLOCK
  5
9E79
330
9E71
100
AcDbEntity
  8
0
100
AcDbBlockBegin
  2
*D15
 70
     1
 10
0.0
 20
0.0
 30
0.0
  3
*D15
  1

  0
LINE
  5
B845
330
9E71
100
AcDbEntity
  8
DIMENSION
 62
     0
370
    -2
100
AcDbLine
 10
580.5171555016198
 20
-200.4626625016797
 30
0.0
 11
580.5171555016198
 21
-201.6626625016797
 31
0.0
  0
LINE
  5
B846
330
9E71
100
AcDbEntity
  8
DIMENSION
 62
     0
370
    -2
100
AcDbLine
 10
580.5171555016198
 20
-201.6626625016797
 30
0.0
 11
581.2151033802597
 21
-203.0179570425621
 31
0.0
  0
LINE
  5
B847
330
9E71
100
AcDbEntity
  8
DIMENSION
 62
     0
370
    -2
100
AcDbLine
 10
581.2151033802597
 20
-203.0179570425621
 30
0.0
 11
581.2151033802597
 21
-204.5179570425621
 31
0.0
  0
MTEXT
  5
B848
330
9E71
100
AcDbEntity
  8
DIMENSION
 62
     0
100
AcDbMText
 10
581.2151033802597
 20
-206.107957042562
 30
0.0
 40
0.75
 41
0.0
 71
     5
 72
     1
  1
\A1;2.384
 11
0.0000000000000001
 21
1.0
 31
0.0
 73
     1
 44
1.0
1001
ACAD
1000
MTEXTBEGIN
1070
    73
1070
     1
1070
    44
1040
1.0
1070
    74
1070
     0
1000
MTEXTEND
  0
POINT
  5
B849
330
9E71
100
AcDbEntity
  8
Defpoints
 62
     0
100
AcDbPoint
 10
580.5171555016198
 20
-200.1626625016796
 30
0.0
  0
POINT
  5
B84A
330
9E71
100
AcDbEntity
  8
Defpoints
 62
     0
100
AcDbPoint
 10
581.2151033802597
 20
-204.5179570425621
 30
0.0
  0
POINT
  5
B84B
330
9E71
100
AcDbEntity
  8
Defpoints
 62
     0
100
AcDbPoint
 10
578.13315550162
 20
-201.9151625016796
 30
0.0
  0
ENDBLK
  5
9E7A
330
9E71
100
AcDbEntity
  8
0
100
AcDbBlockEnd
  0
BLOCK
  5
9E83
330
9E7B
100
AcDbEntity
  8
0
100
AcDbBlockBegin
  2
*D16
 70
     1
 10
0.0
 20
0.0
 30
0.0
  3
*D16
  1

  0
LINE
  5
B84C
330
9E7B
100
AcDbEntity
  8
DIMENSION
 62
     0
370
    -2
100
AcDbLine
 10
579.3336555016202
 20
-181.8926625016796
 30
0.0
 11
579.3336555016202
 21
-201.7856452699192
 31
0.0
  0
LINE
  5
B84D
330
9E7B
100
AcDbEntity
  8
DIMENSION
 62
     0
370
    -2
100
AcDbLine
 10
579.3336555016202
 20
-201.7856452699192
 30
0.0
 11
579.8768562406293
 21
-203.2856452699192
 31
0.0
  0
LINE
  5
B84E
330
9E7B
100
AcDbEntity
  8
DIMENSION
 62
     0
370
    -2
100
AcDbLine
 10
579.8768562406293
 20
-203.2856452699192
 30
0.0
 11
579.8768562406293
 21
-204.7856452699192
 31
0.0
  0
MTEXT
  5
B84F
330
9E7B
100
AcDbEntity
  8
DIMENSION
 62
     0
100
AcDbMText
 10
579.8768562406293
 20
-206.1256452699191
 30
0.0
 40
0.75
 41
0.0
 71
     5
 72
     1
  1
\A1;1.200
 11
0.0000000000000001
 21
1.0
 31
0.0
 73
     1
 44
1.0
1001
ACAD
1000
MTEXTBEGIN
1070
    73
1070
     1
1070
    44
1040
1.0
1070
    74
1070
     0
1000
MTEXTEND
  0
POINT
  5
B850
330
9E7B
100
AcDbEntity
  8
Defpoints
 62
     0
100
AcDbPoint
 10
579.3336555016202
 20
-181.5926625016796
 30
0.0
  0
POINT
  5
B851
330
9E7B
100
AcDbEntity
  8
Defpoints
 62
     0
100
AcDbPoint
 10
579.8768562406293
 20
-204.7856452699192
 30
0.0
  0
POINT
  5
B852
330
9E7B
100
AcDbEntity
  8
Defpoints
 62
     0
100
AcDbPoint
 10
578.13315550162
 20
-201.9151625016796
 30
0.0
  0
ENDBLK
  5
9E84
330
9E7B
100
AcDbEntity
  8
0
100
AcDbBlockEnd
  0
BLOCK
  5
9E8D
330
9E85
100
AcDbEntity
  8
0
100
AcDbBlockBegin
  2
*D17
 70
     1
 10
0.0
 20
0.0
 30
0.0
  3
*D17
  1

  0
LINE
  5
B853
330
9E85
100
AcDbEntity
  8
DIMENSION
 62
     0
370
    -2
100
AcDbLine
 10
589.2021555016202
 20
-181.7051625016796
 30
0.0
 11
589.2021555016202
 21
-201.8730530893364
 31
0.0
  0
LINE
  5
B854
330
9E85
100
AcDbEntity
  8
DIMENSION
 62
     0
370
    -2
100
AcDbLine
 10
589.2021555016202
 20
-201.8730530893364
 30
0.0
 11
588.7003523761059
 21
-203.3730530893364
 31
0.0
  0
LINE
  5
B855
330
9E85
100
AcDbEntity
  8
DIMENSION
 62
     0
370
    -2
100
AcDbLine
 10
588.7003523761059
 20
-203.3730530893364
 30
0.0
 11
588.7003523761059
 21
-204.8730530893364
 31
0.0
  0
MTEXT
  5
B856
330
9E85
100
AcDbEntity
  8
DIMENSION
 62
     0
100
AcDbMText
 10
588.7003523761059
 20
-206.5255530893363
 30
0.0
 40
0.75
 41
0.0
 71
     5
 72
     1
  1
\A1;11.069
 11
0.0000000000000001
 21
1.0
 31
0.0
 73
     1
 44
1.0
1001
ACAD
1000
MTEXTBEGIN
1070
    73
1070
     1
1070
    44
1040
1.0
1070
    74
1070
     0
1000
MTEXTEND
  0
POINT
  5
B857
330
9E85
100
AcDbEntity
  8
Defpoints
 62
     0
100
AcDbPoint
 10
589.2021555016202
 20
-181.4051625016796
 30
0.0
  0
POINT
  5
B858
330
9E85
100
AcDbEntity
  8
Defpoints
 62
     0
100
AcDbPoint
 10
588.7003523761059
 20
-204.8730530893364
 30
0.0
  0
POINT
  5
B859
330
9E85
100
AcDbEntity
  8
Defpoints
 62
     0
100
AcDbPoint
 10
578.13315550162
 20
-201.9151625016796
 30
0.0
  0
ENDBLK
  5
9E8E
330
9E85
100
AcDbEntity
  8
0
100
AcDbBlockEnd
  0
BLOCK
  5
9E95
330
9E8F
100
AcDbEntity
  8
0
100
AcDbBlockBegin
  2
*D18
 70
     1
 10
0.0
 20
0.0
 30
0.0
  3
*D18
  1

  0
LINE
  5
B85A
330
9E8F
100
AcDbEntity
  8
DIMENSION
 62
     0
370
    -2
100
AcDbLine
 10
590.40315550162
 20
-202.2151625016797
 30
0.0
 11
590.40315550162
 21
-204.8596057325029
 31
0.0
  0
MTEXT
  5
B85B
330
9E8F
100
AcDbEntity
  8
DIMENSION
 62
     0
100
AcDbMText
 10
590.40315550162
 20
-206.6371057325028
 30
0.0
 40
0.75
 41
0.0
 71
     5
 72
     1
  1
\A1;12.270
 11
0.0000000000000001
 21
1.0
 31
0.0
 73
     1
 44
1.0
1001
ACAD
1000
MTEXTBEGIN
1070
    73
1070
     1
1070
    44
1040
1.0
1070
    74
1070
     0
1000
MTEXTEND
  0
POINT
  5
B85C
330
9E8F
100
AcDbEntity
  8
Defpoints
 62
     0
100
AcDbPoint
 10
590.40315550162
 20
-201.9151625016796
 30
0.0
  0
POINT
  5
B85D
330
9E8F
100
AcDbEntity
  8
Defpoints
 62
     0
100
AcDbPoint
 10
590.40315550162
 20
-204.8596057325029
 30
0.0
  0
POINT
  5
B85E
330
9E8F
100
AcDbEntity
  8
Defpoints
 62
     0
100
AcDbPoint
 10
578.13315550162
 20
-201.9151625016796
 30
0.0
  0
ENDBLK
  5
9E96
330
9E8F
100
AcDbEntity
  8
0
100
AcDbBlockEnd
  0
BLOCK
  5
9E9D
330
9E97
100
AcDbEntity
  8
0
100
AcDbBlockBegin
  2
*D19
 70
     1
 10
0.0
 20
0.0
 30
0.0
  3
*D19
  1

  0
LINE
  5
B85F
330
9E97
100
AcDbEntity
  8
DIMENSION
 62
     0
370
    -2
100
AcDbLine
 10
579.9455305016199
 20
-185.1670287912526
 30
0.0
 11
575.5593941732313
 21
-185.1670287912526
 31
0.0
  0
MTEXT
  5
B860
330
9E97
100
AcDbEntity
  8
DIMENSION
 62
     0
100
AcDbMText
 10
573.7193941732313
 20
-185.1670287912526
 30
0.0
 40
0.75
 41
0.0
 71
     5
 72
     1
  1
\A1;16.748
 73
     1
 44
1.0
1001
ACAD
1000
MTEXTBEGIN
1070
    73
1070
     1
1070
    44
1040
1.0
1070
    74
1070
     0
1000
MTEXTEND
  0
POINT
  5
B861
330
9E97
100
AcDbEntity
  8
Defpoints
 62
     0
100
AcDbPoint
 10
580.2455305016199
 20
-185.1670287912526
 30
0.0
  0
POINT
  5
B862
330
9E97
100
AcDbEntity
  8
Defpoints
 62
     0
100
AcDbPoint
 10
575.5593941732313
 20
-185.1670287912526
 30
0.0
  0
POINT
  5
B863
330
9E97
100
AcDbEntity
  8
Defpoints
 62
     0
100
AcDbPoint
 10
578.13315550162
 20
-201.9151625016796
 30
0.0
  0
ENDBLK
  5
9E9E
330
9E97
100
AcDbEntity
  8
0
100
AcDbBlockEnd
  0
BLOCK
  5
9EA5
330
9E9F
100
AcDbEntity
  8
0
100
AcDbBlockBegin
  2
*D20
 70
     1
 10
0.0
 20
0.0
 30
0.0
  3
*D20
  1

  0
LINE
  5
B864
330
9E9F
100
AcDbEntity
  8
DIMENSION
 62
     0
370
    -2
100
AcDbLine
 10
578.4299055016203
 20
-180.9161625016796
 30
0.0
 11
575.4428651792522
 21
-180.9161625016796
 31
0.0
  0
MTEXT
  5
B865
330
9E9F
100
AcDbEntity
  8
DIMENSION
 62
     0
100
AcDbMText
 10
573.7903651792522
 20
-180.9161625016796
 30
0.0
 40
0.75
 41
0.0
 71
     5
 72
     1
  1
\A1;21.000
 73
     1
 44
1.0
1001
ACAD
1000
MTEXTBEGIN
1070
    73
1070
     1
1070
    44
1040
1.0
1070
    74
1070
     0
1000
MTEXTEND
  0
POINT
  5
B866
330
9E9F
100
AcDbEntity
  8
Defpoints
 62
     0
100
AcDbPoint
 10
578.7299055016202
 20
-180.9161625016796
 30
0.0
  0
POINT
  5
B867
330
9E9F
100
AcDbEntity
  8
Defpoints
 62
     0
100
AcDbPoint
 10
575.4428651792522
 20
-180.9161625016796
 30
0.0
  0
POINT
  5
B868
330
9E9F
100
AcDbEntity
  8
Defpoints
 62
     0
100
AcDbPoint
 10
578.13315550162
 20
-201.9151625016796
 30
0.0
  0
ENDBLK
  5
9EA6
330
9E9F
100
AcDbEntity
  8
0
100
AcDbBlockEnd
  0
BLOCK
  5
9EAD
330
9EA7
100
AcDbEntity
  8
0
100
AcDbBlockBegin
  2
*D21
 70
     1
 10
0.0
 20
0.0
 30
0.0
  3
*D21
  1

  0
LINE
  5
B869
330
9EA7
100
AcDbEntity
  8
DIMENSION
 62
     0
370
    -2
100
AcDbLine
 10
578.4299055016203
 20
-172.1661625016796
 30
0.0
 11
575.4697305318273
 21
-172.1661625016796
 31
0.0
  0
MTEXT
  5
B86A
330
9EA7
100
AcDbEntity
  8
DIMENSION
 62
     0
100
AcDbMText
 10
573.5672305318272
 20
-172.1661625016796
 30
0.0
 40
0.75
 41
0.0
 71
     5
 72
     1
  1
\A1;29.750
 73
     1
 44
1.0
1001
ACAD
1000
MTEXTBEGIN
1070
    73
1070
     1
1070
    44
1040
1.0
1070
    74
1070
     0
1000
MTEXTEND
  0
POINT
  5
B86B
330
9EA7
100
AcDbEntity
  8
Defpoints
 62
     0
100
AcDbPoint
 10
578.7299055016204
 20
-172.1661625016796
 30
0.0
  0
POINT
  5
B86C
330
9EA7
100
AcDbEntity
  8
Defpoints
 62
     0
100
AcDbPoint
 10
575.4697305318273
 20
-172.1661625016796
 30
0.0
  0
POINT
  5
B86D
330
9EA7
100
AcDbEntity
  8
Defpoints
 62
     0
100
AcDbPoint
 10
578.13315550162
 20
-201.9151625016796
 30
0.0
  0
ENDBLK
  5
9EAE
330
9EA7
100
AcDbEntity
  8
0
100
AcDbBlockEnd
  0
BLOCK
  5
9EB7
330
9EAF
100
AcDbEntity
  8
0
100
AcDbBlockBegin
  2
*D22
 70
     1
 10
0.0
 20
0.0
 30
0.0
  3
*D22
  1

  0
LINE
  5
B86E
330
9EAF
100
AcDbEntity
  8
DIMENSION
 62
     0
370
    -2
100
AcDbLine
 10
578.7299055016204
 20
-171.8661625016796
 30
0.0
 11
578.7299055016204
 21
-170.6661625016796
 31
0.0
  0
LINE
  5
B86F
330
9EAF
100
AcDbEntity
  8
DIMENSION
 62
     0
370
    -2
100
AcDbLine
 10
578.7299055016204
 20
-170.6661625016796
 30
0.0
 11
579.4706875365333
 21
-170.2975806223416
 31
0.0
  0
LINE
  5
B870
330
9EAF
100
AcDbEntity
  8
DIMENSION
 62
     0
370
    -2
100
AcDbLine
 10
579.4706875365333
 20
-170.2975806223416
 30
0.0
 11
579.4706875365333
 21
-168.7975806223416
 31
0.0
  0
MTEXT
  5
B871
330
9EAF
100
AcDbEntity
  8
DIMENSION
 62
     0
100
AcDbMText
 10
579.4706875365333
 20
-167.2700806223415
 30
0.0
 40
0.75
 41
0.0
 71
     5
 72
     1
  1
\A1;0.597
 11
0.0000000000000001
 21
1.0
 31
0.0
 73
     1
 44
1.0
1001
ACAD
1000
MTEXTBEGIN
1070
    73
1070
     1
1070
    44
1040
1.0
1070
    74
1070
     0
1000
MTEXTEND
  0
POINT
  5
B872
330
9EAF
100
AcDbEntity
  8
Defpoints
 62
     0
100
AcDbPoint
 10
578.7299055016204
 20
-172.1661625016796
 30
0.0
  0
POINT
  5
B873
330
9EAF
100
AcDbEntity
  8
Defpoints
 62
     0
100
AcDbPoint
 10
579.4706875365333
 20
-168.7975806223416
 30
0.0
  0
POINT
  5
B874
330
9EAF
100
AcDbEntity
  8
Defpoints
 62
     0
100
AcDbPoint
 10
578.13315550162
 20
-201.9151625016796
 30
0.0
  0
ENDBLK
  5
9EB8
330
9EAF
100
AcDbEntity
  8
0
100
AcDbBlockEnd
  0
BLOCK
  5
9EC8
330
9EC0
100
AcDbEntity
  8
0
100
AcDbBlockBegin
  2
*D23
 70
     1
 10
0.0
 20
0.0
 30
0.0
  3
*D23
  1

  0
LINE
  5
B87C
330
9EC0
100
AcDbEntity
  8
DIMENSION
 62
     0
370
    -2
100
AcDbLine
 10
578.8461555016202
 20
-181.4051625016796
 30
0.0
 11
577.6461555016202
 21
-181.4051625016796
 31
0.0
  0
LINE
  5
B87D
330
9EC0
100
AcDbEntity
  8
DIMENSION
 62
     0
370
    -2
100
AcDbLine
 10
577.6461555016202
 20
-181.4051625016796
 30
0.0
 11
576.5509549341804
 21
-182.2491442344608
 31
0.0
  0
LINE
  5
B87E
330
9EC0
100
AcDbEntity
  8
DIMENSION
 62
     0
370
    -2
100
AcDbLine
 10
576.5509549341804
 20
-182.2491442344608
 30
0.0
 11
575.0509549341805
 21
-182.2491442344608
 31
0.0
  0
MTEXT
  5
B87F
330
9EC0
100
AcDbEntity
  8
DIMENSION
 62
     0
100
AcDbMText
 10
573.3359549341805
 20
-182.2491442344608
 30
0.0
 40
0.75
 41
0.0
 71
     5
 72
     1
  1
\A1;20.510
 73
     1
 44
1.0
1001
ACAD
1000
MTEXTBEGIN
1070
    73
1070
     1
1070
    44
1040
1.0
1070
    74
1070
     0
1000
MTEXTEND
  0
POINT
  5
B880
330
9EC0
100
AcDbEntity
  8
Defpoints
 62
     0
100
AcDbPoint
 10
579.1461555016202
 20
-181.4051625016796
 30
0.0
  0
POINT
  5
B881
330
9EC0
100
AcDbEntity
  8
Defpoints
 62
     0
100
AcDbPoint
 10
575.0509549341805
 20
-182.2491442344608
 30
0.0
  0
POINT
  5
B882
330
9EC0
100
AcDbEntity
  8
Defpoints
 62
     0
100
AcDbPoint
 10
578.13315550162
 20
-201.9151625016796
 30
0.0
  0
ENDBLK
  5
9EC9
330
9EC0
100
AcDbEntity
  8
0
100
AcDbBlockEnd
  0
BLOCK
  5
9ED0
330
9ECA
100
AcDbEntity
  8
0
100
AcDbBlockBegin
  2
*D24
 70
     1
 10
0.0
 20
0.0
 30
0.0
  3
*D24
  1

  0
LINE
  5
B883
330
9ECA
100
AcDbEntity
  8
DIMENSION
 62
     0
370
    -2
100
AcDbLine
 10
580.0296555016201
 20
-186.9751625016796
 30
0.0
 11
575.2970702426372
 21
-186.9751625016796
 31
0.0
  0
MTEXT
  5
B884
330
9ECA
100
AcDbEntity
  8
DIMENSION
 62
     0
100
AcDbMText
 10
573.5195702426372
 20
-186.9751625016796
 30
0.0
 40
0.75
 41
0.0
 71
     5
 72
     1
  1
\A1;14.940
 73
     1
 44
1.0
1001
ACAD
1000
MTEXTBEGIN
1070
    73
1070
     1
1070
    44
1040
1.0
1070
    74
1070
     0
1000
MTEXTEND
  0
POINT
  5
B885
330
9ECA
100
AcDbEntity
  8
Defpoints
 62
     0
100
AcDbPoint
 10
580.3296555016201
 20
-186.9751625016796
 30
0.0
  0
POINT
  5
B886
330
9ECA
100
AcDbEntity
  8
Defpoints
 62
     0
100
AcDbPoint
 10
575.2970702426372
 20
-186.9751625016796
 30
0.0
  0
POINT
  5
B887
330
9ECA
100
AcDbEntity
  8
Defpoints
 62
     0
100
AcDbPoint
 10
578.13315550162
 20
-201.9151625016796
 30
0.0
  0
ENDBLK
  5
9ED1
330
9ECA
100
AcDbEntity
  8
0
100
AcDbBlockEnd
  0
BLOCK
  5
9EDA
330
9ED2
100
AcDbEntity
  8
0
100
AcDbBlockBegin
  2
*D25
 70
     1
 10
0.0
 20
0.0
 30
0.0
  3
*D25
  1

  0
LINE
  5
B888
330
9ED2
100
AcDbEntity
  8
DIMENSION
 62
     0
370
    -2
100
AcDbLine
 10
588.0171555016199
 20
-200.4626625016797
 30
0.0
 11
588.0171555016199
 21
-201.8896210710028
 31
0.0
  0
LINE
  5
B889
330
9ED2
100
AcDbEntity
  8
DIMENSION
 62
     0
370
    -2
100
AcDbLine
 10
588.0171555016199
 20
-201.8896210710028
 30
0.0
 11
586.9477006359102
 21
-203.3896210710028
 31
0.0
  0
LINE
  5
B88A
330
9ED2
100
AcDbEntity
  8
DIMENSION
 62
     0
370
    -2
100
AcDbLine
 10
586.9477006359102
 20
-203.3896210710028
 30
0.0
 11
586.9477006359102
 21
-204.8896210710029
 31
0.0
  0
MTEXT
  5
B88B
330
9ED2
100
AcDbEntity
  8
DIMENSION
 62
     0
100
AcDbMText
 10
586.9477006359102
 20
-206.4796210710027
 30
0.0
 40
0.75
 41
0.0
 71
     5
 72
     1
  1
\A1;9.884
 11
0.0000000000000001
 21
1.0
 31
0.0
 73
     1
 44
1.0
1001
ACAD
1000
MTEXTBEGIN
1070
    73
1070
     1
1070
    44
1040
1.0
1070
    74
1070
     0
1000
MTEXTEND
  0
POINT
  5
B88C
330
9ED2
100
AcDbEntity
  8
Defpoints
 62
     0
100
AcDbPoint
 10
588.0171555016199
 20
-200.1626625016796
 30
0.0
  0
POINT
  5
B88D
330
9ED2
100
AcDbEntity
  8
Defpoints
 62
     0
100
AcDbPoint
 10
586.9477006359102
 20
-204.8896210710029
 30
0.0
  0
POINT
  5
B88E
330
9ED2
100
AcDbEntity
  8
Defpoints
 62
     0
100
AcDbPoint
 10
578.13315550162
 20
-201.9151625016796
 30
0.0
  0
ENDBLK
  5
9EDB
330
9ED2
100
AcDbEntity
  8
0
100
AcDbBlockEnd
  0
BLOCK
  5
9EE2
330
9EDC
100
AcDbEntity
  8
0
100
AcDbBlockBegin
  2
*D26
 70
     1
 10
0.0
 20
0.0
 30
0.0
  3
*D26
  1

  0
LINE
  5
B88F
330
9EDC
100
AcDbEntity
  8
DIMENSION
 62
     0
370
    -2
100
AcDbLine
 10
590.70315550162
 20
-171.8241625016796
 30
0.0
 11
593.0810918381497
 21
-171.8241625016796
 31
0.0
  0
MTEXT
  5
B890
330
9EDC
100
AcDbEntity
  8
DIMENSION
 62
     0
100
AcDbMText
 10
594.7960918381498
 20
-171.8241625016796
 30
0.0
 40
0.75
 41
0.0
 71
     5
 72
     1
  1
\A1;30.091
 73
     1
 44
1.0
1001
ACAD
1000
MTEXTBEGIN
1070
    73
1070
     1
1070
    44
1040
1.0
1070
    74
1070
     0
1000
MTEXTEND
  0
POINT
  5
B891
330
9EDC
100
AcDbEntity
  8
Defpoints
 62
     0
100
AcDbPoint
 10
590.40315550162
 20
-171.8241625016796
 30
0.0
  0
POINT
  5
B892
330
9EDC
100
AcDbEntity
  8
Defpoints
 62
     0
100
AcDbPoint
 10
593.0810918381497
 20
-171.8241625016796
 30
0.0
  0
POINT
  5
B893
330
9EDC
100
AcDbEntity
  8
Defpoints
 62
     0
100
AcDbPoint
 10
578.13315550162
 20
-201.9151625016796
 30
0.0
  0
ENDBLK
  5
9EE3
330
9EDC
100
AcDbEntity
  8
0
100
AcDbBlockEnd
  0
BLOCK
  5
9EEA
330
9EE4
100
AcDbEntity
  8
0
100
AcDbBlockBegin
  2
*D27
 70
     1
 10
0.0
 20
0.0
 30
0.0
  3
*D27
  1

  0
LINE
  5
B894
330
9EE4
100
AcDbEntity
  8
DIMENSION
 62
     0
370
    -2
100
AcDbLine
 10
578.2171555016201
 20
-173.9751625016796
 30
0.0
 11
575.3958638864362
 21
-173.9751625016796
 31
0.0
  0
MTEXT
  5
B895
330
9EE4
100
AcDbEntity
  8
DIMENSION
 62
     0
100
AcDbMText
 10
573.4933638864362
 20
-173.9751625016796
 30
0.0
 40
0.75
 41
0.0
 71
     5
 72
     1
  1
\A1;27.940
 73
     1
 44
1.0
1001
ACAD
1000
MTEXTBEGIN
1070
    73
1070
     1
1070
    44
1040
1.0
1070
    74
1070
     0
1000
MTEXTEND
  0
POINT
  5
B896
330
9EE4
100
AcDbEntity
  8
Defpoints
 62
     0
100
AcDbPoint
 10
578.5171555016201
 20
-173.9751625016796
 30
0.0
  0
POINT
  5
B897
330
9EE4
100
AcDbEntity
  8
Defpoints
 62
     0
100
AcDbPoint
 10
575.3958638864362
 20
-173.9751625016796
 30
0.0
  0
POINT
  5
B898
330
9EE4
100
AcDbEntity
  8
Defpoints
 62
     0
100
AcDbPoint
 10
578.13315550162
 20
-201.9151625016796
 30
0.0
  0
ENDBLK
  5
9EEB
330
9EE4
100
AcDbEntity
  8
0
100
AcDbBlockEnd
  0
BLOCK
  5
9EF4
330
9EEC
100
AcDbEntity
  8
0
100
AcDbBlockBegin
  2
*D28
 70
     1
 10
0.0
 20
0.0
 30
0.0
  3
*D28
  1

  0
LINE
  5
B899
330
9EEC
100
AcDbEntity
  8
DIMENSION
 62
     0
370
    -2
100
AcDbLine
 10
578.5171555016201
 20
-173.6751625016796
 30
0.0
 11
578.5171555016201
 21
-171.9725809624693
 31
0.0
  0
LINE
  5
B89A
330
9EEC
100
AcDbEntity
  8
DIMENSION
 62
     0
370
    -2
100
AcDbLine
 10
578.5171555016201
 20
-171.9725809624693
 30
0.0
 11
577.8934425090124
 21
-170.4725809624692
 31
0.0
  0
LINE
  5
B89B
330
9EEC
100
AcDbEntity
  8
DIMENSION
 62
     0
370
    -2
100
AcDbLine
 10
577.8934425090124
 20
-170.4725809624692
 30
0.0
 11
577.8934425090124
 21
-168.9725809624692
 31
0.0
  0
MTEXT
  5
B89C
330
9EEC
100
AcDbEntity
  8
DIMENSION
 62
     0
100
AcDbMText
 10
577.8934425090124
 20
-167.4450809624691
 30
0.0
 40
0.75
 41
0.0
 71
     5
 72
     1
  1
\A1;0.384
 11
0.0000000000000001
 21
1.0
 31
0.0
 73
     1
 44
1.0
1001
ACAD
1000
MTEXTBEGIN
1070
    73
1070
     1
1070
    44
1040
1.0
1070
    74
1070
     0
1000
MTEXTEND
  0
POINT
  5
B89D
330
9EEC
100
AcDbEntity
  8
Defpoints
 62
     0
100
AcDbPoint
 10
578.5171555016201
 20
-173.9751625016796
 30
0.0
  0
POINT
  5
B89E
330
9EEC
100
AcDbEntity
  8
Defpoints
 62
     0
100
AcDbPoint
 10
577.8934425090124
 20
-168.9725809624692
 30
0.0
  0
POINT
  5
B89F
330
9EEC
100
AcDbEntity
  8
Defpoints
 62
     0
100
AcDbPoint
 10
578.13315550162
 20
-201.9151625016796
 30
0.0
  0
ENDBLK
  5
9EF5
330
9EEC
100
AcDbEntity
  8
0
100
AcDbBlockEnd
  0
BLOCK
  5
9EFF
330
9EF6
100
AcDbEntity
  8
0
100
AcDbBlockBegin
  2
*D29
 70
     1
 10
0.0
 20
0.0
 30
0.0
  3
*D29
  1

  0
LINE
  5
B8A8
330
9EF6
100
AcDbEntity
  8
DIMENSION
 62
     0
370
    -2
100
AcDbLine
 10
592.4073074403166
 20
-189.4268910236969
 30
0.0
 11
591.6573074403165
 21
-189.4268910236969
 31
0.0
  0
LINE
  5
B8A9
330
9EF6
100
AcDbEntity
  8
DIMENSION
 62
     0
370
    -2
100
AcDbLine
 10
591.6573074403165
 20
-189.4268910236969
 30
0.0
 11
588.7947330611035
 21
-187.498879399428
 31
0.0
  0
MTEXT
  5
B8AA
330
9EF6
100
AcDbEntity
  8
DIMENSION
 62
     0
100
AcDbMText
 10
595.5598074403166
 20
-189.4268910236969
 30
0.0
 40
0.75
 41
0.0
 71
     5
 72
     1
  1
\A1;\U+22050.375 (8)
 73
     1
 44
1.0
1001
ACAD
1000
MTEXTBEGIN
1070
    73
1070
     1
1070
    44
1040
1.0
1070
    74
1070
     0
1000
MTEXTEND
  0
SOLID
  5
B8AB
330
9EF6
100
AcDbEntity
  8
DIMENSION
 62
     0
100
AcDbTrace
 10
588.8645619808033
 20
-187.3952023914968
 30
0.0
 11
588.7249041414038
 21
-187.6025564073592
 31
0.0
 12
588.1726710135165
 22
-187.0799058812293
 32
0.0
 13
588.1726710135165
 23
-187.0799058812293
 33
0.0
  0
LINE
  5
B8AC
330
9EF6
100
AcDbEntity
  8
DIMENSION
 62
     0
370
    -2
100
AcDbLine
 10
587.9271555016197
 20
-186.9751625016796
 30
0.0
 11
588.1071555016198
 21
-186.9751625016796
 31
0.0
  0
LINE
  5
B8AD
330
9EF6
100
AcDbEntity
  8
DIMENSION
 62
     0
370
    -2
100
AcDbLine
 10
588.0171555016197
 20
-187.0651625016797
 30
0.0
 11
588.0171555016197
 21
-186.8851625016796
 31
0.0
  0
POINT
  5
B8AE
330
9EF6
100
AcDbEntity
  8
Defpoints
 62
     0
100
AcDbPoint
 10
588.1726710135165
 20
-187.0799058812293
 30
0.0
  0
POINT
  5
B8AF
330
9EF6
100
AcDbEntity
  8
Defpoints
 62
     0
100
AcDbPoint
 10
587.8616399897231
 20
-186.87041912213
 30
0.0
  0
ENDBLK
  5
9F00
330
9EF6
100
AcDbEntity
  8
0
100
AcDbBlockEnd
  0
BLOCK
  5
9F20
330
9F15
100
AcDbEntity
  8
0
100
AcDbBlockBegin
  2
*D30
 70
     1
 10
0.0
 20
0.0
 30
0.0
  3
*D30
  1

  0
LINE
  5
B649
330
9F15
100
AcDbEntity
  8
DIMENSION
 62
     0
370
    -2
100
AcDbLine
 10
595.5661578123272
 20
-45.42893761854196
 30
0.0
 11
595.5661578123272
 21
-44.22330325009529
 31
0.0
  0
LINE
  5
B64A
330
9F15
100
AcDbEntity
  8
DIMENSION
 62
     0
370
    -2
100
AcDbLine
 10
598.4704078123266
 20
-45.42893761854196
 30
0.0
 11
598.4704078123266
 21
-44.22330325009529
 31
0.0
  0
LINE
  5
B64B
330
9F15
100
AcDbEntity
  8
DIMENSION
 62
     0
370
    -2
100
AcDbLine
 10
596.3161578123272
 20
-44.40330325009528
 30
0.0
 11
597.7204078123267
 21
-44.40330325009528
 31
0.0
  0
LINE
  5
B64C
330
9F15
100
AcDbEntity
  8
DIMENSION
 62
     0
370
    -2
100
AcDbLine
 10
598.4704078123266
 20
-44.40330325009528
 30
0.0
 11
599.2204078123267
 21
-44.40330325009528
 31
0.0
  0
SOLID
  5
B64D
330
9F15
100
AcDbEntity
  8
DIMENSION
 62
     0
100
AcDbTrace
 10
596.3161578123272
 20
-44.27830325009529
 30
0.0
 11
596.3161578123272
 21
-44.52830325009529
 31
0.0
 12
595.5661578123272
 22
-44.40330325009528
 32
0.0
 13
595.5661578123272
 23
-44.40330325009528
 33
0.0
  0
SOLID
  5
B64E
330
9F15
100
AcDbEntity
  8
DIMENSION
 62
     0
100
AcDbTrace
 10
597.7204078123267
 20
-44.27830325009529
 30
0.0
 11
597.7204078123267
 21
-44.52830325009529
 31
0.0
 12
598.4704078123266
 22
-44.40330325009528
 32
0.0
 13
598.4704078123266
 23
-44.40330325009528
 33
0.0
  0
MTEXT
  5
B64F
330
9F15
100
AcDbEntity
  8
DIMENSION
 62
     0
100
AcDbMText
 10
600.7479078123267
 20
-44.40330325009528
 30
0.0
 40
0.75
 41
0.0
 71
     5
 72
     1
  1
\A1;2.904\PREF
 73
     1
 44
1.0
1001
ACAD
1000
MTEXTBEGIN
1070
    73
1070
     1
1070
    44
1040
1.0
1070
    74
1070
     0
1000
MTEXTEND
  0
POINT
  5
B650
330
9F15
100
AcDbEntity
  8
Defpoints
 62
     0
100
AcDbPoint
 10
595.5661578123272
 20
-45.72893761854198
 30
0.0
  0
POINT
  5
B651
330
9F15
100
AcDbEntity
  8
Defpoints
 62
     0
100
AcDbPoint
 10
598.4704078123266
 20
-45.72893761854198
 30
0.0
  0
POINT
  5
B652
330
9F15
100
AcDbEntity
  8
Defpoints
 62
     0
100
AcDbPoint
 10
598.4704078123266
 20
-44.40330325009528
 30
0.0
  0
ENDBLK
  5
9F21
330
9F15
100
AcDbEntity
  8
0
100
AcDbBlockEnd
  0
BLOCK
  5
9F3A
330
9F2F
100
AcDbEntity
  8
0
100
AcDbBlockBegin
  2
*D31
 70
     1
 10
0.0
 20
0.0
 30
0.0
  3
*D31
  1

  0
LINE
  5
B6B8
330
9F2F
100
AcDbEntity
  8
DIMENSION
 62
     0
370
    -2
100
AcDbLine
 10
609.7009119933111
 20
-102.5028544768684
 30
0.0
 11
606.0585859396702
 21
-102.5028544768684
 31
0.0
  0
LINE
  5
B6B9
330
9F2F
100
AcDbEntity
  8
DIMENSION
 62
     0
370
    -2
100
AcDbLine
 10
609.6639096327261
 20
-90.77067374193743
 30
0.0
 11
606.0585859396702
 21
-90.77067374193736
 31
0.0
  0
LINE
  5
B6BA
330
9F2F
100
AcDbEntity
  8
DIMENSION
 62
     0
370
    -2
100
AcDbLine
 10
606.2385859396704
 20
-101.7528544768684
 30
0.0
 11
606.2385859396704
 21
-97.72676410940292
 31
0.0
  0
LINE
  5
B6BB
330
9F2F
100
AcDbEntity
  8
DIMENSION
 62
     0
370
    -2
100
AcDbLine
 10
606.2385859396704
 20
-91.52067374193741
 30
0.0
 11
606.2385859396704
 21
-95.5467641094029
 31
0.0
  0
SOLID
  5
B6BC
330
9F2F
100
AcDbEntity
  8
DIMENSION
 62
     0
100
AcDbTrace
 10
606.1135859396704
 20
-101.7528544768684
 30
0.0
 11
606.3635859396704
 21
-101.7528544768684
 31
0.0
 12
606.2385859396704
 22
-102.5028544768684
 32
0.0
 13
606.2385859396704
 23
-102.5028544768684
 33
0.0
  0
SOLID
  5
B6BD
330
9F2F
100
AcDbEntity
  8
DIMENSION
 62
     0
100
AcDbTrace
 10
606.1135859396704
 20
-91.52067374193741
 30
0.0
 11
606.3635859396704
 21
-91.52067374193741
 31
0.0
 12
606.2385859396704
 22
-90.77067374193736
 32
0.0
 13
606.2385859396704
 23
-90.77067374193736
 33
0.0
  0
MTEXT
  5
B6BE
330
9F2F
100
AcDbEntity
  8
DIMENSION
 62
     0
100
AcDbMText
 10
606.2385859396704
 20
-96.63676410940285
 30
0.0
 40
0.75
 41
0.0
 71
     5
 72
     1
  1
\A1;12.000\PMAX
 73
     1
 44
1.0
1001
ACAD
1000
MTEXTBEGIN
1070
    73
1070
     1
1070
    44
1040
1.0
1070
    74
1070
     0
1000
MTEXTEND
  0
POINT
  5
B6BF
330
9F2F
100
AcDbEntity
  8
Defpoints
 62
     0
100
AcDbPoint
 10
610.0009119933112
 20
-102.5028544768684
 30
0.0
  0
POINT
  5
B6C0
330
9F2F
100
AcDbEntity
  8
Defpoints
 62
     0
100
AcDbPoint
 10
609.9639096327258
 20
-90.77067374193743
 30
0.0
  0
POINT
  5
B6C1
330
9F2F
100
AcDbEntity
  8
Defpoints
 62
     0
100
AcDbPoint
 10
606.2385859396704
 20
-90.77067374193736
 30
0.0
  0
ENDBLK
  5
9F3B
330
9F2F
100
AcDbEntity
  8
0
100
AcDbBlockEnd
  0
BLOCK
  5
9F47
330
9F3C
100
AcDbEntity
  8
0
100
AcDbBlockBegin
  2
*D32
 70
     1
 10
0.0
 20
0.0
 30
0.0
  3
*D32
  1

  0
LINE
  5
B671
330
9F3C
100
AcDbEntity
  8
DIMENSION
 62
     0
370
    -2
100
AcDbLine
 10
565.5639557415923
 20
-103.7531001488086
 30
0.0
 11
559.9978014598908
 21
-103.7531001488086
 31
0.0
  0
LINE
  5
B672
330
9F3C
100
AcDbEntity
  8
DIMENSION
 62
     0
370
    -2
100
AcDbLine
 10
563.3339557415927
 20
-80.0411001488087
 30
0.0
 11
559.9978014598908
 21
-80.0411001488087
 31
0.0
  0
LINE
  5
B673
330
9F3C
100
AcDbEntity
  8
DIMENSION
 62
     0
370
    -2
100
AcDbLine
 10
560.1778014598909
 20
-103.0031001488086
 30
0.0
 11
560.1778014598909
 21
-92.98710014880864
 31
0.0
  0
LINE
  5
B674
330
9F3C
100
AcDbEntity
  8
DIMENSION
 62
     0
370
    -2
100
AcDbLine
 10
560.1778014598909
 20
-80.79110014880869
 30
0.0
 11
560.1778014598909
 21
-90.80710014880862
 31
0.0
  0
SOLID
  5
B675
330
9F3C
100
AcDbEntity
  8
DIMENSION
 62
     0
100
AcDbTrace
 10
560.0528014598909
 20
-103.0031001488086
 30
0.0
 11
560.3028014598909
 21
-103.0031001488086
 31
0.0
 12
560.1778014598909
 22
-103.7531001488086
 32
0.0
 13
560.1778014598909
 23
-103.7531001488086
 33
0.0
  0
SOLID
  5
B676
330
9F3C
100
AcDbEntity
  8
DIMENSION
 62
     0
100
AcDbTrace
 10
560.0528014598909
 20
-80.79110014880869
 30
0.0
 11
560.3028014598909
 21
-80.79110014880869
 31
0.0
 12
560.1778014598909
 22
-80.0411001488087
 32
0.0
 13
560.1778014598909
 23
-80.0411001488087
 33
0.0
  0
MTEXT
  5
B677
330
9F3C
100
AcDbEntity
  8
DIMENSION
 62
     0
100
AcDbMText
 10
560.1778014598909
 20
-91.89710014880851
 30
0.0
 40
0.75
 41
0.0
 71
     5
 72
     1
  1
\A1;23.712\PREF
 73
     1
 44
1.0
1001
ACAD
1000
MTEXTBEGIN
1070
    73
1070
     1
1070
    44
1040
1.0
1070
    74
1070
     0
1000
MTEXTEND
  0
POINT
  5
B678
330
9F3C
100
AcDbEntity
  8
Defpoints
 62
     0
100
AcDbPoint
 10
565.8639557415924
 20
-103.7531001488086
 30
0.0
  0
POINT
  5
B679
330
9F3C
100
AcDbEntity
  8
Defpoints
 62
     0
100
AcDbPoint
 10
563.6339557415927
 20
-80.0411001488087
 30
0.0
  0
POINT
  5
B67A
330
9F3C
100
AcDbEntity
  8
Defpoints
 62
     0
100
AcDbPoint
 10
560.1778014598909
 20
-80.0411001488087
 30
0.0
  0
ENDBLK
  5
9F48
330
9F3C
100
AcDbEntity
  8
0
100
AcDbBlockEnd
  0
BLOCK
  5
9F54
330
9F49
100
AcDbEntity
  8
0
100
AcDbBlockBegin
  2
*D33
 70
     1
 10
0.0
 20
0.0
 30
0.0
  3
*D33
  1

  0
LINE
  5
B667
330
9F49
100
AcDbEntity
  8
DIMENSION
 62
     0
370
    -2
100
AcDbLine
 10
565.8639557415924
 20
-73.36210014880847
 30
0.0
 11
565.8639557415924
 21
-72.2198828877855
 31
0.0
  0
LINE
  5
B668
330
9F49
100
AcDbEntity
  8
DIMENSION
 62
     0
370
    -2
100
AcDbLine
 10
563.2639557415922
 20
-75.46360014880867
 30
0.0
 11
563.2639557415922
 21
-72.2198828877855
 31
0.0
  0
LINE
  5
B669
330
9F49
100
AcDbEntity
  8
DIMENSION
 62
     0
370
    -2
100
AcDbLine
 10
565.1139557415924
 20
-72.39988288778551
 30
0.0
 11
564.013955741592
 21
-72.39988288778551
 31
0.0
  0
LINE
  5
B66A
330
9F49
100
AcDbEntity
  8
DIMENSION
 62
     0
370
    -2
100
AcDbLine
 10
563.2639557415922
 20
-72.39988288778551
 30
0.0
 11
562.5139557415923
 21
-72.39988288778551
 31
0.0
  0
SOLID
  5
B66B
330
9F49
100
AcDbEntity
  8
DIMENSION
 62
     0
100
AcDbTrace
 10
565.1139557415924
 20
-72.27488288778551
 30
0.0
 11
565.1139557415924
 21
-72.5248828877855
 31
0.0
 12
565.8639557415924
 22
-72.39988288778551
 32
0.0
 13
565.8639557415924
 23
-72.39988288778551
 33
0.0
  0
SOLID
  5
B66C
330
9F49
100
AcDbEntity
  8
DIMENSION
 62
     0
100
AcDbTrace
 10
564.013955741592
 20
-72.27488288778551
 30
0.0
 11
564.013955741592
 21
-72.5248828877855
 31
0.0
 12
563.2639557415922
 22
-72.39988288778551
 32
0.0
 13
563.2639557415922
 23
-72.39988288778551
 33
0.0
  0
MTEXT
  5
B66D
330
9F49
100
AcDbEntity
  8
DIMENSION
 62
     0
100
AcDbMText
 10
561.0489557415923
 20
-72.39988288778551
 30
0.0
 40
0.75
 41
0.0
 71
     5
 72
     1
  1
\A1;2.600\PMAX
 73
     1
 44
1.0
1001
ACAD
1000
MTEXTBEGIN
1070
    73
1070
     1
1070
    44
1040
1.0
1070
    74
1070
     0
1000
MTEXTEND
  0
POINT
  5
B66E
330
9F49
100
AcDbEntity
  8
Defpoints
 62
     0
100
AcDbPoint
 10
565.8639557415924
 20
-73.66210014880845
 30
0.0
  0
POINT
  5
B66F
330
9F49
100
AcDbEntity
  8
Defpoints
 62
     0
100
AcDbPoint
 10
563.2639557415922
 20
-75.76360014880866
 30
0.0
  0
POINT
  5
B670
330
9F49
100
AcDbEntity
  8
Defpoints
 62
     0
100
AcDbPoint
 10
563.2639557415922
 20
-72.39988288778551
 30
0.0
  0
ENDBLK
  5
9F55
330
9F49
100
AcDbEntity
  8
0
100
AcDbBlockEnd
  0
BLOCK
  5
9F61
330
9F56
100
AcDbEntity
  8
0
100
AcDbBlockBegin
  2
*D34
 70
     1
 10
0.0
 20
0.0
 30
0.0
  3
*D34
  1

  0
LINE
  5
B6CC
330
9F56
100
AcDbEntity
  8
DIMENSION
 62
     0
370
    -2
100
AcDbLine
 10
624.0743176936355
 20
-103.7531001488086
 30
0.0
 11
628.7294057496742
 21
-103.7531001488086
 31
0.0
  0
LINE
  5
B6CD
330
9F56
100
AcDbEntity
  8
DIMENSION
 62
     0
370
    -2
100
AcDbLine
 10
625.5093176936354
 20
-86.55560014880757
 30
0.0
 11
628.7294057496742
 21
-86.55560014880757
 31
0.0
  0
LINE
  5
B6CE
330
9F56
100
AcDbEntity
  8
DIMENSION
 62
     0
370
    -2
100
AcDbLine
 10
628.5494057496745
 20
-103.0031001488086
 30
0.0
 11
628.5494057496745
 21
-96.24435014880809
 31
0.0
  0
LINE
  5
B6CF
330
9F56
100
AcDbEntity
  8
DIMENSION
 62
     0
370
    -2
100
AcDbLine
 10
628.5494057496745
 20
-87.30560014880756
 30
0.0
 11
628.5494057496745
 21
-94.06435014880807
 31
0.0
  0
SOLID
  5
B6D0
330
9F56
100
AcDbEntity
  8
DIMENSION
 62
     0
100
AcDbTrace
 10
628.4244057496745
 20
-103.0031001488086
 30
0.0
 11
628.6744057496745
 21
-103.0031001488086
 31
0.0
 12
628.5494057496745
 22
-103.7531001488086
 32
0.0
 13
628.5494057496745
 23
-103.7531001488086
 33
0.0
  0
SOLID
  5
B6D1
330
9F56
100
AcDbEntity
  8
DIMENSION
 62
     0
100
AcDbTrace
 10
628.4244057496745
 20
-87.30560014880756
 30
0.0
 11
628.6744057496745
 21
-87.30560014880756
 31
0.0
 12
628.5494057496745
 22
-86.55560014880757
 32
0.0
 13
628.5494057496745
 23
-86.55560014880757
 33
0.0
  0
MTEXT
  5
B6D2
330
9F56
100
AcDbEntity
  8
DIMENSION
 62
     0
100
AcDbMText
 10
628.5494057496745
 20
-95.15435014880798
 30
0.0
 40
0.75
 41
0.0
 71
     5
 72
     1
  1
\A1;17.198\PREF
 73
     1
 44
1.0
1001
ACAD
1000
MTEXTBEGIN
1070
    73
1070
     1
1070
    44
1040
1.0
1070
    74
1070
     0
1000
MTEXTEND
  0
POINT
  5
B6D3
330
9F56
100
AcDbEntity
  8
Defpoints
 62
     0
100
AcDbPoint
 10
623.7743176936354
 20
-103.7531001488086
 30
0.0
  0
POINT
  5
B6D4
330
9F56
100
AcDbEntity
  8
Defpoints
 62
     0
100
AcDbPoint
 10
625.2093176936355
 20
-86.55560014880757
 30
0.0
  0
POINT
  5
B6D5
330
9F56
100
AcDbEntity
  8
Defpoints
 62
     0
100
AcDbPoint
 10
628.5494057496745
 20
-86.55560014880757
 30
0.0
  0
ENDBLK
  5
9F62
330
9F56
100
AcDbEntity
  8
0
100
AcDbBlockEnd
  0
BLOCK
  5
9F6E
330
9F63
100
AcDbEntity
  8
0
100
AcDbBlockBegin
  2
*D35
 70
     1
 10
0.0
 20
0.0
 30
0.0
  3
*D35
  1

  0
LINE
  5
B6E0
330
9F63
100
AcDbEntity
  8
DIMENSION
 62
     0
370
    -2
100
AcDbLine
 10
623.7743176936354
 20
-83.19310014880867
 30
0.0
 11
623.7743176936354
 21
-81.69527345286178
 31
0.0
  0
LINE
  5
B6E1
330
9F63
100
AcDbEntity
  8
DIMENSION
 62
     0
370
    -2
100
AcDbLine
 10
625.2093176936355
 20
-83.25560014880755
 30
0.0
 11
625.2093176936355
 21
-81.69527345286178
 31
0.0
  0
LINE
  5
B6E2
330
9F63
100
AcDbEntity
  8
DIMENSION
 62
     0
370
    -2
100
AcDbLine
 10
623.0243176936355
 20
-81.87527345286179
 30
0.0
 11
622.2743176936354
 21
-81.87527345286179
 31
0.0
  0
LINE
  5
B6E3
330
9F63
100
AcDbEntity
  8
DIMENSION
 62
     0
370
    -2
100
AcDbLine
 10
625.9593176936355
 20
-81.87527345286179
 30
0.0
 11
626.7093176936355
 21
-81.87527345286179
 31
0.0
  0
SOLID
  5
B6E4
330
9F63
100
AcDbEntity
  8
DIMENSION
 62
     0
100
AcDbTrace
 10
623.0243176936355
 20
-81.7502734528618
 30
0.0
 11
623.0243176936355
 21
-82.00027345286178
 31
0.0
 12
623.7743176936354
 22
-81.87527345286179
 32
0.0
 13
623.7743176936354
 23
-81.87527345286179
 33
0.0
  0
SOLID
  5
B6E5
330
9F63
100
AcDbEntity
  8
DIMENSION
 62
     0
100
AcDbTrace
 10
625.9593176936355
 20
-81.7502734528618
 30
0.0
 11
625.9593176936355
 21
-82.00027345286178
 31
0.0
 12
625.2093176936355
 22
-81.87527345286179
 32
0.0
 13
625.2093176936355
 23
-81.87527345286179
 33
0.0
  0
MTEXT
  5
B6E6
330
9F63
100
AcDbEntity
  8
DIMENSION
 62
     0
100
AcDbMText
 10
628.0493176936354
 20
-81.87527345286179
 30
0.0
 40
0.75
 41
0.0
 71
     5
 72
     1
  1
\A1;1.500\PMAX
 73
     1
 44
1.0
1001
ACAD
1000
MTEXTBEGIN
1070
    73
1070
     1
1070
    44
1040
1.0
1070
    74
1070
     0
1000
MTEXTEND
  0
POINT
  5
B6E7
330
9F63
100
AcDbEntity
  8
Defpoints
 62
     0
100
AcDbPoint
 10
623.7743176936354
 20
-83.49310014880868
 30
0.0
  0
POINT
  5
B6E8
330
9F63
100
AcDbEntity
  8
Defpoints
 62
     0
100
AcDbPoint
 10
625.2093176936355
 20
-83.55560014880756
 30
0.0
  0
POINT
  5
B6E9
330
9F63
100
AcDbEntity
  8
Defpoints
 62
     0
100
AcDbPoint
 10
625.2093176936355
 20
-81.87527345286179
 30
0.0
  0
ENDBLK
  5
9F6F
330
9F63
100
AcDbEntity
  8
0
100
AcDbBlockEnd
  0
BLOCK
  5
B5E0
330
B5D5
100
AcDbEntity
  8
0
100
AcDbBlockBegin
  2
*D36
 70
     1
 10
0.0
 20
0.0
 30
0.0
  3
*D36
  1

  0
LINE
  5
B603
330
B5D5
100
AcDbEntity
  8
DIMENSION
 62
     0
370
    -2
100
AcDbLine
 10
595.3313912247374
 20
-57.57165504957129
 30
0.0
 11
595.3313912247374
 21
-57.65909400354651
 31
0.0
  0
LINE
  5
B604
330
B5D5
100
AcDbEntity
  8
DIMENSION
 62
     0
370
    -2
100
AcDbLine
 10
598.4704078123266
 20
-55.79961988795023
 30
0.0
 11
598.4704078123266
 21
-58.01909400354649
 31
0.0
  0
LINE
  5
B605
330
B5D5
100
AcDbEntity
  8
DIMENSION
 62
     0
370
    -2
100
AcDbLine
 10
596.0813912247374
 20
-57.83909400354651
 30
0.0
 11
597.7204078123267
 21
-57.83909400354651
 31
0.0
  0
LINE
  5
B606
330
B5D5
100
AcDbEntity
  8
DIMENSION
 62
     0
370
    -2
100
AcDbLine
 10
598.4704078123266
 20
-57.83909400354651
 30
0.0
 11
599.2204078123267
 21
-57.83909400354651
 31
0.0
  0
SOLID
  5
B607
330
B5D5
100
AcDbEntity
  8
DIMENSION
 62
     0
100
AcDbTrace
 10
596.0813912247374
 20
-57.71409400354649
 30
0.0
 11
596.0813912247374
 21
-57.96409400354651
 31
0.0
 12
595.3313912247374
 22
-57.83909400354651
 32
0.0
 13
595.3313912247374
 23
-57.83909400354651
 33
0.0
  0
SOLID
  5
B608
330
B5D5
100
AcDbEntity
  8
DIMENSION
 62
     0
100
AcDbTrace
 10
597.7204078123267
 20
-57.71409400354649
 30
0.0
 11
597.7204078123267
 21
-57.96409400354651
 31
0.0
 12
598.4704078123266
 22
-57.83909400354651
 32
0.0
 13
598.4704078123266
 23
-57.83909400354651
 33
0.0
  0
MTEXT
  5
B609
330
B5D5
100
AcDbEntity
  8
DIMENSION
 62
     0
100
AcDbMText
 10
600.6854078123267
 20
-57.83909400354651
 30
0.0
 40
0.75
 41
0.0
 71
     5
 72
     1
  1
\A1;3.139\PREF
 73
     1
 44
1.0
1001
ACAD
1000
MTEXTBEGIN
1070
    73
1070
     1
1070
    44
1040
1.0
1070
    74
1070
     0
1000
MTEXTEND
  0
POINT
  5
B60A
330
B5D5
100
AcDbEntity
  8
Defpoints
 62
     0
100
AcDbPoint
 10
595.3313912247374
 20
-57.87165504957127
 30
0.0
  0
POINT
  5
B60B
330
B5D5
100
AcDbEntity
  8
Defpoints
 62
     0
100
AcDbPoint
 10
598.4704078123266
 20
-55.49961988795025
 30
0.0
  0
POINT
  5
B60C
330
B5D5
100
AcDbEntity
  8
Defpoints
 62
     0
100
AcDbPoint
 10
598.4704078123266
 20
-57.83909400354651
 30
0.0
  0
ENDBLK
  5
B5E1
330
B5D5
100
AcDbEntity
  8
0
100
AcDbBlockEnd
  0
BLOCK
  5
B713
330
B707
100
AcDbEntity
  8
0
100
AcDbBlockBegin
  2
*D37
 70
     1
 10
0.0
 20
0.0
 30
0.0
  3
*D37
  1

  0
LINE
  5
B743
330
B707
100
AcDbEntity
  8
DIMENSION
 62
     0
370
    -2
100
AcDbLine
 10
576.8719909032133
 20
-101.0715827857793
 30
0.0
 11
581.5483970457552
 21
-101.0715827857793
 31
0.0
  0
LINE
  5
B744
330
B707
100
AcDbEntity
  8
DIMENSION
 62
     0
370
    -2
100
AcDbLine
 10
574.4999557415924
 20
-103.7531001488086
 30
0.0
 11
581.5483970457552
 21
-103.7531001488086
 31
0.0
  0
LINE
  5
B745
330
B707
100
AcDbEntity
  8
DIMENSION
 62
     0
370
    -2
100
AcDbLine
 10
581.3683970457552
 20
-101.8215827857793
 30
0.0
 11
581.3683970457552
 21
-103.0031001488086
 31
0.0
  0
LINE
  5
B746
330
B707
100
AcDbEntity
  8
DIMENSION
 62
     0
370
    -2
100
AcDbLine
 10
581.3683970457552
 20
-103.7531001488086
 30
0.0
 11
581.3683970457552
 21
-104.5031001488086
 31
0.0
  0
LINE
  5
B747
330
B707
100
AcDbEntity
  8
DIMENSION
 62
     0
370
    -2
100
AcDbLine
 10
581.3683970457552
 20
-104.5031001488086
 30
0.0
 11
580.6183970457552
 21
-104.5031001488086
 31
0.0
  0
SOLID
  5
B748
330
B707
100
AcDbEntity
  8
DIMENSION
 62
     0
100
AcDbTrace
 10
581.2433970457552
 20
-101.8215827857793
 30
0.0
 11
581.4933970457552
 21
-101.8215827857793
 31
0.0
 12
581.3683970457552
 22
-101.0715827857793
 32
0.0
 13
581.3683970457552
 23
-101.0715827857793
 33
0.0
  0
SOLID
  5
B749
330
B707
100
AcDbEntity
  8
DIMENSION
 62
     0
100
AcDbTrace
 10
581.2433970457552
 20
-103.0031001488086
 30
0.0
 11
581.4933970457552
 21
-103.0031001488086
 31
0.0
 12
581.3683970457552
 22
-103.7531001488086
 32
0.0
 13
581.3683970457552
 23
-103.7531001488086
 33
0.0
  0
MTEXT
  5
B74A
330
B707
100
AcDbEntity
  8
DIMENSION
 62
     0
100
AcDbMText
 10
579.0283970457552
 20
-104.5031001488085
 30
0.0
 40
0.75
 41
0.0
 71
     5
 72
     1
  1
\A1;\P2.682\PREF
 73
     1
 44
1.0
1001
ACAD
1000
MTEXTBEGIN
1070
    73
1070
     1
1070
    44
1040
1.0
1070
    74
1070
     0
1000
MTEXTEND
  0
POINT
  5
B74B
330
B707
100
AcDbEntity
  8
Defpoints
 62
     0
100
AcDbPoint
 10
576.5719909032135
 20
-101.0715827857793
 30
0.0
  0
POINT
  5
B74C
330
B707
100
AcDbEntity
  8
Defpoints
 62
     0
100
AcDbPoint
 10
574.1999557415922
 20
-103.7531001488086
 30
0.0
  0
POINT
  5
B74D
330
B707
100
AcDbEntity
  8
Defpoints
 62
     0
100
AcDbPoint
 10
581.3683970457552
 20
-103.7531001488086
 30
0.0
  0
ENDBLK
  5
B714
330
B707
100
AcDbEntity
  8
0
100
AcDbBlockEnd
  0
ENDSEC
  0
SECTION
  2
ENTITIES
  0
TEXT
  5
4FD7
330
1F
100
AcDbEntity
  8
cutout
100
AcDbText
 10
883.960454118144
 20
-15.86401112086037
 30
0.0
 40
1.0
  1

100
AcDbText
  0
LINE
  5
91D0
330
1F
100
AcDbEntity
  8
BORDER
100
AcDbLine
 10
576.7645196048207
 20
-219.6048561967404
 30
0.0
 11
560.5190163588961
 21
-219.6048561967404
 31
0.0
  0
TEXT
  5
91D1
330
1F
100
AcDbEntity
  8
TEXT
100
AcDbText
 10
561.0033913588961
 20
-219.9798561967405
 30
0.0
 40
0.25
  1
0
 72
     1
 11
561.0658913588961
 21
-219.8548561967405
 31
0.0
100
AcDbText
 73
     2
  0
LINE
  5
91D2
330
1F
100
AcDbEntity
  8
BORDER
100
AcDbLine
 10
561.6127663588961
 20
-220.1048561967405
 30
0.0
 11
561.6127663588961
 21
-218.6048561967403
 31
0.0
  0
TEXT
  5
91D3
330
1F
100
AcDbEntity
  8
TEXT
100
AcDbText
 10
565.1325580255628
 20
-219.9798561967405
 30
0.0
 40
0.25
  1
INITIAL RELEASE
 72
     1
 11
566.8408913588962
 21
-219.8548561967405
 31
0.0
100
AcDbText
 73
     2
  0
TEXT
  5
91D4
330
1F
100
AcDbEntity
  8
TEXT
100
AcDbText
 10
575.1834346485252
 20
-219.9798561967405
 30
0.0
 40
0.25
  1
GFD
 72
     1
 11
575.5167679818586
 21
-219.8548561967405
 31
0.0
100
AcDbText
 73
     2
  0
LINE
  5
91D5
330
1F
100
AcDbEntity
  8
BORDER
100
AcDbLine
 10
574.2690163588962
 20
-220.1048561967405
 30
0.0
 11
574.2690163588962
 21
-218.6048561967403
 31
0.0
  0
TEXT
  5
91D6
330
1F
100
AcDbEntity
  8
TEXT
100
AcDbText
 10
572.3773496922295
 20
-219.9798561967405
 30
0.0
 40
0.25
  1
9-20-05
 72
     1
 11
573.1690163588962
 21
-219.8548561967405
 31
0.0
100
AcDbText
 73
     2
  0
LINE
  5
91D7
330
1F
100
AcDbEntity
  8
BORDER
100
AcDbLine
 10
572.0690163588963
 20
-220.1048561967405
 30
0.0
 11
572.0690163588963
 21
-218.6048561967403
 31
0.0
  0
LINE
  5
91D8
330
1F
100
AcDbEntity
  8
BORDER
100
AcDbLine
 10
576.7645196048207
 20
-220.6048561967405
 30
0.0
 11
560.5190163588961
 21
-220.6048561967405
 31
0.0
  0
LINE
  5
91D9
330
1F
100
AcDbEntity
  8
BORDER
100
AcDbLine
 10
576.7645196048207
 20
-220.1048561967405
 30
0.0
 11
560.5190163588961
 21
-220.1048561967405
 31
0.0
  0
TEXT
  5
91DA
330
1F
100
AcDbEntity
  8
TEXT
100
AcDbText
 10
560.6908913588961
 20
-220.4798561967405
 30
0.0
 40
0.25
  1
REV
 72
     1
 11
561.0658913588961
 21
-220.3548561967405
 31
0.0
100
AcDbText
 73
     2
  0
LINE
  5
91DB
330
1F
100
AcDbEntity
  8
BORDER
100
AcDbLine
 10
560.5190163588961
 20
-221.1048561967404
 30
0.0
 11
560.5190163588961
 21
-218.1048561967403
 31
0.0
  0
LINE
  5
91DC
330
1F
100
AcDbEntity
  8
BORDER
100
AcDbLine
 10
561.6127663588961
 20
-220.6048561967405
 30
0.0
 11
561.6127663588961
 21
-220.1048561967405
 31
0.0
  0
TEXT
  5
91DD
330
1F
100
AcDbEntity
  8
TEXT
100
AcDbText
 10
565.5908913588961
 20
-220.4798561967405
 30
0.0
 40
0.25
  1
DESCRIPTION
 72
     1
 11
566.8408913588962
 21
-220.3548561967405
 31
0.0
100
AcDbText
 73
     2
  0
TEXT
  5
91DE
330
1F
100
AcDbEntity
  8
TEXT
100
AcDbText
 10
574.6834346485252
 20
-220.4798561967405
 30
0.0
 40
0.25
  1
CHECKED
 72
     1
 11
575.5167679818586
 21
-220.3548561967405
 31
0.0
100
AcDbText
 73
     2
  0
LINE
  5
91DF
330
1F
100
AcDbEntity
  8
BORDER
100
AcDbLine
 10
574.2690163588962
 20
-220.6048561967405
 30
0.0
 11
574.2690163588962
 21
-220.1048561967405
 31
0.0
  0
TEXT
  5
91E0
330
1F
100
AcDbEntity
  8
TEXT
100
AcDbText
 10
572.7106830255628
 20
-220.4798561967405
 30
0.0
 40
0.25
  1
DATE
 72
     1
 11
573.1690163588962
 21
-220.3548561967405
 31
0.0
100
AcDbText
 73
     2
  0
LINE
  5
91E1
330
1F
100
AcDbEntity
  8
BORDER
100
AcDbLine
 10
572.0690163588963
 20
-220.6048561967405
 30
0.0
 11
572.0690163588963
 21
-220.1048561967405
 31
0.0
  0
LINE
  5
91E2
330
1F
100
AcDbEntity
  8
BORDER
100
AcDbLine
 10
560.5190163588961
 20
-220.6048561967405
 30
0.0
 11
576.7645196048207
 21
-220.6048561967405
 31
0.0
  0
LINE
  5
91E3
330
1F
100
AcDbEntity
  8
BORDER
100
AcDbLine
 10
576.7645196048207
 20
-218.6048561967403
 30
0.0
 11
576.7645196048207
 21
-221.1048561967404
 31
0.0
  0
LINE
  5
91E4
330
1F
100
AcDbEntity
  8
BORDER
100
AcDbLine
 10
576.7645196048207
 20
-221.1048561967404
 30
0.0
 11
560.5190163588961
 21
-221.1048561967404
 31
0.0
  0
LINE
  5
9211
330
1F
100
AcDbEntity
  8
DIMENSION
100
AcDbLine
 10
578.42715550162
 20
-173.9751625016796
 30
0.0
 11
578.6071555016201
 21
-173.9751625016795
 31
0.0
  0
LINE
  5
9212
330
1F
100
AcDbEntity
  8
DIMENSION
100
AcDbLine
 10
578.5171555016201
 20
-174.0651625016795
 30
0.0
 11
578.5171555016201
 21
-173.8851625016796
 31
0.0
  0
LINE
  5
9213
330
1F
100
AcDbEntity
  8
DIMENSION
100
AcDbLine
 10
590.0171555016201
 20
-174.0651625016795
 30
0.0
 11
590.0171555016201
 21
-173.8851625016796
 31
0.0
  0
LINE
  5
9214
330
1F
100
AcDbEntity
  8
DIMENSION
100
AcDbLine
 10
589.92715550162
 20
-173.9751625016796
 30
0.0
 11
590.10715550162
 21
-173.9751625016795
 31
0.0
  0
LINE
  5
9215
330
1F
100
AcDbEntity
  8
DIMENSION
100
AcDbLine
 10
589.1121555016202
 20
-181.4051625016798
 30
0.0
 11
589.2921555016203
 21
-181.4051625016796
 31
0.0
  0
LINE
  5
9216
330
1F
100
AcDbEntity
  8
DIMENSION
100
AcDbLine
 10
589.2021555016202
 20
-181.4951625016796
 30
0.0
 11
589.2021555016202
 21
-181.3151625016797
 31
0.0
  0
LINE
  5
9217
330
1F
100
AcDbEntity
  8
DIMENSION
100
AcDbLine
 10
579.2436555016203
 20
-181.4051625016796
 30
0.0
 11
579.4236555016202
 21
-181.4051625016796
 31
0.0
  0
LINE
  5
9218
330
1F
100
AcDbEntity
  8
DIMENSION
100
AcDbLine
 10
579.3336555016202
 20
-181.4951625016796
 30
0.0
 11
579.3336555016202
 21
-181.3151625016797
 31
0.0
  0
LINE
  5
9219
330
1F
100
AcDbEntity
  8
DIMENSION
100
AcDbLine
 10
580.42715550162
 20
-186.9751625016796
 30
0.0
 11
580.6071555016201
 21
-186.9751625016795
 31
0.0
  0
LINE
  5
921A
330
1F
100
AcDbEntity
  8
DIMENSION
100
AcDbLine
 10
580.5171555016198
 20
-187.0651625016796
 30
0.0
 11
580.5171555016198
 21
-186.8851625016796
 31
0.0
  0
LINE
  5
921B
330
1F
100
AcDbEntity
  8
DIMENSION
100
AcDbLine
 10
580.42715550162
 20
-199.9751625016796
 30
0.0
 11
580.6071555016201
 21
-199.9751625016795
 31
0.0
  0
LINE
  5
921C
330
1F
100
AcDbEntity
  8
DIMENSION
100
AcDbLine
 10
580.5171555016198
 20
-200.0651625016796
 30
0.0
 11
580.5171555016198
 21
-199.8851625016796
 31
0.0
  0
LINE
  5
921D
330
1F
100
AcDbEntity
  8
DIMENSION
100
AcDbLine
 10
587.9271555016201
 20
-199.9751625016796
 30
0.0
 11
588.1071555016201
 21
-199.9751625016795
 31
0.0
  0
LINE
  5
921E
330
1F
100
AcDbEntity
  8
DIMENSION
100
AcDbLine
 10
588.0171555016199
 20
-200.0651625016796
 30
0.0
 11
588.0171555016199
 21
-199.8851625016796
 31
0.0
  0
DIMENSION
  5
931E
102
{ACAD_XDICTIONARY
360
931F
102
}
102
{ACAD_REACTORS
330
9320
102
}
330
1F
100
AcDbEntity
  8
DIMENSION
100
AcDbDimension
  2
*D29
 10
587.8616399897231
 20
-186.87041912213
 30
0.0
 11
595.5598074403166
 21
-189.4268910236969
 31
0.0
 70
   163
  1
<> (8)
 71
     5
 42
0.3749999999998863
  3
Standard
100
AcDbDiametricDimension
 15
588.1726710135165
 25
-187.0799058812293
 35
0.0
 40
0.0
1001
ACAD
1000
DSTYLE
1002
{
1070
   288
1070
     1
1002
}
  0
DIMENSION
  5
9321
102
{ACAD_XDICTIONARY
360
9322
102
}
102
{ACAD_REACTORS
330
9323
102
}
330
1F
100
AcDbEntity
  8
DIMENSION
100
AcDbDimension
  2
*D28
 10
578.13315550162
 20
-201.9151625016796
 30
0.0
 11
577.8934425090124
 21
-167.4450809624691
 31
0.0
 70
   102
 71
     5
 42
0.3840000000000145
  3
Standard
100
AcDbOrdinateDimension
 13
578.5171555016201
 23
-173.9751625016796
 33
0.0
 14
577.8934425090124
 24
-168.9725809624692
 34
0.0
  0
DIMENSION
  5
9324
102
{ACAD_XDICTIONARY
360
9325
102
}
102
{ACAD_REACTORS
330
9326
102
}
330
1F
100
AcDbEntity
  8
DIMENSION
100
AcDbDimension
  2
*D27
 10
578.13315550162
 20
-201.9151625016796
 30
0.0
 11
573.4933638864362
 21
-173.9751625016796
 31
0.0
 70
    38
 71
     5
 42
27.94
  3
Standard
100
AcDbOrdinateDimension
 13
578.5171555016201
 23
-173.9751625016796
 33
0.0
 14
575.3958638864362
 24
-173.9751625016796
 34
0.0
  0
DIMENSION
  5
9327
102
{ACAD_XDICTIONARY
360
9328
102
}
102
{ACAD_REACTORS
330
9329
102
}
330
1F
100
AcDbEntity
  8
DIMENSION
100
AcDbDimension
  2
*D26
 10
578.13315550162
 20
-201.9151625016796
 30
0.0
 11
594.7960918381498
 21
-171.8241625016796
 31
0.0
 70
    38
 71
     5
 42
30.09100000000007
  3
Standard
100
AcDbOrdinateDimension
 13
590.40315550162
 23
-171.8241625016796
 33
0.0
 14
593.0810918381497
 24
-171.8241625016796
 34
0.0
  0
DIMENSION
  5
932A
102
{ACAD_XDICTIONARY
360
932B
102
}
102
{ACAD_REACTORS
330
932C
102
}
330
1F
100
AcDbEntity
  8
DIMENSION
100
AcDbDimension
  2
*D25
 10
578.13315550162
 20
-201.9151625016796
 30
0.0
 11
586.9477006359102
 21
-206.4796210710027
 31
0.0
 70
   102
 71
     5
 42
9.883999999999787
  3
Standard
100
AcDbOrdinateDimension
 13
588.0171555016199
 23
-200.1626625016796
 33
0.0
 14
586.9477006359102
 24
-204.8896210710029
 34
0.0
  0
DIMENSION
  5
932D
102
{ACAD_XDICTIONARY
360
932E
102
}
102
{ACAD_REACTORS
330
932F
102
}
330
1F
100
AcDbEntity
  8
DIMENSION
100
AcDbDimension
  2
*D24
 10
578.13315550162
 20
-201.9151625016796
 30
0.0
 11
573.5195702426372
 21
-186.9751625016796
 31
0.0
 70
    38
 71
     5
 42
14.93999999999999
  3
Standard
100
AcDbOrdinateDimension
 13
580.3296555016201
 23
-186.9751625016796
 33
0.0
 14
575.2970702426372
 24
-186.9751625016796
 34
0.0
  0
DIMENSION
  5
9330
102
{ACAD_XDICTIONARY
360
9331
102
}
102
{ACAD_REACTORS
330
9332
102
}
330
1F
100
AcDbEntity
  8
DIMENSION
100
AcDbDimension
  2
*D23
 10
578.13315550162
 20
-201.9151625016796
 30
0.0
 11
573.3359549341805
 21
-182.2491442344608
 31
0.0
 70
    38
 71
     5
 42
20.50999999999999
  3
Standard
100
AcDbOrdinateDimension
 13
579.1461555016202
 23
-181.4051625016796
 33
0.0
 14
575.0509549341805
 24
-182.2491442344608
 34
0.0
  0
DIMENSION
  5
9339
330
1F
100
AcDbEntity
  8
DIMENSION
100
AcDbDimension
  2
*D8
 10
578.13315550162
 20
-201.9151625016796
 30
0.0
 11
588.0782385340681
 21
-167.3976167045705
 31
0.0
 70
   102
 71
     5
 42
11.88400000000001
  3
Standard
100
AcDbOrdinateDimension
 13
590.0171555016201
 23
-173.9751625016796
 33
0.0
 14
588.0782385340681
 24
-169.1126167045706
 34
0.0
  0
MTEXT
  5
933A
330
1F
100
AcDbEntity
  8
DIMENSION
100
AcDbMText
 10
586.2174556476245
 20
-190.2249412012558
 30
0.0
 40
0.75
 41
0.0
 71
     5
 72
     1
  1
\A1;10.278
 11
0.0000000000000001
 21
1.0
 31
0.0
 73
     1
 44
1.0
1001
ACAD
1000
MTEXTBEGIN
1070
    73
1070
     1
1070
    44
1040
1.0
1070
    74
1070
     0
1000
MTEXTEND
  0
LINE
  5
933B
330
1F
100
AcDbEntity
  8
DIMENSION
100
AcDbLine
 10
586.2174556476245
 20
-186.9474412012559
 30
0.0
 11
586.2174556476245
 21
-188.4474412012559
 31
0.0
  0
LINE
  5
933C
330
1F
100
AcDbEntity
  8
DIMENSION
100
AcDbLine
 10
588.4109055016202
 20
-185.3670287912526
 30
0.0
 11
588.4109055016202
 21
-186.0170287912526
 31
0.0
  0
LINE
  5
933D
330
1F
100
AcDbEntity
  8
DIMENSION
100
AcDbLine
 10
588.4109055016202
 20
-186.0170287912526
 30
0.0
 11
586.2174556476245
 21
-186.9474412012559
 31
0.0
  0
MTEXT
  5
933E
330
1F
100
AcDbEntity
  8
DIMENSION
100
AcDbMText
 10
581.8328765910774
 20
-190.06730593028
 30
0.0
 40
0.75
 41
0.0
 71
     5
 72
     1
  1
\A1;2.112
 11
0.0000000000000001
 21
1.0
 31
0.0
 73
     1
 44
1.0
1001
ACAD
1000
MTEXTBEGIN
1070
    73
1070
     1
1070
    44
1040
1.0
1070
    74
1070
     0
1000
MTEXTEND
  0
LINE
  5
933F
330
1F
100
AcDbEntity
  8
DIMENSION
100
AcDbLine
 10
581.8328765910774
 20
-187.2273059302801
 30
0.0
 11
581.8328765910774
 21
-188.7273059302801
 31
0.0
  0
LINE
  5
9340
330
1F
100
AcDbEntity
  8
DIMENSION
100
AcDbLine
 10
580.2455305016199
 20
-185.3670287912526
 30
0.0
 11
580.2455305016199
 21
-186.0170287912527
 31
0.0
  0
LINE
  5
9341
330
1F
100
AcDbEntity
  8
DIMENSION
100
AcDbLine
 10
581.8328765910774
 20
-187.2273059302801
 30
0.0
 11
580.2455305016199
 21
-186.0170287912526
 31
0.0
  0
DIMENSION
  5
9342
102
{ACAD_XDICTIONARY
360
9343
102
}
102
{ACAD_REACTORS
330
9344
102
}
330
1F
100
AcDbEntity
  8
DIMENSION
100
AcDbDimension
  2
*D22
 10
578.13315550162
 20
-201.9151625016796
 30
0.0
 11
579.4706875365333
 21
-167.2700806223415
 31
0.0
 70
   102
 71
     5
 42
0.5967500000002702
  3
Standard
100
AcDbOrdinateDimension
 13
578.7299055016204
 23
-172.1661625016796
 33
0.0
 14
579.4706875365333
 24
-168.7975806223416
 34
0.0
  0
DIMENSION
  5
9345
102
{ACAD_XDICTIONARY
360
9346
102
}
102
{ACAD_REACTORS
330
9347
102
}
330
1F
100
AcDbEntity
  8
DIMENSION
100
AcDbDimension
  2
*D21
 10
578.13315550162
 20
-201.9151625016796
 30
0.0
 11
573.5672305318272
 21
-172.1661625016796
 31
0.0
 70
    38
  1
29.750
 71
     5
 42
29.749
  3
Standard
100
AcDbOrdinateDimension
 13
578.7299055016204
 23
-172.1661625016796
 33
0.0
 14
575.4697305318273
 24
-172.1661625016796
 34
0.0
  0
DIMENSION
  5
9348
102
{ACAD_XDICTIONARY
360
9349
102
}
102
{ACAD_REACTORS
330
934A
102
}
330
1F
100
AcDbEntity
  8
DIMENSION
100
AcDbDimension
  2
*D20
 10
578.13315550162
 20
-201.9151625016796
 30
0.0
 11
573.7903651792522
 21
-180.9161625016796
 31
0.0
 70
    38
  1
21.000
 71
     5
 42
20.99899999999999
  3
Standard
100
AcDbOrdinateDimension
 13
578.7299055016202
 23
-180.9161625016796
 33
0.0
 14
575.4428651792522
 24
-180.9161625016796
 34
0.0
  0
DIMENSION
  5
934B
102
{ACAD_XDICTIONARY
360
934C
102
}
102
{ACAD_REACTORS
330
934D
102
}
330
1F
100
AcDbEntity
  8
DIMENSION
100
AcDbDimension
  2
*D19
 10
578.13315550162
 20
-201.9151625016796
 30
0.0
 11
573.7193941732313
 21
-185.1670287912526
 31
0.0
 70
    38
 71
     5
 42
16.74813371042708
  3
Standard
100
AcDbOrdinateDimension
 13
580.2455305016199
 23
-185.1670287912526
 33
0.0
 14
575.5593941732313
 24
-185.1670287912526
 34
0.0
  0
DIMENSION
  5
934E
102
{ACAD_XDICTIONARY
360
934F
102
}
102
{ACAD_REACTORS
330
9350
102
}
330
1F
100
AcDbEntity
  8
DIMENSION
100
AcDbDimension
  2
*D18
 10
578.13315550162
 20
-201.9151625016796
 30
0.0
 11
590.40315550162
 21
-206.6371057325028
 31
0.0
 70
   102
 71
     5
 42
12.26999999999998
  3
Standard
100
AcDbOrdinateDimension
 13
590.40315550162
 23
-201.9151625016796
 33
0.0
 14
590.40315550162
 24
-204.8596057325029
 34
0.0
  0
DIMENSION
  5
9351
102
{ACAD_XDICTIONARY
360
9352
102
}
102
{ACAD_REACTORS
330
9353
102
}
330
1F
100
AcDbEntity
  8
DIMENSION
100
AcDbDimension
  2
*D17
 10
578.13315550162
 20
-201.9151625016796
 30
0.0
 11
588.7003523761059
 21
-206.5255530893363
 31
0.0
 70
   102
 71
     5
 42
11.06900000000019
  3
Standard
100
AcDbOrdinateDimension
 13
589.2021555016202
 23
-181.4051625016796
 33
0.0
 14
588.7003523761059
 24
-204.8730530893364
 34
0.0
  0
DIMENSION
  5
9354
102
{ACAD_XDICTIONARY
360
9355
102
}
102
{ACAD_REACTORS
330
9356
102
}
330
1F
100
AcDbEntity
  8
DIMENSION
100
AcDbDimension
  2
*D16
 10
578.13315550162
 20
-201.9151625016796
 30
0.0
 11
579.8768562406293
 21
-206.1256452699191
 31
0.0
 70
   102
  1
1.200
 71
     5
 42
1.200500000000147
  3
Standard
100
AcDbOrdinateDimension
 13
579.3336555016202
 23
-181.5926625016796
 33
0.0
 14
579.8768562406293
 24
-204.7856452699192
 34
0.0
  0
DIMENSION
  5
9357
102
{ACAD_XDICTIONARY
360
9358
102
}
102
{ACAD_REACTORS
330
9359
102
}
330
1F
100
AcDbEntity
  8
DIMENSION
100
AcDbDimension
  2
*D15
 10
578.13315550162
 20
-201.9151625016796
 30
0.0
 11
581.2151033802597
 21
-206.107957042562
 31
0.0
 70
   102
 71
     5
 42
2.383999999999787
  3
Standard
100
AcDbOrdinateDimension
 13
580.5171555016198
 23
-200.1626625016796
 33
0.0
 14
581.2151033802597
 24
-204.5179570425621
 34
0.0
  0
DIMENSION
  5
935A
102
{ACAD_XDICTIONARY
360
935B
102
}
102
{ACAD_REACTORS
330
935C
102
}
330
1F
100
AcDbEntity
  8
DIMENSION
100
AcDbDimension
  2
*D14
 10
578.13315550162
 20
-201.9151625016796
 30
0.0
 11
574.3709346968524
 21
-199.9751625016796
 31
0.0
 70
    38
 71
     5
 42
1.939999999999997
  3
Standard
100
AcDbOrdinateDimension
 13
580.3296555016201
 23
-199.9751625016796
 33
0.0
 14
575.7734346968525
 24
-199.9751625016796
 34
0.0
  0
DIMENSION
  5
935D
330
1F
100
AcDbEntity
  8
DIMENSION
100
AcDbDimension
  2
*D7
 10
578.13315550162
 20
-201.9151625016796
 30
0.0
 11
574.3534746352292
 21
-201.9151625016796
 31
0.0
 70
    38
 71
     5
 42
0.0
  3
Standard
100
AcDbOrdinateDimension
 13
578.13315550162
 23
-201.9151625016796
 33
0.0
 14
575.6934746352292
 24
-201.9151625016796
 34
0.0
  0
DIMENSION
  5
935E
102
{ACAD_XDICTIONARY
360
935F
102
}
102
{ACAD_REACTORS
330
9360
102
}
330
1F
100
AcDbEntity
  8
DIMENSION
100
AcDbDimension
  2
*D13
 10
578.13315550162
 20
-201.9151625016796
 30
0.0
 11
578.13315550162
 21
-206.2134840590202
 31
0.0
 70
   102
 71
     5
 42
0.0
  3
Standard
100
AcDbOrdinateDimension
 13
578.13315550162
 23
-201.9151625016796
 33
0.0
 14
578.13315550162
 24
-204.8734840590203
 34
0.0
  0
LINE
  5
9361
330
1F
100
AcDbEntity
  8
cutout
100
AcDbLine
 10
588.4109055016202
 20
-172.1661625016798
 30
0.0
 11
588.4109055016202
 21
-185.1670287912527
 31
0.0
  0
LINE
  5
9362
102
{ACAD_REACTORS
330
9347
330
9344
102
}
330
1F
100
AcDbEntity
  8
cutout
100
AcDbLine
 10
588.4109055016202
 20
-172.1661625016798
 30
0.0
 11
578.7299055016204
 21
-172.1661625016796
 31
0.0
  0
LINE
  5
9363
102
{ACAD_REACTORS
330
934A
102
}
330
1F
100
AcDbEntity
  8
cutout
100
AcDbLine
 10
578.7299055016202
 20
-180.9161625016796
 30
0.0
 11
578.7299055016204
 21
-172.1661625016796
 31
0.0
  0
LINE
  5
9367
102
{ACAD_REACTORS
330
934D
102
}
330
1F
100
AcDbEntity
  8
cutout
100
AcDbLine
 10
580.2455305016201
 20
-180.9161625016796
 30
0.0
 11
580.2455305016199
 21
-185.1670287912526
 31
0.0
  0
LINE
  5
9368
330
1F
100
AcDbEntity
  8
cutout
100
AcDbLine
 10
588.4109055016216
 20
-185.1670287912527
 30
0.0
 11
580.2455305016199
 21
-185.1670287912527
 31
0.0
  0
LINE
  5
9369
330
1F
100
AcDbEntity
  8
cutout
100
AcDbLine
 10
580.2455305016199
 20
-180.9161625016796
 30
0.0
 11
578.7299055016202
 21
-180.9161625016796
 31
0.0
  0
CIRCLE
  5
93D3
102
{ACAD_REACTORS
330
9326
330
9323
102
}
330
1F
100
AcDbEntity
  8
TEMPLATE
100
AcDbCircle
 10
578.5171555016201
 20
-173.9751625016796
 30
0.0
 40
0.1875
  0
CIRCLE
  5
93D4
330
1F
100
AcDbEntity
  8
TEMPLATE
100
AcDbCircle
 10
590.0171555016201
 20
-173.9751625016796
 30
0.0
 40
0.1875
  0
LINE
  5
93D5
102
{ACAD_REACTORS
330
9329
102
}
330
1F
100
AcDbEntity
  8
TEMPLATE
  6
HIDDEN
100
AcDbLine
 10
578.13315550162
 20
-171.8241625016796
 30
0.0
 11
590.40315550162
 21
-171.8241625016796
 31
0.0
  0
CIRCLE
  5
93D6
102
{ACAD_REACTORS
330
9356
330
9332
102
}
330
1F
100
AcDbEntity
  8
TEMPLATE
100
AcDbCircle
 10
579.3336555016202
 20
-181.4051625016796
 30
0.0
 40
0.1875
  0
CIRCLE
  5
93D7
102
{ACAD_REACTORS
330
9353
102
}
330
1F
100
AcDbEntity
  8
TEMPLATE
100
AcDbCircle
 10
589.2021555016202
 20
-181.4051625016796
 30
0.0
 40
0.1875
  0
CIRCLE
  5
93D8
102
{ACAD_REACTORS
330
932F
102
}
330
1F
100
AcDbEntity
  8
TEMPLATE
100
AcDbCircle
 10
580.5171555016198
 20
-186.9751625016796
 30
0.0
 40
0.1875
  0
CIRCLE
  5
93D9
102
{ACAD_REACTORS
330
9320
102
}
330
1F
100
AcDbEntity
  8
TEMPLATE
100
AcDbCircle
 10
588.0171555016199
 20
-186.9751625016796
 30
0.0
 40
0.1875
  0
CIRCLE
  5
93DA
102
{ACAD_REACTORS
330
935C
330
9359
102
}
330
1F
100
AcDbEntity
  8
TEMPLATE
100
AcDbCircle
 10
580.5171555016198
 20
-199.9751625016796
 30
0.0
 40
0.1875
  0
CIRCLE
  5
93DB
102
{ACAD_REACTORS
330
932C
102
}
330
1F
100
AcDbEntity
  8
TEMPLATE
100
AcDbCircle
 10
588.0171555016199
 20
-199.9751625016796
 30
0.0
 40
0.1875
  0
LINE
  5
93DC
330
1F
100
AcDbEntity
  8
TEMPLATE
100
AcDbLine
 10
590.8921555016201
 20
-200.9776625016796
 30
0.0
 11
590.40315550162
 21
-200.9776625016796
 31
0.0
  0
LINE
  5
93DD
330
1F
100
AcDbEntity
  8
TEMPLATE
  6
HIDDEN
100
AcDbLine
 10
590.40315550162
 20
-201.0266625016797
 30
0.0
 11
590.8921555016201
 21
-201.0266625016797
 31
0.0
  0
LINE
  5
93DE
330
1F
100
AcDbEntity
  8
TEMPLATE
100
AcDbLine
 10
590.8921555016201
 20
-201.3526625016798
 30
0.0
 11
590.40315550162
 21
-201.3526625016798
 31
0.0
  0
LINE
  5
93DF
330
1F
100
AcDbEntity
  8
TEMPLATE
  6
HIDDEN
100
AcDbLine
 10
590.40315550162
 20
-201.3036625016797
 30
0.0
 11
590.8921555016201
 21
-201.3036625016797
 31
0.0
  0
LINE
  5
93E0
330
1F
100
AcDbEntity
  8
TEMPLATE
100
AcDbLine
 10
590.8921555016201
 20
-201.3526625016798
 30
0.0
 11
590.8921555016201
 21
-200.9776625016796
 31
0.0
  0
LINE
  5
93E1
102
{ACAD_REACTORS
330
9360
330
9350
102
}
330
1F
100
AcDbEntity
  8
TEMPLATE
  6
HIDDEN
100
AcDbLine
 10
578.13315550162
 20
-201.9151625016796
 30
0.0
 11
590.40315550162
 21
-201.9151625016796
 31
0.0
  0
LINE
  5
93E2
330
1F
100
AcDbEntity
  8
TEMPLATE
  6
HIDDEN
100
AcDbLine
 10
578.2081555016201
 20
-201.9151625016796
 30
0.0
 11
590.3271555016202
 21
-201.9151625016796
 31
0.0
  0
LINE
  5
93E3
330
1F
100
AcDbEntity
  8
TEMPLATE
  6
HIDDEN
100
AcDbLine
 10
578.13315550162
 20
-201.9151625016796
 30
0.0
 11
578.13315550162
 21
-171.8241625016796
 31
0.0
  0
LINE
  5
93E4
330
1F
100
AcDbEntity
  8
TEMPLATE
  6
HIDDEN
100
AcDbLine
 10
590.40315550162
 20
-201.9151625016796
 30
0.0
 11
590.40315550162
 21
-171.8241625016796
 31
0.0
  0
TEXT
  5
984B
330
1F
100
AcDbEntity
  8
DIMENSION
100
AcDbText
 10
575.1551609461235
 20
-160.8722364043003
 30
0.0
 40
1.0
  1
HAZARDOUS LOCATION
 72
     1
 11
583.8218276127901
 21
-160.8722364043003
 31
0.0
100
AcDbText
  0
TEXT
  5
9F8B
330
1F
100
AcDbEntity
  8
TEXT
100
AcDbText
 10
607.0563769182789
 20
-220.8814750975636
 30
0.0
 40
0.625
  1
1
 72
     1
 11
607.1605435849456
 21
-220.5689750975636
 31
0.0
100
AcDbText
 73
     2
  0
TEXT
  5
9F8C
330
1F
100
AcDbEntity
  8
TEXT
100
AcDbText
 10
600.8758328444973
 20
-220.8814750975636
 30
0.0
 40
0.625
  1
IQ290952
 72
     1
 11
603.1154161778307
 21
-220.5689750975636
 31
0.0
100
AcDbText
 73
     2
  0
TEXT
  5
9F8D
330
1F
100
AcDbEntity
  8
TEXT
100
AcDbText
 10
601.7322334475339
 20
-219.6112189983869
 30
0.0
 40
0.625
  1
IQ4000VS
 72
     1
 11
603.9718167808672
 21
-219.2987189983869
 31
0.0
100
AcDbText
 73
     2
  0
TEXT
  5
9F8E
330
1F
100
AcDbEntity
  8
TEXT
100
AcDbText
 10
603.0997714038956
 20
-218.1815314983868
 30
0.0
 40
0.15625
  1
724-837-2204  *  1-888-867-8234
 72
     1
 11
605.456542237229
 21
-218.1034064983868
 31
0.0
100
AcDbText
 73
     2
  0
TEXT
  5
9F8F
330
1F
100
AcDbEntity
  8
TEXT
100
AcDbText
 10
603.9461255705623
 20
-217.8690314983868
 30
0.0
 40
0.15625
  1
GREENSBURG, PA  15601
 72
     1
 11
605.456542237229
 21
-217.7909064983868
 31
0.0
100
AcDbText
 73
     2
  0
TEXT
  5
9F90
330
1F
100
AcDbEntity
  8
TEXT
100
AcDbText
 10
604.1805005705623
 20
-217.5565314983867
 30
0.0
 40
0.15625
  1
141 WILSON AVENUE
 72
     1
 11
605.456542237229
 21
-217.4784064983867
 31
0.0
100
AcDbText
 73
     2
  0
TEXT
  5
9F91
330
1F
100
AcDbEntity
  8
TEXT
100
AcDbText
 10
603.3992505705623
 20
-217.2596564983867
 30
0.0
 40
0.15625
  1
INDUSTRIAL COOLING EQUIPMENT
 72
     1
 11
605.456542237229
 21
-217.1815314983867
 31
0.0
100
AcDbText
 73
     2
  0
TEXT
  5
9F92
330
1F
100
AcDbEntity
  8
TEXT
100
AcDbText
 10
604.1544589038956
 20
-218.4940314983869
 30
0.0
 40
0.15625
  1
FAX  724-837-3386
 72
     1
 11
605.456542237229
 21
-218.4159064983869
 31
0.0
100
AcDbText
 73
     2
  0
LINE
  5
9F93
330
1F
100
AcDbEntity
  8
BORDER
100
AcDbLine
 10
599.9270398301141
 20
-216.9862189983867
 30
0.0
 11
608.0172946443436
 21
-216.9862189983867
 31
0.0
  0
LINE
  5
9F94
330
1F
100
AcDbEntity
  8
BORDER
100
AcDbLine
 10
599.9270398301141
 20
-218.5487189983868
 30
0.0
 11
608.0172946443436
 21
-218.5487189983868
 31
0.0
  0
LINE
  5
9F95
330
1F
100
AcDbEntity
  8
BORDER
100
AcDbLine
 10
599.9270398301141
 20
-219.7987189983868
 30
0.0
 11
608.0172946443436
 21
-219.7987189983868
 31
0.0
  0
LINE
  5
9F96
330
1F
100
AcDbEntity
  8
BORDER
100
AcDbLine
 10
606.3037925255472
 20
-219.7987189983868
 30
0.0
 11
606.3037925255472
 21
-221.1048561967404
 31
0.0
  0
TEXT
  5
9F99
330
1F
100
AcDbEntity
  8
TEXT
100
AcDbText
 10
596.0368414017361
 20
-220.9180385524153
 30
0.0
 40
0.3125
  1
SHEET 1 OF 1
 72
     1
 11
597.7555914017361
 21
-220.7617885524153
 31
0.0
100
AcDbText
 73
     2
  0
LINE
  5
9F9A
330
1F
100
AcDbEntity
  8
BORDER
100
AcDbLine
 10
595.5520398301141
 20
-220.4237189983868
 30
0.0
 11
599.9270398301141
 21
-220.4237189983868
 31
0.0
  0
TEXT
  5
9F9B
330
1F
100
AcDbEntity
  8
TEXT
100
AcDbText
 10
596.7239148301141
 20
-220.2624339616891
 30
0.0
 40
0.3125
  1
9-23-09
 72
     1
 11
597.7395398301141
 21
-220.1061839616891
 31
0.0
100
AcDbText
 73
     2
  0
TEXT
  5
9F9C
330
1F
100
AcDbEntity
  8
TEXT
100
AcDbText
 10
595.7082898301141
 20
-220.0330939983868
 30
0.0
 40
0.15625
  1
DATE
100
AcDbText
  0
TEXT
  5
9F9D
330
1F
100
AcDbEntity
  8
TEXT
100
AcDbText
 10
596.3004773301141
 20
-219.7430939983868
 30
0.0
 40
0.234375
  1
JJH
 72
     1
 11
596.6129773301141
 21
-219.6259064983868
 31
0.0
100
AcDbText
 73
     2
  0
TEXT
  5
9F9E
330
1F
100
AcDbEntity
  8
TEXT
100
AcDbText
 10
595.6426648301142
 20
-219.4080939983868
 30
0.0
 40
0.15625
  1
DRAWN
100
AcDbText
  0
TEXT
  5
9F9F
330
1F
100
AcDbEntity
  8
TEXT
100
AcDbText
 10
597.8957898301141
 20
-219.4080939983868
 30
0.0
 40
0.15625
  1
SCALE
100
AcDbText
  0
TEXT
  5
9FA0
330
1F
100
AcDbEntity
  8
TEXT
100
AcDbText
 10
598.4364148301142
 20
-219.7430939983868
 30
0.0
 40
0.234375
  1
NONE
 72
     1
 11
598.8661023301142
 21
-219.6259064983868
 31
0.0
100
AcDbText
 73
     2
  0
LINE
  5
9FA1
330
1F
100
AcDbEntity
  8
BORDER
100
AcDbLine
 10
595.5520398301141
 20
-219.1737189983868
 30
0.0
 11
599.9270398301141
 21
-219.1737189983868
 31
0.0
  0
LINE
  5
9FA2
330
1F
100
AcDbEntity
  8
BORDER
100
AcDbLine
 10
595.5520398301141
 20
-219.7987189983868
 30
0.0
 11
599.9270398301141
 21
-219.7987189983868
 31
0.0
  0
LINE
  5
9FA3
330
1F
100
AcDbEntity
  8
BORDER
100
AcDbLine
 10
599.9270398301141
 20
-221.1048561967405
 30
0.0
 11
599.9270398301141
 21
-216.9862189983867
 31
0.0
  0
LINE
  5
9FA4
330
1F
100
AcDbEntity
  8
TEXT
100
AcDbLine
 10
600.8212593307871
 20
-218.2940689823562
 30
0.0
 11
600.8479904166919
 21
-218.3109864686053
 31
0.0
  0
ARC
  5
9FA5
330
1F
100
AcDbEntity
  8
TEXT
100
AcDbCircle
 10
600.9957691191365
 20
-218.1144353674021
 30
0.0
 40
0.1029739000996109
100
AcDbArc
 50
287.1920036507392
 51
335.8997504051564
  0
ARC
  5
9FA6
330
1F
100
AcDbEntity
  8
TEXT
100
AcDbCircle
 10
601.2017819740417
 20
-218.2531652309963
 30
0.0
 40
0.047902564587344
100
AcDbArc
 50
67.37252950712586
 51
112.6274704928672
  0
ARC
  5
9FA7
330
1F
100
AcDbEntity
  8
TEXT
100
AcDbCircle
 10
601.1866911202038
 20
-218.1704048822497
 30
0.0
 40
0.0676602827344026
100
AcDbArc
 50
330.191664416384
 51
19.91318758187905
  0
ARC
  5
9FA8
330
1F
100
AcDbEntity
  8
TEXT
100
AcDbCircle
 10
601.0966719054358
 20
-218.1325149948501
 30
0.0
 40
0.0249429364567843
100
AcDbArc
 50
253.9290889125597
 51
38.65267477511337
  0
ARC
  5
9FA9
330
1F
100
AcDbEntity
  8
TEXT
100
AcDbCircle
 10
601.5205910005223
 20
-218.1583325561905
 30
0.0
 40
0.0518260868541633
100
AcDbArc
 50
188.1927496775744
 51
244.8496170020149
  0
ARC
  5
9FAA
330
1F
100
AcDbEntity
  8
TEXT
100
AcDbCircle
 10
601.5199572191053
 20
-218.1081659526881
 30
0.0
 40
0.0994083459973538
100
AcDbArc
 50
257.5730930866188
 51
314.4273867462248
  0
LINE
  5
9FAB
330
1F
100
AcDbEntity
  8
TEXT
100
AcDbLine
 10
601.6931798183636
 20
-218.2186845907522
 30
0.0
 11
601.6947620285965
 21
-218.2005020161795
 31
0.0
  0
LINE
  5
9FAC
330
1F
100
AcDbEntity
  8
TEXT
100
AcDbLine
 10
601.6947620285965
 20
-218.2005020161795
 30
0.0
 11
601.6678640895341
 21
-218.2020831136554
 31
0.0
  0
ARC
  5
9FAD
330
1F
100
AcDbEntity
  8
TEXT
100
AcDbCircle
 10
601.6673201719115
 20
-218.1801690296416
 30
0.0
 40
0.0219208331170951
100
AcDbArc
 50
155.9964711746287
 51
271.4218156194853
  0
ARC
  5
9FAE
330
1F
100
AcDbEntity
  8
TEXT
100
AcDbCircle
 10
601.8577460680273
 20
-218.1694503325342
 30
0.0
 40
0.0513752098052219
100
AcDbArc
 50
203.9135879631549
 51
286.1701931802542
  0
ARC
  5
9FAF
330
1F
100
AcDbEntity
  8
TEXT
100
AcDbCircle
 10
601.8823273679772
 20
-218.1469868670411
 30
0.0
 40
0.0725374442393223
100
AcDbArc
 50
261.8576121462839
 51
331.2394802847383
  0
ARC
  5
9FB0
330
1F
100
AcDbEntity
  8
TEXT
100
AcDbCircle
 10
601.8792512695878
 20
-218.1357165638978
 30
0.0
 40
0.0810929943736197
100
AcDbArc
 50
325.2939034707323
 51
356.4132772462207
  0
LINE
  5
9FB1
330
1F
100
AcDbEntity
  8
TEXT
100
AcDbLine
 10
601.1706388261675
 20
-217.4028867324499
 30
0.0
 11
601.3786304343546
 21
-217.4028867324499
 31
0.0
  0
ARC
  5
9FB2
330
1F
100
AcDbEntity
  8
TEXT
100
AcDbCircle
 10
601.2841522304774
 20
-217.3984934294032
 30
0.0
 40
0.0945802945625412
100
AcDbArc
 50
357.337623744369
 51
85.63084243886228
  0
ARC
  5
9FB3
330
1F
100
AcDbEntity
  8
TEXT
100
AcDbCircle
 10
601.2546682438784
 20
-217.4791419038788
 30
0.0
 40
0.1787595523837168
100
AcDbArc
 50
78.15621523985544
 51
106.6122408520361
  0
LINE
  5
9FB4
330
1F
100
AcDbEntity
  8
TEXT
100
AcDbLine
 10
601.1706388261675
 20
-217.3804314697797
 30
0.0
 11
601.3070353392442
 21
-217.3804314697797
 31
0.0
  0
ARC
  5
9FB5
330
1F
100
AcDbEntity
  8
TEXT
100
AcDbCircle
 10
601.2370943908092
 20
-217.3934109928715
 30
0.0
 40
0.0677112257424498
100
AcDbArc
 50
103.9179608005986
 51
168.9486088950471
  0
ARC
  5
9FB6
330
1F
100
AcDbEntity
  8
TEXT
100
AcDbCircle
 10
601.2526738849182
 20
-217.3787144327997
 30
0.0
 40
0.0543885643533876
100
AcDbArc
 50
358.1908821763629
 51
69.74957583402943
  0
ARC
  5
9FB7
330
1F
100
AcDbEntity
  8
TEXT
100
AcDbCircle
 10
601.2461533623421
 20
-217.5341032028306
 30
0.0
 40
0.2079657856617219
100
AcDbArc
 50
82.99970676551479
 51
97.00029323448521
  0
ARC
  5
9FB8
330
1F
100
AcDbEntity
  8
TEXT
100
AcDbCircle
 10
601.2446527273398
 20
-217.4303542673649
 30
0.0
 40
0.1292181297135794
100
AcDbArc
 50
108.5416613320802
 51
149.765233953618
  0
ARC
  5
9FB9
330
1F
100
AcDbEntity
  8
TEXT
100
AcDbCircle
 10
601.2454797460198
 20
-217.4342905951522
 30
0.0
 40
0.1319485192661753
100
AcDbArc
 50
148.4692011102848
 51
195.580236137337
  0
ARC
  5
9FBA
330
1F
100
AcDbEntity
  8
TEXT
100
AcDbCircle
 10
601.2430389128567
 20
-217.4382220076756
 30
0.0
 40
0.1285795811377622
100
AcDbArc
 50
194.1847393568164
 51
248.6586767321132
  0
ARC
  5
9FBB
330
1F
100
AcDbEntity
  8
TEXT
100
AcDbCircle
 10
601.2958537174845
 20
-217.4044254052043
 30
0.0
 40
0.1252243447630968
100
AcDbArc
 50
179.2959701761242
 51
227.5915484940839
  0
ARC
  5
9FBC
330
1F
100
AcDbEntity
  8
TEXT
100
AcDbCircle
 10
601.268544570824
 20
-217.4267165206407
 30
0.0
 40
0.0904935239504756
100
AcDbArc
 50
230.8416488637728
 51
280.5326941523483
  0
ARC
  5
9FBD
330
1F
100
AcDbEntity
  8
TEXT
100
AcDbCircle
 10
601.2803711579603
 20
-217.4021969857938
 30
0.0
 40
0.1135862276716573
100
AcDbArc
 50
272.3792098458872
 51
327.3581874363198
  0
ARC
  5
9FBE
330
1F
100
AcDbEntity
  8
TEXT
100
AcDbCircle
 10
601.2467916242518
 20
-217.3783455368495
 30
0.0
 40
0.1866149158157418
100
AcDbArc
 50
254.2847830849396
 51
294.1819270465994
  0
ARC
  5
9FBF
330
1F
100
AcDbEntity
  8
TEXT
100
AcDbCircle
 10
601.2619402748862
 20
-217.4246904181534
 30
0.0
 40
0.1382279414268217
100
AcDbArc
 50
296.323392370721
 51
339.834833147579
  0
ARC
  5
9FC0
330
1F
100
AcDbEntity
  8
TEXT
100
AcDbCircle
 10
601.3823438386301
 20
-217.470573627185
 30
0.0
 40
0.0095170105473448
100
AcDbArc
 50
349.2952029716978
 51
131.6626905469357
  0
ARC
  5
9FC1
330
1F
100
AcDbEntity
  8
TEXT
100
AcDbCircle
 10
600.9787257037967
 20
-217.6989025631598
 30
0.0
 40
0.3987988710058952
100
AcDbArc
 50
84.62122141578795
 51
95.37877858421207
  0
ARC
  5
9FC2
330
1F
100
AcDbEntity
  8
TEXT
100
AcDbCircle
 10
601.0026380587412
 20
-217.3927917310194
 30
0.0
 40
0.091924416877587
100
AcDbArc
 50
43.16761867319242
 51
81.57335966331345
  0
ARC
  5
9FC3
330
1F
100
AcDbEntity
  8
TEXT
100
AcDbCircle
 10
601.0377721309826
 20
-217.3538996040514
 30
0.0
 40
0.0399271801820827
100
AcDbArc
 50
321.1558234807579
 51
36.9421790422972
  0
ARC
  5
9FC4
330
1F
100
AcDbEntity
  8
TEXT
100
AcDbCircle
 10
601.0453548951517
 20
-217.3484824655451
 30
0.0
 40
0.0384802722134761
100
AcDbArc
 50
205.1359642898991
 51
307.6679722285769
  0
ARC
  5
9FC5
330
1F
100
AcDbEntity
  8
TEXT
100
AcDbCircle
 10
601.0533935097011
 20
-217.3476570446883
 30
0.0
 40
0.046185345798517
100
AcDbArc
 50
180.010674400693
 51
201.8251852718023
  0
ARC
  5
9FC6
330
1F
100
AcDbEntity
  8
TEXT
100
AcDbCircle
 10
600.9617943607572
 20
-217.3613049975426
 30
0.0
 40
0.0474177752828994
100
AcDbArc
 50
16.71684440730665
 51
45.97719400399848
  0
ARC
  5
9FC7
330
1F
100
AcDbEntity
  8
TEXT
100
AcDbCircle
 10
600.9699590023546
 20
-217.712020162517
 30
0.0
 40
0.3856090945596675
100
AcDbArc
 50
86.31431733544658
 51
93.90381943516556
  0
ARC
  5
9FC8
330
1F
100
AcDbEntity
  8
TEXT
100
AcDbCircle
 10
600.9560603676796
 20
-217.4206022218062
 30
0.0
 40
0.1196511698431431
100
AcDbArc
 50
97.06566064011505
 51
142.4986334312221
  0
ARC
  5
9FC9
330
1F
100
AcDbEntity
  8
TEXT
100
AcDbCircle
 10
600.9549775387149
 20
-217.439306641836
 30
0.0
 40
0.1310983043162969
100
AcDbArc
 50
135.7093780000617
 51
195.2317137751531
  0
ARC
  5
9FCA
330
1F
100
AcDbEntity
  8
TEXT
100
AcDbCircle
 10
600.9425779821977
 20
-217.4432823070602
 30
0.0
 40
0.1180912454887081
100
AcDbArc
 50
194.9511061487661
 51
259.6103135862126
  0
ARC
  5
9FCB
330
1F
100
AcDbEntity
  8
TEXT
100
AcDbCircle
 10
600.9614370837534
 20
-217.4384791289947
 30
0.0
 40
0.1274495304475066
100
AcDbArc
 50
251.6347706403308
 51
316.4182924463625
  0
ARC
  5
9FCC
330
1F
100
AcDbEntity
  8
TEXT
100
AcDbCircle
 10
600.9454174380667
 20
-217.3982038748048
 30
0.0
 40
0.1678017612198071
100
AcDbArc
 50
310.2152586008202
 51
331.3072507285866
  0
ARC
  5
9FCD
330
1F
100
AcDbEntity
  8
TEXT
100
AcDbCircle
 10
600.9938876040852
 20
-217.424230559841
 30
0.0
 40
0.1091448673447349
100
AcDbArc
 50
117.3722826858107
 51
160.0902491401812
  0
ARC
  5
9FCE
330
1F
100
AcDbEntity
  8
TEXT
100
AcDbCircle
 10
601.0079856528256
 20
-217.4139169425006
 30
0.0
 40
0.1197688266097961
100
AcDbArc
 50
167.0430028911423
 51
212.1309371309446
  0
ARC
  5
9FCF
330
1F
100
AcDbEntity
  8
TEXT
100
AcDbCircle
 10
600.9824005857892
 20
-217.4280904431748
 30
0.0
 40
0.0905784598489114
100
AcDbArc
 50
213.1462108998118
 51
285.6537258536393
  0
ARC
  5
9FD0
330
1F
100
AcDbEntity
  8
TEXT
100
AcDbCircle
 10
600.9832238099168
 20
-217.4057327986917
 30
0.0
 40
0.1120927222252192
100
AcDbArc
 50
282.1628426667851
 51
326.5593609179289
  0
ARC
  5
9FD1
330
1F
100
AcDbEntity
  8
TEXT
100
AcDbCircle
 10
601.0801786303042
 20
-217.4794820253826
 30
0.0
 40
0.0124561803706211
100
AcDbArc
 50
3.288025410275531
 51
105.9275278804375
  0
LINE
  5
9FD2
330
1F
100
AcDbEntity
  8
TEXT
100
AcDbLine
 10
600.493144448051
 20
-217.0335797427569
 30
0.0
 11
600.4972145906426
 21
-217.3670910570529
 31
0.0
  0
LINE
  5
9FD3
330
1F
100
AcDbEntity
  8
TEXT
100
AcDbLine
 10
600.525705588783
 20
-217.0742518621782
 30
0.0
 11
600.5277406600787
 21
-217.3670910570529
 31
0.0
  0
ARC
  5
9FD4
330
1F
100
AcDbEntity
  8
TEXT
100
AcDbCircle
 10
600.5124776253604
 20
-217.3676508651752
 30
0.0
 40
0.0152732974154362
100
AcDbArc
 50
177.899482485688
 51
2.100517514311758
  0
LINE
  5
9FD5
330
1F
100
AcDbEntity
  8
TEXT
100
AcDbLine
 10
600.5956744615819
 20
-217.088958413407
 30
0.0
 11
600.5956744615819
 21
-217.5987744384298
 31
0.0
  0
LINE
  5
9FD6
330
1F
100
AcDbEntity
  8
TEXT
100
AcDbLine
 10
600.7435117314448
 20
-217.088958413407
 30
0.0
 11
600.7435117314448
 21
-217.5987744384298
 31
0.0
  0
ARC
  5
9FD7
330
1F
100
AcDbEntity
  8
TEXT
100
AcDbCircle
 10
600.5405301283793
 20
-217.0749639270399
 30
0.0
 40
0.0148416309955998
100
AcDbArc
 50
38.20381851856389
 51
177.2500340797979
  0
LINE
  5
9FD8
330
1F
100
AcDbEntity
  8
TEXT
100
AcDbLine
 10
600.5521929146903
 20
-217.0657849605361
 30
0.0
 11
600.5956744615819
 21
-217.088958413407
 31
0.0
  0
LINE
  5
9FD9
330
1F
100
AcDbEntity
  8
TEXT
100
AcDbLine
 10
600.7869932783364
 20
-217.0657849605361
 30
0.0
 11
600.7435117314448
 21
-217.088958413407
 31
0.0
  0
LINE
  5
9FDA
330
1F
100
AcDbEntity
  8
TEXT
100
AcDbLine
 10
600.8134806042439
 20
-217.0742518621782
 30
0.0
 11
600.813312953938
 21
-217.0983761180264
 31
0.0
  0
LINE
  5
9FDB
330
1F
100
AcDbEntity
  8
TEXT
100
AcDbLine
 10
600.8460417449757
 20
-217.0335797427569
 30
0.0
 11
600.8452509757411
 21
-217.0983761180264
 31
0.0
  0
ARC
  5
9FDC
330
1F
100
AcDbEntity
  8
TEXT
100
AcDbCircle
 10
600.7986560646476
 20
-217.0749639270399
 30
0.0
 40
0.0148416309955998
100
AcDbArc
 50
2.74996592020209
 51
141.7961814814361
  0
ARC
  5
9FDD
330
1F
100
AcDbEntity
  8
TEXT
100
AcDbCircle
 10
600.8292819648394
 20
-217.1089263357602
 30
0.0
 40
0.019139394018822
100
AcDbArc
 50
146.5485285753443
 51
33.45147142465568
  0
ARC
  5
9FDE
330
1F
100
AcDbEntity
  8
TEXT
100
AcDbCircle
 10
602.3335395003697
 20
-218.1508525706028
 30
0.0
 40
0.0095170105473448
100
AcDbArc
 50
349.2952029716978
 51
131.6626905469357
  0
ARC
  5
9FDF
330
1F
100
AcDbEntity
  8
TEXT
100
AcDbCircle
 10
602.2131359366259
 20
-218.1049693615713
 30
0.0
 40
0.1382279414268217
100
AcDbArc
 50
296.323392370721
 51
339.834833147579
  0
ARC
  5
9FE0
330
1F
100
AcDbEntity
  8
TEXT
100
AcDbCircle
 10
602.1979872859913
 20
-218.0586244802673
 30
0.0
 40
0.1866149158157418
100
AcDbArc
 50
254.2847830849396
 51
294.1819270465994
  0
ARC
  5
9FE1
330
1F
100
AcDbEntity
  8
TEXT
100
AcDbCircle
 10
602.2315668196998
 20
-218.0824759292116
 30
0.0
 40
0.1135862276716573
100
AcDbArc
 50
272.3792098458872
 51
327.3581874363198
  0
ARC
  5
9FE2
330
1F
100
AcDbEntity
  8
TEXT
100
AcDbCircle
 10
602.2197402325636
 20
-218.1069954640585
 30
0.0
 40
0.0904935239504756
100
AcDbArc
 50
230.8416488637728
 51
280.5326941523483
  0
ARC
  5
9FE3
330
1F
100
AcDbEntity
  8
TEXT
100
AcDbCircle
 10
602.2470493792241
 20
-218.0847043486222
 30
0.0
 40
0.1252243447630968
100
AcDbArc
 50
179.2959701761242
 51
227.5915484940839
  0
ARC
  5
9FE4
330
1F
100
AcDbEntity
  8
TEXT
100
AcDbCircle
 10
602.1942345745965
 20
-218.1185009510935
 30
0.0
 40
0.1285795811377622
100
AcDbArc
 50
194.1847393568164
 51
248.6586767321132
  0
ARC
  5
9FE5
330
1F
100
AcDbEntity
  8
TEXT
100
AcDbCircle
 10
602.1966754077594
 20
-218.11456953857
 30
0.0
 40
0.1319485192661753
100
AcDbArc
 50
148.4692011102848
 51
195.580236137337
  0
ARC
  5
9FE6
330
1F
100
AcDbEntity
  8
TEXT
100
AcDbCircle
 10
602.1958483890796
 20
-218.1106332107827
 30
0.0
 40
0.1292181297135794
100
AcDbArc
 50
108.5416613320802
 51
149.765233953618
  0
ARC
  5
9FE7
330
1F
100
AcDbEntity
  8
TEXT
100
AcDbCircle
 10
602.1973490240816
 20
-218.2143821462485
 30
0.0
 40
0.2079657856617219
100
AcDbArc
 50
82.99970676551479
 51
97.00029323448521
  0
ARC
  5
9FE8
330
1F
100
AcDbEntity
  8
TEXT
100
AcDbCircle
 10
602.2038695466577
 20
-218.0589933762175
 30
0.0
 40
0.0543885643533876
100
AcDbArc
 50
358.1908821763629
 51
69.74957583402943
  0
ARC
  5
9FE9
330
1F
100
AcDbEntity
  8
TEXT
100
AcDbCircle
 10
602.1882900525489
 20
-218.0736899362893
 30
0.0
 40
0.0677112257424498
100
AcDbArc
 50
103.9179608005986
 51
168.9486088950471
  0
LINE
  5
9FEA
330
1F
100
AcDbEntity
  8
TEXT
100
AcDbLine
 10
602.1218344879071
 20
-218.0607104131975
 30
0.0
 11
602.2582310009839
 21
-218.0607104131975
 31
0.0
  0
ARC
  5
9FEB
330
1F
100
AcDbEntity
  8
TEXT
100
AcDbCircle
 10
602.2058639056178
 20
-218.1594208472967
 30
0.0
 40
0.1787595523837168
100
AcDbArc
 50
78.15621523985544
 51
106.6122408520361
  0
ARC
  5
9FEC
330
1F
100
AcDbEntity
  8
TEXT
100
AcDbCircle
 10
602.2353478922171
 20
-218.078772372821
 30
0.0
 40
0.0945802945625412
100
AcDbArc
 50
357.337623744369
 51
85.63084243886228
  0
LINE
  5
9FED
330
1F
100
AcDbEntity
  8
TEXT
100
AcDbLine
 10
602.1218344879071
 20
-218.0831656758678
 30
0.0
 11
602.3298260960943
 21
-218.0831656758678
 31
0.0
  0
ARC
  5
9FEE
330
1F
100
AcDbEntity
  8
TEXT
100
AcDbCircle
 10
600.6067139013981
 20
-217.6300215763632
 30
0.0
 40
0.0331398983173351
100
AcDbArc
 50
109.4580308571273
 51
191.0341765876995
  0
ARC
  5
9FEF
330
1F
100
AcDbEntity
  8
TEXT
100
AcDbCircle
 10
600.5643559239131
 20
-217.6382156832574
 30
0.0
 40
0.0100035300295991
100
AcDbArc
 50
155.9249042338189
 51
10.66497725508788
  0
ARC
  5
9FF0
330
1F
100
AcDbEntity
  8
TEXT
100
AcDbCircle
 10
600.5365565320158
 20
-217.6460199433572
 30
0.0
 40
0.0221286157777855
100
AcDbArc
 50
32.4856949474364
 51
175.1979664789357
  0
ARC
  5
9FF1
330
1F
100
AcDbEntity
  8
TEXT
100
AcDbCircle
 10
600.5070960286632
 20
-217.6476964538321
 30
0.0
 40
0.0082070223616514
100
AcDbArc
 50
158.7719549350953
 51
25.46716058584043
  0
ARC
  5
9FF2
330
1F
100
AcDbEntity
  8
TEXT
100
AcDbCircle
 10
600.4878949987998
 20
-217.6422950433131
 30
0.0
 40
0.0118036776942274
100
AcDbArc
 50
348.1206509806769
 51
136.2651890953788
  0
ARC
  5
9FF3
330
1F
100
AcDbEntity
  8
TEXT
100
AcDbCircle
 10
600.4864778480581
 20
-217.6485144782296
 30
0.0
 40
0.0160420204804056
100
AcDbArc
 50
116.3151684036778
 51
258.4674100382152
  0
ARC
  5
9FF4
330
1F
100
AcDbEntity
  8
TEXT
100
AcDbCircle
 10
600.4919564890506
 20
-217.6724702132006
 30
0.0
 40
0.0119708699890584
100
AcDbArc
 50
356.7423630506752
 51
136.5172760690091
  0
ARC
  5
9FF5
330
1F
100
AcDbEntity
  8
TEXT
100
AcDbCircle
 10
600.5081653218232
 20
-217.6794109609775
 30
0.0
 40
0.0075708934653655
100
AcDbArc
 50
124.2167745950174
 51
319.7988197133688
  0
ARC
  5
9FF6
330
1F
100
AcDbEntity
  8
TEXT
100
AcDbCircle
 10
600.5384847861554
 20
-217.6931012582753
 30
0.0
 40
0.0260684316724221
100
AcDbArc
 50
160.2627782819643
 51
255.1333022011721
  0
ARC
  5
9FF7
330
1F
100
AcDbEntity
  8
TEXT
100
AcDbCircle
 10
600.5383064597274
 20
-217.7157306405073
 30
0.0
 40
0.0069976873342193
100
AcDbArc
 50
201.5154657473982
 51
41.96660508022961
  0
ARC
  5
9FF8
330
1F
100
AcDbEntity
  8
TEXT
100
AcDbCircle
 10
600.5626811697712
 20
-217.6983747159817
 30
0.0
 40
0.0229836788276261
100
AcDbArc
 50
121.2424246402138
 51
213.473239708373
  0
ARC
  5
9FF9
330
1F
100
AcDbEntity
  8
TEXT
100
AcDbCircle
 10
600.5571482765239
 20
-217.6899834309145
 30
0.0
 40
0.0129451309621158
100
AcDbArc
 50
332.2921775479056
 51
119.5678571759904
  0
ARC
  5
9FFA
330
1F
100
AcDbEntity
  8
TEXT
100
AcDbCircle
 10
600.5595744110758
 20
-217.7172774721467
 30
0.0
 40
0.0231138652678936
100
AcDbArc
 50
312.9867785858866
 51
66.99118422926638
  0
ARC
  5
9FFB
330
1F
100
AcDbEntity
  8
TEXT
100
AcDbCircle
 10
600.6591142583985
 20
-217.8963522238181
 30
0.0
 40
0.1825298605922834
100
AcDbArc
 50
117.3222180892423
 51
179.3383492613259
  0
ARC
  5
9FFC
330
1F
100
AcDbEntity
  8
TEXT
100
AcDbCircle
 10
601.248169781769
 20
-217.9561593002773
 30
0.0
 40
0.774053406525892
100
AcDbArc
 50
175.4121316267021
 51
191.7939289657066
  0
ARC
  5
9FFD
330
1F
100
AcDbEntity
  8
TEXT
100
AcDbCircle
 10
600.4889450579886
 20
-218.1497037205655
 30
0.0
 40
0.0353661901713158
100
AcDbArc
 50
15.17145974978885
 51
87.54918714297627
  0
ARC
  5
9FFE
330
1F
100
AcDbEntity
  8
TEXT
100
AcDbCircle
 10
603.6818697868465
 20
-218.2481926041584
 30
0.0
 40
3.160628174278596
100
AcDbArc
 50
178.0464319449979
 51
181.7502526685598
  0
LINE
  5
9FFF
330
1F
100
AcDbEntity
  8
TEXT
100
AcDbLine
 10
600.5565730056684
 20
-218.1883004468586
 30
0.0
 11
600.5553053597973
 21
-218.3409413275521
 31
0.0
  0
ARC
  5
A000
330
1F
100
AcDbEntity
  8
TEXT
100
AcDbCircle
 10
600.5618640397394
 20
-218.1871688279466
 30
0.0
 40
0.0054106933848193
100
AcDbArc
 50
333.6879001367211
 51
192.072245755337
  0
LINE
  5
A001
330
1F
100
AcDbEntity
  8
TEXT
100
AcDbLine
 10
600.5667141465574
 20
-218.1895671746187
 30
0.0
 11
600.5667141465574
 21
-218.2123683052341
 31
0.0
  0
ARC
  5
A002
330
1F
100
AcDbEntity
  8
TEXT
100
AcDbCircle
 10
600.5738819408287
 20
-218.2107152432613
 30
0.0
 40
0.0073559424006224
100
AcDbArc
 50
192.9866902548921
 51
33.38063139740807
  0
ARC
  5
A003
330
1F
100
AcDbEntity
  8
TEXT
100
AcDbCircle
 10
600.593065046173
 20
-218.2151979608003
 30
0.0
 40
0.0155826305602638
100
AcDbArc
 50
17.66955929970605
 51
146.8111142491855
  0
ARC
  5
A004
330
1F
100
AcDbEntity
  8
TEXT
100
AcDbCircle
 10
600.6418840923439
 20
-218.1913416685116
 30
0.0
 40
0.0389857867394515
100
AcDbArc
 50
209.3802246625978
 51
263.8421008682747
  0
LINE
  5
A005
330
1F
100
AcDbEntity
  8
TEXT
100
AcDbLine
 10
600.6377021327807
 20
-218.2301025093424
 30
0.0
 11
600.6415050443148
 21
-218.2833051526002
 31
0.0
  0
ARC
  5
A006
330
1F
100
AcDbEntity
  8
TEXT
100
AcDbCircle
 10
600.657541890407
 20
-218.285545940297
 30
0.0
 40
0.0161926391326401
100
AcDbArc
 50
172.0457056516385
 51
14.81661014794111
  0
LINE
  5
A007
330
1F
100
AcDbEntity
  8
TEXT
100
AcDbLine
 10
600.6731961128532
 20
-218.28140506096
 30
0.0
 11
600.6757314045954
 21
-218.2592372942248
 31
0.0
  0
ARC
  5
A008
330
1F
100
AcDbEntity
  8
TEXT
100
AcDbCircle
 10
600.6815071752143
 20
-218.2585624335851
 30
0.0
 40
0.0058150634670569
100
AcDbArc
 50
318.6510821797589
 51
186.6644145786487
  0
LINE
  5
A009
330
1F
100
AcDbEntity
  8
TEXT
100
AcDbLine
 10
600.6858725454844
 20
-218.2624041136251
 30
0.0
 11
600.6890416340827
 21
-218.2915388830411
 31
0.0
  0
ARC
  5
A00A
330
1F
100
AcDbEntity
  8
TEXT
100
AcDbCircle
 10
600.6998918464485
 20
-218.2937824996332
 30
0.0
 40
0.0110797528757836
100
AcDbArc
 50
168.3169857564316
 51
15.04995211451697
  0
LINE
  5
A00B
330
1F
100
AcDbEntity
  8
TEXT
100
AcDbLine
 10
600.710591561732
 20
-218.2909055191611
 30
0.0
 11
600.710591561732
 21
-218.2668376607856
 31
0.0
  0
ARC
  5
A00C
330
1F
100
AcDbEntity
  8
TEXT
100
AcDbCircle
 10
600.7250275023751
 20
-218.2793641739002
 30
0.0
 40
0.0191130822490872
100
AcDbArc
 50
65.19241843010725
 51
139.0508106988802
  0
ARC
  5
A00D
330
1F
100
AcDbEntity
  8
TEXT
100
AcDbCircle
 10
600.7373429141444
 20
-218.2805621426366
 30
0.0
 40
0.0190383821988919
100
AcDbArc
 50
7.606980527162057
 51
103.0413594591619
  0
LINE
  5
A00E
330
1F
100
AcDbEntity
  8
TEXT
100
AcDbLine
 10
600.7562137475315
 20
-218.2780418958182
 30
0.0
 11
600.7642330524396
 21
-218.3884507330938
 31
0.0
  0
LINE
  5
A00F
330
1F
100
AcDbEntity
  8
TEXT
100
AcDbLine
 10
600.7989834432527
 20
-218.3848891651817
 30
0.0
 11
600.8016565622746
 21
-218.2976305657347
 31
0.0
  0
ARC
  5
A010
330
1F
100
AcDbEntity
  8
TEXT
100
AcDbCircle
 10
600.811303840539
 20
-218.2950015827319
 30
0.0
 40
0.0099990764344
100
AcDbArc
 50
5.351678383091137
 51
195.2435488026406
  0
LINE
  5
A011
330
1F
100
AcDbEntity
  8
TEXT
100
AcDbLine
 10
600.8479904166919
 20
-218.3109864686053
 30
0.0
 11
600.8497724960399
 21
-218.3661908949763
 31
0.0
  0
ARC
  5
A012
330
1F
100
AcDbEntity
  8
TEXT
100
AcDbCircle
 10
600.8984054544924
 20
-218.323451987231
 30
0.0
 40
0.0093269579312538
100
AcDbArc
 50
354.5219056877808
 51
214.944854376383
  0
ARC
  5
A013
330
1F
100
AcDbEntity
  8
TEXT
100
AcDbCircle
 10
600.9242142714765
 20
-218.3249807235135
 30
0.0
 40
0.0165367822276326
100
AcDbArc
 50
177.7877751662289
 51
326.380582641936
  0
ARC
  5
A014
330
1F
100
AcDbEntity
  8
TEXT
100
AcDbCircle
 10
601.0950765324707
 20
-218.3052533084588
 30
0.0
 40
0.0090446670445143
100
AcDbArc
 50
144.571158510835
 51
21.75301147887101
  0
LINE
  5
A015
330
1F
100
AcDbEntity
  8
TEXT
100
AcDbLine
 10
601.1034771294536
 20
-218.3019012982738
 30
0.0
 11
601.1041079533092
 21
-218.2539933858889
 31
0.0
  0
ARC
  5
A016
330
1F
100
AcDbEntity
  8
TEXT
100
AcDbCircle
 10
601.0950971333422
 20
-218.2594571978103
 30
0.0
 40
0.0105379370460883
100
AcDbArc
 50
31.23099864076702
 51
160.1819529381847
  0
ARC
  5
A017
330
1F
100
AcDbEntity
  8
TEXT
100
AcDbCircle
 10
601.1297751959162
 20
-218.2754695280815
 30
0.0
 40
0.0487032855846518
100
AcDbArc
 50
156.288597549796
 51
210.2571046136436
  0
ARC
  5
A018
330
1F
100
AcDbEntity
  8
TEXT
100
AcDbCircle
 10
601.2675685358032
 20
-218.3524749689124
 30
0.0
 40
0.0300701126135258
100
AcDbArc
 50
341.5477100758347
 51
84.99888070834151
  0
ARC
  5
A019
330
1F
100
AcDbEntity
  8
TEXT
100
AcDbCircle
 10
601.28066038975
 20
-218.3873708919523
 30
0.0
 40
0.0656913671942501
100
AcDbArc
 50
99.17143729878524
 51
127.795528329095
  0
ARC
  5
A01A
330
1F
100
AcDbEntity
  8
TEXT
100
AcDbCircle
 10
601.1532118718652
 20
-218.3288231730558
 30
0.0
 40
0.0072833212418134
100
AcDbArc
 50
312.7998628402754
 51
120.0581864533366
  0
ARC
  5
A01B
330
1F
100
AcDbEntity
  8
TEXT
100
AcDbCircle
 10
601.1538849442947
 20
-218.3065188784439
 30
0.0
 40
0.0165736773362276
100
AcDbArc
 50
129.1527393458019
 51
254.8870408388504
  0
ARC
  5
A01C
330
1F
100
AcDbEntity
  8
TEXT
100
AcDbCircle
 10
601.0906234783889
 20
-218.253432515393
 30
0.0
 40
0.0663799911478199
100
AcDbArc
 50
322.6907301981563
 51
8.220255073941013
  0
ARC
  5
A01D
330
1F
100
AcDbEntity
  8
TEXT
100
AcDbCircle
 10
601.1623278266732
 20
-218.2381587456756
 30
0.0
 40
0.0083377203270588
100
AcDbArc
 50
89.05883162362073
 51
223.9137905962986
  0
ARC
  5
A01E
330
1F
100
AcDbEntity
  8
TEXT
100
AcDbCircle
 10
600.9957971788867
 20
-218.042147215492
 30
0.0
 40
0.2509979489351848
100
AcDbArc
 50
311.6071689301104
 51
318.3515702307943
  0
ARC
  5
A01F
330
1F
100
AcDbEntity
  8
TEXT
100
AcDbCircle
 10
601.1613626618416
 20
-218.2335054772227
 30
0.0
 40
0.0637668312167232
100
AcDbArc
 50
337.3510782224611
 51
22.64892177753901
  0
ARC
  5
A020
330
1F
100
AcDbEntity
  8
TEXT
100
AcDbCircle
 10
601.265482322338
 20
-218.2664771620392
 30
0.0
 40
0.0460460836471324
100
AcDbArc
 50
169.4684867573188
 51
223.1418439421417
  0
ARC
  5
A021
330
1F
100
AcDbEntity
  8
TEXT
100
AcDbCircle
 10
601.2257935926172
 20
-218.2715219900575
 30
0.0
 40
0.0271341882191743
100
AcDbArc
 50
282.9712622283038
 51
25.35441378639511
  0
ARC
  5
A022
330
1F
100
AcDbEntity
  8
TEXT
100
AcDbCircle
 10
601.5347164410727
 20
-218.2067342393326
 30
0.0
 40
0.2893295131371159
100
AcDbArc
 50
179.4662202071271
 51
190.5890997840371
  0
ARC
  5
A023
330
1F
100
AcDbEntity
  8
TEXT
100
AcDbCircle
 10
601.0332700354571
 20
-217.9517567155916
 30
0.0
 40
0.2921733560609443
100
AcDbArc
 50
317.9732863042373
 51
40.61894937560235
  0
ARC
  5
A024
330
1F
100
AcDbEntity
  8
TEXT
100
AcDbCircle
 10
601.2271411373716
 20
-217.7960174963214
 30
0.0
 40
0.0443516632740007
100
AcDbArc
 50
51.01090143871113
 51
107.577946053111
  0
ARC
  5
A025
330
1F
100
AcDbEntity
  8
TEXT
100
AcDbCircle
 10
601.1510426395549
 20
-217.7502081319229
 30
0.0
 40
0.0628033698317426
100
AcDbArc
 50
356.7791343814141
 51
50.82801334298829
  0
ARC
  5
A026
330
1F
100
AcDbEntity
  8
TEXT
100
AcDbCircle
 10
601.1668150627005
 20
-217.8205380308029
 30
0.0
 40
0.1213938581589665
100
AcDbArc
 50
78.64671940115275
 51
92.8865786316482
  0
ARC
  5
A027
330
1F
100
AcDbEntity
  8
TEXT
100
AcDbCircle
 10
601.1531176013201
 20
-217.6842706650484
 30
0.0
 40
0.0168329057250599
100
AcDbArc
 50
296.7794474250819
 51
150.4674482996576
  0
ARC
  5
A028
330
1F
100
AcDbEntity
  8
TEXT
100
AcDbCircle
 10
601.1261389598508
 20
-217.6602242252737
 30
0.0
 40
0.0200033413087927
100
AcDbArc
 50
174.1982733486932
 51
308.063459648363
  0
ARC
  5
A029
330
1F
100
AcDbEntity
  8
TEXT
100
AcDbCircle
 10
601.0690931786125
 20
-217.6908038026198
 30
0.0
 40
0.0494227766538583
100
AcDbArc
 50
41.27304036069189
 51
94.61991284103847
  0
ARC
  5
A02A
330
1F
100
AcDbEntity
  8
TEXT
100
AcDbCircle
 10
601.0493045602886
 20
-217.6461904353626
 30
0.0
 40
0.0164772438173263
100
AcDbArc
 50
136.6395135700812
 51
16.38775991618401
  0
ARC
  5
A02B
330
1F
100
AcDbEntity
  8
TEXT
100
AcDbCircle
 10
601.0238943876803
 20
-217.6495943692681
 30
0.0
 40
0.019923999934833
100
AcDbArc
 50
47.61705801860887
 51
152.6179806586013
  0
ARC
  5
A02C
330
1F
100
AcDbEntity
  8
TEXT
100
AcDbCircle
 10
600.982931409262
 20
-217.6511629139239
 30
0.0
 40
0.0256267055491746
100
AcDbArc
 50
24.75773987532676
 51
121.5483884163383
  0
ARC
  5
A02D
330
1F
100
AcDbEntity
  8
TEXT
100
AcDbCircle
 10
600.9500717157138
 20
-217.6367488476773
 30
0.0
 40
0.0208202889485251
100
AcDbArc
 50
20.89289471578149
 51
159.1071052842185
  0
ARC
  5
A02E
330
1F
100
AcDbEntity
  8
TEXT
100
AcDbCircle
 10
600.9202482683597
 20
-217.6264337561901
 30
0.0
 40
0.0107672478568685
100
AcDbArc
 50
183.5606974541693
 51
344.4298925613459
  0
ARC
  5
A02F
330
1F
100
AcDbEntity
  8
TEXT
100
AcDbCircle
 10
600.8872127557716
 20
-217.6505378773295
 30
0.0
 40
0.0323422366599906
100
AcDbArc
 50
46.43616582623978
 51
130.6283095026662
  0
ARC
  5
A030
330
1F
100
AcDbEntity
  8
TEXT
100
AcDbCircle
 10
600.8544823423711
 20
-217.6294763610653
 30
0.0
 40
0.0121798952203543
100
AcDbArc
 50
163.3756550464651
 51
16.624344953531
  0
ARC
  5
A031
330
1F
100
AcDbEntity
  8
TEXT
100
AcDbCircle
 10
600.8084493164678
 20
-217.720682337417
 30
0.0
 40
0.1007326717255064
100
AcDbArc
 50
70.05468846035552
 51
100.2232656721042
  0
ARC
  5
A032
330
1F
100
AcDbEntity
  8
TEXT
100
AcDbCircle
 10
600.7822345600425
 20
-217.6753055360712
 30
0.0
 40
0.0543991327960405
100
AcDbArc
 50
81.18509483549708
 51
120.0392913824098
  0
ARC
  5
A033
330
1F
100
AcDbEntity
  8
TEXT
100
AcDbCircle
 10
600.7417702769899
 20
-217.6164162150915
 30
0.0
 40
0.0177275194936825
100
AcDbArc
 50
318.2823815987269
 51
84.36248438139951
  0
ARC
  5
A034
330
1F
100
AcDbEntity
  8
TEXT
100
AcDbCircle
 10
600.6620105597407
 20
-217.695229990485
 30
0.0
 40
0.0254942521042418
100
AcDbArc
 50
35.6067999534562
 51
177.5845513854532
  0
LINE
  5
A035
330
1F
100
AcDbEntity
  8
TEXT
100
AcDbLine
 10
600.6827381940545
 20
-217.6803867406353
 30
0.0
 11
600.681117178336
 21
-217.7038746869528
 31
0.0
  0
LINE
  5
A036
330
1F
100
AcDbEntity
  8
TEXT
100
AcDbLine
 10
600.6365389592058
 20
-217.6941555340858
 30
0.0
 11
600.6357284513466
 21
-217.7549002201714
 31
0.0
  0
ARC
  5
A037
330
1F
100
AcDbEntity
  8
TEXT
100
AcDbCircle
 10
600.7386006119864
 20
-217.800707984984
 30
0.0
 40
0.1126100916963402
100
AcDbArc
 50
120.6947626763568
 51
155.9971516553445
  0
ARC
  5
A038
330
1F
100
AcDbEntity
  8
TEXT
100
AcDbCircle
 10
600.6971687875096
 20
-217.7694825535124
 30
0.0
 40
0.0209517503337112
100
AcDbArc
 50
218.6904014524236
 51
353.6659411500759
  0
ARC
  5
A039
330
1F
100
AcDbEntity
  8
TEXT
100
AcDbCircle
 10
600.6855934869747
 20
-217.8021776039347
 30
0.0
 40
0.020171963693018
100
AcDbArc
 50
103.7022990326946
 51
207.0193065629259
  0
ARC
  5
A03A
330
1F
100
AcDbEntity
  8
TEXT
100
AcDbCircle
 10
600.9849306886198
 20
-217.9692862322004
 30
0.0
 40
0.3544440067106097
100
AcDbArc
 50
153.5374647244112
 51
193.3327646348711
  0
ARC
  5
A03B
330
1F
100
AcDbEntity
  8
TEXT
100
AcDbCircle
 10
600.5716687262924
 20
-218.0971619503897
 30
0.0
 40
0.0824827685733273
100
AcDbArc
 50
346.9852122362369
 51
34.01252680043078
  0
ARC
  5
A03C
330
1F
100
AcDbEntity
  8
TEXT
100
AcDbCircle
 10
600.6406457284251
 20
-218.1517683032726
 30
0.0
 40
0.0377875286239628
100
AcDbArc
 50
345.4259909574673
 51
72.46181126870012
  0
ARC
  5
A03D
330
1F
100
AcDbEntity
  8
TEXT
100
AcDbCircle
 10
600.6799637310117
 20
-218.2328365107511
 30
0.0
 40
0.0716123991500209
100
AcDbArc
 50
18.24878221231991
 51
92.19784172829085
  0
ARC
  5
A03E
330
1F
100
AcDbEntity
  8
TEXT
100
AcDbCircle
 10
600.7566173866349
 20
-218.2142489173978
 30
0.0
 40
0.0094565292621038
100
AcDbArc
 50
156.0593073728596
 51
8.762281217120088
  0
ARC
  5
A03F
330
1F
100
AcDbEntity
  8
TEXT
100
AcDbCircle
 10
600.7770194108925
 20
-218.2167431738843
 30
0.0
 40
0.0117351997935574
100
AcDbArc
 50
1.658272028068433
 51
160.4091839300749
  0
ARC
  5
A040
330
1F
100
AcDbEntity
  8
TEXT
100
AcDbCircle
 10
600.821160058153
 20
-218.1938832839392
 30
0.0
 40
0.0394663806242486
100
AcDbArc
 50
214.7934494581985
 51
299.0409507876119
  0
ARC
  5
A041
330
1F
100
AcDbEntity
  8
TEXT
100
AcDbCircle
 10
600.8655401116982
 20
-218.204842886978
 30
0.0
 40
0.0345034994608953
100
AcDbArc
 50
223.03056250613
 51
311.2487591160731
  0
ARC
  5
A042
330
1F
100
AcDbEntity
  8
TEXT
100
AcDbCircle
 10
600.9078562243587
 20
-218.2255947167866
 30
0.0
 40
0.0202434850951048
100
AcDbArc
 50
194.854618224045
 51
330.4510994340783
  0
ARC
  5
A043
330
1F
100
AcDbEntity
  8
TEXT
100
AcDbCircle
 10
600.9398580101308
 20
-218.2839218434717
 30
0.0
 40
0.0504403035036899
100
AcDbArc
 50
33.67851647489987
 51
106.5775508010125
  0
ARC
  5
A044
330
1F
100
AcDbEntity
  8
TEXT
100
AcDbCircle
 10
600.9962237867711
 20
-218.226362121371
 30
0.0
 40
0.0329030971158398
100
AcDbArc
 50
244.0629515517944
 51
24.32612031264529
  0
ARC
  5
A045
330
1F
100
AcDbEntity
  8
TEXT
100
AcDbCircle
 10
601.0724822454347
 20
-218.0432536501161
 30
0.0
 40
0.0856504748170368
100
AcDbArc
 50
300.6537348898141
 51
16.68245916376005
  0
ARC
  5
A046
330
1F
100
AcDbEntity
  8
TEXT
100
AcDbCircle
 10
600.9065665186469
 20
-217.9517213939025
 30
0.0
 40
0.2568391883961405
100
AcDbArc
 50
344.8914411173245
 51
24.57723374822038
  0
ARC
  5
A047
330
1F
100
AcDbEntity
  8
TEXT
100
AcDbCircle
 10
601.1912579842948
 20
-217.8190672085057
 30
0.0
 40
0.0572764194780507
100
AcDbArc
 50
155.9906329013464
 51
206.8057304576972
  0
ARC
  5
A048
330
1F
100
AcDbEntity
  8
TEXT
100
AcDbCircle
 10
601.1304388899465
 20
-217.7962364304952
 30
0.0
 40
0.0085115103283491
100
AcDbArc
 50
3.193725348484615
 51
193.0548754998608
  0
ARC
  5
A049
330
1F
100
AcDbEntity
  8
TEXT
100
AcDbCircle
 10
601.110754279445
 20
-217.8110269096092
 30
0.0
 40
0.0171867493656786
100
AcDbArc
 50
131.5213803610239
 51
48.47861963898473
  0
ARC
  5
A04A
330
1F
100
AcDbEntity
  8
TEXT
100
AcDbCircle
 10
601.0537946710369
 20
-217.7738121960951
 30
0.0
 40
0.0516631101119713
100
AcDbArc
 50
331.8837666959804
 51
33.32508059324715
  0
ARC
  5
A04B
330
1F
100
AcDbEntity
  8
TEXT
100
AcDbCircle
 10
601.0854683593345
 20
-217.7486090995422
 30
0.0
 40
0.0119260847182272
100
AcDbArc
 50
15.46471151433621
 51
237.0036058083551
  0
ARC
  5
A04C
330
1F
100
AcDbEntity
  8
TEXT
100
AcDbCircle
 10
601.0627480803528
 20
-217.7661471929043
 30
0.0
 40
0.0178900098840057
100
AcDbArc
 50
124.5991194751605
 51
24.91162951380401
  0
ARC
  5
A04D
330
1F
100
AcDbEntity
  8
TEXT
100
AcDbCircle
 10
601.0115827645446
 20
-217.7327183028654
 30
0.0
 40
0.0450705442028974
100
AcDbArc
 50
335.4827230531638
 51
36.54383594003247
  0
ARC
  5
A04E
330
1F
100
AcDbEntity
  8
TEXT
100
AcDbCircle
 10
600.9544381037787
 20
-217.8730808718537
 30
0.0
 40
0.1914957959123389
100
AcDbArc
 50
60.82353397560649
 51
101.6183182656855
  0
LINE
  5
A04F
330
1F
100
AcDbEntity
  8
TEXT
100
AcDbLine
 10
600.9158725557838
 20
-217.6855086501364
 30
0.0
 11
600.9146732889345
 21
-217.7310481797146
 31
0.0
  0
ARC
  5
A050
330
1F
100
AcDbEntity
  8
TEXT
100
AcDbCircle
 10
600.8970085802127
 20
-217.7319133269072
 30
0.0
 40
0.0176858817674158
100
AcDbArc
 50
165.3922446503689
 51
2.803879044206514
  0
LINE
  5
A051
330
1F
100
AcDbEntity
  8
TEXT
100
AcDbLine
 10
600.8798943938232
 20
-217.7274529414849
 30
0.0
 11
600.877495860124
 21
-217.6926991111292
 31
0.0
  0
ARC
  5
A052
330
1F
100
AcDbEntity
  8
TEXT
100
AcDbCircle
 10
600.8619697001522
 20
-217.7004772229644
 30
0.0
 40
0.0173655022151764
100
AcDbArc
 50
26.60941129939882
 51
166.0619000058105
  0
LINE
  5
A053
330
1F
100
AcDbEntity
  8
TEXT
100
AcDbLine
 10
600.8451154987117
 20
-217.6962943338925
 30
0.0
 11
600.8451154987117
 21
-217.7118736376887
 31
0.0
  0
ARC
  5
A054
330
1F
100
AcDbEntity
  8
TEXT
100
AcDbCircle
 10
600.8313682530395
 20
-217.7205128935986
 30
0.0
 40
0.0162364868814825
100
AcDbArc
 50
179.1163546128549
 51
32.14670843866071
  0
LINE
  5
A055
330
1F
100
AcDbEntity
  8
TEXT
100
AcDbLine
 10
600.8151336970777
 20
-217.7202624959584
 30
0.0
 11
600.8151336970777
 21
-217.7777861065695
 31
0.0
  0
ARC
  5
A056
330
1F
100
AcDbEntity
  8
TEXT
100
AcDbCircle
 10
600.7935378598496
 20
-217.7780631345024
 30
0.0
 40
0.0215976139899841
100
AcDbArc
 50
182.4450201076247
 51
0.7349407504797644
  0
LINE
  5
A057
330
1F
100
AcDbEntity
  8
TEXT
100
AcDbLine
 10
600.7719599079405
 20
-217.7789845038464
 30
0.0
 11
600.781554068816
 21
-217.7070800021823
 31
0.0
  0
ARC
  5
A058
330
1F
100
AcDbEntity
  8
TEXT
100
AcDbCircle
 10
600.7703719867042
 20
-217.7086759569114
 30
0.0
 40
0.0112953987026185
100
AcDbArc
 50
8.122642540875602
 51
202.9043136183461
  0
LINE
  5
A059
330
1F
100
AcDbEntity
  8
TEXT
100
AcDbLine
 10
600.7599671612077
 20
-217.7130720504319
 30
0.0
 11
600.7551700938095
 21
-217.750222706274
 31
0.0
  0
ARC
  5
A05A
330
1F
100
AcDbEntity
  8
TEXT
100
AcDbCircle
 10
600.7413784598421
 20
-217.7494939708488
 30
0.0
 40
0.0138108733544406
100
AcDbArc
 50
183.0246359049376
 51
356.9753640950624
  0
LINE
  5
A05B
330
1F
100
AcDbEntity
  8
TEXT
100
AcDbLine
 10
600.7275868258748
 20
-217.750222706274
 30
0.0
 11
600.7179926389201
 21
-217.7717940583199
 31
0.0
  0
LINE
  5
A05C
330
1F
100
AcDbEntity
  8
TEXT
100
AcDbLine
 10
601.3664486850086
 20
-217.9957504034532
 30
0.0
 11
601.4677116003266
 21
-217.99179767523
 31
0.0
  0
LINE
  5
A05D
330
1F
100
AcDbEntity
  8
TEXT
100
AcDbLine
 10
601.5444498919314
 20
-217.9957504034532
 30
0.0
 11
601.6457128072492
 21
-217.99179767523
 31
0.0
  0
LINE
  5
A05E
330
1F
100
AcDbEntity
  8
TEXT
100
AcDbLine
 10
601.4075867247973
 20
-218.0273722756374
 30
0.0
 11
601.409168961109
 21
-218.1807383441312
 31
0.0
  0
LINE
  5
A05F
330
1F
100
AcDbEntity
  8
TEXT
100
AcDbLine
 10
601.4677116003266
 20
-217.99179767523
 30
0.0
 11
601.4692938366382
 21
-218.16571796451
 31
0.0
  0
LINE
  5
A060
330
1F
100
AcDbEntity
  8
TEXT
100
AcDbLine
 10
601.6457128072492
 20
-217.99179767523
 30
0.0
 11
601.647295043561
 21
-218.1712517902091
 31
0.0
  0
ARC
  5
A061
330
1F
100
AcDbEntity
  8
TEXT
100
AcDbCircle
 10
601.3890810599019
 20
-218.0269466877632
 30
0.0
 40
0.0185105580212536
100
AcDbArc
 50
358.6825606331185
 51
106.4049357729542
  0
LINE
  5
A062
330
1F
100
AcDbEntity
  8
TEXT
100
AcDbLine
 10
601.3664486850086
 20
-217.9957504034532
 30
0.0
 11
601.3672397901249
 21
-218.0068180703174
 31
0.0
  0
LINE
  5
A063
330
1F
100
AcDbEntity
  8
TEXT
100
AcDbLine
 10
601.3838532322795
 20
-218.0091897010647
 30
0.0
 11
601.3672397901249
 21
-218.0068180703174
 31
0.0
  0
LINE
  5
A064
330
1F
100
AcDbEntity
  8
TEXT
100
AcDbLine
 10
601.5444498919314
 20
-217.9957504034532
 30
0.0
 11
601.543658786815
 21
-218.0107707985406
 31
0.0
  0
LINE
  5
A065
330
1F
100
AcDbEntity
  8
TEXT
100
AcDbLine
 10
601.543658786815
 20
-218.0107707985406
 30
0.0
 11
601.572138988268
 21
-218.0123518960164
 31
0.0
  0
LINE
  5
A066
330
1F
100
AcDbEntity
  8
TEXT
100
AcDbLine
 10
601.5895435355388
 20
-218.1791572466553
 30
0.0
 11
601.5887524304225
 21
-218.0281628243753
 31
0.0
  0
ARC
  5
A067
330
1F
100
AcDbEntity
  8
TEXT
100
AcDbCircle
 10
601.5774464114842
 20
-218.0234088931348
 30
0.0
 40
0.0122648247632313
100
AcDbArc
 50
337.1943218370273
 51
115.6412778855146
  0
ARC
  5
A068
330
1F
100
AcDbEntity
  8
TEXT
100
AcDbCircle
 10
601.470051425397
 20
-218.1799321003254
 30
0.0
 40
0.0608878024473341
100
AcDbArc
 50
180.7587023263156
 51
270.031539090741
  0
ARC
  5
A069
330
1F
100
AcDbEntity
  8
TEXT
100
AcDbCircle
 10
601.4941133627035
 20
-218.1031499695567
 30
0.0
 40
0.139751110854478
100
AcDbArc
 50
260.0995263030862
 51
313.0673878832468
  0
LINE
  5
A06A
330
1F
100
AcDbEntity
  8
TEXT
100
AcDbLine
 10
601.5895435355388
 20
-218.2052452931407
 30
0.0
 11
601.5903346667341
 21
-218.2352860678491
 31
0.0
  0
ARC
  5
A06B
330
1F
100
AcDbEntity
  8
TEXT
100
AcDbCircle
 10
601.5996895086326
 20
-218.2315632101148
 30
0.0
 40
0.0100684028850535
100
AcDbArc
 50
201.7006027724324
 51
343.0678677067634
  0
ARC
  5
A06C
330
1F
100
AcDbEntity
  8
TEXT
100
AcDbCircle
 10
601.6869457826641
 20
-218.415910809392
 30
0.0
 40
0.1973247184719365
100
AcDbArc
 50
88.18956599987521
 51
113.1652090520224
  0
LINE
  5
A06D
330
1F
100
AcDbEntity
  8
TEXT
100
AcDbLine
 10
601.7436329742037
 20
-217.9042633101613
 30
0.0
 11
601.7495084324925
 21
-218.2087281216933
 31
0.0
  0
LINE
  5
A06E
330
1F
100
AcDbEntity
  8
TEXT
100
AcDbLine
 10
601.807414209259
 20
-217.8631555235944
 30
0.0
 11
601.8091023404869
 21
-218.0149777786458
 31
0.0
  0
ARC
  5
A06F
330
1F
100
AcDbEntity
  8
TEXT
100
AcDbCircle
 10
601.6832389551791
 20
-217.5040683818377
 30
0.0
 40
0.3799514036042447
100
AcDbArc
 50
273.5403564160214
 51
289.0758016785421
  0
LINE
  5
A070
330
1F
100
AcDbEntity
  8
TEXT
100
AcDbLine
 10
601.7067015481806
 20
-217.883294667623
 30
0.0
 11
601.708380250549
 21
-217.9017470687261
 31
0.0
  0
LINE
  5
A071
330
1F
100
AcDbEntity
  8
TEXT
100
AcDbLine
 10
601.708380250549
 20
-217.9017470687261
 30
0.0
 11
601.7436329742037
 21
-217.9042633101613
 31
0.0
  0
LINE
  5
A072
330
1F
100
AcDbEntity
  8
TEXT
100
AcDbLine
 10
601.809941665592
 20
-218.046011386925
 30
0.0
 11
601.8107810167763
 21
-218.1902757051239
 31
0.0
  0
ARC
  5
A073
330
1F
100
AcDbEntity
  8
TEXT
100
AcDbCircle
 10
601.907920922915
 20
-218.1455803133594
 30
0.0
 40
0.1637746448834882
100
AcDbArc
 50
71.0798858476198
 51
127.1124618564865
  0
ARC
  5
A074
330
1F
100
AcDbEntity
  8
TEXT
100
AcDbCircle
 10
601.908041373344
 20
-218.0918828875082
 30
0.0
 40
0.1142562801072371
100
AcDbArc
 50
359.8698564192901
 51
62.37231490188314
  0
ARC
  5
A075
330
1F
100
AcDbEntity
  8
TEXT
100
AcDbCircle
 10
601.8617717768372
 20
-218.0799707039084
 30
0.0
 40
0.0619644708011938
100
AcDbArc
 50
78.87075864991579
 51
146.7670066549833
  0
ARC
  5
A076
330
1F
100
AcDbEntity
  8
TEXT
100
AcDbCircle
 10
601.8805023108845
 20
-218.091005075528
 30
0.0
 40
0.0721518704931053
100
AcDbArc
 50
21.58325850317332
 51
95.38396011116695
  0
ARC
  5
A077
330
1F
100
AcDbEntity
  8
TEXT
100
AcDbCircle
 10
601.8748463466228
 20
-218.1156653409645
 30
0.0
 40
0.088960611637759
100
AcDbArc
 50
343.5952529167646
 51
35.13836089167805
  0
ARC
  5
A078
330
1F
100
AcDbEntity
  8
TEXT
100
AcDbCircle
 10
601.8461121073737
 20
-218.0864348734572
 30
0.0
 40
0.1558457845586532
100
AcDbArc
 50
231.6935697703411
 51
269.6626044169122
  0
ARC
  5
A079
330
1F
100
AcDbEntity
  8
TEXT
100
AcDbCircle
 10
601.8622685931482
 20
-218.0593875686922
 30
0.0
 40
0.1836856613538935
100
AcDbArc
 50
264.6664639047648
 51
308.6423664458132
  0
ARC
  5
A07A
330
1F
100
AcDbEntity
  8
TEXT
100
AcDbCircle
 10
601.8837208982601
 20
-218.1000461343839
 30
0.0
 40
0.138801672189514
100
AcDbArc
 50
312.2086974257841
 51
3.264333629957683
  0
ARC
  5
A07B
330
1F
100
AcDbEntity
  8
TEXT
100
AcDbCircle
 10
600.5133031475147
 20
-217.0301907479365
 30
0.0
 40
0.0204415862877363
100
AcDbArc
 50
32.93635467158718
 51
189.5430854165195
  0
ARC
  5
A07C
330
1F
100
AcDbEntity
  8
TEXT
100
AcDbCircle
 10
600.5455764881637
 20
-217.0185667227648
 30
0.0
 40
0.0151258206016299
100
AcDbArc
 50
181.9314217622489
 51
21.08009584438978
  0
ARC
  5
A07D
330
1F
100
AcDbEntity
  8
TEXT
100
AcDbCircle
 10
600.5709521901755
 20
-217.0154146975598
 30
0.0
 40
0.0114922508353156
100
AcDbArc
 50
3.320051391017303
 51
168.5145862198272
  0
ARC
  5
A07E
330
1F
100
AcDbEntity
  8
TEXT
100
AcDbCircle
 10
600.5953860307901
 20
-217.0217538835532
 30
0.0
 40
0.0147326429050978
100
AcDbArc
 50
151.610876507047
 51
6.217261201770662
  0
ARC
  5
A07F
330
1F
100
AcDbEntity
  8
TEXT
100
AcDbCircle
 10
600.6217128478551
 20
-217.0195351760702
 30
0.0
 40
0.0116974376118937
100
AcDbArc
 50
7.567610287756776
 51
183.0538693842452
  0
ARC
  5
A080
330
1F
100
AcDbEntity
  8
TEXT
100
AcDbCircle
 10
600.6426363366943
 20
-217.0129394275039
 30
0.0
 40
0.0106097046542174
100
AcDbArc
 50
208.4553291170971
 51
16.75507449313859
  0
ARC
  5
A081
330
1F
100
AcDbEntity
  8
TEXT
100
AcDbCircle
 10
600.6587476240381
 20
-217.0203962312897
 30
0.0
 40
0.0120830312488348
100
AcDbArc
 50
340.2175703033617
 51
119.5111127021398
  0
ARC
  5
A082
330
1F
100
AcDbEntity
  8
TEXT
100
AcDbCircle
 10
600.6875135254155
 20
-217.0245498724427
 30
0.0
 40
0.0173960732958633
100
AcDbArc
 50
179.7887253899368
 51
338.3185482084487
  0
ARC
  5
A083
330
1F
100
AcDbEntity
  8
TEXT
100
AcDbCircle
 10
600.7274094306649
 20
-217.0425053548524
 30
0.0
 40
0.026382716840622
100
AcDbArc
 50
51.76909225769858
 51
154.0890012254426
  0
ARC
  5
A084
330
1F
100
AcDbEntity
  8
TEXT
100
AcDbCircle
 10
600.7609208506712
 20
-217.0182013935917
 30
0.0
 40
0.0175538244621736
100
AcDbArc
 50
191.7667831442122
 51
294.1224948725131
  0
ARC
  5
A085
330
1F
100
AcDbEntity
  8
TEXT
100
AcDbCircle
 10
600.7814760662404
 20
-217.0298939570077
 30
0.0
 40
0.0140637895856828
100
AcDbArc
 50
13.33841226381525
 51
197.9246330182928
  0
ARC
  5
A086
330
1F
100
AcDbEntity
  8
TEXT
100
AcDbCircle
 10
600.8100669611065
 20
-217.0258487344008
 30
0.0
 40
0.0149279721050864
100
AcDbArc
 50
183.0745908828773
 51
5.23872674582437
  0
ARC
  5
A087
330
1F
100
AcDbEntity
  8
TEXT
100
AcDbCircle
 10
600.8382939847306
 20
-217.0225174942282
 30
0.0
 40
0.0135055962967152
100
AcDbArc
 50
305.0065695458977
 51
188.3798152009864
  0
ARC
  5
A088
330
1F
100
AcDbEntity
  8
TEXT
100
AcDbCircle
 10
600.5374610536899
 20
-218.3294950198035
 30
0.0
 40
0.0211999344698838
100
AcDbArc
 50
225.9317407159997
 51
327.3216812937218
  0
ARC
  5
A089
330
1F
100
AcDbEntity
  8
TEXT
100
AcDbCircle
 10
600.7821914572336
 20
-218.3923603514117
 30
0.0
 40
0.0183790483469612
100
AcDbArc
 50
167.7181143692787
 51
23.98551077365516
  0
ARC
  5
A08A
330
1F
100
AcDbEntity
  8
TEXT
100
AcDbCircle
 10
600.8717627699422
 20
-218.3697811905659
 30
0.0
 40
0.0222814355173959
100
AcDbArc
 50
170.7272794785983
 51
21.15794103948756
  0
LINE
  5
A08B
330
1F
100
AcDbEntity
  8
TEXT
100
AcDbLine
 10
600.8925421917609
 20
-218.3617389273528
 30
0.0
 11
600.8907601124128
 21
-218.3287943545658
 31
0.0
  0
LINE
  5
A08C
330
1F
100
AcDbEntity
  8
TEXT
100
AcDbLine
 10
600.9379850065043
 20
-218.3341367064342
 30
0.0
 11
600.9468953771655
 21
-218.3804371975581
 31
0.0
  0
ARC
  5
A08D
330
1F
100
AcDbEntity
  8
TEXT
100
AcDbCircle
 10
600.957844513369
 20
-218.3826295786964
 30
0.0
 40
0.0111664729730421
100
AcDbArc
 50
168.6772178130464
 51
20.84321825743645
  0
LINE
  5
A08E
330
1F
100
AcDbEntity
  8
TEXT
100
AcDbLine
 10
600.9682802250259
 20
-218.378656413602
 30
0.0
 11
600.9682802250259
 21
-218.3474926247711
 31
0.0
  0
ARC
  5
A08F
330
1F
100
AcDbEntity
  8
TEXT
100
AcDbCircle
 10
600.9825303259169
 20
-218.3488972657046
 30
0.0
 40
0.0143191616917265
100
AcDbArc
 50
354.9255052590734
 51
174.3705062402905
  0
LINE
  5
A090
330
1F
100
AcDbEntity
  8
TEXT
100
AcDbLine
 10
600.9967933641997
 20
-218.3501638084385
 30
0.0
 11
601.0003574968168
 21
-218.4374224078854
 31
0.0
  0
ARC
  5
A091
330
1F
100
AcDbEntity
  8
TEXT
100
AcDbCircle
 10
601.0181414363127
 20
-218.4355961196356
 30
0.0
 40
0.0178774671797511
100
AcDbArc
 50
185.8633287467241
 51
2.708827809510166
  0
LINE
  5
A092
330
1F
100
AcDbEntity
  8
TEXT
100
AcDbLine
 10
601.0359989273037
 20
-218.4347512242179
 30
0.0
 11
601.0288706620696
 21
-218.3626293115977
 31
0.0
  0
LINE
  5
A093
330
1F
100
AcDbEntity
  8
TEXT
100
AcDbLine
 10
601.0288706620696
 20
-218.3626293115977
 30
0.0
 11
601.0368899669778
 21
-218.381327581803
 31
0.0
  0
ARC
  5
A094
330
1F
100
AcDbEntity
  8
TEXT
100
AcDbCircle
 10
601.0486158068288
 20
-218.3749060578756
 30
0.0
 40
0.0133690422155094
100
AcDbArc
 50
208.706819647666
 51
351.5282258973487
  0
LINE
  5
A095
330
1F
100
AcDbEntity
  8
TEXT
100
AcDbLine
 10
601.0618389735343
 20
-218.3768756141795
 30
0.0
 11
601.0609479338604
 21
-218.363519711309
 31
0.0
  0
ARC
  5
A096
330
1F
100
AcDbEntity
  8
TEXT
100
AcDbCircle
 10
601.0789386978939
 20
-218.3686227856748
 30
0.0
 40
0.0187005069045984
100
AcDbArc
 50
7.472141028409089
 51
164.1640293291668
  0
LINE
  5
A097
330
1F
100
AcDbEntity
  8
TEXT
100
AcDbLine
 10
601.0974804040213
 20
-218.3661908949763
 30
0.0
 11
601.1063907486036
 21
-218.4400935760863
 31
0.0
  0
ARC
  5
A098
330
1F
100
AcDbEntity
  8
TEXT
100
AcDbCircle
 10
601.1237768920144
 20
-218.4445441139251
 30
0.0
 40
0.0179467342367279
100
AcDbArc
 50
165.6416373020926
 51
23.37981978602128
  0
LINE
  5
A099
330
1F
100
AcDbEntity
  8
TEXT
100
AcDbLine
 10
601.1402500997426
 20
-218.4374224078854
 30
0.0
 11
601.1375415133409
 21
-218.3712417055115
 31
0.0
  0
ARC
  5
A09A
330
1F
100
AcDbEntity
  8
TEXT
100
AcDbCircle
 10
601.1426317807352
 20
-218.3657505911767
 30
0.0
 40
0.0074875335580206
100
AcDbArc
 50
60.02231951668158
 51
227.1694577924197
  0
LINE
  5
A09B
330
1F
100
AcDbEntity
  8
TEXT
100
AcDbLine
 10
601.1463730212406
 20
-218.359264739015
 30
0.0
 11
601.1769399564001
 21
-218.3639339165317
 31
0.0
  0
ARC
  5
A09C
330
1F
100
AcDbEntity
  8
TEXT
100
AcDbCircle
 10
601.1746184768782
 20
-218.3772885398206
 30
0.0
 40
0.0135548969144405
100
AcDbArc
 50
327.1504341221696
 51
80.13862259361685
  0
LINE
  5
A09D
330
1F
100
AcDbEntity
  8
TEXT
100
AcDbLine
 10
601.1860059141103
 20
-218.3846411926513
 30
0.0
 11
601.1905389060046
 21
-218.5134146593025
 31
0.0
  0
LINE
  5
A09E
330
1F
100
AcDbEntity
  8
TEXT
100
AcDbLine
 10
601.2287454886376
 20
-218.5108262362545
 30
0.0
 11
601.2293930551826
 21
-218.3801114755169
 31
0.0
  0
ARC
  5
A09F
330
1F
100
AcDbEntity
  8
TEXT
100
AcDbCircle
 10
601.2395854043562
 20
-218.379205166306
 30
0.0
 40
0.0102325645886126
100
AcDbArc
 50
32.94435831946379
 51
185.0814072168601
  0
ARC
  5
A0A0
330
1F
100
AcDbEntity
  8
TEXT
100
AcDbCircle
 10
601.2688609169022
 20
-218.3543565063294
 30
0.0
 40
0.0282821218467122
100
AcDbArc
 50
222.9877626572331
 51
344.335885161559
  0
ARC
  5
A0A1
330
1F
100
AcDbEntity
  8
TEXT
100
AcDbCircle
 10
601.2295517917948
 20
-218.3299420828754
 30
0.0
 40
0.0121730875667031
100
AcDbArc
 50
193.9319034609801
 51
333.037828350931
  0
ARC
  5
A0A2
330
1F
100
AcDbEntity
  8
TEXT
100
AcDbCircle
 10
601.2072681635149
 20
-218.3448632506623
 30
0.0
 40
0.0159172569840616
100
AcDbArc
 50
48.8759637679361
 51
143.7953529790059
  0
ARC
  5
A0A3
330
1F
100
AcDbEntity
  8
TEXT
100
AcDbCircle
 10
601.176841168262
 20
-218.3194374777457
 30
0.0
 40
0.0237893523154895
100
AcDbArc
 50
218.2556843178679
 51
317.6564247238852
  0
ARC
  5
A0A4
330
1F
100
AcDbEntity
  8
TEXT
100
AcDbCircle
 10
601.2097932443009
 20
-218.514349986307
 30
0.0
 40
0.0192770428186735
100
AcDbArc
 50
177.2189023070876
 51
10.53261226457853
  0
LINE
  5
A0A5
330
1F
100
AcDbEntity
  8
DIMENSION
100
AcDbLine
 10
595.5520398301141
 20
-219.1737189983868
 30
0.0
 11
595.5520398301141
 21
-221.1048561967404
 31
0.0
  0
TEXT
  5
A121
330
1F
100
AcDbEntity
  8
TEXT
100
AcDbText
 10
565.7992246922296
 20
-220.9798561967405
 30
0.0
 40
0.25
  1
REVISIONS
 72
     1
 11
566.8408913588962
 21
-220.8548561967405
 31
0.0
100
AcDbText
 73
     2
  0
LWPOLYLINE
  5
B5D2
330
1F
100
AcDbEntity
  8
BORDER
100
AcDbPolyline
 90
        4
 70
     1
 43
0.0
 10
560.5190163588961
 20
-158.6048561967404
 10
608.0172946443436
 20
-158.6048561967404
 10
608.0172946443436
 20
-221.1048561967404
 10
560.5190163588961
 20
-221.1048561967404
  0
TEXT
  5
B759
330
1F
100
AcDbEntity
  8
TEXT
100
AcDbText
 10
591.454064143511
 20
-220.8704811967405
 30
0.0
 40
0.15625
  1
ICE QUBE, INC.
 72
     1
 11
592.3785433101777
 21
-220.7923561967405
 31
0.0
100
AcDbText
 73
     2
  0
TEXT
  5
B75A
330
1F
100
AcDbEntity
  8
TEXT
100
AcDbText
 10
589.7222933101777
 20
-220.6361061967405
 30
0.0
 40
0.15625
  1
OR ALTERED WITHOUT AUTHORIZATION OF
 72
     1
 11
592.3785433101777
 21
-220.5579811967405
 31
0.0
100
AcDbText
 73
     2
  0
TEXT
  5
B75B
330
1F
100
AcDbEntity
  8
TEXT
100
AcDbText
 10
589.6051058101777
 20
-220.4017311967404
 30
0.0
 40
0.15625
  1
QUBE, INC. AND IS NOT TO BE DUPLICATED
 72
     1
 11
592.3785433101777
 21
-220.3236061967404
 31
0.0
100
AcDbText
 73
     2
  0
TEXT
  5
B75C
330
1F
100
AcDbEntity
  8
TEXT
100
AcDbText
 10
589.7483349768443
 20
-220.1673561967404
 30
0.0
 40
0.15625
  1
THIS DRAWING IS THE PROPERTY OF ICE
 72
     1
 11
592.3785433101777
 21
-220.0892311967404
 31
0.0
100
AcDbText
 73
     2
  0
TEXT
  5
B75D
330
1F
100
AcDbEntity
  8
TEXT
100
AcDbText
 10
589.5139599768442
 20
-219.8548561967404
 30
0.0
 40
0.3125
  1
PROPRIETARY DRAWING
 72
     1
 11
592.3785433101776
 21
-219.6986061967404
 31
0.0
100
AcDbText
 73
     2
  0
LINE
  5
B75E
330
1F
100
AcDbEntity
  8
BORDER
100
AcDbLine
 10
595.5520398301141
 20
-221.1048561967404
 30
0.0
 11
589.2050467902412
 21
-221.1048561967404
 31
0.0
  0
LINE
  5
B75F
330
1F
100
AcDbEntity
  8
BORDER
100
AcDbLine
 10
595.5520398301141
 20
-221.1048561967404
 30
0.0
 11
595.5520398301141
 21
-219.3861061967405
 31
0.0
  0
LINE
  5
B760
330
1F
100
AcDbEntity
  8
THERMOSTATCVR
100
AcDbLine
 10
595.5520398301141
 20
-219.1737189983868
 30
0.0
 11
589.2644145272088
 21
-219.1737189983868
 31
0.0
  0
LINE
  5
B763
330
1F
100
AcDbEntity
  8
THERMOSTATCVR
100
AcDbLine
 10
589.2644145272088
 20
-219.1737189983868
 30
0.0
 11
589.2644145272088
 21
-221.1048561967404
 31
0.0
  0
TEXT
  5
B7DD
330
1F
100
AcDbEntity
  8
DIMENSION
100
AcDbText
 10
576.9884942794567
 20
-163.5927672872946
 30
0.0
 40
1.0
  1
CUTOUT DRAWING
 72
     1
 11
583.8218276127901
 21
-163.5927672872946
 31
0.0
100
AcDbText
  0
TEXT
  5
B7DE
330
1F
100
AcDbEntity
  8
DIMENSION
100
AcDbText
 10
580.2384942794567
 20
-162.2428565371341
 30
0.0
 40
1.0
  1
IQ4000VS
 72
     1
 11
583.8218276127901
 21
-162.2428565371341
 31
0.0
100
AcDbText
  0
LINE
  5
B831
330
1F
100
AcDbEntity
  8
BORDER
100
AcDbLine
 10
576.7645196048207
 20
-218.6048561967403
 30
0.0
 11
560.5190163588961
 21
-218.6048561967403
 31
0.0
  0
TEXT
  5
B832
330
1F
100
AcDbEntity
  8
TEXT
100
AcDbText
 10
561.0242246922295
 20
-218.9798561967404
 30
0.0
 40
0.25
  1
1
 72
     1
 11
561.0658913588961
 21
-218.8548561967404
 31
0.0
100
AcDbText
 73
     2
  0
TEXT
  5
B833
330
1F
100
AcDbEntity
  8
TEXT
100
AcDbText
 10
562.0075580255628
 20
-218.9798561967404
 30
0.0
 40
0.25
  1
ADDED UL/ETL CERTIFICATIONS & TEMP CODES
 72
     1
 11
566.8408913588962
 21
-218.8548561967404
 31
0.0
100
AcDbText
 73
     2
  0
TEXT
  5
B834
330
1F
100
AcDbEntity
  8
TEXT
100
AcDbText
 10
575.1834346485252
 20
-218.9798561967404
 30
0.0
 40
0.25
  1
JJH
 72
     1
 11
575.5167679818586
 21
-218.8548561967404
 31
0.0
100
AcDbText
 73
     2
  0
TEXT
  5
B835
330
1F
100
AcDbEntity
  8
TEXT
100
AcDbText
 10
572.5023496922296
 20
-218.9798561967404
 30
0.0
 40
0.25
  1
1-18-11
 72
     1
 11
573.1690163588962
 21
-218.8548561967404
 31
0.0
100
AcDbText
 73
     2
  0
MTEXT
  5
B8B8
330
1F
100
AcDbEntity
  8
CXJ684
100
AcDbMText
 10
584.8002713498898
 20
-213.6240411755106
 30
0.0
 40
0.75
 41
62.43609302247205
 71
     2
 72
     5
  1
{\LHAZARDOUS LOCATION CERTIFICATIONS\P}UL/ETL:  CLASS 1 DIVISION 2 GROUPS B, C & D\PETL:  CLASS 1 ZONE 2 GROUP IIB\P{\LTEMPERATURE CODE:\P}UL: T4\PETL: T3
 73
     1
 44
1.0
1001
ACAD
1000
MTEXTBEGIN
1070
    73
1070
     1
1070
    44
1040
1.0
1070
    74
1070
     0
1000
MTEXTEND
  0
TEXT
  5
B8B9
330
1F
100
AcDbEntity
  8
TEXT
100
AcDbText
 10
564.8825580255628
 20
-219.4798561967404
 30
0.0
 40
0.25
  1
REMOVED IQ3800VS
 72
     1
 11
566.8408913588962
 21
-219.3548561967404
 31
0.0
100
AcDbText
 73
     2
  0
ENDSEC
  0
SECTION
  2
OBJECTS
  0
DICTIONARY
  5
C
330
0
100
AcDbDictionary
281
     1
  3
ACAD_COLOR
350
73
  3
ACAD_GROUP
350
D
  3
ACAD_LAYOUT
350
1A
  3
ACAD_MATERIAL
350
72
  3
ACAD_MLINESTYLE
350
17
  3
ACAD_PLOTSETTINGS
350
19
  3
ACAD_PLOTSTYLENAME
350
E
  3
ACDBHEADERROUNDTRIPXREC
350
B8BD
  3
AcDbVariableDictionary
350
66
  3
DWGPROPS
350
B8BC
  0
DICTIONARY
  5
A61C
330
1F
100
AcDbDictionary
280
     1
281
     1
  3
ACAD_SORTENTS
360
A61D
  0
DICTIONARY
  5
931F
330
931E
100
AcDbDictionary
280
     1
281
     1
  3
ACAD_DIMASSOC
360
9320
  0
DICTIONARY
  5
9322
330
9321
100
AcDbDictionary
280
     1
281
     1
  3
ACAD_DIMASSOC
360
9323
  0
DICTIONARY
  5
9325
330
9324
100
AcDbDictionary
280
     1
281
     1
  3
ACAD_DIMASSOC
360
9326
  0
DICTIONARY
  5
9328
330
9327
100
AcDbDictionary
280
     1
281
     1
  3
ACAD_DIMASSOC
360
9329
  0
DICTIONARY
  5
932B
330
932A
100
AcDbDictionary
280
     1
281
     1
  3
ACAD_DIMASSOC
360
932C
  0
DICTIONARY
  5
932E
330
932D
100
AcDbDictionary
280
     1
281
     1
  3
ACAD_DIMASSOC
360
932F
  0
DICTIONARY
  5
9331
330
9330
100
AcDbDictionary
280
     1
281
     1
  3
ACAD_DIMASSOC
360
9332
  0
DICTIONARY
  5
9343
330
9342
100
AcDbDictionary
280
     1
281
     1
  3
ACAD_DIMASSOC
360
9344
  0
DICTIONARY
  5
9346
330
9345
100
AcDbDictionary
280
     1
281
     1
  3
ACAD_DIMASSOC
360
9347
  0
DICTIONARY
  5
9349
330
9348
100
AcDbDictionary
280
     1
281
     1
  3
ACAD_DIMASSOC
360
934A
  0
DICTIONARY
  5
934C
330
934B
100
AcDbDictionary
280
     1
281
     1
  3
ACAD_DIMASSOC
360
934D
  0
DICTIONARY
  5
934F
330
934E
100
AcDbDictionary
280
     1
281
     1
  3
ACAD_DIMASSOC
360
9350
  0
DICTIONARY
  5
9352
330
9351
100
AcDbDictionary
280
     1
281
     1
  3
ACAD_DIMASSOC
360
9353
  0
DICTIONARY
  5
9355
330
9354
100
AcDbDictionary
280
     1
281
     1
  3
ACAD_DIMASSOC
360
9356
  0
DICTIONARY
  5
9358
330
9357
100
AcDbDictionary
280
     1
281
     1
  3
ACAD_DIMASSOC
360
9359
  0
DICTIONARY
  5
935B
330
935A
100
AcDbDictionary
280
     1
281
     1
  3
ACAD_DIMASSOC
360
935C
  0
DICTIONARY
  5
935F
330
935E
100
AcDbDictionary
280
     1
281
     1
  3
ACAD_DIMASSOC
360
9360
  0
DICTIONARY
  5
73
102
{ACAD_REACTORS
330
C
102
}
330
C
100
AcDbDictionary
281
     1
  0
DICTIONARY
  5
D
102
{ACAD_REACTORS
330
C
102
}
330
C
100
AcDbDictionary
281
     1
  0
DICTIONARY
  5
1A
102
{ACAD_REACTORS
330
C
102
}
330
C
100
AcDbDictionary
281
     1
  3
Layout1
350
59
  3
Layout2
350
5E
  3
Model
350
22
  0
DICTIONARY
  5
72
102
{ACAD_REACTORS
330
C
102
}
330
C
100
AcDbDictionary
281
     1
  0
DICTIONARY
  5
17
102
{ACAD_REACTORS
330
C
102
}
330
C
100
AcDbDictionary
281
     1
  3
Standard
350
18
  0
DICTIONARY
  5
19
102
{ACAD_REACTORS
330
C
102
}
330
C
100
AcDbDictionary
281
     1
  0
ACDBDICTIONARYWDFLT
  5
E
102
{ACAD_REACTORS
330
C
102
}
330
C
100
AcDbDictionary
281
     1
  3
Normal
350
F
100
AcDbDictionaryWithDefault
340
F
  0
DICTIONARY
  5
B8BD
102
{ACAD_REACTORS
330
C
102
}
330
C
100
AcDbDictionary
281
     1
  3
COLORDICT
350
B8BF
  3
MATERIALDICT
350
B8BE
  0
DICTIONARY
  5
66
102
{ACAD_REACTORS
330
C
102
}
330
C
100
AcDbDictionary
281
     1
  3
DIMASSOC
350
67
  3
HIDETEXT
350
6B
  3
PROJECTNAME
350
B7F1
  0
XRECORD
  5
B8BC
102
{ACAD_REACTORS
330
C
102
}
330
C
100
AcDbXrecord
280
     1
  1
DWGPROPS COOKIE
  2

  3

  4

  6

  7

  8
johnh
  9

300
=
301
=
302
=
303
=
304
=
305
=
306
=
307
=
308
=
309
=
 40
1.802746400462963
 41
2453634.647303958
 42
2455580.414914456
  1

 90
        0
  0
SORTENTSTABLE
  5
A61D
102
{ACAD_REACTORS
330
A61C
102
}
330
A61C
100
AcDbSortentsTable
330
1F
331
9A2C
  5
9A2D
331
9BF9
  5
9BFA
331
9AF9
  5
9AFA
331
A07E
  5
A07F
331
9FCF
  5
9FD0
331
A041
  5
A042
331
9AC8
  5
9ACA
331
9855
  5
9856
331
930A
  5
930B
331
9C93
  5
9C94
331
A00B
  5
A00C
331
A048
  5
A049
331
91D7
  5
91D8
331
936C
  5
936D
331
9F99
  5
9F9A
331
9FD6
  5
9FD7
331
9A4A
  5
9A4B
331
9A39
  5
9A3A
331
9BEE
  5
9BEF
331
9D93
  5
9D94
331
9D4A
  5
9D4B
331
9C37
  5
9C38
331
A1B4
  5
A1B5
331
99B7
  5
99B8
331
9284
  5
9285
331
9D81
  5
9D82
331
9C72
  5
9C73
331
A5E4
  5
A5E4
331
93EE
  5
93EF
331
A1FB
  5
A1FC
331
9A55
  5
9A56
331
9372
  5
9373
331
9C17
  5
9C18
331
9A10
  5
9A11
331
94EC
  5
94ED
331
9C7F
  5
9C80
331
A5F8
  5
A5F8
331
A135
  5
A136
331
9D1A
  5
9D1B
331
99F6
  5
99F7
331
9913
  5
9914
331
A606
  5
A606
331
9D3B
  5
9D3C
331
9B78
  5
9B79
331
A237
  5
A238
331
989D
  5
989E
331
9C1C
  5
9C1D
331
9439
  5
943A
331
98E5
  5
98E6
331
9952
  5
9953
331
91CF
  5
91D0
331
948F
  5
9490
331
A21C
  5
A21D
331
99CC
  5
99CD
331
9301
  5
9302
331
A5F2
  5
A5F2
331
9419
  5
941A
331
9831
  5
9832
331
935E
  5
9361
331
9327
  5
932A
331
A027
  5
A028
331
A064
  5
A065
331
9B75
  5
9B76
331
9A0E
  5
9A0F
331
9D28
  5
9D29
331
A06B
  5
A06C
331
9FBC
  5
9FBD
331
9FF9
  5
9FFA
331
A02E
  5
A02F
331
9212
  5
9213
331
984F
  5
9850
331
9885
  5
9886
331
A08E
  5
A08F
331
9BB0
  5
9BB1
331
A17F
  5
A180
331
9984
  5
9985
331
99D9
  5
99DA
331
9442
  5
9443
331
9D7F
  5
9D80
331
94C4
  5
94C5
331
9481
  5
9482
331
9A5D
  5
9A5E
331
986A
  5
986B
331
9429
  5
942A
331
A156
  5
A157
331
9AAA
  5
9AAB
331
994F
  5
9950
331
9D65
  5
9D66
331
9DC5
  5
9DC6
331
9B5A
  5
9B5B
331
A12B
  5
A12C
331
9D0E
  5
9D0F
331
99E7
  5
99E8
331
940C
  5
940D
331
9DA9
  5
9DAA
331
9715
  5
9716
331
A185
  5
A186
331
A1AA
  5
A1AB
331
9B82
  5
9B83
331
9405
  5
9406
331
A15A
  5
A15B
331
94FB
  5
94FC
331
99C0
  5
99C1
331
A22C
  5
A22D
331
A1BC
  5
A1BD
331
A1E1
  5
A1E2
331
9B1A
  5
9B1B
331
9BDA
  5
9BDB
331
9927
  5
9928
331
9498
  5
9499
331
995F
  5
9960
331
933D
  5
933E
331
9B3C
  5
9B3D
331
9334
  5
9335
331
9D6E
  5
9D6F
331
9BE3
  5
9BE4
331
A014
  5
A015
331
A051
  5
A052
331
93D5
  5
93D6
331
9FA2
  5
9FA3
331
9FDF
  5
9FE0
331
91E0
  5
91E1
331
9C22
  5
9C23
331
9A7B
  5
9A7C
331
9A87
  5
9A88
331
9CEC
  5
9CED
331
A1ED
  5
A1EE
331
9930
  5
9931
331
9DA5
  5
9DA6
331
A224
  5
A225
331
92E1
  5
92E2
331
9900
  5
9901
331
92CD
  5
92CE
331
9CD2
  5
9CD3
331
9B53
  5
9B54
331
9417
  5
9418
331
9427
  5
9428
331
93F4
  5
93F5
331
9D5B
  5
9D5C
331
9C80
  5
9C81
331
98A5
  5
98A6
331
993E
  5
993F
331
9B9E
  5
9B9F
331
9D53
  5
9D54
331
9C08
  5
9C09
331
9BB8
  5
9BB9
331
996D
  5
996E
331
9D74
  5
9D75
331
9BF1
  5
9BF2
331
9CF2
  5
9CF3
331
9472
  5
9473
331
A1A7
  5
A1A8
331
9D8A
  5
9D8B
331
98AE
  5
98AF
331
9873
  5
9874
331
A208
  5
A209
331
9A35
  5
9A36
331
92C4
  5
92C5
331
94B1
  5
94B2
331
A175
  5
A176
331
9A05
  5
9A06
331
9AE2
  5
9AE3
331
9452
  5
9453
331
A18F
  5
A190
331
92B6
  5
92B7
331
9CDB
  5
9CDC
331
9D40
  5
9D41
331
9B68
  5
9B69
331
92BC
  5
92BD
331
9357
  5
935A
331
A002
  5
A003
331
A037
  5
A038
331
A074
  5
A075
331
921B
  5
921C
331
9FC5
  5
9FC6
331
92A8
  5
92A9
331
99A5
  5
99A6
331
9B01
  5
9B02
331
98C6
  5
98C7
331
944D
  5
944E
331
94AA
  5
94AB
331
A097
  5
A098
331
9362
  5
9363
331
9D34
  5
9D35
331
A161
  5
A162
331
9C05
  5
9C06
331
A612
  5
A612
331
9C47
  5
9C48
331
9A9E
  5
9A9F
331
A0A4
  5
A0A5
331
947B
  5
947C
331
94C8
  5
94C9
331
92F8
  5
92F9
331
A197
  5
A198
331
9CB6
  5
9CB7
331
9462
  5
9463
331
94BE
  5
94BF
331
92D8
  5
92D9
331
9BD5
  5
9BD6
331
9492
  5
9493
331
9A1B
  5
9A1C
331
A215
  5
A216
331
9CC2
  5
9CC5
331
9CCF
  5
9CD0
331
A19B
  5
A19C
331
9298
  5
9299
331
9CAD
  5
9CAE
331
99BC
  5
99BD
331
99F9
  5
99FA
331
9436
  5
9437
331
9D01
  5
9D02
331
A1F5
  5
A1F6
331
A13A
  5
A13B
331
9867
  5
9868
331
9AEE
  5
9AEF
331
9A93
  5
9A94
331
9A73
  5
9A74
331
A1C8
  5
A1C9
331
9929
  5
992A
331
98B8
  5
98B9
331
A5C4
  5
A5C5
331
93F8
  5
93F9
331
9845
  5
9846
331
932D
  5
9330
331
A05A
  5
A05B
331
9FAB
  5
9FAC
331
9FE8
  5
9FE9
331
A01D
  5
A01E
331
93DE
  5
93DF
331
999C
  5
999D
331
9961
  5
9962
331
9CBE
  5
9CBF
331
9208
  5
9209
331
93E5
  5
93E6
331
9FB2
  5
9FB3
331
92EA
  5
92EB
331
9B47
  5
9B48
331
A084
  5
A085
331
9D13
  5
9D14
331
9296
  5
9297
331
A124
  5
A125
331
A608
  5
A608
331
9B8C
  5
9B8D
331
9941
  5
9942
331
A145
  5
A146
331
9BC3
  5
9BC4
331
9A20
  5
9A21
331
9878
  5
9879
331
A205
  5
A206
331
98DE
  5
98DF
331
990D
  5
990E
331
99AE
  5
99AF
331
9D23
  5
9D24
331
9A68
  5
9A69
331
94DD
  5
94DE
331
9AD1
  5
9AD5
331
98B4
  5
98B5
331
9A66
  5
9A67
331
9B67
  5
9B68
331
9CE3
  5
9CE4
331
98D2
  5
98D3
331
91C7
  5
91C8
331
985C
  5
985D
331
997B
  5
997C
331
A5DB
  5
A5DB
331
A168
  5
A169
331
9C9D
  5
9CA0
331
92F5
  5
92F6
331
9B94
  5
9B95
331
9CA1
  5
9CA2
331
9BA9
  5
9BAA
331
9D9E
  5
9D9F
331
9317
  5
9318
331
9A46
  5
9A47
331
94A1
  5
94A2
331
98F7
  5
98F8
331
9BF8
  5
9BF9
331
9AF8
  5
9AF9
331
9A2B
  5
9A2C
331
A040
  5
A041
331
A07D
  5
A07E
331
9FCE
  5
9FCF
331
9309
  5
930A
331
9C92
  5
9C93
331
94F7
  5
94F8
331
9854
  5
9855
331
9FD5
  5
9FD6
331
A00A
  5
A00B
331
91D6
  5
91D7
331
936B
  5
936C
331
9D92
  5
9D93
331
A1B3
  5
A1B4
331
9A38
  5
9A39
331
9BED
  5
9BEE
331
9977
  5
9978
331
9D49
  5
9D4A
331
9C36
  5
9C37
331
9A49
  5
9A4A
331
9283
  5
9284
331
9D80
  5
9D81
331
9C71
  5
9C72
331
99B6
  5
99B7
331
A5E3
  5
A5E3
331
A1FA
  5
A1FB
331
9C16
  5
9C17
331
94EB
  5
94EC
331
9AC7
  5
9AC8
331
9A54
  5
9A55
331
9371
  5
9372
331
93ED
  5
93EE
331
9D19
  5
9D1A
331
9C7E
  5
9C7F
331
99F5
  5
99F6
331
9912
  5
9913
331
946F
  5
9470
331
9C67
  5
9C68
331
9C1B
  5
9C1C
331
9438
  5
9439
331
A605
  5
A605
331
989C
  5
989D
331
A236
  5
A237
331
9D3A
  5
9D3B
331
9951
  5
9952
331
98E4
  5
98E5
331
9300
  5
9301
331
9418
  5
9419
331
A5F1
  5
A5F1
331
91CE
  5
91CF
331
948E
  5
948F
331
A21B
  5
A21C
331
99CB
  5
99CC
331
935D
  5
935E
331
A026
  5
A027
331
A063
  5
A064
331
9CFF
  5
9D00
331
9B74
  5
9B75
331
9A0D
  5
9A0E
331
A02D
  5
A02E
331
A06A
  5
A06B
331
9211
  5
9212
331
984E
  5
984F
331
9FBB
  5
9FBC
331
9FF8
  5
9FF9
331
9884
  5
9885
331
9983
  5
9984
331
99D8
  5
99D9
331
A08D
  5
A08E
331
9C6C
  5
9C6F
331
9441
  5
9442
331
A17E
  5
A17F
331
92D7
  5
92D8
331
9480
  5
9481
331
9869
  5
986A
331
9D7E
  5
9D7F
331
94C3
  5
94C4
331
9A5C
  5
9A5D
331
9428
  5
9429
331
A155
  5
A156
331
98FF
  5
9900
331
9D64
  5
9D65
331
9AA9
  5
9AAA
331
994E
  5
994F
331
9B59
  5
9B5A
331
A12A
  5
A12B
331
9AA7
  5
9AA8
331
9DC4
  5
9DC5
331
928C
  5
928F
331
9B81
  5
9B82
331
9DA8
  5
9DA9
331
9D0D
  5
9D0E
331
A184
  5
A185
331
A1A9
  5
A1AA
331
99E6
  5
99E7
331
9C57
  5
9C58
331
991F
  5
9920
331
9714
  5
9715
331
940B
  5
940C
331
998F
  5
9990
331
9404
  5
9405
331
A159
  5
A15A
331
94FA
  5
94FB
331
A1E0
  5
A1E1
331
9B19
  5
9B1A
331
9BD9
  5
9BDA
331
9926
  5
9927
331
99D7
  5
99D8
331
995E
  5
995F
331
A22B
  5
A22C
331
A1BB
  5
A1BC
331
933C
  5
933D
331
9333
  5
9334
331
9D6D
  5
9D6E
331
9BE2
  5
9BE3
331
9FDE
  5
9FDF
331
A013
  5
A014
331
A050
  5
A051
331
91DF
  5
91E0
331
93D4
  5
93D5
331
9FA1
  5
9FA2
331
9B0F
  5
9B10
331
9DA4
  5
9DA5
331
9C21
  5
9C22
331
9A7A
  5
9A7B
331
9A86
  5
9A87
331
9CEB
  5
9CEC
331
A1EC
  5
A1ED
331
9CD1
  5
9CD2
331
9416
  5
9417
331
A223
  5
A224
331
9B52
  5
9B53
331
99EF
  5
99F0
331
92CC
  5
92CD
331
92E0
  5
92E1
331
93F3
  5
93F4
331
98A4
  5
98A5
331
9426
  5
9427
331
993D
  5
993E
331
9D5A
  5
9D5B
331
9C4F
  5
9C50
331
9BCF
  5
9BD0
331
9B9D
  5
9B9E
331
9D52
  5
9D53
331
9CF1
  5
9CF2
331
9BF0
  5
9BF1
331
98CF
  5
98D0
331
9471
  5
9472
331
A1A6
  5
A1A7
331
A14F
  5
A150
331
9D73
  5
9D74
331
996C
  5
996D
331
A1D7
  5
A1D8
331
9A34
  5
9A35
331
9D89
  5
9D8A
331
98AD
  5
98AE
331
9872
  5
9873
331
A18E
  5
A18F
331
92BB
  5
92BC
331
92C3
  5
92C4
331
94B0
  5
94B1
331
9DBF
  5
9DC0
331
94E7
  5
94E8
331
A174
  5
A175
331
9A04
  5
9A05
331
92B5
  5
92B6
331
9CDA
  5
9CDB
331
9451
  5
9452
331
A036
  5
A037
331
A073
  5
A074
331
9F8F
  5
9F90
331
9FC4
  5
9FC5
331
A001
  5
A002
331
921A
  5
921B
331
99A4
  5
99A5
331
98C5
  5
98C6
331
9C8F
  5
9C90
331
94A9
  5
94AA
331
A096
  5
A097
331
A5D7
  5
A5D8
331
944C
  5
944D
331
9B00
  5
9B01
331
9361
  5
9362
331
9C46
  5
9C47
331
9D33
  5
9D34
331
A160
  5
A161
331
A0A3
  5
A0A4
331
947A
  5
947B
331
9DB7
  5
9DB8
331
9C04
  5
9C05
331
9A9D
  5
9A9E
331
A611
  5
A611
331
9461
  5
9462
331
A196
  5
A197
331
9CB5
  5
9CB6
331
94D7
  5
94D8
331
94BD
  5
94BE
331
9491
  5
9492
331
9A1A
  5
9A1B
331
92A7
  5
92A8
331
9BD4
  5
9BD5
331
9CCE
  5
9CCF
331
9A8D
  5
9A8F
331
9507
  5
9508
331
A214
  5
A215
331
9CC1
  5
9CC2
331
9CAC
  5
9CAD
331
99F8
  5
99F9
331
9435
  5
9436
331
A19A
  5
A19B
331
99BB
  5
99BC
331
9207
  5
9208
331
9866
  5
9867
331
A5C3
  5
A5C4
331
9D00
  5
9D01
331
A5EF
  5
A5EF
331
9997
  5
9998
331
A1F4
  5
A1F5
331
A139
  5
A13A
331
9928
  5
9929
331
9AED
  5
9AEE
331
9A92
  5
9A93
331
9A72
  5
9A73
331
9844
  5
9845
331
A01C
  5
A01D
331
A059
  5
A05A
331
93DD
  5
93DE
331
9FAA
  5
9FAB
331
9FE7
  5
9FE8
331
9CBD
  5
9CBE
331
988F
  5
9890
331
999B
  5
999C
331
9960
  5
9961
331
93E4
  5
93E5
331
9FB1
  5
9FB2
331
91FF
  5
9200
331
A083
  5
A084
331
A5CF
  5
A5D0
331
A144
  5
A145
331
92E9
  5
92EA
331
9940
  5
9941
331
9295
  5
9296
331
A123
  5
A124
331
9D12
  5
9D13
331
9B8B
  5
9B8C
331
9BC2
  5
9BC3
331
945F
  5
9460
331
A204
  5
A205
331
98DD
  5
98DE
331
9D22
  5
9D23
331
9DCF
  5
9F8A
331
990C
  5
990D
331
9AD0
  5
9AD1
331
94DC
  5
94DD
331
99AD
  5
99AE
331
9A65
  5
9A66
331
9CE2
  5
9CE3
331
9B66
  5
9B67
331
98B3
  5
98B4
331
9C3F
  5
9C40
331
985B
  5
985C
331
A1DF
  5
A1E0
331
9C9C
  5
9C9D
331
92F4
  5
92F5
331
98D1
  5
98D2
331
9CA0
  5
9CA1
331
9BA8
  5
9BA9
331
9D9D
  5
9D9E
331
9A45
  5
9A46
331
997A
  5
997B
331
9316
  5
9317
331
9B93
  5
9B94
331
A5DA
  5
A5DA
331
91C6
  5
91C7
331
98F6
  5
98F7
331
94A0
  5
94A1
331
9A2A
  5
9A2B
331
9342
  5
9345
331
A07C
  5
A07D
331
9FCD
  5
9FCE
331
A03F
  5
A040
331
91F1
  5
91F4
331
94F6
  5
94F7
331
9853
  5
9854
331
9308
  5
9309
331
A09F
  5
A0A0
331
9C91
  5
9C92
331
A009
  5
A00A
331
91D5
  5
91D6
331
936A
  5
936B
331
9FD4
  5
9FD5
331
9A48
  5
9A49
331
9BEC
  5
9BED
331
9D91
  5
9D92
331
9D48
  5
9D49
331
9C35
  5
9C36
331
9976
  5
9977
331
A1B2
  5
A1B3
331
9BA7
  5
9BA8
331
99B5
  5
99B6
331
9282
  5
9283
331
9C70
  5
9C71
331
A5E2
  5
A5E2
331
A1C7
  5
A1C8
331
93EC
  5
93ED
331
A1F9
  5
A1FA
331
9370
  5
9371
331
9C15
  5
9C16
331
94EA
  5
94EB
331
9C2F
  5
9C30
331
9AC6
  5
9AC7
331
9A53
  5
9A54
331
946E
  5
946F
331
A133
  5
A134
331
9D18
  5
9D19
331
99F4
  5
99F5
331
9911
  5
9912
331
9C7D
  5
9C7E
331
A604
  5
A604
331
9D39
  5
9D3A
331
9C66
  5
9C67
331
A235
  5
A236
331
989B
  5
989C
331
9C1A
  5
9C1B
331
9897
  5
9898
331
98E3
  5
98E4
331
9950
  5
9951
331
948D
  5
948E
331
A21A
  5
A21B
331
99CA
  5
99CB
331
A5F0
  5
A5F0
331
91CD
  5
91CE
331
A025
  5
A026
331
A062
  5
A063
331
9B73
  5
9B74
331
9A0C
  5
9A0D
331
9CFE
  5
9CFF
331
A069
  5
A06A
331
9FBA
  5
9FBB
331
9FF7
  5
9FF8
331
9210
  5
9211
331
A02C
  5
A02D
331
A08C
  5
A08D
331
A17D
  5
A17E
331
9982
  5
9983
331
9B17
  5
9B18
331
92D6
  5
92D7
331
9C6B
  5
9C6C
331
9440
  5
9441
331
9883
  5
9884
331
9D7D
  5
9D7E
331
94C2
  5
94C3
331
9A5B
  5
9A5C
331
9868
  5
9869
331
A23D
  5
A247
331
A154
  5
A155
331
9AA8
  5
9AA9
331
994D
  5
994E
331
98FE
  5
98FF
331
9D63
  5
9D64
331
98EF
  5
98F0
331
9DC3
  5
9DC4
331
9AF7
  5
9AF8
331
A129
  5
A12A
331
9AA6
  5
9AA7
331
928B
  5
928C
331
99E5
  5
99E6
331
940A
  5
940B
331
927F
  5
9280
331
9C56
  5
9C57
331
991E
  5
991F
331
A183
  5
A184
331
A1A8
  5
A1A9
331
9D0C
  5
9D0D
331
9403
  5
9404
331
A158
  5
A159
331
94F9
  5
94FA
331
998E
  5
998F
331
A22A
  5
A22B
331
A1BA
  5
A1BB
331
9B18
  5
9B19
331
9BD8
  5
9BD9
331
9925
  5
9926
331
99D6
  5
99D7
331
995D
  5
995E
331
933B
  5
933C
331
9D6C
  5
9D6D
331
9BE1
  5
9BE2
331
9ACF
  5
9AD0
331
A04F
  5
A050
331
93D3
  5
93D4
331
9FA0
  5
9FA1
331
9FDD
  5
9FDE
331
91DE
  5
91DF
331
A012
  5
A013
331
9C20
  5
9C21
331
9A79
  5
9A7A
331
9A85
  5
9A86
331
9CEA
  5
9CEB
331
A1EB
  5
A1EC
331
9B0E
  5
9B0F
331
9DA3
  5
9DA4
331
A222
  5
A223
331
92CB
  5
92CC
331
9CD0
  5
9CD1
331
9415
  5
9416
331
9B51
  5
9B52
331
99EE
  5
99EF
331
9425
  5
9426
331
93F2
  5
93F3
331
9D59
  5
9D5A
331
9C4E
  5
9C4F
331
98A3
  5
98A4
331
9A17
  5
9A18
331
993C
  5
993D
331
9B9C
  5
9B9D
331
9D51
  5
9D52
331
9BCE
  5
9BCF
331
A5FF
  5
A5FF
331
98CE
  5
98CF
331
996B
  5
996C
331
9D72
  5
9D73
331
9B7F
  5
9B81
331
9CF0
  5
9CF1
331
A14E
  5
A14F
331
9470
  5
9471
331
A1A5
  5
A1A6
331
9D88
  5
9D89
331
9871
  5
9872
331
A1D6
  5
A1D7
331
9A33
  5
9A34
331
98AC
  5
98AD
331
92C2
  5
92C3
331
A173
  5
A174
331
9A03
  5
9A04
331
9450
  5
9451
331
A18D
  5
A18E
331
92B4
  5
92B5
331
9CD9
  5
9CDA
331
9DBE
  5
9DBF
331
94E6
  5
94E7
331
92BA
  5
92BB
331
931E
  5
9321
331
9348
  5
934B
331
9D2F
  5
9D30
331
A000
  5
A001
331
A035
  5
A036
331
A072
  5
A073
331
9219
  5
921A
331
9F8E
  5
9F8F
331
9FC3
  5
9FC4
331
9C8E
  5
9C8F
331
99A3
  5
99A4
331
9BB7
  5
9BB8
331
98C4
  5
98C5
331
944B
  5
944C
331
94A8
  5
94A9
331
A095
  5
A096
331
A5D6
  5
A5D7
331
9C03
  5
9C04
331
A610
  5
A610
331
9C45
  5
9C46
331
9A9C
  5
9A9D
331
A0A2
  5
A0A3
331
9479
  5
947A
331
9DB6
  5
9DB7
331
9D32
  5
9D33
331
A195
  5
A196
331
94D6
  5
94D7
331
9CB4
  5
9CB5
331
9460
  5
9461
331
94BC
  5
94BD
331
9490
  5
9491
331
9A8C
  5
9A8D
331
9A19
  5
9A1A
331
A213
  5
A214
331
9CC0
  5
9CC1
331
9CCD
  5
9CCE
331
9506
  5
9507
331
92A6
  5
92A7
331
A199
  5
A19A
331
9206
  5
9207
331
9CAB
  5
9CAC
331
99BA
  5
99BB
331
99C7
  5
99C8
331
9434
  5
9435
331
A138
  5
A139
331
9865
  5
9866
331
A5C2
  5
A5C3
331
9A91
  5
9A92
331
9A71
  5
9A72
331
A5EE
  5
A5EE
331
9996
  5
9997
331
949F
  5
94A0
331
9AEC
  5
9AED
331
A1F3
  5
A1F4
331
A058
  5
A059
331
9FA9
  5
9FAA
331
9FE6
  5
9FE7
331
A01B
  5
A01C
331
93DC
  5
93DD
331
9937
  5
9938
331
9CBC
  5
9CBD
331
9C59
  5
9C5C
331
988E
  5
988F
331
999A
  5
999B
331
91FE
  5
91FF
331
93E3
  5
93E4
331
9FB0
  5
9FB1
331
92E8
  5
92E9
331
A082
  5
A083
331
9294
  5
9295
331
9D11
  5
9D12
331
A5CE
  5
A5CF
331
9B8A
  5
9B8B
331
9907
  5
9908
331
A143
  5
A144
331
9BC1
  5
9BC2
331
A203
  5
A204
331
9C87
  5
9C88
331
98DC
  5
98DD
331
945E
  5
945F
331
9C0F
  5
9C12
331
990B
  5
990C
331
99AC
  5
99AD
331
9D21
  5
9D22
331
9DCE
  5
9DCF
331
9BBF
  5
9BC0
331
94DB
  5
94DC
331
9C3E
  5
9C3F
331
98B2
  5
98B3
331
A20F
  5
A210
331
9A64
  5
9A65
331
9B65
  5
9B66
331
9CE1
  5
9CE2
331
98D0
  5
98D1
331
91C5
  5
91C6
331
985A
  5
985B
331
9979
  5
997A
331
A5D9
  5
A5D9
331
A1DE
  5
A1DF
331
9C9B
  5
9C9C
331
92F3
  5
92F4
331
9B92
  5
9B93
331
9D47
  5
9D48
331
9B6F
  5
9B70
331
9D9C
  5
9D9D
331
9315
  5
9316
331
9A44
  5
9A45
331
98F5
  5
98F6
331
9A29
  5
9A2A
331
9341
  5
9342
331
A03E
  5
A03F
331
A07B
  5
A07C
331
9FCC
  5
9FCD
331
92AF
  5
92B0
331
9C90
  5
9C91
331
94F5
  5
94F6
331
A09E
  5
A09F
331
9852
  5
9853
331
9F96
  5
9F97
331
9FD3
  5
9FD4
331
A008
  5
A009
331
91D4
  5
91D5
331
9369
  5
936A
331
9D90
  5
9D91
331
A1B1
  5
A1B2
331
9BA6
  5
9BA7
331
9BEB
  5
9BEC
331
94CF
  5
94D0
331
9C34
  5
9C35
331
9975
  5
9976
331
92FF
  5
9300
331
99B4
  5
99B5
331
9281
  5
9282
331
A5E1
  5
A5E1
331
A1C6
  5
A1C7
331
A1F8
  5
A1F9
331
9C14
  5
9C15
331
94E9
  5
94EA
331
9AC5
  5
9AC6
331
9A52
  5
9A53
331
9C2E
  5
9C2F
331
92DF
  5
92E0
331
93EB
  5
93EC
331
929F
  5
92A0
331
9C7C
  5
9C7D
331
9910
  5
9911
331
946D
  5
946E
331
A132
  5
A133
331
99F3
  5
99F4
331
9C65
  5
9C66
331
9C19
  5
9C1A
331
9896
  5
9897
331
A603
  5
A603
331
989A
  5
989B
331
9AB2
  5
9AB6
331
A1CF
  5
A1D0
331
98BF
  5
98C0
331
A234
  5
A235
331
9D38
  5
9D39
331
98E2
  5
98E3
331
93FF
  5
9400
331
91CC
  5
91CD
331
948C
  5
948D
331
A219
  5
A21A
331
9222
  5
9223
331
99C9
  5
99CA
331
9324
  5
9327
331
9FEF
  5
9FF0
331
A024
  5
A025
331
A061
  5
A062
331
9CFD
  5
9CFE
331
9B72
  5
9B73
331
9A0B
  5
9A0C
331
A02B
  5
A02C
331
A068
  5
A069
331
920F
  5
9210
331
9FB9
  5
9FBA
331
9FF6
  5
9FF7
331
9882
  5
9883
331
9B16
  5
9B17
331
A08B
  5
A08C
331
9C6A
  5
9C6B
331
A60F
  5
A60F
331
A17C
  5
A17D
331
92D5
  5
92D6
331
9981
  5
9982
331
9A27
  5
9A28
331
9D7C
  5
9D7D
331
94C1
  5
94C2
331
9A5A
  5
9A5B
331
A23C
  5
A23D
331
987F
  5
9880
331
98EE
  5
98EF
331
A153
  5
A154
331
9D62
  5
9D63
331
9A6F
  5
9A70
331
994C
  5
994D
331
9B48
  5
9B4C
331
98FD
  5
98FE
331
A128
  5
A129
331
9AA5
  5
9AA6
331
9AF6
  5
9AF7
331
9DC2
  5
9DC3
331
9B27
  5
9B28
331
928A
  5
928B
331
927E
  5
927F
331
9D0B
  5
9D0C
331
A16F
  5
A170
331
9B34
  5
9B38
331
99E4
  5
99E5
331
9409
  5
940A
331
9C55
  5
9C56
331
991D
  5
991E
331
A182
  5
A183
331
998D
  5
998E
331
9402
  5
9403
331
94F8
  5
94F9
331
9AFF
  5
9B00
331
9924
  5
9925
331
995C
  5
995D
331
A229
  5
A22A
331
A1B9
  5
A1BA
331
99D5
  5
99D6
331
9BFF
  5
9C00
331
933A
  5
933B
331
A047
  5
A048
331
9B39
  5
9B3C
331
9ACE
  5
9ACF
331
9D6B
  5
9D6C
331
9BE0
  5
9BE1
331
9FDC
  5
9FDD
331
A011
  5
A012
331
A04E
  5
A04F
331
91DD
  5
91DE
331
93D2
  5
93D3
331
9F9F
  5
9FA0
331
9DA2
  5
9DA3
331
9A78
  5
9A79
331
9A3F
  5
9A40
331
9A84
  5
9A85
331
9CE9
  5
9CEA
331
A1EA
  5
A1EB
331
9B0D
  5
9B0E
331
9D87
  5
9D88
331
9414
  5
9415
331
A221
  5
A222
331
9B50
  5
9B51
331
99ED
  5
99EE
331
92CA
  5
92CB
331
98A2
  5
98A3
331
9424
  5
9425
331
993B
  5
993C
331
9D58
  5
9D59
331
9C4D
  5
9C4E
331
9A16
  5
9A17
331
93F1
  5
93F2
331
9BCD
  5
9BCE
331
A5FE
  5
A5FE
331
9B9B
  5
9B9C
331
9D50
  5
9D51
331
98CD
  5
98CE
331
996A
  5
996B
331
943F
  5
9440
331
A1A4
  5
A1A5
331
A14D
  5
A14E
331
9D71
  5
9D72
331
9B7E
  5
9B7F
331
A1D5
  5
A1D6
331
9A32
  5
9A33
331
98AB
  5
98AC
331
9870
  5
9871
331
A18C
  5
A18D
331
92B9
  5
92BA
331
92C1
  5
92C2
331
9DBD
  5
9DBE
331
94E5
  5
94E6
331
A172
  5
A173
331
9A02
  5
9A03
331
9307
  5
9308
331
92B3
  5
92B4
331
9CD8
  5
9CD9
331
941F
  5
9420
331
9354
  5
9357
331
9D2E
  5
9D2F
331
A071
  5
A072
331
9F8D
  5
9F8E
331
9FC2
  5
9FC3
331
9FFF
  5
A000
331
9218
  5
9219
331
A034
  5
A035
331
99A2
  5
99A3
331
98C3
  5
98C4
331
9C8D
  5
9C8E
331
99DF
  5
99E0
331
A094
  5
A095
331
A5D5
  5
A5D6
331
944A
  5
944B
331
9BB6
  5
9BB7
331
9C44
  5
9C45
331
9D31
  5
9D32
331
9DB5
  5
9DB6
331
9C02
  5
9C03
331
9487
  5
9488
331
9A9B
  5
9A9C
331
A0A1
  5
A0A2
331
9478
  5
9479
331
942F
  5
9430
331
A194
  5
A195
331
9CB3
  5
9CB4
331
94D5
  5
94D6
331
94BB
  5
94BC
331
9A18
  5
9A19
331
9CCC
  5
9CCD
331
92A5
  5
92A6
331
9BD2
  5
9BD4
331
9505
  5
9506
331
A212
  5
A213
331
9DAF
  5
9DB0
331
9CAA
  5
9CAB
331
9433
  5
9434
331
A198
  5
A199
331
9205
  5
9206
331
99B9
  5
99BA
331
99C6
  5
99C7
331
9864
  5
9865
331
A5C1
  5
A5C2
331
A5ED
  5
A5ED
331
9995
  5
9996
331
A1F2
  5
A1F3
331
A1E7
  5
A1E8
331
949E
  5
949F
331
9AEB
  5
9AEC
331
9A90
  5
9A91
331
9A70
  5
9A71
331
932A
  5
932D
331
A01A
  5
A01B
331
A057
  5
A058
331
93DB
  5
93DC
331
9FA8
  5
9FA9
331
9FE5
  5
9FE6
331
9CBB
  5
9CBC
331
9C58
  5
9C59
331
988D
  5
988E
331
9999
  5
999A
331
9936
  5
9937
331
93E2
  5
93E3
331
A081
  5
A082
331
A5CD
  5
A5CE
331
A142
  5
A143
331
92E7
  5
92E8
331
9906
  5
9907
331
9293
  5
9294
331
A121
  5
A122
331
9D10
  5
9D11
331
9B89
  5
9B8A
331
9B44
  5
9B47
331
9BC0
  5
9BC1
331
945D
  5
945E
331
A202
  5
A203
331
9C86
  5
9C87
331
98DB
  5
98DC
331
9C0E
  5
9C0F
331
9DCD
  5
9DCE
331
990A
  5
990B
331
9BBE
  5
9BBF
331
99AB
  5
99AC
331
94DA
  5
94DB
331
9BF7
  5
9BF8
331
9D20
  5
9D21
331
9A63
  5
9A64
331
9CE0
  5
9CE1
331
9C3D
  5
9C3E
331
9B64
  5
9B65
331
98B1
  5
98B2
331
A20E
  5
A20F
331
9859
  5
985A
331
9C9A
  5
9C9B
331
92F2
  5
92F3
331
94B7
  5
94B8
331
91C4
  5
91C5
331
9B6E
  5
9B6F
331
9D9B
  5
9D9C
331
9A43
  5
9A44
331
9978
  5
9979
331
A5D8
  5
1A94
331
9314
  5
9315
331
9B91
  5
9B92
331
9D46
  5
9D47
331
A1DD
  5
A1DE
331
98F4
  5
98F5
331
9ABB
  5
9AC3
331
9A28
  5
9A29
331
9340
  5
9341
331
A07A
  5
A07B
331
9FCB
  5
9FCC
331
A03D
  5
A03E
331
9851
  5
9852
331
92AE
  5
92AF
331
A09D
  5
A09E
331
9B07
  5
9B08
331
94F4
  5
94F5
331
9368
  5
9369
331
9F95
  5
9F96
331
9FD2
  5
9FD3
331
91D3
  5
91D4
331
9BEA
  5
9BEB
331
A167
  5
A168
331
94CE
  5
94CF
331
9C33
  5
9C34
331
9974
  5
9975
331
A1B0
  5
A1B1
331
9BA5
  5
9BA6
331
99B3
  5
99B4
331
9280
  5
9281
331
92FE
  5
92FF
331
A1C5
  5
A1C6
331
A5E0
  5
A5E0
331
93EA
  5
93EB
331
92DE
  5
92DF
331
9C13
  5
9C14
331
94E8
  5
94E9
331
9AC4
  5
9AC5
331
9A51
  5
9A52
331
9C2D
  5
9C2E
331
946C
  5
946D
331
A131
  5
A132
331
929E
  5
929F
331
99F2
  5
99F3
331
99FF
  5
9A00
331
9C7B
  5
9C7C
331
A602
  5
A602
331
9D07
  5
9D08
331
9C64
  5
9C65
331
A233
  5
A234
331
9C18
  5
9C19
331
9895
  5
9896
331
9899
  5
989A
331
9AB1
  5
9AB2
331
A1CE
  5
A1CF
331
992F
  5
9930
331
98BE
  5
98BF
331
98E1
  5
98E2
331
948B
  5
948C
331
A218
  5
A219
331
99C8
  5
99C9
331
93FE
  5
93FF
331
91CB
  5
91CC
331
935A
  5
935D
331
A060
  5
A061
331
9FEE
  5
9FEF
331
A023
  5
A024
331
9B71
  5
9B72
331
9A0A
  5
9A0B
331
9967
  5
9968
331
9CFC
  5
9CFD
331
9FB8
  5
9FB9
331
9FF5
  5
9FF6
331
A02A
  5
A02B
331
920E
  5
920F
331
984B
  5
984C
331
A08A
  5
A08B
331
A17B
  5
A17C
331
9980
  5
9981
331
92D4
  5
92D5
331
9C69
  5
9C6A
331
A60E
  5
A60E
331
9881
  5
9882
331
9947
  5
9948
331
94C0
  5
94C1
331
9A59
  5
9A5A
331
9A26
  5
9A27
331
9D7B
  5
9D7C
331
987E
  5
987F
331
A23B
  5
A23C
331
A152
  5
A153
331
9A6E
  5
9A6F
331
994B
  5
994C
331
9AD7
  5
9AD8
331
98FC
  5
98FD
331
9D61
  5
9D62
331
98ED
  5
98EE
331
9DC1
  5
9DC2
331
9B26
  5
9B27
331
A5BF
  5
A5C0
331
9AA4
  5
9AA5
331
9AF5
  5
9AF6
331
9289
  5
928A
331
99E3
  5
99E4
331
9408
  5
9409
331
927D
  5
927E
331
9C54
  5
9C55
331
991C
  5
991D
331
A181
  5
A182
331
A16E
  5
A16F
331
9CA7
  5
9CA8
331
9BAF
  5
9BB0
331
9B33
  5
9B34
331
9D0A
  5
9D0B
331
94A7
  5
94A8
331
998C
  5
998D
331
9401
  5
9402
331
A228
  5
A229
331
A1B8
  5
A1B9
331
9BFE
  5
9BFF
331
9AFE
  5
9AFF
331
9923
  5
9924
331
99D4
  5
99D5
331
995B
  5
995C
331
9339
  5
933A
331
A046
  5
A047
331
9B38
  5
9B39
331
9D6A
  5
9D6B
331
9330
  5
9333
331
9ACD
  5
9ACE
331
A04D
  5
A04E
331
9F9E
  5
9F9F
331
9FDB
  5
9FDC
331
91DC
  5
91DD
331
A010
  5
A011
331
9A4F
  5
9A50
331
9CE8
  5
9CE9
331
9B0C
  5
9B0D
331
9DA1
  5
9DA2
331
A1E9
  5
A1EA
331
9A3E
  5
9A3F
331
9D4F
  5
9D50
331
9A83
  5
9A84
331
A220
  5
A221
331
92C9
  5
92CA
331
9D86
  5
9D87
331
9413
  5
9414
331
9C77
  5
9C78
331
99EC
  5
99ED
331
9423
  5
9424
331
93F0
  5
93F1
331
9C4C
  5
9C4D
331
98A1
  5
98A2
331
9A15
  5
9A16
331
993A
  5
993B
331
9D1F
  5
9D20
331
9BCC
  5
9BCD
331
A5FD
  5
A5FD
331
98CC
  5
98CD
331
9969
  5
996A
331
9D70
  5
9D71
331
9B7D
  5
9B7E
331
943E
  5
943F
331
A1A3
  5
A1A4
331
A14C
  5
A14D
331
9957
  5
9958
331
A1D4
  5
A1D5
331
9A31
  5
9A32
331
98AA
  5
98AB
331
9A01
  5
9A02
331
9306
  5
9307
331
941E
  5
941F
331
A18B
  5
A18C
331
92B8
  5
92B9
331
92B2
  5
92B3
331
A5F7
  5
A5F7
331
9DBC
  5
9DBD
331
94E4
  5
94E5
331
A171
  5
A172
331
92C0
  5
92C1
331
9D2D
  5
9D2E
331
9FFE
  5
9FFF
331
A033
  5
A034
331
A070
  5
A071
331
9217
  5
9218
331
9F8C
  5
9F8D
331
9FC1
  5
9FC2
331
9C8C
  5
9C8D
331
99A1
  5
99A2
331
9BB5
  5
9BB6
331
98C2
  5
98C3
331
9449
  5
944A
331
99DE
  5
99DF
331
A093
  5
A094
331
9447
  5
9448
331
A5D4
  5
A5D5
331
9C01
  5
9C02
331
9486
  5
9487
331
9C43
  5
9C44
331
9A9A
  5
9A9B
331
A0A0
  5
A0A1
331
986F
  5
9870
331
9DB4
  5
9DB5
331
9D30
  5
9D31
331
94D4
  5
94D5
331
942E
  5
942F
331
9CB2
  5
9CB3
331
9AAF
  5
9AB0
331
A193
  5
A194
331
94BA
  5
94BB
331
9BD1
  5
9BD2
331
9A8A
  5
9A8C
331
9B87
  5
9B88
331
A211
  5
A212
331
9DAE
  5
9DAF
331
9CCB
  5
9CCC
331
A1AF
  5
A1B0
331
9504
  5
9505
331
92A4
  5
92A5
331
A15F
  5
A160
331
9204
  5
9205
331
9CA9
  5
9CAA
331
99B8
  5
99B9
331
99C5
  5
99C6
331
9432
  5
9433
331
A1E6
  5
A1E7
331
9863
  5
9864
331
A5C0
  5
A5C1
331
9B1F
  5
9B21
331
9BDF
  5
9BE0
331
A5EC
  5
A5EC
331
9994
  5
9995
331
949D
  5
949E
331
9AEA
  5
9AEB
331
A1F1
  5
A1F2
331
9FA7
  5
9FA8
331
9FE4
  5
9FE5
331
A019
  5
A01A
331
91E5
  5
91E8
331
93DA
  5
93DB
331
A056
  5
A057
331
9935
  5
9936
331
9CBA
  5
9CBB
331
988C
  5
988D
331
9998
  5
9999
331
91FC
  5
91FD
331
93E1
  5
93E2
331
92E6
  5
92E7
331
9B43
  5
9B44
331
A080
  5
A081
331
9CD7
  5
9CD8
331
A5CC
  5
A5CD
331
A141
  5
A142
331
9B88
  5
9B89
331
9905
  5
9906
331
9292
  5
9293
331
A201
  5
A202
331
9C85
  5
9C86
331
98DA
  5
98DB
331
945C
  5
945D
331
9C0D
  5
9C0E
331
9909
  5
990A
331
99AA
  5
99AB
331
9CF7
  5
9CF8
331
9DCC
  5
9DCD
331
9BF6
  5
9BF7
331
9BBD
  5
9BBE
331
9477
  5
9478
331
94D9
  5
94DA
331
9C3C
  5
9C3D
331
A20D
  5
A20E
331
9A62
  5
9A63
331
9D8F
  5
9D90
331
9B63
  5
9B64
331
98B0
  5
98B1
331
94B6
  5
94B7
331
91C3
  5
91C4
331
9858
  5
9859
331
9AE7
  5
9AE8
331
9457
  5
9458
331
A1DC
  5
A1DD
331
9C99
  5
9C9A
331
92F1
  5
92F2
331
9B90
  5
9B91
331
9D45
  5
9D46
331
9B6D
  5
9B6E
331
9D9A
  5
9D9B
331
9313
  5
9314
331
9A42
  5
9A43
331
98F3
  5
98F4
331
9ABA
  5
9ABB
331
A03C
  5
A03D
331
A079
  5
A07A
331
9FCA
  5
9FCB
331
A007
  5
A008
331
9B06
  5
9B07
331
94F3
  5
94F4
331
94AF
  5
94B0
331
A09C
  5
A09D
331
9850
  5
9851
331
9F94
  5
9F95
331
9FD1
  5
9FD2
331
91D2
  5
91D3
331
9367
  5
9368
331
A617
  5
A617
331
9BA4
  5
9BA5
331
9BE9
  5
9BEA
331
94CD
  5
94CE
331
9C32
  5
9C33
331
9973
  5
9974
331
A166
  5
A167
331
92FD
  5
92FE
331
99B2
  5
99B3
331
9467
  5
9468
331
A1C4
  5
A1C5
331
9497
  5
9498
331
93E9
  5
93EA
331
9AC3
  5
9AC4
331
9A50
  5
9A51
331
9CC7
  5
9CC8
331
9C2C
  5
9C2D
331
92DD
  5
92DE
331
9C12
  5
9C13
331
929D
  5
929E
331
9C7A
  5
9C7B
331
99FE
  5
99FF
331
946B
  5
946C
331
A130
  5
A131
331
99F1
  5
99F2
331
9C63
  5
9C64
331
9894
  5
9895
331
A601
  5
A601
331
9D06
  5
9D07
331
9AB0
  5
9AB1
331
A1CD
  5
A1CE
331
98BD
  5
98BE
331
A232
  5
A233
331
992E
  5
992F
331
9898
  5
9899
331
A13F
  5
A140
331
98E0
  5
98E1
331
93FD
  5
93FE
331
91CA
  5
91CB
331
948A
  5
948B
331
950A
  5
950B
331
9FED
  5
9FEE
331
A022
  5
A023
331
A05F
  5
A060
331
9CFB
  5
9CFC
331
9B70
  5
9B71
331
9A09
  5
9A0A
331
9966
  5
9967
331
A029
  5
A02A
331
9FB7
  5
9FB8
331
9FF4
  5
9FF5
331
9880
  5
9881
331
A089
  5
A08A
331
9C68
  5
9C69
331
A60D
  5
A60D
331
A17A
  5
A17B
331
9946
  5
9947
331
92D3
  5
92D4
331
92EF
  5
92F0
331
9A25
  5
9A26
331
9D7A
  5
9D7B
331
9A58
  5
9A59
331
987D
  5
987E
331
A23A
  5
A23B
331
98EC
  5
98ED
331
A151
  5
A152
331
9D60
  5
9D61
331
9A6D
  5
9A6E
331
994A
  5
994B
331
9AD6
  5
9AD7
331
98FB
  5
98FC
331
A5BE
  5
A5BF
331
9AA3
  5
9AA4
331
9AF4
  5
9AF5
331
9DC0
  5
9DC1
331
9B25
  5
9B26
331
9288
  5
9289
331
927C
  5
927D
331
9D09
  5
9D0A
331
A16D
  5
A16E
331
99E2
  5
99E3
331
98D7
  5
98D8
331
9CA6
  5
9CA7
331
9BAE
  5
9BAF
331
9C53
  5
9C54
331
991B
  5
991C
331
A180
  5
A181
331
998B
  5
998C
331
9400
  5
9401
331
94A6
  5
94A7
331
9AFD
  5
9AFE
331
9922
  5
9923
331
995A
  5
995B
331
99D3
  5
99D4
331
9BFD
  5
9BFE
331
9338
  5
9339
331
A045
  5
A046
331
91F7
  5
91F8
331
9ACC
  5
9ACD
331
9D69
  5
9D6A
331
9C97
  5
9C98
331
9FDA
  5
9FDB
331
A00F
  5
A010
331
A04C
  5
A04D
331
91DB
  5
91DC
331
9F9D
  5
9F9E
331
9DA0
  5
9DA1
331
9A4E
  5
9A4F
331
9A3D
  5
9A3E
331
9A82
  5
9A83
331
9D97
  5
9D98
331
9D4E
  5
9D4F
331
A1E8
  5
A1E9
331
9412
  5
9413
331
9C76
  5
9C77
331
99EB
  5
99EC
331
92C8
  5
92C9
331
9D85
  5
9D86
331
98A0
  5
98A1
331
9422
  5
9423
331
9939
  5
993A
331
9C4B
  5
9C4C
331
9A14
  5
9A15
331
A1FF
  5
A200
331
9BCB
  5
9BCC
331
A5FC
  5
A5FC
331
9B99
  5
9B9B
331
9D1E
  5
9D1F
331
9917
  5
9918
331
98CB
  5
98CC
331
9968
  5
9969
331
943D
  5
943E
331
A1A2
  5
A1A3
331
A14B
  5
A14C
331
9D3F
  5
9D40
331
9B7C
  5
9B7D
331
9A30
  5
9A31
331
98A9
  5
98AA
331
9956
  5
9957
331
A1D3
  5
A1D4
331
A18A
  5
A18B
331
9DBB
  5
9DBC
331
94E3
  5
94E4
331
A170
  5
A171
331
9A00
  5
9A01
331
9305
  5
9306
331
92B1
  5
92B2
331
A5F6
  5
A5F6
331
941D
  5
941E
331
931B
  5
931E
331
9D2C
  5
9D2D
331
A06F
  5
A070
331
9F8B
  5
9F8C
331
9FC0
  5
9FC1
331
9FFD
  5
9FFE
331
9216
  5
9217
331
A032
  5
A033
331
99A0
  5
99A1
331
98C1
  5
98C2
331
9C8B
  5
9C8C
331
A092
  5
A093
331
9BB4
  5
9BB5
331
9446
  5
9447
331
A5D3
  5
A5D4
331
9448
  5
9449
331
99DD
  5
99DE
331
9C42
  5
9C43
331
9DB3
  5
9DB4
331
9C00
  5
9C01
331
9485
  5
9486
331
9A99
  5
9A9A
331
986E
  5
986F
331
942D
  5
942E
331
A192
  5
A193
331
9AAE
  5
9AAF
331
94D3
  5
94D4
331
9B4F
  5
9B50
331
9CB1
  5
9CB2
331
94B9
  5
94BA
331
9B5E
  5
9B60
331
A12F
  5
A130
331
9B86
  5
9B87
331
92A3
  5
92A4
331
9BD0
  5
9BD1
331
9CCA
  5
9CCB
331
9A89
  5
9A8A
331
9503
  5
9504
331
A210
  5
A211
331
9DAD
  5
9DAE
331
A1AE
  5
A1AF
331
9CA8
  5
9CA9
331
9431
  5
9432
331
A15E
  5
A15F
331
9203
  5
9204
331
99C4
  5
99C5
331
9993
  5
9994
331
A1F0
  5
A1F1
331
A1E5
  5
A1E6
331
9862
  5
9863
331
949C
  5
949D
331
9AE9
  5
9AEA
331
9B1E
  5
9B1F
331
9BDE
  5
9BDF
331
A5EB
  5
A5EB
331
9ADA
  5
9AE2
331
9BE7
  5
9BE8
331
A018
  5
A019
331
A055
  5
A056
331
93D9
  5
93DA
331
9FA6
  5
9FA7
331
9FE3
  5
9FE4
331
91E4
  5
91E5
331
9C26
  5
9C29
331
988B
  5
988C
331
9A7F
  5
9A80
331
9934
  5
9935
331
9CB9
  5
9CBA
331
93E0
  5
93E1
331
A5CB
  5
A5CC
331
A140
  5
A141
331
92E5
  5
92E6
331
9904
  5
9905
331
9291
  5
9292
331
9CD6
  5
9CD7
331
9B57
  5
9B59
331
945B
  5
945C
331
A200
  5
A201
331
9D5F
  5
9D60
331
9C84
  5
9C85
331
98D9
  5
98DA
331
9D57
  5
9D58
331
9C0C
  5
9C0D
331
9DCB
  5
9DCC
331
9908
  5
9909
331
9BBC
  5
9BBD
331
99A9
  5
99AA
331
94D8
  5
94D9
331
9BF5
  5
9BF6
331
9476
  5
9477
331
9A61
  5
9A62
331
9D8E
  5
9D8F
331
9C3B
  5
9C3C
331
9B62
  5
9B63
331
9877
  5
9878
331
A20C
  5
A20D
331
9C98
  5
9C99
331
92F0
  5
92F1
331
94B5
  5
94B6
331
91C2
  5
91C3
331
9B6C
  5
9B6D
331
9D99
  5
9D9A
331
9A41
  5
9A42
331
9AE6
  5
9AE7
331
9456
  5
9457
331
9312
  5
9313
331
9CDF
  5
9CE0
331
9D44
  5
9D45
331
A1DB
  5
A1DC
331
98F2
  5
98F3
331
9AB9
  5
9ABA
331
934E
  5
9351
331
9FC9
  5
9FCA
331
A006
  5
A007
331
921F
  5
9222
331
A03B
  5
A03C
331
A078
  5
A079
331
A09B
  5
A09C
331
9B05
  5
9B06
331
94AE
  5
94AF
331
94F2
  5
94F3
331
9366
  5
9367
331
9F93
  5
9F94
331
9FD0
  5
9FD1
331
91D1
  5
91D2
331
9BE8
  5
9BE9
331
A165
  5
A166
331
9C31
  5
9C32
331
A616
  5
A616
331
9BA3
  5
9BA4
331
9972
  5
9973
331
947F
  5
9480
331
94CC
  5
94CD
331
99B1
  5
99B2
331
92FC
  5
92FD
331
A1C3
  5
A1C4
331
9466
  5
9467
331
93E8
  5
93E9
331
92DC
  5
92DD
331
9496
  5
9497
331
9A1F
  5
9A20
331
9CC6
  5
9CC7
331
9C2B
  5
9C2C
331
A19F
  5
A1A0
331
929C
  5
929D
331
9C79
  5
9C7A
331
99F0
  5
99F1
331
99FD
  5
99FE
331
946A
  5
946B
331
A600
  5
A600
331
9D05
  5
9D06
331
9C62
  5
9C63
331
A231
  5
A232
331
A13E
  5
A13F
331
9893
  5
9894
331
9A97
  5
9A98
331
9A77
  5
9A78
331
A1CC
  5
A1CD
331
992D
  5
992E
331
98BC
  5
98BD
331
9509
  5
950A
331
91BF
  5
91C0
331
93FC
  5
93FD
331
91C9
  5
91CA
331
9489
  5
948A
331
9321
  5
9324
331
A05E
  5
A05F
331
9FAF
  5
9FB0
331
9FEC
  5
9FED
331
A021
  5
A022
331
9B28
  5
9B33
331
9C5F
  5
9C60
331
9A08
  5
9A09
331
9965
  5
9966
331
9CFA
  5
9CFB
331
9FB6
  5
9FB7
331
9FF3
  5
9FF4
331
A028
  5
A029
331
920C
  5
920D
331
9849
  5
984A
331
A179
  5
A17A
331
92EE
  5
92EF
331
92D2
  5
92D3
331
9D17
  5
9D18
331
A60C
  5
A60C
331
9945
  5
9946
331
A088
  5
A089
331
9BC7
  5
9BC8
331
9A24
  5
9A25
331
9D79
  5
9D7A
331
987C
  5
987D
331
A239
  5
A23A
331
A150
  5
A151
331
9949
  5
994A
331
98EB
  5
98EC
331
9AD5
  5
9AD6
331
98FA
  5
98FB
331
9D27
  5
9D28
331
9A6C
  5
9A6D
331
9CE7
  5
9CE8
331
9B24
  5
9B25
331
A5BD
  5
A5BE
331
9AA2
  5
9AA3
331
9AF3
  5
9AF4
331
98D6
  5
98D7
331
927B
  5
927C
331
9D08
  5
9D09
331
991A
  5
991B
331
997F
  5
9980
331
A5DF
  5
A5DF
331
A16C
  5
A16D
331
9CA5
  5
9CA6
331
9C52
  5
9C53
331
99E1
  5
99E2
331
94A5
  5
94A6
331
998A
  5
998B
331
9A2F
  5
9A30
331
9BFC
  5
9BFD
331
9AFC
  5
9AFD
331
9921
  5
9922
331
99D2
  5
99D3
331
9959
  5
995A
331
A044
  5
A045
331
91E8
  5
91EB
331
91F6
  5
91F7
331
930D
  5
9310
331
9C96
  5
9C97
331
9ACB
  5
9ACC
331
9D68
  5
9D69
331
A04B
  5
A04C
331
9F9C
  5
9F9D
331
9FD9
  5
9FDA
331
A00E
  5
A00F
331
91DA
  5
91DB
331
936F
  5
9370
331
9A4D
  5
9A4E
331
9B0A
  5
9B0C
331
A1B7
  5
A1B8
331
9A3C
  5
9A3D
331
9D4D
  5
9D4E
331
9A81
  5
9A82
331
9287
  5
9288
331
9411
  5
9412
331
9C75
  5
9C76
331
99EA
  5
99EB
331
A5E7
  5
A5E7
331
9421
  5
9422
331
A1FE
  5
A1FF
331
9C4A
  5
9C4B
331
94EF
  5
94F0
331
9A13
  5
9A14
331
9938
  5
9939
331
9375
  5
93D2
331
9B98
  5
9B99
331
9D1D
  5
9D1E
331
9BCA
  5
9BCB
331
9916
  5
9917
331
A5FB
  5
A5FB
331
98CA
  5
98CB
331
9D3E
  5
9D3F
331
9B7B
  5
9B7C
331
9C1F
  5
9C20
331
943C
  5
943D
331
A1A1
  5
A1A2
331
A14A
  5
A14B
331
9955
  5
9956
331
A1D2
  5
A1D3
331
98A8
  5
98A9
331
99CF
  5
99D0
331
941C
  5
941D
331
A189
  5
A18A
331
92B0
  5
92B1
331
A5F5
  5
A5F5
331
94E2
  5
94E3
331
A21F
  5
A220
331
9351
  5
9354
331
931A
  5
931B
331
A067
  5
A068
331
9D2B
  5
9D2C
331
9FFC
  5
9FFD
331
A031
  5
A032
331
A06E
  5
A06F
331
9215
  5
9216
331
9FBF
  5
9FC0
331
9C8A
  5
9C8B
331
9BB3
  5
9BB4
331
98C0
  5
98C1
331
9987
  5
9988
331
99DC
  5
99DD
331
A091
  5
A092
331
9445
  5
9446
331
A5D2
  5
A5D3
331
9484
  5
9485
331
9C41
  5
9C42
331
9A98
  5
9A99
331
986D
  5
986E
331
9DB2
  5
9DB3
331
94C7
  5
94C8
331
94D2
  5
94D3
331
942C
  5
942D
331
9CB0
  5
9CB1
331
9AAD
  5
9AAE
331
9B4E
  5
9B4F
331
A191
  5
A192
331
9B5D
  5
9B5E
331
94B8
  5
94B9
331
9A88
  5
9A89
331
9B85
  5
9B86
331
940F
  5
9410
331
9DAC
  5
9DAD
331
9CC9
  5
9CCA
331
A1AD
  5
A1AE
331
9502
  5
9503
331
92A2
  5
92A3
331
9202
  5
9203
331
99C3
  5
99C4
331
9430
  5
9431
331
A15D
  5
A15E
331
A1E4
  5
A1E5
331
9861
  5
9862
331
9B1D
  5
9B1E
331
9BDD
  5
9BDE
331
A5EA
  5
A5EA
331
9992
  5
9993
331
A22F
  5
A230
331
949B
  5
949C
331
9AE8
  5
9AE9
331
A1BF
  5
A1C0
331
9AD9
  5
9ADA
331
9BE6
  5
9BE7
331
9337
  5
9338
331
9FA5
  5
9FA6
331
9FE2
  5
9FE3
331
A017
  5
A018
331
91E3
  5
91E4
331
93D8
  5
93D9
331
A054
  5
A055
331
9933
  5
9934
331
9CB8
  5
9CB9
331
9C25
  5
9C26
331
9A7E
  5
9A7F
331
988A
  5
988B
331
9CEF
  5
9CF0
331
92E4
  5
92E5
331
9B41
  5
9B43
331
9CD5
  5
9CD6
331
A5CA
  5
A5CB
331
A227
  5
A228
331
9B56
  5
9B57
331
9903
  5
9904
331
9290
  5
9291
331
93F7
  5
93F8
331
98D8
  5
98D9
331
945A
  5
945B
331
9D5E
  5
9D5F
331
9C83
  5
9C84
331
9C0B
  5
9C0C
331
99A8
  5
99A9
331
9CF5
  5
9CF6
331
9DCA
  5
9DCB
331
9BF4
  5
9BF5
331
9BBB
  5
9BBC
331
9475
  5
9476
331
9D77
  5
9D78
331
9C3A
  5
9C3B
331
A20B
  5
A20C
331
9A60
  5
9A61
331
9D8D
  5
9D8E
331
9B61
  5
9B62
331
9876
  5
9877
331
91C1
  5
91C2
331
9455
  5
9456
331
A1DA
  5
A1DB
331
92BF
  5
92C0
331
92C7
  5
92C8
331
9D43
  5
9D44
331
9B6B
  5
9B6C
331
9D98
  5
9D99
331
9311
  5
9312
331
9A40
  5
9A41
331
9AE5
  5
9AE6
331
94B4
  5
94B5
331
98F1
  5
98F2
331
9AB8
  5
9AB9
331
A03A
  5
A03B
331
A077
  5
A078
331
9FC8
  5
9FC9
331
A005
  5
A006
331
921E
  5
921F
331
94F1
  5
94F2
331
94AD
  5
94AE
331
A09A
  5
A09B
331
92AB
  5
92AE
331
91D0
  5
91D1
331
9365
  5
9366
331
9F92
  5
9F93
331
A615
  5
A615
331
9BA2
  5
9BA3
331
9D37
  5
9D38
331
947E
  5
947F
331
94CB
  5
94CC
331
9C30
  5
9C31
331
9971
  5
9972
331
A164
  5
A165
331
92FB
  5
92FC
331
99B0
  5
99B1
331
9465
  5
9466
331
A1C2
  5
A1C3
331
9495
  5
9496
331
9A1E
  5
9A1F
331
9CC5
  5
9CC6
331
9C2A
  5
9C2B
331
92DB
  5
92DC
331
929B
  5
929C
331
9C78
  5
9C79
331
99FC
  5
99FD
331
9469
  5
946A
331
A19E
  5
A19F
331
99BF
  5
99C0
331
9C61
  5
9C62
331
9892
  5
9893
331
A5C7
  5
A5C8
331
9D04
  5
9D05
331
9A76
  5
9A77
331
A1CB
  5
A1CC
331
98BB
  5
98BC
331
A230
  5
A231
331
992C
  5
992D
331
9A96
  5
9A97
331
A13D
  5
A13E
331
93FB
  5
93FC
331
91C8
  5
91C9
331
9488
  5
9489
331
9508
  5
9509
331
91BE
  5
91BF
331
9FEB
  5
9FEC
331
A020
  5
A021
331
A05D
  5
A05E
331
9FAE
  5
9FAF
331
9CF9
  5
9CFA
331
9C5E
  5
9C5F
331
999F
  5
99A0
331
9964
  5
9965
331
9848
  5
9849
331
9FB5
  5
9FB6
331
9FF2
  5
9FF3
331
920B
  5
920C
331
9B12
  5
9B16
331
A087
  5
A088
331
A60B
  5
A60B
331
A178
  5
A179
331
92ED
  5
92EE
331
9B8F
  5
9B90
331
9944
  5
9945
331
92D1
  5
92D2
331
A127
  5
A128
331
9D16
  5
9D17
331
9A23
  5
9A24
331
9D78
  5
9D79
331
9BC6
  5
9BC7
331
987B
  5
987C
331
A238
  5
A239
331
98EA
  5
98EB
331
9D26
  5
9D27
331
9A6B
  5
9A6C
331
9948
  5
9949
331
98F9
  5
98FA
331
9AA1
  5
9AA2
331
9CE6
  5
9CE7
331
9B23
  5
9B24
331
9AF2
  5
9AF3
331
98B7
  5
98B8
331
A5BC
  5
A5BD
331
927A
  5
927B
331
985F
  5
9860
331
A16B
  5
A16C
331
99E0
  5
99E1
331
98D5
  5
98D6
331
9CA4
  5
9CA5
331
9BAC
  5
9BAE
331
9C51
  5
9C52
331
9919
  5
991A
331
997E
  5
997F
331
9B97
  5
9B98
331
A5DE
  5
A5DE
331
9989
  5
998A
331
94A4
  5
94A5
331
9920
  5
9921
331
9958
  5
9959
331
99D1
  5
99D2
331
9A2E
  5
9A2F
331
9BFB
  5
9BFC
331
9AFB
  5
9AFC
331
A043
  5
A044
331
91F5
  5
91F6
331
9ACA
  5
9ACB
331
9857
  5
9858
331
930C
  5
930D
331
9C95
  5
9C96
331
9FD8
  5
9FD9
331
A00D
  5
A00E
331
A04A
  5
A04B
331
91D9
  5
91DA
331
936E
  5
936F
331
9F9B
  5
9F9C
331
9A4C
  5
9A4D
331
9A3B
  5
9A3C
331
9A80
  5
9A81
331
9D95
  5
9D96
331
9D4C
  5
9D4D
331
A1B6
  5
A1B7
331
9B09
  5
9B0A
331
9410
  5
9411
331
9C74
  5
9C75
331
99E9
  5
99EA
331
9286
  5
9287
331
9D83
  5
9D84
331
A5E6
  5
A5E6
331
9420
  5
9421
331
A1FD
  5
A1FE
331
9A57
  5
9A58
331
9374
  5
9375
331
9C49
  5
9C4A
331
9A12
  5
9A13
331
94EE
  5
94EF
331
9BC9
  5
9BCA
331
A5FA
  5
A5FA
331
A137
  5
A138
331
9D1C
  5
9D1D
331
9915
  5
9916
331
98C9
  5
98CA
331
A1A0
  5
A1A1
331
9D3D
  5
9D3E
331
9B7A
  5
9B7B
331
A149
  5
A14A
331
9C1E
  5
9C1F
331
989F
  5
98A0
331
9AB7
  5
9AB8
331
943B
  5
943C
331
98E7
  5
98E8
331
9954
  5
9955
331
A1D1
  5
A1D2
331
A188
  5
A189
331
9DB9
  5
9DBA
331
94E1
  5
94E2
331
A21E
  5
A21F
331
99CE
  5
99CF
331
A5F4
  5
A5F4
331
941B
  5
941C
331
9319
  5
931A
331
A066
  5
A067
331
9B77
  5
9B78
331
9D2A
  5
9D2B
331
A06D
  5
A06E
331
9FBE
  5
9FBF
331
9FFB
  5
9FFC
331
9214
  5
9215
331
A030
  5
A031
331
9887
  5
9888
331
9C89
  5
9C8A
331
A090
  5
A091
331
9BB2
  5
9BB3
331
9444
  5
9445
331
A5D1
  5
A5D2
331
9986
  5
9987
331
9C6F
  5
9C70
331
99DB
  5
99DC
331
9C40
  5
9C41
331
9DB1
  5
9DB2
331
94C6
  5
94C7
331
9483
  5
9484
331
9A5F
  5
9A60
331
986C
  5
986D
331
942B
  5
942C
331
A190
  5
A191
331
9AAC
  5
9AAD
331
94D1
  5
94D2
331
9B4D
  5
9B4E
331
9D67
  5
9D68
331
9DC7
  5
9DC8
331
9B5C
  5
9B5D
331
A12D
  5
A12E
331
9B84
  5
9B85
331
92A1
  5
92A2
331
9CC8
  5
9CC9
331
928F
  5
9290
331
9501
  5
9502
331
940E
  5
940F
331
9DAB
  5
9DAC
331
A187
  5
A188
331
A1AC
  5
A1AD
331
9407
  5
9408
331
A15C
  5
A15D
331
9201
  5
9202
331
99C2
  5
99C3
331
9991
  5
9992
331
A22E
  5
A22F
331
A1BE
  5
A1BF
331
A1E3
  5
A1E4
331
949A
  5
949B
331
9517
  5
9518
331
9BDC
  5
9BDD
331
A5E9
  5
A5E9
331
9860
  5
9861
331
933F
  5
9340
331
9AD8
  5
9AD9
331
9336
  5
9337
331
9BE5
  5
9BE6
331
A016
  5
A017
331
A053
  5
A054
331
93D7
  5
93D8
331
9FA4
  5
9FA5
331
9FE1
  5
9FE2
331
91E2
  5
91E3
331
9C24
  5
9C25
331
9A7D
  5
9A7E
331
9889
  5
988A
331
9CEE
  5
9CEF
331
A1EF
  5
A1F0
331
9932
  5
9933
331
9DA7
  5
9DA8
331
91F9
  5
91FC
331
A226
  5
A227
331
92E3
  5
92E4
331
9902
  5
9903
331
92CF
  5
92D0
331
9CD4
  5
9CD5
331
9B55
  5
9B56
331
A5C9
  5
A5CA
331
9459
  5
945A
331
93F6
  5
93F7
331
9D5D
  5
9D5E
331
9C82
  5
9C83
331
98A7
  5
98A8
331
9C0A
  5
9C0B
331
9DC9
  5
9DCA
331
9BBA
  5
9BBB
331
996F
  5
9970
331
9D76
  5
9D77
331
9BF3
  5
9BF4
331
9474
  5
9475
331
9CF4
  5
9CF5
331
9D8C
  5
9D8D
331
9C39
  5
9C3A
331
9B60
  5
9B61
331
9875
  5
9876
331
A20A
  5
A20B
331
9A37
  5
9A38
331
92BE
  5
92BF
331
92C6
  5
92C7
331
94B3
  5
94B4
331
91C0
  5
91C1
331
A177
  5
A178
331
9A07
  5
9A08
331
9AE4
  5
9AE5
331
9454
  5
9455
331
A1D9
  5
A1DA
331
9310
  5
9311
331
9D42
  5
9D43
331
9B6A
  5
9B6B
331
98F0
  5
98F1
331
9FC7
  5
9FC8
331
A004
  5
A005
331
921D
  5
921E
331
A039
  5
A03A
331
A076
  5
A077
331
92AA
  5
92AB
331
99A7
  5
99A8
331
9B03
  5
9B05
331
94F0
  5
94F1
331
944F
  5
9450
331
94AC
  5
94AD
331
A099
  5
A09A
331
9364
  5
9365
331
9F91
  5
9F92
331
4FD7
  5
5015
331
9D36
  5
9D37
331
A163
  5
A164
331
9C07
  5
9C08
331
A614
  5
A614
331
9BA1
  5
9BA2
331
9970
  5
9971
331
947D
  5
947E
331
94CA
  5
94CB
331
92FA
  5
92FB
331
A1C1
  5
A1C2
331
9464
  5
9465
331
92DA
  5
92DB
331
9BD7
  5
9BD8
331
9494
  5
9495
331
9A1D
  5
9A1E
331
A217
  5
A218
331
9C29
  5
9C2A
331
A19D
  5
A19E
331
929A
  5
929B
331
9CAF
  5
9CB0
331
99BE
  5
99BF
331
99FB
  5
99FC
331
9468
  5
9469
331
9D03
  5
9D04
331
9C60
  5
9C61
331
A1F7
  5
A1F8
331
A13C
  5
A13D
331
9891
  5
9892
331
9A95
  5
9A96
331
9A75
  5
9A76
331
A1CA
  5
A1CB
331
992B
  5
992C
331
98BA
  5
98BB
331
A5C6
  5
A5C7
331
91BD
  5
91BE
331
93FA
  5
93FB
331
9847
  5
9848
331
A05C
  5
A05D
331
9FAD
  5
9FAE
331
9FEA
  5
9FEB
331
A01F
  5
A020
331
999E
  5
999F
331
9963
  5
9964
331
9CF8
  5
9CF9
331
9C5D
  5
9C5E
331
9FF1
  5
9FF2
331
920A
  5
920B
331
93E7
  5
93E8
331
9FB4
  5
9FB5
331
A147
  5
A148
331
92EC
  5
92ED
331
9B11
  5
9B12
331
92D0
  5
92D1
331
A126
  5
A127
331
9D15
  5
9D16
331
A60A
  5
A60A
331
9B8E
  5
9B8F
331
9943
  5
9944
331
A086
  5
A087
331
9BC5
  5
9BC6
331
9A22
  5
9A23
331
987A
  5
987B
331
A207
  5
A208
331
990F
  5
9910
331
98E9
  5
98EA
331
94DF
  5
94E0
331
98F8
  5
98F9
331
9D25
  5
9D26
331
9A6A
  5
9A6B
331
9CE5
  5
9CE6
331
9B22
  5
9B23
331
98B6
  5
98B7
331
A5BB
  5
A5BC
331
9AA0
  5
9AA1
331
9AF1
  5
9AF2
331
98D4
  5
98D5
331
985E
  5
985F
331
9918
  5
9919
331
997D
  5
997E
331
A5DD
  5
A5DD
331
A16A
  5
A16B
331
9B96
  5
9B97
331
9CA3
  5
9CA4
331
9BAB
  5
9BAC
331
9C50
  5
9C51
331
92F7
  5
92F8
331
94A3
  5
94A4
331
9988
  5
9989
331
9A2D
  5
9A2E
331
9BFA
  5
9BFB
331
9AFA
  5
9AFB
331
99D0
  5
99D1
331
9345
  5
9348
331
A042
  5
A043
331
A07F
  5
A080
331
91F4
  5
91F5
331
930B
  5
930C
331
9C94
  5
9C95
331
9856
  5
9857
331
A049
  5
A04A
331
9F9A
  5
9F9B
331
9FD7
  5
9FD8
331
A00C
  5
A00D
331
91D8
  5
91D9
331
936D
  5
936E
331
9A4B
  5
9A4C
331
9D94
  5
9D95
331
9B08
  5
9B09
331
A1B5
  5
A1B6
331
9A3A
  5
9A3B
331
9D4B
  5
9D4C
331
9BEF
  5
9BF0
331
9285
  5
9286
331
9D82
  5
9D83
331
9C73
  5
9C74
331
99E8
  5
99E9
331
A5E5
  5
A5E5
331
93EF
  5
93F0
331
A1FC
  5
A1FD
331
9C48
  5
9C49
331
94ED
  5
94EE
331
9A11
  5
9A12
331
9A56
  5
9A57
331
9373
  5
9374
331
9D1B
  5
9D1C
331
9BC8
  5
9BC9
331
99F7
  5
99F8
331
9914
  5
9915
331
A5F9
  5
A5F9
331
A136
  5
A137
331
9D3C
  5
9D3D
331
9B79
  5
9B7A
331
9C1D
  5
9C1E
331
943A
  5
943B
331
A607
  5
A607
331
989E
  5
989F
331
9AB6
  5
9AB7
331
A148
  5
A149
331
98C8
  5
98C9
331
9953
  5
9954
331
A1D0
  5
A1D1
331
98E6
  5
98E7
331
941A
  5
941B
331
A5F3
  5
A5F3
331
9DB8
  5
9DB9
331
94E0
  5
94E1
331
A21D
  5
A21E
331
99CD
  5
99CE
331
9318
  5
9319
331
A065
  5
A066
331
9D29
  5
9D2A
331
9B76
  5
9B77
331
9A0F
  5
9A10
331
9FFA
  5
9FFB
331
A02F
  5
A030
331
A06C
  5
A06D
331
9213
  5
9214
331
9FBD
  5
9FBE
331
9C88
  5
9C89
331
9BB1
  5
9BB2
331
9886
  5
9887
331
9985
  5
9986
331
99DA
  5
99DB
331
A08F
  5
A090
331
9443
  5
9444
331
A5D0
  5
A5D1
331
9482
  5
9483
331
9A5E
  5
9A5F
331
986B
  5
986C
331
9DB0
  5
9DB1
331
94C5
  5
94C6
331
942A
  5
942B
331
A157
  5
A158
331
9D66
  5
9D67
331
9AAB
  5
9AAC
331
9B4C
  5
9B4D
331
94D0
  5
94D1
331
9B5B
  5
9B5C
331
A12C
  5
A12D
331
9DC6
  5
9DC7
331
9B83
  5
9B84
331
9DAA
  5
9DAB
331
9D0F
  5
9D10
331
92A0
  5
92A1
331
A186
  5
A187
331
A1AB
  5
A1AC
331
940D
  5
940E
331
9200
  5
9201
331
94FC
  5
94FD
331
99C1
  5
99C2
331
9406
  5
9407
331
A15B
  5
A15C
331
A1E2
  5
A1E3
331
9B1B
  5
9B1D
331
9BDB
  5
9BDC
331
A5E8
  5
A5E8
331
9499
  5
949A
331
9990
  5
9991
331
A22D
  5
A22E
331
A1BD
  5
A1BE
331
933E
  5
933F
331
9B3D
  5
9B41
331
9335
  5
9336
331
9D6F
  5
9D70
331
9BE4
  5
9BE5
331
9FE0
  5
9FE1
331
A015
  5
A016
331
A052
  5
A053
331
91E1
  5
91E2
331
93D6
  5
93D7
331
9FA3
  5
9FA4
331
9931
  5
9932
331
9DA6
  5
9DA7
331
9C23
  5
9C24
331
9A7C
  5
9A7D
331
A1EE
  5
A1EF
331
9888
  5
9889
331
9CED
  5
9CEE
331
91F8
  5
91F9
331
92E2
  5
92E3
331
9CD3
  5
9CD4
331
A5C8
  5
A5C9
331
A225
  5
A226
331
9B54
  5
9B55
331
9901
  5
9902
331
92CE
  5
92CF
331
93F5
  5
93F6
331
98A6
  5
98A7
331
9458
  5
9459
331
993F
  5
9940
331
9D5C
  5
9D5D
331
9C81
  5
9C82
331
9D54
  5
9D55
331
9C09
  5
9C0A
331
9B9F
  5
9BA0
331
996E
  5
996F
331
9CF3
  5
9CF4
331
9DC8
  5
9DC9
331
9BF2
  5
9BF3
331
9BB9
  5
9BBA
331
9473
  5
9474
331
9D75
  5
9D76
331
9C38
  5
9C39
331
A209
  5
A20A
331
9A36
  5
9A37
331
9D8B
  5
9D8C
331
98AF
  5
98B0
331
9874
  5
9875
331
9453
  5
9454
331
A1D8
  5
A1D9
331
92BD
  5
92BE
331
92C5
  5
92C6
331
9CDC
  5
9CDF
331
9D41
  5
9D42
331
9B69
  5
9B6A
331
A176
  5
A177
331
92B7
  5
92B8
331
9A06
  5
9A07
331
9AE3
  5
9AE4
331
94B2
  5
94B3
331
934B
  5
934E
331
A038
  5
A039
331
A075
  5
A076
331
9FC6
  5
9FC7
331
A003
  5
A004
331
921C
  5
921D
331
99A6
  5
99A7
331
9B02
  5
9B03
331
98C7
  5
98C8
331
94AB
  5
94AC
331
A098
  5
A099
331
944E
  5
944F
331
92A9
  5
92AA
331
9363
  5
9364
331
9F90
  5
9F91
331
9BA0
  5
9BA1
331
9D35
  5
9D36
331
A162
  5
A163
331
947C
  5
947D
331
A0A5
  5
A121
331
94C9
  5
94CA
331
9C06
  5
9C07
331
9A9F
  5
9AA0
331
A613
  5
A613
331
92F9
  5
92FA
331
9CB7
  5
9CB8
331
9463
  5
9464
331
A1C0
  5
A1C1
331
94BF
  5
94C0
331
9493
  5
9494
331
9A1C
  5
9A1D
331
92D9
  5
92DA
331
9BD6
  5
9BD7
331
A216
  5
A217
331
9A8F
  5
9A90
331
9CAE
  5
9CAF
331
99FA
  5
99FB
331
9437
  5
9438
331
A19C
  5
A19D
331
99BD
  5
99BE
331
9299
  5
929A
331
9890
  5
9891
331
A5C5
  5
A5C6
331
9D02
  5
9D03
331
A1C9
  5
A1CA
331
98B9
  5
98BA
331
A1F6
  5
A1F7
331
A13B
  5
A13C
331
992A
  5
992B
331
9AEF
  5
9AF0
331
9A94
  5
9A95
331
9A74
  5
9A75
331
9720
  5
9721
331
9846
  5
9847
331
93F9
  5
93FA
331
9FE9
  5
9FEA
331
A01E
  5
A01F
331
A05B
  5
A05C
331
93DF
  5
93E0
331
9FAC
  5
9FAD
331
9CBF
  5
9CC0
331
9C5C
  5
9C5D
331
999D
  5
999E
331
9962
  5
9963
331
93E6
  5
93E7
331
9FB3
  5
9FB4
331
9FF0
  5
9FF1
331
9209
  5
920A
331
9B10
  5
9B11
331
A085
  5
A086
331
A609
  5
A609
331
A146
  5
A147
331
92EB
  5
92EC
331
9B8D
  5
9B8E
331
9942
  5
9943
331
9297
  5
9298
331
A125
  5
A126
331
9D14
  5
9D15
331
9A21
  5
9A22
331
9BC4
  5
9BC5
331
9879
  5
987A
331
A206
  5
A207
331
98DF
  5
98E0
331
98E8
  5
98E9
331
9D24
  5
9D25
331
9A69
  5
9A6A
331
990E
  5
990F
331
94DE
  5
94DF
331
99AF
  5
99B0
331
9A67
  5
9A68
331
9CE4
  5
9CE5
331
9B21
  5
9B22
331
9AF0
  5
9AF1
331
98B5
  5
98B6
331
A5BA
  5
A5BB
331
985D
  5
985E
331
A169
  5
A16A
331
92F6
  5
92F7
331
98D3
  5
98D4
331
9CA2
  5
9CA3
331
9BAA
  5
9BAB
331
9D9F
  5
9DA0
331
9A47
  5
9A48
331
997C
  5
997D
331
9B95
  5
9B96
331
A5DC
  5
A5DC
331
94A2
  5
94A3
  0
DIMASSOC
  5
9320
102
{ACAD_REACTORS
330
931F
102
}
330
931F
100
AcDbDimAssoc
330
931E
 90
        2
 70
     0
 71
     0
  1
AcDbOsnapPointRef
 72
     3
331
93D9
 73
     2
 91
        0
 40
0.0
 10
0.0
 20
0.0
 30
0.0
 75
     0
  0
DIMASSOC
  5
9323
102
{ACAD_REACTORS
330
9322
102
}
330
9322
100
AcDbDimAssoc
330
9321
 90
        2
 70
     0
 71
     0
  1
AcDbOsnapPointRef
 72
     3
331
93D3
 73
     2
 91
        0
 40
0.0
 10
0.0
 20
0.0
 30
0.0
 75
     0
  0
DIMASSOC
  5
9326
102
{ACAD_REACTORS
330
9325
102
}
330
9325
100
AcDbDimAssoc
330
9324
 90
        2
 70
     0
 71
     0
  1
AcDbOsnapPointRef
 72
     3
331
93D3
 73
     2
 91
        0
 40
0.0
 10
0.0
 20
0.0
 30
0.0
 75
     0
  0
DIMASSOC
  5
9329
102
{ACAD_REACTORS
330
9328
102
}
330
9328
100
AcDbDimAssoc
330
9327
 90
        2
 70
     0
 71
     0
  1
AcDbOsnapPointRef
 72
     1
331
93D5
 73
     2
 91
        0
 40
1.0
 10
0.0
 20
0.0
 30
2.000000000000000E+50
 75
     0
  0
DIMASSOC
  5
932C
102
{ACAD_REACTORS
330
932B
102
}
330
932B
100
AcDbDimAssoc
330
932A
 90
        2
 70
     0
 71
     0
  1
AcDbOsnapPointRef
 72
     5
331
93DB
 73
     2
 91
        0
 40
4.712388980384688
 10
0.0
 20
0.0
 30
0.0
 75
     0
  0
DIMASSOC
  5
932F
102
{ACAD_REACTORS
330
932E
102
}
330
932E
100
AcDbDimAssoc
330
932D
 90
        2
 70
     0
 71
     0
  1
AcDbOsnapPointRef
 72
     5
331
93D8
 73
     2
 91
        0
 40
3.141592653589792
 10
0.0
 20
0.0
 30
0.0
 75
     0
  0
DIMASSOC
  5
9332
102
{ACAD_REACTORS
330
9331
102
}
330
9331
100
AcDbDimAssoc
330
9330
 90
        2
 70
     0
 71
     0
  1
AcDbOsnapPointRef
 72
     5
331
93D6
 73
     2
 91
        0
 40
3.141592653589792
 10
0.0
 20
0.0
 30
0.0
 75
     0
  0
DIMASSOC
  5
9344
102
{ACAD_REACTORS
330
9343
102
}
330
9343
100
AcDbDimAssoc
330
9342
 90
        2
 70
     0
 71
     0
  1
AcDbOsnapPointRef
 72
     1
331
9362
 73
     2
 91
        0
 40
1.0
 10
0.0
 20
0.0
 30
2.000000000000000E+50
 75
     0
  0
DIMASSOC
  5
9347
102
{ACAD_REACTORS
330
9346
102
}
330
9346
100
AcDbDimAssoc
330
9345
 90
        2
 70
     0
 71
     0
  1
AcDbOsnapPointRef
 72
     1
331
9362
 73
     2
 91
        0
 40
1.0
 10
0.0
 20
0.0
 30
2.000000000000000E+50
 75
     0
  0
DIMASSOC
  5
934A
102
{ACAD_REACTORS
330
9349
102
}
330
9349
100
AcDbDimAssoc
330
9348
 90
        2
 70
     0
 71
     0
  1
AcDbOsnapPointRef
 72
    13
331
9363
 73
     2
 91
        0
 40
0.0
 10
0.0
 20
0.0
 30
2.000000000000000E+50
 75
     0
  0
DIMASSOC
  5
934D
102
{ACAD_REACTORS
330
934C
102
}
330
934C
100
AcDbDimAssoc
330
934B
 90
        2
 70
     0
 71
     0
  1
AcDbOsnapPointRef
 72
     1
331
9367
 73
     2
 91
        0
 40
1.0
 10
0.0
 20
0.0
 30
2.000000000000000E+50
 75
     0
  0
DIMASSOC
  5
9350
102
{ACAD_REACTORS
330
934F
102
}
330
934F
100
AcDbDimAssoc
330
934E
 90
        2
 70
     0
 71
     0
  1
AcDbOsnapPointRef
 72
     1
331
93E1
 73
     2
 91
        0
 40
1.0
 10
0.0
 20
0.0
 30
2.000000000000000E+50
 75
     0
  0
DIMASSOC
  5
9353
102
{ACAD_REACTORS
330
9352
102
}
330
9352
100
AcDbDimAssoc
330
9351
 90
        2
 70
     0
 71
     0
  1
AcDbOsnapPointRef
 72
     3
331
93D7
 73
     2
 91
        0
 40
0.0
 10
0.0
 20
0.0
 30
0.0
 75
     0
  0
DIMASSOC
  5
9356
102
{ACAD_REACTORS
330
9355
102
}
330
9355
100
AcDbDimAssoc
330
9354
 90
        2
 70
     0
 71
     0
  1
AcDbOsnapPointRef
 72
     5
331
93D6
 73
     2
 91
        0
 40
4.712388980384688
 10
0.0
 20
0.0
 30
0.0
 75
     0
  0
DIMASSOC
  5
9359
102
{ACAD_REACTORS
330
9358
102
}
330
9358
100
AcDbDimAssoc
330
9357
 90
        2
 70
     0
 71
     0
  1
AcDbOsnapPointRef
 72
     5
331
93DA
 73
     2
 91
        0
 40
4.712388980384688
 10
0.0
 20
0.0
 30
0.0
 75
     0
  0
DIMASSOC
  5
935C
102
{ACAD_REACTORS
330
935B
102
}
330
935B
100
AcDbDimAssoc
330
935A
 90
        2
 70
     0
 71
     0
  1
AcDbOsnapPointRef
 72
     5
331
93DA
 73
     2
 91
        0
 40
3.141592653589792
 10
0.0
 20
0.0
 30
0.0
 75
     0
  0
DIMASSOC
  5
9360
102
{ACAD_REACTORS
330
935F
102
}
330
935F
100
AcDbDimAssoc
330
935E
 90
        2
 70
     0
 71
     0
  1
AcDbOsnapPointRef
 72
    13
331
93E1
 73
     2
 91
        0
 40
0.0
 10
0.0
 20
0.0
 30
2.000000000000000E+50
 75
     0
  0
LAYOUT
  5
59
102
{ACAD_XDICTIONARY
360
B8C2
102
}
102
{ACAD_REACTORS
330
1A
102
}
330
1A
100
AcDbPlotSettings
  1

  2
None
  4

  6

 40
0.0
 41
0.0
 42
0.0
 43
0.0
 44
0.0
 45
0.0
 46
0.0
 47
0.0
 48
0.0
 49
0.0
140
0.0
141
0.0
142
1.0
143
1.0
 70
   688
 72
     0
 73
     0
 74
     5
  7
monochrome.ctb
 75
    16
147
1.0
148
0.0
149
0.0
100
AcDbLayout
  1
Layout1
 70
     1
 71
     1
 10
0.0
 20
0.0
 11
12.0
 21
9.0
 12
0.0
 22
0.0
 32
0.0
 14
0.0
 24
0.0
 34
0.0
 15
0.0
 25
0.0
 35
0.0
146
0.0
 13
0.0
 23
0.0
 33
0.0
 16
1.0
 26
0.0
 36
0.0
 17
0.0
 27
1.0
 37
0.0
 76
     0
330
58
  0
LAYOUT
  5
5E
102
{ACAD_XDICTIONARY
360
B8C4
102
}
102
{ACAD_REACTORS
330
1A
102
}
330
1A
100
AcDbPlotSettings
  1

  2
None
  4

  6

 40
0.0
 41
0.0
 42
0.0
 43
0.0
 44
0.0
 45
0.0
 46
0.0
 47
0.0
 48
0.0
 49
0.0
140
0.0
141
0.0
142
1.0
143
1.0
 70
   688
 72
     0
 73
     0
 74
     5
  7
monochrome.ctb
 75
    16
147
1.0
148
0.0
149
0.0
100
AcDbLayout
  1
Layout2
 70
     1
 71
     2
 10
0.0
 20
0.0
 11
12.0
 21
9.0
 12
0.0
 22
0.0
 32
0.0
 14
0.0
 24
0.0
 34
0.0
 15
0.0
 25
0.0
 35
0.0
146
0.0
 13
0.0
 23
0.0
 33
0.0
 16
1.0
 26
0.0
 36
0.0
 17
0.0
 27
1.0
 37
0.0
 76
     0
330
5D
  0
LAYOUT
  5
22
102
{ACAD_XDICTIONARY
360
B8C0
102
}
102
{ACAD_REACTORS
330
1A
102
}
330
1A
100
AcDbPlotSettings
  1

  2
HP Deskjet 6500 Series
  4
Letter
  6

 40
3.96875
 41
3.799404859542846
 42
3.96875
 43
3.17498779296875
 44
215.8999938964844
 45
279.3999938964844
 46
0.508
 47
0.0
 48
555.8639557415924
 49
-221.2993133862696
140
631.8612009983086
141
-121.2993133862696
142
1.0
143
9.323646486973462
 70
 11956
 72
     0
 73
     0
 74
     4
  7
monochrome.ctb
 75
     0
147
0.1072541737180995
148
-14118.94447583645
149
5621.002560011248
100
AcDbLayout
  1
Model
 70
     1
 71
     0
 10
0.0
 20
0.0
 11
12.0
 21
9.0
 12
0.0
 22
0.0
 32
0.0
 14
0.0
 24
0.0
 34
0.0
 15
0.0
 25
0.0
 35
0.0
146
0.0
 13
0.0
 23
0.0
 33
0.0
 16
1.0
 26
0.0
 36
0.0
 17
0.0
 27
1.0
 37
0.0
 76
     0
330
1F
  0
MLINESTYLE
  5
18
102
{ACAD_REACTORS
330
17
102
}
330
17
100
AcDbMlineStyle
  2
STANDARD
 70
     0
  3

 62
   256
 51
90.0
 52
90.0
 71
     2
 49
0.5
 62
   256
  6
BYLAYER
 49
-0.5
 62
   256
  6
BYLAYER
  0
ACDBPLACEHOLDER
  5
F
102
{ACAD_REACTORS
330
E
102
}
330
E
  0
XRECORD
  5
B8BF
102
{ACAD_REACTORS
330
B8BD
102
}
330
B8BD
100
AcDbXrecord
280
     1
340
73
  0
XRECORD
  5
B8BE
102
{ACAD_REACTORS
330
B8BD
102
}
330
B8BD
100
AcDbXrecord
280
     1
340
72
  0
DICTIONARYVAR
  5
67
102
{ACAD_REACTORS
330
66
102
}
330
66
100
DictionaryVariables
280
     0
  1
2
  0
DICTIONARYVAR
  5
6B
102
{ACAD_REACTORS
330
66
102
}
330
66
100
DictionaryVariables
280
     0
  1
1
  0
DICTIONARYVAR
  5
B7F1
102
{ACAD_REACTORS
330
66
102
}
330
66
100
DictionaryVariables
280
     0
  1

  0
DICTIONARY
  5
B8C2
330
59
100
AcDbDictionary
280
     1
281
     1
  3
ACAD_XREC_ROUNDTRIP
360
B8C3
  0
DICTIONARY
  5
B8C4
330
5E
100
AcDbDictionary
280
     1
281
     1
  3
ACAD_XREC_ROUNDTRIP
360
B8C5
  0
DICTIONARY
  5
B8C0
330
22
100
AcDbDictionary
280
     1
281
     1
  3
ACAD_XREC_ROUNDTRIP
360
B8C1
  0
XRECORD
  5
B8C3
102
{ACAD_REACTORS
330
B8C2
102
}
330
B8C2
100
AcDbXrecord
280
     1
102
SHADEPLOT
 70
     0
102
SHADEPLOTRESLEVEL
 70
     2
102
SHADEPLOTCUSTOMDPI
 70
   300
  0
XRECORD
  5
B8C5
102
{ACAD_REACTORS
330
B8C4
102
}
330
B8C4
100
AcDbXrecord
280
     1
102
SHADEPLOT
 70
     0
102
SHADEPLOTRESLEVEL
 70
     2
102
SHADEPLOTCUSTOMDPI
 70
   300
  0
XRECORD
  5
B8C1
102
{ACAD_REACTORS
330
B8C0
102
}
330
B8C0
100
AcDbXrecord
280
     1
102
SHADEPLOT
 70
     0
102
SHADEPLOTRESLEVEL
 70
     2
102
SHADEPLOTCUSTOMDPI
 70
   300
  0
ENDSEC
  0
EOF
