  0
SECTION
  2
HEADER
  9
$ACADVER
  1
AC1015
  9
$ACADMAINTVER
 70
    20
  9
$DWGCODEPAGE
  3
ANSI_1252
  9
$INSBASE
 10
0.0
 20
0.0
 30
0.0
  9
$EXTMIN
 10
-24.82870224089935
 20
-233.8120382317907
 30
0.0
  9
$EXTMAX
 10
71.47319363611931
 20
27.52487764079876
 30
0.000083728959769
  9
$LIMMIN
 10
0.0
 20
0.0
  9
$LIMMAX
 10
12.0
 20
9.0
  9
$ORTHOMODE
 70
     1
  9
$REGENMODE
 70
     1
  9
$FILLMODE
 70
     1
  9
$QTEXTMODE
 70
     0
  9
$MIRRTEXT
 70
     0
  9
$LTSCALE
 40
1.0
  9
$ATTMODE
 70
     1
  9
$TEXTSIZE
 40
0.2
  9
$TRACEWID
 40
0.05
  9
$TEXTSTYLE
  7
Standard
  9
$CLAYER
  8
0
  9
$CELTYPE
  6
ByLayer
  9
$CECOLOR
 62
   256
  9
$CELTSCALE
 40
1.0
  9
$DISPSILH
 70
     0
  9
$DIMSCALE
 40
1.0
  9
$DIMASZ
 40
0.18
  9
$DIMEXO
 40
0.25
  9
$DIMDLI
 40
0.38
  9
$DIMRND
 40
0.0
  9
$DIMDLE
 40
0.0
  9
$DIMEXE
 40
0.18
  9
$DIMTP
 40
0.0
  9
$DIMTM
 40
0.0
  9
$DIMTXT
 40
0.18
  9
$DIMCEN
 40
0.09
  9
$DIMTSZ
 40
0.0
  9
$DIMTOL
 70
     0
  9
$DIMLIM
 70
     0
  9
$DIMTIH
 70
     1
  9
$DIMTOH
 70
     1
  9
$DIMSE1
 70
     0
  9
$DIMSE2
 70
     0
  9
$DIMTAD
 70
     0
  9
$DIMZIN
 70
     0
  9
$DIMBLK
  1

  9
$DIMASO
 70
     1
  9
$DIMSHO
 70
     1
  9
$DIMPOST
  1

  9
$DIMAPOST
  1

  9
$DIMALT
 70
     0
  9
$DIMALTD
 70
     2
  9
$DIMALTF
 40
25.4
  9
$DIMLFAC
 40
1.0
  9
$DIMTOFL
 70
     0
  9
$DIMTVP
 40
0.0
  9
$DIMTIX
 70
     0
  9
$DIMSOXD
 70
     0
  9
$DIMSAH
 70
     0
  9
$DIMBLK1
  1

  9
$DIMBLK2
  1

  9
$DIMSTYLE
  2
Standard
  9
$DIMCLRD
 70
     0
  9
$DIMCLRE
 70
     0
  9
$DIMCLRT
 70
     0
  9
$DIMTFAC
 40
1.0
  9
$DIMGAP
 40
0.09
  9
$DIMJUST
 70
     0
  9
$DIMSD1
 70
     0
  9
$DIMSD2
 70
     0
  9
$DIMTOLJ
 70
     1
  9
$DIMTZIN
 70
     0
  9
$DIMALTZ
 70
     0
  9
$DIMALTTZ
 70
     0
  9
$DIMUPT
 70
     0
  9
$DIMDEC
 70
     3
  9
$DIMTDEC
 70
     3
  9
$DIMALTU
 70
     2
  9
$DIMALTTD
 70
     2
  9
$DIMTXSTY
  7
Standard
  9
$DIMAUNIT
 70
     0
  9
$DIMADEC
 70
     0
  9
$DIMALTRND
 40
0.0
  9
$DIMAZIN
 70
     0
  9
$DIMDSEP
 70
    46
  9
$DIMATFIT
 70
     3
  9
$DIMFRAC
 70
     0
  9
$DIMLDRBLK
  1

  9
$DIMLUNIT
 70
     2
  9
$DIMLWD
 70
    -2
  9
$DIMLWE
 70
    -2
  9
$DIMTMOVE
 70
     0
  9
$LUNITS
 70
     2
  9
$LUPREC
 70
     4
  9
$SKETCHINC
 40
0.1
  9
$FILLETRAD
 40
0.0
  9
$AUNITS
 70
     0
  9
$AUPREC
 70
     0
  9
$MENU
  1
.
  9
$ELEVATION
 40
0.0
  9
$PELEVATION
 40
0.0
  9
$THICKNESS
 40
0.0
  9
$LIMCHECK
 70
     0
  9
$CHAMFERA
 40
0.0
  9
$CHAMFERB
 40
0.0
  9
$CHAMFERC
 40
0.0
  9
$CHAMFERD
 40
0.0
  9
$SKPOLY
 70
     0
  9
$TDCREATE
 40
2454540.484704040
  9
$TDUCREATE
 40
2454540.651370706
  9
$TDUPDATE
 40
2455104.497430683
  9
$TDUUPDATE
 40
2455104.664097350
  9
$TDINDWG
 40
1.5807362963
  9
$TDUSRTIMER
 40
1.5807362963
  9
$USRTIMER
 70
     1
  9
$ANGBASE
 50
0.0
  9
$ANGDIR
 70
     0
  9
$PDMODE
 70
    67
  9
$PDSIZE
 40
0.0
  9
$PLINEWID
 40
0.0
  9
$SPLFRAME
 70
     0
  9
$SPLINETYPE
 70
     6
  9
$SPLINESEGS
 70
     8
  9
$HANDSEED
  5
59F3
  9
$SURFTAB1
 70
     6
  9
$SURFTAB2
 70
     6
  9
$SURFTYPE
 70
     6
  9
$SURFU
 70
     6
  9
$SURFV
 70
     6
  9
$UCSBASE
  2

  9
$UCSNAME
  2

  9
$UCSORG
 10
-6.49047171462853
 20
-213.0849450322595
 30
0.0
  9
$UCSXDIR
 10
1.0
 20
0.0
 30
0.0
  9
$UCSYDIR
 10
0.0
 20
1.0
 30
0.0
  9
$UCSORTHOREF
  2

  9
$UCSORTHOVIEW
 70
     0
  9
$UCSORGTOP
 10
0.0
 20
0.0
 30
0.0
  9
$UCSORGBOTTOM
 10
0.0
 20
0.0
 30
0.0
  9
$UCSORGLEFT
 10
0.0
 20
0.0
 30
0.0
  9
$UCSORGRIGHT
 10
0.0
 20
0.0
 30
0.0
  9
$UCSORGFRONT
 10
0.0
 20
0.0
 30
0.0
  9
$UCSORGBACK
 10
0.0
 20
0.0
 30
0.0
  9
$PUCSBASE
  2

  9
$PUCSNAME
  2

  9
$PUCSORG
 10
0.0
 20
0.0
 30
0.0
  9
$PUCSXDIR
 10
1.0
 20
0.0
 30
0.0
  9
$PUCSYDIR
 10
0.0
 20
1.0
 30
0.0
  9
$PUCSORTHOREF
  2

  9
$PUCSORTHOVIEW
 70
     0
  9
$PUCSORGTOP
 10
0.0
 20
0.0
 30
0.0
  9
$PUCSORGBOTTOM
 10
0.0
 20
0.0
 30
0.0
  9
$PUCSORGLEFT
 10
0.0
 20
0.0
 30
0.0
  9
$PUCSORGRIGHT
 10
0.0
 20
0.0
 30
0.0
  9
$PUCSORGFRONT
 10
0.0
 20
0.0
 30
0.0
  9
$PUCSORGBACK
 10
0.0
 20
0.0
 30
0.0
  9
$USERI1
 70
     0
  9
$USERI2
 70
     0
  9
$USERI3
 70
     0
  9
$USERI4
 70
     0
  9
$USERI5
 70
     0
  9
$USERR1
 40
0.0
  9
$USERR2
 40
0.0
  9
$USERR3
 40
0.0
  9
$USERR4
 40
0.0
  9
$USERR5
 40
0.0
  9
$WORLDVIEW
 70
     1
  9
$SHADEDGE
 70
     3
  9
$SHADEDIF
 70
    70
  9
$TILEMODE
 70
     1
  9
$MAXACTVP
 70
    64
  9
$PINSBASE
 10
0.0
 20
0.0
 30
0.0
  9
$PLIMCHECK
 70
     0
  9
$PEXTMIN
 10
0.0
 20
0.0
 30
0.0
  9
$PEXTMAX
 10
0.0
 20
0.0
 30
0.0
  9
$PLIMMIN
 10
0.0
 20
0.0
  9
$PLIMMAX
 10
12.0
 20
9.0
  9
$UNITMODE
 70
     0
  9
$VISRETAIN
 70
     1
  9
$PLINEGEN
 70
     0
  9
$PSLTSCALE
 70
     1
  9
$TREEDEPTH
 70
  3020
  9
$CMLSTYLE
  2
Standard
  9
$CMLJUST
 70
     0
  9
$CMLSCALE
 40
1.0
  9
$PROXYGRAPHICS
 70
     1
  9
$MEASUREMENT
 70
     0
  9
$CELWEIGHT
370
    -1
  9
$ENDCAPS
280
     0
  9
$JOINSTYLE
280
     0
  9
$LWDISPLAY
290
     0
  9
$INSUNITS
 70
     1
  9
$HYPERLINKBASE
  1

  9
$STYLESHEET
  1
MONOCHROME.CTB
  9
$XEDIT
290
     1
  9
$CEPSNTYPE
380
     0
  9
$PSTYLEMODE
290
     1
  9
$FINGERPRINTGUID
  2
{FDEAD576-A652-11D2-9A35-0060089B3A3F}
  9
$VERSIONGUID
  2
{A52DC1B1-7D3A-4870-8C8C-5D7246655E66}
  9
$EXTNAMES
290
     1
  9
$PSVPSCALE
 40
0.0
  9
$OLESTARTUP
290
     0
  0
ENDSEC
  0
SECTION
  2
CLASSES
  0
CLASS
  1
ACDBDICTIONARYWDFLT
  2
AcDbDictionaryWithDefault
  3
ObjectDBX Classes
 90
        0
280
     0
281
     0
  0
CLASS
  1
DICTIONARYVAR
  2
AcDbDictionaryVar
  3
ObjectDBX Classes
 90
        0
280
     0
281
     0
  0
CLASS
  1
SORTENTSTABLE
  2
AcDbSortentsTable
  3
ObjectDBX Classes
 90
        0
280
     0
281
     0
  0
CLASS
  1
DIMASSOC
  2
AcDbDimAssoc
  3
"AcDbDimAssoc|Product Desc:     AcDim ARX App For Dimension|Company:          Autodesk, Inc.|WEB Address:      www.autodesk.com"
 90
        0
280
     0
281
     0
  0
CLASS
  1
ACDBPLACEHOLDER
  2
AcDbPlaceHolder
  3
ObjectDBX Classes
 90
        0
280
     0
281
     0
  0
CLASS
  1
LAYOUT
  2
AcDbLayout
  3
ObjectDBX Classes
 90
        0
280
     0
281
     0
  0
ENDSEC
  0
SECTION
  2
TABLES
  0
TABLE
  2
VPORT
  5
8
330
0
100
AcDbSymbolTable
 70
     8
  0
VPORT
  5
59E8
330
8
100
AcDbSymbolTableRecord
100
AcDbViewportTableRecord
  2
*Active
 70
     0
 10
0.0
 20
0.0
 11
1.0
 21
1.0
 12
-25.75095109434801
 22
-183.3884442116318
 13
0.0
 23
0.0
 14
0.5
 24
0.5
 15
0.5
 25
0.5
 16
0.0
 26
0.0
 36
1.0
 17
0.0
 27
0.0
 37
0.0
 40
200.0737672584262
 41
1.484472049689441
 42
50.0
 43
0.0
 44
0.0
 50
0.0
 51
0.0
 71
     0
 72
  1000
 73
     1
 74
     3
 75
     0
 76
     0
 77
     0
 78
     0
281
     0
 65
     1
110
-6.49047171462853
120
-213.0849450322595
130
0.0
111
1.0
121
0.0
131
0.0
112
0.0
122
1.0
132
0.0
 79
     0
146
0.0
  0
ENDTAB
  0
TABLE
  2
LTYPE
  5
5
330
0
100
AcDbSymbolTable
 70
     2
  0
LTYPE
  5
14
330
5
100
AcDbSymbolTableRecord
100
AcDbLinetypeTableRecord
  2
ByBlock
 70
     0
  3

 72
    65
 73
     0
 40
0.0
  0
LTYPE
  5
15
330
5
100
AcDbSymbolTableRecord
100
AcDbLinetypeTableRecord
  2
ByLayer
 70
     0
  3

 72
    65
 73
     0
 40
0.0
  0
LTYPE
  5
16
330
5
100
AcDbSymbolTableRecord
100
AcDbLinetypeTableRecord
  2
Continuous
 70
     0
  3
Solid line
 72
    65
 73
     0
 40
0.0
  0
LTYPE
  5
F0
330
5
100
AcDbSymbolTableRecord
100
AcDbLinetypeTableRecord
  2
HIDDEN
 70
     0
  3
__ __ __ __ __ __ __ __ __ __ __ __ __ __ __ __
 72
    65
 73
     2
 40
9.524999999999996
 49
6.349999999999998
 74
     0
 49
-3.174999999999998
 74
     0
  0
ENDTAB
  0
TABLE
  2
LAYER
  5
2
102
{ACAD_XDICTIONARY
360
F2
102
}
330
0
100
AcDbSymbolTable
 70
    11
  0
LAYER
  5
10
330
2
100
AcDbSymbolTableRecord
100
AcDbLayerTableRecord
  2
0
 70
     0
 62
     7
  6
Continuous
370
    -3
390
F
  0
LAYER
  5
F1
330
2
100
AcDbSymbolTableRecord
100
AcDbLayerTableRecord
  2
Defpoints
 70
     0
 62
     7
  6
Continuous
290
     0
370
    -3
390
F
  0
LAYER
  5
2BD5
330
2
100
AcDbSymbolTableRecord
100
AcDbLayerTableRecord
  2
BORDER
 70
     0
 62
     7
  6
Continuous
370
    -3
390
F
  0
LAYER
  5
2BD6
330
2
100
AcDbSymbolTableRecord
100
AcDbLayerTableRecord
  2
TEXT
 70
     0
 62
    -7
  6
Continuous
370
    -3
390
F
  0
LAYER
  5
2BD7
330
2
100
AcDbSymbolTableRecord
100
AcDbLayerTableRecord
  2
VBORDER
 70
     0
 62
     7
  6
Continuous
370
    -3
390
F
  0
LAYER
  5
2BD8
330
2
100
AcDbSymbolTableRecord
100
AcDbLayerTableRecord
  2
VPAPER
 70
     0
 62
     7
  6
Continuous
370
    -3
390
F
  0
LAYER
  5
2BD9
330
2
100
AcDbSymbolTableRecord
100
AcDbLayerTableRecord
  2
connector
 70
     0
 62
   240
  6
Continuous
370
    -3
390
F
  0
LAYER
  5
43C2
330
2
100
AcDbSymbolTableRecord
100
AcDbLayerTableRecord
  2
cabinet
 70
     0
 62
     7
  6
Continuous
370
    -3
390
F
  0
LAYER
  5
5082
330
2
100
AcDbSymbolTableRecord
100
AcDbLayerTableRecord
  2
OBJ
 70
     0
 62
     7
  6
Continuous
370
    -3
390
F
  0
LAYER
  5
5237
330
2
100
AcDbSymbolTableRecord
100
AcDbLayerTableRecord
  2
Dimension
 70
     0
 62
     7
  6
Continuous
370
    -3
390
F
  0
LAYER
  5
5238
330
2
100
AcDbSymbolTableRecord
100
AcDbLayerTableRecord
  2
THERMOSTATCVR
 70
     0
 62
     7
  6
Continuous
370
    -3
390
F
  0
ENDTAB
  0
TABLE
  2
STYLE
  5
3
330
0
100
AcDbSymbolTable
 70
     1
  0
STYLE
  5
11
330
3
100
AcDbSymbolTableRecord
100
AcDbTextStyleTableRecord
  2
Standard
 70
     0
 40
0.0
 41
1.0
 50
0.0
 71
     0
 42
0.2
  3
txt
  4

  0
ENDTAB
  0
TABLE
  2
VIEW
  5
6
330
0
100
AcDbSymbolTable
 70
     0
  0
ENDTAB
  0
TABLE
  2
UCS
  5
7
330
0
100
AcDbSymbolTable
 70
     0
  0
ENDTAB
  0
TABLE
  2
APPID
  5
9
330
0
100
AcDbSymbolTable
 70
     1
  0
APPID
  5
12
330
9
100
AcDbSymbolTableRecord
100
AcDbRegAppTableRecord
  2
ACAD
 70
     0
  0
ENDTAB
  0
TABLE
  2
DIMSTYLE
  5
A
330
0
100
AcDbSymbolTable
 70
     1
100
AcDbDimStyleTable
 71
     1
340
27
  0
DIMSTYLE
105
27
102
{ACAD_REACTORS
330
4DB6
330
4E7A
330
4E61
330
4E41
330
4DF8
330
4DCF
330
4DC6
330
4EA5
330
4E9C
330
4E93
330
4E8A
330
4EB5
330
4E51
330
4E18
330
4E08
330
4E28
330
4E31
330
522A
330
58BF
330
592D
330
595B
330
5979
102
}
330
A
100
AcDbSymbolTableRecord
100
AcDbDimStyleTableRecord
  2
Standard
 70
     0
 42
0.25
271
     3
272
     3
340
11
  0
ENDTAB
  0
TABLE
  2
BLOCK_RECORD
  5
1
330
0
100
AcDbSymbolTable
 70
    31
  0
BLOCK_RECORD
  5
1F
330
1
100
AcDbSymbolTableRecord
100
AcDbBlockTableRecord
  2
*Model_Space
340
22
  0
BLOCK_RECORD
  5
58
330
1
100
AcDbSymbolTableRecord
100
AcDbBlockTableRecord
  2
*Paper_Space
340
59
  0
BLOCK_RECORD
  5
5D
330
1
100
AcDbSymbolTableRecord
100
AcDbBlockTableRecord
  2
*Paper_Space0
340
5E
  0
BLOCK_RECORD
  5
89
330
1
100
AcDbSymbolTableRecord
100
AcDbBlockTableRecord
  2
A$C347A6E98
340
0
  0
BLOCK_RECORD
  5
8E
330
1
100
AcDbSymbolTableRecord
100
AcDbBlockTableRecord
  2
A$C0C2A4451
340
0
  0
BLOCK_RECORD
  5
9D
102
{ACAD_XDICTIONARY
360
9E
102
}
330
1
100
AcDbSymbolTableRecord
100
AcDbBlockTableRecord
  2
A$C3D011AC7
340
0
  0
BLOCK_RECORD
  5
2ACF
102
{ACAD_XDICTIONARY
360
2AD0
102
}
330
1
100
AcDbSymbolTableRecord
100
AcDbBlockTableRecord
  2
A$C399C37F9
340
0
  0
BLOCK_RECORD
  5
43C3
330
1
100
AcDbSymbolTableRecord
100
AcDbBlockTableRecord
  2
A$C0C07017E
340
0
  0
BLOCK_RECORD
  5
48FA
330
1
100
AcDbSymbolTableRecord
100
AcDbBlockTableRecord
  2
A$C211B4990
340
0
  0
BLOCK_RECORD
  5
4DB7
330
1
100
AcDbSymbolTableRecord
100
AcDbBlockTableRecord
  2
*D7
340
0
  0
BLOCK_RECORD
  5
4DC7
330
1
100
AcDbSymbolTableRecord
100
AcDbBlockTableRecord
  2
*D8
340
0
  0
BLOCK_RECORD
  5
4DD0
330
1
100
AcDbSymbolTableRecord
100
AcDbBlockTableRecord
  2
*D9
340
0
  0
BLOCK_RECORD
  5
4DF9
330
1
100
AcDbSymbolTableRecord
100
AcDbBlockTableRecord
  2
*D10
340
0
  0
BLOCK_RECORD
  5
4E09
330
1
100
AcDbSymbolTableRecord
100
AcDbBlockTableRecord
  2
*D11
340
0
  0
BLOCK_RECORD
  5
4E19
330
1
100
AcDbSymbolTableRecord
100
AcDbBlockTableRecord
  2
*D12
340
0
  0
BLOCK_RECORD
  5
4E29
330
1
100
AcDbSymbolTableRecord
100
AcDbBlockTableRecord
  2
*D13
340
0
  0
BLOCK_RECORD
  5
4E32
330
1
100
AcDbSymbolTableRecord
100
AcDbBlockTableRecord
  2
*D14
340
0
  0
BLOCK_RECORD
  5
4E42
330
1
100
AcDbSymbolTableRecord
100
AcDbBlockTableRecord
  2
*D15
340
0
  0
BLOCK_RECORD
  5
4E52
330
1
100
AcDbSymbolTableRecord
100
AcDbBlockTableRecord
  2
*D16
340
0
  0
BLOCK_RECORD
  5
4E62
330
1
100
AcDbSymbolTableRecord
100
AcDbBlockTableRecord
  2
*D17
340
0
  0
BLOCK_RECORD
  5
4E7B
330
1
100
AcDbSymbolTableRecord
100
AcDbBlockTableRecord
  2
*D18
340
0
  0
BLOCK_RECORD
  5
4E8B
330
1
100
AcDbSymbolTableRecord
100
AcDbBlockTableRecord
  2
*D19
340
0
  0
BLOCK_RECORD
  5
4E94
330
1
100
AcDbSymbolTableRecord
100
AcDbBlockTableRecord
  2
*D20
340
0
  0
BLOCK_RECORD
  5
4E9D
330
1
100
AcDbSymbolTableRecord
100
AcDbBlockTableRecord
  2
*D21
340
0
  0
BLOCK_RECORD
  5
4EA6
330
1
100
AcDbSymbolTableRecord
100
AcDbBlockTableRecord
  2
*D22
340
0
  0
BLOCK_RECORD
  5
4EB6
330
1
100
AcDbSymbolTableRecord
100
AcDbBlockTableRecord
  2
*D23
340
0
  0
BLOCK_RECORD
  5
5147
330
1
100
AcDbSymbolTableRecord
100
AcDbBlockTableRecord
  2
*D24
340
0
  0
BLOCK_RECORD
  5
5161
330
1
100
AcDbSymbolTableRecord
100
AcDbBlockTableRecord
  2
*D25
340
0
  0
BLOCK_RECORD
  5
517B
330
1
100
AcDbSymbolTableRecord
100
AcDbBlockTableRecord
  2
*D26
340
0
  0
BLOCK_RECORD
  5
58C2
330
1
100
AcDbSymbolTableRecord
100
AcDbBlockTableRecord
  2
*D27
340
0
  0
BLOCK_RECORD
  5
592E
330
1
100
AcDbSymbolTableRecord
100
AcDbBlockTableRecord
  2
*D28
340
0
  0
BLOCK_RECORD
  5
595C
330
1
100
AcDbSymbolTableRecord
100
AcDbBlockTableRecord
  2
*D29
340
0
  0
BLOCK_RECORD
  5
597A
330
1
100
AcDbSymbolTableRecord
100
AcDbBlockTableRecord
  2
*D30
340
0
  0
ENDTAB
  0
ENDSEC
  0
SECTION
  2
BLOCKS
  0
BLOCK
  5
20
330
1F
100
AcDbEntity
  8
0
100
AcDbBlockBegin
  2
*Model_Space
 70
     0
 10
0.0
 20
0.0
 30
0.0
  3
*Model_Space
  1

  0
ENDBLK
  5
21
330
1F
100
AcDbEntity
  8
0
100
AcDbBlockEnd
  0
BLOCK
  5
5A
330
58
100
AcDbEntity
 67
     1
  8
0
100
AcDbBlockBegin
  2
*Paper_Space
 70
     0
 10
0.0
 20
0.0
 30
0.0
  3
*Paper_Space
  1

  0
ENDBLK
  5
5B
330
58
100
AcDbEntity
 67
     1
  8
0
100
AcDbBlockEnd
  0
BLOCK
  5
5F
330
5D
100
AcDbEntity
  8
0
100
AcDbBlockBegin
  2
*Paper_Space0
 70
     0
 10
0.0
 20
0.0
 30
0.0
  3
*Paper_Space0
  1

  0
ENDBLK
  5
60
330
5D
100
AcDbEntity
  8
0
100
AcDbBlockEnd
  0
BLOCK
  5
8A
330
89
100
AcDbEntity
  8
0
100
AcDbBlockBegin
  2
A$C347A6E98
 70
     0
 10
0.0
 20
0.0
 30
0.0
  3
A$C347A6E98
  1

  0
CIRCLE
  5
8B
330
89
100
AcDbEntity
  8
0
  6
HIDDEN
100
AcDbCircle
 10
0.0
 20
0.0
 30
0.0
 40
0.0819999999996526
  0
CIRCLE
  5
8C
330
89
100
AcDbEntity
  8
0
100
AcDbCircle
 10
0.0
 20
0.0
 30
0.0
 40
0.1185
  0
ENDBLK
  5
8D
330
89
100
AcDbEntity
  8
0
100
AcDbBlockEnd
  0
BLOCK
  5
8F
330
8E
100
AcDbEntity
  8
0
100
AcDbBlockBegin
  2
A$C0C2A4451
 70
     0
 10
0.0
 20
0.0
 30
0.0
  3
A$C0C2A4451
  1

  0
LINE
  5
90
330
8E
100
AcDbEntity
  8
0
100
AcDbLine
 10
0.0
 20
0.0964288298962402
 30
0.0
 11
0.0
 21
-0.0964288298960128
 31
0.0
  0
LINE
  5
91
330
8E
100
AcDbEntity
  8
0
100
AcDbLine
 10
0.5
 20
-0.0520000000001346
 30
0.0
 11
0.4699999999997999
 21
-0.0820000000001073
 31
0.0
  0
LINE
  5
92
330
8E
100
AcDbEntity
  8
0
100
AcDbLine
 10
0.4699999999997999
 20
0.08199999999988
 30
0.0
 11
0.5
 21
0.0519999999999072
 31
0.0
  0
LINE
  5
93
330
8E
100
AcDbEntity
  8
0
100
AcDbLine
 10
0.4699999999997999
 20
0.08199999999988
 30
0.0
 11
0.4699999999997999
 21
-0.0820000000001073
 31
0.0
  0
LINE
  5
94
330
8E
100
AcDbEntity
  8
0
  6
HIDDEN
100
AcDbLine
 10
0.5
 20
-0.0520000000001346
 30
0.0
 11
0.0899999999996908
 21
-0.0520000000001346
 31
0.0
  0
LINE
  5
95
330
8E
100
AcDbEntity
  8
0
  6
HIDDEN
100
AcDbLine
 10
0.5
 20
0.0519999999999072
 30
0.0
 11
0.0899999999996908
 21
0.0519999999996799
 31
0.0
  0
ARC
  5
96
330
8E
100
AcDbEntity
  8
0
100
AcDbCircle
 10
0.0220711701040273
 20
0.0964288298962402
 30
0.0
 40
0.0220711701040273
100
AcDbArc
 50
0.0
 51
180.0
  0
ARC
  5
97
330
8E
100
AcDbEntity
  8
0
100
AcDbCircle
 10
0.0220711701040273
 20
-0.0964288298960128
 30
0.0
 40
0.0220711701040273
100
AcDbArc
 50
180.0
 51
0.0
  0
LINE
  5
98
330
8E
100
AcDbEntity
  8
0
100
AcDbLine
 10
0.0441423402080545
 20
0.0964288298962402
 30
0.0
 11
0.0441423402075998
 21
-0.0964288298960128
 31
0.0
  0
LINE
  5
99
330
8E
100
AcDbEntity
  8
0
100
AcDbLine
 10
0.4699999999997999
 20
-0.0820000000001073
 30
0.0
 11
0.0441423402080545
 21
-0.0820000000001073
 31
0.0
  0
LINE
  5
9A
330
8E
100
AcDbEntity
  8
0
100
AcDbLine
 10
0.4699999999997999
 20
0.0819999999996526
 30
0.0
 11
0.0441423402080545
 21
0.08199999999988
 31
0.0
  0
LINE
  5
9B
330
8E
100
AcDbEntity
  8
0
100
AcDbLine
 10
0.5
 20
0.0520000000001346
 30
0.0
 11
0.4999999999995454
 21
-0.0520000000005894
 31
0.0
  0
ENDBLK
  5
9C
330
8E
100
AcDbEntity
  8
0
100
AcDbBlockEnd
  0
BLOCK
  5
A0
330
9D
100
AcDbEntity
  8
0
100
AcDbBlockBegin
  2
A$C3D011AC7
 70
     0
 10
0.0
 20
0.0
 30
0.0
  3
A$C3D011AC7
  1

  0
LINE
  5
A1
330
9D
100
AcDbEntity
  8
0
100
AcDbLine
 10
0.0
 20
0.1148345220038465
 30
0.0
 11
0.0
 21
-0.1148345220038465
 31
0.0
  0
LINE
  5
A2
330
9D
100
AcDbEntity
  8
0
100
AcDbLine
 10
-0.5
 20
-0.0769023248270386
 30
0.0
 11
-0.5
 21
0.0769023248270102
 31
0.0
  0
LINE
  5
A3
330
9D
100
AcDbEntity
  8
0
100
AcDbLine
 10
-0.481902324827047
 20
0.0949999999999989
 30
0.0
 11
-0.0263309559923073
 21
0.0949999999999989
 31
0.0
  0
LINE
  5
A4
330
9D
100
AcDbEntity
  8
0
100
AcDbLine
 10
-0.481902324827047
 20
-0.0949999999999989
 30
0.0
 11
-0.0263309559923073
 21
-0.0949999999999989
 31
0.0
  0
LINE
  5
A5
330
9D
100
AcDbEntity
  8
0
100
AcDbLine
 10
-0.0263309559923073
 20
0.1148345220038465
 30
0.0
 11
-0.0263309559923073
 21
-0.1148345220038465
 31
0.0
  0
ARC
  5
A6
330
9D
100
AcDbEntity
  8
0
100
AcDbCircle
 10
-0.0131654779961537
 20
0.1148345220038465
 30
0.0
 40
0.0131654779961537
100
AcDbArc
 50
0.0
 51
180.0
  0
ARC
  5
A7
330
9D
100
AcDbEntity
  8
0
100
AcDbCircle
 10
-0.0131654779961537
 20
-0.1148345220038465
 30
0.0
 40
0.0131654779961537
100
AcDbArc
 50
180.0
 51
0.0
  0
LINE
  5
A8
330
9D
100
AcDbEntity
  8
0
  6
HIDDEN
 48
0.01
100
AcDbLine
 10
-0.0999999999999943
 20
0.0769023248270244
 30
0.0
 11
-0.5
 21
0.0769023248270244
 31
0.0
  0
LINE
  5
A9
330
9D
100
AcDbEntity
  8
0
  6
HIDDEN
 48
0.01
100
AcDbLine
 10
-0.0999999999999943
 20
-0.0769023248270244
 30
0.0
 11
-0.5
 21
-0.0769023248270244
 31
0.0
  0
LINE
  5
AA
330
9D
100
AcDbEntity
  8
0
100
AcDbLine
 10
-0.5
 20
-0.0769023248270244
 30
0.0
 11
-0.481902324827047
 21
-0.0949999999999989
 31
0.0
  0
LINE
  5
AB
330
9D
100
AcDbEntity
  8
0
100
AcDbLine
 10
-0.5
 20
0.0769023248270244
 30
0.0
 11
-0.481902324827047
 21
0.0949999999999989
 31
0.0
  0
LINE
  5
AC
330
9D
100
AcDbEntity
  8
0
  6
HIDDEN
 48
0.01
100
AcDbLine
 10
-0.4819023248270753
 20
0.0949999999999989
 30
0.0
 11
-0.481902324827047
 21
-0.0949999999999989
 31
0.0
  0
ENDBLK
  5
AD
330
9D
100
AcDbEntity
  8
0
100
AcDbBlockEnd
  0
BLOCK
  5
2AD2
330
2ACF
100
AcDbEntity
  8
0
100
AcDbBlockBegin
  2
A$C399C37F9
 70
     0
 10
0.0
 20
0.0
 30
0.0
  3
A$C399C37F9
  1

  0
ARC
  5
2AD3
330
2ACF
100
AcDbEntity
  8
TEXT
100
AcDbCircle
 10
0.7660146883574726
 20
0.1163696579403677
 30
0.0
 40
0.0333124013254834
100
AcDbArc
 50
312.2086974257755
 51
3.264333629960935
  0
ARC
  5
2AD4
330
2ACF
100
AcDbEntity
  8
TEXT
100
AcDbCircle
 10
0.7608661351307548
 20
0.1261277137064098
 30
0.0
 40
0.0440845587249345
100
AcDbArc
 50
264.6664639047717
 51
308.6423664458188
  0
ARC
  5
2AD5
330
2ACF
100
AcDbEntity
  8
TEXT
100
AcDbCircle
 10
0.756988578544906
 20
0.1196363605628221
 30
0.0
 40
0.0374029882940768
100
AcDbArc
 50
231.6935697703391
 51
269.6626044169056
  0
ARC
  5
2AD6
330
2ACF
100
AcDbEntity
  8
TEXT
100
AcDbCircle
 10
0.7649419774761556
 20
0.1078087548570465
 30
0.0
 40
0.0194623186496687
100
AcDbArc
 50
325.2939034707323
 51
356.4132772462203
  0
ARC
  5
2AD7
330
2ACF
100
AcDbEntity
  8
TEXT
100
AcDbCircle
 10
0.7638847959644865
 20
0.1126210483610066
 30
0.0
 40
0.0213505467930622
100
AcDbArc
 50
343.5952529167656
 51
35.13836089167365
  0
ARC
  5
2AD8
330
2ACF
100
AcDbEntity
  8
TEXT
100
AcDbCircle
 10
0.7656802410897399
 20
0.1051038821026395
 30
0.0
 40
0.0174089866174374
100
AcDbArc
 50
261.8576121462843
 51
331.2394802847443
  0
ARC
  5
2AD9
330
2ACF
100
AcDbEntity
  8
TEXT
100
AcDbCircle
 10
0.7597807291017489
 20
0.0997126503842765
 30
0.0
 40
0.0123300503532533
100
AcDbArc
 50
203.9135879631522
 51
286.1701931802479
  0
ARC
  5
2ADA
330
2ACF
100
AcDbEntity
  8
TEXT
100
AcDbCircle
 10
0.7652422273874892
 20
0.1185395120658086
 30
0.0
 40
0.0173164489183453
100
AcDbArc
 50
21.58325850317572
 51
95.38396011116713
  0
ARC
  5
2ADB
330
2ACF
100
AcDbEntity
  8
TEXT
100
AcDbCircle
 10
0.760746899215974
 20
0.1211877612544185
 30
0.0
 40
0.0148714729922865
100
AcDbArc
 50
78.87075864990942
 51
146.7670066549805
  0
ARC
  5
2ADC
330
2ACF
100
AcDbEntity
  8
TEXT
100
AcDbCircle
 10
0.7718516023776374
 20
0.1183288371905746
 30
0.0
 40
0.0274215072257369
100
AcDbArc
 50
359.8698564192901
 51
62.37231490188428
  0
ARC
  5
2ADD
330
2ACF
100
AcDbEntity
  8
TEXT
100
AcDbCircle
 10
0.7718226942747606
 20
0.1054414549862486
 30
0.0
 40
0.0393059147720372
100
AcDbArc
 50
71.0798858476198
 51
127.1124618564793
  0
LINE
  5
2ADE
330
2ACF
100
AcDbEntity
  8
TEXT
100
AcDbLine
 10
0.7483076725172852
 20
0.1293379973304809
 30
0.0
 11
0.7485091168014151
 21
0.0947145609628706
 31
0.0
  0
LINE
  5
2ADF
330
2ACF
100
AcDbEntity
  8
TEXT
100
AcDbLine
 10
0.7239329329067914
 20
0.1639614336983186
 30
0.0
 11
0.7323935865840669
 21
0.1633575357537893
 31
0.0
  0
LINE
  5
2AE0
330
2ACF
100
AcDbEntity
  8
TEXT
100
AcDbLine
 10
0.7235300443385313
 20
0.1683900099629909
 30
0.0
 11
0.7239329329067914
 21
0.1639614336983186
 31
0.0
  0
ARC
  5
2AE1
330
2ACF
100
AcDbEntity
  8
TEXT
100
AcDbCircle
 10
0.7178990220181733
 20
0.2594043185514465
 30
0.0
 40
0.0911883368650187
100
AcDbArc
 50
273.5403564160216
 51
289.0758016785483
  0
LINE
  5
2AE2
330
2ACF
100
AcDbEntity
  8
TEXT
100
AcDbLine
 10
0.7477010829973098
 20
0.1732234045298355
 30
0.0
 11
0.7481062344920703
 21
0.1367860633175724
 31
0.0
  0
LINE
  5
2AE3
330
2ACF
100
AcDbEntity
  8
TEXT
100
AcDbLine
 10
0.7323935865840669
 20
0.1633575357537893
 30
0.0
 11
0.7338036965734318
 21
0.0902859809860957
 31
0.0
  0
ARC
  5
2AE4
330
2ACF
100
AcDbEntity
  8
TEXT
100
AcDbCircle
 10
0.7140785140338723
 20
0.0971401630785067
 30
0.0
 40
0.0052609999481028
100
AcDbArc
 50
155.9964711746287
 51
271.4218156194853
  0
LINE
  5
2AE5
330
2ACF
100
AcDbEntity
  8
TEXT
100
AcDbLine
 10
0.7206645596381806
 20
0.0922602463093654
 30
0.0
 11
0.7142090542633924
 21
0.0918807829151547
 31
0.0
  0
LINE
  5
2AE6
330
2ACF
100
AcDbEntity
  8
TEXT
100
AcDbLine
 10
0.7202848291824468
 20
0.0878964284119093
 30
0.0
 11
0.7206645596381806
 21
0.0922602463093654
 31
0.0
  0
ARC
  5
2AE7
330
2ACF
100
AcDbEntity
  8
TEXT
100
AcDbCircle
 10
0.7187886606145641
 20
0.0405621359384441
 30
0.0
 40
0.0473579324332648
100
AcDbArc
 50
88.18956599988172
 51
113.165209052029
  0
ARC
  5
2AE8
330
2ACF
100
AcDbEntity
  8
TEXT
100
AcDbCircle
 10
0.6978471548470681
 20
0.0848055597649591
 30
0.0
 40
0.0024164166924128
100
AcDbArc
 50
201.70060277243
 51
343.0678677067652
  0
LINE
  5
2AE9
330
2ACF
100
AcDbEntity
  8
TEXT
100
AcDbLine
 10
0.6954121213043436
 20
0.0911218598387223
 30
0.0
 11
0.6956019927913532
 21
0.0839120739086639
 31
0.0
  0
ARC
  5
2AEA
330
2ACF
100
AcDbEntity
  8
TEXT
100
AcDbCircle
 10
0.6725088798239085
 20
0.1156247374989334
 30
0.0
 40
0.0335402666050747
100
AcDbArc
 50
260.0995263030867
 51
313.0673878832539
  0
ARC
  5
2AEB
330
2ACF
100
AcDbEntity
  8
TEXT
100
AcDbCircle
 10
0.6667340148703717
 20
0.0971970261144861
 30
0.0
 40
0.0146130725873602
100
AcDbArc
 50
180.7587023263124
 51
270.031539090741
  0
ARC
  5
2AEC
330
2ACF
100
AcDbEntity
  8
TEXT
100
AcDbCircle
 10
0.6787114053604455
 20
0.1144209015473052
 30
0.0
 40
0.0238580030393649
100
AcDbArc
 50
257.5730930866121
 51
314.4273867462179
  0
ARC
  5
2AED
330
2ACF
100
AcDbEntity
  8
TEXT
100
AcDbCircle
 10
0.6788635129005343
 20
0.1023809167068066
 30
0.0
 40
0.0124382608449992
100
AcDbArc
 50
188.1927496775753
 51
244.8496170020138
  0
ARC
  5
2AEE
330
2ACF
100
AcDbEntity
  8
TEXT
100
AcDbCircle
 10
0.6925088115312974
 20
0.1347625958401295
 30
0.0
 40
0.0029435579431755
100
AcDbArc
 50
337.1943218370187
 51
115.6412778855222
  0
LINE
  5
2AEF
330
2ACF
100
AcDbEntity
  8
TEXT
100
AcDbLine
 10
0.6954121213043436
 20
0.0973829909952429
 30
0.0
 11
0.6952222560764767
 21
0.1336216523424127
 31
0.0
  0
LINE
  5
2AF0
330
2ACF
100
AcDbEntity
  8
TEXT
100
AcDbLine
 10
0.6843997816106368
 20
0.1377957385427635
 30
0.0
 11
0.6912350299594438
 21
0.1374162751485528
 31
0.0
  0
LINE
  5
2AF1
330
2ACF
100
AcDbEntity
  8
TEXT
100
AcDbLine
 10
0.684589646838731
 20
0.1414006333637872
 30
0.0
 11
0.6843997816106368
 21
0.1377957385427635
 31
0.0
  0
LINE
  5
2AF2
330
2ACF
100
AcDbEntity
  8
TEXT
100
AcDbLine
 10
0.6460464485221566
 20
0.1381752019369742
 30
0.0
 11
0.6420592224051234
 21
0.1387443933163013
 31
0.0
  0
LINE
  5
2AF3
330
2ACF
100
AcDbEntity
  8
TEXT
100
AcDbLine
 10
0.6418693571772565
 20
0.1414006333637872
 30
0.0
 11
0.6420592224051234
 21
0.1387443933163013
 31
0.0
  0
ARC
  5
2AF4
330
2ACF
100
AcDbEntity
  8
TEXT
100
AcDbCircle
 10
0.6473011271516498
 20
0.1339135251292873
 30
0.0
 40
0.0044425339251008
100
AcDbArc
 50
358.6825606331185
 51
106.4049357729605
  0
LINE
  5
2AF5
330
2ACF
100
AcDbEntity
  8
TEXT
100
AcDbLine
 10
0.7088927465149482
 20
0.1423492881373249
 30
0.0
 11
0.7092724832298245
 21
0.0992803005423184
 31
0.0
  0
LINE
  5
2AF6
330
2ACF
100
AcDbEntity
  8
TEXT
100
AcDbLine
 10
0.6661724568534737
 20
0.1423492881373249
 30
0.0
 11
0.6665521935683501
 21
0.1006084187100669
 31
0.0
  0
LINE
  5
2AF7
330
2ACF
100
AcDbEntity
  8
TEXT
100
AcDbLine
 10
0.6517424867265618
 20
0.1338113840395181
 30
0.0
 11
0.6521222234412109
 21
0.0970035276010322
 31
0.0
  0
LINE
  5
2AF8
330
2ACF
100
AcDbEntity
  8
TEXT
100
AcDbLine
 10
0.684589646838731
 20
0.1414006333637872
 30
0.0
 11
0.7088927465149482
 21
0.1423492881373249
 31
0.0
  0
LINE
  5
2AF9
330
2ACF
100
AcDbEntity
  8
TEXT
100
AcDbLine
 10
0.6418693571772565
 20
0.1414006333637872
 30
0.0
 11
0.6661724568534737
 21
0.1423492881373249
 31
0.0
  0
LINE
  5
2AFA
330
2ACF
100
AcDbEntity
  8
TEXT
100
AcDbLine
 10
0.4885425109850985
 20
0.2003272806867926
 30
0.0
 11
0.4862399061159978
 21
0.1951501561957229
 31
0.0
  0
ARC
  5
2AFB
330
2ACF
100
AcDbEntity
  8
TEXT
100
AcDbCircle
 10
0.4918525031373521
 20
0.2005021771888096
 30
0.0
 40
0.0033146096050657
100
AcDbArc
 50
183.0246359049376
 51
356.9753640950624
  0
LINE
  5
2AFC
330
2ACF
100
AcDbEntity
  8
TEXT
100
AcDbLine
 10
0.496313791465127
 20
0.2092434380888335
 30
0.0
 11
0.4951624952893782
 21
0.2003272806867926
 31
0.0
  0
ARC
  5
2AFD
330
2ACF
100
AcDbEntity
  8
TEXT
100
AcDbCircle
 10
0.4988109495841401
 20
0.2102985005337814
 30
0.0
 40
0.0027108956886284
100
AcDbArc
 50
8.122642540874682
 51
202.9043136183406
  0
LINE
  5
2AFE
330
2ACF
100
AcDbEntity
  8
TEXT
100
AcDbLine
 10
0.4991920506809038
 20
0.1934244492694006
 30
0.0
 11
0.5014946492908621
 21
0.2106815296687046
 31
0.0
  0
ARC
  5
2AFF
330
2ACF
100
AcDbEntity
  8
TEXT
100
AcDbCircle
 10
0.5043707591389648
 20
0.1936455779119797
 30
0.0
 40
0.0051834273575962
100
AcDbArc
 50
182.4450201076279
 51
0.7349407504797644
  0
LINE
  5
2B00
330
2ACF
100
AcDbEntity
  8
TEXT
100
AcDbLine
 10
0.5095537600736863
 20
0.2075177311625111
 30
0.0
 11
0.5095537600736863
 21
0.1937120646158519
 31
0.0
  0
ARC
  5
2B01
330
2ACF
100
AcDbEntity
  8
TEXT
100
AcDbCircle
 10
0.5134500535045845
 20
0.2074576357288151
 30
0.0
 40
0.0038967568515558
100
AcDbArc
 50
179.1163546128548
 51
32.14670843866348
  0
LINE
  5
2B02
330
2ACF
100
AcDbEntity
  8
TEXT
100
AcDbLine
 10
0.5167493924659539
 20
0.2132700900582449
 30
0.0
 11
0.5167493924659539
 21
0.2095310571472737
 31
0.0
  0
ARC
  5
2B03
330
2ACF
100
AcDbEntity
  8
TEXT
100
AcDbCircle
 10
0.5207944008116101
 20
0.212266196681071
 30
0.0
 40
0.0041677205316423
100
AcDbArc
 50
26.60941129939808
 51
166.0619000058136
  0
LINE
  5
2B04
330
2ACF
100
AcDbEntity
  8
TEXT
100
AcDbLine
 10
0.5250963272926584
 20
0.2057920242360751
 30
0.0
 11
0.5245206792048977
 21
0.2141329435214629
 31
0.0
  0
ARC
  5
2B05
330
2ACF
100
AcDbEntity
  8
TEXT
100
AcDbCircle
 10
0.5292037320261898
 20
0.2047215317347764
 30
0.0
 40
0.0042446116241798
100
AcDbArc
 50
165.3922446503704
 51
2.803879044202941
  0
LINE
  5
2B06
330
2ACF
100
AcDbEntity
  8
TEXT
100
AcDbLine
 10
0.5337310861632432
 20
0.2158586541597742
 30
0.0
 11
0.5334432621193628
 21
0.2049291670609818
 31
0.0
  0
ARC
  5
2B07
330
2ACF
100
AcDbEntity
  8
TEXT
100
AcDbCircle
 10
0.5429868176820492
 20
0.1708413209476021
 30
0.0
 40
0.0459589910189613
100
AcDbArc
 50
60.82353397560609
 51
101.6183182656915
  0
ARC
  5
2B08
330
2ACF
100
AcDbEntity
  8
TEXT
100
AcDbCircle
 10
0.5567015362657913
 20
0.2045283375048257
 30
0.0
 40
0.0108169306086954
100
AcDbArc
 50
335.482723053162
 51
36.54383594003247
  0
ARC
  5
2B09
330
2ACF
100
AcDbEntity
  8
TEXT
100
AcDbCircle
 10
0.5689812120597253
 20
0.1965054038954577
 30
0.0
 40
0.0042936023721614
100
AcDbArc
 50
124.5991194751556
 51
24.91162951380696
  0
ARC
  5
2B0A
330
2ACF
100
AcDbEntity
  8
TEXT
100
AcDbCircle
 10
0.5744340790154184
 20
0.2007145463022653
 30
0.0
 40
0.0028622603323745
100
AcDbArc
 50
15.46471151433795
 51
237.0036058083478
  0
ARC
  5
2B0B
330
2ACF
100
AcDbEntity
  8
TEXT
100
AcDbCircle
 10
0.5668323938239155
 20
0.1946658031296238
 30
0.0
 40
0.0123991464268731
100
AcDbArc
 50
331.8837666959797
 51
33.32508059325004
  0
ARC
  5
2B0C
330
2ACF
100
AcDbEntity
  8
TEXT
100
AcDbCircle
 10
0.5805026998418727
 20
0.1857342718863037
 30
0.0
 40
0.0041248198477629
100
AcDbArc
 50
131.5213803610309
 51
48.47861963898742
  0
ARC
  5
2B0D
330
2ACF
100
AcDbEntity
  8
TEXT
100
AcDbCircle
 10
0.5852270063624019
 20
0.1892839868736473
 30
0.0
 40
0.0020427624788038
100
AcDbArc
 50
3.193725348484615
 51
193.0548754998608
  0
ARC
  5
2B0E
330
2ACF
100
AcDbEntity
  8
TEXT
100
AcDbCircle
 10
0.5998235890058368
 20
0.1838046001511202
 30
0.0
 40
0.0137463406747322
100
AcDbArc
 50
155.9906329013464
 51
206.8057304577031
  0
ARC
  5
2B0F
330
2ACF
100
AcDbEntity
  8
TEXT
100
AcDbCircle
 10
0.531497637250368
 20
0.1519675956559467
 30
0.0
 40
0.0616414052150737
100
AcDbArc
 50
344.8914411173277
 51
24.57723374822334
  0
ARC
  5
2B10
330
2ACF
100
AcDbEntity
  8
TEXT
100
AcDbCircle
 10
0.5713174116795017
 20
0.1299998541645664
 30
0.0
 40
0.0205561139560889
100
AcDbArc
 50
300.6537348898064
 51
16.68245916376317
  0
ARC
  5
2B11
330
2ACF
100
AcDbEntity
  8
TEXT
100
AcDbCircle
 10
0.5771229300796678
 20
0.1085771314284329
 30
0.0
 40
0.0059863047496282
100
AcDbArc
 50
253.929088912559
 51
38.65267477511526
  0
ARC
  5
2B12
330
2ACF
100
AcDbEntity
  8
TEXT
100
AcDbCircle
 10
0.55290626136798
 20
0.1129162420160128
 30
0.0
 40
0.0247137360239066
100
AcDbArc
 50
287.19200365074
 51
335.8997504051591
  0
ARC
  5
2B13
330
2ACF
100
AcDbEntity
  8
TEXT
100
AcDbCircle
 10
0.5530153816002894
 20
0.0860538210635014
 30
0.0
 40
0.0078967433078015
100
AcDbArc
 50
244.062951551794
 51
24.32612031264529
  0
ARC
  5
2B14
330
2ACF
100
AcDbEntity
  8
TEXT
100
AcDbCircle
 10
0.5394875952065377
 20
0.0722394877592478
 30
0.0
 40
0.0121056728408856
100
AcDbArc
 50
33.67851647489287
 51
106.5775508010055
  0
ARC
  5
2B15
330
2ACF
100
AcDbEntity
  8
TEXT
100
AcDbCircle
 10
0.53180716662132
 20
0.0862379981637105
 30
0.0
 40
0.0048584364228252
100
AcDbArc
 50
194.8546182240498
 51
330.4510994340777
  0
ARC
  5
2B16
330
2ACF
100
AcDbEntity
  8
TEXT
100
AcDbCircle
 10
0.5216512995827998
 20
0.0912184373178207
 30
0.0
 40
0.0082808398706149
100
AcDbArc
 50
223.030562506127
 51
311.2487591160714
  0
ARC
  5
2B17
330
2ACF
100
AcDbEntity
  8
TEXT
100
AcDbCircle
 10
0.5110000867318833
 20
0.0938487420470438
 30
0.0
 40
0.0094719313498197
100
AcDbArc
 50
214.7934494581951
 51
299.0409507876188
  0
ARC
  5
2B18
330
2ACF
100
AcDbEntity
  8
TEXT
100
AcDbCircle
 10
0.5004063313892857
 20
0.0883623684602526
 30
0.0
 40
0.0028164479504538
100
AcDbArc
 50
1.658272028065365
 51
160.4091839300779
  0
ARC
  5
2B19
330
2ACF
100
AcDbEntity
  8
TEXT
100
AcDbCircle
 10
0.4955098455675399
 20
0.0889609900169717
 30
0.0
 40
0.0022695670229049
100
AcDbArc
 50
156.0593073728596
 51
8.762281217123303
  0
ARC
  5
2B1A
330
2ACF
100
AcDbEntity
  8
TEXT
100
AcDbCircle
 10
0.4771129682178527
 20
0.0844999676122598
 30
0.0
 40
0.017186975796005
100
AcDbArc
 50
18.24878221231477
 51
92.19784172829077
  0
ARC
  5
2B1B
330
2ACF
100
AcDbEntity
  8
TEXT
100
AcDbCircle
 10
0.4676766475972727
 20
0.1039563374071122
 30
0.0
 40
0.0090690068697511
100
AcDbArc
 50
345.4259909574673
 51
72.46181126870755
  0
ARC
  5
2B1C
330
2ACF
100
AcDbEntity
  8
TEXT
100
AcDbCircle
 10
0.4511221670852592
 20
0.1170618620989217
 30
0.0
 40
0.0197958644575986
100
AcDbArc
 50
346.9852122362397
 51
34.01252680043078
  0
ARC
  5
2B1D
330
2ACF
100
AcDbEntity
  8
TEXT
100
AcDbCircle
 10
0.5503050380439163
 20
0.1477520344643608
 30
0.0
 40
0.0850665616105463
100
AcDbArc
 50
153.5374647244141
 51
193.3327646348758
  0
ARC
  5
2B1E
330
2ACF
100
AcDbEntity
  8
TEXT
100
AcDbCircle
 10
0.478464109649167
 20
0.1878581052482104
 30
0.0
 40
0.0048412712863243
100
AcDbArc
 50
103.7022990326951
 51
207.0193065629325
  0
ARC
  5
2B1F
330
2ACF
100
AcDbEntity
  8
TEXT
100
AcDbCircle
 10
0.4812421817773611
 20
0.1957049173495306
 30
0.0
 40
0.0050284200800907
100
AcDbArc
 50
218.6904014524302
 51
353.6659411500727
  0
ARC
  5
2B20
330
2ACF
100
AcDbEntity
  8
TEXT
100
AcDbCircle
 10
0.4911858196519461
 20
0.1882108137963314
 30
0.0
 40
0.0270264220071217
100
AcDbArc
 50
120.6947626763508
 51
155.9971516553445
  0
LINE
  5
2B21
330
2ACF
100
AcDbEntity
  8
TEXT
100
AcDbLine
 10
0.4666910229846053
 20
0.2137834020119271
 30
0.0
 11
0.4664965010983906
 21
0.1992046773513039
 31
0.0
  0
LINE
  5
2B22
330
2ACF
100
AcDbEntity
  8
TEXT
100
AcDbLine
 10
0.4777788393482753
 20
0.2170879124399789
 30
0.0
 11
0.4773897955758457
 21
0.2114508053238069
 31
0.0
  0
ARC
  5
2B23
330
2ACF
100
AcDbEntity
  8
TEXT
100
AcDbCircle
 10
0.4728042071128585
 20
0.2135255324761829
 30
0.0
 40
0.006118620505018
100
AcDbArc
 50
35.6067999534562
 51
177.5845513854532
  0
ARC
  5
2B24
330
2ACF
100
AcDbEntity
  8
TEXT
100
AcDbCircle
 10
0.4919465392526945
 20
0.2324408385705965
 30
0.0
 40
0.0042546046784838
100
AcDbArc
 50
318.2823815987287
 51
84.36248438140584
  0
ARC
  5
2B25
330
2ACF
100
AcDbEntity
  8
TEXT
100
AcDbCircle
 10
0.501657967185338
 20
0.2183074015354123
 30
0.0
 40
0.0130557918710497
100
AcDbArc
 50
81.18509483550338
 51
120.0392913824029
  0
ARC
  5
2B26
330
2ACF
100
AcDbEntity
  8
TEXT
100
AcDbCircle
 10
0.5079495087275065
 20
0.2074169692124315
 30
0.0
 40
0.0241758412141215
100
AcDbArc
 50
70.05468846034941
 51
100.2232656721037
  0
ARC
  5
2B27
330
2ACF
100
AcDbEntity
  8
TEXT
100
AcDbCircle
 10
0.5189974349443675
 20
0.2293064035368388
 30
0.0
 40
0.002923174852885
100
AcDbArc
 50
163.37565504646
 51
16.62434495353364
  0
ARC
  5
2B28
330
2ACF
100
AcDbEntity
  8
TEXT
100
AcDbCircle
 10
0.5268527341604568
 20
0.224251639633394
 30
0.0
 40
0.0077621367983977
100
AcDbArc
 50
46.43616582623282
 51
130.6283095026566
  0
ARC
  5
2B29
330
2ACF
100
AcDbEntity
  8
TEXT
100
AcDbCircle
 10
0.5347812571815213
 20
0.2300366287068982
 30
0.0
 40
0.0025841394856484
100
AcDbArc
 50
183.5606974541656
 51
344.4298925613446
  0
ARC
  5
2B2A
330
2ACF
100
AcDbEntity
  8
TEXT
100
AcDbCircle
 10
0.5419388845464255
 20
0.2275610067499656
 30
0.0
 40
0.004996869347646
100
AcDbArc
 50
20.89289471578454
 51
159.1071052842154
  0
ARC
  5
2B2B
330
2ACF
100
AcDbEntity
  8
TEXT
100
AcDbCircle
 10
0.5498252109980513
 20
0.2241016308506687
 30
0.0
 40
0.0061504093318019
100
AcDbArc
 50
24.75773987532971
 51
121.5483884163332
  0
ARC
  5
2B2C
330
2ACF
100
AcDbEntity
  8
TEXT
100
AcDbCircle
 10
0.5596563258184233
 20
0.2244780815682361
 30
0.0
 40
0.0047817599843599
100
AcDbArc
 50
47.61705801860887
 51
152.6179806586021
  0
ARC
  5
2B2D
330
2ACF
100
AcDbEntity
  8
TEXT
100
AcDbCircle
 10
0.5657547672444708
 20
0.2252950257054636
 30
0.0
 40
0.0039545385161583
100
AcDbArc
 50
136.6395135700874
 51
16.38775991618089
  0
ARC
  5
2B2E
330
2ACF
100
AcDbEntity
  8
TEXT
100
AcDbCircle
 10
0.5705040356422161
 20
0.2145878175637108
 30
0.0
 40
0.011861466396926
100
AcDbArc
 50
41.27304036069253
 51
94.61991284103866
  0
ARC
  5
2B2F
330
2ACF
100
AcDbEntity
  8
TEXT
100
AcDbCircle
 10
0.584195023139273
 20
0.2219269161267903
 30
0.0
 40
0.0048008019141102
100
AcDbArc
 50
174.1982733486932
 51
308.0634596483682
  0
ARC
  5
2B30
330
2ACF
100
AcDbEntity
  8
TEXT
100
AcDbCircle
 10
0.5906698970920843
 20
0.21615577058094
 30
0.0
 40
0.0040398973740144
100
AcDbArc
 50
296.7794474250757
 51
150.4674482996544
  0
ARC
  5
2B31
330
2ACF
100
AcDbEntity
  8
TEXT
100
AcDbCircle
 10
0.5939572878232866
 20
0.1834516027997779
 30
0.0
 40
0.029134525958152
100
AcDbArc
 50
78.64671940114587
 51
92.8865786316483
  0
ARC
  5
2B32
330
2ACF
100
AcDbEntity
  8
TEXT
100
AcDbCircle
 10
0.5901719062683242
 20
0.2003307785309971
 30
0.0
 40
0.0150728087596182
100
AcDbArc
 50
356.7791343814143
 51
50.82801334298324
  0
ARC
  5
2B33
330
2ACF
100
AcDbEntity
  8
TEXT
100
AcDbCircle
 10
0.6084355457442145
 20
0.1893365310753552
 30
0.0
 40
0.0106443991857602
100
AcDbArc
 50
51.01090143871619
 51
107.577946053111
  0
ARC
  5
2B34
330
2ACF
100
AcDbEntity
  8
TEXT
100
AcDbCircle
 10
0.5619064812847228
 20
0.1519591184504634
 30
0.0
 40
0.0701216054546267
100
AcDbArc
 50
317.9732863042299
 51
40.61894937559315
  0
ARC
  5
2B35
330
2ACF
100
AcDbEntity
  8
TEXT
100
AcDbCircle
 10
0.5987275416241573
 20
0.0994835584525618
 30
0.0
 40
0.0162384678562566
100
AcDbArc
 50
330.1916644163847
 51
19.91318758187606
  0
ARC
  5
2B36
330
2ACF
100
AcDbEntity
  8
TEXT
100
AcDbCircle
 10
0.6822536186325579
 20
0.0907645127526848
 30
0.0
 40
0.0694390831529078
100
AcDbArc
 50
179.4662202071271
 51
190.5890997840359
  0
ARC
  5
2B37
330
2ACF
100
AcDbEntity
  8
TEXT
100
AcDbCircle
 10
0.6081121350032391
 20
0.0752154525787319
 30
0.0
 40
0.0065122051726018
100
AcDbArc
 50
282.9712622283101
 51
25.35441378640084
  0
ARC
  5
2B38
330
2ACF
100
AcDbEntity
  8
TEXT
100
AcDbCircle
 10
0.6176374301362558
 20
0.0764262113031009
 30
0.0
 40
0.0110510600753118
100
AcDbArc
 50
169.46848675732
 51
223.1418439421435
  0
ARC
  5
2B39
330
2ACF
100
AcDbEntity
  8
TEXT
100
AcDbCircle
 10
0.5926487116171302
 20
0.0843394156589739
 30
0.0
 40
0.0153040394920136
100
AcDbArc
 50
337.3510782224585
 51
22.64892177754151
  0
ARC
  5
2B3A
330
2ACF
100
AcDbEntity
  8
TEXT
100
AcDbCircle
 10
0.6023493465452248
 20
0.0796210747533905
 30
0.0
 40
0.0114966155009625
100
AcDbArc
 50
67.37252950713126
 51
112.6274704928687
  0
ARC
  5
2B3B
330
2ACF
100
AcDbEntity
  8
TEXT
100
AcDbCircle
 10
0.5529129957080841
 20
0.1302653984744211
 30
0.0
 40
0.0602395077444444
100
AcDbArc
 50
311.6071689301088
 51
318.3515702307968
  0
ARC
  5
2B3C
330
2ACF
100
AcDbEntity
  8
TEXT
100
AcDbCircle
 10
0.5928803511767457
 20
0.0832226312303419
 30
0.0
 40
0.0020010528784941
100
AcDbArc
 50
89.05883162362076
 51
223.9137905962946
  0
ARC
  5
2B3D
330
2ACF
100
AcDbEntity
  8
TEXT
100
AcDbCircle
 10
0.5756713075884364
 20
0.079556926498185
 30
0.0
 40
0.0159311978754768
100
AcDbArc
 50
322.6907301981563
 51
8.220255073940084
  0
ARC
  5
2B3E
330
2ACF
100
AcDbEntity
  8
TEXT
100
AcDbCircle
 10
0.5908540594059561
 20
0.0668161993659169
 30
0.0
 40
0.0039776825606946
100
AcDbArc
 50
129.1527393458029
 51
254.8870408388443
  0
ARC
  5
2B3F
330
2ACF
100
AcDbEntity
  8
TEXT
100
AcDbCircle
 10
0.5906925220228914
 20
0.0614631686590883
 30
0.0
 40
0.0017479970980352
100
AcDbArc
 50
312.7998628402748
 51
120.0581864533371
  0
ARC
  5
2B40
330
2ACF
100
AcDbEntity
  8
TEXT
100
AcDbCircle
 10
0.5963635531579712
 20
0.0637157355334921
 30
0.0
 40
0.0057094445557175
100
AcDbArc
 50
218.2556843178719
 51
317.6564247238784
  0
ARC
  5
2B41
330
2ACF
100
AcDbEntity
  8
TEXT
100
AcDbCircle
 10
0.6036660320187366
 20
0.0576135500335795
 30
0.0
 40
0.0038201416761748
100
AcDbArc
 50
48.87596376794371
 51
143.7953529790098
  0
ARC
  5
2B42
330
2ACF
100
AcDbEntity
  8
TEXT
100
AcDbCircle
 10
0.6090141028059862
 20
0.0611946303023387
 30
0.0
 40
0.0029215410160087
100
AcDbArc
 50
193.9319034609801
 51
333.0378283509347
  0
ARC
  5
2B43
330
2ACF
100
AcDbEntity
  8
TEXT
100
AcDbCircle
 10
0.6212801663150458
 20
0.0474117161239747
 30
0.0
 40
0.01576592812662
100
AcDbArc
 50
99.17143729879198
 51
127.7955283291012
  0
ARC
  5
2B44
330
2ACF
100
AcDbEntity
  8
TEXT
100
AcDbCircle
 10
0.6181381213677925
 20
0.0557867376535342
 30
0.0
 40
0.0072168270272462
100
AcDbArc
 50
341.5477100758327
 51
84.99888070833511
  0
ARC
  5
2B45
330
2ACF
100
AcDbEntity
  8
TEXT
100
AcDbCircle
 10
0.6184482928317721
 20
0.0553351686734232
 30
0.0
 40
0.0067877092432109
100
AcDbArc
 50
222.9877626572331
 51
344.3358851615615
  0
ARC
  5
2B46
330
2ACF
100
AcDbEntity
  8
TEXT
100
AcDbCircle
 10
0.6114221698205711
 20
0.0493714902790998
 30
0.0
 40
0.002455815501267
100
AcDbArc
 50
32.94435831946309
 51
185.0814072168601
  0
LINE
  5
2B47
330
2ACF
100
AcDbEntity
  8
TEXT
100
AcDbLine
 10
0.6088205900482535
 20
0.0177824334914476
 30
0.0
 11
0.6089760060190203
 21
0.0491539760683963
 31
0.0
  0
ARC
  5
2B48
330
2ACF
100
AcDbEntity
  8
TEXT
100
AcDbCircle
 10
0.6042720514074063
 20
0.0169367334788149
 30
0.0
 40
0.0046264902764816
100
AcDbArc
 50
177.2189023070841
 51
10.53261226458054
  0
LINE
  5
2B49
330
2ACF
100
AcDbEntity
  8
TEXT
100
AcDbLine
 10
0.5985630921616121
 20
0.0480668439562351
 30
0.0
 11
0.599651010216121
 21
0.0171612119598876
 31
0.0
  0
ARC
  5
2B4A
330
2ACF
100
AcDbEntity
  8
TEXT
100
AcDbCircle
 10
0.595830107225993
 20
0.0498314806355893
 30
0.0
 40
0.0032531752594657
100
AcDbArc
 50
327.1504341221662
 51
80.13862259361699
  0
LINE
  5
2B4B
330
2ACF
100
AcDbEntity
  8
TEXT
100
AcDbLine
 10
0.5890511978727773
 20
0.0541571928289386
 30
0.0
 11
0.5963872623110547
 21
0.0530365902249059
 31
0.0
  0
ARC
  5
2B4C
330
2ACF
100
AcDbEntity
  8
TEXT
100
AcDbCircle
 10
0.5850677197950063
 20
0.0742680434528893
 30
0.0
 40
0.0116887885403164
100
AcDbArc
 50
156.288597549799
 51
210.2571046136469
  0
ARC
  5
2B4D
330
2ACF
100
AcDbEntity
  8
TEXT
100
AcDbCircle
 10
0.5767449847771787
 20
0.0781110027180603
 30
0.0
 40
0.0025291048910612
100
AcDbArc
 50
31.2309986407698
 51
160.1819529381847
  0
LINE
  5
2B4E
330
2ACF
100
AcDbEntity
  8
TEXT
100
AcDbLine
 10
0.5787561838440071
 20
0.0679244186068218
 30
0.0
 11
0.5789075815694105
 21
0.0794223175792013
 31
0.0
  0
ARC
  5
2B4F
330
2ACF
100
AcDbEntity
  8
TEXT
100
AcDbCircle
 10
0.5767400405682112
 20
0.0671199361623849
 30
0.0
 40
0.0021707200906834
100
AcDbArc
 50
144.5711585108377
 51
21.75301147886861
  0
ARC
  5
2B50
330
2ACF
100
AcDbEntity
  8
TEXT
100
AcDbCircle
 10
0.5881533001515891
 20
0.0526005883101561
 30
0.0
 40
0.0017970080539249
100
AcDbArc
 50
60.02231951668117
 51
227.1694577924219
  0
LINE
  5
2B51
330
2ACF
100
AcDbEntity
  8
TEXT
100
AcDbLine
 10
0.5875816967134142
 20
0.0353993523000327
 30
0.0
 11
0.5869316359769528
 21
0.0512827208698354
 31
0.0
  0
ARC
  5
2B52
330
2ACF
100
AcDbEntity
  8
TEXT
100
AcDbCircle
 10
0.5836281268586845
 20
0.0336901428504461
 30
0.0
 40
0.0043072162168147
100
AcDbArc
 50
165.6416373020926
 51
23.37981978602386
  0
LINE
  5
2B53
330
2ACF
100
AcDbEntity
  8
TEXT
100
AcDbLine
 10
0.5773169697401955
 20
0.0524949153981425
 30
0.0
 11
0.5794554524400155
 21
0.0347582719317643
 31
0.0
  0
ARC
  5
2B54
330
2ACF
100
AcDbEntity
  8
TEXT
100
AcDbCircle
 10
0.5728669602697211
 20
0.0519112616306075
 30
0.0
 40
0.0044881216571036
100
AcDbArc
 50
7.472141028413169
 51
164.164029329165
  0
LINE
  5
2B55
330
2ACF
100
AcDbEntity
  8
TEXT
100
AcDbLine
 10
0.5687630264233122
 20
0.0499305827894432
 30
0.0
 11
0.5685491769015698
 21
0.0531359994782861
 31
0.0
  0
ARC
  5
2B56
330
2ACF
100
AcDbEntity
  8
TEXT
100
AcDbCircle
 10
0.5655894664139396
 20
0.0504032763022906
 30
0.0
 40
0.0032085701317223
100
AcDbArc
 50
208.706819647669
 51
351.5282258973487
  0
LINE
  5
2B57
330
2ACF
100
AcDbEntity
  8
TEXT
100
AcDbLine
 10
0.5608506316718831
 20
0.0533496954091106
 30
0.0
 11
0.5627752648497335
 21
0.0488621105597531
 31
0.0
  0
LINE
  5
2B58
330
2ACF
100
AcDbEntity
  8
TEXT
100
AcDbLine
 10
0.5625614153279912
 20
0.0360404363801763
 30
0.0
 11
0.5608506316718831
 21
0.0533496954091106
 31
0.0
  0
ARC
  5
2B59
330
2ACF
100
AcDbEntity
  8
TEXT
100
AcDbCircle
 10
0.5582756174901533
 20
0.0358376614799454
 30
0.0
 40
0.0042905921231403
100
AcDbArc
 50
185.8633287467234
 51
2.708827809510166
  0
LINE
  5
2B5A
330
2ACF
100
AcDbEntity
  8
TEXT
100
AcDbLine
 10
0.553152080183054
 20
0.0563414161673563
 30
0.0
 11
0.5540074720111079
 21
0.0353993523000327
 31
0.0
  0
ARC
  5
2B5B
330
2ACF
100
AcDbEntity
  8
TEXT
100
AcDbCircle
 10
0.5497289509951317
 20
0.0566453864233836
 30
0.0
 40
0.0034365988060144
100
AcDbArc
 50
354.9255052590695
 51
174.3705062402905
  0
LINE
  5
2B5C
330
2ACF
100
AcDbEntity
  8
TEXT
100
AcDbLine
 10
0.5463089267814212
 20
0.0495031909280215
 30
0.0
 11
0.5463089267814212
 21
0.0569825002475
 31
0.0
  0
ARC
  5
2B5D
330
2ACF
100
AcDbEntity
  8
TEXT
100
AcDbCircle
 10
0.5438043559836389
 20
0.0485496313053773
 30
0.0
 40
0.0026799535135301
100
AcDbArc
 50
168.6772178130464
 51
20.84321825743645
  0
LINE
  5
2B5E
330
2ACF
100
AcDbEntity
  8
TEXT
100
AcDbLine
 10
0.5390380743360767
 20
0.0601879206483318
 30
0.0
 11
0.5411765632948118
 21
0.049075802778475
 31
0.0
  0
ARC
  5
2B5F
330
2ACF
100
AcDbEntity
  8
TEXT
100
AcDbCircle
 10
0.5357330979295512
 20
0.0623853565492709
 30
0.0
 40
0.0039688277346318
100
AcDbArc
 50
177.7877751662257
 51
326.3805826419396
  0
ARC
  5
2B60
330
2ACF
100
AcDbEntity
  8
TEXT
100
AcDbCircle
 10
0.5295389818534204
 20
0.0627522532571447
 30
0.0
 40
0.0022384699035009
100
AcDbArc
 50
354.5219056877814
 51
214.9448543763857
  0
LINE
  5
2B61
330
2ACF
100
AcDbEntity
  8
TEXT
100
AcDbLine
 10
0.5281317987978582
 20
0.0535633876278325
 30
0.0
 11
0.5277040997541464
 21
0.0614700850967438
 31
0.0
  0
ARC
  5
2B62
330
2ACF
100
AcDbEntity
  8
TEXT
100
AcDbCircle
 10
0.5231447375613243
 20
0.0516332444566388
 30
0.0
 40
0.005347544524175
100
AcDbArc
 50
170.7272794785962
 51
21.15794103948756
  0
LINE
  5
2B63
330
2ACF
100
AcDbEntity
  8
TEXT
100
AcDbLine
 10
0.5174393727811549
 20
0.0657439777272657
 30
0.0
 11
0.5178670718246396
 21
0.0524949153981425
 31
0.0
  0
LINE
  5
2B64
330
2ACF
100
AcDbEntity
  8
TEXT
100
AcDbLine
 10
0.5110239121640916
 20
0.0698041744270768
 30
0.0
 11
0.5174393727811549
 21
0.0657439777272657
 31
0.0
  0
ARC
  5
2B65
330
2ACF
100
AcDbEntity
  8
TEXT
100
AcDbCircle
 10
0.5086345945044286
 20
0.0695803503368779
 30
0.0
 40
0.002399778344256
100
AcDbArc
 50
5.351678383090527
 51
195.2435488026407
  0
LINE
  5
2B66
330
2ACF
100
AcDbEntity
  8
TEXT
100
AcDbLine
 10
0.5056776991557399
 20
0.0480073305488986
 30
0.0
 11
0.5063192477209669
 21
0.0689493944161086
 31
0.0
  0
ARC
  5
2B67
330
2ACF
100
AcDbEntity
  8
TEXT
100
AcDbCircle
 10
0.5016476225112001
 20
0.0462142458537755
 30
0.0
 40
0.0044109716032707
100
AcDbArc
 50
167.7181143692755
 51
23.98551077365516
  0
LINE
  5
2B68
330
2ACF
100
AcDbEntity
  8
TEXT
100
AcDbLine
 10
0.4954129721827485
 20
0.0736506751960633
 30
0.0
 11
0.4973376053605989
 21
0.0471525542499194
 31
0.0
  0
ARC
  5
2B69
330
2ACF
100
AcDbEntity
  8
TEXT
100
AcDbCircle
 10
0.4908839721697406
 20
0.0730458159597447
 30
0.0
 40
0.0045692117277341
100
AcDbArc
 50
7.606980527162057
 51
103.0413594591615
  0
ARC
  5
2B6A
330
2ACF
100
AcDbEntity
  8
TEXT
100
AcDbCircle
 10
0.4879282733452328
 20
0.0733333284564424
 30
0.0
 40
0.0045871397397809
100
AcDbArc
 50
65.192418430101
 51
139.0508106988851
  0
LINE
  5
2B6B
330
2ACF
100
AcDbEntity
  8
TEXT
100
AcDbLine
 10
0.4844636475909283
 20
0.0705634055938163
 30
0.0
 11
0.4844636475909283
 21
0.0763396916039483
 31
0.0
  0
ARC
  5
2B6C
330
2ACF
100
AcDbEntity
  8
TEXT
100
AcDbCircle
 10
0.4818957159227466
 20
0.0698729302805532
 30
0.0
 40
0.0026591406901881
100
AcDbArc
 50
168.3169857564329
 51
15.04995211451383
  0
LINE
  5
2B6D
330
2ACF
100
AcDbEntity
  8
TEXT
100
AcDbLine
 10
0.4785310836914505
 20
0.0774037429224563
 30
0.0
 11
0.4792916649550989
 21
0.0704113982626495
 31
0.0
  0
ARC
  5
2B6E
330
2ACF
100
AcDbEntity
  8
TEXT
100
AcDbCircle
 10
0.4774833948265497
 20
0.0783257461321227
 30
0.0
 40
0.0013956152320936
100
AcDbArc
 50
318.6510821797521
 51
186.6644145786454
  0
LINE
  5
2B6F
330
2ACF
100
AcDbEntity
  8
TEXT
100
AcDbLine
 10
0.4754887398598841
 20
0.0728435155621128
 30
0.0
 11
0.4760972098779348
 21
0.078163779578631
 31
0.0
  0
ARC
  5
2B70
330
2ACF
100
AcDbEntity
  8
TEXT
100
AcDbCircle
 10
0.4717317264728537
 20
0.0718497045212416
 30
0.0
 40
0.0038862333918336
100
AcDbArc
 50
172.0457056516376
 51
14.8166101479363
  0
LINE
  5
2B71
330
2ACF
100
AcDbEntity
  8
TEXT
100
AcDbLine
 10
0.4669701846426051
 20
0.085156127950313
 30
0.0
 11
0.4678828834107664
 21
0.072387493568499
 31
0.0
  0
ARC
  5
2B72
330
2ACF
100
AcDbEntity
  8
TEXT
100
AcDbCircle
 10
0.4679738549375543
 20
0.0944587297497037
 30
0.0
 40
0.0093565888174684
100
AcDbArc
 50
209.3802246625999
 51
263.8421008682746
  0
ARC
  5
2B73
330
2ACF
100
AcDbEntity
  8
TEXT
100
AcDbCircle
 10
0.4562572838565302
 20
0.0887332196003854
 30
0.0
 40
0.0037398313344633
100
AcDbArc
 50
17.66955929970605
 51
146.8111142491862
  0
ARC
  5
2B74
330
2ACF
100
AcDbEntity
  8
TEXT
100
AcDbCircle
 10
0.4516533385740332
 20
0.0898090718097819
 30
0.0
 40
0.0017654261761494
100
AcDbArc
 50
192.9866902548936
 51
33.3806313974108
  0
LINE
  5
2B75
330
2ACF
100
AcDbEntity
  8
TEXT
100
AcDbLine
 10
0.449933067948905
 20
0.0948846082840191
 30
0.0
 11
0.449933067948905
 21
0.0894123369363342
 31
0.0
  0
ARC
  5
2B76
330
2ACF
100
AcDbEntity
  8
TEXT
100
AcDbCircle
 10
0.4487690423125061
 20
0.0954602114853742
 30
0.0
 40
0.0012985664123566
100
AcDbArc
 50
333.6879001367247
 51
192.0722457553324
  0
ARC
  5
2B77
330
2ACF
100
AcDbEntity
  8
TEXT
100
AcDbCircle
 10
0.4429123256607001
 20
0.0613019254395795
 30
0.0
 40
0.0050879842727721
100
AcDbArc
 50
225.9317407159922
 51
327.3216812937177
  0
LINE
  5
2B78
330
2ACF
100
AcDbEntity
  8
TEXT
100
AcDbLine
 10
0.4474991941356167
 20
0.0951886229464663
 30
0.0
 11
0.4471949591265913
 21
0.0585548115799384
 31
0.0
  0
ARC
  5
2B79
330
2ACF
100
AcDbEntity
  8
TEXT
100
AcDbCircle
 10
1.197570421618365
 20
0.080814505194553
 30
0.0
 40
0.7585507618268636
100
AcDbArc
 50
178.0464319449981
 51
181.7502526685566
  0
ARC
  5
2B7A
330
2ACF
100
AcDbEntity
  8
TEXT
100
AcDbCircle
 10
0.4312684866924883
 20
0.1044518372567609
 30
0.0
 40
0.0084878856411158
100
AcDbArc
 50
15.17145974978885
 51
87.54918714296978
  0
ARC
  5
2B7B
330
2ACF
100
AcDbEntity
  8
TEXT
100
AcDbCircle
 10
0.6134824203998051
 20
0.1509024981259017
 30
0.0
 40
0.1857728175662141
100
AcDbArc
 50
175.4121316267021
 51
191.7939289657111
  0
ARC
  5
2B7C
330
2ACF
100
AcDbEntity
  8
TEXT
100
AcDbCircle
 10
0.4721090947907669
 20
0.1652561964762071
 30
0.0
 40
0.043807166542148
100
AcDbArc
 50
117.3222180892427
 51
179.3383492613226
  0
ARC
  5
2B7D
330
2ACF
100
AcDbEntity
  8
TEXT
100
AcDbCircle
 10
0.4482195314333241
 20
0.2082341368773086
 30
0.0
 40
0.0055473276642945
100
AcDbArc
 50
312.9867785858936
 51
66.99118422927269
  0
ARC
  5
2B7E
330
2ACF
100
AcDbEntity
  8
TEXT
100
AcDbCircle
 10
0.4476372591409472
 20
0.2147847067730026
 30
0.0
 40
0.0031068314309078
100
AcDbArc
 50
332.2921775479063
 51
119.5678571759908
  0
ARC
  5
2B7F
330
2ACF
100
AcDbEntity
  8
TEXT
100
AcDbCircle
 10
0.4489651535202485
 20
0.212770798356928
 30
0.0
 40
0.0055160829186303
100
AcDbArc
 50
121.2424246402117
 51
213.4732397083701
  0
ARC
  5
2B80
330
2ACF
100
AcDbEntity
  8
TEXT
100
AcDbCircle
 10
0.4431152231097714
 20
0.2086053764707003
 30
0.0
 40
0.0016794449602126
100
AcDbArc
 50
201.5154657473928
 51
41.96660508022902
  0
ARC
  5
2B81
330
2ACF
100
AcDbEntity
  8
TEXT
100
AcDbCircle
 10
0.4431580214525185
 20
0.2140364282064411
 30
0.0
 40
0.0062564236013813
100
AcDbArc
 50
160.2627782819622
 51
255.1333022011723
  0
ARC
  5
2B82
330
2ACF
100
AcDbEntity
  8
TEXT
100
AcDbCircle
 10
0.4358813500127782
 20
0.2173220995579186
 30
0.0
 40
0.0018170144316877
100
AcDbArc
 50
124.2167745950233
 51
319.7988197133682
  0
ARC
  5
2B83
330
2ACF
100
AcDbEntity
  8
TEXT
100
AcDbCircle
 10
0.4319912301473324
 20
0.2189878790243256
 30
0.0
 40
0.002873008797374
100
AcDbArc
 50
356.7423630506748
 51
136.5172760690086
  0
ARC
  5
2B84
330
2ACF
100
AcDbEntity
  8
TEXT
100
AcDbCircle
 10
0.4306763563090499
 20
0.2247372554173808
 30
0.0
 40
0.0038500849152973
100
AcDbArc
 50
116.3151684036778
 51
258.4674100382146
  0
ARC
  5
2B85
330
2ACF
100
AcDbEntity
  8
TEXT
100
AcDbCircle
 10
0.4310164724870448
 20
0.2262299197974471
 30
0.0
 40
0.0028328826466146
100
AcDbArc
 50
348.1206509806802
 51
136.2651890953851
  0
ARC
  5
2B86
330
2ACF
100
AcDbEntity
  8
TEXT
100
AcDbCircle
 10
0.4356247196542428
 20
0.2249335812728077
 30
0.0
 40
0.0019696853667963
100
AcDbArc
 50
158.7719549350953
 51
25.46716058584323
  0
ARC
  5
2B87
330
2ACF
100
AcDbEntity
  8
TEXT
100
AcDbCircle
 10
0.4426952404589885
 20
0.2253359437867175
 30
0.0
 40
0.0053108677866685
100
AcDbArc
 50
32.48569494743708
 51
175.1979664789352
  0
ARC
  5
2B88
330
2ACF
100
AcDbEntity
  8
TEXT
100
AcDbCircle
 10
0.449367094514173
 20
0.2272089662106964
 30
0.0
 40
0.0024008472071038
100
AcDbArc
 50
155.9249042338251
 51
10.66497725508589
  0
ARC
  5
2B89
330
2ACF
100
AcDbEntity
  8
TEXT
100
AcDbCircle
 10
0.4595330091106007
 20
0.2291755518652963
 30
0.0
 40
0.0079535755961604
100
AcDbArc
 50
109.4580308571263
 51
191.0341765877028
  0
LINE
  5
2B8A
330
2ACF
100
AcDbEntity
  8
TEXT
100
AcDbLine
 10
0.823161949872883
 20
0.1204209679841597
 30
0.0
 11
0.8730799358377224
 21
0.1204209679841597
 31
0.0
  0
ARC
  5
2B8B
330
2ACF
100
AcDbEntity
  8
TEXT
100
AcDbCircle
 10
0.8504051669071941
 20
0.121475360715408
 30
0.0
 40
0.0226992706950099
100
AcDbArc
 50
357.3376237443686
 51
85.63084243886223
  0
ARC
  5
2B8C
330
2ACF
100
AcDbEntity
  8
TEXT
100
AcDbCircle
 10
0.8433290101233977
 20
0.1021197268413516
 30
0.0
 40
0.042902292572092
100
AcDbArc
 50
78.15621523984908
 51
106.6122408520423
  0
LINE
  5
2B8D
330
2ACF
100
AcDbEntity
  8
TEXT
100
AcDbLine
 10
0.823161949872883
 20
0.1258102310250706
 30
0.0
 11
0.8558971130112242
 21
0.1258102310250706
 31
0.0
  0
ARC
  5
2B8E
330
2ACF
100
AcDbEntity
  8
TEXT
100
AcDbCircle
 10
0.8391112853869342
 20
0.1226951454831351
 30
0.0
 40
0.016250694178188
100
AcDbArc
 50
103.9179608006055
 51
168.9486088950459
  0
ARC
  5
2B8F
330
2ACF
100
AcDbEntity
  8
TEXT
100
AcDbCircle
 10
0.8428503639729568
 20
0.1262223199003074
 30
0.0
 40
0.013053255444813
100
AcDbArc
 50
358.1908821763595
 51
69.74957583403583
  0
ARC
  5
2B90
330
2ACF
100
AcDbEntity
  8
TEXT
100
AcDbCircle
 10
0.8412854385546777
 20
0.0889290150928446
 30
0.0
 40
0.0499117885588133
100
AcDbArc
 50
82.99970676550804
 51
97.00029323447822
  0
ARC
  5
2B91
330
2ACF
100
AcDbEntity
  8
TEXT
100
AcDbCircle
 10
0.840925286154288
 20
0.1138287596046439
 30
0.0
 40
0.0310123511312591
100
AcDbArc
 50
108.5416613320864
 51
149.7652339536249
  0
ARC
  5
2B92
330
2ACF
100
AcDbEntity
  8
TEXT
100
AcDbCircle
 10
0.8411237706372958
 20
0.1128840409356826
 30
0.0
 40
0.0316676446238821
100
AcDbArc
 50
148.4692011102813
 51
195.5802361373353
  0
ARC
  5
2B93
330
2ACF
100
AcDbEntity
  8
TEXT
100
AcDbCircle
 10
0.8405379706782696
 20
0.1119405019300075
 30
0.0
 40
0.030859099473063
100
AcDbArc
 50
194.1847393568196
 51
248.6586767321129
  0
ARC
  5
2B94
330
2ACF
100
AcDbEntity
  8
TEXT
100
AcDbCircle
 10
0.8532135237890088
 20
0.1200516865231975
 30
0.0
 40
0.0300538427431432
100
AcDbArc
 50
179.2959701761242
 51
227.5915484940839
  0
ARC
  5
2B95
330
2ACF
100
AcDbEntity
  8
TEXT
100
AcDbCircle
 10
0.8466593285904764
 20
0.1147018188183893
 30
0.0
 40
0.0217184457481141
100
AcDbArc
 50
230.8416488637678
 51
280.5326941523476
  0
ARC
  5
2B96
330
2ACF
100
AcDbEntity
  8
TEXT
100
AcDbCircle
 10
0.8494977095031115
 20
0.1205865071816561
 30
0.0
 40
0.0272606946411978
100
AcDbArc
 50
272.379209845887
 51
327.3581874363142
  0
ARC
  5
2B97
330
2ACF
100
AcDbEntity
  8
TEXT
100
AcDbCircle
 10
0.8414386214130898
 20
0.1263108549284198
 30
0.0
 40
0.044787579795778
100
AcDbArc
 50
254.2847830849336
 51
294.1819270465984
  0
ARC
  5
2B98
330
2ACF
100
AcDbEntity
  8
TEXT
100
AcDbCircle
 10
0.8450742975653611
 20
0.1151880834153189
 30
0.0
 40
0.0331747059424372
100
AcDbArc
 50
296.3233923707214
 51
339.8348331475768
  0
ARC
  5
2B99
330
2ACF
100
AcDbEntity
  8
TEXT
100
AcDbCircle
 10
0.8739711528639871
 20
0.1041761132478314
 30
0.0
 40
0.0022840825313628
100
AcDbArc
 50
349.2952029716978
 51
131.6626905469281
  0
ARC
  5
2B9A
330
2ACF
100
AcDbEntity
  8
TEXT
100
AcDbCircle
 10
0.5151122291104003
 20
0.3749765315777722
 30
0.0
 40
0.0032413431112117
100
AcDbArc
 50
305.0065695459049
 51
188.3798152009832
  0
ARC
  5
2B9B
330
2ACF
100
AcDbEntity
  8
TEXT
100
AcDbCircle
 10
0.5083377434407339
 20
0.3741770339362347
 30
0.0
 40
0.0035827133052207
100
AcDbArc
 50
183.0745908828776
 51
5.238726745828209
  0
ARC
  5
2B9C
330
2ACF
100
AcDbEntity
  8
TEXT
100
AcDbCircle
 10
0.5014759286727895
 20
0.3732061805106923
 30
0.0
 40
0.0033753095005639
100
AcDbArc
 50
13.33841226381842
 51
197.9246330182908
  0
ARC
  5
2B9D
330
2ACF
100
AcDbEntity
  8
TEXT
100
AcDbCircle
 10
0.4965426769363149
 20
0.3760123957305268
 30
0.0
 40
0.0042129178709217
100
AcDbArc
 50
191.7667831442077
 51
294.1224948725055
  0
ARC
  5
2B9E
330
2ACF
100
AcDbEntity
  8
TEXT
100
AcDbCircle
 10
0.4884999361347582
 20
0.3701794450279294
 30
0.0
 40
0.0063318520417493
100
AcDbArc
 50
51.76909225769346
 51
154.089001225439
  0
ARC
  5
2B9F
330
2ACF
100
AcDbEntity
  8
TEXT
100
AcDbCircle
 10
0.4789249188747819
 20
0.3744887608062299
 30
0.0
 40
0.0041750575910072
100
AcDbArc
 50
179.7887253899368
 51
338.3185482084487
  0
ARC
  5
2BA0
330
2ACF
100
AcDbEntity
  8
TEXT
100
AcDbCircle
 10
0.4720211025442042
 20
0.3754856346829456
 30
0.0
 40
0.0028999274997204
100
AcDbArc
 50
340.2175703033563
 51
119.5111127021394
  0
ARC
  5
2BA1
330
2ACF
100
AcDbEntity
  8
TEXT
100
AcDbCircle
 10
0.468154393581699
 20
0.3772752675915854
 30
0.0
 40
0.0025463291170122
100
AcDbArc
 50
208.455329117094
 51
16.75507449313859
  0
ARC
  5
2BA2
330
2ACF
100
AcDbEntity
  8
TEXT
100
AcDbCircle
 10
0.463132756260393
 20
0.3756922879356352
 30
0.0
 40
0.0028073850268545
100
AcDbArc
 50
7.567610287757633
 51
183.0538693842455
  0
ARC
  5
2BA3
330
2ACF
100
AcDbEntity
  8
TEXT
100
AcDbCircle
 10
0.4568143201647672
 20
0.3751597981397481
 30
0.0
 40
0.0035358342972235
100
AcDbArc
 50
151.610876507053
 51
6.217261201770662
  0
ARC
  5
2BA4
330
2ACF
100
AcDbEntity
  8
TEXT
100
AcDbCircle
 10
0.4509501984173312
 20
0.3766812027780588
 30
0.0
 40
0.0027581402004757
100
AcDbArc
 50
3.320051391020553
 51
168.5145862198317
  0
ARC
  5
2BA5
330
2ACF
100
AcDbEntity
  8
TEXT
100
AcDbCircle
 10
0.444860029934489
 20
0.3759247167289459
 30
0.0
 40
0.0036301969443912
100
AcDbArc
 50
181.9314217622459
 51
21.08009584439518
  0
ARC
  5
2BA6
330
2ACF
100
AcDbEntity
  8
TEXT
100
AcDbCircle
 10
0.4371144281785746
 20
0.3731349506876995
 30
0.0
 40
0.0049059807090567
100
AcDbArc
 50
32.93635467158921
 51
189.5430854165175
  0
ARC
  5
2BA7
330
2ACF
100
AcDbEntity
  8
TEXT
100
AcDbCircle
 10
0.5129493443366755
 20
0.3542384096100477
 30
0.0
 40
0.0045934545645173
100
AcDbArc
 50
146.5485285753478
 51
33.45147142465209
  0
ARC
  5
2BA8
330
2ACF
100
AcDbEntity
  8
TEXT
100
AcDbCircle
 10
0.5055991282904416
 20
0.3623893877029332
 30
0.0
 40
0.0035619914389439
100
AcDbArc
 50
2.749965920202091
 51
141.7961814814387
  0
LINE
  5
2BA9
330
2ACF
100
AcDbEntity
  8
TEXT
100
AcDbLine
 10
0.5169716915693244
 20
0.3723215919309268
 30
0.0
 11
0.5167819069529287
 21
0.3567704618661764
 31
0.0
  0
LINE
  5
2BAA
330
2ACF
100
AcDbEntity
  8
TEXT
100
AcDbLine
 10
0.5091570177935411
 20
0.3625602832697723
 30
0.0
 11
0.509116781720195
 21
0.3567704618661764
 31
0.0
  0
LINE
  5
2BAB
330
2ACF
100
AcDbEntity
  8
TEXT
100
AcDbLine
 10
0.502800059575975
 20
0.3645923396637727
 30
0.0
 11
0.4923644883219822
 21
0.3590307109748211
 31
0.0
  0
LINE
  5
2BAC
330
2ACF
100
AcDbEntity
  8
TEXT
100
AcDbLine
 10
0.4464479723008026
 20
0.3645923396637727
 30
0.0
 11
0.4568835435547955
 21
0.3590307109748211
 31
0.0
  0
ARC
  5
2BAD
330
2ACF
100
AcDbEntity
  8
TEXT
100
AcDbCircle
 10
0.4436489035861088
 20
0.3623893877029332
 30
0.0
 40
0.0035619914389439
100
AcDbArc
 50
38.20381851856133
 51
177.2500340797979
  0
LINE
  5
2BAE
330
2ACF
100
AcDbEntity
  8
TEXT
100
AcDbLine
 10
0.4923644883219822
 20
0.3590307109748211
 30
0.0
 11
0.4923644883219822
 21
0.2366748649693591
 31
0.0
  0
LINE
  5
2BAF
330
2ACF
100
AcDbEntity
  8
TEXT
100
AcDbLine
 10
0.4568835435547955
 20
0.3590307109748211
 30
0.0
 11
0.4568835435547955
 21
0.2366748649693591
 31
0.0
  0
ARC
  5
2BB0
330
2ACF
100
AcDbEntity
  8
TEXT
100
AcDbCircle
 10
0.4369163028616187
 20
0.2921445225505295
 30
0.0
 40
0.0036655913797047
100
AcDbArc
 50
177.899482485688
 51
2.100517514311996
  0
LINE
  5
2BB1
330
2ACF
100
AcDbEntity
  8
TEXT
100
AcDbLine
 10
0.4400910140830093
 20
0.3625602832697723
 30
0.0
 11
0.4405794311940099
 21
0.2922788764998358
 31
0.0
  0
LINE
  5
2BB2
330
2ACF
100
AcDbEntity
  8
TEXT
100
AcDbLine
 10
0.4322763403074532
 20
0.3723215919309268
 30
0.0
 11
0.4332531745292272
 21
0.2922788764998358
 31
0.0
  0
ARC
  5
2BB3
330
2ACF
100
AcDbEntity
  8
TEXT
100
AcDbCircle
 10
0.5731645440480408
 20
0.2653050441007281
 30
0.0
 40
0.002989483288949
100
AcDbArc
 50
3.288025410275905
 51
105.9275278804377
  0
ARC
  5
2BB4
330
2ACF
100
AcDbEntity
  8
TEXT
100
AcDbCircle
 10
0.549895387155175
 20
0.2830048585065015
 30
0.0
 40
0.0269022533340526
100
AcDbArc
 50
282.1628426667851
 51
326.5593609179226
  0
ARC
  5
2BB5
330
2ACF
100
AcDbEntity
  8
TEXT
100
AcDbCircle
 10
0.5496978133644462
 20
0.2776390238306021
 30
0.0
 40
0.0217388303637387
100
AcDbArc
 50
213.1462108998048
 51
285.6537258536322
  0
ARC
  5
2BB6
330
2ACF
100
AcDbEntity
  8
TEXT
100
AcDbCircle
 10
0.5558382294532294
 20
0.2810406639923713
 30
0.0
 40
0.0287445183863511
100
AcDbArc
 50
167.0430028911469
 51
212.1309371309446
  0
ARC
  5
2BB7
330
2ACF
100
AcDbEntity
  8
TEXT
100
AcDbCircle
 10
0.5524546977555929
 20
0.2785653958306966
 30
0.0
 40
0.0261947681627364
100
AcDbArc
 50
117.3722826858088
 51
160.0902491401812
  0
ARC
  5
2BB8
330
2ACF
100
AcDbEntity
  8
TEXT
100
AcDbCircle
 10
0.540821857911169
 20
0.2848118002392539
 30
0.0
 40
0.0402724226927537
100
AcDbArc
 50
310.2152586008127
 51
331.3072507285807
  0
ARC
  5
2BB9
330
2ACF
100
AcDbEntity
  8
TEXT
100
AcDbCircle
 10
0.5446665728759399
 20
0.2751457392338352
 30
0.0
 40
0.0305878873074016
100
AcDbArc
 50
251.6347706403246
 51
316.4182924463581
  0
ARC
  5
2BBA
330
2ACF
100
AcDbEntity
  8
TEXT
100
AcDbCircle
 10
0.5401403885025502
 20
0.273992976498107
 30
0.0
 40
0.02834189891729
100
AcDbArc
 50
194.9511061487644
 51
259.6103135862064
  0
ARC
  5
2BBB
330
2ACF
100
AcDbEntity
  8
TEXT
100
AcDbCircle
 10
0.5431162820666488
 20
0.2749471361518089
 30
0.0
 40
0.0314635930359113
100
AcDbArc
 50
135.7093780000555
 51
195.2317137751545
  0
ARC
  5
2BBC
330
2ACF
100
AcDbEntity
  8
TEXT
100
AcDbCircle
 10
0.5433761610181591
 20
0.2794361969589545
 30
0.0
 40
0.0287162807623544
100
AcDbArc
 50
97.06566064011534
 51
142.4986334312156
  0
ARC
  5
2BBD
330
2ACF
100
AcDbEntity
  8
TEXT
100
AcDbCircle
 10
0.5467118333401686
 20
0.2094958911883396
 30
0.0
 40
0.0925461826943202
100
AcDbArc
 50
86.31431733544674
 51
93.90381943517231
  0
ARC
  5
2BBE
330
2ACF
100
AcDbEntity
  8
TEXT
100
AcDbCircle
 10
0.5447523193568033
 20
0.2936675307822725
 30
0.0
 40
0.0113802660678959
100
AcDbArc
 50
16.71684440730665
 51
45.97719400400374
  0
ARC
  5
2BBF
330
2ACF
100
AcDbEntity
  8
TEXT
100
AcDbCircle
 10
0.5667361151033674
 20
0.2969430394672372
 30
0.0
 40
0.0110844829916441
100
AcDbArc
 50
180.0106744006897
 51
201.8251852717992
  0
ARC
  5
2BC0
330
2ACF
100
AcDbEntity
  8
TEXT
100
AcDbCircle
 10
0.5648068476116351
 20
0.2967449384617566
 30
0.0
 40
0.0092352653312343
100
AcDbArc
 50
205.135964289902
 51
307.6679722285774
  0
ARC
  5
2BC1
330
2ACF
100
AcDbEntity
  8
TEXT
100
AcDbCircle
 10
0.5629869842109656
 20
0.2954448252202155
 30
0.0
 40
0.0095825232436999
100
AcDbArc
 50
321.1558234807597
 51
36.9421790422972
  0
ARC
  5
2BC2
330
2ACF
100
AcDbEntity
  8
TEXT
100
AcDbCircle
 10
0.5545548068730568
 20
0.286110714747906
 30
0.0
 40
0.0220618600506209
100
AcDbArc
 50
43.16761867319242
 51
81.57335966330654
  0
ARC
  5
2BC3
330
2ACF
100
AcDbEntity
  8
TEXT
100
AcDbCircle
 10
0.5488158416862916
 20
0.2126441150340952
 30
0.0
 40
0.0957117290414149
100
AcDbArc
 50
84.62122141578818
 51
95.37877858421181
  0
ARC
  5
2BC4
330
2ACF
100
AcDbEntity
  8
TEXT
100
AcDbCircle
 10
0.645684194046453
 20
0.2674430596681532
 30
0.0
 40
0.0022840825313628
100
AcDbArc
 50
349.2952029716978
 51
131.6626905469281
  0
ARC
  5
2BC5
330
2ACF
100
AcDbEntity
  8
TEXT
100
AcDbCircle
 10
0.6167873387478267
 20
0.2784550298357544
 30
0.0
 40
0.0331747059424372
100
AcDbArc
 50
296.3233923707214
 51
339.8348331475768
  0
ARC
  5
2BC6
330
2ACF
100
AcDbEntity
  8
TEXT
100
AcDbCircle
 10
0.6131516625955557
 20
0.2895778013486279
 30
0.0
 40
0.044787579795778
100
AcDbArc
 50
254.2847830849336
 51
294.1819270465984
  0
ARC
  5
2BC7
330
2ACF
100
AcDbEntity
  8
TEXT
100
AcDbCircle
 10
0.6212107506855773
 20
0.2838534536019779
 30
0.0
 40
0.0272606946411978
100
AcDbArc
 50
272.379209845887
 51
327.3581874363142
  0
ARC
  5
2BC8
330
2ACF
100
AcDbEntity
  8
TEXT
100
AcDbCircle
 10
0.618372369772942
 20
0.2779687652388247
 30
0.0
 40
0.0217184457481141
100
AcDbArc
 50
230.8416488637678
 51
280.5326941523476
  0
ARC
  5
2BC9
330
2ACF
100
AcDbEntity
  8
TEXT
100
AcDbCircle
 10
0.6249265649714744
 20
0.2833186329434056
 30
0.0
 40
0.0300538427431432
100
AcDbArc
 50
179.2959701761242
 51
227.5915484940839
  0
ARC
  5
2BCA
330
2ACF
100
AcDbEntity
  8
TEXT
100
AcDbCircle
 10
0.6122510118607352
 20
0.275207448350443
 30
0.0
 40
0.030859099473063
100
AcDbArc
 50
194.1847393568196
 51
248.6586767321129
  0
ARC
  5
2BCB
330
2ACF
100
AcDbEntity
  8
TEXT
100
AcDbCircle
 10
0.6128368118197614
 20
0.2761509873560044
 30
0.0
 40
0.0316676446238821
100
AcDbArc
 50
148.4692011102813
 51
195.5802361373353
  0
ARC
  5
2BCC
330
2ACF
100
AcDbEntity
  8
TEXT
100
AcDbCircle
 10
0.6126383273367538
 20
0.277095706024852
 30
0.0
 40
0.0310123511312591
100
AcDbArc
 50
108.5416613320864
 51
149.7652339536249
  0
ARC
  5
2BCD
330
2ACF
100
AcDbEntity
  8
TEXT
100
AcDbCircle
 10
0.6129984797371435
 20
0.2521959615131664
 30
0.0
 40
0.0499117885588133
100
AcDbArc
 50
82.99970676550804
 51
97.00029323447822
  0
ARC
  5
2BCE
330
2ACF
100
AcDbEntity
  8
TEXT
100
AcDbCircle
 10
0.6145634051554226
 20
0.2894892663206292
 30
0.0
 40
0.013053255444813
100
AcDbArc
 50
358.1908821763595
 51
69.74957583403583
  0
ARC
  5
2BCF
330
2ACF
100
AcDbEntity
  8
TEXT
100
AcDbCircle
 10
0.6108243265694001
 20
0.2859620919033432
 30
0.0
 40
0.016250694178188
100
AcDbArc
 50
103.9179608006055
 51
168.9486088950459
  0
LINE
  5
2BD0
330
2ACF
100
AcDbEntity
  8
TEXT
100
AcDbLine
 10
0.5948749910553488
 20
0.2890771774453924
 30
0.0
 11
0.6276101541936896
 21
0.2890771774453924
 31
0.0
  0
ARC
  5
2BD1
330
2ACF
100
AcDbEntity
  8
TEXT
100
AcDbCircle
 10
0.6150420513058636
 20
0.2653866732615597
 30
0.0
 40
0.042902292572092
100
AcDbArc
 50
78.15621523984908
 51
106.6122408520423
  0
ARC
  5
2BD2
330
2ACF
100
AcDbEntity
  8
TEXT
100
AcDbCircle
 10
0.6221182080896597
 20
0.2847423071357298
 30
0.0
 40
0.0226992706950099
100
AcDbArc
 50
357.3376237443686
 51
85.63084243886223
  0
LINE
  5
2BD3
330
2ACF
100
AcDbEntity
  8
TEXT
100
AcDbLine
 10
0.5948749910553488
 20
0.2836879144045952
 30
0.0
 11
0.6447929770201882
 21
0.2836879144045952
 31
0.0
  0
ENDBLK
  5
2BD4
330
2ACF
100
AcDbEntity
  8
0
100
AcDbBlockEnd
  0
BLOCK
  5
43C5
330
43C3
100
AcDbEntity
  8
0
100
AcDbBlockBegin
  2
A$C0C07017E
 70
     0
 10
0.0
 20
0.0
 30
0.0
  3
A$C0C07017E
  1

  0
CIRCLE
  5
43C4
330
43C3
100
AcDbEntity
  8
cabinet
100
AcDbCircle
 10
2.0
 20
2.861181280000436
 30
0.0
 40
0.3125
  0
ENDBLK
  5
43C6
330
43C3
100
AcDbEntity
  8
0
100
AcDbBlockEnd
  0
BLOCK
  5
4904
330
48FA
100
AcDbEntity
  8
0
100
AcDbBlockBegin
  2
A$C211B4990
 70
     0
 10
0.0
 20
0.0
 30
0.0
  3
A$C211B4990
  1

  0
HATCH
  5
48FB
330
48FA
100
AcDbEntity
  8
0
100
AcDbHatch
 10
0.0
 20
0.0
 30
0.0
210
0.0
220
0.0
230
1.0
  2
ANSI31
 70
     0
 71
     0
 91
        1
 92
        7
 72
     0
 73
     1
 93
        6
 10
0.589999999999975
 20
16.59
 10
3.461322223099173
 20
16.59
 10
3.461322223099173
 20
17.09
 10
0.089999999999975
 20
17.09000000000003
 10
0.089999999999975
 20
8.590000000000031
 10
0.5899999999999608
 20
8.315666991244825
 97
        0
 75
     0
 76
     1
 52
0.0
 41
1.0
 77
     0
 78
     1
 53
45.0
 43
-89.66327427261807
 44
193.1199450322596
 45
-0.0883883476483184
 46
0.0883883476483185
 79
     0
 47
0.0144166405615987
 98
        1
 10
0.3747829833942262
 20
11.59743636556004
  0
HATCH
  5
48FC
330
48FA
100
AcDbEntity
  8
0
100
AcDbHatch
 10
0.0
 20
0.0
 30
0.0
210
0.0
220
0.0
230
1.0
  2
ANSI31
 70
     0
 71
     0
 91
        1
 92
        7
 72
     0
 73
     1
 93
        4
 10
18.79102464447878
 20
17.09
 10
3.461322223099173
 20
17.09000000000003
 10
3.461322223099173
 20
16.59000000000003
 10
18.79102464447877
 20
16.59000000000003
 97
        0
 75
     0
 76
     1
 52
0.0
 41
1.0
 77
     0
 78
     1
 53
45.0
 43
-89.66327427261807
 44
193.1199450322596
 45
-0.0883883476483184
 46
0.0883883476483185
 79
     0
 47
0.0127377526705915
 98
        1
 10
8.253344448272429
 20
16.86353189087151
  0
HATCH
  5
48FD
330
48FA
100
AcDbEntity
  8
0
100
AcDbHatch
 10
0.0
 20
0.0
 30
0.0
210
0.0
220
0.0
230
1.0
  2
ANSI31
 70
     0
 71
     0
 91
        1
 92
        7
 72
     0
 73
     1
 93
        4
 10
34.12647443893372
 20
17.09
 10
18.79102464447878
 20
17.09
 10
18.79102464447875
 20
16.59000000000003
 10
34.1264744389337
 20
16.59000000000003
 97
        0
 75
     0
 76
     1
 52
0.0
 41
1.0
 77
     0
 78
     1
 53
45.0
 43
-89.66327427261807
 44
193.1199450322596
 45
-0.0883883476483184
 46
0.0883883476483185
 79
     0
 47
0.0133146343119608
 98
        1
 10
28.55131082937944
 20
16.90067204248555
  0
HATCH
  5
48FE
330
48FA
100
AcDbEntity
  8
0
100
AcDbHatch
 10
0.0
 20
0.0
 30
0.0
210
0.0
220
0.0
230
1.0
  2
ANSI31
 70
     0
 71
     0
 91
        1
 92
        7
 72
     0
 73
     1
 93
        6
 10
39.89999999999995
 20
17.08999999999997
 10
34.12647443893373
 20
17.08999999999997
 10
34.12647443893372
 20
16.58999999999997
 10
39.39999999999992
 20
16.59
 10
39.39999999999992
 20
10.61580283153466
 10
39.89999999999995
 20
10.61580283153466
 97
        0
 75
     0
 76
     1
 52
0.0
 41
1.0
 77
     0
 78
     1
 53
45.0
 43
-89.66327427261807
 44
193.1199450322596
 45
-0.0883883476483184
 46
0.0883883476483185
 79
     0
 47
0.0104587635469948
 98
        1
 10
39.72521895600497
 20
16.76708894646947
  0
HATCH
  5
48FF
330
48FA
100
AcDbEntity
  8
0
100
AcDbHatch
 10
0.0
 20
0.0
 30
0.0
210
0.0
220
0.0
230
1.0
  2
ANSI31
 70
     0
 71
     0
 91
        1
 92
        7
 72
     0
 73
     1
 93
        4
 10
39.89999999999992
 20
10.61580283153466
 10
39.39999999999992
 20
10.61580283153466
 10
39.39999999999995
 20
4.534683816319783
 10
39.89999999999992
 20
4.534683816319783
 97
        0
 75
     0
 76
     1
 52
0.0
 41
1.0
 77
     0
 78
     1
 53
45.0
 43
-89.66327427261807
 44
193.1199450322596
 45
-0.0883883476483184
 46
0.0883883476483185
 79
     0
 47
0.0091633458295236
 98
        1
 10
39.73355554489856
 20
8.559982196847156
  0
HATCH
  5
4900
330
48FA
100
AcDbEntity
  8
0
100
AcDbHatch
 10
0.0
 20
0.0
 30
0.0
210
0.0
220
0.0
230
1.0
  2
ANSI31
 70
     0
 71
     0
 91
        1
 92
        7
 72
     0
 73
     1
 93
        6
 10
39.89999999999995
 20
4.534683816319756
 10
39.39999999999995
 20
4.534683816319783
 10
39.39999999999995
 20
0.589999999999975
 10
35.03522531834304
 20
0.589999999999975
 10
35.03522531834301
 20
0.0900000000000319
 10
39.89999999999992
 20
0.0900000000000034
 97
        0
 75
     0
 76
     1
 52
0.0
 41
1.0
 77
     0
 78
     1
 53
45.0
 43
-89.66327427261807
 44
193.1199450322596
 45
-0.0883883476483184
 46
0.0883883476483185
 79
     0
 47
0.0091633458295236
 98
        1
 10
39.60094724219656
 20
0.827447006691159
  0
HATCH
  5
4901
330
48FA
100
AcDbEntity
  8
0
100
AcDbHatch
 10
0.0
 20
0.0
 30
0.0
210
0.0
220
0.0
230
1.0
  2
ANSI31
 70
     0
 71
     0
 91
        1
 92
        7
 72
     0
 73
     1
 93
        4
 10
35.03522531834305
 20
0.589999999999975
 10
18.67812466245553
 20
0.589999999999975
 10
18.67812466245553
 20
0.0900000000000319
 10
35.03522531834305
 20
0.0900000000000034
 97
        0
 75
     0
 76
     1
 52
0.0
 41
1.0
 77
     0
 78
     1
 53
45.0
 43
-89.66327427261807
 44
193.1199450322596
 45
-0.0883883476483184
 46
0.0883883476483185
 79
     0
 47
0.0164547115214681
 98
        1
 10
31.56453469034025
 20
0.2749756546637627
  0
HATCH
  5
4902
330
48FA
100
AcDbEntity
  8
0
100
AcDbHatch
 10
0.0
 20
0.0
 30
0.0
210
0.0
220
0.0
230
1.0
  2
ANSI31
 70
     0
 71
     0
 91
        1
 92
        7
 72
     0
 73
     1
 93
        4
 10
18.67812466245553
 20
0.5900000000000603
 10
2.795477401461794
 20
0.590000000000032
 10
2.795477401461794
 20
0.0900000000000034
 10
18.67812466245554
 20
0.0900000000000034
 97
        0
 75
     0
 76
     1
 52
0.0
 41
1.0
 77
     0
 78
     1
 53
45.0
 43
-89.66327427261807
 44
193.1199450322596
 45
-0.0883883476483184
 46
0.0883883476483185
 79
     0
 47
0.0205526478033837
 98
        1
 10
9.667172202492594
 20
0.2405713672759475
  0
HATCH
  5
4903
330
48FA
100
AcDbEntity
  8
0
100
AcDbHatch
 10
0.0
 20
0.0
 30
0.0
210
0.0
220
0.0
230
1.0
  2
ANSI31
 70
     0
 71
     0
 91
        1
 92
        7
 72
     0
 73
     1
 93
        6
 10
0.5899999999999608
 20
8.315666991244825
 10
0.089999999999975
 20
8.590000000000031
 10
0.089999999999975
 20
0.0900000000000319
 10
2.795477401461794
 20
0.0900000000000319
 10
2.795477401461794
 20
0.590000000000032
 10
0.5899999999999466
 20
0.590000000000032
 97
        0
 75
     0
 76
     1
 52
0.0
 41
1.0
 77
     0
 78
     1
 53
45.0
 43
-89.66327427261807
 44
193.1199450322596
 45
-0.0883883476483184
 46
0.0883883476483185
 79
     0
 47
0.0144166405615985
 98
        1
 10
0.2731601067214626
 20
5.40078888215703
  0
ENDBLK
  5
4905
330
48FA
100
AcDbEntity
  8
0
100
AcDbBlockEnd
  0
BLOCK
  5
4DBD
330
4DB7
100
AcDbEntity
  8
0
100
AcDbBlockBegin
  2
*D7
 70
     1
 10
0.0
 20
0.0
 30
0.0
  3
*D7
  1

  0
LINE
  5
50D5
330
4DB7
100
AcDbEntity
  8
0
 62
     0
370
    -2
100
AcDbLine
 10
-6.49047171462853
 20
-213.3349450322595
 30
0.0
 11
-6.49047171462853
 21
-215.0849450322595
 31
0.0
  0
MTEXT
  5
50D6
330
4DB7
100
AcDbEntity
  8
0
 62
     0
100
AcDbMText
 10
-6.490471714628495
 20
-216.7502783655928
 30
0.0
 40
0.9451999999999999
 41
0.0
 71
     5
 72
     1
  1
\A1;0.000
 11
0.0000000000000001
 21
1.0
 31
0.0
 73
     1
 44
1.0
1001
ACAD
1000
MTEXTBEGIN
1070
    73
1070
     1
1070
    44
1040
1.0
1070
    74
1070
     0
1000
MTEXTEND
  0
POINT
  5
50D7
330
4DB7
100
AcDbEntity
  8
Defpoints
 62
     0
100
AcDbPoint
 10
-6.49047171462853
 20
-213.0849450322595
 30
0.0
  0
POINT
  5
50D8
330
4DB7
100
AcDbEntity
  8
Defpoints
 62
     0
100
AcDbPoint
 10
-6.49047171462853
 20
-215.0849450322595
 30
0.0
  0
POINT
  5
50D9
330
4DB7
100
AcDbEntity
  8
Defpoints
 62
     0
100
AcDbPoint
 10
-6.49047171462853
 20
-213.0849450322595
 30
0.0
  0
ENDBLK
  5
4DBE
330
4DB7
100
AcDbEntity
  8
0
100
AcDbBlockEnd
  0
BLOCK
  5
4DCD
330
4DC7
100
AcDbEntity
  8
0
100
AcDbBlockBegin
  2
*D8
 70
     1
 10
0.0
 20
0.0
 30
0.0
  3
*D8
  1

  0
LINE
  5
50F5
330
4DC7
100
AcDbEntity
  8
0
 62
     0
370
    -2
100
AcDbLine
 10
-6.74047171462853
 20
-213.0849450322595
 30
0.0
 11
-8.49047171462853
 21
-213.0849450322595
 31
0.0
  0
MTEXT
  5
50F6
330
4DC7
100
AcDbEntity
  8
0
 62
     0
100
AcDbMText
 10
-10.15580504796186
 20
-213.0849450322595
 30
0.0
 40
0.9451999999999999
 41
0.0
 71
     5
 72
     1
  1
\A1;0.000
 73
     1
 44
1.0
1001
ACAD
1000
MTEXTBEGIN
1070
    73
1070
     1
1070
    44
1040
1.0
1070
    74
1070
     0
1000
MTEXTEND
  0
POINT
  5
50F7
330
4DC7
100
AcDbEntity
  8
Defpoints
 62
     0
100
AcDbPoint
 10
-6.49047171462853
 20
-213.0849450322595
 30
0.0
  0
POINT
  5
50F8
330
4DC7
100
AcDbEntity
  8
Defpoints
 62
     0
100
AcDbPoint
 10
-8.49047171462853
 20
-213.0849450322595
 30
0.0
  0
POINT
  5
50F9
330
4DC7
100
AcDbEntity
  8
Defpoints
 62
     0
100
AcDbPoint
 10
-6.49047171462853
 20
-213.0849450322595
 30
0.0
  0
ENDBLK
  5
4DCE
330
4DC7
100
AcDbEntity
  8
0
100
AcDbBlockEnd
  0
BLOCK
  5
4DD6
330
4DD0
100
AcDbEntity
  8
0
100
AcDbBlockBegin
  2
*D9
 70
     1
 10
0.0
 20
0.0
 30
0.0
  3
*D9
  1

  0
LINE
  5
50EE
330
4DD0
100
AcDbEntity
  8
0
 62
     0
370
    -2
100
AcDbLine
 10
-5.74047171462853
 20
-212.0849450322594
 30
0.0
 11
-7.49047171462853
 21
-212.0849450322594
 31
0.0
  0
LINE
  5
50EF
330
4DD0
100
AcDbEntity
  8
0
 62
     0
370
    -2
100
AcDbLine
 10
-7.49047171462853
 20
-212.0849450322594
 30
0.0
 11
-7.99047171462853
 21
-210.9191602242569
 31
0.0
  0
LINE
  5
50F0
330
4DD0
100
AcDbEntity
  8
0
 62
     0
370
    -2
100
AcDbLine
 10
-7.99047171462853
 20
-210.9191602242569
 30
0.0
 11
-8.49047171462853
 21
-210.9191602242569
 31
0.0
  0
MTEXT
  5
50F1
330
4DD0
100
AcDbEntity
  8
0
 62
     0
100
AcDbMText
 10
-10.07703838129519
 20
-210.9191602242569
 30
0.0
 40
0.9451999999999999
 41
0.0
 71
     5
 72
     1
  1
\A1;1.000
 73
     1
 44
1.0
1001
ACAD
1000
MTEXTBEGIN
1070
    73
1070
     1
1070
    44
1040
1.0
1070
    74
1070
     0
1000
MTEXTEND
  0
POINT
  5
50F2
330
4DD0
100
AcDbEntity
  8
Defpoints
 62
     0
100
AcDbPoint
 10
-5.49047171462853
 20
-212.0849450322594
 30
0.0
  0
POINT
  5
50F3
330
4DD0
100
AcDbEntity
  8
Defpoints
 62
     0
100
AcDbPoint
 10
-8.49047171462853
 20
-210.9191602242569
 30
0.0
  0
POINT
  5
50F4
330
4DD0
100
AcDbEntity
  8
Defpoints
 62
     0
100
AcDbPoint
 10
-6.49047171462853
 20
-213.0849450322595
 30
0.0
  0
ENDBLK
  5
4DD7
330
4DD0
100
AcDbEntity
  8
0
100
AcDbBlockEnd
  0
BLOCK
  5
4DFF
330
4DF9
100
AcDbEntity
  8
0
100
AcDbBlockBegin
  2
*D10
 70
     1
 10
0.0
 20
0.0
 30
0.0
  3
*D10
  1

  0
LINE
  5
50E9
330
4DF9
100
AcDbEntity
  8
0
 62
     0
370
    -2
100
AcDbLine
 10
-5.74047171462853
 20
-202.5849450322595
 30
0.0
 11
-8.49047171462853
 21
-202.5849450322595
 31
0.0
  0
MTEXT
  5
50EA
330
4DF9
100
AcDbEntity
  8
0
 62
     0
100
AcDbMText
 10
-10.5496383812952
 20
-202.5849450322595
 30
0.0
 40
0.9451999999999999
 41
0.0
 71
     5
 72
     1
  1
\A1;10.500
 73
     1
 44
1.0
1001
ACAD
1000
MTEXTBEGIN
1070
    73
1070
     1
1070
    44
1040
1.0
1070
    74
1070
     0
1000
MTEXTEND
  0
POINT
  5
50EB
330
4DF9
100
AcDbEntity
  8
Defpoints
 62
     0
100
AcDbPoint
 10
-5.49047171462853
 20
-202.5849450322595
 30
0.0
  0
POINT
  5
50EC
330
4DF9
100
AcDbEntity
  8
Defpoints
 62
     0
100
AcDbPoint
 10
-8.49047171462853
 20
-202.5849450322595
 30
0.0
  0
POINT
  5
50ED
330
4DF9
100
AcDbEntity
  8
Defpoints
 62
     0
100
AcDbPoint
 10
-6.49047171462853
 20
-213.0849450322595
 30
0.0
  0
ENDBLK
  5
4E00
330
4DF9
100
AcDbEntity
  8
0
100
AcDbBlockEnd
  0
BLOCK
  5
4E0F
330
4E09
100
AcDbEntity
  8
0
100
AcDbBlockBegin
  2
*D11
 70
     1
 10
0.0
 20
0.0
 30
0.0
  3
*D11
  1

  0
LINE
  5
511F
330
4E09
100
AcDbEntity
  8
0
 62
     0
370
    -2
100
AcDbLine
 10
10.45952828537174
 20
-200.5744450322592
 30
0.0
 11
12.50952828537147
 21
-200.5744450322592
 31
0.0
  0
MTEXT
  5
5120
330
4E09
100
AcDbEntity
  8
0
 62
     0
100
AcDbMText
 10
14.48992828537147
 20
-200.5744450322592
 30
0.0
 40
0.9451999999999999
 41
0.0
 71
     5
 72
     1
  1
\A1;12.511
 73
     1
 44
1.0
1001
ACAD
1000
MTEXTBEGIN
1070
    73
1070
     1
1070
    44
1040
1.0
1070
    74
1070
     0
1000
MTEXTEND
  0
POINT
  5
5121
330
4E09
100
AcDbEntity
  8
Defpoints
 62
     0
100
AcDbPoint
 10
10.20952828537174
 20
-200.5744450322592
 30
0.0
  0
POINT
  5
5122
330
4E09
100
AcDbEntity
  8
Defpoints
 62
     0
100
AcDbPoint
 10
12.50952828537147
 20
-200.5744450322592
 30
0.0
  0
POINT
  5
5123
330
4E09
100
AcDbEntity
  8
Defpoints
 62
     0
100
AcDbPoint
 10
-6.49047171462853
 20
-213.0849450322595
 30
0.0
  0
ENDBLK
  5
4E10
330
4E09
100
AcDbEntity
  8
0
100
AcDbBlockEnd
  0
BLOCK
  5
4E1F
330
4E19
100
AcDbEntity
  8
0
100
AcDbBlockBegin
  2
*D12
 70
     1
 10
0.0
 20
0.0
 30
0.0
  3
*D12
  1

  0
LINE
  5
511A
330
4E19
100
AcDbEntity
  8
0
 62
     0
370
    -2
100
AcDbLine
 10
10.45952828537174
 20
-196.0744450322592
 30
0.0
 11
12.50952828537147
 21
-196.0744450322592
 31
0.0
  0
MTEXT
  5
511B
330
4E19
100
AcDbEntity
  8
0
 62
     0
100
AcDbMText
 10
14.4111616187048
 20
-196.0744450322592
 30
0.0
 40
0.9451999999999999
 41
0.0
 71
     5
 72
     1
  1
\A1;17.011
 73
     1
 44
1.0
1001
ACAD
1000
MTEXTBEGIN
1070
    73
1070
     1
1070
    44
1040
1.0
1070
    74
1070
     0
1000
MTEXTEND
  0
POINT
  5
511C
330
4E19
100
AcDbEntity
  8
Defpoints
 62
     0
100
AcDbPoint
 10
10.20952828537174
 20
-196.0744450322592
 30
0.0
  0
POINT
  5
511D
330
4E19
100
AcDbEntity
  8
Defpoints
 62
     0
100
AcDbPoint
 10
12.50952828537147
 20
-196.0744450322592
 30
0.0
  0
POINT
  5
511E
330
4E19
100
AcDbEntity
  8
Defpoints
 62
     0
100
AcDbPoint
 10
-6.49047171462853
 20
-213.0849450322595
 30
0.0
  0
ENDBLK
  5
4E20
330
4E19
100
AcDbEntity
  8
0
100
AcDbBlockEnd
  0
BLOCK
  5
4E2F
330
4E29
100
AcDbEntity
  8
0
100
AcDbBlockBegin
  2
*D13
 70
     1
 10
0.0
 20
0.0
 30
0.0
  3
*D13
  1

  0
LINE
  5
5124
330
4E29
100
AcDbEntity
  8
0
 62
     0
370
    -2
100
AcDbLine
 10
10.20952828537174
 20
-195.8244450322592
 30
0.0
 11
10.20952828537174
 21
-195.0744450322592
 31
0.0
  0
LINE
  5
5125
330
4E29
100
AcDbEntity
  8
0
 62
     0
370
    -2
100
AcDbLine
 10
10.20952828537174
 20
-195.0744450322592
 30
0.0
 11
8.062190429477595
 21
-194.5744450322592
 31
0.0
  0
LINE
  5
5126
330
4E29
100
AcDbEntity
  8
0
 62
     0
370
    -2
100
AcDbLine
 10
8.062190429477595
 20
-194.5744450322592
 30
0.0
 11
8.062190429477595
 21
-194.0744450322592
 31
0.0
  0
MTEXT
  5
5127
330
4E29
100
AcDbEntity
  8
0
 62
     0
100
AcDbMText
 10
8.062190429477626
 20
-191.9365116989258
 30
0.0
 40
0.9451999999999999
 41
0.0
 71
     5
 72
     1
  1
\A1;16.700
 11
0.0000000000000001
 21
1.0
 31
0.0
 73
     1
 44
1.0
1001
ACAD
1000
MTEXTBEGIN
1070
    73
1070
     1
1070
    44
1040
1.0
1070
    74
1070
     0
1000
MTEXTEND
  0
POINT
  5
5128
330
4E29
100
AcDbEntity
  8
Defpoints
 62
     0
100
AcDbPoint
 10
10.20952828537174
 20
-196.0744450322592
 30
0.0
  0
POINT
  5
5129
330
4E29
100
AcDbEntity
  8
Defpoints
 62
     0
100
AcDbPoint
 10
8.062190429477595
 20
-194.0744450322592
 30
0.0
  0
POINT
  5
512A
330
4E29
100
AcDbEntity
  8
Defpoints
 62
     0
100
AcDbPoint
 10
-6.49047171462853
 20
-213.0849450322595
 30
0.0
  0
ENDBLK
  5
4E30
330
4E29
100
AcDbEntity
  8
0
100
AcDbBlockEnd
  0
BLOCK
  5
4E38
330
4E32
100
AcDbEntity
  8
0
100
AcDbBlockBegin
  2
*D14
 70
     1
 10
0.0
 20
0.0
 30
0.0
  3
*D14
  1

  0
LINE
  5
512B
330
4E32
100
AcDbEntity
  8
0
 62
     0
370
    -2
100
AcDbLine
 10
-6.190471714628347
 20
-195.8244450322592
 30
0.0
 11
-6.190471714628347
 21
-195.0744450322592
 31
0.0
  0
LINE
  5
512C
330
4E32
100
AcDbEntity
  8
0
 62
     0
370
    -2
100
AcDbLine
 10
-6.190471714628347
 20
-195.0744450322592
 30
0.0
 11
-4.043133858734201
 21
-194.5744450322592
 31
0.0
  0
LINE
  5
512D
330
4E32
100
AcDbEntity
  8
0
 62
     0
370
    -2
100
AcDbLine
 10
-4.043133858734201
 20
-194.5744450322592
 30
0.0
 11
-4.043133858734201
 21
-194.0744450322592
 31
0.0
  0
MTEXT
  5
512E
330
4E32
100
AcDbEntity
  8
0
 62
     0
100
AcDbMText
 10
-4.043133858734169
 20
-192.3303450322592
 30
0.0
 40
0.9451999999999999
 41
0.0
 71
     5
 72
     1
  1
\A1;0.300
 11
0.0000000000000001
 21
1.0
 31
0.0
 73
     1
 44
1.0
1001
ACAD
1000
MTEXTBEGIN
1070
    73
1070
     1
1070
    44
1040
1.0
1070
    74
1070
     0
1000
MTEXTEND
  0
POINT
  5
512F
330
4E32
100
AcDbEntity
  8
Defpoints
 62
     0
100
AcDbPoint
 10
-6.190471714628347
 20
-196.0744450322592
 30
0.0
  0
POINT
  5
5130
330
4E32
100
AcDbEntity
  8
Defpoints
 62
     0
100
AcDbPoint
 10
-4.043133858734201
 20
-194.0744450322592
 30
0.0
  0
POINT
  5
5131
330
4E32
100
AcDbEntity
  8
Defpoints
 62
     0
100
AcDbPoint
 10
-6.49047171462853
 20
-213.0849450322595
 30
0.0
  0
ENDBLK
  5
4E39
330
4E32
100
AcDbEntity
  8
0
100
AcDbBlockEnd
  0
BLOCK
  5
4E48
330
4E42
100
AcDbEntity
  8
0
100
AcDbBlockBegin
  2
*D15
 70
     1
 10
0.0
 20
0.0
 30
0.0
  3
*D15
  1

  0
LINE
  5
50E4
330
4E42
100
AcDbEntity
  8
0
 62
     0
370
    -2
100
AcDbLine
 10
-5.74047171462853
 20
-183.7749450322595
 30
0.0
 11
-8.49047171462853
 21
-183.7749450322595
 31
0.0
  0
MTEXT
  5
50E5
330
4E42
100
AcDbEntity
  8
0
 62
     0
100
AcDbMText
 10
-10.70717171462853
 20
-183.7749450322595
 30
0.0
 40
0.9451999999999999
 41
0.0
 71
     5
 72
     1
  1
\A1;29.310
 73
     1
 44
1.0
1001
ACAD
1000
MTEXTBEGIN
1070
    73
1070
     1
1070
    44
1040
1.0
1070
    74
1070
     0
1000
MTEXTEND
  0
POINT
  5
50E6
330
4E42
100
AcDbEntity
  8
Defpoints
 62
     0
100
AcDbPoint
 10
-5.49047171462853
 20
-183.7749450322595
 30
0.0
  0
POINT
  5
50E7
330
4E42
100
AcDbEntity
  8
Defpoints
 62
     0
100
AcDbPoint
 10
-8.49047171462853
 20
-183.7749450322595
 30
0.0
  0
POINT
  5
50E8
330
4E42
100
AcDbEntity
  8
Defpoints
 62
     0
100
AcDbPoint
 10
-6.49047171462853
 20
-213.0849450322595
 30
0.0
  0
ENDBLK
  5
4E49
330
4E42
100
AcDbEntity
  8
0
100
AcDbBlockEnd
  0
BLOCK
  5
4E58
330
4E52
100
AcDbEntity
  8
0
100
AcDbBlockBegin
  2
*D16
 70
     1
 10
0.0
 20
0.0
 30
0.0
  3
*D16
  1

  0
LINE
  5
5115
330
4E52
100
AcDbEntity
  8
0
 62
     0
370
    -2
100
AcDbLine
 10
2.259528285371469
 20
-178.3999450322595
 30
0.0
 11
12.50952828537147
 21
-178.3999450322595
 31
0.0
  0
MTEXT
  5
5116
330
4E52
100
AcDbEntity
  8
0
 62
     0
100
AcDbMText
 10
14.96252828537147
 20
-178.3999450322595
 30
0.0
 40
0.9451999999999999
 41
0.0
 71
     5
 72
     1
  1
\A1;34.685
 73
     1
 44
1.0
1001
ACAD
1000
MTEXTBEGIN
1070
    73
1070
     1
1070
    44
1040
1.0
1070
    74
1070
     0
1000
MTEXTEND
  0
POINT
  5
5117
330
4E52
100
AcDbEntity
  8
Defpoints
 62
     0
100
AcDbPoint
 10
2.009528285371469
 20
-178.3999450322595
 30
0.0
  0
POINT
  5
5118
330
4E52
100
AcDbEntity
  8
Defpoints
 62
     0
100
AcDbPoint
 10
12.50952828537147
 20
-178.3999450322595
 30
0.0
  0
POINT
  5
5119
330
4E52
100
AcDbEntity
  8
Defpoints
 62
     0
100
AcDbPoint
 10
-6.49047171462853
 20
-213.0849450322595
 30
0.0
  0
ENDBLK
  5
4E59
330
4E52
100
AcDbEntity
  8
0
100
AcDbBlockEnd
  0
BLOCK
  5
4E6A
330
4E62
100
AcDbEntity
  8
0
100
AcDbBlockBegin
  2
*D17
 70
     1
 10
0.0
 20
0.0
 30
0.0
  3
*D17
  1

  0
LINE
  5
50DF
330
4E62
100
AcDbEntity
  8
0
 62
     0
370
    -2
100
AcDbLine
 10
-4.602971714628256
 20
-178.7124450322595
 30
0.0
 11
-8.49047171462853
 21
-178.7124450322595
 31
0.0
  0
MTEXT
  5
50E0
330
4E62
100
AcDbEntity
  8
0
 62
     0
100
AcDbMText
 10
-10.94347171462853
 20
-178.7124450322595
 30
0.0
 40
0.9451999999999999
 41
0.0
 71
     5
 72
     1
  1
\A1;34.372
 73
     1
 44
1.0
1001
ACAD
1000
MTEXTBEGIN
1070
    73
1070
     1
1070
    44
1040
1.0
1070
    74
1070
     0
1000
MTEXTEND
  0
POINT
  5
50E1
330
4E62
100
AcDbEntity
  8
Defpoints
 62
     0
100
AcDbPoint
 10
-4.352971714628256
 20
-178.7124450322595
 30
0.0
  0
POINT
  5
50E2
330
4E62
100
AcDbEntity
  8
Defpoints
 62
     0
100
AcDbPoint
 10
-8.49047171462853
 20
-178.7124450322595
 30
0.0
  0
POINT
  5
50E3
330
4E62
100
AcDbEntity
  8
Defpoints
 62
     0
100
AcDbPoint
 10
-6.49047171462853
 20
-213.0849450322595
 30
0.0
  0
ENDBLK
  5
4E6B
330
4E62
100
AcDbEntity
  8
0
100
AcDbBlockEnd
  0
BLOCK
  5
4E81
330
4E7B
100
AcDbEntity
  8
0
100
AcDbBlockBegin
  2
*D18
 70
     1
 10
0.0
 20
0.0
 30
0.0
  3
*D18
  1

  0
LINE
  5
50DA
330
4E7B
100
AcDbEntity
  8
0
 62
     0
370
    -2
100
AcDbLine
 10
-5.74047171462853
 20
-174.2749450322595
 30
0.0
 11
-8.49047171462853
 21
-174.2749450322595
 31
0.0
  0
MTEXT
  5
50DB
330
4E7B
100
AcDbEntity
  8
0
 62
     0
100
AcDbMText
 10
-10.70717171462853
 20
-174.2749450322595
 30
0.0
 40
0.9451999999999999
 41
0.0
 71
     5
 72
     1
  1
\A1;38.810
 73
     1
 44
1.0
1001
ACAD
1000
MTEXTBEGIN
1070
    73
1070
     1
1070
    44
1040
1.0
1070
    74
1070
     0
1000
MTEXTEND
  0
POINT
  5
50DC
330
4E7B
100
AcDbEntity
  8
Defpoints
 62
     0
100
AcDbPoint
 10
-5.49047171462853
 20
-174.2749450322595
 30
0.0
  0
POINT
  5
50DD
330
4E7B
100
AcDbEntity
  8
Defpoints
 62
     0
100
AcDbPoint
 10
-8.49047171462853
 20
-174.2749450322595
 30
0.0
  0
POINT
  5
50DE
330
4E7B
100
AcDbEntity
  8
Defpoints
 62
     0
100
AcDbPoint
 10
-6.49047171462853
 20
-213.0849450322595
 30
0.0
  0
ENDBLK
  5
4E82
330
4E7B
100
AcDbEntity
  8
0
100
AcDbBlockEnd
  0
BLOCK
  5
4E91
330
4E8B
100
AcDbEntity
  8
0
100
AcDbBlockBegin
  2
*D19
 70
     1
 10
0.0
 20
0.0
 30
0.0
  3
*D19
  1

  0
LINE
  5
58E4
330
4E8B
100
AcDbEntity
  8
0
 62
     0
370
    -2
100
AcDbLine
 10
-5.49047171462853
 20
-174.0249450322595
 30
0.0
 11
-5.49047171462853
 21
-171.2749450322595
 31
0.0
  0
MTEXT
  5
58E5
330
4E8B
100
AcDbEntity
  8
0
 62
     0
100
AcDbMText
 10
-5.490471714628502
 20
-168.1130450322595
 30
0.0
 40
0.9451999999999999
 41
0.0
 71
     5
 72
     1
  1
\A1;1.000 (4)
 11
0.0000000000000001
 21
1.0
 31
0.0
 73
     1
 44
1.0
1001
ACAD
1000
MTEXTBEGIN
1070
    73
1070
     1
1070
    44
1040
1.0
1070
    74
1070
     0
1000
MTEXTEND
  0
POINT
  5
58E6
330
4E8B
100
AcDbEntity
  8
Defpoints
 62
     0
100
AcDbPoint
 10
-5.49047171462853
 20
-174.2749450322595
 30
0.0
  0
POINT
  5
58E7
330
4E8B
100
AcDbEntity
  8
Defpoints
 62
     0
100
AcDbPoint
 10
-5.49047171462853
 20
-171.2749450322595
 30
0.0
  0
POINT
  5
58E8
330
4E8B
100
AcDbEntity
  8
Defpoints
 62
     0
100
AcDbPoint
 10
-6.49047171462853
 20
-213.0849450322595
 30
0.0
  0
ENDBLK
  5
4E92
330
4E8B
100
AcDbEntity
  8
0
100
AcDbBlockEnd
  0
BLOCK
  5
4E9A
330
4E94
100
AcDbEntity
  8
0
100
AcDbBlockBegin
  2
*D20
 70
     1
 10
0.0
 20
0.0
 30
0.0
  3
*D20
  1

  0
LINE
  5
5104
330
4E94
100
AcDbEntity
  8
0
 62
     0
370
    -2
100
AcDbLine
 10
-4.352971714628256
 20
-178.4624450322595
 30
0.0
 11
-4.352971714628254
 21
-172.2749450322595
 31
0.0
  0
LINE
  5
5105
330
4E94
100
AcDbEntity
  8
0
 62
     0
370
    -2
100
AcDbLine
 10
-4.352971714628254
 20
-172.2749450322595
 30
0.0
 11
-3.324686906625873
 21
-171.7749450322595
 31
0.0
  0
LINE
  5
5106
330
4E94
100
AcDbEntity
  8
0
 62
     0
370
    -2
100
AcDbLine
 10
-3.324686906625873
 20
-171.7749450322595
 30
0.0
 11
-3.324686906625873
 21
-171.2749450322595
 31
0.0
  0
MTEXT
  5
5107
330
4E94
100
AcDbEntity
  8
0
 62
     0
100
AcDbMText
 10
-3.324686906625846
 20
-169.4520783655928
 30
0.0
 40
0.9451999999999999
 41
0.0
 71
     5
 72
     1
  1
\A1;2.138
 11
0.0000000000000001
 21
1.0
 31
0.0
 73
     1
 44
1.0
1001
ACAD
1000
MTEXTBEGIN
1070
    73
1070
     1
1070
    44
1040
1.0
1070
    74
1070
     0
1000
MTEXTEND
  0
POINT
  5
5108
330
4E94
100
AcDbEntity
  8
Defpoints
 62
     0
100
AcDbPoint
 10
-4.352971714628256
 20
-178.7124450322595
 30
0.0
  0
POINT
  5
5109
330
4E94
100
AcDbEntity
  8
Defpoints
 62
     0
100
AcDbPoint
 10
-3.324686906625873
 20
-171.2749450322595
 30
0.0
  0
POINT
  5
510A
330
4E94
100
AcDbEntity
  8
Defpoints
 62
     0
100
AcDbPoint
 10
-6.49047171462853
 20
-213.0849450322595
 30
0.0
  0
ENDBLK
  5
4E9B
330
4E94
100
AcDbEntity
  8
0
100
AcDbBlockEnd
  0
BLOCK
  5
4EA3
330
4E9D
100
AcDbEntity
  8
0
100
AcDbBlockBegin
  2
*D21
 70
     1
 10
0.0
 20
0.0
 30
0.0
  3
*D21
  1

  0
LINE
  5
50FF
330
4E9D
100
AcDbEntity
  8
0
 62
     0
370
    -2
100
AcDbLine
 10
2.009528285371469
 20
-178.1499450322595
 30
0.0
 11
2.009528285371469
 21
-171.2749450322595
 31
0.0
  0
MTEXT
  5
5100
330
4E9D
100
AcDbEntity
  8
0
 62
     0
100
AcDbMText
 10
2.009528285371496
 20
-169.4520783655928
 30
0.0
 40
0.9451999999999999
 41
0.0
 71
     5
 72
     1
  1
\A1;8.500
 11
0.0000000000000001
 21
1.0
 31
0.0
 73
     1
 44
1.0
1001
ACAD
1000
MTEXTBEGIN
1070
    73
1070
     1
1070
    44
1040
1.0
1070
    74
1070
     0
1000
MTEXTEND
  0
POINT
  5
5101
330
4E9D
100
AcDbEntity
  8
Defpoints
 62
     0
100
AcDbPoint
 10
2.009528285371469
 20
-178.3999450322595
 30
0.0
  0
POINT
  5
5102
330
4E9D
100
AcDbEntity
  8
Defpoints
 62
     0
100
AcDbPoint
 10
2.009528285371469
 20
-171.2749450322595
 30
0.0
  0
POINT
  5
5103
330
4E9D
100
AcDbEntity
  8
Defpoints
 62
     0
100
AcDbPoint
 10
-6.49047171462853
 20
-213.0849450322595
 30
0.0
  0
ENDBLK
  5
4EA4
330
4E9D
100
AcDbEntity
  8
0
100
AcDbBlockEnd
  0
BLOCK
  5
4EAC
330
4EA6
100
AcDbEntity
  8
0
100
AcDbBlockBegin
  2
*D22
 70
     1
 10
0.0
 20
0.0
 30
0.0
  3
*D22
  1

  0
LINE
  5
50FA
330
4EA6
100
AcDbEntity
  8
0
 62
     0
370
    -2
100
AcDbLine
 10
10.50952828537147
 20
-173.0249450322595
 30
0.0
 11
10.50952828537147
 21
-171.2749450322595
 31
0.0
  0
MTEXT
  5
50FB
330
4EA6
100
AcDbEntity
  8
0
 62
     0
100
AcDbMText
 10
10.50952828537149
 20
-169.2157783655928
 30
0.0
 40
0.9451999999999999
 41
0.0
 71
     5
 72
     1
  1
\A1;17.000
 11
0.0000000000000001
 21
1.0
 31
0.0
 73
     1
 44
1.0
1001
ACAD
1000
MTEXTBEGIN
1070
    73
1070
     1
1070
    44
1040
1.0
1070
    74
1070
     0
1000
MTEXTEND
  0
POINT
  5
50FC
330
4EA6
100
AcDbEntity
  8
Defpoints
 62
     0
100
AcDbPoint
 10
10.50952828537147
 20
-173.2749450322595
 30
0.0
  0
POINT
  5
50FD
330
4EA6
100
AcDbEntity
  8
Defpoints
 62
     0
100
AcDbPoint
 10
10.50952828537147
 20
-171.2749450322595
 30
0.0
  0
POINT
  5
50FE
330
4EA6
100
AcDbEntity
  8
Defpoints
 62
     0
100
AcDbPoint
 10
-6.49047171462853
 20
-213.0849450322595
 30
0.0
  0
ENDBLK
  5
4EAD
330
4EA6
100
AcDbEntity
  8
0
100
AcDbBlockEnd
  0
BLOCK
  5
4EBC
330
4EB6
100
AcDbEntity
  8
0
100
AcDbBlockBegin
  2
*D23
 70
     1
 10
0.0
 20
0.0
 30
0.0
  3
*D23
  1

  0
LINE
  5
5110
330
4EB6
100
AcDbEntity
  8
0
 62
     0
370
    -2
100
AcDbLine
 10
10.75952828537147
 20
-173.2749450322595
 30
0.0
 11
12.50952828537147
 21
-173.2749450322595
 31
0.0
  0
MTEXT
  5
5111
330
4EB6
100
AcDbEntity
  8
0
 62
     0
100
AcDbMText
 10
14.72622828537147
 20
-173.2749450322595
 30
0.0
 40
0.9451999999999999
 41
0.0
 71
     5
 72
     1
  1
\A1;39.810
 73
     1
 44
1.0
1001
ACAD
1000
MTEXTBEGIN
1070
    73
1070
     1
1070
    44
1040
1.0
1070
    74
1070
     0
1000
MTEXTEND
  0
POINT
  5
5112
330
4EB6
100
AcDbEntity
  8
Defpoints
 62
     0
100
AcDbPoint
 10
10.50952828537147
 20
-173.2749450322595
 30
0.0
  0
POINT
  5
5113
330
4EB6
100
AcDbEntity
  8
Defpoints
 62
     0
100
AcDbPoint
 10
12.50952828537147
 20
-173.2749450322595
 30
0.0
  0
POINT
  5
5114
330
4EB6
100
AcDbEntity
  8
Defpoints
 62
     0
100
AcDbPoint
 10
-6.49047171462853
 20
-213.0849450322595
 30
0.0
  0
ENDBLK
  5
4EBD
330
4EB6
100
AcDbEntity
  8
0
100
AcDbBlockEnd
  0
BLOCK
  5
5152
330
5147
100
AcDbEntity
  8
0
100
AcDbBlockBegin
  2
*D24
 70
     1
 10
0.0
 20
0.0
 30
0.0
  3
*D24
  1

  0
LINE
  5
5897
330
5147
100
AcDbEntity
  8
0
 62
     0
370
    -2
100
AcDbLine
 10
6.182376731594777
 20
-19.28038662841681
 30
0.0
 11
11.02937418031618
 21
-19.28038662841681
 31
0.0
  0
LINE
  5
5898
330
5147
100
AcDbEntity
  8
0
 62
     0
370
    -2
100
AcDbLine
 10
6.182376731595232
 20
-59.27038662841662
 30
0.0
 11
11.02937418031618
 21
-59.27038662841662
 31
0.0
  0
LINE
  5
5899
330
5147
100
AcDbEntity
  8
0
 62
     0
370
    -2
100
AcDbLine
 10
10.84937418031619
 20
-20.05018662841681
 30
0.0
 11
10.84937418031619
 21
-38.80048662841672
 31
0.0
  0
LINE
  5
589A
330
5147
100
AcDbEntity
  8
0
 62
     0
370
    -2
100
AcDbLine
 10
10.84937418031618
 20
-58.50058662841661
 30
0.0
 11
10.84937418031619
 21
-39.75028662841673
 31
0.0
  0
SOLID
  5
589B
330
5147
100
AcDbEntity
  8
0
 62
     0
100
AcDbTrace
 10
10.72107418031619
 20
-20.05018662841681
 30
0.0
 11
10.97767418031619
 21
-20.05018662841681
 31
0.0
 12
10.84937418031619
 22
-19.28038662841681
 32
0.0
 13
10.84937418031619
 23
-19.28038662841681
 33
0.0
  0
SOLID
  5
589C
330
5147
100
AcDbEntity
  8
0
 62
     0
100
AcDbTrace
 10
10.72107418031618
 20
-58.50058662841661
 30
0.0
 11
10.97767418031618
 21
-58.50058662841661
 31
0.0
 12
10.84937418031618
 22
-59.27038662841662
 32
0.0
 13
10.84937418031618
 23
-59.27038662841662
 33
0.0
  0
MTEXT
  5
589D
330
5147
100
AcDbEntity
  8
0
 62
     0
100
AcDbMText
 10
10.84937418031619
 20
-39.27538662841673
 30
0.0
 40
0.7698000000000002
 41
0.0
 71
     5
 72
     1
  1
\A1;39.990
 73
     1
 44
1.0
1001
ACAD
1000
MTEXTBEGIN
1070
    73
1070
     1
1070
    44
1040
1.0
1070
    74
1070
     0
1000
MTEXTEND
  0
POINT
  5
589E
330
5147
100
AcDbEntity
  8
Defpoints
 62
     0
100
AcDbPoint
 10
5.932376731594777
 20
-19.28038662841681
 30
0.0
  0
POINT
  5
589F
330
5147
100
AcDbEntity
  8
Defpoints
 62
     0
100
AcDbPoint
 10
5.932376731595232
 20
-59.27038662841662
 30
0.0
  0
POINT
  5
58A0
330
5147
100
AcDbEntity
  8
Defpoints
 62
     0
100
AcDbPoint
 10
10.84937418031618
 20
-59.27038662841662
 30
0.0
  0
ENDBLK
  5
5153
330
5147
100
AcDbEntity
  8
0
100
AcDbBlockEnd
  0
BLOCK
  5
516C
330
5161
100
AcDbEntity
  8
0
100
AcDbBlockBegin
  2
*D25
 70
     1
 10
0.0
 20
0.0
 30
0.0
  3
*D25
  1

  0
LINE
  5
588C
330
5161
100
AcDbEntity
  8
0
 62
     0
370
    -2
100
AcDbLine
 10
19.94202479408599
 20
-19.03024480388959
 30
0.0
 11
19.94202479408599
 21
-16.9959065873714
 31
0.0
  0
LINE
  5
588D
330
5161
100
AcDbEntity
  8
0
 62
     0
370
    -2
100
AcDbLine
 10
37.122024794086
 20
-19.03024480388959
 30
0.0
 11
37.122024794086
 21
-16.9959065873714
 31
0.0
  0
LINE
  5
588E
330
5161
100
AcDbEntity
  8
0
 62
     0
370
    -2
100
AcDbLine
 10
20.711824794086
 20
-17.1759065873714
 30
0.0
 11
26.83827479408599
 21
-17.1759065873714
 31
0.0
  0
LINE
  5
588F
330
5161
100
AcDbEntity
  8
0
 62
     0
370
    -2
100
AcDbLine
 10
36.352224794086
 20
-17.1759065873714
 30
0.0
 11
30.225774794086
 21
-17.1759065873714
 31
0.0
  0
SOLID
  5
5890
330
5161
100
AcDbEntity
  8
0
 62
     0
100
AcDbTrace
 10
20.711824794086
 20
-17.04760658737139
 30
0.0
 11
20.711824794086
 21
-17.3042065873714
 31
0.0
 12
19.94202479408599
 22
-17.1759065873714
 32
0.0
 13
19.94202479408599
 23
-17.1759065873714
 33
0.0
  0
SOLID
  5
5891
330
5161
100
AcDbEntity
  8
0
 62
     0
100
AcDbTrace
 10
36.352224794086
 20
-17.04760658737139
 30
0.0
 11
36.352224794086
 21
-17.3042065873714
 31
0.0
 12
37.122024794086
 22
-17.1759065873714
 32
0.0
 13
37.122024794086
 23
-17.1759065873714
 33
0.0
  0
MTEXT
  5
5892
330
5161
100
AcDbEntity
  8
0
 62
     0
100
AcDbMText
 10
28.53202479408599
 20
-17.1759065873714
 30
0.0
 40
0.7698000000000002
 41
0.0
 71
     5
 72
     1
  1
\A1;17.180
 73
     1
 44
1.0
1001
ACAD
1000
MTEXTBEGIN
1070
    73
1070
     1
1070
    44
1040
1.0
1070
    74
1070
     0
1000
MTEXTEND
  0
POINT
  5
5893
330
5161
100
AcDbEntity
  8
Defpoints
 62
     0
100
AcDbPoint
 10
19.94202479408599
 20
-19.28024480388959
 30
0.0
  0
POINT
  5
5894
330
5161
100
AcDbEntity
  8
Defpoints
 62
     0
100
AcDbPoint
 10
37.122024794086
 20
-19.28024480388959
 30
0.0
  0
POINT
  5
5895
330
5161
100
AcDbEntity
  8
Defpoints
 62
     0
100
AcDbPoint
 10
37.122024794086
 20
-17.1759065873714
 30
0.0
  0
ENDBLK
  5
516D
330
5161
100
AcDbEntity
  8
0
100
AcDbBlockEnd
  0
BLOCK
  5
5186
330
517B
100
AcDbEntity
  8
0
100
AcDbBlockBegin
  2
*D26
 70
     1
 10
0.0
 20
0.0
 30
0.0
  3
*D26
  1

  0
LINE
  5
5882
330
517B
100
AcDbEntity
  8
0
 62
     0
370
    -2
100
AcDbLine
 10
33.03202479408597
 20
-11.48774884209331
 30
0.0
 11
39.50499243990908
 21
-11.48774884209331
 31
0.0
  0
LINE
  5
5883
330
517B
100
AcDbEntity
  8
0
 62
     0
370
    -2
100
AcDbLine
 10
37.28202479408608
 20
-5.461567562091833
 30
0.0
 11
39.50499243990908
 21
-5.461567562091834
 31
0.0
  0
LINE
  5
5884
330
517B
100
AcDbEntity
  8
0
 62
     0
370
    -2
100
AcDbLine
 10
39.32499243990907
 20
-10.71794884209331
 30
0.0
 11
39.32499243990907
 21
-8.949558202092573
 31
0.0
  0
LINE
  5
5885
330
517B
100
AcDbEntity
  8
0
 62
     0
370
    -2
100
AcDbLine
 10
39.32499243990907
 20
-6.231367562091834
 30
0.0
 11
39.32499243990907
 21
-7.999758202092574
 31
0.0
  0
SOLID
  5
5886
330
517B
100
AcDbEntity
  8
0
 62
     0
100
AcDbTrace
 10
39.19669243990906
 20
-10.71794884209331
 30
0.0
 11
39.45329243990907
 21
-10.71794884209331
 31
0.0
 12
39.32499243990907
 22
-11.48774884209331
 32
0.0
 13
39.32499243990907
 23
-11.48774884209331
 33
0.0
  0
SOLID
  5
5887
330
517B
100
AcDbEntity
  8
0
 62
     0
100
AcDbTrace
 10
39.19669243990906
 20
-6.231367562091834
 30
0.0
 11
39.45329243990907
 21
-6.231367562091834
 31
0.0
 12
39.32499243990907
 22
-5.461567562091834
 32
0.0
 13
39.32499243990907
 23
-5.461567562091834
 33
0.0
  0
MTEXT
  5
5888
330
517B
100
AcDbEntity
  8
0
 62
     0
100
AcDbMText
 10
39.32499243990907
 20
-8.474658202092568
 30
0.0
 40
0.7698000000000002
 41
0.0
 71
     5
 72
     1
  1
\A1;6.026
 73
     1
 44
1.0
1001
ACAD
1000
MTEXTBEGIN
1070
    73
1070
     1
1070
    44
1040
1.0
1070
    74
1070
     0
1000
MTEXTEND
  0
POINT
  5
5889
330
517B
100
AcDbEntity
  8
Defpoints
 62
     0
100
AcDbPoint
 10
32.78202479408597
 20
-11.48774884209331
 30
0.0
  0
POINT
  5
588A
330
517B
100
AcDbEntity
  8
Defpoints
 62
     0
100
AcDbPoint
 10
37.03202479408608
 20
-5.461567562091833
 30
0.0
  0
POINT
  5
588B
330
517B
100
AcDbEntity
  8
Defpoints
 62
     0
100
AcDbPoint
 10
39.32499243990907
 20
-5.461567562091834
 30
0.0
  0
ENDBLK
  5
5187
330
517B
100
AcDbEntity
  8
0
100
AcDbBlockEnd
  0
BLOCK
  5
58C8
330
58C2
100
AcDbEntity
  8
0
100
AcDbBlockBegin
  2
*D27
 70
     1
 10
0.0
 20
0.0
 30
0.0
  3
*D27
  1

  0
LINE
  5
58DD
330
58C2
100
AcDbEntity
  8
0
 62
     0
370
    -2
100
AcDbLine
 10
9.509528285371466
 20
-174.0249450322595
 30
0.0
 11
9.509528285371466
 21
-172.2749450322595
 31
0.0
  0
LINE
  5
58DE
330
58C2
100
AcDbEntity
  8
0
 62
     0
370
    -2
100
AcDbLine
 10
9.509528285371466
 20
-172.2749450322595
 30
0.0
 11
8.772089184435344
 21
-171.7749450322595
 31
0.0
  0
LINE
  5
58DF
330
58C2
100
AcDbEntity
  8
0
 62
     0
370
    -2
100
AcDbLine
 10
8.772089184435344
 20
-171.7749450322595
 30
0.0
 11
8.772089184435344
 21
-171.2749450322595
 31
0.0
  0
MTEXT
  5
58E0
330
58C2
100
AcDbEntity
  8
0
 62
     0
100
AcDbMText
 10
8.772089184435371
 20
-167.6404450322595
 30
0.0
 40
0.9451999999999999
 41
0.0
 71
     5
 72
     1
  1
\A1;16.000 (4)
 11
0.0000000000000001
 21
1.0
 31
0.0
 73
     1
 44
1.0
1001
ACAD
1000
MTEXTBEGIN
1070
    73
1070
     1
1070
    44
1040
1.0
1070
    74
1070
     0
1000
MTEXTEND
  0
POINT
  5
58E1
330
58C2
100
AcDbEntity
  8
Defpoints
 62
     0
100
AcDbPoint
 10
9.509528285371466
 20
-174.2749450322595
 30
0.0
  0
POINT
  5
58E2
330
58C2
100
AcDbEntity
  8
Defpoints
 62
     0
100
AcDbPoint
 10
8.772089184435344
 20
-171.2749450322595
 30
0.0
  0
POINT
  5
58E3
330
58C2
100
AcDbEntity
  8
Defpoints
 62
     0
100
AcDbPoint
 10
-6.49047171462853
 20
-213.0849450322595
 30
0.0
  0
ENDBLK
  5
58C9
330
58C2
100
AcDbEntity
  8
0
100
AcDbBlockEnd
  0
BLOCK
  5
5937
330
592E
100
AcDbEntity
  8
0
100
AcDbBlockBegin
  2
*D28
 70
     1
 10
0.0
 20
0.0
 30
0.0
  3
*D28
  1

  0
LINE
  5
5953
330
592E
100
AcDbEntity
  8
0
 62
     0
370
    -2
100
AcDbLine
 10
13.45472828537129
 20
-181.9845479055942
 30
0.0
 11
12.50952828537119
 21
-181.9845479055942
 31
0.0
  0
LINE
  5
5954
330
592E
100
AcDbEntity
  8
0
 62
     0
370
    -2
100
AcDbLine
 10
12.50952828537119
 20
-181.9845479055942
 30
0.0
 11
6.571225219279469
 21
-179.9572661690756
 31
0.0
  0
MTEXT
  5
5955
330
592E
100
AcDbEntity
  8
0
 62
     0
100
AcDbMText
 10
15.82896161870462
 20
-181.9845479055942
 30
0.0
 40
0.9451999999999999
 41
0.0
 71
     5
 72
     1
  1
\A1;\U+22057.750
 73
     1
 44
1.0
1001
ACAD
1000
MTEXTBEGIN
1070
    73
1070
     1
1070
    44
1040
1.0
1070
    74
1070
     0
1000
MTEXTEND
  0
SOLID
  5
5956
330
592E
100
AcDbEntity
  8
0
 62
     0
100
AcDbTrace
 10
6.622121445525912
 20
-179.808181209187
 30
0.0
 11
6.520328993033024
 21
-180.1063511289642
 31
0.0
 12
5.676715459947934
 22
-179.651888811597
 32
0.0
 13
5.676715459947934
 23
-179.651888811597
 33
0.0
  0
LINE
  5
5957
330
592E
100
AcDbEntity
  8
0
 62
     0
370
    -2
100
AcDbLine
 10
1.919528285371455
 20
-178.3999450322595
 30
0.0
 11
2.099528285371454
 21
-178.3999450322595
 31
0.0
  0
LINE
  5
5958
330
592E
100
AcDbEntity
  8
0
 62
     0
370
    -2
100
AcDbLine
 10
2.009528285371459
 20
-178.4899450322595
 30
0.0
 11
2.009528285371459
 21
-178.3099450322595
 31
0.0
  0
POINT
  5
5959
330
592E
100
AcDbEntity
  8
Defpoints
 62
     0
100
AcDbPoint
 10
5.676715459947934
 20
-179.651888811597
 30
0.0
  0
POINT
  5
595A
330
592E
100
AcDbEntity
  8
Defpoints
 62
     0
100
AcDbPoint
 10
-1.657658889205008
 20
-177.148001252922
 30
0.0
  0
ENDBLK
  5
5938
330
592E
100
AcDbEntity
  8
0
100
AcDbBlockEnd
  0
BLOCK
  5
5965
330
595C
100
AcDbEntity
  8
0
100
AcDbBlockBegin
  2
*D29
 70
     1
 10
0.0
 20
0.0
 30
0.0
  3
*D29
  1

  0
LINE
  5
5971
330
595C
100
AcDbEntity
  8
0
 62
     0
370
    -2
100
AcDbLine
 10
-9.435671714628554
 20
-180.7797798936034
 30
0.0
 11
-8.490471714628569
 21
-180.7797798936034
 31
0.0
  0
LINE
  5
5972
330
595C
100
AcDbEntity
  8
0
 62
     0
370
    -2
100
AcDbLine
 10
-8.490471714628569
 20
-180.7797798936034
 30
0.0
 11
-5.757593405028956
 21
-179.4142754582571
 31
0.0
  0
MTEXT
  5
5973
330
595C
100
AcDbEntity
  8
0
 62
     0
100
AcDbMText
 10
-11.65237171462857
 20
-180.7797798936034
 30
0.0
 40
0.9451999999999999
 41
0.0
 71
     5
 72
     1
  1
\A1;\U+22051.250
 73
     1
 44
1.0
1001
ACAD
1000
MTEXTBEGIN
1070
    73
1070
     1
1070
    44
1040
1.0
1070
    74
1070
     0
1000
MTEXTEND
  0
SOLID
  5
5974
330
595C
100
AcDbEntity
  8
0
 62
     0
100
AcDbTrace
 10
-5.828005891618017
 20
-179.2733540871189
 30
0.0
 11
-5.687180918439892
 21
-179.5551968293953
 31
0.0
 12
-4.912065178200052
 22
-178.9918005387226
 32
0.0
 13
-4.912065178200052
 23
-178.9918005387226
 33
0.0
  0
LINE
  5
5975
330
595C
100
AcDbEntity
  8
0
 62
     0
370
    -2
100
AcDbLine
 10
-4.442971714628256
 20
-178.7124450322596
 30
0.0
 11
-4.262971714628278
 21
-178.7124450322596
 31
0.0
  0
LINE
  5
5976
330
595C
100
AcDbEntity
  8
0
 62
     0
370
    -2
100
AcDbLine
 10
-4.352971714628252
 20
-178.8024450322596
 30
0.0
 11
-4.352971714628252
 21
-178.6224450322596
 31
0.0
  0
POINT
  5
5977
330
595C
100
AcDbEntity
  8
Defpoints
 62
     0
100
AcDbPoint
 10
-4.912065178200052
 20
-178.9918005387226
 30
0.0
  0
POINT
  5
5978
330
595C
100
AcDbEntity
  8
Defpoints
 62
     0
100
AcDbPoint
 10
-3.793878251056455
 20
-178.4330895257964
 30
0.0
  0
ENDBLK
  5
5966
330
595C
100
AcDbEntity
  8
0
100
AcDbBlockEnd
  0
BLOCK
  5
5983
330
597A
100
AcDbEntity
  8
0
100
AcDbBlockBegin
  2
*D30
 70
     1
 10
0.0
 20
0.0
 30
0.0
  3
*D30
  1

  0
LINE
  5
599F
330
597A
100
AcDbEntity
  8
0
 62
     0
370
    -2
100
AcDbLine
 10
13.45472828537159
 20
-205.1680390346569
 30
0.0
 11
12.50952828537158
 21
-205.1680390346569
 31
0.0
  0
LINE
  5
59A0
330
597A
100
AcDbEntity
  8
0
 62
     0
370
    -2
100
AcDbLine
 10
12.50952828537158
 20
-205.1680390346569
 30
0.0
 11
10.36788686627426
 21
-203.3240186663383
 31
0.0
  0
MTEXT
  5
59A1
330
597A
100
AcDbEntity
  8
0
 62
     0
100
AcDbMText
 10
16.93169495203824
 20
-205.1680390346569
 30
0.0
 40
0.9451999999999999
 41
0.0
 71
     5
 72
     1
  1
\A1;\U+22050.375(8)
 73
     1
 44
1.0
1001
ACAD
1000
MTEXTBEGIN
1070
    73
1070
     1
1070
    44
1040
1.0
1070
    74
1070
     0
1000
MTEXTEND
  0
SOLID
  5
59A2
330
597A
100
AcDbEntity
  8
0
 62
     0
100
AcDbTrace
 10
10.47067554214184
 20
-203.2046401120477
 30
0.0
 11
10.26509819040667
 21
-203.4433972206288
 31
0.0
 12
9.651615540531011
 22
-202.7072866111327
 32
0.0
 13
9.651615540531011
 23
-202.7072866111327
 33
0.0
  0
LINE
  5
59A3
330
597A
100
AcDbEntity
  8
0
 62
     0
370
    -2
100
AcDbLine
 10
9.419528285371411
 20
-202.5849450322594
 30
0.0
 11
9.599528285371434
 21
-202.5849450322594
 31
0.0
  0
LINE
  5
59A4
330
597A
100
AcDbEntity
  8
0
 62
     0
370
    -2
100
AcDbLine
 10
9.509528285371414
 20
-202.6749450322595
 30
0.0
 11
9.509528285371443
 21
-202.4949450322595
 31
0.0
  0
POINT
  5
59A5
330
597A
100
AcDbEntity
  8
Defpoints
 62
     0
100
AcDbPoint
 10
9.651615540531011
 20
-202.7072866111327
 30
0.0
  0
POINT
  5
59A6
330
597A
100
AcDbEntity
  8
Defpoints
 62
     0
100
AcDbPoint
 10
9.36744103021182
 20
-202.4626034533862
 30
0.0
  0
ENDBLK
  5
5984
330
597A
100
AcDbEntity
  8
0
100
AcDbBlockEnd
  0
ENDSEC
  0
SECTION
  2
ENTITIES
  0
LINE
  5
2A84
330
1F
100
AcDbEntity
  8
0
  6
HIDDEN
 48
0.125
100
AcDbLine
 10
-6.49047171462853
 20
-213.0849450322595
 30
0.0
 11
10.50952828537147
 21
-213.0849450322595
 31
0.0
  0
LINE
  5
2A88
330
1F
100
AcDbEntity
  8
0
  6
HIDDEN
 48
0.125
100
AcDbLine
 10
-6.49047171462853
 20
-173.2749450322595
 30
0.0
 11
-6.49047171462853
 21
-213.0849450322595
 31
0.0
  0
LINE
  5
2A89
330
1F
100
AcDbEntity
  8
0
  6
HIDDEN
 48
0.125
100
AcDbLine
 10
10.50952828537147
 20
-173.2749450322595
 30
0.0
 11
10.50952828537147
 21
-213.0849450322595
 31
0.0
  0
LINE
  5
2AA2
330
1F
100
AcDbEntity
  8
0
  6
HIDDEN
 48
0.125
100
AcDbLine
 10
-6.49047171462853
 20
-173.2749450322595
 30
0.0
 11
10.50952828537147
 21
-173.2749450322595
 31
0.0
  0
LINE
  5
2AA3
102
{ACAD_REACTORS
330
4EB4
102
}
330
1F
100
AcDbEntity
  8
0
  6
HIDDEN
 48
0.125
100
AcDbLine
 10
10.50952828537147
 20
-173.2749450322595
 30
0.0
 11
10.50952828537147
 21
-213.0849450322595
 31
0.0
  0
LINE
  5
2AA4
102
{ACAD_REACTORS
330
4DC5
102
}
330
1F
100
AcDbEntity
  8
0
  6
HIDDEN
 48
0.125
100
AcDbLine
 10
-6.49047171462853
 20
-173.2749450322595
 30
0.0
 11
-6.49047171462853
 21
-213.0849450322595
 31
0.0
  0
CIRCLE
  5
2AC0
102
{ACAD_REACTORS
330
4E60
330
5942
102
}
330
1F
100
AcDbEntity
  8
0
100
AcDbCircle
 10
2.009528285371469
 20
-178.3999450322595
 30
0.0
 40
3.875
  0
LINE
  5
2AC1
330
1F
100
AcDbEntity
  8
0
100
AcDbLine
 10
-6.190471714628347
 20
-196.0744450322592
 30
0.0
 11
10.20952828537174
 21
-196.0744450322592
 31
0.0
  0
LINE
  5
2AC2
330
1F
100
AcDbEntity
  8
0
100
AcDbLine
 10
-6.190471714628347
 20
-200.5744450322592
 30
0.0
 11
10.20952828537174
 21
-200.5744450322592
 31
0.0
  0
LINE
  5
2AC3
102
{ACAD_REACTORS
330
4E40
102
}
330
1F
100
AcDbEntity
  8
0
100
AcDbLine
 10
-6.190471714628347
 20
-200.5744450322592
 30
0.0
 11
-6.190471714628347
 21
-196.0744450322592
 31
0.0
  0
LINE
  5
2AC4
102
{ACAD_REACTORS
330
4E17
102
}
330
1F
100
AcDbEntity
  8
0
100
AcDbLine
 10
10.20952828537174
 20
-200.5744450322592
 30
0.0
 11
10.20952828537174
 21
-196.0744450322592
 31
0.0
  0
CIRCLE
  5
2AC5
102
{ACAD_REACTORS
330
4E89
102
}
330
1F
100
AcDbEntity
  8
0
100
AcDbCircle
 10
-5.49047171462853
 20
-174.2749450322595
 30
0.0
 40
0.1875
  0
CIRCLE
  5
2AC6
330
1F
100
AcDbEntity
  8
0
100
AcDbCircle
 10
9.509528285371466
 20
-174.2749450322595
 30
0.0
 40
0.1875
  0
CIRCLE
  5
2AC7
330
1F
100
AcDbEntity
  8
0
100
AcDbCircle
 10
9.509528285371466
 20
-183.7749450322595
 30
0.0
 40
0.1875
  0
CIRCLE
  5
2AC8
102
{ACAD_REACTORS
330
4E50
102
}
330
1F
100
AcDbEntity
  8
0
100
AcDbCircle
 10
-5.49047171462853
 20
-183.7749450322595
 30
0.0
 40
0.1875
  0
CIRCLE
  5
2AC9
102
{ACAD_REACTORS
330
4E07
102
}
330
1F
100
AcDbEntity
  8
0
100
AcDbCircle
 10
-5.49047171462853
 20
-202.5849450322595
 30
0.0
 40
0.1875
  0
CIRCLE
  5
2ACA
102
{ACAD_REACTORS
330
598E
102
}
330
1F
100
AcDbEntity
  8
0
100
AcDbCircle
 10
9.509528285371466
 20
-202.5849450322595
 30
0.0
 40
0.1875
  0
CIRCLE
  5
2ACB
102
{ACAD_REACTORS
330
4DDE
102
}
330
1F
100
AcDbEntity
  8
0
100
AcDbCircle
 10
-5.49047171462853
 20
-212.0849450322594
 30
0.0
 40
0.1875
  0
CIRCLE
  5
2ACC
330
1F
100
AcDbEntity
  8
0
100
AcDbCircle
 10
9.509528285371466
 20
-212.0849450322594
 30
0.0
 40
0.1875
  0
CIRCLE
  5
2ACD
102
{ACAD_REACTORS
330
4E74
330
5970
102
}
330
1F
100
AcDbEntity
  8
0
100
AcDbCircle
 10
-4.352971714628256
 20
-178.7124450322595
 30
0.0
 40
0.625
  0
DIMENSION
  5
4DB6
102
{ACAD_XDICTIONARY
360
4DBF
102
}
102
{ACAD_REACTORS
330
4DC5
102
}
330
1F
100
AcDbEntity
  8
0
100
AcDbDimension
  2
*D7
 10
-6.49047171462853
 20
-213.0849450322595
 30
0.0
 11
-6.490471714628495
 21
-216.7502783655928
 31
0.0
 70
   102
 71
     5
 42
0.0
  3
Standard
100
AcDbOrdinateDimension
 13
-6.49047171462853
 23
-213.0849450322595
 33
0.0
 14
-6.49047171462853
 24
-215.0849450322595
 34
0.0
1001
ACAD
1000
DSTYLE
1002
{
1070
    41
1040
0.25
1070
   140
1040
0.9451999999999999
1002
}
  0
DIMENSION
  5
4DC6
330
1F
100
AcDbEntity
  8
0
100
AcDbDimension
  2
*D8
 10
-6.49047171462853
 20
-213.0849450322595
 30
0.0
 11
-10.15580504796186
 21
-213.0849450322595
 31
0.0
 70
    38
 71
     5
 42
0.0
  3
Standard
100
AcDbOrdinateDimension
 13
-6.49047171462853
 23
-213.0849450322595
 33
0.0
 14
-8.49047171462853
 24
-213.0849450322595
 34
0.0
1001
ACAD
1000
DSTYLE
1002
{
1070
    41
1040
0.25
1070
   140
1040
0.9451999999999999
1002
}
  0
DIMENSION
  5
4DCF
102
{ACAD_XDICTIONARY
360
4DD8
102
}
102
{ACAD_REACTORS
330
4DDE
102
}
330
1F
100
AcDbEntity
  8
0
100
AcDbDimension
  2
*D9
 10
-6.49047171462853
 20
-213.0849450322595
 30
0.0
 11
-10.07703838129519
 21
-210.9191602242569
 31
0.0
 70
    38
 71
     5
 42
-1.0
  3
Standard
100
AcDbOrdinateDimension
 13
-5.49047171462853
 23
-212.0849450322594
 33
0.0
 14
-8.49047171462853
 24
-210.9191602242569
 34
0.0
1001
ACAD
1000
DSTYLE
1002
{
1070
    41
1040
0.25
1070
   140
1040
0.9451999999999999
1002
}
  0
DIMENSION
  5
4DF8
102
{ACAD_XDICTIONARY
360
4E01
102
}
102
{ACAD_REACTORS
330
4E07
102
}
330
1F
100
AcDbEntity
  8
0
100
AcDbDimension
  2
*D10
 10
-6.49047171462853
 20
-213.0849450322595
 30
0.0
 11
-10.5496383812952
 21
-202.5849450322595
 31
0.0
 70
    38
 71
     5
 42
10.5
  3
Standard
100
AcDbOrdinateDimension
 13
-5.49047171462853
 23
-202.5849450322595
 33
0.0
 14
-8.49047171462853
 24
-202.5849450322595
 34
0.0
1001
ACAD
1000
DSTYLE
1002
{
1070
    41
1040
0.25
1070
   140
1040
0.9451999999999999
1002
}
  0
DIMENSION
  5
4E08
102
{ACAD_XDICTIONARY
360
4E11
102
}
102
{ACAD_REACTORS
330
4E17
102
}
330
1F
100
AcDbEntity
  8
0
100
AcDbDimension
  2
*D11
 10
-6.49047171462853
 20
-213.0849450322595
 30
0.0
 11
14.48992828537147
 21
-200.5744450322592
 31
0.0
 70
    38
 71
     5
 42
12.51050000000032
  3
Standard
100
AcDbOrdinateDimension
 13
10.20952828537174
 23
-200.5744450322592
 33
0.0
 14
12.50952828537147
 24
-200.5744450322592
 34
0.0
1001
ACAD
1000
DSTYLE
1002
{
1070
    41
1040
0.25
1070
   140
1040
0.9451999999999999
1002
}
  0
DIMENSION
  5
4E18
330
1F
100
AcDbEntity
  8
0
100
AcDbDimension
  2
*D12
 10
-6.49047171462853
 20
-213.0849450322595
 30
0.0
 11
14.4111616187048
 21
-196.0744450322592
 31
0.0
 70
    38
 71
     5
 42
17.01050000000032
  3
Standard
100
AcDbOrdinateDimension
 13
10.20952828537174
 23
-196.0744450322592
 33
0.0
 14
12.50952828537147
 24
-196.0744450322592
 34
0.0
1001
ACAD
1000
DSTYLE
1002
{
1070
    41
1040
0.25
1070
   140
1040
0.9451999999999999
1002
}
  0
DIMENSION
  5
4E28
330
1F
100
AcDbEntity
  8
0
100
AcDbDimension
  2
*D13
 10
-6.49047171462853
 20
-213.0849450322595
 30
0.0
 11
8.062190429477626
 21
-191.9365116989258
 31
0.0
 70
   102
 71
     5
 42
16.70000000000027
  3
Standard
100
AcDbOrdinateDimension
 13
10.20952828537174
 23
-196.0744450322592
 33
0.0
 14
8.062190429477595
 24
-194.0744450322592
 34
0.0
1001
ACAD
1000
DSTYLE
1002
{
1070
    41
1040
0.25
1070
   140
1040
0.9451999999999999
1002
}
  0
DIMENSION
  5
4E31
102
{ACAD_XDICTIONARY
360
4E3A
102
}
102
{ACAD_REACTORS
330
4E40
102
}
330
1F
100
AcDbEntity
  8
0
100
AcDbDimension
  2
*D14
 10
-6.49047171462853
 20
-213.0849450322595
 30
0.0
 11
-4.043133858734169
 21
-192.3303450322592
 31
0.0
 70
   102
 71
     5
 42
0.3000000000001783
  3
Standard
100
AcDbOrdinateDimension
 13
-6.190471714628347
 23
-196.0744450322592
 33
0.0
 14
-4.043133858734201
 24
-194.0744450322592
 34
0.0
1001
ACAD
1000
DSTYLE
1002
{
1070
    41
1040
0.25
1070
   140
1040
0.9451999999999999
1002
}
  0
DIMENSION
  5
4E41
102
{ACAD_XDICTIONARY
360
4E4A
102
}
102
{ACAD_REACTORS
330
4E50
102
}
330
1F
100
AcDbEntity
  8
0
100
AcDbDimension
  2
*D15
 10
-6.49047171462853
 20
-213.0849450322595
 30
0.0
 11
-10.70717171462853
 21
-183.7749450322595
 31
0.0
 70
    38
 71
     5
 42
29.30999999999997
  3
Standard
100
AcDbOrdinateDimension
 13
-5.49047171462853
 23
-183.7749450322595
 33
0.0
 14
-8.49047171462853
 24
-183.7749450322595
 34
0.0
1001
ACAD
1000
DSTYLE
1002
{
1070
    41
1040
0.25
1070
   140
1040
0.9451999999999999
1002
}
  0
DIMENSION
  5
4E51
102
{ACAD_XDICTIONARY
360
4E5A
102
}
102
{ACAD_REACTORS
330
4E60
102
}
330
1F
100
AcDbEntity
  8
0
100
AcDbDimension
  2
*D16
 10
-6.49047171462853
 20
-213.0849450322595
 30
0.0
 11
14.96252828537147
 21
-178.3999450322595
 31
0.0
 70
    38
 71
     5
 42
34.68499999999997
  3
Standard
100
AcDbOrdinateDimension
 13
2.009528285371469
 23
-178.3999450322595
 33
0.0
 14
12.50952828537147
 24
-178.3999450322595
 34
0.0
1001
ACAD
1000
DSTYLE
1002
{
1070
    41
1040
0.25
1070
   140
1040
0.9451999999999999
1002
}
  0
DIMENSION
  5
4E61
102
{ACAD_XDICTIONARY
360
4E6C
102
}
102
{ACAD_REACTORS
330
4E74
102
}
330
1F
100
AcDbEntity
  8
0
100
AcDbDimension
  2
*D17
 10
-6.49047171462853
 20
-213.0849450322595
 30
0.0
 11
-10.94347171462853
 21
-178.7124450322595
 31
0.0
 70
    38
 71
     5
 42
34.37249999999997
  3
Standard
100
AcDbOrdinateDimension
 13
-4.352971714628256
 23
-178.7124450322595
 33
0.0
 14
-8.49047171462853
 24
-178.7124450322595
 34
0.0
1001
ACAD
1000
DSTYLE
1002
{
1070
    41
1040
0.25
1070
   140
1040
0.9451999999999999
1002
}
  0
DIMENSION
  5
4E7A
102
{ACAD_XDICTIONARY
360
4E83
102
}
102
{ACAD_REACTORS
330
4E89
102
}
330
1F
100
AcDbEntity
  8
0
100
AcDbDimension
  2
*D18
 10
-6.49047171462853
 20
-213.0849450322595
 30
0.0
 11
-10.70717171462853
 21
-174.2749450322595
 31
0.0
 70
    38
 71
     5
 42
38.81
  3
Standard
100
AcDbOrdinateDimension
 13
-5.49047171462853
 23
-174.2749450322595
 33
0.0
 14
-8.49047171462853
 24
-174.2749450322595
 34
0.0
1001
ACAD
1000
DSTYLE
1002
{
1070
    41
1040
0.25
1070
   140
1040
0.9451999999999999
1002
}
  0
DIMENSION
  5
4E8A
330
1F
100
AcDbEntity
  8
0
100
AcDbDimension
  2
*D19
 10
-6.49047171462853
 20
-213.0849450322595
 30
0.0
 11
-5.490471714628502
 21
-168.1130450322595
 31
0.0
 70
   102
  1
<> (4)
 71
     5
 42
0.9999999999999921
  3
Standard
100
AcDbOrdinateDimension
 13
-5.49047171462853
 23
-174.2749450322595
 33
0.0
 14
-5.49047171462853
 24
-171.2749450322595
 34
0.0
1001
ACAD
1000
DSTYLE
1002
{
1070
    41
1040
0.25
1070
   140
1040
0.9451999999999999
1002
}
  0
DIMENSION
  5
4E93
330
1F
100
AcDbEntity
  8
0
100
AcDbDimension
  2
*D20
 10
-6.49047171462853
 20
-213.0849450322595
 30
0.0
 11
-3.324686906625846
 21
-169.4520783655928
 31
0.0
 70
   102
 71
     5
 42
2.137500000000264
  3
Standard
100
AcDbOrdinateDimension
 13
-4.352971714628256
 23
-178.7124450322595
 33
0.0
 14
-3.324686906625873
 24
-171.2749450322595
 34
0.0
1001
ACAD
1000
DSTYLE
1002
{
1070
    41
1040
0.25
1070
   140
1040
0.9451999999999999
1002
}
  0
DIMENSION
  5
4E9C
330
1F
100
AcDbEntity
  8
0
100
AcDbDimension
  2
*D21
 10
-6.49047171462853
 20
-213.0849450322595
 30
0.0
 11
2.009528285371496
 21
-169.4520783655928
 31
0.0
 70
   102
 71
     5
 42
8.499999999999991
  3
Standard
100
AcDbOrdinateDimension
 13
2.009528285371469
 23
-178.3999450322595
 33
0.0
 14
2.009528285371469
 24
-171.2749450322595
 34
0.0
1001
ACAD
1000
DSTYLE
1002
{
1070
    41
1040
0.25
1070
   140
1040
0.9451999999999999
1002
}
  0
DIMENSION
  5
4EA5
102
{ACAD_XDICTIONARY
360
4EAE
102
}
102
{ACAD_REACTORS
330
4EB4
102
}
330
1F
100
AcDbEntity
  8
0
100
AcDbDimension
  2
*D22
 10
-6.49047171462853
 20
-213.0849450322595
 30
0.0
 11
10.50952828537149
 21
-169.2157783655928
 31
0.0
 70
   102
 71
     5
 42
16.99999999999999
  3
Standard
100
AcDbOrdinateDimension
 13
10.50952828537147
 23
-173.2749450322595
 33
0.0
 14
10.50952828537147
 24
-171.2749450322595
 34
0.0
1001
ACAD
1000
DSTYLE
1002
{
1070
    41
1040
0.25
1070
   140
1040
0.9451999999999999
1002
}
  0
DIMENSION
  5
4EB5
330
1F
100
AcDbEntity
  8
0
100
AcDbDimension
  2
*D23
 10
-6.49047171462853
 20
-213.0849450322595
 30
0.0
 11
14.72622828537147
 21
-173.2749450322595
 31
0.0
 70
    38
 71
     5
 42
39.81
  3
Standard
100
AcDbOrdinateDimension
 13
10.50952828537147
 23
-173.2749450322595
 33
0.0
 14
12.50952828537147
 24
-173.2749450322595
 34
0.0
1001
ACAD
1000
DSTYLE
1002
{
1070
    41
1040
0.25
1070
   140
1040
0.9451999999999999
1002
}
  0
TEXT
  5
50AC
330
1F
100
AcDbEntity
  8
0
100
AcDbText
 10
-4.449338381295197
 20
-162.7204638452721
 30
0.0
 40
0.9451999999999999
  1
CUTOUT DRAWING
 72
     1
 11
2.009528285371469
 21
-162.7204638452721
 31
0.0
100
AcDbText
  0
TEXT
  5
50AD
330
1F
100
AcDbEntity
  8
0
100
AcDbText
 10
-2.558938381295197
 20
-161.0537971786054
 30
0.0
 40
0.9451999999999999
  1
IQ6100HE-CF
 72
     1
 11
2.009528285371469
 21
-161.0537971786054
 31
0.0
100
AcDbText
  0
TEXT
  5
55F1
330
1F
100
AcDbEntity
  8
TEXT
100
AcDbText
 10
-20.72542387258581
 20
-228.3645450820901
 30
0.0
 40
0.1942763480756104
  1
REVISIONS
 72
     1
 11
-19.91593908893744
 21
-228.2674069080523
 31
0.0
100
AcDbText
 73
     2
  0
TEXT
  5
55F2
330
1F
100
AcDbEntity
  8
TEXT
100
AcDbText
 10
-20.88732082931549
 20
-227.9759923859388
 30
0.0
 40
0.1942763480756104
  1
DESCRIPTION
 72
     1
 11
-19.91593908893744
 21
-227.878854211901
 31
0.0
100
AcDbText
 73
     2
  0
TEXT
  5
55F3
330
1F
100
AcDbEntity
  8
TEXT
100
AcDbText
 10
-24.69513725159735
 20
-227.9759923859388
 30
0.0
 40
0.1942763480756104
  1
REV
 72
     1
 11
-24.40372272948394
 21
-227.878854211901
 31
0.0
100
AcDbText
 73
     2
  0
LINE
  5
55F4
330
1F
100
AcDbEntity
  8
BORDER
100
AcDbLine
 10
-23.97874321806853
 20
-228.0731305599767
 30
0.0
 11
-23.97874321806853
 21
-227.6845778638254
 31
0.0
  0
LINE
  5
55F5
330
1F
100
AcDbEntity
  8
BORDER
100
AcDbLine
 10
-23.97874321806853
 20
-227.6845778638254
 30
0.0
 11
-23.97874321806853
 21
-227.2960251676741
 31
0.0
  0
LINE
  5
55F6
330
1F
100
AcDbEntity
  8
BORDER
100
AcDbLine
 10
-12.20423406782449
 20
-227.6845778638254
 30
0.0
 11
-24.82870224089934
 21
-227.6845778638254
 31
0.0
  0
LINE
  5
55F7
330
1F
100
AcDbEntity
  8
BORDER
100
AcDbLine
 10
-12.20423406782449
 20
-227.2960251676741
 30
0.0
 11
-24.82870224089934
 21
-227.2960251676741
 31
0.0
  0
TEXT
  5
55F8
330
1F
100
AcDbEntity
  8
TEXT
100
AcDbText
 10
-21.24349413412078
 20
-227.5874396897875
 30
0.0
 40
0.1942763480756104
  1
INITIAL RELEASE
 72
     1
 11
-19.91593908893744
 21
-227.4903015157498
 31
0.0
100
AcDbText
 73
     2
  0
TEXT
  5
55F9
330
1F
100
AcDbEntity
  8
TEXT
100
AcDbText
 10
-15.59733776817334
 20
-227.5874396897875
 30
0.0
 40
0.1942763480756104
  1
4-16-08
 72
     1
 11
-14.99831902827354
 21
-227.4903015157498
 31
0.0
100
AcDbText
 73
     2
  0
TEXT
  5
55FA
330
1F
100
AcDbEntity
  8
TEXT
100
AcDbText
 10
-15.35449233307883
 20
-227.9759923859388
 30
0.0
 40
0.1942763480756104
  1
DATE
 72
     1
 11
-14.99831902827354
 21
-227.878854211901
 31
0.0
100
AcDbText
 73
     2
  0
LINE
  5
55FB
330
1F
100
AcDbEntity
  8
BORDER
100
AcDbLine
 10
-15.85313495980636
 20
-228.0731305599767
 30
0.0
 11
-15.85313495980636
 21
-227.6845778638254
 31
0.0
  0
LINE
  5
55FC
330
1F
100
AcDbEntity
  8
BORDER
100
AcDbLine
 10
-15.85313495980636
 20
-227.6845778638254
 30
0.0
 11
-15.85313495980636
 21
-227.2960251676741
 31
0.0
  0
LINE
  5
55FD
330
1F
100
AcDbEntity
  8
BORDER
100
AcDbLine
 10
-14.14350309674075
 20
-227.6845778638254
 30
0.0
 11
-14.14350309674075
 21
-227.2960251676741
 31
0.0
  0
LINE
  5
55FE
330
1F
100
AcDbEntity
  8
BORDER
100
AcDbLine
 10
-14.14350309674075
 20
-228.0731305599767
 30
0.0
 11
-14.14350309674075
 21
-227.6845778638254
 31
0.0
  0
TEXT
  5
55FF
330
1F
100
AcDbEntity
  8
TEXT
100
AcDbText
 10
-13.82145640920154
 20
-227.9759923859388
 30
0.0
 40
0.1942763480756104
  1
CHECKED
 72
     1
 11
-13.17386858228284
 21
-227.878854211901
 31
0.0
100
AcDbText
 73
     2
  0
TEXT
  5
5600
330
1F
100
AcDbEntity
  8
TEXT
100
AcDbText
 10
-13.43290371305032
 20
-227.5874396897875
 30
0.0
 40
0.1942763480756104
  1
JMH
 72
     1
 11
-13.17386858228284
 21
-227.4903015157498
 31
0.0
100
AcDbText
 73
     2
  0
TEXT
  5
5601
330
1F
100
AcDbEntity
  8
TEXT
100
AcDbText
 10
-24.45229181650306
 20
-227.5916433691111
 30
0.0
 40
0.1942763480756104
  1
0
 72
     1
 11
-24.40372272948416
 21
-227.4945051950734
 31
0.0
100
AcDbText
 73
     2
  0
TEXT
  5
5602
330
1F
100
AcDbEntity
  8
TEXT
100
AcDbText
 10
-24.69513725159735
 20
-227.9759923859388
 30
0.0
 40
0.1942763480756104
  1
REV
 72
     1
 11
-24.40372272948394
 21
-227.878854211901
 31
0.0
100
AcDbText
 73
     2
  0
LINE
  5
5605
330
1F
100
AcDbEntity
  8
BORDER
100
AcDbLine
 10
-12.20423406782449
 20
-228.0731305599767
 30
0.0
 11
-24.82870224089934
 21
-228.0731305599767
 31
0.0
  0
LINE
  5
5606
330
1F
100
AcDbEntity
  8
BORDER
100
AcDbLine
 10
-12.20423406782449
 20
-227.2960251676741
 30
0.0
 11
-12.20423406782449
 21
-228.4616832561279
 31
0.0
  0
LINE
  5
572F
330
1F
100
AcDbEntity
  8
0
100
AcDbLine
 10
28.84775881164228
 20
-157.8982068083911
 30
0.0
 11
28.84775881164229
 21
-228.4616832561278
 31
0.0
  0
LINE
  5
5732
330
1F
100
AcDbEntity
  8
0
100
AcDbLine
 10
28.84775881164228
 20
-228.4616832561278
 30
0.0
 11
-24.82870224089932
 21
-228.4616832561279
 31
0.0
  0
LINE
  5
5733
330
1F
100
AcDbEntity
  8
0
100
AcDbLine
 10
-24.82870224089932
 20
-157.8982068083911
 30
0.0
 11
-24.82870224089932
 21
-228.4616832561279
 31
0.0
  0
TEXT
  5
5746
330
1F
100
AcDbEntity
  8
TEXT
100
AcDbText
 10
25.68403137143174
 20
-225.9471064344918
 30
0.0
 40
0.1214227175472565
  1
GREENSBURG, PA  15601
 72
     1
 11
26.85778430772189
 21
-225.8863950757182
 31
0.0
100
AcDbText
 73
     2
  0
TEXT
  5
5747
330
1F
100
AcDbEntity
  8
TEXT
100
AcDbText
 10
25.86616544775262
 20
-225.7042609993973
 30
0.0
 40
0.1214227175472565
  1
141 WILSON AVENUE
 72
     1
 11
26.85778430772189
 21
-225.6435496406236
 31
0.0
100
AcDbText
 73
     2
  0
TEXT
  5
5748
330
1F
100
AcDbEntity
  8
TEXT
100
AcDbText
 10
25.25905186001634
 20
-225.4735578360575
 30
0.0
 40
0.1214227175472565
  1
INDUSTRIAL COOLING EQUIPMENT
 72
     1
 11
26.85778430772189
 21
-225.4128464772839
 31
0.0
100
AcDbText
 73
     2
  0
LINE
  5
5749
330
1F
100
AcDbEntity
  8
BORDER
100
AcDbLine
 10
22.56077817040362
 20
-225.2610680803498
 30
0.0
 11
28.84775881164228
 21
-225.2610680803498
 31
0.0
  0
LINE
  5
574A
330
1F
100
AcDbEntity
  8
TEXT
100
AcDbLine
 10
23.52718565609862
 20
-225.5848628232887
 30
0.0
 11
23.68881705637448
 21
-225.5848628232887
 31
0.0
  0
ARC
  5
574B
330
1F
100
AcDbEntity
  8
TEXT
100
AcDbCircle
 10
23.61539753468623
 20
-225.581448763801
 30
0.0
 40
0.0734988569101041
100
AcDbArc
 50
357.3376237443688
 51
85.63084243886228
  0
ARC
  5
574C
330
1F
100
AcDbEntity
  8
TEXT
100
AcDbCircle
 10
23.5924853697136
 20
-225.644121128197
 30
0.0
 40
0.1389150120829571
100
AcDbArc
 50
78.15621523986215
 51
106.6122408520289
  0
LINE
  5
574D
330
1F
100
AcDbEntity
  8
TEXT
100
AcDbLine
 10
23.52718565609862
 20
-225.567412717582
 30
0.0
 11
23.63318012190177
 21
-225.567412717582
 31
0.0
  0
ARC
  5
574E
330
1F
100
AcDbEntity
  8
TEXT
100
AcDbCircle
 10
23.57882863373027
 20
-225.5774991749663
 30
0.0
 40
0.0526187586438656
100
AcDbArc
 50
103.9179608006051
 51
168.9486088950488
  0
ARC
  5
574F
330
1F
100
AcDbEntity
  8
TEXT
100
AcDbCircle
 10
23.59093554261153
 20
-225.5660783988862
 30
0.0
 40
0.0422656466386058
100
AcDbArc
 50
358.1908821763629
 51
69.74957583403639
  0
ARC
  5
5750
330
1F
100
AcDbEntity
  8
TEXT
100
AcDbCircle
 10
23.58586840935706
 20
-225.6868318499804
 30
0.0
 40
0.1616113334521378
100
AcDbArc
 50
82.99970676553448
 51
97.00029323449177
  0
ARC
  5
5751
330
1F
100
AcDbEntity
  8
TEXT
100
AcDbCircle
 10
23.58470225780512
 20
-225.6062079927843
 30
0.0
 40
0.1004161053836589
100
AcDbArc
 50
108.5416613320869
 51
149.7652339536254
  0
ARC
  5
5752
330
1F
100
AcDbEntity
  8
TEXT
100
AcDbCircle
 10
23.58534493848063
 20
-225.6092669343337
 30
0.0
 40
0.1025379058280674
100
AcDbArc
 50
148.4692011102813
 51
195.5802361373346
  0
ARC
  5
5753
330
1F
100
AcDbEntity
  8
TEXT
100
AcDbCircle
 10
23.58344815386803
 20
-225.612322056205
 30
0.0
 40
0.0999198858421444
100
AcDbArc
 50
194.1847393568173
 51
248.658676732099
  0
ARC
  5
5754
330
1F
100
AcDbEntity
  8
TEXT
100
AcDbCircle
 10
23.62449082333763
 20
-225.5860585341831
 30
0.0
 40
0.0973125135629426
100
AcDbArc
 50
179.2959701761241
 51
227.5915484940839
  0
ARC
  5
5755
330
1F
100
AcDbEntity
  8
TEXT
100
AcDbCircle
 10
23.6032687382086
 20
-225.6033810801892
 30
0.0
 40
0.0703230054303647
100
AcDbArc
 50
230.841648863781
 51
280.5326941523483
  0
ARC
  5
5756
330
1F
100
AcDbEntity
  8
TEXT
100
AcDbCircle
 10
23.61245924284467
 20
-225.5843268174429
 30
0.0
 40
0.0882684700149377
100
AcDbArc
 50
272.3792098458872
 51
327.3581874363291
  0
ARC
  5
5757
330
1F
100
AcDbEntity
  8
TEXT
100
AcDbCircle
 10
23.58636440612877
 20
-225.565791727854
 30
0.0
 40
0.1450194573644791
100
AcDbArc
 50
254.2847830849331
 51
294.1819270465994
  0
ARC
  5
5758
330
1F
100
AcDbEntity
  8
TEXT
100
AcDbCircle
 10
23.59813650422276
 20
-225.6018065850209
 30
0.0
 40
0.1074176786496493
100
AcDbArc
 50
296.3233923707218
 51
339.8348331475733
  0
ARC
  5
5759
330
1F
100
AcDbEntity
  8
TEXT
100
AcDbCircle
 10
23.69170276286086
 20
-225.6374626741755
 30
0.0
 40
0.0073957202149409
100
AcDbArc
 50
349.2952029716974
 51
131.6626905469293
  0
ARC
  5
575A
330
1F
100
AcDbEntity
  8
TEXT
100
AcDbCircle
 10
23.37804893385075
 20
-225.8148983215402
 30
0.0
 40
0.309908753102807
100
AcDbArc
 50
84.62122141578795
 51
95.37877858421207
  0
ARC
  5
575B
330
1F
100
AcDbEntity
  8
TEXT
100
AcDbCircle
 10
23.39663135382084
 20
-225.5770179432417
 30
0.0
 40
0.0714349600398304
100
AcDbArc
 50
43.16761867319004
 51
81.57335966330677
  0
ARC
  5
575C
330
1F
100
AcDbEntity
  8
TEXT
100
AcDbCircle
 10
23.423934230813
 20
-225.5467946616569
 30
0.0
 40
0.0310276270189277
100
AcDbArc
 50
321.1558234807422
 51
36.94217904228484
  0
ARC
  5
575D
330
1F
100
AcDbEntity
  8
TEXT
100
AcDbCircle
 10
23.42982683773743
 20
-225.5425849741127
 30
0.0
 40
0.0299032270343581
100
AcDbArc
 50
205.1359642898991
 51
307.6679722285601
  0
ARC
  5
575E
330
1F
100
AcDbEntity
  8
TEXT
100
AcDbCircle
 10
23.4360736884505
 20
-225.541943535114
 30
0.0
 40
0.0358908812653804
100
AcDbArc
 50
180.010674400693
 51
201.8251852717944
  0
ARC
  5
575F
330
1F
100
AcDbEntity
  8
TEXT
100
AcDbCircle
 10
23.36489149587572
 20
-225.5525494328708
 30
0.0
 40
0.0368486088633266
100
AcDbArc
 50
16.71684440730712
 51
45.97719400398871
  0
ARC
  5
5760
330
1F
100
AcDbEntity
  8
TEXT
100
AcDbCircle
 10
23.3712362828874
 20
-225.8250920787348
 30
0.0
 40
0.2996589067031797
100
AcDbArc
 50
86.31431733543349
 51
93.9038194351591
  0
ARC
  5
5761
330
1F
100
AcDbEntity
  8
TEXT
100
AcDbCircle
 10
23.36043557893565
 20
-225.5986296255948
 30
0.0
 40
0.0929815692804018
100
AcDbArc
 50
97.06566064010193
 51
142.4986334312306
  0
ARC
  5
5762
330
1F
100
AcDbEntity
  8
TEXT
100
AcDbCircle
 10
23.35959410670829
 20
-225.6131649312598
 30
0.0
 40
0.1018771992059007
100
AcDbArc
 50
135.7093780000543
 51
195.2317137751515
  0
ARC
  5
5763
330
1F
100
AcDbEntity
  8
TEXT
100
AcDbCircle
 10
23.34995834447656
 20
-225.6162544421435
 30
0.0
 40
0.0917693436529865
100
AcDbArc
 50
194.9511061487637
 51
259.610313586206
  0
ARC
  5
5764
330
1F
100
AcDbEntity
  8
TEXT
100
AcDbCircle
 10
23.36461385398933
 20
-225.6125218665685
 30
0.0
 40
0.0990417173571716
100
AcDbArc
 50
251.6347706403379
 51
316.4182924463557
  0
ARC
  5
5765
330
1F
100
AcDbEntity
  8
TEXT
100
AcDbCircle
 10
23.35216490094368
 20
-225.5812237493613
 30
0.0
 40
0.1303996534817588
100
AcDbArc
 50
310.2152586008289
 51
331.30725072858
  0
ARC
  5
5766
330
1F
100
AcDbEntity
  8
TEXT
100
AcDbCircle
 10
23.3898313283224
 20
-225.6014492266466
 30
0.0
 40
0.0848170649557282
100
AcDbArc
 50
117.3722826858103
 51
160.0902491401915
  0
ARC
  5
5767
330
1F
100
AcDbEntity
  8
TEXT
100
AcDbCircle
 10
23.40078699801953
 20
-225.5934344589973
 30
0.0
 40
0.0930730009882087
100
AcDbArc
 50
167.0430028911446
 51
212.1309371309446
  0
ARC
  5
5768
330
1F
100
AcDbEntity
  8
TEXT
100
AcDbCircle
 10
23.38090470446305
 20
-225.604448762799
 30
0.0
 40
0.0703890095750392
100
AcDbArc
 50
213.1462108998183
 51
285.6537258536326
  0
ARC
  5
5769
330
1F
100
AcDbEntity
  8
TEXT
100
AcDbCircle
 10
23.38154443637151
 20
-225.5870745167121
 30
0.0
 40
0.0871078588790776
100
AcDbArc
 50
282.1628426667718
 51
326.5593609179388
  0
ARC
  5
576A
330
1F
100
AcDbEntity
  8
TEXT
100
AcDbCircle
 10
23.45688855010437
 20
-225.6443854384517
 30
0.0
 40
0.0096797649335014
100
AcDbArc
 50
3.288025410275718
 51
105.9275278804243
  0
LINE
  5
576B
330
1F
100
AcDbEntity
  8
TEXT
100
AcDbLine
 10
23.00070112160976
 20
-225.2978723701832
 30
0.0
 11
23.00386405136496
 21
-225.5570458109166
 31
0.0
  0
LINE
  5
576C
330
1F
100
AcDbEntity
  8
TEXT
100
AcDbLine
 10
23.02600455965207
 20
-225.3294788935019
 30
0.0
 11
23.02758602452956
 21
-225.5570458109166
 31
0.0
  0
ARC
  5
576D
330
1F
100
AcDbEntity
  8
TEXT
100
AcDbCircle
 10
23.01572503794738
 20
-225.5574808408271
 30
0.0
 40
0.0118689617797745
100
AcDbArc
 50
177.899482485688
 51
2.100517514311817
  0
LINE
  5
576E
330
1F
100
AcDbEntity
  8
TEXT
100
AcDbLine
 10
23.08037774799737
 20
-225.340907433764
 30
0.0
 11
23.08037774799737
 21
-225.7370882158915
 31
0.0
  0
LINE
  5
576F
330
1F
100
AcDbEntity
  8
TEXT
100
AcDbLine
 10
23.19526288759126
 20
-225.340907433764
 30
0.0
 11
23.19526288759126
 21
-225.7370882158915
 31
0.0
  0
ARC
  5
5770
330
1F
100
AcDbEntity
  8
TEXT
100
AcDbCircle
 10
23.03752478931071
 20
-225.3300322429456
 30
0.0
 40
0.0115335114772436
100
AcDbArc
 50
38.20381851857888
 51
177.2500340797979
  0
LINE
  5
5771
330
1F
100
AcDbEntity
  8
TEXT
100
AcDbLine
 10
23.04658800344229
 20
-225.3228992185798
 30
0.0
 11
23.08037774799737
 21
-225.340907433764
 31
0.0
  0
LINE
  5
5772
330
1F
100
AcDbEntity
  8
TEXT
100
AcDbLine
 10
23.22905263214631
 20
-225.3228992185798
 30
0.0
 11
23.19526288759126
 21
-225.340907433764
 31
0.0
  0
LINE
  5
5773
330
1F
100
AcDbEntity
  8
TEXT
100
AcDbLine
 10
23.24963607593653
 20
-225.3294788935019
 30
0.0
 11
23.24950579397988
 21
-225.3482259828068
 31
0.0
  0
LINE
  5
5774
330
1F
100
AcDbEntity
  8
TEXT
100
AcDbLine
 10
23.27493951397885
 20
-225.2978723701832
 30
0.0
 11
23.2743250029425
 21
-225.3482259828068
 31
0.0
  0
ARC
  5
5775
330
1F
100
AcDbEntity
  8
TEXT
100
AcDbCircle
 10
23.23811584627788
 20
-225.3300322429456
 30
0.0
 40
0.0115335114772436
100
AcDbArc
 50
2.749965920202091
 51
141.796181481421
  0
ARC
  5
5776
330
1F
100
AcDbEntity
  8
TEXT
100
AcDbCircle
 10
23.26191539846119
 20
-225.3564246138977
 30
0.0
 40
0.0148733262974276
100
AcDbArc
 50
146.5485285753384
 51
33.45147142466155
  0
ARC
  5
5777
330
1F
100
AcDbEntity
  8
TEXT
100
AcDbCircle
 10
23.08895655620663
 20
-225.7613705352734
 30
0.0
 40
0.0257531936827558
100
AcDbArc
 50
109.4580308571273
 51
191.0341765876989
  0
ARC
  5
5778
330
1F
100
AcDbEntity
  8
TEXT
100
AcDbCircle
 10
23.05603994349585
 20
-225.7677382199261
 30
0.0
 40
0.0077737971280609
100
AcDbArc
 50
155.9249042338145
 51
10.66497725508978
  0
ARC
  5
5779
330
1F
100
AcDbEntity
  8
TEXT
100
AcDbCircle
 10
23.03443688614969
 20
-225.7738029525325
 30
0.0
 40
0.017196266645106
100
AcDbArc
 50
32.48569494743434
 51
175.1979664789371
  0
ARC
  5
577A
330
1F
100
AcDbEntity
  8
TEXT
100
AcDbCircle
 10
23.0115429701347
 20
-225.7751057778628
 30
0.0
 40
0.0063777213319861
100
AcDbArc
 50
158.7719549350953
 51
25.46716058583679
  0
ARC
  5
577B
330
1F
100
AcDbEntity
  8
TEXT
100
AcDbCircle
 10
22.99662174628993
 20
-225.7709083126225
 30
0.0
 40
0.0091727015851841
100
AcDbArc
 50
348.1206509806774
 51
136.2651890953701
  0
ARC
  5
577C
330
1F
100
AcDbEntity
  8
TEXT
100
AcDbCircle
 10
22.9955204708069
 20
-225.7757414690332
 30
0.0
 40
0.0124663406187495
100
AcDbArc
 50
116.315168403664
 51
258.4674100382152
  0
ARC
  5
577D
330
1F
100
AcDbEntity
  8
TEXT
100
AcDbCircle
 10
22.99977795226462
 20
-225.7943575998557
 30
0.0
 40
0.0093026276190488
100
AcDbArc
 50
356.7423630506751
 51
136.5172760689901
  0
ARC
  5
577E
330
1F
100
AcDbEntity
  8
TEXT
100
AcDbCircle
 10
23.01237392361524
 20
-225.7997512923797
 30
0.0
 40
0.0058833821364828
100
AcDbArc
 50
124.2167745950251
 51
319.7988197133867
  0
ARC
  5
577F
330
1F
100
AcDbEntity
  8
TEXT
100
AcDbCircle
 10
23.03593534283931
 20
-225.8103900962321
 30
0.0
 40
0.020257918821507
100
AcDbArc
 50
160.2627782819586
 51
255.1333022011589
  0
ARC
  5
5780
330
1F
100
AcDbEntity
  8
TEXT
100
AcDbCircle
 10
23.03579676441065
 20
-225.827975511189
 30
0.0
 40
0.0054379405610683
100
AcDbArc
 50
201.5154657474033
 51
41.96660508021049
  0
ARC
  5
5781
330
1F
100
AcDbEntity
  8
TEXT
100
AcDbCircle
 10
23.05473848302154
 20
-225.8144881286518
 30
0.0
 40
0.0178607407518958
100
AcDbArc
 50
121.2424246402126
 51
213.4732397083821
  0
ARC
  5
5782
330
1F
100
AcDbEntity
  8
TEXT
100
AcDbCircle
 10
23.05043884184404
 20
-225.8079672157777
 30
0.0
 40
0.0100597310747215
100
AcDbArc
 50
332.2921775479035
 51
119.5678571760053
  0
ARC
  5
5783
330
1F
100
AcDbEntity
  8
TEXT
100
AcDbCircle
 10
23.05232420408652
 20
-225.829177562397
 30
0.0
 40
0.0179619093366323
100
AcDbArc
 50
312.9867785858947
 51
66.99118422928755
  0
ARC
  5
5784
330
1F
100
AcDbEntity
  8
TEXT
100
AcDbCircle
 10
23.12967715619
 20
-225.9683375175461
 30
0.0
 40
0.1418449389224764
100
AcDbArc
 50
117.3222180892419
 51
179.3383492613259
  0
ARC
  5
5785
330
1F
100
AcDbEntity
  8
TEXT
100
AcDbCircle
 10
23.57109390681279
 20
-225.8903668597732
 30
0.0
 40
0.0344659166878081
100
AcDbArc
 50
51.01090143870322
 51
107.577946053111
  0
ARC
  5
5786
330
1F
100
AcDbEntity
  8
TEXT
100
AcDbCircle
 10
23.51195735381341
 20
-225.8547681556811
 30
0.0
 40
0.0488048373510116
100
AcDbArc
 50
356.7791343814142
 51
50.82801334296441
  0
ARC
  5
5787
330
1F
100
AcDbEntity
  8
TEXT
100
AcDbCircle
 10
23.52421418888936
 20
-225.9094218993409
 30
0.0
 40
0.0943358217677307
100
AcDbArc
 50
78.6467194011462
 51
92.8865786316482
  0
ARC
  5
5788
330
1F
100
AcDbEntity
  8
TEXT
100
AcDbCircle
 10
23.51356981779002
 20
-225.8035277946182
 30
0.0
 40
0.0130809418070627
100
AcDbArc
 50
296.7794474250892
 51
150.467448299651
  0
ARC
  5
5789
330
1F
100
AcDbEntity
  8
TEXT
100
AcDbCircle
 10
23.49260457002718
 20
-225.7848411766036
 30
0.0
 40
0.015544704395129
100
AcDbArc
 50
174.1982733486949
 51
308.0634596483701
  0
ARC
  5
578A
330
1F
100
AcDbEntity
  8
TEXT
100
AcDbCircle
 10
23.44827398581872
 20
-225.8086047310536
 30
0.0
 40
0.0384067062402725
100
AcDbArc
 50
41.27304036067168
 51
94.61991284102536
  0
ARC
  5
578B
330
1F
100
AcDbEntity
  8
TEXT
100
AcDbCircle
 10
23.43289614381304
 20
-225.7739354427893
 30
0.0
 40
0.0128045550207263
100
AcDbArc
 50
136.6395135700863
 51
16.38775991618309
  0
ARC
  5
578C
330
1F
100
AcDbEntity
  8
TEXT
100
AcDbCircle
 10
23.41314976165985
 20
-225.7765806581823
 30
0.0
 40
0.0154830477855922
100
AcDbArc
 50
47.61705801860548
 51
152.6179806585846
  0
ARC
  5
578D
330
1F
100
AcDbEntity
  8
TEXT
100
AcDbCircle
 10
23.38131721024612
 20
-225.7777995826924
 30
0.0
 40
0.0199146510692104
100
AcDbArc
 50
24.75773987532607
 51
121.5483884163315
  0
ARC
  5
578E
330
1F
100
AcDbEntity
  8
TEXT
100
AcDbCircle
 10
23.35578176520029
 20
-225.7665983340871
 30
0.0
 40
0.0161795588111938
100
AcDbArc
 50
20.89289471577903
 51
159.1071052842209
  0
ARC
  5
578F
330
1F
100
AcDbEntity
  8
TEXT
100
AcDbCircle
 10
23.33260580344457
 20
-225.7585824208704
 30
0.0
 40
0.0083672863698294
100
AcDbArc
 50
183.5606974541692
 51
344.4298925613381
  0
ARC
  5
5790
330
1F
100
AcDbEntity
  8
TEXT
100
AcDbCircle
 10
23.30693372847499
 20
-225.7773138633845
 30
0.0
 40
0.0251333265076004
100
AcDbArc
 50
46.43616582623288
 51
130.6283095026899
  0
ARC
  5
5791
330
1F
100
AcDbEntity
  8
TEXT
100
AcDbCircle
 10
23.28149874772926
 20
-225.7609468455255
 30
0.0
 40
0.0094650622534161
100
AcDbArc
 50
163.3756550464626
 51
16.6243449535338
  0
ARC
  5
5792
330
1F
100
AcDbEntity
  8
TEXT
100
AcDbCircle
 10
23.24572623507552
 20
-225.8318235015587
 30
0.0
 40
0.0782799023789227
100
AcDbArc
 50
70.05468846034884
 51
100.2232656721174
  0
ARC
  5
5793
330
1F
100
AcDbEntity
  8
TEXT
100
AcDbCircle
 10
23.22535460649965
 20
-225.7965609445474
 30
0.0
 40
0.0422738594323796
100
AcDbArc
 50
81.18509483549038
 51
120.0392913824029
  0
ARC
  5
5794
330
1F
100
AcDbEntity
  8
TEXT
100
AcDbCircle
 10
23.19390959394383
 20
-225.750797735665
 30
0.0
 40
0.0137761509906873
100
AcDbArc
 50
318.2823815987299
 51
84.36248438137992
  0
ARC
  5
5795
330
1F
100
AcDbEntity
  8
TEXT
100
AcDbCircle
 10
23.13192788758087
 20
-225.812044345511
 30
0.0
 40
0.0198117207829241
100
AcDbArc
 50
35.60679995344256
 51
177.5845513854531
  0
LINE
  5
5796
330
1F
100
AcDbEntity
  8
TEXT
100
AcDbLine
 10
23.14803544397583
 20
-225.8005095760135
 30
0.0
 11
23.14677574392002
 21
-225.8187621857509
 31
0.0
  0
LINE
  5
5797
330
1F
100
AcDbEntity
  8
TEXT
100
AcDbLine
 10
23.11213376945457
 20
-225.8112093796494
 30
0.0
 11
23.11150391942665
 21
-225.8584144027603
 31
0.0
  0
ARC
  5
5798
330
1F
100
AcDbEntity
  8
TEXT
100
AcDbCircle
 10
23.1914464301778
 20
-225.8940118638055
 30
0.0
 40
0.0875099094848984
100
AcDbArc
 50
120.6947626763491
 51
155.9971516553445
  0
ARC
  5
5799
330
1F
100
AcDbEntity
  8
TEXT
100
AcDbCircle
 10
23.15924953596399
 20
-225.8697464126318
 30
0.0
 40
0.0162817181625014
100
AcDbArc
 50
218.6904014524304
 51
353.6659411500776
  0
ARC
  5
579A
330
1F
100
AcDbEntity
  8
TEXT
100
AcDbCircle
 10
23.15025430750082
 20
-225.8951539126166
 30
0.0
 40
0.0156757417591734
100
AcDbArc
 50
103.7022990326946
 51
207.01930656292
  0
ARC
  5
579B
330
1F
100
AcDbEntity
  8
TEXT
100
AcDbCircle
 10
23.5432089150641
 20
-225.9082789154026
 30
0.0
 40
0.0445098144281698
100
AcDbArc
 50
155.9906329013377
 51
206.8057304576892
  0
ARC
  5
579C
330
1F
100
AcDbEntity
  8
TEXT
100
AcDbCircle
 10
23.49594606889101
 20
-225.8905369947002
 30
0.0
 40
0.006614340572798
100
AcDbArc
 50
3.193725348484525
 51
193.0548754998698
  0
ARC
  5
579D
330
1F
100
AcDbEntity
  8
TEXT
100
AcDbCircle
 10
23.48064905192487
 20
-225.9020307557745
 30
0.0
 40
0.0133559156082195
100
AcDbArc
 50
131.5213803610309
 51
48.47861963896903
  0
ARC
  5
579E
330
1F
100
AcDbEntity
  8
TEXT
100
AcDbCircle
 10
23.43638543308761
 20
-225.8731110012297
 30
0.0
 40
0.0401476814511277
100
AcDbArc
 50
331.8837666959979
 51
33.32508059323787
  0
ARC
  5
579F
330
1F
100
AcDbEntity
  8
TEXT
100
AcDbCircle
 10
23.46099922705783
 20
-225.8535255389958
 30
0.0
 40
0.0092678247435901
100
AcDbArc
 50
15.46471151433107
 51
237.0036058083627
  0
ARC
  5
57A0
330
1F
100
AcDbEntity
  8
TEXT
100
AcDbCircle
 10
23.44334317574639
 20
-225.8671544859181
 30
0.0
 40
0.0139024231492048
100
AcDbArc
 50
124.5991194751853
 51
24.91162951379309
  0
ARC
  5
57A1
330
1F
100
AcDbEntity
  8
TEXT
100
AcDbCircle
 10
23.40358233293318
 20
-225.8411767152102
 30
0.0
 40
0.0350245629340771
100
AcDbArc
 50
335.4827230531713
 51
36.54383594003247
  0
ARC
  5
57A2
330
1F
100
AcDbEntity
  8
TEXT
100
AcDbCircle
 10
23.35917490891063
 20
-225.9502532244484
 30
0.0
 40
0.1488124156067264
100
AcDbArc
 50
60.82353397560649
 51
101.6183182656789
  0
LINE
  5
57A3
330
1F
100
AcDbEntity
  8
TEXT
100
AcDbLine
 10
23.32920541360675
 20
-225.8044898395057
 30
0.0
 11
23.32827345687113
 21
-225.8398788535038
 31
0.0
  0
ARC
  5
57A4
330
1F
100
AcDbEntity
  8
TEXT
100
AcDbCircle
 10
23.31454611646992
 20
-225.8405511640524
 30
0.0
 40
0.0137437940890823
100
AcDbArc
 50
165.3922446503768
 51
2.803879044206354
  0
LINE
  5
57A5
330
1F
100
AcDbEntity
  8
TEXT
100
AcDbLine
 10
23.3012465899419
 20
-225.837084974489
 30
0.0
 11
23.29938267647066
 21
-225.8100775855164
 31
0.0
  0
ARC
  5
57A6
330
1F
100
AcDbEntity
  8
TEXT
100
AcDbCircle
 10
23.287317213835
 20
-225.8161219981655
 30
0.0
 40
0.0134948254114536
100
AcDbArc
 50
26.60941129939518
 51
166.0619000058105
  0
LINE
  5
57A7
330
1F
100
AcDbEntity
  8
TEXT
100
AcDbLine
 10
23.27421972301247
 20
-225.8128714525122
 30
0.0
 11
23.27421972301247
 21
-225.8249782135006
 31
0.0
  0
ARC
  5
57A8
330
1F
100
AcDbEntity
  8
TEXT
100
AcDbCircle
 10
23.26353666427123
 20
-225.8316918258536
 30
0.0
 40
0.0126174615076479
100
AcDbArc
 50
179.1163546128549
 51
32.14670843866676
  0
LINE
  5
57A9
330
1F
100
AcDbEntity
  8
TEXT
100
AcDbLine
 10
23.25092070329185
 20
-225.8314972404973
 30
0.0
 11
23.25092070329185
 21
-225.8761991484878
 31
0.0
  0
ARC
  5
57AA
330
1F
100
AcDbEntity
  8
TEXT
100
AcDbCircle
 10
23.23413846173045
 20
-225.8764144283883
 30
0.0
 40
0.0167836222924833
100
AcDbArc
 50
182.4450201076249
 51
0.7349407504797644
  0
LINE
  5
57AB
330
1F
100
AcDbEntity
  8
TEXT
100
AcDbLine
 10
23.21737011894715
 20
-225.8771304294738
 30
0.0
 11
23.22482579309804
 21
-225.8212530534998
 31
0.0
  0
ARC
  5
57AC
330
1F
100
AcDbEntity
  8
TEXT
100
AcDbCircle
 10
23.21613613679178
 20
-225.8224932785257
 30
0.0
 40
0.0087777152400108
100
AcDbArc
 50
8.122642540876983
 51
202.9043136183374
  0
LINE
  5
57AD
330
1F
100
AcDbEntity
  8
TEXT
100
AcDbLine
 10
23.20805049079266
 20
-225.8259095065056
 30
0.0
 11
23.20432266385014
 21
-225.854779481488
 31
0.0
  0
ARC
  5
57AE
330
1F
100
AcDbEntity
  8
TEXT
100
AcDbCircle
 10
23.19360511072544
 20
-225.8542131772595
 30
0.0
 40
0.0107325041561419
100
AcDbArc
 50
183.0246359049376
 51
356.9753640950624
  0
LINE
  5
57AF
330
1F
100
AcDbEntity
  8
TEXT
100
AcDbLine
 10
23.18288755760055
 20
-225.854779481488
 30
0.0
 11
23.1754318631836
 21
-225.8715426954822
 31
0.0
  0
ARC
  5
57B0
330
1F
100
AcDbEntity
  8
TEXT
100
AcDbCircle
 10
23.92552998044851
 20
-225.6634916286299
 30
0.0
 40
0.2952622845537399
100
AcDbArc
 50
273.5403564160083
 51
289.0758016785488
  0
LINE
  5
57B1
330
1F
100
AcDbEntity
  8
TEXT
100
AcDbLine
 10
23.9437628879875
 20
-225.9581904202165
 30
0.0
 11
23.94506741664994
 21
-225.9725298806147
 31
0.0
  0
LINE
  5
57B2
330
1F
100
AcDbEntity
  8
TEXT
100
AcDbLine
 10
23.94506741664994
 20
-225.9725298806147
 30
0.0
 11
23.97246249829532
 21
-225.9744852654024
 31
0.0
  0
ARC
  5
57B3
330
1F
100
AcDbEntity
  8
TEXT
100
AcDbCircle
 10
23.01636655566463
 20
-225.2952387640339
 30
0.0
 40
0.0158852669314155
100
AcDbArc
 50
32.93635467158921
 51
189.5430854165198
  0
ARC
  5
57B4
330
1F
100
AcDbEntity
  8
TEXT
100
AcDbCircle
 10
23.0414463427107
 20
-225.2862056713927
 30
0.0
 40
0.011754356752526
100
AcDbArc
 50
181.931421762249
 51
21.08009584438826
  0
ARC
  5
57B5
330
1F
100
AcDbEntity
  8
TEXT
100
AcDbCircle
 10
23.06116593757759
 20
-225.2837562156093
 30
0.0
 40
0.0089306900938159
100
AcDbArc
 50
3.320051391017492
 51
168.5145862198291
  0
ARC
  5
57B6
330
1F
100
AcDbEntity
  8
TEXT
100
AcDbCircle
 10
23.08015360687375
 20
-225.2886824312275
 30
0.0
 40
0.0114488162444178
100
AcDbArc
 50
151.61087650705
 51
6.21726120176887
  0
ARC
  5
57B7
330
1F
100
AcDbEntity
  8
TEXT
100
AcDbCircle
 10
23.10061231837714
 20
-225.2869582616785
 30
0.0
 40
0.009090141844324
100
AcDbArc
 50
7.567610287756988
 51
183.0538693842453
  0
ARC
  5
57B8
330
1F
100
AcDbEntity
  8
TEXT
100
AcDbCircle
 10
23.11687207437976
 20
-225.2818326699014
 30
0.0
 40
0.0082448586975286
100
AcDbArc
 50
208.4553291170855
 51
16.75507449314888
  0
ARC
  5
57B9
330
1F
100
AcDbEntity
  8
TEXT
100
AcDbCircle
 10
23.12939224265169
 20
-225.2876273923327
 30
0.0
 40
0.0093897887388284
100
AcDbArc
 50
340.2175703033668
 51
119.5111127021391
  0
ARC
  5
57BA
330
1F
100
AcDbEntity
  8
TEXT
100
AcDbCircle
 10
23.15174637972645
 20
-225.2908552092703
 30
0.0
 40
0.0135185823631039
100
AcDbArc
 50
179.7887253899368
 51
338.318548208448
  0
ARC
  5
57BB
330
1F
100
AcDbEntity
  8
TEXT
100
AcDbCircle
 10
23.18274970282663
 20
-225.3048085114723
 30
0.0
 40
0.0205021515204358
100
AcDbArc
 50
51.76909225767515
 51
154.0890012254448
  0
ARC
  5
57BC
330
1F
100
AcDbEntity
  8
TEXT
100
AcDbCircle
 10
23.20879160801731
 20
-225.2859217721224
 30
0.0
 40
0.0136411716450856
100
AcDbArc
 50
191.7667831442099
 51
294.1224948725061
  0
ARC
  5
57BD
330
1F
100
AcDbEntity
  8
TEXT
100
AcDbCircle
 10
23.224765176876
 20
-225.2950081262027
 30
0.0
 40
0.0109290467232411
100
AcDbArc
 50
13.338412263816
 51
197.9246330183006
  0
ARC
  5
57BE
330
1F
100
AcDbEntity
  8
TEXT
100
AcDbCircle
 10
23.24698331544695
 20
-225.2918645619018
 30
0.0
 40
0.0116006076190031
100
AcDbArc
 50
183.0745908828774
 51
5.238726745824519
  0
ARC
  5
57BF
330
1F
100
AcDbEntity
  8
TEXT
100
AcDbCircle
 10
23.26891868771411
 20
-225.2892758372006
 30
0.0
 40
0.0104952717084373
100
AcDbArc
 50
305.0065695459204
 51
188.3798152009948
  0
TEXT
  5
57C0
330
1F
100
AcDbEntity
  8
TEXT
100
AcDbText
 10
28.06055022597579
 20
-228.2880925994191
 30
0.0
 40
0.4856908701890261
  1
0
 72
     1
 11
28.18197294352305
 21
-228.0452471643246
 31
0.0
100
AcDbText
 73
     2
  0
TEXT
  5
57C1
330
1F
100
AcDbEntity
  8
TEXT
100
AcDbText
 10
23.29809033805972
 20
-228.2880925994191
 30
0.0
 40
0.4856908701890261
  1
IQ290955
 72
     1
 11
25.03848262290373
 21
-228.0452471643246
 31
0.0
100
AcDbText
 73
     2
  0
TEXT
  5
57C2
330
1F
100
AcDbEntity
  8
TEXT
100
AcDbText
 10
23.35649027691424
 20
-227.3009697351437
 30
0.0
 40
0.4856908701890261
  1
IQ6100HE-CF
 72
     1
 11
25.70399614949454
 21
-227.0581243000492
 31
0.0
100
AcDbText
 73
     2
  0
TEXT
  5
57C3
330
1F
100
AcDbEntity
  8
TEXT
100
AcDbText
 10
25.02632498471744
 20
-226.1899518695864
 30
0.0
 40
0.1214227175472565
  1
724-837-2204  *  1-888-867-8234
 72
     1
 11
26.85778430772189
 21
-226.1292405108128
 31
0.0
100
AcDbText
 73
     2
  0
TEXT
  5
57C4
330
1F
100
AcDbEntity
  8
TEXT
100
AcDbText
 10
25.84592832816142
 20
-226.4327973046808
 30
0.0
 40
0.1214227175472565
  1
FAX  724-837-3386
 72
     1
 11
26.85778430772189
 21
-226.3720859459072
 31
0.0
100
AcDbText
 73
     2
  0
LINE
  5
57C5
330
1F
100
AcDbEntity
  8
BORDER
100
AcDbLine
 10
22.56077817040362
 20
-226.4752952558223
 30
0.0
 11
28.84775881164228
 21
-226.4752952558223
 31
0.0
  0
LINE
  5
57C6
330
1F
100
AcDbEntity
  8
BORDER
100
AcDbLine
 10
22.56077817040362
 20
-227.4466769962004
 30
0.0
 11
28.84775881164228
 21
-227.4466769962004
 31
0.0
  0
LINE
  5
57C7
330
1F
100
AcDbEntity
  8
BORDER
100
AcDbLine
 10
27.51618707540383
 20
-227.4466769962004
 30
0.0
 11
27.51618707540383
 21
-228.4616832561279
 31
0.0
  0
TEXT
  5
57C8
330
1F
100
AcDbEntity
  8
TEXT
100
AcDbText
 10
19.53768399458464
 20
-228.3165062573456
 30
0.0
 40
0.242845435094513
  1
SHEET 1 OF 1
 72
     1
 11
20.87333388760446
 21
-228.1950835397983
 31
0.0
100
AcDbText
 73
     2
  0
LINE
  5
57C9
330
1F
100
AcDbEntity
  8
BORDER
100
AcDbLine
 10
19.16094207908045
 20
-227.9323678663895
 30
0.0
 11
22.56077817040362
 21
-227.9323678663895
 31
0.0
  0
LINE
  5
57CA
330
1F
100
AcDbEntity
  8
BORDER
100
AcDbLine
 10
19.16094207908045
 20
-226.9609861260114
 30
0.0
 11
22.56077817040362
 21
-226.9609861260114
 31
0.0
  0
LINE
  5
57CB
330
1F
100
AcDbEntity
  8
BORDER
100
AcDbLine
 10
19.16094207908045
 20
-227.4466769962004
 30
0.0
 11
22.56077817040362
 21
-227.4466769962004
 31
0.0
  0
LINE
  5
57CC
330
1F
100
AcDbEntity
  8
BORDER
100
AcDbLine
 10
22.56077817040362
 20
-228.4616832561279
 30
0.0
 11
22.56077817040362
 21
-225.2610680803498
 31
0.0
  0
LINE
  5
57CD
330
1F
100
AcDbEntity
  8
TEXT
100
AcDbLine
 10
23.25568096627865
 20
-226.277405355215
 30
0.0
 11
23.27645383727732
 21
-226.2905520250035
 31
0.0
  0
ARC
  5
57CE
330
1F
100
AcDbEntity
  8
TEXT
100
AcDbCircle
 10
23.39129346381456
 20
-226.1378111043955
 30
0.0
 40
0.0800215730338206
100
AcDbArc
 50
287.1920036507257
 51
335.8997504051592
  0
ARC
  5
57CF
330
1F
100
AcDbEntity
  8
TEXT
100
AcDbCircle
 10
23.55138716424487
 20
-226.2456188294679
 30
0.0
 40
0.0372253412459409
100
AcDbArc
 50
67.37252950710407
 51
112.6274704928675
  0
ARC
  5
57D0
330
1F
100
AcDbEntity
  8
TEXT
100
AcDbCircle
 10
23.53965998035322
 20
-226.1813053161881
 30
0.0
 40
0.0525791705576121
100
AcDbArc
 50
330.1916644163666
 51
19.91318758188288
  0
ARC
  5
57D1
330
1F
100
AcDbEntity
  8
TEXT
100
AcDbCircle
 10
23.46970556314599
 20
-226.1518608803762
 30
0.0
 40
0.0193832904204243
100
AcDbArc
 50
253.9290889125734
 51
38.65267477509771
  0
ARC
  5
57D2
330
1F
100
AcDbEntity
  8
TEXT
100
AcDbCircle
 10
23.7991353778378
 20
-226.1719238465099
 30
0.0
 40
0.040274331556305
100
AcDbArc
 50
188.1927496775747
 51
244.8496170020291
  0
ARC
  5
57D3
330
1F
100
AcDbEntity
  8
TEXT
100
AcDbCircle
 10
23.7986428628811
 20
-226.1329391084146
 30
0.0
 40
0.0772507617144104
100
AcDbArc
 50
257.5730930866257
 51
314.4273867462179
  0
LINE
  5
57D4
330
1F
100
AcDbEntity
  8
TEXT
100
AcDbLine
 10
23.9332550788334
 20
-226.2188237380042
 30
0.0
 11
23.93448462293696
 21
-226.2046939612579
 31
0.0
  0
LINE
  5
57D5
330
1F
100
AcDbEntity
  8
TEXT
100
AcDbLine
 10
23.93448462293696
 20
-226.2046939612579
 30
0.0
 11
23.91358208944983
 21
-226.2059226406321
 31
0.0
  0
ARC
  5
57D6
330
1F
100
AcDbEntity
  8
TEXT
100
AcDbCircle
 10
23.91315940813212
 20
-226.1888930877775
 30
0.0
 40
0.0170347976190566
100
AcDbArc
 50
155.9964711746264
 51
271.4218156194984
  0
ARC
  5
57D7
330
1F
100
AcDbEntity
  8
TEXT
100
AcDbCircle
 10
24.06114039883801
 20
-226.180563530457
 30
0.0
 40
0.0399239525703072
100
AcDbArc
 50
203.9135879631599
 51
286.1701931802611
  0
ARC
  5
57D8
330
1F
100
AcDbEntity
  8
TEXT
100
AcDbCircle
 10
24.08024265957877
 20
-226.1631070502925
 30
0.0
 40
0.056369239062215
100
AcDbArc
 50
261.8576121462839
 51
331.2394802847479
  0
ARC
  5
57D9
330
1F
100
AcDbEntity
  8
TEXT
100
AcDbCircle
 10
24.07785220693322
 20
-226.1543488369469
 30
0.0
 40
0.0630178032056914
100
AcDbArc
 50
325.293903470716
 51
356.4132772462206
  0
ARC
  5
57DA
330
1F
100
AcDbEntity
  8
TEXT
100
AcDbCircle
 10
24.43088204073343
 20
-226.1661111093753
 30
0.0
 40
0.0073957202149409
100
AcDbArc
 50
349.2952029716974
 51
131.6626905469293
  0
ARC
  5
57DB
330
1F
100
AcDbEntity
  8
TEXT
100
AcDbCircle
 10
24.33731578209555
 20
-226.1304550202208
 30
0.0
 40
0.1074176786496493
100
AcDbArc
 50
296.3233923707218
 51
339.8348331475733
  0
ARC
  5
57DC
330
1F
100
AcDbEntity
  8
TEXT
100
AcDbCircle
 10
24.32554368400132
 20
-226.0944401630538
 30
0.0
 40
0.1450194573644791
100
AcDbArc
 50
254.2847830849331
 51
294.1819270465994
  0
ARC
  5
57DD
330
1F
100
AcDbEntity
  8
TEXT
100
AcDbCircle
 10
24.35163852071722
 20
-226.1129752526427
 30
0.0
 40
0.0882684700149377
100
AcDbArc
 50
272.3792098458872
 51
327.3581874363291
  0
ARC
  5
57DE
330
1F
100
AcDbEntity
  8
TEXT
100
AcDbCircle
 10
24.34244801608114
 20
-226.132029515389
 30
0.0
 40
0.0703230054303647
100
AcDbArc
 50
230.841648863781
 51
280.5326941523483
  0
ARC
  5
57DF
330
1F
100
AcDbEntity
  8
TEXT
100
AcDbCircle
 10
24.36367010121017
 20
-226.1147069693829
 30
0.0
 40
0.0973125135629426
100
AcDbArc
 50
179.2959701761241
 51
227.5915484940839
  0
ARC
  5
57E0
330
1F
100
AcDbEntity
  8
TEXT
100
AcDbCircle
 10
24.32262743174069
 20
-226.1409704914049
 30
0.0
 40
0.0999198858421444
100
AcDbArc
 50
194.1847393568173
 51
248.658676732099
  0
ARC
  5
57E1
330
1F
100
AcDbEntity
  8
TEXT
100
AcDbCircle
 10
24.32452421635327
 20
-226.1379153695336
 30
0.0
 40
0.1025379058280674
100
AcDbArc
 50
148.4692011102813
 51
195.5802361373346
  0
ARC
  5
57E2
330
1F
100
AcDbEntity
  8
TEXT
100
AcDbCircle
 10
24.32388153567769
 20
-226.1348564279842
 30
0.0
 40
0.1004161053836589
100
AcDbArc
 50
108.5416613320869
 51
149.7652339536254
  0
ARC
  5
57E3
330
1F
100
AcDbEntity
  8
TEXT
100
AcDbCircle
 10
24.32504768722961
 20
-226.2154802851803
 30
0.0
 40
0.1616113334521378
100
AcDbArc
 50
82.99970676553448
 51
97.00029323449177
  0
ARC
  5
57E4
330
1F
100
AcDbEntity
  8
TEXT
100
AcDbCircle
 10
24.33011482048411
 20
-226.094726834086
 30
0.0
 40
0.0422656466386058
100
AcDbArc
 50
358.1908821763629
 51
69.74957583403639
  0
ARC
  5
57E5
330
1F
100
AcDbEntity
  8
TEXT
100
AcDbCircle
 10
24.31800791160282
 20
-226.1061476101661
 30
0.0
 40
0.0526187586438656
100
AcDbArc
 50
103.9179608006051
 51
168.9486088950488
  0
LINE
  5
57E6
330
1F
100
AcDbEntity
  8
TEXT
100
AcDbLine
 10
24.26636493397118
 20
-226.0960611527818
 30
0.0
 11
24.37235939977434
 21
-226.0960611527818
 31
0.0
  0
ARC
  5
57E7
330
1F
100
AcDbEntity
  8
TEXT
100
AcDbCircle
 10
24.33166464758615
 20
-226.1727695633969
 30
0.0
 40
0.1389150120829571
100
AcDbArc
 50
78.15621523986215
 51
106.6122408520289
  0
ARC
  5
57E8
330
1F
100
AcDbEntity
  8
TEXT
100
AcDbCircle
 10
24.35457681255879
 20
-226.1100971990008
 30
0.0
 40
0.0734988569101041
100
AcDbArc
 50
357.3376237443688
 51
85.63084243886228
  0
LINE
  5
57E9
330
1F
100
AcDbEntity
  8
TEXT
100
AcDbLine
 10
24.26636493397118
 20
-226.1135112584886
 30
0.0
 11
24.42799633424704
 21
-226.1135112584886
 31
0.0
  0
ARC
  5
57EA
330
1F
100
AcDbEntity
  8
TEXT
100
AcDbCircle
 10
23.58743537976697
 20
-226.0148139191603
 30
0.0
 40
0.6015210761413446
100
AcDbArc
 50
175.4121316267021
 51
191.7939289656989
  0
ARC
  5
57EB
330
1F
100
AcDbEntity
  8
TEXT
100
AcDbCircle
 10
22.99743775294769
 20
-226.1652183318164
 30
0.0
 40
0.0274832570873231
100
AcDbArc
 50
15.17145974977857
 51
87.54918714298277
  0
ARC
  5
57EC
330
1F
100
AcDbEntity
  8
TEXT
100
AcDbCircle
 10
25.478676776959
 20
-226.2417545743383
 30
0.0
 40
2.456141197294919
100
AcDbArc
 50
178.046431944998
 51
181.7502526685598
  0
LINE
  5
57ED
330
1F
100
AcDbEntity
  8
TEXT
100
AcDbLine
 10
23.04999179576003
 20
-226.1952120559441
 30
0.0
 11
23.04900670131819
 21
-226.3138301074167
 31
0.0
  0
ARC
  5
57EE
330
1F
100
AcDbEntity
  8
TEXT
100
AcDbCircle
 10
23.0541034868677
 20
-226.1943326687855
 30
0.0
 40
0.0042046790054383
100
AcDbArc
 50
333.6879001367247
 51
192.0722457553445
  0
LINE
  5
57EF
330
1F
100
AcDbEntity
  8
TEXT
100
AcDbLine
 10
23.05787253102911
 20
-226.196196436917
 30
0.0
 11
23.05787253102911
 21
-226.2139153184687
 31
0.0
  0
ARC
  5
57F0
330
1F
100
AcDbEntity
  8
TEXT
100
AcDbCircle
 10
23.0634426626083
 20
-226.2126307150959
 30
0.0
 40
0.0057163425049899
100
AcDbArc
 50
192.9866902548873
 51
33.3806313974099
  0
ARC
  5
57F1
330
1F
100
AcDbEntity
  8
TEXT
100
AcDbCircle
 10
23.07834995721238
 20
-226.2161142590677
 30
0.0
 40
0.0121093462346378
100
AcDbArc
 50
17.66955929970866
 51
146.8111142491889
  0
ARC
  5
57F2
330
1F
100
AcDbEntity
  8
TEXT
100
AcDbCircle
 10
23.11628750123889
 20
-226.1975754056898
 30
0.0
 40
0.0302960650983808
100
AcDbArc
 50
209.3802246625999
 51
263.8421008682747
  0
LINE
  5
57F3
330
1F
100
AcDbEntity
  8
TEXT
100
AcDbLine
 10
23.11303767791197
 20
-226.2276966641096
 30
0.0
 11
23.11599294097164
 21
-226.2690407250699
 31
0.0
  0
ARC
  5
57F4
330
1F
100
AcDbEntity
  8
TEXT
100
AcDbCircle
 10
23.12845526054521
 20
-226.2707820532721
 30
0.0
 40
0.0125833871855821
100
AcDbArc
 50
172.0457056516397
 51
14.8166101479387
  0
LINE
  5
57F5
330
1F
100
AcDbEntity
  8
TEXT
100
AcDbLine
 10
23.14062024122048
 20
-226.2675641536104
 30
0.0
 11
23.14259043010438
 21
-226.2503374625452
 31
0.0
  0
ARC
  5
57F6
330
1F
100
AcDbEntity
  8
TEXT
100
AcDbCircle
 10
23.14707881259692
 20
-226.249813024703
 30
0.0
 40
0.0045189171768308
100
AcDbArc
 50
318.6510821797497
 51
186.6644145786488
  0
LINE
  5
57F7
330
1F
100
AcDbEntity
  8
TEXT
100
AcDbLine
 10
23.15047116537324
 20
-226.2527984149777
 30
0.0
 11
23.15293388121199
 21
-226.2754392013943
 31
0.0
  0
ARC
  5
57F8
330
1F
100
AcDbEntity
  8
TEXT
100
AcDbCircle
 10
23.16136563974884
 20
-226.2771827279463
 30
0.0
 40
0.0086101357051499
100
AcDbArc
 50
168.31698575643
 51
15.04995211452611
  0
LINE
  5
57F9
330
1F
100
AcDbEntity
  8
TEXT
100
AcDbLine
 10
23.16968044619175
 20
-226.2749470109078
 30
0.0
 11
23.16968044619175
 21
-226.2562437483831
 31
0.0
  0
ARC
  5
57FA
330
1F
100
AcDbEntity
  8
TEXT
100
AcDbCircle
 10
23.18089869350848
 20
-226.2659781692712
 30
0.0
 40
0.0148528792792858
100
AcDbArc
 50
65.19241843010033
 51
139.0508106988865
  0
ARC
  5
57FB
330
1F
100
AcDbEntity
  8
TEXT
100
AcDbCircle
 10
23.19046906640266
 20
-226.266909117236
 30
0.0
 40
0.0147948294674737
100
AcDbArc
 50
7.606980527162057
 51
103.0413594591755
  0
LINE
  5
57FC
330
1F
100
AcDbEntity
  8
TEXT
100
AcDbLine
 10
23.20513369278506
 20
-226.2649506198435
 30
0.0
 11
23.21136553787185
 21
-226.3507499226483
 31
0.0
  0
LINE
  5
57FD
330
1F
100
AcDbEntity
  8
TEXT
100
AcDbLine
 10
23.23837025395711
 20
-226.3479822090186
 30
0.0
 11
23.24044754916342
 21
-226.2801730808637
 31
0.0
  0
ARC
  5
57FE
330
1F
100
AcDbEntity
  8
TEXT
100
AcDbCircle
 10
23.24794450112376
 20
-226.2781300839959
 30
0.0
 40
0.0077703362152165
100
AcDbArc
 50
5.351678383090985
 51
195.2435488026499
  0
LINE
  5
57FF
330
1F
100
AcDbEntity
  8
TEXT
100
AcDbLine
 10
23.27645383727732
 20
-226.2905520250035
 30
0.0
 11
23.27783870074811
 21
-226.3334516824154
 31
0.0
  0
ARC
  5
5800
330
1F
100
AcDbEntity
  8
TEXT
100
AcDbCircle
 10
23.3156316350053
 20
-226.3002390467453
 30
0.0
 40
0.0072480293021553
100
AcDbArc
 50
354.5219056877808
 51
214.9448543763667
  0
ARC
  5
5801
330
1F
100
AcDbEntity
  8
TEXT
100
AcDbCircle
 10
23.33568780585259
 20
-226.3014270359539
 30
0.0
 40
0.0128508226404245
100
AcDbArc
 50
177.787775166229
 51
326.3805826419301
  0
ARC
  5
5802
330
1F
100
AcDbEntity
  8
TEXT
100
AcDbCircle
 10
23.46846579021218
 20
-226.2860967553387
 30
0.0
 40
0.0070286595318722
100
AcDbArc
 50
144.5711585108377
 51
21.75301147887918
  0
LINE
  5
5803
330
1F
100
AcDbEntity
  8
TEXT
100
AcDbLine
 10
23.47499393942606
 20
-226.2834918901488
 30
0.0
 11
23.47548415604587
 21
-226.2462623931006
 31
0.0
  0
ARC
  5
5804
330
1F
100
AcDbEntity
  8
TEXT
100
AcDbCircle
 10
23.46848179926054
 20
-226.2505083508072
 30
0.0
 40
0.0081890877022589
100
AcDbArc
 50
31.23099864076702
 51
160.1819529381847
  0
ARC
  5
5805
330
1F
100
AcDbEntity
  8
TEXT
100
AcDbCircle
 10
23.49543030868133
 20
-226.2629516190043
 30
0.0
 40
0.0378475858506787
100
AcDbArc
 50
156.288597549796
 51
210.2571046136517
  0
ARC
  5
5806
330
1F
100
AcDbEntity
  8
TEXT
100
AcDbCircle
 10
23.60251025613073
 20
-226.3227929623107
 30
0.0
 40
0.0233676466591126
100
AcDbArc
 50
341.5477100758425
 51
84.99888070834806
  0
ARC
  5
5807
330
1F
100
AcDbEntity
  8
TEXT
100
AcDbCircle
 10
23.61268400642808
 20
-226.3499107722743
 30
0.0
 40
0.0510491156743715
100
AcDbArc
 50
99.17143729877869
 51
127.7955283290859
  0
ARC
  5
5808
330
1F
100
AcDbEntity
  8
TEXT
100
AcDbCircle
 10
23.51364307593883
 20
-226.3044130242129
 30
0.0
 40
0.0056599082108841
100
AcDbArc
 50
312.7998628402714
 51
120.0581864533225
  0
ARC
  5
5809
330
1F
100
AcDbEntity
  8
TEXT
100
AcDbCircle
 10
23.51416612415338
 20
-226.2870802365983
 30
0.0
 40
0.0128794940282633
100
AcDbArc
 50
129.1527393458192
 51
254.8870408388436
  0
ARC
  5
580A
330
1F
100
AcDbEntity
  8
TEXT
100
AcDbCircle
 10
23.46500529787289
 20
-226.2458265376139
 30
0.0
 40
0.0515842490619592
100
AcDbArc
 50
322.6907301981538
 51
8.220255073939402
  0
ARC
  5
580B
330
1F
100
AcDbEntity
  8
TEXT
100
AcDbCircle
 10
23.5207271335761
 20
-226.2339572088057
 30
0.0
 40
0.006479287425667
100
AcDbArc
 50
89.05883162362073
 51
223.9137905963096
  0
ARC
  5
580C
330
1F
100
AcDbEntity
  8
TEXT
100
AcDbCircle
 10
23.3913152691977
 20
-226.0816355917465
 30
0.0
 40
0.195051859574385
100
AcDbArc
 50
311.607168930126
 51
318.3515702307968
  0
ARC
  5
580D
330
1F
100
AcDbEntity
  8
TEXT
100
AcDbCircle
 10
23.51997709878108
 20
-226.2303411287991
 30
0.0
 40
0.0495535483885553
100
AcDbArc
 50
337.3510782224685
 51
22.64892177753149
  0
ARC
  5
580E
330
1F
100
AcDbEntity
  8
TEXT
100
AcDbCircle
 10
23.60088904839756
 20
-226.2559636028633
 30
0.0
 40
0.0357826598965959
100
AcDbArc
 50
169.4684867573207
 51
223.1418439421596
  0
ARC
  5
580F
330
1F
100
AcDbEntity
  8
TEXT
100
AcDbCircle
 10
23.57004672251787
 20
-226.2598839659195
 30
0.0
 40
0.0210861239808697
100
AcDbArc
 50
282.9712622282971
 51
25.35441378640386
  0
ARC
  5
5810
330
1F
100
AcDbEntity
  8
TEXT
100
AcDbCircle
 10
23.81011233385808
 20
-226.2095370554761
 30
0.0
 40
0.2248395248110929
100
AcDbArc
 50
179.4662202071271
 51
190.5890997840366
  0
ARC
  5
5811
330
1F
100
AcDbEntity
  8
TEXT
100
AcDbCircle
 10
23.42043562810345
 20
-226.0113926468609
 30
0.0
 40
0.2270494904820611
100
AcDbArc
 50
317.973286304247
 51
40.61894937560817
  0
ARC
  5
5812
330
1F
100
AcDbEntity
  8
TEXT
100
AcDbCircle
 10
23.38287086101568
 20
-226.0250149287422
 30
0.0
 40
0.2754403488840976
100
AcDbArc
 50
153.5374647244076
 51
193.3327646348719
  0
ARC
  5
5813
330
1F
100
AcDbEntity
  8
TEXT
100
AcDbCircle
 10
23.06172276165775
 20
-226.1243878388916
 30
0.0
 40
0.064097804230367
100
AcDbArc
 50
346.985212236237
 51
34.01252680044434
  0
ARC
  5
5814
330
1F
100
AcDbEntity
  8
TEXT
100
AcDbCircle
 10
23.11532516195996
 20
-226.1668227301709
 30
0.0
 40
0.0293648922554644
100
AcDbArc
 50
345.4259909574765
 51
72.46181126870705
  0
ARC
  5
5815
330
1F
100
AcDbEntity
  8
TEXT
100
AcDbCircle
 10
23.14587939378441
 20
-226.2298212713467
 30
0.0
 40
0.055650381535196
100
AcDbArc
 50
18.24878221231734
 51
92.19784172829085
  0
ARC
  5
5816
330
1F
100
AcDbEntity
  8
TEXT
100
AcDbCircle
 10
23.20544736290898
 20
-226.215376752322
 30
0.0
 40
0.0073487198820466
100
AcDbArc
 50
156.0593073728619
 51
8.762281217111789
  0
ARC
  5
5817
330
1F
100
AcDbEntity
  8
TEXT
100
AcDbCircle
 10
23.22130188597358
 20
-226.2173150524874
 30
0.0
 40
0.0091194870393199
100
AcDbArc
 50
1.658272028068481
 51
160.4091839300646
  0
ARC
  5
5818
330
1F
100
AcDbEntity
  8
TEXT
100
AcDbCircle
 10
23.25560382097932
 20
-226.1995505087436
 30
0.0
 40
0.0306695371977642
100
AcDbArc
 50
214.7934494581788
 51
299.0409507876034
  0
ARC
  5
5819
330
1F
100
AcDbEntity
  8
TEXT
100
AcDbCircle
 10
23.29009179990003
 20
-226.2080672753626
 30
0.0
 40
0.0268128554843661
100
AcDbArc
 50
223.030562506127
 51
311.2487591160702
  0
ARC
  5
581A
330
1F
100
AcDbEntity
  8
TEXT
100
AcDbCircle
 10
23.32297587922977
 20
-226.2241936342071
 30
0.0
 40
0.0157313214264001
100
AcDbArc
 50
194.854618224047
 51
330.4510994340958
  0
ARC
  5
581B
330
1F
100
AcDbEntity
  8
TEXT
100
AcDbCircle
 10
23.34784463951653
 20
-226.2695199588715
 30
0.0
 40
0.0391974318420891
100
AcDbArc
 50
33.67851647489241
 51
106.5775508009921
  0
ARC
  5
581C
330
1F
100
AcDbEntity
  8
TEXT
100
AcDbCircle
 10
23.39164678848507
 20
-226.2247899884476
 30
0.0
 40
0.02556917419217
100
AcDbArc
 50
244.0629515517947
 51
24.32612031265393
  0
ARC
  5
581D
330
1F
100
AcDbEntity
  8
TEXT
100
AcDbCircle
 10
23.45090764792097
 20
-226.0824954080592
 30
0.0
 40
0.0665594458335838
100
AcDbArc
 50
300.6537348898064
 51
16.68245916376099
  0
ARC
  5
581E
330
1F
100
AcDbEntity
  8
TEXT
100
AcDbCircle
 10
23.32197364196644
 20
-226.011365198186
 30
0.0
 40
0.1995911182572234
100
AcDbArc
 50
344.8914411173241
 51
24.57723374822267
  0
LINE
  5
581F
330
1F
100
AcDbEntity
  8
TEXT
100
AcDbLine
 10
23.67935055327007
 20
-226.0455803789255
 30
0.0
 11
23.75804251080378
 21
-226.042508692509
 31
0.0
  0
LINE
  5
5820
330
1F
100
AcDbEntity
  8
TEXT
100
AcDbLine
 10
23.81767625100605
 20
-226.0455803789255
 30
0.0
 11
23.89636820853977
 21
-226.042508692509
 31
0.0
  0
LINE
  5
5821
330
1F
100
AcDbEntity
  8
TEXT
100
AcDbLine
 10
23.71131914581861
 20
-226.0701539063146
 30
0.0
 11
23.71254871018826
 21
-226.1893355051373
 31
0.0
  0
LINE
  5
5822
330
1F
100
AcDbEntity
  8
TEXT
100
AcDbLine
 10
23.75804251080378
 20
-226.042508692509
 30
0.0
 11
23.75927207517365
 21
-226.1776630871394
 31
0.0
  0
LINE
  5
5823
330
1F
100
AcDbEntity
  8
TEXT
100
AcDbLine
 10
23.89636820853977
 20
-226.042508692509
 30
0.0
 11
23.89759777290964
 21
-226.1819634529302
 31
0.0
  0
ARC
  5
5824
330
1F
100
AcDbEntity
  8
TEXT
100
AcDbCircle
 10
23.69693829384028
 20
-226.0698231796826
 30
0.0
 40
0.0143846544528433
100
AcDbArc
 50
358.6825606331185
 51
106.4049357729609
  0
LINE
  5
5825
330
1F
100
AcDbEntity
  8
TEXT
100
AcDbLine
 10
23.67935055327007
 20
-226.0455803789255
 30
0.0
 11
23.67996532532176
 21
-226.054181122526
 31
0.0
  0
LINE
  5
5826
330
1F
100
AcDbEntity
  8
TEXT
100
AcDbLine
 10
23.69287572080474
 20
-226.0560241295683
 30
0.0
 11
23.67996532532176
 21
-226.054181122526
 31
0.0
  0
LINE
  5
5827
330
1F
100
AcDbEntity
  8
TEXT
100
AcDbLine
 10
23.81767625100605
 20
-226.0455803789255
 30
0.0
 11
23.81706147895416
 21
-226.0572528089424
 31
0.0
  0
LINE
  5
5828
330
1F
100
AcDbEntity
  8
TEXT
100
AcDbLine
 10
23.81706147895416
 20
-226.0572528089424
 30
0.0
 11
23.83919359707698
 21
-226.0584814883166
 31
0.0
  0
LINE
  5
5829
330
1F
100
AcDbEntity
  8
TEXT
100
AcDbLine
 10
23.85271876461185
 20
-226.1881068257631
 30
0.0
 11
23.85210399256017
 21
-226.0707682460017
 31
0.0
  0
ARC
  5
582A
330
1F
100
AcDbEntity
  8
TEXT
100
AcDbCircle
 10
23.84331802427772
 20
-226.0670739404001
 30
0.0
 40
0.0095310614591516
100
AcDbArc
 50
337.1943218370185
 51
115.6412778855219
  0
ARC
  5
582B
330
1F
100
AcDbEntity
  8
TEXT
100
AcDbCircle
 10
23.75986080148326
 20
-226.1887089687284
 30
0.0
 40
0.0473162396072691
100
AcDbArc
 50
180.7587023263156
 51
270.031539090728
  0
ARC
  5
582C
330
1F
100
AcDbEntity
  8
TEXT
100
AcDbCircle
 10
23.77855946271339
 20
-226.1290411608755
 30
0.0
 40
0.1086013418252711
100
AcDbArc
 50
260.0995263030862
 51
313.0673878832376
  0
LINE
  5
582D
330
1F
100
AcDbEntity
  8
TEXT
100
AcDbLine
 10
23.85271876461185
 20
-226.2083799873614
 30
0.0
 11
23.85333355692983
 21
-226.2317248353763
 31
0.0
  0
ARC
  5
582E
330
1F
100
AcDbEntity
  8
TEXT
100
AcDbCircle
 10
23.8606032550133
 20
-226.2288317825563
 30
0.0
 40
0.0078242101738485
100
AcDbArc
 50
201.7006027724328
 51
343.0678677067654
  0
ARC
  5
582F
330
1F
100
AcDbEntity
  8
TEXT
100
AcDbCircle
 10
23.92841057607543
 20
-226.3720892960126
 30
0.0
 40
0.1533421027591031
100
AcDbArc
 50
88.1895659998687
 51
113.1652090520297
  0
LINE
  5
5830
330
1F
100
AcDbEntity
  8
TEXT
100
AcDbLine
 10
23.97246249829532
 20
-225.9744852654024
 30
0.0
 11
23.97702834861367
 21
-226.2110865122103
 31
0.0
  0
LINE
  5
5831
330
1F
100
AcDbEntity
  8
TEXT
100
AcDbLine
 10
24.02202723998447
 20
-225.9425401827956
 30
0.0
 11
24.02333909586464
 21
-226.0605220758676
 31
0.0
  0
LINE
  5
5832
330
1F
100
AcDbEntity
  8
TEXT
100
AcDbLine
 10
24.0239913399297
 20
-226.0846384602039
 30
0.0
 11
24.02464360426102
 21
-226.196747039793
 31
0.0
  0
ARC
  5
5833
330
1F
100
AcDbEntity
  8
TEXT
100
AcDbCircle
 10
24.1001315491292
 20
-226.1620140098419
 30
0.0
 40
0.1272701596613762
100
AcDbArc
 50
71.07988584763321
 51
127.1124618564783
  0
ARC
  5
5834
330
1F
100
AcDbEntity
  8
TEXT
100
AcDbCircle
 10
24.10022515180702
 20
-226.1202854506601
 30
0.0
 40
0.0887891713757522
100
AcDbArc
 50
359.8698564192901
 51
62.37231490186858
  0
ARC
  5
5835
330
1F
100
AcDbEntity
  8
TEXT
100
AcDbCircle
 10
24.06426879886204
 20
-226.1110284285507
 30
0.0
 40
0.048152924390775
100
AcDbArc
 50
78.87075864990926
 51
146.7670066549814
  0
ARC
  5
5836
330
1F
100
AcDbEntity
  8
TEXT
100
AcDbCircle
 10
24.07882439787085
 20
-226.1196032982369
 30
0.0
 40
0.0560696076248996
100
AcDbArc
 50
21.58325850317603
 51
95.38396011115386
  0
ARC
  5
5837
330
1F
100
AcDbEntity
  8
TEXT
100
AcDbCircle
 10
24.0744291175443
 20
-226.1387669234832
 30
0.0
 40
0.0691317710062258
100
AcDbArc
 50
343.5952529167658
 51
35.13836089168687
  0
ARC
  5
5838
330
1F
100
AcDbEntity
  8
TEXT
100
AcDbCircle
 10
24.0520995852801
 20
-226.1160517695637
 30
0.0
 40
0.1211085995481341
100
AcDbArc
 50
231.6935697703574
 51
269.6626044169057
  0
ARC
  5
5839
330
1F
100
AcDbEntity
  8
TEXT
100
AcDbCircle
 10
24.06465487749618
 20
-226.0950331631836
 30
0.0
 40
0.1427431179267509
100
AcDbArc
 50
264.6664639047715
 51
308.6423664458069
  0
ARC
  5
583A
330
1F
100
AcDbEntity
  8
TEXT
100
AcDbCircle
 10
24.08132557947596
 20
-226.1266291538259
 30
0.0
 40
0.1078635279190671
100
AcDbArc
 50
312.2086974257939
 51
3.264333629957775
  0
ARC
  5
583B
330
1F
100
AcDbEntity
  8
TEXT
100
AcDbCircle
 10
23.03513979482021
 20
-226.3049351199434
 30
0.0
 40
0.0164745833930051
100
AcDbArc
 50
225.9317407160084
 51
327.3216812937298
  0
ARC
  5
583C
330
1F
100
AcDbEntity
  8
TEXT
100
AcDbCircle
 10
23.22532111107459
 20
-226.353788108125
 30
0.0
 40
0.0142824575758108
100
AcDbArc
 50
167.7181143692787
 51
23.98551077366608
  0
ARC
  5
583D
330
1F
100
AcDbEntity
  8
TEXT
100
AcDbCircle
 10
23.29492746117572
 20
-226.336241720478
 30
0.0
 40
0.0173150236888075
100
AcDbArc
 50
170.727279478597
 51
21.1579410394761
  0
LINE
  5
583E
330
1F
100
AcDbEntity
  8
TEXT
100
AcDbLine
 10
23.31107526192017
 20
-226.3299920343687
 30
0.0
 11
23.30969039844938
 21
-226.3043906292088
 31
0.0
  0
LINE
  5
583F
330
1F
100
AcDbEntity
  8
TEXT
100
AcDbLine
 10
23.34638911829855
 20
-226.3085421996533
 30
0.0
 11
23.35331341538672
 21
-226.344522560972
 31
0.0
  0
ARC
  5
5840
330
1F
100
AcDbEntity
  8
TEXT
100
AcDbCircle
 10
23.36182204817162
 20
-226.3462262721766
 30
0.0
 40
0.0086775263603505
100
AcDbArc
 50
168.6772178130381
 51
20.84321825743645
  0
LINE
  5
5841
330
1F
100
AcDbEntity
  8
TEXT
100
AcDbLine
 10
23.36993169597273
 20
-226.3431387041572
 30
0.0
 11
23.36993169597273
 21
-226.3189211558121
 31
0.0
  0
ARC
  5
5842
330
1F
100
AcDbEntity
  8
TEXT
100
AcDbCircle
 10
23.38100552621594
 20
-226.3200127098558
 30
0.0
 40
0.0111274977638912
100
AcDbArc
 50
354.9255052590734
 51
174.3705062402905
  0
LINE
  5
5843
330
1F
100
AcDbEntity
  8
TEXT
100
AcDbLine
 10
23.39208941017614
 20
-226.3209969470438
 30
0.0
 11
23.3948591168519
 21
-226.3888060751988
 31
0.0
  0
ARC
  5
5844
330
1F
100
AcDbEntity
  8
TEXT
100
AcDbCircle
 10
23.40867911213033
 20
-226.387386856752
 30
0.0
 40
0.0138926761460945
100
AcDbArc
 50
185.8633287467241
 51
2.708827809510242
  0
LINE
  5
5845
330
1F
100
AcDbEntity
  8
TEXT
100
AcDbLine
 10
23.42255626467266
 20
-226.386730283967
 30
0.0
 11
23.41701685132135
 21
-226.3306839567666
 31
0.0
  0
LINE
  5
5846
330
1F
100
AcDbEntity
  8
TEXT
100
AcDbLine
 10
23.41701685132135
 20
-226.3306839567666
 30
0.0
 11
23.42324869640795
 21
-226.34521448337
 31
0.0
  0
ARC
  5
5847
330
1F
100
AcDbEntity
  8
TEXT
100
AcDbCircle
 10
23.4323609097854
 20
-226.3402242824992
 30
0.0
 40
0.0103891547955913
100
AcDbArc
 50
208.7068196476594
 51
351.5282258973467
  0
LINE
  5
5848
330
1F
100
AcDbEntity
  8
TEXT
100
AcDbLine
 10
23.44263670393579
 20
-226.3417548353233
 30
0.0
 11
23.44194427220027
 21
-226.3313758911836
 31
0.0
  0
ARC
  5
5849
330
1F
100
AcDbEntity
  8
TEXT
100
AcDbCircle
 10
23.4559249919422
 20
-226.3353415177906
 30
0.0
 40
0.0145322647543525
100
AcDbArc
 50
7.472141028409512
 51
164.1640293291644
  0
LINE
  5
584A
330
1F
100
AcDbEntity
  8
TEXT
100
AcDbLine
 10
23.47033385175654
 20
-226.3334516824154
 30
0.0
 11
23.47725812857864
 21
-226.3908818544115
 31
0.0
  0
ARC
  5
584B
330
1F
100
AcDbEntity
  8
TEXT
100
AcDbCircle
 10
23.49076899437463
 20
-226.3943403913647
 30
0.0
 40
0.0139465039495801
100
AcDbArc
 50
165.6416373021018
 51
23.3798197860138
  0
LINE
  5
584C
330
1F
100
AcDbEntity
  8
TEXT
100
AcDbLine
 10
23.50357041292862
 20
-226.3888060751988
 30
0.0
 11
23.50146555583038
 21
-226.3373766945177
 31
0.0
  0
ARC
  5
584D
330
1F
100
AcDbEntity
  8
TEXT
100
AcDbCircle
 10
23.50542123007068
 20
-226.3331095199585
 30
0.0
 40
0.0058186027029833
100
AcDbArc
 50
60.02231951668158
 51
227.1694577924197
  0
LINE
  5
584E
330
1F
100
AcDbEntity
  8
TEXT
100
AcDbLine
 10
23.50832856824143
 20
-226.3280693292699
 30
0.0
 11
23.53208229837989
 21
-226.3316977722956
 31
0.0
  0
ARC
  5
584F
330
1F
100
AcDbEntity
  8
TEXT
100
AcDbCircle
 10
23.5302782641254
 20
-226.3420757220657
 30
0.0
 40
0.0105335834843154
100
AcDbArc
 50
327.1504341221716
 51
80.13862259361685
  0
LINE
  5
5850
330
1F
100
AcDbEntity
  8
TEXT
100
AcDbLine
 10
23.53912750300271
 20
-226.3477895082282
 30
0.0
 11
23.54265011544716
 21
-226.4478600635483
 31
0.0
  0
LINE
  5
5851
330
1F
100
AcDbEntity
  8
TEXT
100
AcDbLine
 10
23.57234065683286
 20
-226.4458485860401
 30
0.0
 11
23.57284388428683
 21
-226.3442694406173
 31
0.0
  0
ARC
  5
5852
330
1F
100
AcDbEntity
  8
TEXT
100
AcDbCircle
 10
23.58076441378979
 20
-226.3435651428424
 30
0.0
 40
0.0079517811188939
100
AcDbArc
 50
32.94435831944412
 51
185.0814072168581
  0
ARC
  5
5853
330
1F
100
AcDbEntity
  8
TEXT
100
AcDbCircle
 10
23.60351457245172
 20
-226.3242551151832
 30
0.0
 40
0.0219781893928348
100
AcDbArc
 50
222.9877626572469
 51
344.3358851615519
  0
ARC
  5
5854
330
1F
100
AcDbEntity
  8
TEXT
100
AcDbCircle
 10
23.57296723936419
 20
-226.3052825350671
 30
0.0
 40
0.0094597719890548
100
AcDbArc
 50
193.9319034609808
 51
333.0378283509288
  0
ARC
  5
5855
330
1F
100
AcDbEntity
  8
TEXT
100
AcDbCircle
 10
23.55565051166756
 20
-226.3168778550137
 30
0.0
 40
0.012369386232978
100
AcDbArc
 50
48.87596376792746
 51
143.7953529790163
  0
ARC
  5
5856
330
1F
100
AcDbEntity
  8
TEXT
100
AcDbCircle
 10
23.53200552958504
 20
-226.2971193497769
 30
0.0
 40
0.0184868339637495
100
AcDbArc
 50
218.2556843178712
 51
317.656424723876
  0
ARC
  5
5857
330
1F
100
AcDbEntity
  8
TEXT
100
AcDbCircle
 10
23.5576127655626
 20
-226.4485869112071
 30
0.0
 40
0.0149802939220362
100
AcDbArc
 50
177.2189023070876
 51
10.53261226458013
  0
TEXT
  5
5858
330
1F
100
AcDbEntity
  8
TEXT
100
AcDbText
 10
20.07161246068488
 20
-227.807032394674
 30
0.0
 40
0.242845435094513
  1
9-28-09
 72
     1
 11
20.86086012474205
 21
-227.6856096771268
 31
0.0
100
AcDbText
 73
     2
  0
TEXT
  5
5859
330
1F
100
AcDbEntity
  8
TEXT
100
AcDbText
 10
19.28236479662772
 20
-227.6288110725213
 30
0.0
 40
0.1214227175472565
  1
DATE
100
AcDbText
  0
TEXT
  5
585A
330
1F
100
AcDbEntity
  8
TEXT
100
AcDbText
 10
19.74255689613168
 20
-227.4034505087537
 30
0.0
 40
0.1821340763208848
  1
JJH
 72
     1
 11
19.9854023312262
 21
-227.3123834705932
 31
0.0
100
AcDbText
 73
     2
  0
TEXT
  5
585B
330
1F
100
AcDbEntity
  8
TEXT
100
AcDbText
 10
19.23136725525784
 20
-227.1431202023323
 30
0.0
 40
0.1214227175472565
  1
DRAWN
100
AcDbText
  0
TEXT
  5
585C
330
1F
100
AcDbEntity
  8
TEXT
100
AcDbText
 10
20.98228284228929
 20
-227.1431202023323
 30
0.0
 40
0.1214227175472565
  1
SCALE
100
AcDbText
  0
TEXT
  5
585D
330
1F
100
AcDbEntity
  8
TEXT
100
AcDbText
 10
21.40240544500271
 20
-227.4034505087537
 30
0.0
 40
0.1821340763208848
  1
NONE
 72
     1
 11
21.73631791825766
 21
-227.3123834705932
 31
0.0
100
AcDbText
 73
     2
  0
LINE
  5
585E
330
1F
100
AcDbEntity
  8
Dimension
100
AcDbLine
 10
19.16094207908045
 20
-226.9609861260114
 30
0.0
 11
19.16094207908045
 21
-228.4616832561279
 31
0.0
  0
TEXT
  5
585F
330
1F
100
AcDbEntity
  8
TEXT
100
AcDbText
 10
15.91756090207305
 20
-228.279549179807
 30
0.0
 40
0.1214227175472565
  1
ICE QUBE, INC.
 72
     1
 11
16.63597864756099
 21
-228.2188378210334
 31
0.0
100
AcDbText
 73
     2
  0
TEXT
  5
5860
330
1F
100
AcDbEntity
  8
TEXT
100
AcDbText
 10
14.63061462268138
 20
-228.0974151034861
 30
0.0
 40
0.1214227175472565
  1
OR ALTERED WITHOUT AUTHORIZATION OF
 72
     1
 11
16.69480082098474
 21
-228.0367037447124
 31
0.0
100
AcDbText
 73
     2
  0
TEXT
  5
5861
330
1F
100
AcDbEntity
  8
TEXT
100
AcDbText
 10
14.53954758452093
 20
-227.9152810271652
 30
0.0
 40
0.1214227175472565
  1
QUBE, INC. AND IS NOT TO BE DUPLICATED
 72
     1
 11
16.69480082098474
 21
-227.8545696683916
 31
0.0
100
AcDbText
 73
     2
  0
TEXT
  5
5862
330
1F
100
AcDbEntity
  8
TEXT
100
AcDbText
 10
14.65085174227258
 20
-227.7331469508443
 30
0.0
 40
0.1214227175472565
  1
THIS DRAWING IS THE PROPERTY OF ICE
 72
     1
 11
16.69480082098474
 21
-227.6724355920707
 31
0.0
100
AcDbText
 73
     2
  0
TEXT
  5
5863
330
1F
100
AcDbEntity
  8
TEXT
100
AcDbText
 10
14.4687176659517
 20
-227.4903015157498
 30
0.0
 40
0.242845435094513
  1
PROPRIETARY DRAWING
 72
     1
 11
16.69480082098474
 21
-227.3688787982026
 31
0.0
100
AcDbText
 73
     2
  0
LINE
  5
5864
330
1F
100
AcDbEntity
  8
BORDER
100
AcDbLine
 10
19.16094207908045
 20
-228.4616832561279
 30
0.0
 11
19.16094207908045
 21
-227.126033363108
 31
0.0
  0
LINE
  5
5865
330
1F
100
AcDbEntity
  8
THERMOSTATCVR
100
AcDbLine
 10
19.16094207908045
 20
-226.9609861260114
 30
0.0
 11
14.27479455141535
 21
-226.9609861260114
 31
0.0
  0
LINE
  5
5866
330
1F
100
AcDbEntity
  8
THERMOSTATCVR
100
AcDbLine
 10
14.27479455141535
 20
-226.9609861260114
 30
0.0
 11
14.27479455141535
 21
-228.4616832561279
 31
0.0
  0
LINE
  5
5880
330
1F
100
AcDbEntity
  8
0
100
AcDbLine
 10
28.84775881164228
 20
-157.8982068083911
 30
0.0
 11
-24.82870224089932
 21
-157.8982068083912
 31
0.0
  0
DIMENSION
  5
58BF
330
1F
100
AcDbEntity
  8
0
100
AcDbDimension
  2
*D27
 10
-6.49047171462853
 20
-213.0849450322595
 30
0.0
 11
8.772089184435371
 21
-167.6404450322595
 31
0.0
 70
   102
  1
<> (4)
 71
     5
 42
15.99999999999999
  3
Standard
100
AcDbOrdinateDimension
 13
9.509528285371466
 23
-174.2749450322595
 33
0.0
 14
8.772089184435344
 24
-171.2749450322595
 34
0.0
1001
ACAD
1000
DSTYLE
1002
{
1070
    41
1040
0.25
1070
   140
1040
0.9451999999999999
1002
}
  0
DIMENSION
  5
592D
102
{ACAD_XDICTIONARY
360
5939
102
}
102
{ACAD_REACTORS
330
5942
102
}
330
1F
100
AcDbEntity
  8
0
100
AcDbDimension
  2
*D28
 10
-1.657658889205008
 20
-177.148001252922
 30
0.0
 11
15.82896161870462
 21
-181.9845479055942
 31
0.0
 70
   163
 71
     5
 42
7.749999999999992
  3
Standard
100
AcDbDiametricDimension
 15
5.676715459947934
 25
-179.651888811597
 35
0.0
 40
0.0
1001
ACAD
1000
DSTYLE
1002
{
1070
    41
1040
0.9451999999999999
1070
   140
1040
0.9451999999999999
1002
}
  0
DIMENSION
  5
595B
102
{ACAD_XDICTIONARY
360
5967
102
}
102
{ACAD_REACTORS
330
5970
102
}
330
1F
100
AcDbEntity
  8
0
100
AcDbDimension
  2
*D29
 10
-3.793878251056455
 20
-178.4330895257964
 30
0.0
 11
-11.65237171462857
 21
-180.7797798936034
 31
0.0
 70
   163
 71
     5
 42
1.25
  3
Standard
100
AcDbDiametricDimension
 15
-4.912065178200052
 25
-178.9918005387226
 35
0.0
 40
0.0
1001
ACAD
1000
DSTYLE
1002
{
1070
    41
1040
0.9451999999999999
1070
   140
1040
0.9451999999999999
1002
}
  0
DIMENSION
  5
5979
102
{ACAD_XDICTIONARY
360
5985
102
}
102
{ACAD_REACTORS
330
598E
102
}
330
1F
100
AcDbEntity
  8
0
100
AcDbDimension
  2
*D30
 10
9.36744103021182
 20
-202.4626034533862
 30
0.0
 11
16.93169495203824
 21
-205.1680390346569
 31
0.0
 70
   163
  1
<>(8)
 71
     5
 42
0.3749999999999716
  3
Standard
100
AcDbDiametricDimension
 15
9.651615540531011
 25
-202.7072866111327
 35
0.0
 40
0.0
1001
ACAD
1000
DSTYLE
1002
{
1070
    41
1040
0.9451999999999999
1070
   140
1040
0.9451999999999999
1002
}
  0
ENDSEC
  0
SECTION
  2
OBJECTS
  0
DICTIONARY
  5
C
330
0
100
AcDbDictionary
281
     1
  3
ACAD_COLOR
350
73
  3
ACAD_GROUP
350
D
  3
ACAD_LAYOUT
350
1A
  3
ACAD_MATERIAL
350
72
  3
ACAD_MLINESTYLE
350
17
  3
ACAD_PLOTSETTINGS
350
19
  3
ACAD_PLOTSTYLENAME
350
E
  3
ACDBHEADERROUNDTRIPXREC
350
59EA
  3
AcDbVariableDictionary
350
66
  3
DWGPROPS
350
59E9
  0
DICTIONARY
  5
F2
330
2
100
AcDbDictionary
280
     1
281
     1
  3
ACAD_LAYERSTATES
360
F3
  0
DICTIONARY
  5
9E
330
9D
100
AcDbDictionary
280
     1
281
     1
  3
ACAD_SORTENTS
360
9F
  0
DICTIONARY
  5
2AD0
330
2ACF
100
AcDbDictionary
280
     1
281
     1
  3
ACAD_SORTENTS
360
2AD1
  0
DICTIONARY
  5
4DBF
330
4DB6
100
AcDbDictionary
280
     1
281
     1
  3
ACAD_DIMASSOC
360
4DC5
  0
DICTIONARY
  5
4DD8
330
4DCF
100
AcDbDictionary
280
     1
281
     1
  3
ACAD_DIMASSOC
360
4DDE
  0
DICTIONARY
  5
4E01
330
4DF8
100
AcDbDictionary
280
     1
281
     1
  3
ACAD_DIMASSOC
360
4E07
  0
DICTIONARY
  5
4E11
330
4E08
100
AcDbDictionary
280
     1
281
     1
  3
ACAD_DIMASSOC
360
4E17
  0
DICTIONARY
  5
4E3A
330
4E31
100
AcDbDictionary
280
     1
281
     1
  3
ACAD_DIMASSOC
360
4E40
  0
DICTIONARY
  5
4E4A
330
4E41
100
AcDbDictionary
280
     1
281
     1
  3
ACAD_DIMASSOC
360
4E50
  0
DICTIONARY
  5
4E5A
330
4E51
100
AcDbDictionary
280
     1
281
     1
  3
ACAD_DIMASSOC
360
4E60
  0
DICTIONARY
  5
4E6C
330
4E61
100
AcDbDictionary
280
     1
281
     1
  3
ACAD_DIMASSOC
360
4E74
  0
DICTIONARY
  5
4E83
330
4E7A
100
AcDbDictionary
280
     1
281
     1
  3
ACAD_DIMASSOC
360
4E89
  0
DICTIONARY
  5
4EAE
330
4EA5
100
AcDbDictionary
280
     1
281
     1
  3
ACAD_DIMASSOC
360
4EB4
  0
DICTIONARY
  5
5939
330
592D
100
AcDbDictionary
280
     1
281
     1
  3
ACAD_DIMASSOC
360
5942
  0
DICTIONARY
  5
5967
330
595B
100
AcDbDictionary
280
     1
281
     1
  3
ACAD_DIMASSOC
360
5970
  0
DICTIONARY
  5
5985
330
5979
100
AcDbDictionary
280
     1
281
     1
  3
ACAD_DIMASSOC
360
598E
  0
DICTIONARY
  5
73
102
{ACAD_REACTORS
330
C
102
}
330
C
100
AcDbDictionary
281
     1
  0
DICTIONARY
  5
D
102
{ACAD_REACTORS
330
C
102
}
330
C
100
AcDbDictionary
281
     1
  0
DICTIONARY
  5
1A
102
{ACAD_REACTORS
330
C
102
}
330
C
100
AcDbDictionary
281
     1
  3
Layout1
350
59
  3
Layout2
350
5E
  3
Model
350
22
  0
DICTIONARY
  5
72
102
{ACAD_REACTORS
330
C
102
}
330
C
100
AcDbDictionary
281
     1
  0
DICTIONARY
  5
17
102
{ACAD_REACTORS
330
C
102
}
330
C
100
AcDbDictionary
281
     1
  3
Standard
350
18
  0
DICTIONARY
  5
19
102
{ACAD_REACTORS
330
C
102
}
330
C
100
AcDbDictionary
281
     1
  0
ACDBDICTIONARYWDFLT
  5
E
102
{ACAD_REACTORS
330
C
102
}
330
C
100
AcDbDictionary
281
     1
  3
Normal
350
F
100
AcDbDictionaryWithDefault
340
F
  0
DICTIONARY
  5
59EA
102
{ACAD_REACTORS
330
C
102
}
330
C
100
AcDbDictionary
281
     1
  3
COLORDICT
350
59EC
  3
MATERIALDICT
350
59EB
  0
DICTIONARY
  5
66
102
{ACAD_REACTORS
330
C
102
}
330
C
100
AcDbDictionary
281
     1
  3
DIMASSOC
350
67
  3
HIDETEXT
350
6B
  3
PROJECTNAME
350
59AD
  0
XRECORD
  5
59E9
102
{ACAD_REACTORS
330
C
102
}
330
C
100
AcDbXrecord
280
     1
  1
DWGPROPS COOKIE
  2

  3

  4

  6

  7

  8

  9

300
=
301
=
302
=
303
=
304
=
305
=
306
=
307
=
308
=
309
=
 40
1.580736111111111
 41
2454540.48470404
 42
2455104.497430683
  1

 90
        0
  0
DICTIONARY
  5
F3
102
{ACAD_REACTORS
330
F2
102
}
330
F2
100
AcDbDictionary
281
     1
  0
SORTENTSTABLE
  5
9F
102
{ACAD_REACTORS
330
9E
102
}
330
9E
100
AcDbSortentsTable
330
9D
  0
SORTENTSTABLE
  5
2AD1
102
{ACAD_REACTORS
330
2AD0
102
}
330
2AD0
100
AcDbSortentsTable
330
2ACF
  0
DIMASSOC
  5
4DC5
102
{ACAD_REACTORS
330
4DBF
102
}
330
4DBF
100
AcDbDimAssoc
330
4DB6
 90
        2
 70
     0
 71
     0
  1
AcDbOsnapPointRef
 72
     1
331
2AA4
 73
     2
 91
        0
 40
1.0
 10
0.0
 20
0.0
 30
2.000000000000000E+50
 75
     0
  0
DIMASSOC
  5
4DDE
102
{ACAD_REACTORS
330
4DD8
102
}
330
4DD8
100
AcDbDimAssoc
330
4DCF
 90
        2
 70
     0
 71
     0
  1
AcDbOsnapPointRef
 72
     3
331
2ACB
 73
     2
 91
        0
 40
0.0
 10
0.0
 20
0.0
 30
0.0
 75
     0
  0
DIMASSOC
  5
4E07
102
{ACAD_REACTORS
330
4E01
102
}
330
4E01
100
AcDbDimAssoc
330
4DF8
 90
        2
 70
     0
 71
     0
  1
AcDbOsnapPointRef
 72
     3
331
2AC9
 73
     2
 91
        0
 40
0.0
 10
0.0
 20
0.0
 30
0.0
 75
     0
  0
DIMASSOC
  5
4E17
102
{ACAD_REACTORS
330
4E11
102
}
330
4E11
100
AcDbDimAssoc
330
4E08
 90
        2
 70
     0
 71
     0
  1
AcDbOsnapPointRef
 72
    13
331
2AC4
 73
     2
 91
        0
 40
0.0
 10
0.0
 20
0.0
 30
2.000000000000000E+50
 75
     0
  0
DIMASSOC
  5
4E40
102
{ACAD_REACTORS
330
4E3A
102
}
330
4E3A
100
AcDbDimAssoc
330
4E31
 90
        2
 70
     0
 71
     0
  1
AcDbOsnapPointRef
 72
     1
331
2AC3
 73
     2
 91
        0
 40
1.0
 10
0.0
 20
0.0
 30
2.000000000000000E+50
 75
     0
  0
DIMASSOC
  5
4E50
102
{ACAD_REACTORS
330
4E4A
102
}
330
4E4A
100
AcDbDimAssoc
330
4E41
 90
        2
 70
     0
 71
     0
  1
AcDbOsnapPointRef
 72
     3
331
2AC8
 73
     2
 91
        0
 40
0.0
 10
0.0
 20
0.0
 30
0.0
 75
     0
  0
DIMASSOC
  5
4E60
102
{ACAD_REACTORS
330
4E5A
102
}
330
4E5A
100
AcDbDimAssoc
330
4E51
 90
        2
 70
     0
 71
     0
  1
AcDbOsnapPointRef
 72
     3
331
2AC0
 73
     2
 91
        0
 40
0.0
 10
0.0
 20
0.0
 30
0.0
 75
     0
  0
DIMASSOC
  5
4E74
102
{ACAD_REACTORS
330
4E6C
102
}
330
4E6C
100
AcDbDimAssoc
330
4E61
 90
        2
 70
     0
 71
     0
  1
AcDbOsnapPointRef
 72
     3
331
2ACD
 73
     2
 91
        0
 40
0.0
 10
0.0
 20
0.0
 30
0.0
 75
     0
  0
DIMASSOC
  5
4E89
102
{ACAD_REACTORS
330
4E83
102
}
330
4E83
100
AcDbDimAssoc
330
4E7A
 90
        2
 70
     0
 71
     0
  1
AcDbOsnapPointRef
 72
     3
331
2AC5
 73
     2
 91
        0
 40
0.0
 10
0.0
 20
0.0
 30
0.0
 75
     0
  0
DIMASSOC
  5
4EB4
102
{ACAD_REACTORS
330
4EAE
102
}
330
4EAE
100
AcDbDimAssoc
330
4EA5
 90
        2
 70
     0
 71
     0
  1
AcDbOsnapPointRef
 72
    13
331
2AA3
 73
     2
 91
        0
 40
0.0
 10
0.0
 20
0.0
 30
2.000000000000000E+50
 75
     0
  0
DIMASSOC
  5
5942
102
{ACAD_REACTORS
330
5939
102
}
330
5939
100
AcDbDimAssoc
330
592D
 90
        2
 70
     0
 71
     0
  1
AcDbOsnapPointRef
 72
     3
331
2AC0
 73
     2
 91
        0
 40
0.0
 10
0.0
 20
0.0
 30
0.0
 75
     0
  0
DIMASSOC
  5
5970
102
{ACAD_REACTORS
330
5967
102
}
330
5967
100
AcDbDimAssoc
330
595B
 90
        2
 70
     0
 71
     0
  1
AcDbOsnapPointRef
 72
     3
331
2ACD
 73
     2
 91
        0
 40
0.0
 10
0.0
 20
0.0
 30
0.0
 75
     0
  0
DIMASSOC
  5
598E
102
{ACAD_REACTORS
330
5985
102
}
330
5985
100
AcDbDimAssoc
330
5979
 90
        2
 70
     0
 71
     0
  1
AcDbOsnapPointRef
 72
     3
331
2ACA
 73
     2
 91
        0
 40
0.0
 10
0.0
 20
0.0
 30
0.0
 75
     0
  0
LAYOUT
  5
59
102
{ACAD_XDICTIONARY
360
59EF
102
}
102
{ACAD_REACTORS
330
1A
102
}
330
1A
100
AcDbPlotSettings
  1

  2
None
  4

  6

 40
0.0
 41
0.0
 42
0.0
 43
0.0
 44
0.0
 45
0.0
 46
0.0
 47
0.0
 48
0.0
 49
0.0
140
0.0
141
0.0
142
1.0
143
1.0
 70
   688
 72
     0
 73
     0
 74
     5
  7
monochrome.ctb
 75
    16
147
1.0
148
0.0
149
0.0
100
AcDbLayout
  1
Layout1
 70
     1
 71
     1
 10
0.0
 20
0.0
 11
12.0
 21
9.0
 12
0.0
 22
0.0
 32
0.0
 14
0.0
 24
0.0
 34
0.0
 15
0.0
 25
0.0
 35
0.0
146
0.0
 13
0.0
 23
0.0
 33
0.0
 16
1.0
 26
0.0
 36
0.0
 17
0.0
 27
1.0
 37
0.0
 76
     0
330
58
  0
LAYOUT
  5
5E
102
{ACAD_XDICTIONARY
360
59F1
102
}
102
{ACAD_REACTORS
330
1A
102
}
330
1A
100
AcDbPlotSettings
  1

  2
None
  4

  6

 40
0.0
 41
0.0
 42
0.0
 43
0.0
 44
0.0
 45
0.0
 46
0.0
 47
0.0
 48
0.0
 49
0.0
140
0.0
141
0.0
142
1.0
143
1.0
 70
   688
 72
     0
 73
     0
 74
     5
  7
monochrome.ctb
 75
    16
147
1.0
148
0.0
149
0.0
100
AcDbLayout
  1
Layout2
 70
     1
 71
     2
 10
0.0
 20
0.0
 11
12.0
 21
9.0
 12
0.0
 22
0.0
 32
0.0
 14
0.0
 24
0.0
 34
0.0
 15
0.0
 25
0.0
 35
0.0
146
0.0
 13
0.0
 23
0.0
 33
0.0
 16
1.0
 26
0.0
 36
0.0
 17
0.0
 27
1.0
 37
0.0
 76
     0
330
5D
  0
LAYOUT
  5
22
102
{ACAD_XDICTIONARY
360
59ED
102
}
102
{ACAD_REACTORS
330
1A
102
}
330
1A
100
AcDbPlotSettings
  1

  2
Adobe PDF
  4
Letter
  6

 40
3.174999952316283
 41
3.174999952316283
 42
3.175003051757812
 43
3.17498779296875
 44
215.8999938964844
 45
279.3999938964844
 46
1.016
 47
0.0
 48
-14.40914404794728
 49
-233.8120382317906
140
71.47319363611927
141
-120.910475915412
142
1.0
143
10.50247067655456
 70
 11956
 72
     0
 73
     0
 74
     4
  7
monochrome.ctb
 75
     0
147
0.0952156907452618
148
365.9922588178609
149
5938.825771087479
100
AcDbLayout
  1
Model
 70
     1
 71
     0
 10
0.0
 20
0.0
 11
12.0
 21
9.0
 12
0.0
 22
0.0
 32
0.0
 14
0.0
 24
0.0
 34
0.0
 15
0.0
 25
0.0
 35
0.0
146
0.0
 13
0.0
 23
0.0
 33
0.0
 16
1.0
 26
0.0
 36
0.0
 17
0.0
 27
1.0
 37
0.0
 76
     0
330
1F
  0
MLINESTYLE
  5
18
102
{ACAD_REACTORS
330
17
102
}
330
17
100
AcDbMlineStyle
  2
STANDARD
 70
     0
  3

 62
   256
 51
90.0
 52
90.0
 71
     2
 49
0.5
 62
   256
  6
BYLAYER
 49
-0.5
 62
   256
  6
BYLAYER
  0
ACDBPLACEHOLDER
  5
F
102
{ACAD_REACTORS
330
E
102
}
330
E
  0
XRECORD
  5
59EC
102
{ACAD_REACTORS
330
59EA
102
}
330
59EA
100
AcDbXrecord
280
     1
340
73
  0
XRECORD
  5
59EB
102
{ACAD_REACTORS
330
59EA
102
}
330
59EA
100
AcDbXrecord
280
     1
340
72
  0
DICTIONARYVAR
  5
67
102
{ACAD_REACTORS
330
66
102
}
330
66
100
DictionaryVariables
280
     0
  1
2
  0
DICTIONARYVAR
  5
6B
102
{ACAD_REACTORS
330
66
102
}
330
66
100
DictionaryVariables
280
     0
  1
1
  0
DICTIONARYVAR
  5
59AD
102
{ACAD_REACTORS
330
66
102
}
330
66
100
DictionaryVariables
280
     0
  1

  0
DICTIONARY
  5
59EF
330
59
100
AcDbDictionary
280
     1
281
     1
  3
ACAD_XREC_ROUNDTRIP
360
59F0
  0
DICTIONARY
  5
59F1
330
5E
100
AcDbDictionary
280
     1
281
     1
  3
ACAD_XREC_ROUNDTRIP
360
59F2
  0
DICTIONARY
  5
59ED
330
22
100
AcDbDictionary
280
     1
281
     1
  3
ACAD_XREC_ROUNDTRIP
360
59EE
  0
XRECORD
  5
59F0
102
{ACAD_REACTORS
330
59EF
102
}
330
59EF
100
AcDbXrecord
280
     1
102
SHADEPLOT
 70
     0
102
SHADEPLOTRESLEVEL
 70
     2
102
SHADEPLOTCUSTOMDPI
 70
   300
  0
XRECORD
  5
59F2
102
{ACAD_REACTORS
330
59F1
102
}
330
59F1
100
AcDbXrecord
280
     1
102
SHADEPLOT
 70
     0
102
SHADEPLOTRESLEVEL
 70
     2
102
SHADEPLOTCUSTOMDPI
 70
   300
  0
XRECORD
  5
59EE
102
{ACAD_REACTORS
330
59ED
102
}
330
59ED
100
AcDbXrecord
280
     1
102
SHADEPLOT
 70
     0
102
SHADEPLOTRESLEVEL
 70
     2
102
SHADEPLOTCUSTOMDPI
 70
   300
  0
ENDSEC
  0
EOF
