  0
SECTION
  2
HEADER
  9
$ACADVER
  1
AC1015
  9
$ACADMAINTVER
 70
    20
  9
$DWGCODEPAGE
  3
ANSI_1252
  9
$INSBASE
 10
0.0
 20
0.0
 30
0.0
  9
$EXTMIN
 10
-215.4470643009195
 20
-174.1325552363148
 30
0.0
  9
$EXTMAX
 10
-144.2603843679435
 20
-80.46247589000463
 30
0.0
  9
$LIMMIN
 10
0.0
 20
0.0
  9
$LIMMAX
 10
12.0
 20
9.0
  9
$ORTHOMODE
 70
     1
  9
$REGENMODE
 70
     1
  9
$FILLMODE
 70
     1
  9
$QTEXTMODE
 70
     0
  9
$MIRRTEXT
 70
     0
  9
$LTSCALE
 40
1.0
  9
$ATTMODE
 70
     1
  9
$TEXTSIZE
 40
0.2
  9
$TRACEWID
 40
0.05
  9
$TEXTSTYLE
  7
Standard
  9
$CLAYER
  8
0
  9
$CELTYPE
  6
ByLayer
  9
$CECOLOR
 62
   256
  9
$CELTSCALE
 40
1.0
  9
$DISPSILH
 70
     0
  9
$DIMSCALE
 40
1.0
  9
$DIMASZ
 40
1.0
  9
$DIMEXO
 40
0.375
  9
$DIMDLI
 40
0.38
  9
$DIMRND
 40
0.0
  9
$DIMDLE
 40
0.0
  9
$DIMEXE
 40
0.18
  9
$DIMTP
 40
0.0
  9
$DIMTM
 40
0.0
  9
$DIMTXT
 40
1.0
  9
$DIMCEN
 40
0.09
  9
$DIMTSZ
 40
0.0
  9
$DIMTOL
 70
     0
  9
$DIMLIM
 70
     0
  9
$DIMTIH
 70
     1
  9
$DIMTOH
 70
     1
  9
$DIMSE1
 70
     0
  9
$DIMSE2
 70
     0
  9
$DIMTAD
 70
     0
  9
$DIMZIN
 70
     0
  9
$DIMBLK
  1

  9
$DIMASO
 70
     1
  9
$DIMSHO
 70
     1
  9
$DIMPOST
  1

  9
$DIMAPOST
  1

  9
$DIMALT
 70
     0
  9
$DIMALTD
 70
     2
  9
$DIMALTF
 40
25.4
  9
$DIMLFAC
 40
1.0
  9
$DIMTOFL
 70
     0
  9
$DIMTVP
 40
0.0
  9
$DIMTIX
 70
     0
  9
$DIMSOXD
 70
     0
  9
$DIMSAH
 70
     0
  9
$DIMBLK1
  1

  9
$DIMBLK2
  1

  9
$DIMSTYLE
  2
Standard
  9
$DIMCLRD
 70
     0
  9
$DIMCLRE
 70
     0
  9
$DIMCLRT
 70
     0
  9
$DIMTFAC
 40
1.0
  9
$DIMGAP
 40
0.09
  9
$DIMJUST
 70
     0
  9
$DIMSD1
 70
     0
  9
$DIMSD2
 70
     0
  9
$DIMTOLJ
 70
     1
  9
$DIMTZIN
 70
     0
  9
$DIMALTZ
 70
     0
  9
$DIMALTTZ
 70
     0
  9
$DIMUPT
 70
     0
  9
$DIMDEC
 70
     3
  9
$DIMTDEC
 70
     3
  9
$DIMALTU
 70
     2
  9
$DIMALTTD
 70
     2
  9
$DIMTXSTY
  7
Standard
  9
$DIMAUNIT
 70
     0
  9
$DIMADEC
 70
     0
  9
$DIMALTRND
 40
0.0
  9
$DIMAZIN
 70
     0
  9
$DIMDSEP
 70
    46
  9
$DIMATFIT
 70
     3
  9
$DIMFRAC
 70
     0
  9
$DIMLDRBLK
  1

  9
$DIMLUNIT
 70
     2
  9
$DIMLWD
 70
    -2
  9
$DIMLWE
 70
    -2
  9
$DIMTMOVE
 70
     0
  9
$LUNITS
 70
     2
  9
$LUPREC
 70
     4
  9
$SKETCHINC
 40
0.1
  9
$FILLETRAD
 40
0.0
  9
$AUNITS
 70
     0
  9
$AUPREC
 70
     0
  9
$MENU
  1
.
  9
$ELEVATION
 40
0.0
  9
$PELEVATION
 40
0.0
  9
$THICKNESS
 40
0.0
  9
$LIMCHECK
 70
     0
  9
$CHAMFERA
 40
0.0
  9
$CHAMFERB
 40
0.0
  9
$CHAMFERC
 40
0.0
  9
$CHAMFERD
 40
0.0
  9
$SKPOLY
 70
     0
  9
$TDCREATE
 40
2455096.435427928
  9
$TDUCREATE
 40
2455096.602094595
  9
$TDUPDATE
 40
2455709.469827651
  9
$TDUUPDATE
 40
2455709.636494317
  9
$TDINDWG
 40
0.0266389468
  9
$TDUSRTIMER
 40
0.0266387616
  9
$USRTIMER
 70
     1
  9
$ANGBASE
 50
0.0
  9
$ANGDIR
 70
     0
  9
$PDMODE
 70
     0
  9
$PDSIZE
 40
0.0
  9
$PLINEWID
 40
0.0
  9
$SPLFRAME
 70
     0
  9
$SPLINETYPE
 70
     6
  9
$SPLINESEGS
 70
     8
  9
$HANDSEED
  5
613
  9
$SURFTAB1
 70
     6
  9
$SURFTAB2
 70
     6
  9
$SURFTYPE
 70
     6
  9
$SURFU
 70
     6
  9
$SURFV
 70
     6
  9
$UCSBASE
  2

  9
$UCSNAME
  2

  9
$UCSORG
 10
0.0
 20
0.0
 30
0.0
  9
$UCSXDIR
 10
1.0
 20
0.0
 30
0.0
  9
$UCSYDIR
 10
0.0
 20
1.0
 30
0.0
  9
$UCSORTHOREF
  2

  9
$UCSORTHOVIEW
 70
     0
  9
$UCSORGTOP
 10
0.0
 20
0.0
 30
0.0
  9
$UCSORGBOTTOM
 10
0.0
 20
0.0
 30
0.0
  9
$UCSORGLEFT
 10
0.0
 20
0.0
 30
0.0
  9
$UCSORGRIGHT
 10
0.0
 20
0.0
 30
0.0
  9
$UCSORGFRONT
 10
0.0
 20
0.0
 30
0.0
  9
$UCSORGBACK
 10
0.0
 20
0.0
 30
0.0
  9
$PUCSBASE
  2

  9
$PUCSNAME
  2

  9
$PUCSORG
 10
0.0
 20
0.0
 30
0.0
  9
$PUCSXDIR
 10
1.0
 20
0.0
 30
0.0
  9
$PUCSYDIR
 10
0.0
 20
1.0
 30
0.0
  9
$PUCSORTHOREF
  2

  9
$PUCSORTHOVIEW
 70
     0
  9
$PUCSORGTOP
 10
0.0
 20
0.0
 30
0.0
  9
$PUCSORGBOTTOM
 10
0.0
 20
0.0
 30
0.0
  9
$PUCSORGLEFT
 10
0.0
 20
0.0
 30
0.0
  9
$PUCSORGRIGHT
 10
0.0
 20
0.0
 30
0.0
  9
$PUCSORGFRONT
 10
0.0
 20
0.0
 30
0.0
  9
$PUCSORGBACK
 10
0.0
 20
0.0
 30
0.0
  9
$USERI1
 70
     0
  9
$USERI2
 70
     0
  9
$USERI3
 70
     0
  9
$USERI4
 70
     0
  9
$USERI5
 70
     0
  9
$USERR1
 40
0.0
  9
$USERR2
 40
0.0
  9
$USERR3
 40
0.0
  9
$USERR4
 40
0.0
  9
$USERR5
 40
0.0
  9
$WORLDVIEW
 70
     1
  9
$SHADEDGE
 70
     3
  9
$SHADEDIF
 70
    70
  9
$TILEMODE
 70
     1
  9
$MAXACTVP
 70
    64
  9
$PINSBASE
 10
0.0
 20
0.0
 30
0.0
  9
$PLIMCHECK
 70
     0
  9
$PEXTMIN
 10
0.0
 20
0.0
 30
0.0
  9
$PEXTMAX
 10
0.0
 20
0.0
 30
0.0
  9
$PLIMMIN
 10
0.0
 20
0.0
  9
$PLIMMAX
 10
12.0
 20
9.0
  9
$UNITMODE
 70
     0
  9
$VISRETAIN
 70
     1
  9
$PLINEGEN
 70
     0
  9
$PSLTSCALE
 70
     1
  9
$TREEDEPTH
 70
  3020
  9
$CMLSTYLE
  2
Standard
  9
$CMLJUST
 70
     0
  9
$CMLSCALE
 40
1.0
  9
$PROXYGRAPHICS
 70
     1
  9
$MEASUREMENT
 70
     0
  9
$CELWEIGHT
370
    -1
  9
$ENDCAPS
280
     0
  9
$JOINSTYLE
280
     0
  9
$LWDISPLAY
290
     0
  9
$INSUNITS
 70
     1
  9
$HYPERLINKBASE
  1

  9
$STYLESHEET
  1

  9
$XEDIT
290
     1
  9
$CEPSNTYPE
380
     0
  9
$PSTYLEMODE
290
     1
  9
$FINGERPRINTGUID
  2
{FDEAD576-A652-11D2-9A35-0060089B3A3F}
  9
$VERSIONGUID
  2
{4E7C41F8-9D93-4BDB-9057-02EE2C3F0EA9}
  9
$EXTNAMES
290
     1
  9
$PSVPSCALE
 40
0.0
  9
$OLESTARTUP
290
     0
  0
ENDSEC
  0
SECTION
  2
CLASSES
  0
CLASS
  1
ACDBDICTIONARYWDFLT
  2
AcDbDictionaryWithDefault
  3
ObjectDBX Classes
 90
        0
280
     0
281
     0
  0
CLASS
  1
ACDBPLACEHOLDER
  2
AcDbPlaceHolder
  3
ObjectDBX Classes
 90
        0
280
     0
281
     0
  0
CLASS
  1
LAYOUT
  2
AcDbLayout
  3
ObjectDBX Classes
 90
        0
280
     0
281
     0
  0
CLASS
  1
DICTIONARYVAR
  2
AcDbDictionaryVar
  3
ObjectDBX Classes
 90
        0
280
     0
281
     0
  0
CLASS
  1
DIMASSOC
  2
AcDbDimAssoc
  3
"AcDbDimAssoc|Product Desc:     AcDim ARX App For Dimension|Company:          Autodesk, Inc.|WEB Address:      www.autodesk.com"
 90
        0
280
     0
281
     0
  0
ENDSEC
  0
SECTION
  2
TABLES
  0
TABLE
  2
VPORT
  5
8
330
0
100
AcDbSymbolTable
 70
     8
  0
VPORT
  5
609
330
8
100
AcDbSymbolTableRecord
100
AcDbViewportTableRecord
  2
*Active
 70
     0
 10
0.0
 20
0.0
 11
1.0
 21
1.0
 12
-176.3360559622102
 22
-125.4170612276612
 13
0.0
 23
0.0
 14
0.5
 24
0.5
 15
0.5
 25
0.5
 16
0.0
 26
0.0
 36
1.0
 17
0.0
 27
0.0
 37
0.0
 40
98.52185957960426
 41
2.028571428571428
 42
50.0
 43
0.0
 44
0.0
 50
0.0
 51
0.0
 71
     0
 72
  1000
 73
     1
 74
     3
 75
     0
 76
     0
 77
     0
 78
     0
281
     0
 65
     1
110
0.0
120
0.0
130
0.0
111
1.0
121
0.0
131
0.0
112
0.0
122
1.0
132
0.0
 79
     0
146
0.0
  0
ENDTAB
  0
TABLE
  2
LTYPE
  5
5
330
0
100
AcDbSymbolTable
 70
     3
  0
LTYPE
  5
14
330
5
100
AcDbSymbolTableRecord
100
AcDbLinetypeTableRecord
  2
ByBlock
 70
     0
  3

 72
    65
 73
     0
 40
0.0
  0
LTYPE
  5
15
330
5
100
AcDbSymbolTableRecord
100
AcDbLinetypeTableRecord
  2
ByLayer
 70
     0
  3

 72
    65
 73
     0
 40
0.0
  0
LTYPE
  5
16
330
5
100
AcDbSymbolTableRecord
100
AcDbLinetypeTableRecord
  2
Continuous
 70
     0
  3
Solid line
 72
    65
 73
     0
 40
0.0
  0
LTYPE
  5
12D
330
5
100
AcDbSymbolTableRecord
100
AcDbLinetypeTableRecord
  2
DASHDOT
 70
     0
  3
__ . __ . __ . __ . __ . __ . __ . __ . __ . __
 72
    65
 73
     4
 40
1.0
 49
0.5
 74
     0
 49
-0.25
 74
     0
 49
0.0
 74
     0
 49
-0.25
 74
     0
  0
LTYPE
  5
12E
330
5
100
AcDbSymbolTableRecord
100
AcDbLinetypeTableRecord
  2
HIDDEN
 70
     0
  3
__ __ __ __ __ __ __ __ __ __ __ __ __ __ __ __
 72
    65
 73
     2
 40
0.375
 49
0.25
 74
     0
 49
-0.125
 74
     0
  0
ENDTAB
  0
TABLE
  2
LAYER
  5
2
102
{ACAD_XDICTIONARY
360
136
102
}
330
0
100
AcDbSymbolTable
 70
     8
  0
LAYER
  5
10
330
2
100
AcDbSymbolTableRecord
100
AcDbLayerTableRecord
  2
0
 70
     0
 62
     7
  6
Continuous
370
    -3
390
F
  0
LAYER
  5
12F
330
2
100
AcDbSymbolTableRecord
100
AcDbLayerTableRecord
  2
Defpoints
 70
     0
 62
     7
  6
Continuous
290
     0
370
    -3
390
F
  0
LAYER
  5
130
330
2
100
AcDbSymbolTableRecord
100
AcDbLayerTableRecord
  2
DIM
 70
     0
 62
     7
  6
Continuous
370
    -3
390
F
  0
LAYER
  5
131
330
2
100
AcDbSymbolTableRecord
100
AcDbLayerTableRecord
  2
TEXT
 70
     0
 62
    -7
  6
Continuous
370
    -3
390
F
  0
LAYER
  5
132
330
2
100
AcDbSymbolTableRecord
100
AcDbLayerTableRecord
  2
TEMPLATE
 70
     0
 62
     7
  6
Continuous
370
    -3
390
F
  0
LAYER
  5
133
330
2
100
AcDbSymbolTableRecord
100
AcDbLayerTableRecord
  2
DIMENSION
 70
     0
 62
     7
  6
Continuous
370
    -3
390
F
  0
LAYER
  5
134
330
2
100
AcDbSymbolTableRecord
100
AcDbLayerTableRecord
  2
THERMOSTATCVR
 70
     0
 62
     7
  6
Continuous
370
    -3
390
F
  0
LAYER
  5
135
330
2
100
AcDbSymbolTableRecord
100
AcDbLayerTableRecord
  2
BORDER
 70
     0
 62
     7
  6
Continuous
370
    -3
390
F
  0
ENDTAB
  0
TABLE
  2
STYLE
  5
3
330
0
100
AcDbSymbolTable
 70
     1
  0
STYLE
  5
11
330
3
100
AcDbSymbolTableRecord
100
AcDbTextStyleTableRecord
  2
Standard
 70
     0
 40
0.0
 41
1.0
 50
0.0
 71
     0
 42
0.2
  3
txt
  4

  0
ENDTAB
  0
TABLE
  2
VIEW
  5
6
330
0
100
AcDbSymbolTable
 70
     0
  0
ENDTAB
  0
TABLE
  2
UCS
  5
7
330
0
100
AcDbSymbolTable
 70
     0
  0
ENDTAB
  0
TABLE
  2
APPID
  5
9
330
0
100
AcDbSymbolTable
 70
     1
  0
APPID
  5
12
330
9
100
AcDbSymbolTableRecord
100
AcDbRegAppTableRecord
  2
ACAD
 70
     0
  0
ENDTAB
  0
TABLE
  2
DIMSTYLE
  5
A
330
0
100
AcDbSymbolTable
 70
     1
100
AcDbDimStyleTable
 71
     1
340
27
  0
DIMSTYLE
105
27
102
{ACAD_REACTORS
330
468
330
46A
330
46B
330
46C
330
46D
330
46E
330
46F
330
470
330
471
330
48E
330
491
330
492
330
493
330
49E
330
437
330
438
330
441
330
445
330
5DC
102
}
330
A
100
AcDbSymbolTableRecord
100
AcDbDimStyleTableRecord
  2
Standard
 70
     0
 41
1.0
 42
0.375
140
1.0
271
     3
272
     3
340
11
  0
ENDTAB
  0
TABLE
  2
BLOCK_RECORD
  5
1
330
0
100
AcDbSymbolTable
 70
    38
  0
BLOCK_RECORD
  5
1F
330
1
100
AcDbSymbolTableRecord
100
AcDbBlockTableRecord
  2
*Model_Space
340
22
  0
BLOCK_RECORD
  5
58
330
1
100
AcDbSymbolTableRecord
100
AcDbBlockTableRecord
  2
*Paper_Space
340
59
  0
BLOCK_RECORD
  5
5D
330
1
100
AcDbSymbolTableRecord
100
AcDbBlockTableRecord
  2
*Paper_Space0
340
5E
  0
BLOCK_RECORD
  5
89
330
1
100
AcDbSymbolTableRecord
100
AcDbBlockTableRecord
  2
*D1
340
0
  0
BLOCK_RECORD
  5
93
330
1
100
AcDbSymbolTableRecord
100
AcDbBlockTableRecord
  2
*D2
340
0
  0
BLOCK_RECORD
  5
9B
330
1
100
AcDbSymbolTableRecord
100
AcDbBlockTableRecord
  2
*D3
340
0
  0
BLOCK_RECORD
  5
A3
330
1
100
AcDbSymbolTableRecord
100
AcDbBlockTableRecord
  2
*D4
340
0
  0
BLOCK_RECORD
  5
AB
330
1
100
AcDbSymbolTableRecord
100
AcDbBlockTableRecord
  2
*D5
340
0
  0
BLOCK_RECORD
  5
B3
330
1
100
AcDbSymbolTableRecord
100
AcDbBlockTableRecord
  2
*D6
340
0
  0
BLOCK_RECORD
  5
BD
330
1
100
AcDbSymbolTableRecord
100
AcDbBlockTableRecord
  2
*D7
340
0
  0
BLOCK_RECORD
  5
C7
330
1
100
AcDbSymbolTableRecord
100
AcDbBlockTableRecord
  2
*D8
340
0
  0
BLOCK_RECORD
  5
D1
330
1
100
AcDbSymbolTableRecord
100
AcDbBlockTableRecord
  2
*D9
340
0
  0
BLOCK_RECORD
  5
D9
330
1
100
AcDbSymbolTableRecord
100
AcDbBlockTableRecord
  2
*D10
340
0
  0
BLOCK_RECORD
  5
E3
330
1
100
AcDbSymbolTableRecord
100
AcDbBlockTableRecord
  2
*D11
340
0
  0
BLOCK_RECORD
  5
ED
330
1
100
AcDbSymbolTableRecord
100
AcDbBlockTableRecord
  2
*D12
340
0
  0
BLOCK_RECORD
  5
F7
330
1
100
AcDbSymbolTableRecord
100
AcDbBlockTableRecord
  2
*D13
340
0
  0
BLOCK_RECORD
  5
FF
330
1
100
AcDbSymbolTableRecord
100
AcDbBlockTableRecord
  2
*D14
340
0
  0
BLOCK_RECORD
  5
107
330
1
100
AcDbSymbolTableRecord
100
AcDbBlockTableRecord
  2
*D15
340
0
  0
BLOCK_RECORD
  5
111
330
1
100
AcDbSymbolTableRecord
100
AcDbBlockTableRecord
  2
*D16
340
0
  0
BLOCK_RECORD
  5
11B
330
1
100
AcDbSymbolTableRecord
100
AcDbBlockTableRecord
  2
*D17
340
0
  0
BLOCK_RECORD
  5
125
330
1
100
AcDbSymbolTableRecord
100
AcDbBlockTableRecord
  2
*D18
340
0
  0
BLOCK_RECORD
  5
4A4
330
1
100
AcDbSymbolTableRecord
100
AcDbBlockTableRecord
  2
*D19
340
0
  0
BLOCK_RECORD
  5
4AC
330
1
100
AcDbSymbolTableRecord
100
AcDbBlockTableRecord
  2
*D20
340
0
  0
BLOCK_RECORD
  5
4B4
330
1
100
AcDbSymbolTableRecord
100
AcDbBlockTableRecord
  2
*D21
340
0
  0
BLOCK_RECORD
  5
4BE
330
1
100
AcDbSymbolTableRecord
100
AcDbBlockTableRecord
  2
*D22
340
0
  0
BLOCK_RECORD
  5
4C8
330
1
100
AcDbSymbolTableRecord
100
AcDbBlockTableRecord
  2
*D23
340
0
  0
BLOCK_RECORD
  5
4D2
330
1
100
AcDbSymbolTableRecord
100
AcDbBlockTableRecord
  2
*D24
340
0
  0
BLOCK_RECORD
  5
4DA
330
1
100
AcDbSymbolTableRecord
100
AcDbBlockTableRecord
  2
*D25
340
0
  0
BLOCK_RECORD
  5
4E4
330
1
100
AcDbSymbolTableRecord
100
AcDbBlockTableRecord
  2
*D26
340
0
  0
BLOCK_RECORD
  5
4EE
330
1
100
AcDbSymbolTableRecord
100
AcDbBlockTableRecord
  2
*D27
340
0
  0
BLOCK_RECORD
  5
4F8
330
1
100
AcDbSymbolTableRecord
100
AcDbBlockTableRecord
  2
*D28
340
0
  0
BLOCK_RECORD
  5
500
330
1
100
AcDbSymbolTableRecord
100
AcDbBlockTableRecord
  2
*D29
340
0
  0
BLOCK_RECORD
  5
508
330
1
100
AcDbSymbolTableRecord
100
AcDbBlockTableRecord
  2
*D30
340
0
  0
BLOCK_RECORD
  5
510
330
1
100
AcDbSymbolTableRecord
100
AcDbBlockTableRecord
  2
*D31
340
0
  0
BLOCK_RECORD
  5
518
330
1
100
AcDbSymbolTableRecord
100
AcDbBlockTableRecord
  2
*D32
340
0
  0
BLOCK_RECORD
  5
522
330
1
100
AcDbSymbolTableRecord
100
AcDbBlockTableRecord
  2
*D33
340
0
  0
BLOCK_RECORD
  5
52A
330
1
100
AcDbSymbolTableRecord
100
AcDbBlockTableRecord
  2
*D34
340
0
  0
BLOCK_RECORD
  5
534
330
1
100
AcDbSymbolTableRecord
100
AcDbBlockTableRecord
  2
*D35
340
0
  0
BLOCK_RECORD
  5
53E
330
1
100
AcDbSymbolTableRecord
100
AcDbBlockTableRecord
  2
*D36
340
0
  0
BLOCK_RECORD
  5
5DD
330
1
100
AcDbSymbolTableRecord
100
AcDbBlockTableRecord
  2
*D37
340
0
  0
ENDTAB
  0
ENDSEC
  0
SECTION
  2
BLOCKS
  0
BLOCK
  5
20
330
1F
100
AcDbEntity
  8
0
100
AcDbBlockBegin
  2
*Model_Space
 70
     0
 10
0.0
 20
0.0
 30
0.0
  3
*Model_Space
  1

  0
ENDBLK
  5
21
330
1F
100
AcDbEntity
  8
0
100
AcDbBlockEnd
  0
BLOCK
  5
5A
330
58
100
AcDbEntity
 67
     1
  8
0
100
AcDbBlockBegin
  2
*Paper_Space
 70
     0
 10
0.0
 20
0.0
 30
0.0
  3
*Paper_Space
  1

  0
ENDBLK
  5
5B
330
58
100
AcDbEntity
 67
     1
  8
0
100
AcDbBlockEnd
  0
BLOCK
  5
5F
330
5D
100
AcDbEntity
  8
0
100
AcDbBlockBegin
  2
*Paper_Space0
 70
     0
 10
0.0
 20
0.0
 30
0.0
  3
*Paper_Space0
  1

  0
ENDBLK
  5
60
330
5D
100
AcDbEntity
  8
0
100
AcDbBlockEnd
  0
BLOCK
  5
8A
330
89
100
AcDbEntity
  8
0
100
AcDbBlockBegin
  2
*D1
 70
     1
 10
0.0
 20
0.0
 30
0.0
  3
*D1
  1

  0
LINE
  5
8B
330
89
100
AcDbEntity
  8
DIM
 62
     0
370
    -2
100
AcDbLine
 10
237.9069246079722
 20
214.9029051849129
 30
0.0
 11
239.5319246079722
 21
214.9029051849129
 31
0.0
  0
LINE
  5
8C
330
89
100
AcDbEntity
  8
DIM
 62
     0
370
    -2
100
AcDbLine
 10
239.5319246079722
 20
214.9029051849129
 30
0.0
 11
239.8729246079721
 21
214.4029051849129
 31
0.0
  0
LINE
  5
8D
330
89
100
AcDbEntity
  8
DIM
 62
     0
370
    -2
100
AcDbLine
 10
239.8729246079721
 20
214.4029051849129
 30
0.0
 11
241.8729246079721
 21
214.4029051849129
 31
0.0
  0
MTEXT
  5
8E
330
89
100
AcDbEntity
  8
DIM
 62
     0
100
AcDbMText
 10
244.5812579413054
 20
214.4029051849129
 30
0.0
 40
1.0
 41
0.0
 71
     5
 72
     1
  1
\A1;26.500
 73
     1
 44
1.0
1001
ACAD
1000
MTEXTBEGIN
1070
    73
1070
     1
1070
    44
1040
1.0
1070
    74
1070
     0
1000
MTEXTEND
  0
POINT
  5
8F
330
89
100
AcDbEntity
  8
Defpoints
 62
     0
100
AcDbPoint
 10
237.5319246079722
 20
214.9029051849129
 30
0.0
  0
POINT
  5
90
330
89
100
AcDbEntity
  8
Defpoints
 62
     0
100
AcDbPoint
 10
241.8729246079721
 20
214.4029051849129
 30
0.0
  0
POINT
  5
91
330
89
100
AcDbEntity
  8
Defpoints
 62
     0
100
AcDbPoint
 10
222.9408999667721
 20
188.4028594351555
 30
0.0
  0
ENDBLK
  5
92
330
89
100
AcDbEntity
  8
0
100
AcDbBlockEnd
  0
BLOCK
  5
94
330
93
100
AcDbEntity
  8
0
100
AcDbBlockBegin
  2
*D2
 70
     1
 10
0.0
 20
0.0
 30
0.0
  3
*D2
  1

  0
LINE
  5
95
330
93
100
AcDbEntity
  8
DIM
 62
     0
370
    -2
100
AcDbLine
 10
222.5659246079722
 20
230.4929051849128
 30
0.0
 11
219.9409246079722
 21
230.4929051849128
 31
0.0
  0
MTEXT
  5
96
330
93
100
AcDbEntity
  8
DIM
 62
     0
100
AcDbMText
 10
217.2325912746388
 20
230.4929051849128
 30
0.0
 40
1.0
 41
0.0
 71
     5
 72
     1
  1
\A1;42.090
 73
     1
 44
1.0
1001
ACAD
1000
MTEXTBEGIN
1070
    73
1070
     1
1070
    44
1040
1.0
1070
    74
1070
     0
1000
MTEXTEND
  0
POINT
  5
97
330
93
100
AcDbEntity
  8
Defpoints
 62
     0
100
AcDbPoint
 10
222.9409246079722
 20
230.4929051849128
 30
0.0
  0
POINT
  5
98
330
93
100
AcDbEntity
  8
Defpoints
 62
     0
100
AcDbPoint
 10
219.9409246079722
 20
230.4929051849128
 30
0.0
  0
POINT
  5
99
330
93
100
AcDbEntity
  8
Defpoints
 62
     0
100
AcDbPoint
 10
222.9408999667721
 20
188.4028594351555
 30
0.0
  0
ENDBLK
  5
9A
330
93
100
AcDbEntity
  8
0
100
AcDbBlockEnd
  0
BLOCK
  5
9C
330
9B
100
AcDbEntity
  8
0
100
AcDbBlockBegin
  2
*D3
 70
     1
 10
0.0
 20
0.0
 30
0.0
  3
*D3
  1

  0
LINE
  5
9D
330
9B
100
AcDbEntity
  8
DIM
 62
     0
370
    -2
100
AcDbLine
 10
238.8729246079721
 20
188.0279051849129
 30
0.0
 11
238.8729246079721
 21
185.4029051849128
 31
0.0
  0
MTEXT
  5
9E
330
9B
100
AcDbEntity
  8
DIM
 62
     0
100
AcDbMText
 10
238.8729246079721
 20
182.6945718515795
 30
0.0
 40
1.0
 41
0.0
 71
     5
 72
     1
  1
\A1;15.932
 11
0.0000000000000001
 21
1.0
 31
0.0
 73
     1
 44
1.0
1001
ACAD
1000
MTEXTBEGIN
1070
    73
1070
     1
1070
    44
1040
1.0
1070
    74
1070
     0
1000
MTEXTEND
  0
POINT
  5
9F
330
9B
100
AcDbEntity
  8
Defpoints
 62
     0
100
AcDbPoint
 10
238.8729246079721
 20
188.4029051849129
 30
0.0
  0
POINT
  5
A0
330
9B
100
AcDbEntity
  8
Defpoints
 62
     0
100
AcDbPoint
 10
238.8729246079721
 20
185.4029051849128
 30
0.0
  0
POINT
  5
A1
330
9B
100
AcDbEntity
  8
Defpoints
 62
     0
100
AcDbPoint
 10
222.9408999667721
 20
188.4028594351555
 30
0.0
  0
ENDBLK
  5
A2
330
9B
100
AcDbEntity
  8
0
100
AcDbBlockEnd
  0
BLOCK
  5
A4
330
A3
100
AcDbEntity
  8
0
100
AcDbBlockBegin
  2
*D4
 70
     1
 10
0.0
 20
0.0
 30
0.0
  3
*D4
  1

  0
LINE
  5
A5
330
A3
100
AcDbEntity
  8
DIM
 62
     0
370
    -2
100
AcDbLine
 10
223.0944246079721
 20
226.4029051849129
 30
0.0
 11
219.9409246079722
 21
226.4029051849129
 31
0.0
  0
MTEXT
  5
A6
330
A3
100
AcDbEntity
  8
DIM
 62
     0
100
AcDbMText
 10
217.3159246079722
 20
226.4029051849129
 30
0.0
 40
1.0
 41
0.0
 71
     5
 72
     1
  1
\A1;38.000
 73
     1
 44
1.0
1001
ACAD
1000
MTEXTBEGIN
1070
    73
1070
     1
1070
    44
1040
1.0
1070
    74
1070
     0
1000
MTEXTEND
  0
POINT
  5
A7
330
A3
100
AcDbEntity
  8
Defpoints
 62
     0
100
AcDbPoint
 10
223.4694246079721
 20
226.4029051849129
 30
0.0
  0
POINT
  5
A8
330
A3
100
AcDbEntity
  8
Defpoints
 62
     0
100
AcDbPoint
 10
219.9409246079722
 20
226.4029051849129
 30
0.0
  0
POINT
  5
A9
330
A3
100
AcDbEntity
  8
Defpoints
 62
     0
100
AcDbPoint
 10
222.9408999667721
 20
188.4028594351555
 30
0.0
  0
ENDBLK
  5
AA
330
A3
100
AcDbEntity
  8
0
100
AcDbBlockEnd
  0
BLOCK
  5
AC
330
AB
100
AcDbEntity
  8
0
100
AcDbBlockBegin
  2
*D5
 70
     1
 10
0.0
 20
0.0
 30
0.0
  3
*D5
  1

  0
LINE
  5
AD
330
AB
100
AcDbEntity
  8
DIM
 62
     0
370
    -2
100
AcDbLine
 10
237.758924607972
 20
229.2814051849131
 30
0.0
 11
241.8729246079721
 21
229.2814051849131
 31
0.0
  0
MTEXT
  5
AE
330
AB
100
AcDbEntity
  8
DIM
 62
     0
100
AcDbMText
 10
244.6645912746387
 20
229.2814051849131
 30
0.0
 40
1.0
 41
0.0
 71
     5
 72
     1
  1
\A1;40.879
 73
     1
 44
1.0
1001
ACAD
1000
MTEXTBEGIN
1070
    73
1070
     1
1070
    44
1040
1.0
1070
    74
1070
     0
1000
MTEXTEND
  0
POINT
  5
AF
330
AB
100
AcDbEntity
  8
Defpoints
 62
     0
100
AcDbPoint
 10
237.3839246079721
 20
229.2814051849131
 30
0.0
  0
POINT
  5
B0
330
AB
100
AcDbEntity
  8
Defpoints
 62
     0
100
AcDbPoint
 10
241.8729246079721
 20
229.2814051849131
 30
0.0
  0
POINT
  5
B1
330
AB
100
AcDbEntity
  8
Defpoints
 62
     0
100
AcDbPoint
 10
222.9408999667721
 20
188.4028594351555
 30
0.0
  0
ENDBLK
  5
B2
330
AB
100
AcDbEntity
  8
0
100
AcDbBlockEnd
  0
BLOCK
  5
B4
330
B3
100
AcDbEntity
  8
0
100
AcDbBlockBegin
  2
*D6
 70
     1
 10
0.0
 20
0.0
 30
0.0
  3
*D6
  1

  0
LINE
  5
B5
330
B3
100
AcDbEntity
  8
DIM
 62
     0
370
    -2
100
AcDbLine
 10
224.1569246079721
 20
217.4029051849131
 30
0.0
 11
222.5319246079721
 21
217.4029051849131
 31
0.0
  0
LINE
  5
B6
330
B3
100
AcDbEntity
  8
DIM
 62
     0
370
    -2
100
AcDbLine
 10
222.5319246079721
 20
217.4029051849131
 30
0.0
 11
221.9409246079722
 21
216.4029051849131
 31
0.0
  0
LINE
  5
B7
330
B3
100
AcDbEntity
  8
DIM
 62
     0
370
    -2
100
AcDbLine
 10
221.9409246079722
 20
216.4029051849131
 30
0.0
 11
219.9409246079722
 21
216.4029051849131
 31
0.0
  0
MTEXT
  5
B8
330
B3
100
AcDbEntity
  8
DIM
 62
     0
100
AcDbMText
 10
217.3159246079722
 20
216.4029051849131
 30
0.0
 40
1.0
 41
0.0
 71
     5
 72
     1
  1
\A1;29.000
 73
     1
 44
1.0
1001
ACAD
1000
MTEXTBEGIN
1070
    73
1070
     1
1070
    44
1040
1.0
1070
    74
1070
     0
1000
MTEXTEND
  0
POINT
  5
B9
330
B3
100
AcDbEntity
  8
Defpoints
 62
     0
100
AcDbPoint
 10
224.5319246079721
 20
217.4029051849131
 30
0.0
  0
POINT
  5
BA
330
B3
100
AcDbEntity
  8
Defpoints
 62
     0
100
AcDbPoint
 10
219.9409246079722
 20
216.4029051849131
 30
0.0
  0
POINT
  5
BB
330
B3
100
AcDbEntity
  8
Defpoints
 62
     0
100
AcDbPoint
 10
222.9408999667721
 20
188.4028594351555
 30
0.0
  0
ENDBLK
  5
BC
330
B3
100
AcDbEntity
  8
0
100
AcDbBlockEnd
  0
BLOCK
  5
BE
330
BD
100
AcDbEntity
  8
0
100
AcDbBlockBegin
  2
*D7
 70
     1
 10
0.0
 20
0.0
 30
0.0
  3
*D7
  1

  0
LINE
  5
BF
330
BD
100
AcDbEntity
  8
DIM
 62
     0
370
    -2
100
AcDbLine
 10
238.656924607972
 20
218.2779051849131
 30
0.0
 11
240.281924607972
 21
218.2779051849131
 31
0.0
  0
LINE
  5
C0
330
BD
100
AcDbEntity
  8
DIM
 62
     0
370
    -2
100
AcDbLine
 10
240.281924607972
 20
218.2779051849131
 30
0.0
 11
239.8729246079721
 21
219.2779051849131
 31
0.0
  0
LINE
  5
C1
330
BD
100
AcDbEntity
  8
DIM
 62
     0
370
    -2
100
AcDbLine
 10
239.8729246079721
 20
219.2779051849131
 30
0.0
 11
241.8729246079721
 21
219.2779051849131
 31
0.0
  0
MTEXT
  5
C2
330
BD
100
AcDbEntity
  8
DIM
 62
     0
100
AcDbMText
 10
244.7479246079721
 20
219.2779051849131
 30
0.0
 40
1.0
 41
0.0
 71
     5
 72
     1
  1
\A1;29.875
 73
     1
 44
1.0
1001
ACAD
1000
MTEXTBEGIN
1070
    73
1070
     1
1070
    44
1040
1.0
1070
    74
1070
     0
1000
MTEXTEND
  0
POINT
  5
C3
330
BD
100
AcDbEntity
  8
Defpoints
 62
     0
100
AcDbPoint
 10
238.281924607972
 20
218.2779051849131
 30
0.0
  0
POINT
  5
C4
330
BD
100
AcDbEntity
  8
Defpoints
 62
     0
100
AcDbPoint
 10
241.8729246079721
 20
219.2779051849131
 30
0.0
  0
POINT
  5
C5
330
BD
100
AcDbEntity
  8
Defpoints
 62
     0
100
AcDbPoint
 10
222.9408999667721
 20
188.4028594351555
 30
0.0
  0
ENDBLK
  5
C6
330
BD
100
AcDbEntity
  8
0
100
AcDbBlockEnd
  0
BLOCK
  5
C8
330
C7
100
AcDbEntity
  8
0
100
AcDbBlockBegin
  2
*D8
 70
     1
 10
0.0
 20
0.0
 30
0.0
  3
*D8
  1

  0
LINE
  5
C9
330
C7
100
AcDbEntity
  8
DIM
 62
     0
370
    -2
100
AcDbLine
 10
238.6569246079722
 20
221.5279051849126
 30
0.0
 11
240.2819246079722
 21
221.5279051849126
 31
0.0
  0
LINE
  5
CA
330
C7
100
AcDbEntity
  8
DIM
 62
     0
370
    -2
100
AcDbLine
 10
240.2819246079722
 20
221.5279051849126
 30
0.0
 11
239.8729246079721
 21
220.5279051849127
 31
0.0
  0
LINE
  5
CB
330
C7
100
AcDbEntity
  8
DIM
 62
     0
370
    -2
100
AcDbLine
 10
239.8729246079721
 20
220.5279051849127
 30
0.0
 11
241.8729246079721
 21
220.5279051849127
 31
0.0
  0
MTEXT
  5
CC
330
C7
100
AcDbEntity
  8
DIM
 62
     0
100
AcDbMText
 10
244.5812579413054
 20
220.5279051849127
 30
0.0
 40
1.0
 41
0.0
 71
     5
 72
     1
  1
\A1;33.125
 73
     1
 44
1.0
1001
ACAD
1000
MTEXTBEGIN
1070
    73
1070
     1
1070
    44
1040
1.0
1070
    74
1070
     0
1000
MTEXTEND
  0
POINT
  5
CD
330
C7
100
AcDbEntity
  8
Defpoints
 62
     0
100
AcDbPoint
 10
238.2819246079722
 20
221.5279051849126
 30
0.0
  0
POINT
  5
CE
330
C7
100
AcDbEntity
  8
Defpoints
 62
     0
100
AcDbPoint
 10
241.8729246079721
 20
220.5279051849127
 30
0.0
  0
POINT
  5
CF
330
C7
100
AcDbEntity
  8
Defpoints
 62
     0
100
AcDbPoint
 10
222.9408999667721
 20
188.4028594351555
 30
0.0
  0
ENDBLK
  5
D0
330
C7
100
AcDbEntity
  8
0
100
AcDbBlockEnd
  0
BLOCK
  5
D2
330
D1
100
AcDbEntity
  8
0
100
AcDbBlockBegin
  2
*D9
 70
     1
 10
0.0
 20
0.0
 30
0.0
  3
*D9
  1

  0
LINE
  5
D3
330
D1
100
AcDbEntity
  8
DIM
 62
     0
370
    -2
100
AcDbLine
 10
223.5969246079721
 20
199.9028893149093
 30
0.0
 11
219.9409246079722
 21
199.9028893149093
 31
0.0
  0
MTEXT
  5
D4
330
D1
100
AcDbEntity
  8
DIM
 62
     0
100
AcDbMText
 10
217.5659246079722
 20
199.9028893149093
 30
0.0
 40
1.0
 41
0.0
 71
     5
 72
     1
  1
\A1;11.500
 73
     1
 44
1.0
1001
ACAD
1000
MTEXTBEGIN
1070
    73
1070
     1
1070
    44
1040
1.0
1070
    74
1070
     0
1000
MTEXTEND
  0
POINT
  5
D5
330
D1
100
AcDbEntity
  8
Defpoints
 62
     0
100
AcDbPoint
 10
223.9719246079721
 20
199.9028893149093
 30
0.0
  0
POINT
  5
D6
330
D1
100
AcDbEntity
  8
Defpoints
 62
     0
100
AcDbPoint
 10
219.9409246079722
 20
199.9028893149093
 30
0.0
  0
POINT
  5
D7
330
D1
100
AcDbEntity
  8
Defpoints
 62
     0
100
AcDbPoint
 10
222.9408999667721
 20
188.4028594351555
 30
0.0
  0
ENDBLK
  5
D8
330
D1
100
AcDbEntity
  8
0
100
AcDbBlockEnd
  0
BLOCK
  5
DA
330
D9
100
AcDbEntity
  8
0
100
AcDbBlockBegin
  2
*D10
 70
     1
 10
0.0
 20
0.0
 30
0.0
  3
*D10
  1

  0
LINE
  5
DB
330
D9
100
AcDbEntity
  8
DIM
 62
     0
370
    -2
100
AcDbLine
 10
237.8419246079724
 20
189.2779051849128
 30
0.0
 11
237.8419246079724
 21
187.6529051849128
 31
0.0
  0
LINE
  5
DC
330
D9
100
AcDbEntity
  8
DIM
 62
     0
370
    -2
100
AcDbLine
 10
237.8419246079724
 20
187.6529051849128
 30
0.0
 11
236.8419246079724
 21
187.4029051849128
 31
0.0
  0
LINE
  5
DD
330
D9
100
AcDbEntity
  8
DIM
 62
     0
370
    -2
100
AcDbLine
 10
236.8419246079724
 20
187.4029051849128
 30
0.0
 11
236.8419246079724
 21
185.4029051849128
 31
0.0
  0
MTEXT
  5
DE
330
D9
100
AcDbEntity
  8
DIM
 62
     0
100
AcDbMText
 10
236.8419246079723
 20
182.9445718515795
 30
0.0
 40
1.0
 41
0.0
 71
     5
 72
     1
  1
\A1;14.901
 11
0.0000000000000001
 21
1.0
 31
0.0
 73
     1
 44
1.0
1001
ACAD
1000
MTEXTBEGIN
1070
    73
1070
     1
1070
    44
1040
1.0
1070
    74
1070
     0
1000
MTEXTEND
  0
POINT
  5
DF
330
D9
100
AcDbEntity
  8
Defpoints
 62
     0
100
AcDbPoint
 10
237.8419246079724
 20
189.6529051849126
 30
0.0
  0
POINT
  5
E0
330
D9
100
AcDbEntity
  8
Defpoints
 62
     0
100
AcDbPoint
 10
236.8419246079724
 20
185.4029051849128
 30
0.0
  0
POINT
  5
E1
330
D9
100
AcDbEntity
  8
Defpoints
 62
     0
100
AcDbPoint
 10
222.9408999667721
 20
188.4028594351555
 30
0.0
  0
ENDBLK
  5
E2
330
D9
100
AcDbEntity
  8
0
100
AcDbBlockEnd
  0
BLOCK
  5
E4
330
E3
100
AcDbEntity
  8
0
100
AcDbBlockBegin
  2
*D11
 70
     1
 10
0.0
 20
0.0
 30
0.0
  3
*D11
  1

  0
LINE
  5
E5
330
E3
100
AcDbEntity
  8
DIM
 62
     0
370
    -2
100
AcDbLine
 10
223.9719246079721
 20
189.2779051849128
 30
0.0
 11
223.9719246079721
 21
187.6529051849128
 31
0.0
  0
LINE
  5
E6
330
E3
100
AcDbEntity
  8
DIM
 62
     0
370
    -2
100
AcDbLine
 10
223.9719246079721
 20
187.6529051849128
 30
0.0
 11
224.9719246079721
 21
187.4029051849128
 31
0.0
  0
LINE
  5
E7
330
E3
100
AcDbEntity
  8
DIM
 62
     0
370
    -2
100
AcDbLine
 10
224.9719246079721
 20
187.4029051849128
 30
0.0
 11
224.9719246079721
 21
185.4029051849128
 31
0.0
  0
MTEXT
  5
E8
330
E3
100
AcDbEntity
  8
DIM
 62
     0
100
AcDbMText
 10
224.9719246079721
 20
183.4445718515796
 30
0.0
 40
1.0
 41
0.0
 71
     5
 72
     1
  1
\A1;1.031
 11
0.0000000000000001
 21
1.0
 31
0.0
 73
     1
 44
1.0
1001
ACAD
1000
MTEXTBEGIN
1070
    73
1070
     1
1070
    44
1040
1.0
1070
    74
1070
     0
1000
MTEXTEND
  0
POINT
  5
E9
330
E3
100
AcDbEntity
  8
Defpoints
 62
     0
100
AcDbPoint
 10
223.9719246079721
 20
189.6529051849126
 30
0.0
  0
POINT
  5
EA
330
E3
100
AcDbEntity
  8
Defpoints
 62
     0
100
AcDbPoint
 10
224.9719246079721
 20
185.4029051849128
 30
0.0
  0
POINT
  5
EB
330
E3
100
AcDbEntity
  8
Defpoints
 62
     0
100
AcDbPoint
 10
222.9408999667721
 20
188.4028594351555
 30
0.0
  0
ENDBLK
  5
EC
330
E3
100
AcDbEntity
  8
0
100
AcDbBlockEnd
  0
BLOCK
  5
EE
330
ED
100
AcDbEntity
  8
0
100
AcDbBlockBegin
  2
*D12
 70
     1
 10
0.0
 20
0.0
 30
0.0
  3
*D12
  1

  0
LINE
  5
EF
330
ED
100
AcDbEntity
  8
DIM
 62
     0
370
    -2
100
AcDbLine
 10
223.5969246079721
 20
189.6529051849126
 30
0.0
 11
221.9719246079721
 21
189.6529051849126
 31
0.0
  0
LINE
  5
F0
330
ED
100
AcDbEntity
  8
DIM
 62
     0
370
    -2
100
AcDbLine
 10
221.9719246079721
 20
189.6529051849126
 30
0.0
 11
221.5659246079722
 21
190.6529051849128
 31
0.0
  0
LINE
  5
F1
330
ED
100
AcDbEntity
  8
DIM
 62
     0
370
    -2
100
AcDbLine
 10
221.5659246079722
 20
190.6529051849128
 30
0.0
 11
219.5659246079722
 21
190.6529051849128
 31
0.0
  0
MTEXT
  5
F2
330
ED
100
AcDbEntity
  8
DIM
 62
     0
100
AcDbMText
 10
217.4409246079722
 20
190.6529051849128
 30
0.0
 40
1.0
 41
0.0
 71
     5
 72
     1
  1
\A1;1.250
 73
     1
 44
1.0
1001
ACAD
1000
MTEXTBEGIN
1070
    73
1070
     1
1070
    44
1040
1.0
1070
    74
1070
     0
1000
MTEXTEND
  0
POINT
  5
F3
330
ED
100
AcDbEntity
  8
Defpoints
 62
     0
100
AcDbPoint
 10
223.9719246079721
 20
189.6529051849126
 30
0.0
  0
POINT
  5
F4
330
ED
100
AcDbEntity
  8
Defpoints
 62
     0
100
AcDbPoint
 10
219.5659246079722
 20
190.6529051849128
 30
0.0
  0
POINT
  5
F5
330
ED
100
AcDbEntity
  8
Defpoints
 62
     0
100
AcDbPoint
 10
222.9408999667721
 20
188.4028594351555
 30
0.0
  0
ENDBLK
  5
F6
330
ED
100
AcDbEntity
  8
0
100
AcDbBlockEnd
  0
BLOCK
  5
F8
330
F7
100
AcDbEntity
  8
0
100
AcDbBlockBegin
  2
*D13
 70
     1
 10
0.0
 20
0.0
 30
0.0
  3
*D13
  1

  0
LINE
  5
F9
330
F7
100
AcDbEntity
  8
DIM
 62
     0
370
    -2
100
AcDbLine
 10
222.9409246079722
 20
188.0279051849129
 30
0.0
 11
222.9409246079722
 21
185.4029051849128
 31
0.0
  0
MTEXT
  5
FA
330
F7
100
AcDbEntity
  8
DIM
 62
     0
100
AcDbMText
 10
222.9409246079722
 20
183.3612385182462
 30
0.0
 40
1.0
 41
0.0
 71
     5
 72
     1
  1
\A1;0.000
 11
0.0000000000000001
 21
1.0
 31
0.0
 73
     1
 44
1.0
1001
ACAD
1000
MTEXTBEGIN
1070
    73
1070
     1
1070
    44
1040
1.0
1070
    74
1070
     0
1000
MTEXTEND
  0
POINT
  5
FB
330
F7
100
AcDbEntity
  8
Defpoints
 62
     0
100
AcDbPoint
 10
222.9409246079722
 20
188.4029051849129
 30
0.0
  0
POINT
  5
FC
330
F7
100
AcDbEntity
  8
Defpoints
 62
     0
100
AcDbPoint
 10
222.9409246079722
 20
185.4029051849128
 30
0.0
  0
POINT
  5
FD
330
F7
100
AcDbEntity
  8
Defpoints
 62
     0
100
AcDbPoint
 10
222.9408999667721
 20
188.4028594351555
 30
0.0
  0
ENDBLK
  5
FE
330
F7
100
AcDbEntity
  8
0
100
AcDbBlockEnd
  0
BLOCK
  5
100
330
FF
100
AcDbEntity
  8
0
100
AcDbBlockBegin
  2
*D14
 70
     1
 10
0.0
 20
0.0
 30
0.0
  3
*D14
  1

  0
LINE
  5
101
330
FF
100
AcDbEntity
  8
DIM
 62
     0
370
    -2
100
AcDbLine
 10
222.5659246079722
 20
188.4029051849129
 30
0.0
 11
219.9409246079722
 21
188.4029051849129
 31
0.0
  0
MTEXT
  5
102
330
FF
100
AcDbEntity
  8
DIM
 62
     0
100
AcDbMText
 10
217.3575912746389
 20
188.4029051849129
 30
0.0
 40
1.25
 41
0.0
 71
     5
 72
     1
  1
\A1;0.000
 73
     1
 44
1.0
1001
ACAD
1000
MTEXTBEGIN
1070
    73
1070
     1
1070
    44
1040
1.0
1070
    74
1070
     0
1000
MTEXTEND
  0
POINT
  5
103
330
FF
100
AcDbEntity
  8
Defpoints
 62
     0
100
AcDbPoint
 10
222.9409246079722
 20
188.4029051849129
 30
0.0
  0
POINT
  5
104
330
FF
100
AcDbEntity
  8
Defpoints
 62
     0
100
AcDbPoint
 10
219.9409246079722
 20
188.4029051849129
 30
0.0
  0
POINT
  5
105
330
FF
100
AcDbEntity
  8
Defpoints
 62
     0
100
AcDbPoint
 10
222.9408999667721
 20
188.4028594351555
 30
0.0
  0
ENDBLK
  5
106
330
FF
100
AcDbEntity
  8
0
100
AcDbBlockEnd
  0
BLOCK
  5
108
330
107
100
AcDbEntity
  8
0
100
AcDbBlockBegin
  2
*D15
 70
     1
 10
0.0
 20
0.0
 30
0.0
  3
*D15
  1

  0
LINE
  5
109
330
107
100
AcDbEntity
  8
0
 62
     0
370
    -2
100
AcDbLine
 10
237.5319246079722
 20
213.0279051849129
 30
0.0
 11
237.5319246079722
 21
209.760825641363
 31
0.0
  0
LINE
  5
10A
330
107
100
AcDbEntity
  8
0
 62
     0
370
    -2
100
AcDbLine
 10
237.5319246079722
 20
209.760825641363
 30
0.0
 11
235.2071189850201
 21
207.760825641363
 31
0.0
  0
LINE
  5
10B
330
107
100
AcDbEntity
  8
0
 62
     0
370
    -2
100
AcDbLine
 10
235.2071189850201
 20
207.760825641363
 30
0.0
 11
235.2071189850201
 21
205.760825641363
 31
0.0
  0
MTEXT
  5
10C
330
107
100
AcDbEntity
  8
0
 62
     0
100
AcDbMText
 10
235.20711898502
 20
203.2191589746964
 30
0.0
 40
1.0
 41
0.0
 71
     5
 72
     1
  1
\A1;14.591
 11
0.0000000000000001
 21
1.0
 31
0.0
 73
     1
 44
1.0
1001
ACAD
1000
MTEXTBEGIN
1070
    73
1070
     1
1070
    44
1040
1.0
1070
    74
1070
     0
1000
MTEXTEND
  0
POINT
  5
10D
330
107
100
AcDbEntity
  8
Defpoints
 62
     0
100
AcDbPoint
 10
237.5319246079722
 20
213.4029051849129
 30
0.0
  0
POINT
  5
10E
330
107
100
AcDbEntity
  8
Defpoints
 62
     0
100
AcDbPoint
 10
235.2071189850201
 20
205.760825641363
 30
0.0
  0
POINT
  5
10F
330
107
100
AcDbEntity
  8
Defpoints
 62
     0
100
AcDbPoint
 10
222.9409246079722
 20
188.4029051849129
 30
0.0
  0
ENDBLK
  5
110
330
107
100
AcDbEntity
  8
0
100
AcDbBlockEnd
  0
BLOCK
  5
112
330
111
100
AcDbEntity
  8
0
100
AcDbBlockBegin
  2
*D16
 70
     1
 10
0.0
 20
0.0
 30
0.0
  3
*D16
  1

  0
LINE
  5
113
330
111
100
AcDbEntity
  8
0
 62
     0
370
    -2
100
AcDbLine
 10
237.9069246079722
 20
213.4029051849129
 30
0.0
 11
239.5319246079722
 21
213.4029051849129
 31
0.0
  0
LINE
  5
114
330
111
100
AcDbEntity
  8
0
 62
     0
370
    -2
100
AcDbLine
 10
239.5319246079722
 20
213.4029051849129
 30
0.0
 11
239.9561864154059
 21
212.9770244370394
 31
0.0
  0
LINE
  5
115
330
111
100
AcDbEntity
  8
0
 62
     0
370
    -2
100
AcDbLine
 10
239.9561864154059
 20
212.9770244370394
 30
0.0
 11
241.9561864154059
 21
212.9770244370394
 31
0.0
  0
MTEXT
  5
116
330
111
100
AcDbEntity
  8
0
 62
     0
100
AcDbMText
 10
244.5811864154059
 20
212.9770244370394
 30
0.0
 40
1.0
 41
0.0
 71
     5
 72
     1
  1
\A1;25.000
 73
     1
 44
1.0
1001
ACAD
1000
MTEXTBEGIN
1070
    73
1070
     1
1070
    44
1040
1.0
1070
    74
1070
     0
1000
MTEXTEND
  0
POINT
  5
117
330
111
100
AcDbEntity
  8
Defpoints
 62
     0
100
AcDbPoint
 10
237.5319246079722
 20
213.4029051849129
 30
0.0
  0
POINT
  5
118
330
111
100
AcDbEntity
  8
Defpoints
 62
     0
100
AcDbPoint
 10
241.9561864154059
 20
212.9770244370394
 30
0.0
  0
POINT
  5
119
330
111
100
AcDbEntity
  8
Defpoints
 62
     0
100
AcDbPoint
 10
222.9409246079722
 20
188.4029051849129
 30
0.0
  0
ENDBLK
  5
11A
330
111
100
AcDbEntity
  8
0
100
AcDbBlockEnd
  0
BLOCK
  5
11C
330
11B
100
AcDbEntity
  8
0
100
AcDbBlockBegin
  2
*D17
 70
     1
 10
0.0
 20
0.0
 30
0.0
  3
*D17
  1

  0
LINE
  5
11D
330
11B
100
AcDbEntity
  8
0
 62
     0
370
    -2
100
AcDbLine
 10
235.0319246079722
 20
215.2779051849129
 30
0.0
 11
235.0319246079722
 21
209.7177535037239
 31
0.0
  0
LINE
  5
11E
330
11B
100
AcDbEntity
  8
0
 62
     0
370
    -2
100
AcDbLine
 10
235.0319246079722
 20
209.7177535037239
 30
0.0
 11
231.9084928526586
 21
207.7177535037239
 31
0.0
  0
LINE
  5
11F
330
11B
100
AcDbEntity
  8
0
 62
     0
370
    -2
100
AcDbLine
 10
231.9084928526586
 20
207.7177535037239
 30
0.0
 11
231.9084928526586
 21
205.7177535037239
 31
0.0
  0
MTEXT
  5
120
330
11B
100
AcDbEntity
  8
0
 62
     0
100
AcDbMText
 10
231.9084928526585
 20
203.2594201703906
 30
0.0
 40
1.0
 41
0.0
 71
     5
 72
     1
  1
\A1;12.091
 11
0.0000000000000001
 21
1.0
 31
0.0
 73
     1
 44
1.0
1001
ACAD
1000
MTEXTBEGIN
1070
    73
1070
     1
1070
    44
1040
1.0
1070
    74
1070
     0
1000
MTEXTEND
  0
POINT
  5
121
330
11B
100
AcDbEntity
  8
Defpoints
 62
     0
100
AcDbPoint
 10
235.0319246079722
 20
215.6529051849129
 30
0.0
  0
POINT
  5
122
330
11B
100
AcDbEntity
  8
Defpoints
 62
     0
100
AcDbPoint
 10
231.9084928526586
 20
205.7177535037239
 30
0.0
  0
POINT
  5
123
330
11B
100
AcDbEntity
  8
Defpoints
 62
     0
100
AcDbPoint
 10
222.9408999667721
 20
188.4028594351555
 30
0.0
  0
ENDBLK
  5
124
330
11B
100
AcDbEntity
  8
0
100
AcDbBlockEnd
  0
BLOCK
  5
126
330
125
100
AcDbEntity
  8
0
100
AcDbBlockBegin
  2
*D18
 70
     1
 10
0.0
 20
0.0
 30
0.0
  3
*D18
  1

  0
LINE
  5
127
330
125
100
AcDbEntity
  8
0
 62
     0
370
    -2
100
AcDbLine
 10
234.6569246079722
 20
215.6529051849129
 30
0.0
 11
232.3346704185346
 21
215.6529051849129
 31
0.0
  0
MTEXT
  5
128
330
125
100
AcDbEntity
  8
0
 62
     0
100
AcDbMText
 10
229.543003751868
 20
215.6529051849129
 30
0.0
 40
1.0
 41
0.0
 71
     5
 72
     1
  1
\A1;27.250
 73
     1
 44
1.0
1001
ACAD
1000
MTEXTBEGIN
1070
    73
1070
     1
1070
    44
1040
1.0
1070
    74
1070
     0
1000
MTEXTEND
  0
POINT
  5
129
330
125
100
AcDbEntity
  8
Defpoints
 62
     0
100
AcDbPoint
 10
235.0319246079722
 20
215.6529051849129
 30
0.0
  0
POINT
  5
12A
330
125
100
AcDbEntity
  8
Defpoints
 62
     0
100
AcDbPoint
 10
232.3346704185346
 20
215.6529051849129
 30
0.0
  0
POINT
  5
12B
330
125
100
AcDbEntity
  8
Defpoints
 62
     0
100
AcDbPoint
 10
222.9408999667721
 20
188.4028594351555
 30
0.0
  0
ENDBLK
  5
12C
330
125
100
AcDbEntity
  8
0
100
AcDbBlockEnd
  0
BLOCK
  5
4AA
330
4A4
100
AcDbEntity
  8
0
100
AcDbBlockBegin
  2
*D19
 70
     1
 10
0.0
 20
0.0
 30
0.0
  3
*D19
  1

  0
LINE
  5
548
330
4A4
100
AcDbEntity
  8
DIM
 62
     0
370
    -2
100
AcDbLine
 10
-188.1947243344315
 20
-148.3425155631595
 30
0.0
 11
-190.8197243344315
 21
-148.3425155631595
 31
0.0
  0
MTEXT
  5
549
330
4A4
100
AcDbEntity
  8
DIM
 62
     0
100
AcDbMText
 10
-193.4030576677649
 20
-148.3425155631595
 30
0.0
 40
1.25
 41
0.0
 71
     5
 72
     1
  1
\A1;0.000
 73
     1
 44
1.0
1001
ACAD
1000
MTEXTBEGIN
1070
    73
1070
     1
1070
    44
1040
1.0
1070
    74
1070
     0
1000
MTEXTEND
  0
POINT
  5
54A
330
4A4
100
AcDbEntity
  8
Defpoints
 62
     0
100
AcDbPoint
 10
-187.8197243344315
 20
-148.3425155631595
 30
0.0
  0
POINT
  5
54B
330
4A4
100
AcDbEntity
  8
Defpoints
 62
     0
100
AcDbPoint
 10
-190.8197243344315
 20
-148.3425155631595
 30
0.0
  0
POINT
  5
54C
330
4A4
100
AcDbEntity
  8
Defpoints
 62
     0
100
AcDbPoint
 10
-187.8197489756316
 20
-148.342561312917
 30
0.0
  0
ENDBLK
  5
4AB
330
4A4
100
AcDbEntity
  8
0
100
AcDbBlockEnd
  0
BLOCK
  5
4B2
330
4AC
100
AcDbEntity
  8
0
100
AcDbBlockBegin
  2
*D20
 70
     1
 10
0.0
 20
0.0
 30
0.0
  3
*D20
  1

  0
LINE
  5
54D
330
4AC
100
AcDbEntity
  8
DIM
 62
     0
370
    -2
100
AcDbLine
 10
-187.8197243344315
 20
-148.7175155631596
 30
0.0
 11
-187.8197243344315
 21
-151.3425155631597
 31
0.0
  0
MTEXT
  5
54E
330
4AC
100
AcDbEntity
  8
DIM
 62
     0
100
AcDbMText
 10
-187.8197243344315
 20
-153.3841822298264
 30
0.0
 40
1.0
 41
0.0
 71
     5
 72
     1
  1
\A1;0.000
 11
0.0000000000000001
 21
1.0
 31
0.0
 73
     1
 44
1.0
1001
ACAD
1000
MTEXTBEGIN
1070
    73
1070
     1
1070
    44
1040
1.0
1070
    74
1070
     0
1000
MTEXTEND
  0
POINT
  5
54F
330
4AC
100
AcDbEntity
  8
Defpoints
 62
     0
100
AcDbPoint
 10
-187.8197243344315
 20
-148.3425155631595
 30
0.0
  0
POINT
  5
550
330
4AC
100
AcDbEntity
  8
Defpoints
 62
     0
100
AcDbPoint
 10
-187.8197243344315
 20
-151.3425155631597
 30
0.0
  0
POINT
  5
551
330
4AC
100
AcDbEntity
  8
Defpoints
 62
     0
100
AcDbPoint
 10
-187.8197489756316
 20
-148.342561312917
 30
0.0
  0
ENDBLK
  5
4B3
330
4AC
100
AcDbEntity
  8
0
100
AcDbBlockEnd
  0
BLOCK
  5
4BC
330
4B4
100
AcDbEntity
  8
0
100
AcDbBlockBegin
  2
*D21
 70
     1
 10
0.0
 20
0.0
 30
0.0
  3
*D21
  1

  0
LINE
  5
552
330
4B4
100
AcDbEntity
  8
DIM
 62
     0
370
    -2
100
AcDbLine
 10
-187.1637243344316
 20
-147.0925155631597
 30
0.0
 11
-188.7887243344316
 21
-147.0925155631597
 31
0.0
  0
LINE
  5
553
330
4B4
100
AcDbEntity
  8
DIM
 62
     0
370
    -2
100
AcDbLine
 10
-188.7887243344316
 20
-147.0925155631597
 30
0.0
 11
-189.1947243344315
 21
-146.0925155631597
 31
0.0
  0
LINE
  5
554
330
4B4
100
AcDbEntity
  8
DIM
 62
     0
370
    -2
100
AcDbLine
 10
-189.1947243344315
 20
-146.0925155631597
 30
0.0
 11
-191.1947243344315
 21
-146.0925155631597
 31
0.0
  0
MTEXT
  5
555
330
4B4
100
AcDbEntity
  8
DIM
 62
     0
100
AcDbMText
 10
-193.3197243344315
 20
-146.0925155631597
 30
0.0
 40
1.0
 41
0.0
 71
     5
 72
     1
  1
\A1;1.250
 73
     1
 44
1.0
1001
ACAD
1000
MTEXTBEGIN
1070
    73
1070
     1
1070
    44
1040
1.0
1070
    74
1070
     0
1000
MTEXTEND
  0
POINT
  5
556
330
4B4
100
AcDbEntity
  8
Defpoints
 62
     0
100
AcDbPoint
 10
-186.7887243344316
 20
-147.0925155631597
 30
0.0
  0
POINT
  5
557
330
4B4
100
AcDbEntity
  8
Defpoints
 62
     0
100
AcDbPoint
 10
-191.1947243344315
 20
-146.0925155631597
 30
0.0
  0
POINT
  5
558
330
4B4
100
AcDbEntity
  8
Defpoints
 62
     0
100
AcDbPoint
 10
-187.8197489756316
 20
-148.342561312917
 30
0.0
  0
ENDBLK
  5
4BD
330
4B4
100
AcDbEntity
  8
0
100
AcDbBlockEnd
  0
BLOCK
  5
4C6
330
4BE
100
AcDbEntity
  8
0
100
AcDbBlockBegin
  2
*D22
 70
     1
 10
0.0
 20
0.0
 30
0.0
  3
*D22
  1

  0
LINE
  5
559
330
4BE
100
AcDbEntity
  8
DIM
 62
     0
370
    -2
100
AcDbLine
 10
-186.7887243344316
 20
-147.4675155631597
 30
0.0
 11
-186.7887243344316
 21
-149.0925155631597
 31
0.0
  0
LINE
  5
55A
330
4BE
100
AcDbEntity
  8
DIM
 62
     0
370
    -2
100
AcDbLine
 10
-186.7887243344316
 20
-149.0925155631597
 30
0.0
 11
-185.7887243344316
 21
-149.3425155631597
 31
0.0
  0
LINE
  5
55B
330
4BE
100
AcDbEntity
  8
DIM
 62
     0
370
    -2
100
AcDbLine
 10
-185.7887243344316
 20
-149.3425155631597
 30
0.0
 11
-185.7887243344316
 21
-151.3425155631597
 31
0.0
  0
MTEXT
  5
55C
330
4BE
100
AcDbEntity
  8
DIM
 62
     0
100
AcDbMText
 10
-185.7887243344316
 20
-153.3008488964931
 30
0.0
 40
1.0
 41
0.0
 71
     5
 72
     1
  1
\A1;1.031
 11
0.0000000000000001
 21
1.0
 31
0.0
 73
     1
 44
1.0
1001
ACAD
1000
MTEXTBEGIN
1070
    73
1070
     1
1070
    44
1040
1.0
1070
    74
1070
     0
1000
MTEXTEND
  0
POINT
  5
55D
330
4BE
100
AcDbEntity
  8
Defpoints
 62
     0
100
AcDbPoint
 10
-186.7887243344316
 20
-147.0925155631597
 30
0.0
  0
POINT
  5
55E
330
4BE
100
AcDbEntity
  8
Defpoints
 62
     0
100
AcDbPoint
 10
-185.7887243344316
 20
-151.3425155631597
 30
0.0
  0
POINT
  5
55F
330
4BE
100
AcDbEntity
  8
Defpoints
 62
     0
100
AcDbPoint
 10
-187.8197489756316
 20
-148.342561312917
 30
0.0
  0
ENDBLK
  5
4C7
330
4BE
100
AcDbEntity
  8
0
100
AcDbBlockEnd
  0
BLOCK
  5
4D0
330
4C8
100
AcDbEntity
  8
0
100
AcDbBlockBegin
  2
*D23
 70
     1
 10
0.0
 20
0.0
 30
0.0
  3
*D23
  1

  0
LINE
  5
560
330
4C8
100
AcDbEntity
  8
DIM
 62
     0
370
    -2
100
AcDbLine
 10
-172.9187243344313
 20
-147.4675155631597
 30
0.0
 11
-172.9187243344313
 21
-149.0925155631597
 31
0.0
  0
LINE
  5
561
330
4C8
100
AcDbEntity
  8
DIM
 62
     0
370
    -2
100
AcDbLine
 10
-172.9187243344313
 20
-149.0925155631597
 30
0.0
 11
-173.9187243344313
 21
-149.3425155631597
 31
0.0
  0
LINE
  5
562
330
4C8
100
AcDbEntity
  8
DIM
 62
     0
370
    -2
100
AcDbLine
 10
-173.9187243344313
 20
-149.3425155631597
 30
0.0
 11
-173.9187243344313
 21
-151.3425155631597
 31
0.0
  0
MTEXT
  5
563
330
4C8
100
AcDbEntity
  8
DIM
 62
     0
100
AcDbMText
 10
-173.9187243344313
 20
-153.8008488964931
 30
0.0
 40
1.0
 41
0.0
 71
     5
 72
     1
  1
\A1;14.901
 11
0.0000000000000001
 21
1.0
 31
0.0
 73
     1
 44
1.0
1001
ACAD
1000
MTEXTBEGIN
1070
    73
1070
     1
1070
    44
1040
1.0
1070
    74
1070
     0
1000
MTEXTEND
  0
POINT
  5
564
330
4C8
100
AcDbEntity
  8
Defpoints
 62
     0
100
AcDbPoint
 10
-172.9187243344313
 20
-147.0925155631597
 30
0.0
  0
POINT
  5
565
330
4C8
100
AcDbEntity
  8
Defpoints
 62
     0
100
AcDbPoint
 10
-173.9187243344313
 20
-151.3425155631597
 30
0.0
  0
POINT
  5
566
330
4C8
100
AcDbEntity
  8
Defpoints
 62
     0
100
AcDbPoint
 10
-187.8197489756316
 20
-148.342561312917
 30
0.0
  0
ENDBLK
  5
4D1
330
4C8
100
AcDbEntity
  8
0
100
AcDbBlockEnd
  0
BLOCK
  5
4D8
330
4D2
100
AcDbEntity
  8
0
100
AcDbBlockBegin
  2
*D24
 70
     1
 10
0.0
 20
0.0
 30
0.0
  3
*D24
  1

  0
LINE
  5
567
330
4D2
100
AcDbEntity
  8
DIM
 62
     0
370
    -2
100
AcDbLine
 10
-187.1637243344316
 20
-136.8425314331632
 30
0.0
 11
-190.8197243344315
 21
-136.8425314331632
 31
0.0
  0
MTEXT
  5
568
330
4D2
100
AcDbEntity
  8
DIM
 62
     0
100
AcDbMText
 10
-193.1947243344315
 20
-136.8425314331632
 30
0.0
 40
1.0
 41
0.0
 71
     5
 72
     1
  1
\A1;11.500
 73
     1
 44
1.0
1001
ACAD
1000
MTEXTBEGIN
1070
    73
1070
     1
1070
    44
1040
1.0
1070
    74
1070
     0
1000
MTEXTEND
  0
POINT
  5
569
330
4D2
100
AcDbEntity
  8
Defpoints
 62
     0
100
AcDbPoint
 10
-186.7887243344316
 20
-136.8425314331632
 30
0.0
  0
POINT
  5
56A
330
4D2
100
AcDbEntity
  8
Defpoints
 62
     0
100
AcDbPoint
 10
-190.8197243344315
 20
-136.8425314331632
 30
0.0
  0
POINT
  5
56B
330
4D2
100
AcDbEntity
  8
Defpoints
 62
     0
100
AcDbPoint
 10
-187.8197489756316
 20
-148.342561312917
 30
0.0
  0
ENDBLK
  5
4D9
330
4D2
100
AcDbEntity
  8
0
100
AcDbBlockEnd
  0
BLOCK
  5
4E2
330
4DA
100
AcDbEntity
  8
0
100
AcDbBlockBegin
  2
*D25
 70
     1
 10
0.0
 20
0.0
 30
0.0
  3
*D25
  1

  0
LINE
  5
56C
330
4DA
100
AcDbEntity
  8
DIM
 62
     0
370
    -2
100
AcDbLine
 10
-172.1037243344315
 20
-115.2175155631598
 30
0.0
 11
-170.4787243344315
 21
-115.2175155631598
 31
0.0
  0
LINE
  5
56D
330
4DA
100
AcDbEntity
  8
DIM
 62
     0
370
    -2
100
AcDbLine
 10
-170.4787243344315
 20
-115.2175155631598
 30
0.0
 11
-170.8877243344316
 21
-116.2175155631598
 31
0.0
  0
LINE
  5
56E
330
4DA
100
AcDbEntity
  8
DIM
 62
     0
370
    -2
100
AcDbLine
 10
-170.8877243344316
 20
-116.2175155631598
 30
0.0
 11
-168.8877243344316
 21
-116.2175155631598
 31
0.0
  0
MTEXT
  5
56F
330
4DA
100
AcDbEntity
  8
DIM
 62
     0
100
AcDbMText
 10
-166.1793910010983
 20
-116.2175155631598
 30
0.0
 40
1.0
 41
0.0
 71
     5
 72
     1
  1
\A1;33.125
 73
     1
 44
1.0
1001
ACAD
1000
MTEXTBEGIN
1070
    73
1070
     1
1070
    44
1040
1.0
1070
    74
1070
     0
1000
MTEXTEND
  0
POINT
  5
570
330
4DA
100
AcDbEntity
  8
Defpoints
 62
     0
100
AcDbPoint
 10
-172.4787243344315
 20
-115.2175155631598
 30
0.0
  0
POINT
  5
571
330
4DA
100
AcDbEntity
  8
Defpoints
 62
     0
100
AcDbPoint
 10
-168.8877243344316
 20
-116.2175155631598
 30
0.0
  0
POINT
  5
572
330
4DA
100
AcDbEntity
  8
Defpoints
 62
     0
100
AcDbPoint
 10
-187.8197489756316
 20
-148.342561312917
 30
0.0
  0
ENDBLK
  5
4E3
330
4DA
100
AcDbEntity
  8
0
100
AcDbBlockEnd
  0
BLOCK
  5
4EC
330
4E4
100
AcDbEntity
  8
0
100
AcDbBlockBegin
  2
*D26
 70
     1
 10
0.0
 20
0.0
 30
0.0
  3
*D26
  1

  0
LINE
  5
573
330
4E4
100
AcDbEntity
  8
DIM
 62
     0
370
    -2
100
AcDbLine
 10
-172.1037243344317
 20
-118.4675155631594
 30
0.0
 11
-170.4787243344317
 21
-118.4675155631594
 31
0.0
  0
LINE
  5
574
330
4E4
100
AcDbEntity
  8
DIM
 62
     0
370
    -2
100
AcDbLine
 10
-170.4787243344317
 20
-118.4675155631594
 30
0.0
 11
-170.8877243344316
 21
-117.4675155631594
 31
0.0
  0
LINE
  5
575
330
4E4
100
AcDbEntity
  8
DIM
 62
     0
370
    -2
100
AcDbLine
 10
-170.8877243344316
 20
-117.4675155631594
 30
0.0
 11
-168.8877243344316
 21
-117.4675155631594
 31
0.0
  0
MTEXT
  5
576
330
4E4
100
AcDbEntity
  8
DIM
 62
     0
100
AcDbMText
 10
-166.0127243344316
 20
-117.4675155631594
 30
0.0
 40
1.0
 41
0.0
 71
     5
 72
     1
  1
\A1;29.875
 73
     1
 44
1.0
1001
ACAD
1000
MTEXTBEGIN
1070
    73
1070
     1
1070
    44
1040
1.0
1070
    74
1070
     0
1000
MTEXTEND
  0
POINT
  5
577
330
4E4
100
AcDbEntity
  8
Defpoints
 62
     0
100
AcDbPoint
 10
-172.4787243344317
 20
-118.4675155631594
 30
0.0
  0
POINT
  5
578
330
4E4
100
AcDbEntity
  8
Defpoints
 62
     0
100
AcDbPoint
 10
-168.8877243344316
 20
-117.4675155631594
 30
0.0
  0
POINT
  5
579
330
4E4
100
AcDbEntity
  8
Defpoints
 62
     0
100
AcDbPoint
 10
-187.8197489756316
 20
-148.342561312917
 30
0.0
  0
ENDBLK
  5
4ED
330
4E4
100
AcDbEntity
  8
0
100
AcDbBlockEnd
  0
BLOCK
  5
4F6
330
4EE
100
AcDbEntity
  8
0
100
AcDbBlockBegin
  2
*D27
 70
     1
 10
0.0
 20
0.0
 30
0.0
  3
*D27
  1

  0
LINE
  5
57A
330
4EE
100
AcDbEntity
  8
DIM
 62
     0
370
    -2
100
AcDbLine
 10
-186.6037243344316
 20
-119.3425155631594
 30
0.0
 11
-188.2287243344316
 21
-119.3425155631594
 31
0.0
  0
LINE
  5
57B
330
4EE
100
AcDbEntity
  8
DIM
 62
     0
370
    -2
100
AcDbLine
 10
-188.2287243344316
 20
-119.3425155631594
 30
0.0
 11
-188.8197243344315
 21
-120.3425155631594
 31
0.0
  0
LINE
  5
57C
330
4EE
100
AcDbEntity
  8
DIM
 62
     0
370
    -2
100
AcDbLine
 10
-188.8197243344315
 20
-120.3425155631594
 30
0.0
 11
-190.8197243344315
 21
-120.3425155631594
 31
0.0
  0
MTEXT
  5
57D
330
4EE
100
AcDbEntity
  8
DIM
 62
     0
100
AcDbMText
 10
-193.4447243344315
 20
-120.3425155631594
 30
0.0
 40
1.0
 41
0.0
 71
     5
 72
     1
  1
\A1;29.000
 73
     1
 44
1.0
1001
ACAD
1000
MTEXTBEGIN
1070
    73
1070
     1
1070
    44
1040
1.0
1070
    74
1070
     0
1000
MTEXTEND
  0
POINT
  5
57E
330
4EE
100
AcDbEntity
  8
Defpoints
 62
     0
100
AcDbPoint
 10
-186.2287243344316
 20
-119.3425155631594
 30
0.0
  0
POINT
  5
57F
330
4EE
100
AcDbEntity
  8
Defpoints
 62
     0
100
AcDbPoint
 10
-190.8197243344315
 20
-120.3425155631594
 30
0.0
  0
POINT
  5
580
330
4EE
100
AcDbEntity
  8
Defpoints
 62
     0
100
AcDbPoint
 10
-187.8197489756316
 20
-148.342561312917
 30
0.0
  0
ENDBLK
  5
4F7
330
4EE
100
AcDbEntity
  8
0
100
AcDbBlockEnd
  0
BLOCK
  5
4FE
330
4F8
100
AcDbEntity
  8
0
100
AcDbBlockBegin
  2
*D28
 70
     1
 10
0.0
 20
0.0
 30
0.0
  3
*D28
  1

  0
LINE
  5
581
330
4F8
100
AcDbEntity
  8
DIM
 62
     0
370
    -2
100
AcDbLine
 10
-173.0017243344316
 20
-107.4640155631594
 30
0.0
 11
-168.8877243344316
 21
-107.4640155631594
 31
0.0
  0
MTEXT
  5
582
330
4F8
100
AcDbEntity
  8
DIM
 62
     0
100
AcDbMText
 10
-166.096057667765
 20
-107.4640155631594
 30
0.0
 40
1.0
 41
0.0
 71
     5
 72
     1
  1
\A1;40.879
 73
     1
 44
1.0
1001
ACAD
1000
MTEXTBEGIN
1070
    73
1070
     1
1070
    44
1040
1.0
1070
    74
1070
     0
1000
MTEXTEND
  0
POINT
  5
583
330
4F8
100
AcDbEntity
  8
Defpoints
 62
     0
100
AcDbPoint
 10
-173.3767243344316
 20
-107.4640155631594
 30
0.0
  0
POINT
  5
584
330
4F8
100
AcDbEntity
  8
Defpoints
 62
     0
100
AcDbPoint
 10
-168.8877243344316
 20
-107.4640155631594
 30
0.0
  0
POINT
  5
585
330
4F8
100
AcDbEntity
  8
Defpoints
 62
     0
100
AcDbPoint
 10
-187.8197489756316
 20
-148.342561312917
 30
0.0
  0
ENDBLK
  5
4FF
330
4F8
100
AcDbEntity
  8
0
100
AcDbBlockEnd
  0
BLOCK
  5
506
330
500
100
AcDbEntity
  8
0
100
AcDbBlockBegin
  2
*D29
 70
     1
 10
0.0
 20
0.0
 30
0.0
  3
*D29
  1

  0
LINE
  5
586
330
500
100
AcDbEntity
  8
DIM
 62
     0
370
    -2
100
AcDbLine
 10
-187.6662243344316
 20
-110.3425155631595
 30
0.0
 11
-190.8197243344315
 21
-110.3425155631595
 31
0.0
  0
MTEXT
  5
587
330
500
100
AcDbEntity
  8
DIM
 62
     0
100
AcDbMText
 10
-193.4447243344315
 20
-110.3425155631595
 30
0.0
 40
1.0
 41
0.0
 71
     5
 72
     1
  1
\A1;38.000
 73
     1
 44
1.0
1001
ACAD
1000
MTEXTBEGIN
1070
    73
1070
     1
1070
    44
1040
1.0
1070
    74
1070
     0
1000
MTEXTEND
  0
POINT
  5
588
330
500
100
AcDbEntity
  8
Defpoints
 62
     0
100
AcDbPoint
 10
-187.2912243344316
 20
-110.3425155631595
 30
0.0
  0
POINT
  5
589
330
500
100
AcDbEntity
  8
Defpoints
 62
     0
100
AcDbPoint
 10
-190.8197243344315
 20
-110.3425155631595
 30
0.0
  0
POINT
  5
58A
330
500
100
AcDbEntity
  8
Defpoints
 62
     0
100
AcDbPoint
 10
-187.8197489756316
 20
-148.342561312917
 30
0.0
  0
ENDBLK
  5
507
330
500
100
AcDbEntity
  8
0
100
AcDbBlockEnd
  0
BLOCK
  5
50E
330
508
100
AcDbEntity
  8
0
100
AcDbBlockBegin
  2
*D30
 70
     1
 10
0.0
 20
0.0
 30
0.0
  3
*D30
  1

  0
LINE
  5
58B
330
508
100
AcDbEntity
  8
DIM
 62
     0
370
    -2
100
AcDbLine
 10
-171.8877243344316
 20
-148.7175155631596
 30
0.0
 11
-171.8877243344316
 21
-151.3425155631597
 31
0.0
  0
MTEXT
  5
58C
330
508
100
AcDbEntity
  8
DIM
 62
     0
100
AcDbMText
 10
-171.8877243344316
 20
-154.050848896493
 30
0.0
 40
1.0
 41
0.0
 71
     5
 72
     1
  1
\A1;15.932
 11
0.0000000000000001
 21
1.0
 31
0.0
 73
     1
 44
1.0
1001
ACAD
1000
MTEXTBEGIN
1070
    73
1070
     1
1070
    44
1040
1.0
1070
    74
1070
     0
1000
MTEXTEND
  0
POINT
  5
58D
330
508
100
AcDbEntity
  8
Defpoints
 62
     0
100
AcDbPoint
 10
-171.8877243344316
 20
-148.3425155631595
 30
0.0
  0
POINT
  5
58E
330
508
100
AcDbEntity
  8
Defpoints
 62
     0
100
AcDbPoint
 10
-171.8877243344316
 20
-151.3425155631597
 30
0.0
  0
POINT
  5
58F
330
508
100
AcDbEntity
  8
Defpoints
 62
     0
100
AcDbPoint
 10
-187.8197489756316
 20
-148.342561312917
 30
0.0
  0
ENDBLK
  5
50F
330
508
100
AcDbEntity
  8
0
100
AcDbBlockEnd
  0
BLOCK
  5
516
330
510
100
AcDbEntity
  8
0
100
AcDbBlockBegin
  2
*D31
 70
     1
 10
0.0
 20
0.0
 30
0.0
  3
*D31
  1

  0
LINE
  5
590
330
510
100
AcDbEntity
  8
DIM
 62
     0
370
    -2
100
AcDbLine
 10
-188.1947243344315
 20
-106.2525155631597
 30
0.0
 11
-190.8197243344315
 21
-106.2525155631597
 31
0.0
  0
MTEXT
  5
591
330
510
100
AcDbEntity
  8
DIM
 62
     0
100
AcDbMText
 10
-193.5280576677649
 20
-106.2525155631597
 30
0.0
 40
1.0
 41
0.0
 71
     5
 72
     1
  1
\A1;42.090
 73
     1
 44
1.0
1001
ACAD
1000
MTEXTBEGIN
1070
    73
1070
     1
1070
    44
1040
1.0
1070
    74
1070
     0
1000
MTEXTEND
  0
POINT
  5
592
330
510
100
AcDbEntity
  8
Defpoints
 62
     0
100
AcDbPoint
 10
-187.8197243344315
 20
-106.2525155631597
 30
0.0
  0
POINT
  5
593
330
510
100
AcDbEntity
  8
Defpoints
 62
     0
100
AcDbPoint
 10
-190.8197243344315
 20
-106.2525155631597
 30
0.0
  0
POINT
  5
594
330
510
100
AcDbEntity
  8
Defpoints
 62
     0
100
AcDbPoint
 10
-187.8197489756316
 20
-148.342561312917
 30
0.0
  0
ENDBLK
  5
517
330
510
100
AcDbEntity
  8
0
100
AcDbBlockEnd
  0
BLOCK
  5
520
330
518
100
AcDbEntity
  8
0
100
AcDbBlockBegin
  2
*D32
 70
     1
 10
0.0
 20
0.0
 30
0.0
  3
*D32
  1

  0
LINE
  5
595
330
518
100
AcDbEntity
  8
DIM
 62
     0
370
    -2
100
AcDbLine
 10
-172.8537243344315
 20
-121.8425155631595
 30
0.0
 11
-171.2287243344315
 21
-121.8425155631595
 31
0.0
  0
LINE
  5
596
330
518
100
AcDbEntity
  8
DIM
 62
     0
370
    -2
100
AcDbLine
 10
-171.2287243344315
 20
-121.8425155631595
 30
0.0
 11
-170.8877243344316
 21
-122.3425155631595
 31
0.0
  0
LINE
  5
597
330
518
100
AcDbEntity
  8
DIM
 62
     0
370
    -2
100
AcDbLine
 10
-170.8877243344316
 20
-122.3425155631595
 30
0.0
 11
-168.8877243344316
 21
-122.3425155631595
 31
0.0
  0
MTEXT
  5
598
330
518
100
AcDbEntity
  8
DIM
 62
     0
100
AcDbMText
 10
-166.1793910010983
 20
-122.3425155631595
 30
0.0
 40
1.0
 41
0.0
 71
     5
 72
     1
  1
\A1;26.500
 73
     1
 44
1.0
1001
ACAD
1000
MTEXTBEGIN
1070
    73
1070
     1
1070
    44
1040
1.0
1070
    74
1070
     0
1000
MTEXTEND
  0
POINT
  5
599
330
518
100
AcDbEntity
  8
Defpoints
 62
     0
100
AcDbPoint
 10
-173.2287243344315
 20
-121.8425155631595
 30
0.0
  0
POINT
  5
59A
330
518
100
AcDbEntity
  8
Defpoints
 62
     0
100
AcDbPoint
 10
-168.8877243344316
 20
-122.3425155631595
 30
0.0
  0
POINT
  5
59B
330
518
100
AcDbEntity
  8
Defpoints
 62
     0
100
AcDbPoint
 10
-187.8197489756316
 20
-148.342561312917
 30
0.0
  0
ENDBLK
  5
521
330
518
100
AcDbEntity
  8
0
100
AcDbBlockEnd
  0
BLOCK
  5
528
330
522
100
AcDbEntity
  8
0
100
AcDbBlockBegin
  2
*D33
 70
     1
 10
0.0
 20
0.0
 30
0.0
  3
*D33
  1

  0
LINE
  5
59C
330
522
100
AcDbEntity
  8
0
 62
     0
370
    -2
100
AcDbLine
 10
-176.1037243344315
 20
-121.0925155631595
 30
0.0
 11
-178.4259785238691
 21
-121.0925155631595
 31
0.0
  0
MTEXT
  5
59D
330
522
100
AcDbEntity
  8
0
 62
     0
100
AcDbMText
 10
-180.9326451905358
 20
-121.0925155631595
 30
0.0
 40
1.0
 41
0.0
 71
     5
 72
     1
  1
\A1;27.250
 73
     1
 44
1.0
1001
ACAD
1000
MTEXTBEGIN
1070
    73
1070
     1
1070
    44
1040
1.0
1070
    74
1070
     0
1000
MTEXTEND
  0
POINT
  5
59E
330
522
100
AcDbEntity
  8
Defpoints
 62
     0
100
AcDbPoint
 10
-175.7287243344315
 20
-121.0925155631595
 30
0.0
  0
POINT
  5
59F
330
522
100
AcDbEntity
  8
Defpoints
 62
     0
100
AcDbPoint
 10
-178.4259785238691
 20
-121.0925155631595
 30
0.0
  0
POINT
  5
5A0
330
522
100
AcDbEntity
  8
Defpoints
 62
     0
100
AcDbPoint
 10
-187.8197489756316
 20
-148.342561312917
 30
0.0
  0
ENDBLK
  5
529
330
522
100
AcDbEntity
  8
0
100
AcDbBlockEnd
  0
BLOCK
  5
532
330
52A
100
AcDbEntity
  8
0
100
AcDbBlockBegin
  2
*D34
 70
     1
 10
0.0
 20
0.0
 30
0.0
  3
*D34
  1

  0
LINE
  5
5A1
330
52A
100
AcDbEntity
  8
0
 62
     0
370
    -2
100
AcDbLine
 10
-175.7287243344315
 20
-121.4675155631596
 30
0.0
 11
-175.7287243344315
 21
-127.0276672443485
 31
0.0
  0
LINE
  5
5A2
330
52A
100
AcDbEntity
  8
0
 62
     0
370
    -2
100
AcDbLine
 10
-175.7287243344315
 20
-127.0276672443485
 30
0.0
 11
-178.8521560897451
 21
-129.0276672443485
 31
0.0
  0
LINE
  5
5A3
330
52A
100
AcDbEntity
  8
0
 62
     0
370
    -2
100
AcDbLine
 10
-178.8521560897451
 20
-129.0276672443485
 30
0.0
 11
-178.8521560897451
 21
-131.0276672443486
 31
0.0
  0
MTEXT
  5
5A4
330
52A
100
AcDbEntity
  8
0
 62
     0
100
AcDbMText
 10
-178.8521560897451
 20
-133.2010005776819
 30
0.0
 40
1.0
 41
0.0
 71
     5
 72
     1
  1
\A1;12.091
 11
0.0000000000000001
 21
1.0
 31
0.0
 73
     1
 44
1.0
1001
ACAD
1000
MTEXTBEGIN
1070
    73
1070
     1
1070
    44
1040
1.0
1070
    74
1070
     0
1000
MTEXTEND
  0
POINT
  5
5A5
330
52A
100
AcDbEntity
  8
Defpoints
 62
     0
100
AcDbPoint
 10
-175.7287243344315
 20
-121.0925155631595
 30
0.0
  0
POINT
  5
5A6
330
52A
100
AcDbEntity
  8
Defpoints
 62
     0
100
AcDbPoint
 10
-178.8521560897451
 20
-131.0276672443486
 30
0.0
  0
POINT
  5
5A7
330
52A
100
AcDbEntity
  8
Defpoints
 62
     0
100
AcDbPoint
 10
-187.8197489756316
 20
-148.342561312917
 30
0.0
  0
ENDBLK
  5
533
330
52A
100
AcDbEntity
  8
0
100
AcDbBlockEnd
  0
BLOCK
  5
53C
330
534
100
AcDbEntity
  8
0
100
AcDbBlockBegin
  2
*D35
 70
     1
 10
0.0
 20
0.0
 30
0.0
  3
*D35
  1

  0
LINE
  5
5A8
330
534
100
AcDbEntity
  8
0
 62
     0
370
    -2
100
AcDbLine
 10
-172.8537243344315
 20
-123.3425155631595
 30
0.0
 11
-171.2287243344315
 21
-123.3425155631595
 31
0.0
  0
LINE
  5
5A9
330
534
100
AcDbEntity
  8
0
 62
     0
370
    -2
100
AcDbLine
 10
-171.2287243344315
 20
-123.3425155631595
 30
0.0
 11
-170.8044625269978
 21
-123.7683963110331
 31
0.0
  0
LINE
  5
5AA
330
534
100
AcDbEntity
  8
0
 62
     0
370
    -2
100
AcDbLine
 10
-170.8044625269978
 20
-123.7683963110331
 30
0.0
 11
-168.8044625269978
 21
-123.7683963110331
 31
0.0
  0
MTEXT
  5
5AB
330
534
100
AcDbEntity
  8
0
 62
     0
100
AcDbMText
 10
-166.4644625269978
 20
-123.7683963110331
 30
0.0
 40
1.0
 41
0.0
 71
     5
 72
     1
  1
\A1;25.000
 73
     1
 44
1.0
1001
ACAD
1000
MTEXTBEGIN
1070
    73
1070
     1
1070
    44
1040
1.0
1070
    74
1070
     0
1000
MTEXTEND
  0
POINT
  5
5AC
330
534
100
AcDbEntity
  8
Defpoints
 62
     0
100
AcDbPoint
 10
-173.2287243344315
 20
-123.3425155631595
 30
0.0
  0
POINT
  5
5AD
330
534
100
AcDbEntity
  8
Defpoints
 62
     0
100
AcDbPoint
 10
-168.8044625269978
 20
-123.7683963110331
 30
0.0
  0
POINT
  5
5AE
330
534
100
AcDbEntity
  8
Defpoints
 62
     0
100
AcDbPoint
 10
-187.8197243344315
 20
-148.3425155631595
 30
0.0
  0
ENDBLK
  5
53D
330
534
100
AcDbEntity
  8
0
100
AcDbBlockEnd
  0
BLOCK
  5
546
330
53E
100
AcDbEntity
  8
0
100
AcDbBlockBegin
  2
*D36
 70
     1
 10
0.0
 20
0.0
 30
0.0
  3
*D36
  1

  0
LINE
  5
5AF
330
53E
100
AcDbEntity
  8
0
 62
     0
370
    -2
100
AcDbLine
 10
-173.2287243344315
 20
-123.7175155631595
 30
0.0
 11
-173.2287243344315
 21
-126.9845951067094
 31
0.0
  0
LINE
  5
5B0
330
53E
100
AcDbEntity
  8
0
 62
     0
370
    -2
100
AcDbLine
 10
-173.2287243344315
 20
-126.9845951067094
 30
0.0
 11
-175.5535299573836
 21
-128.9845951067095
 31
0.0
  0
LINE
  5
5B1
330
53E
100
AcDbEntity
  8
0
 62
     0
370
    -2
100
AcDbLine
 10
-175.5535299573836
 20
-128.9845951067095
 30
0.0
 11
-175.5535299573836
 21
-130.9845951067095
 31
0.0
  0
MTEXT
  5
5B2
330
53E
100
AcDbEntity
  8
0
 62
     0
100
AcDbMText
 10
-175.5535299573836
 20
-133.2412617733762
 30
0.0
 40
1.0
 41
0.0
 71
     5
 72
     1
  1
\A1;14.591
 11
0.0000000000000001
 21
1.0
 31
0.0
 73
     1
 44
1.0
1001
ACAD
1000
MTEXTBEGIN
1070
    73
1070
     1
1070
    44
1040
1.0
1070
    74
1070
     0
1000
MTEXTEND
  0
POINT
  5
5B3
330
53E
100
AcDbEntity
  8
Defpoints
 62
     0
100
AcDbPoint
 10
-173.2287243344315
 20
-123.3425155631595
 30
0.0
  0
POINT
  5
5B4
330
53E
100
AcDbEntity
  8
Defpoints
 62
     0
100
AcDbPoint
 10
-175.5535299573836
 20
-130.9845951067095
 30
0.0
  0
POINT
  5
5B5
330
53E
100
AcDbEntity
  8
Defpoints
 62
     0
100
AcDbPoint
 10
-187.8197243344315
 20
-148.3425155631595
 30
0.0
  0
ENDBLK
  5
547
330
53E
100
AcDbEntity
  8
0
100
AcDbBlockEnd
  0
BLOCK
  5
5E6
330
5DD
100
AcDbEntity
  8
0
100
AcDbBlockBegin
  2
*D37
 70
     1
 10
0.0
 20
0.0
 30
0.0
  3
*D37
  1

  0
LINE
  5
5E9
330
5DD
100
AcDbEntity
  8
0
 62
     0
370
    -2
100
AcDbLine
 10
-189.7826125818232
 20
-130.602825977418
 30
0.0
 11
-188.7826125818232
 21
-130.602825977418
 31
0.0
  0
LINE
  5
5EA
330
5DD
100
AcDbEntity
  8
0
 62
     0
370
    -2
100
AcDbLine
 10
-188.7826125818232
 20
-130.602825977418
 30
0.0
 11
-177.0421268177648
 21
-122.0493848942459
 31
0.0
  0
MTEXT
  5
5EB
330
5DD
100
AcDbEntity
  8
0
 62
     0
100
AcDbMText
 10
-199.2059459151565
 20
-126.7694926440847
 30
0.0
 40
1.0
 41
0.0
 71
     1
 72
     1
  1
\A1;\U+22051.250 (1)\POPTIONAL:\PETHERNET \PCONNECTION \PPORT
 73
     1
 44
1.0
1001
ACAD
1000
MTEXTBEGIN
1070
    73
1070
     1
1070
    44
1040
1.0
1070
    74
1070
     0
1000
MTEXTEND
  0
SOLID
  5
5EC
330
5DD
100
AcDbEntity
  8
0
 62
     0
100
AcDbTrace
 10
-177.1402672619789
 20
-121.9146769472373
 30
0.0
 11
-176.9439863735509
 21
-122.1840928412544
 31
0.0
 12
-176.2338791357136
 22
-121.460542228962
 32
0.0
 13
-176.2338791357136
 23
-121.460542228962
 33
0.0
  0
LINE
  5
5ED
330
5DD
100
AcDbEntity
  8
0
 62
     0
370
    -2
100
AcDbLine
 10
-175.8187243344314
 20
-121.0925155631595
 30
0.0
 11
-175.6387243344315
 21
-121.0925155631595
 31
0.0
  0
LINE
  5
5EE
330
5DD
100
AcDbEntity
  8
0
 62
     0
370
    -2
100
AcDbLine
 10
-175.7287243344315
 20
-121.1825155631595
 30
0.0
 11
-175.7287243344315
 21
-121.0025155631595
 31
0.0
  0
POINT
  5
5EF
330
5DD
100
AcDbEntity
  8
Defpoints
 62
     0
100
AcDbPoint
 10
-176.2338791357136
 20
-121.460542228962
 30
0.0
  0
POINT
  5
5F0
330
5DD
100
AcDbEntity
  8
Defpoints
 62
     0
100
AcDbPoint
 10
-175.2235695331494
 20
-120.724488897357
 30
0.0
  0
ENDBLK
  5
5E7
330
5DD
100
AcDbEntity
  8
0
100
AcDbBlockEnd
  0
ENDSEC
  0
SECTION
  2
ENTITIES
  0
TEXT
  5
2F0
330
1F
100
AcDbEntity
  8
TEXT
100
AcDbText
 10
-156.1847002879342
 20
-171.8881430106939
 30
0.0
 40
0.9375
  1
IQ8000V16-5/6000V16HA
 41
0.6486417432567063
 72
     5
 11
-144.4280686914064
 21
-171.8881430106939
 31
0.0
100
AcDbText
  0
LINE
  5
2F1
330
1F
100
AcDbEntity
  8
DIMENSION
100
AcDbLine
 10
-162.9423268882773
 20
-171.2383188427403
 30
0.0
 11
-162.9423268882773
 21
-174.1325552363147
 31
0.0
  0
LINE
  5
2F2
330
1F
100
AcDbEntity
  8
BORDER
100
AcDbLine
 10
-156.3854213340356
 20
-174.1325552363148
 30
0.0
 11
-156.3854213340356
 21
-167.9598660656195
 31
0.0
  0
LINE
  5
2F3
330
1F
100
AcDbEntity
  8
BORDER
100
AcDbLine
 10
-162.9423268882773
 20
-172.1750196362034
 30
0.0
 11
-156.3854213340356
 21
-172.1750196362034
 31
0.0
  0
LINE
  5
2F4
330
1F
100
AcDbEntity
  8
BORDER
100
AcDbLine
 10
-162.9423268882773
 20
-171.2383188427403
 30
0.0
 11
-156.3854213340356
 21
-171.2383188427403
 31
0.0
  0
TEXT
  5
2F5
330
1F
100
AcDbEntity
  8
TEXT
100
AcDbText
 10
-158.6194527264452
 20
-172.0916532655853
 30
0.0
 40
0.3512627975486629
  1
NONE
 72
     1
 11
-157.9754709309393
 21
-171.916021866811
 31
0.0
100
AcDbText
 73
     2
  0
TEXT
  5
2F6
330
1F
100
AcDbEntity
  8
TEXT
100
AcDbText
 10
-159.4296989127908
 20
-171.5895816402889
 30
0.0
 40
0.2341751983657752
  1
SCALE
100
AcDbText
  0
TEXT
  5
2F7
330
1F
100
AcDbEntity
  8
TEXT
100
AcDbText
 10
-162.8065052732251
 20
-171.5895816402889
 30
0.0
 40
0.2341751983657752
  1
DRAWN
100
AcDbText
  0
TEXT
  5
2F8
330
1F
100
AcDbEntity
  8
TEXT
100
AcDbText
 10
-161.8206276881052
 20
-172.0916532655853
 30
0.0
 40
0.3512627975486629
  1
JJH
 72
     1
 11
-161.3522772913737
 21
-171.916021866811
 31
0.0
100
AcDbText
 73
     2
  0
TEXT
  5
2F9
330
1F
100
AcDbEntity
  8
TEXT
100
AcDbText
 10
-162.7081516899115
 20
-172.526282433752
 30
0.0
 40
0.2341751983657752
  1
DATE
100
AcDbText
  0
TEXT
  5
2FA
330
1F
100
AcDbEntity
  8
TEXT
100
AcDbText
 10
-161.1079545010787
 20
-172.8699991147089
 30
0.0
 40
0.4683503967315506
  1
9-21-09
 72
     1
 11
-159.6638741111564
 21
-172.6358239163432
 31
0.0
100
AcDbText
 73
     2
  0
LINE
  5
2FB
330
1F
100
AcDbEntity
  8
BORDER
100
AcDbLine
 10
-162.9423268882773
 20
-173.1117204296665
 30
0.0
 11
-156.3854213340356
 21
-173.1117204296665
 31
0.0
  0
LINE
  5
2FC
330
1F
100
AcDbEntity
  8
BORDER
100
AcDbLine
 10
-146.8284464387872
 20
-172.1750196362034
 30
0.0
 11
-146.8284464387872
 21
-174.1325552363147
 31
0.0
  0
LINE
  5
2FD
330
1F
100
AcDbEntity
  8
BORDER
100
AcDbLine
 10
-156.3854213340356
 20
-172.1750196362034
 30
0.0
 11
-144.2603843679435
 21
-172.1750196362034
 31
0.0
  0
TEXT
  5
2FE
330
1F
100
AcDbEntity
  8
TEXT
100
AcDbText
 10
-154.9634450629874
 20
-173.7977692317648
 30
0.0
 40
0.9367007934631004
  1
IQ290928
 72
     1
 11
-151.6069338864113
 21
-173.3294188350333
 31
0.0
100
AcDbText
 73
     2
  0
TEXT
  5
2FF
330
1F
100
AcDbEntity
  8
TEXT
100
AcDbText
 10
-145.7005322022758
 20
-173.7977692317648
 30
0.0
 40
0.9367007934631004
  1
1
 72
     1
 11
-145.5444154033653
 21
-173.3294188350333
 31
0.0
100
AcDbText
 73
     2
  0
TEXT
  5
300
330
1F
100
AcDbEntity
  8
TEXT
100
AcDbText
 10
-162.2157444613802
 20
-173.8525676592389
 30
0.0
 40
0.4683503967315506
  1
SHEET 1 OF 1
 72
     1
 11
-159.6398172793567
 21
-173.6183924608732
 31
0.0
100
AcDbText
 73
     2
  0
ARC
  5
301
330
1F
100
AcDbEntity
  8
TEXT
100
AcDbCircle
 10
-154.4629315086174
 20
-170.2501084798602
 30
0.0
 40
0.0288909140861978
100
AcDbArc
 50
177.2189023070876
 51
10.53261226457849
  0
ARC
  5
302
330
1F
100
AcDbEntity
  8
TEXT
100
AcDbCircle
 10
-154.5123174858526
 20
-169.9579889575797
 30
0.0
 40
0.0356536083038276
100
AcDbArc
 50
218.2556843178653
 51
317.6564247238852
  0
ARC
  5
303
330
1F
100
AcDbEntity
  8
TEXT
100
AcDbCircle
 10
-154.466715900899
 20
-169.9960951042444
 30
0.0
 40
0.0238555315947626
100
AcDbArc
 50
48.87596376793665
 51
143.7953529790059
  0
ARC
  5
304
330
1F
100
AcDbEntity
  8
TEXT
100
AcDbCircle
 10
-154.433318953233
 20
-169.9737324327156
 30
0.0
 40
0.0182440652522025
100
AcDbArc
 50
193.9319034609773
 51
333.0378283509288
  0
ARC
  5
305
330
1F
100
AcDbEntity
  8
TEXT
100
AcDbCircle
 10
-154.3744055313477
 20
-170.0103228484298
 30
0.0
 40
0.0423870175594167
100
AcDbArc
 50
222.9877626572331
 51
344.3358851615566
  0
ARC
  5
306
330
1F
100
AcDbEntity
  8
TEXT
100
AcDbCircle
 10
-154.4182813646771
 20
-170.0475640636561
 30
0.0
 40
0.0153357621909055
100
AcDbArc
 50
32.94435831946025
 51
185.0814072168599
  0
LINE
  5
307
330
1F
100
AcDbEntity
  8
TEXT
100
AcDbLine
 10
-154.4345273769247
 20
-170.2448273607078
 30
0.0
 11
-154.4335568551701
 21
-170.0489223685473
 31
0.0
  0
LINE
  5
308
330
1F
100
AcDbEntity
  8
TEXT
100
AcDbLine
 10
-154.4985820863201
 20
-170.0557111519619
 30
0.0
 11
-154.4917883949533
 21
-170.2487066853844
 31
0.0
  0
ARC
  5
309
330
1F
100
AcDbEntity
  8
TEXT
100
AcDbCircle
 10
-154.5156486807051
 20
-170.0446915747769
 30
0.0
 40
0.0203150123121071
100
AcDbArc
 50
327.1504341221716
 51
80.13862259361699
  0
LINE
  5
30A
330
1F
100
AcDbEntity
  8
TEXT
100
AcDbLine
 10
-154.557980745837
 20
-170.0176789211515
 30
0.0
 11
-154.5121694299688
 21
-170.0246767168069
 31
0.0
  0
ARC
  5
30B
330
1F
100
AcDbEntity
  8
TEXT
100
AcDbCircle
 10
-154.5635878225569
 20
-170.0273994057374
 30
0.0
 40
0.0112217257998073
100
AcDbArc
 50
60.02231951668123
 51
227.1694577924197
  0
LINE
  5
30C
330
1F
100
AcDbEntity
  8
TEXT
100
AcDbLine
 10
-154.5671572985181
 20
-170.1348154818652
 30
0.0
 11
-154.5712167145686
 21
-170.0356290555843
 31
0.0
  0
ARC
  5
30D
330
1F
100
AcDbEntity
  8
TEXT
100
AcDbCircle
 10
-154.5918460453173
 20
-170.1454889341825
 30
0.0
 40
0.0268971523193831
100
AcDbArc
 50
165.641637302093
 51
23.37981978601889
  0
LINE
  5
30E
330
1F
100
AcDbEntity
  8
TEXT
100
AcDbLine
 10
-154.6312571511871
 20
-170.028059298407
 30
0.0
 11
-154.6179030282428
 21
-170.1388188184625
 31
0.0
  0
ARC
  5
30F
330
1F
100
AcDbEntity
  8
TEXT
100
AcDbCircle
 10
-154.6590460005341
 20
-170.0317040247218
 30
0.0
 40
0.0280268474491192
100
AcDbArc
 50
7.472141028409423
 51
164.1640293291664
  0
LINE
  5
310
330
1F
100
AcDbEntity
  8
TEXT
100
AcDbLine
 10
-154.6846737211349
 20
-170.0440727143358
 30
0.0
 11
-154.6860091412461
 21
-170.0240559386298
 31
0.0
  0
ARC
  5
311
330
1F
100
AcDbEntity
  8
TEXT
100
AcDbCircle
 10
-154.7044915623271
 20
-170.0411208984117
 30
0.0
 40
0.0200364679217749
100
AcDbArc
 50
208.706819647663
 51
351.5282258973483
  0
LINE
  5
312
330
1F
100
AcDbEntity
  8
TEXT
100
AcDbLine
 10
-154.7340840307481
 20
-170.022721477644
 30
0.0
 11
-154.7220653279149
 21
-170.0507449729045
 31
0.0
  0
LINE
  5
313
330
1F
100
AcDbEntity
  8
TEXT
100
AcDbLine
 10
-154.7234007480264
 20
-170.130812122088
 30
0.0
 11
-154.7340840307481
 21
-170.022721477644
 31
0.0
  0
ARC
  5
314
330
1F
100
AcDbEntity
  8
TEXT
100
AcDbCircle
 10
-154.7501641495955
 20
-170.1320783848211
 30
0.0
 40
0.0267933403078134
100
AcDbArc
 50
185.8633287467241
 51
2.70882780951028
  0
LINE
  5
315
330
1F
100
AcDbEntity
  8
TEXT
100
AcDbLine
 10
-154.7821589593347
 20
-170.0040391629238
 30
0.0
 11
-154.776817317974
 21
-170.1348154818652
 31
0.0
  0
ARC
  5
316
330
1F
100
AcDbEntity
  8
TEXT
100
AcDbCircle
 10
-154.8035352781776
 20
-170.0021409683898
 30
0.0
 40
0.0214604321893866
100
AcDbArc
 50
354.9255052590734
 51
174.3705062402905
  0
LINE
  5
317
330
1F
100
AcDbEntity
  8
TEXT
100
AcDbLine
 10
-154.8248922074759
 20
-170.0467416363071
 30
0.0
 11
-154.8248922074759
 21
-170.0000358031467
 31
0.0
  0
ARC
  5
318
330
1F
100
AcDbEntity
  8
TEXT
100
AcDbCircle
 10
-154.8405324304992
 20
-170.0526963033415
 30
0.0
 40
0.0167354305504526
100
AcDbArc
 50
168.6772178130464
 51
20.84321825743645
  0
LINE
  5
319
330
1F
100
AcDbEntity
  8
TEXT
100
AcDbLine
 10
-154.8702962958398
 20
-169.9800190042608
 30
0.0
 11
-154.8569421338104
 21
-170.0494105350986
 31
0.0
  0
LINE
  5
31A
330
1F
100
AcDbEntity
  8
TEXT
100
AcDbLine
 10
-154.9384024088435
 20
-170.0213870398383
 30
0.0
 11
-154.9410732490663
 21
-169.9720123078864
 31
0.0
  0
ARC
  5
31B
330
1F
100
AcDbEntity
  8
TEXT
100
AcDbCircle
 10
-154.9695449702921
 20
-170.033440150771
 30
0.0
 40
0.0333936613258266
100
AcDbArc
 50
170.7272794785987
 51
21.15794103948698
  0
ARC
  5
31C
330
1F
100
AcDbEntity
  8
TEXT
100
AcDbCircle
 10
-155.1037874017889
 20
-170.067280019379
 30
0.0
 40
0.0275450706715124
100
AcDbArc
 50
167.7181143692785
 51
23.9855107736551
  0
ARC
  5
31D
330
1F
100
AcDbEntity
  8
TEXT
100
AcDbCircle
 10
-155.4705700628831
 20
-169.9730624097811
 30
0.0
 40
0.0317727927028894
100
AcDbArc
 50
225.9317407159992
 51
327.3216812937239
  0
ARC
  5
31E
330
1F
100
AcDbEntity
  8
TEXT
100
AcDbCircle
 10
-155.0197053505543
 20
-168.0142673933892
 30
0.0
 40
0.0202411244277207
100
AcDbArc
 50
305.0065695458968
 51
188.3798152009865
  0
ARC
  5
31F
330
1F
100
AcDbEntity
  8
TEXT
100
AcDbCircle
 10
-155.0620097912358
 20
-168.01925999389
 30
0.0
 40
0.0223728693050071
100
AcDbArc
 50
183.0745908828774
 51
5.238726745824511
  0
ARC
  5
320
330
1F
100
AcDbEntity
  8
TEXT
100
AcDbCircle
 10
-155.1048595734866
 20
-168.0253226550509
 30
0.0
 40
0.0210777005824115
100
AcDbArc
 50
13.33841226381253
 51
197.9246330182953
  0
ARC
  5
321
330
1F
100
AcDbEntity
  8
TEXT
100
AcDbCircle
 10
-155.1356661122601
 20
-168.007798761564
 30
0.0
 40
0.0263082900832479
100
AcDbArc
 50
191.766783144215
 51
294.1224948725134
  0
ARC
  5
322
330
1F
100
AcDbEntity
  8
TEXT
100
AcDbCircle
 10
-155.1858903901961
 20
-168.0442236252395
 30
0.0
 40
0.0395403388773166
100
AcDbArc
 50
51.76909225770061
 51
154.0890012254449
  0
ARC
  5
323
330
1F
100
AcDbEntity
  8
TEXT
100
AcDbCircle
 10
-155.2456832319611
 20
-168.0173133618471
 30
0.0
 40
0.0260718650550039
100
AcDbArc
 50
179.7887253899368
 51
338.318548208448
  0
ARC
  5
324
330
1F
100
AcDbEntity
  8
TEXT
100
AcDbCircle
 10
-155.2887953001926
 20
-168.0110882115051
 30
0.0
 40
0.0181090959331568
100
AcDbArc
 50
340.2175703033617
 51
119.5111127021394
  0
ARC
  5
325
330
1F
100
AcDbEntity
  8
TEXT
100
AcDbCircle
 10
-155.3129416292151
 20
-167.9999125410685
 30
0.0
 40
0.0159009900288233
100
AcDbArc
 50
208.4553291170971
 51
16.75507449313859
  0
ARC
  5
326
330
1F
100
AcDbEntity
  8
TEXT
100
AcDbCircle
 10
-155.3443001069708
 20
-168.0097977297333
 30
0.0
 40
0.0175311985480735
100
AcDbArc
 50
7.567610287757028
 51
183.0538693842452
  0
ARC
  5
327
330
1F
100
AcDbEntity
  8
TEXT
100
AcDbCircle
 10
-155.3837566676658
 20
-168.013122953829
 30
0.0
 40
0.0220801252784218
100
AcDbArc
 50
151.6108765070449
 51
6.217261201770565
  0
ARC
  5
328
330
1F
100
AcDbEntity
  8
TEXT
100
AcDbCircle
 10
-155.4203761842912
 20
-168.0036222809493
 30
0.0
 40
0.0172236807617873
100
AcDbArc
 50
3.320051391017451
 51
168.5145862198276
  0
ARC
  5
329
330
1F
100
AcDbEntity
  8
TEXT
100
AcDbCircle
 10
-155.458407288626
 20
-168.008346288166
 30
0.0
 40
0.0226693890549236
100
AcDbArc
 50
181.931421762249
 51
21.08009584438978
  0
ARC
  5
32A
330
1F
100
AcDbEntity
  8
TEXT
100
AcDbCircle
 10
-155.5067760306958
 20
-168.0257674619285
 30
0.0
 40
0.0306362401525872
100
AcDbArc
 50
32.93635467158916
 51
189.5430854165198
  0
ARC
  5
32B
330
1F
100
AcDbEntity
  8
TEXT
100
AcDbCircle
 10
-153.452901799497
 20
-169.6291824849302
 30
0.0
 40
0.2080250183582768
100
AcDbArc
 50
312.2086974257847
 51
3.26433362995777
  0
ARC
  5
32C
330
1F
100
AcDbEntity
  8
TEXT
100
AcDbCircle
 10
-153.4850528254489
 20
-169.568246627739
 30
0.0
 40
0.2752936075807786
100
AcDbArc
 50
264.6664639047648
 51
308.6423664458139
  0
ARC
  5
32D
330
1F
100
AcDbEntity
  8
TEXT
100
AcDbCircle
 10
-153.5092668943203
 20
-169.608782998674
 30
0.0
 40
0.233569392086352
100
AcDbArc
 50
231.6935697703411
 51
269.6626044169122
  0
ARC
  5
32E
330
1F
100
AcDbEntity
  8
TEXT
100
AcDbCircle
 10
-153.4662022787934
 20
-169.6525913220459
 30
0.0
 40
0.1333271608128826
100
AcDbArc
 50
343.5952529167642
 51
35.13836089167997
  0
ARC
  5
32F
330
1F
100
AcDbEntity
  8
TEXT
100
AcDbCircle
 10
-153.4577255648545
 20
-169.6156324577237
 30
0.0
 40
0.1081355429451817
100
AcDbArc
 50
21.58325850317085
 51
95.38396011116695
  0
ARC
  5
330
330
1F
100
AcDbEntity
  8
TEXT
100
AcDbCircle
 10
-153.485797414621
 20
-169.5990950102815
 30
0.0
 40
0.0928674703455991
100
AcDbArc
 50
78.87075864991584
 51
146.7670066549806
  0
ARC
  5
331
330
1F
100
AcDbEntity
  8
TEXT
100
AcDbCircle
 10
-153.4164521862035
 20
-169.6169480532089
 30
0.0
 40
0.1712383171753461
100
AcDbArc
 50
359.8698564192901
 51
62.37231490188349
  0
ARC
  5
332
330
1F
100
AcDbEntity
  8
TEXT
100
AcDbCircle
 10
-153.4166327078233
 20
-169.697425527452
 30
0.0
 40
0.2454525436984016
100
AcDbArc
 50
71.0798858476198
 51
127.1124618564865
  0
LINE
  5
333
330
1F
100
AcDbEntity
  8
TEXT
100
AcDbLine
 10
-153.563476304747
 20
-169.5481994596191
 30
0.0
 11
-153.5622183512747
 21
-169.7644114617397
 31
0.0
  0
LINE
  5
334
330
1F
100
AcDbEntity
  8
TEXT
100
AcDbLine
 10
-153.7156885576368
 20
-169.3319874574987
 30
0.0
 11
-153.6628545508863
 21
-169.335758602057
 31
0.0
  0
LINE
  5
335
330
1F
100
AcDbEntity
  8
TEXT
100
AcDbLine
 10
-153.7182044645812
 20
-169.3043324514914
 30
0.0
 11
-153.7156885576368
 21
-169.3319874574987
 31
0.0
  0
ARC
  5
336
330
1F
100
AcDbEntity
  8
TEXT
100
AcDbCircle
 10
-153.7533683517515
 20
-168.7359779510159
 30
0.0
 40
0.569441249973624
100
AcDbArc
 50
273.5403564160214
 51
289.0758016785421
  0
LINE
  5
337
330
1F
100
AcDbEntity
  8
TEXT
100
AcDbLine
 10
-153.5672642573115
 20
-169.2741494879855
 30
0.0
 11
-153.5647342191341
 21
-169.5016887308207
 31
0.0
  0
LINE
  5
338
330
1F
100
AcDbEntity
  8
TEXT
100
AcDbLine
 10
-153.6628545508863
 20
-169.335758602057
 30
0.0
 11
-153.6540488765806
 21
-169.7920664909268
 31
0.0
  0
ARC
  5
339
330
1F
100
AcDbEntity
  8
TEXT
100
AcDbCircle
 10
-153.7478128505572
 20
-170.1025755916614
 30
0.0
 40
0.2957347525800737
100
AcDbArc
 50
88.18956599987521
 51
113.1652090520224
  0
ARC
  5
33A
330
1F
100
AcDbEntity
  8
TEXT
100
AcDbCircle
 10
-153.8785856843492
 20
-169.826289923636
 30
0.0
 40
0.0150897295541372
100
AcDbArc
 50
201.7006027724349
 51
343.0678677067634
  0
LINE
  5
33B
330
1F
100
AcDbEntity
  8
TEXT
100
AcDbLine
 10
-153.893791670025
 20
-169.7868467016968
 30
0.0
 11
-153.8926059848757
 21
-169.8318694497058
 31
0.0
  0
ARC
  5
33C
330
1F
100
AcDbEntity
  8
TEXT
100
AcDbCircle
 10
-154.036814899809
 20
-169.6338342687208
 30
0.0
 40
0.2094479622795829
100
AcDbArc
 50
260.0995263030863
 51
313.0673878832468
  0
ARC
  5
33D
330
1F
100
AcDbEntity
  8
TEXT
100
AcDbCircle
 10
-154.0728770370366
 20
-169.7489092812246
 30
0.0
 40
0.0912538445834278
100
AcDbArc
 50
180.7587023263156
 51
270.031539090741
  0
ARC
  5
33E
330
1F
100
AcDbEntity
  8
TEXT
100
AcDbCircle
 10
-153.911921887146
 20
-169.5143246214311
 30
0.0
 40
0.0183815537398475
100
AcDbArc
 50
337.1943218370273
 51
115.641277885515
  0
LINE
  5
33F
330
1F
100
AcDbEntity
  8
TEXT
100
AcDbLine
 10
-153.893791670025
 20
-169.7477479915485
 30
0.0
 11
-153.8949773160892
 21
-169.5214494392952
 31
0.0
  0
LINE
  5
340
330
1F
100
AcDbEntity
  8
TEXT
100
AcDbLine
 10
-153.9625601188848
 20
-169.4953836402563
 30
0.0
 11
-153.9198762352065
 21
-169.4977532646726
 31
0.0
  0
LINE
  5
341
330
1F
100
AcDbEntity
  8
TEXT
100
AcDbLine
 10
-153.9613744728204
 20
-169.4728722546621
 30
0.0
 11
-153.9625601188848
 21
-169.4953836402563
 31
0.0
  0
LINE
  5
342
330
1F
100
AcDbEntity
  8
TEXT
100
AcDbLine
 10
-154.202064102458
 20
-169.4930140158401
 30
0.0
 11
-154.2269630215753
 21
-169.4894596023957
 31
0.0
  0
LINE
  5
343
330
1F
100
AcDbEntity
  8
TEXT
100
AcDbLine
 10
-154.2281486676396
 20
-169.4728722546621
 30
0.0
 11
-154.2269630215753
 21
-169.4894596023957
 31
0.0
  0
ARC
  5
344
330
1F
100
AcDbEntity
  8
TEXT
100
AcDbCircle
 10
-154.1942290460067
 20
-169.5196267894881
 30
0.0
 40
0.0277421670175248
100
AcDbArc
 50
358.6825606331185
 51
106.4049357729542
  0
LINE
  5
345
330
1F
100
AcDbEntity
  8
TEXT
100
AcDbLine
 10
-153.8096095878179
 20
-169.4669482168013
 30
0.0
 11
-153.807238256604
 21
-169.735899915827
 31
0.0
  0
LINE
  5
346
330
1F
100
AcDbEntity
  8
TEXT
100
AcDbLine
 10
-154.0763837826369
 20
-169.4669482168013
 30
0.0
 11
-154.074012451423
 21
-169.72760625355
 31
0.0
  0
LINE
  5
347
330
1F
100
AcDbEntity
  8
TEXT
100
AcDbLine
 10
-154.166494212421
 20
-169.5202646270872
 30
0.0
 11
-154.1641228812071
 21
-169.7501176159646
 31
0.0
  0
LINE
  5
348
330
1F
100
AcDbEntity
  8
TEXT
100
AcDbLine
 10
-153.9613744728204
 20
-169.4728722546621
 30
0.0
 11
-153.8096095878179
 21
-169.4669482168013
 31
0.0
  0
LINE
  5
349
330
1F
100
AcDbEntity
  8
TEXT
100
AcDbLine
 10
-154.2281486676396
 20
-169.4728722546621
 30
0.0
 11
-154.0763837826369
 21
-169.4669482168013
 31
0.0
  0
LINE
  5
34A
330
1F
100
AcDbEntity
  8
TEXT
100
AcDbLine
 10
-155.1856245242223
 20
-169.1048946726381
 30
0.0
 11
-155.200003536275
 21
-169.1372241167621
 31
0.0
  0
ARC
  5
34B
330
1F
100
AcDbEntity
  8
TEXT
100
AcDbCircle
 10
-155.1649547090535
 20
-169.1038025013565
 30
0.0
 40
0.0206986496472366
100
AcDbArc
 50
183.0246359049376
 51
356.9753640950624
  0
LINE
  5
34C
330
1F
100
AcDbEntity
  8
TEXT
100
AcDbLine
 10
-155.1370954269435
 20
-169.0492161945502
 30
0.0
 11
-155.1442848938847
 21
-169.1048946726381
 31
0.0
  0
ARC
  5
34D
330
1F
100
AcDbEntity
  8
TEXT
100
AcDbCircle
 10
-155.1215014936662
 20
-169.0426276756882
 30
0.0
 40
0.0169286542835596
100
AcDbArc
 50
8.122642540875043
 51
202.9043136183462
  0
LINE
  5
34E
330
1F
100
AcDbEntity
  8
TEXT
100
AcDbLine
 10
-155.1191216423349
 20
-169.1480005904101
 30
0.0
 11
-155.1047426693675
 21
-169.0402357843903
 31
0.0
  0
ARC
  5
34F
330
1F
100
AcDbEntity
  8
TEXT
100
AcDbCircle
 10
-155.0867823068556
 20
-169.1466197145771
 30
0.0
 40
0.0323688034581246
100
AcDbArc
 50
182.4450201076249
 51
0.7349407504797699
  0
LINE
  5
350
330
1F
100
AcDbEntity
  8
TEXT
100
AcDbLine
 10
-155.0544161662684
 20
-169.0599926681983
 30
0.0
 11
-155.0544161662684
 21
-169.146204526922
 31
0.0
  0
ARC
  5
351
330
1F
100
AcDbEntity
  8
TEXT
100
AcDbCircle
 10
-155.0300850919469
 20
-169.0603679444674
 30
0.0
 40
0.0243339682319006
100
AcDbArc
 50
179.1163546128549
 51
32.14670843866172
  0
LINE
  5
352
330
1F
100
AcDbEntity
  8
TEXT
100
AcDbLine
 10
-155.0094818024603
 20
-169.0240710739182
 30
0.0
 11
-155.0094818024603
 21
-169.0474201078823
 31
0.0
  0
ARC
  5
353
330
1F
100
AcDbEntity
  8
TEXT
100
AcDbCircle
 10
-154.9842220522803
 20
-169.0303400587384
 30
0.0
 40
0.0260260475261456
100
AcDbArc
 50
26.60941129939887
 51
166.0619000058104
  0
LINE
  5
354
330
1F
100
AcDbEntity
  8
TEXT
100
AcDbLine
 10
-154.9573579326258
 20
-169.0707691418461
 30
0.0
 11
-154.9609526660963
 21
-169.0186828370942
 31
0.0
  0
ARC
  5
355
330
1F
100
AcDbEntity
  8
TEXT
100
AcDbCircle
 10
-154.9317085374729
 20
-169.0774540163491
 30
0.0
 40
0.0265062071754127
100
AcDbArc
 50
165.3922446503685
 51
2.803879044206379
  0
LINE
  5
356
330
1F
100
AcDbEntity
  8
TEXT
100
AcDbLine
 10
-154.9034366960561
 20
-169.0079063402663
 30
0.0
 11
-154.9052340627914
 21
-169.0761574018501
 31
0.0
  0
ARC
  5
357
330
1F
100
AcDbEntity
  8
TEXT
100
AcDbCircle
 10
-154.8456376890046
 20
-169.2890248185292
 30
0.0
 40
0.2869988223614974
100
AcDbArc
 50
60.82353397560614
 51
101.6183182656855
  0
ARC
  5
358
330
1F
100
AcDbEntity
  8
TEXT
100
AcDbCircle
 10
-154.7599937704742
 20
-169.0786604509389
 30
0.0
 40
0.0675481832266684
100
AcDbArc
 50
335.482723053164
 51
36.54383594003244
  0
ARC
  5
359
330
1F
100
AcDbEntity
  8
TEXT
100
AcDbCircle
 10
-154.6833112234098
 20
-169.1287610394575
 30
0.0
 40
0.0268121383254574
100
AcDbArc
 50
124.5991194751609
 51
24.91162951380403
  0
ARC
  5
35A
330
1F
100
AcDbEntity
  8
TEXT
100
AcDbCircle
 10
-154.64925985805
 20
-169.1024763259085
 30
0.0
 40
0.0178738768295545
100
AcDbArc
 50
15.46471151433611
 51
237.0036058083551
  0
ARC
  5
35B
330
1F
100
AcDbEntity
  8
TEXT
100
AcDbCircle
 10
-154.6967298883864
 20
-169.1402487427706
 30
0.0
 40
0.0774286019754481
100
AcDbArc
 50
331.8837666959788
 51
33.32508059324599
  0
ARC
  5
35C
330
1F
100
AcDbEntity
  8
TEXT
100
AcDbCircle
 10
-154.6113633117606
 20
-169.1960232254542
 30
0.0
 40
0.0257581468286122
100
AcDbArc
 50
131.5213803610218
 51
48.47861963898633
  0
ARC
  5
35D
330
1F
100
AcDbEntity
  8
TEXT
100
AcDbCircle
 10
-154.5818615673193
 20
-169.1738564198193
 30
0.0
 40
0.0127563815650143
100
AcDbArc
 50
3.193725348484569
 51
193.0548754998584
  0
ARC
  5
35E
330
1F
100
AcDbEntity
  8
TEXT
100
AcDbCircle
 10
-154.4907106970253
 20
-169.2080733924237
 30
0.0
 40
0.0858413881149048
100
AcDbArc
 50
155.9906329013486
 51
206.8057304576949
  0
ARC
  5
35F
330
1F
100
AcDbEntity
  8
TEXT
100
AcDbCircle
 10
-154.9173838518487
 20
-169.4068850415716
 30
0.0
 40
0.3849303545009339
100
AcDbArc
 50
344.8914411173241
 51
24.57723374822275
  0
ARC
  5
360
330
1F
100
AcDbEntity
  8
TEXT
100
AcDbCircle
 10
-154.6687224231606
 20
-169.5440663808081
 30
0.0
 40
0.1283661883545756
100
AcDbArc
 50
300.6537348898137
 51
16.68245916375749
  0
ARC
  5
361
330
1F
100
AcDbEntity
  8
TEXT
100
AcDbCircle
 10
-154.7830125971417
 20
-169.8184949413107
 30
0.0
 40
0.0493125714812809
100
AcDbArc
 50
244.0629515517946
 51
24.32612031264304
  0
ARC
  5
362
330
1F
100
AcDbEntity
  8
TEXT
100
AcDbCircle
 10
-154.867489185467
 20
-169.9047609210919
 30
0.0
 40
0.0755959557030815
100
AcDbArc
 50
33.6785164749019
 51
106.5775508010122
  0
ARC
  5
363
330
1F
100
AcDbEntity
  8
TEXT
100
AcDbCircle
 10
-154.9154509424665
 20
-169.8173448157379
 30
0.0
 40
0.0303393416816691
100
AcDbArc
 50
194.854618224045
 51
330.4510994340804
  0
ARC
  5
364
330
1F
100
AcDbEntity
  8
TEXT
100
AcDbCircle
 10
-154.9788710005552
 20
-169.7862436070216
 30
0.0
 40
0.0517111285156388
100
AcDbArc
 50
223.030562506127
 51
311.2487591160714
  0
ARC
  5
365
330
1F
100
AcDbEntity
  8
TEXT
100
AcDbCircle
 10
-155.0453843307469
 20
-169.7698182168418
 30
0.0
 40
0.0591491040733606
100
AcDbArc
 50
214.7934494581951
 51
299.0409507876108
  0
ARC
  5
366
330
1F
100
AcDbEntity
  8
TEXT
100
AcDbCircle
 10
-155.1115388576475
 20
-169.8040788201218
 30
0.0
 40
0.0175877935329171
100
AcDbArc
 50
1.658272028068491
 51
160.4091839300748
  0
ARC
  5
367
330
1F
100
AcDbEntity
  8
TEXT
100
AcDbCircle
 10
-155.142115805344
 20
-169.800340624874
 30
0.0
 40
0.0141727015411514
100
AcDbArc
 50
156.0593073728619
 51
8.762281217120161
  0
ARC
  5
368
330
1F
100
AcDbEntity
  8
TEXT
100
AcDbCircle
 10
-155.2569982694148
 20
-169.828198246382
 30
0.0
 40
0.1073270257689934
100
AcDbArc
 50
18.24878221232259
 51
92.19784172829085
  0
ARC
  5
369
330
1F
100
AcDbEntity
  8
TEXT
100
AcDbCircle
 10
-155.3159249961668
 20
-169.7066995995504
 30
0.0
 40
0.056632972872121
100
AcDbArc
 50
345.4259909574647
 51
72.46181126870036
  0
ARC
  5
36A
330
1F
100
AcDbEntity
  8
TEXT
100
AcDbCircle
 10
-155.4193022963725
 20
-169.6248598970326
 30
0.0
 40
0.1236186796314704
100
AcDbArc
 50
346.985212236237
 51
34.01252680042808
  0
ARC
  5
36B
330
1F
100
AcDbEntity
  8
TEXT
100
AcDbCircle
 10
-154.7999378035403
 20
-169.4332098383246
 30
0.0
 40
0.5312127717185104
100
AcDbArc
 50
153.5374647244112
 51
193.3327646348683
  0
ARC
  5
36C
330
1F
100
AcDbEntity
  8
TEXT
100
AcDbCircle
 10
-155.2485608344104
 20
-169.1827605828192
 30
0.0
 40
0.0302321510351341
100
AcDbArc
 50
103.7022990326948
 51
207.0193065629237
  0
ARC
  5
36D
330
1F
100
AcDbEntity
  8
TEXT
100
AcDbCircle
 10
-155.2312126852975
 20
-169.1337598153423
 30
0.0
 40
0.0314008338592449
100
AcDbArc
 50
218.6904014524235
 51
353.6659411500762
  0
ARC
  5
36E
330
1F
100
AcDbEntity
  8
TEXT
100
AcDbCircle
 10
-155.1691179287179
 20
-169.1805580336396
 30
0.0
 40
0.1687711395902632
100
AcDbArc
 50
120.6947626763563
 51
155.9971516553446
  0
LINE
  5
36F
330
1F
100
AcDbEntity
  8
TEXT
100
AcDbLine
 10
-155.3220798985452
 20
-169.0208656091567
 30
0.0
 11
-155.3232946239129
 21
-169.1119049622048
 31
0.0
  0
LINE
  5
370
330
1F
100
AcDbEntity
  8
TEXT
100
AcDbLine
 10
-155.2528401226408
 20
-169.0002300255565
 30
0.0
 11
-155.2552695733765
 21
-169.0354319102804
 31
0.0
  0
ARC
  5
371
330
1F
100
AcDbEntity
  8
TEXT
100
AcDbCircle
 10
-155.2839050690543
 20
-169.0224759198154
 30
0.0
 40
0.0382087778796666
100
AcDbArc
 50
35.60679995345877
 51
177.5845513854531
  0
ARC
  5
372
330
1F
100
AcDbEntity
  8
TEXT
100
AcDbCircle
 10
-155.1643674843603
 20
-168.9043560383002
 30
0.0
 40
0.0265686105213839
100
AcDbArc
 50
318.2823815987287
 51
84.36248438139953
  0
ARC
  5
373
330
1F
100
AcDbEntity
  8
TEXT
100
AcDbCircle
 10
-155.1037228026926
 20
-168.9926147162013
 30
0.0
 40
0.0815291373660091
100
AcDbArc
 50
81.18509483549694
 51
120.0392913824101
  0
ARC
  5
374
330
1F
100
AcDbEntity
  8
TEXT
100
AcDbCircle
 10
-155.0644341896622
 20
-169.060621893522
 30
0.0
 40
0.1509701976527038
100
AcDbArc
 50
70.05468846035551
 51
100.2232656721042
  0
ARC
  5
375
330
1F
100
AcDbEntity
  8
TEXT
100
AcDbCircle
 10
-154.9954435146393
 20
-168.9239295568546
 30
0.0
 40
0.0182542680275253
100
AcDbArc
 50
163.3756550464678
 51
16.62434495353221
  0
ARC
  5
376
330
1F
100
AcDbEntity
  8
TEXT
100
AcDbCircle
 10
-154.9463897479153
 20
-168.9554948992485
 30
0.0
 40
0.0484719979868553
100
AcDbArc
 50
46.43616582623985
 51
130.6283095026657
  0
ARC
  5
377
330
1F
100
AcDbEntity
  8
TEXT
100
AcDbCircle
 10
-154.8968787225492
 20
-168.9193695402133
 30
0.0
 40
0.0161371033775082
100
AcDbArc
 50
183.5606974541693
 51
344.4298925613464
  0
ARC
  5
378
330
1F
100
AcDbEntity
  8
TEXT
100
AcDbCircle
 10
-154.8521816876691
 20
-168.9348289872224
 30
0.0
 40
0.0312038098851431
100
AcDbArc
 50
20.89289471577907
 51
159.1071052842209
  0
ARC
  5
379
330
1F
100
AcDbEntity
  8
TEXT
100
AcDbCircle
 10
-154.8029341660375
 20
-168.9564316548868
 30
0.0
 40
0.0384072886748113
100
AcDbArc
 50
24.75773987532682
 51
121.5483884163387
  0
ARC
  5
37A
330
1F
100
AcDbEntity
  8
TEXT
100
AcDbCircle
 10
-154.7415420790181
 20
-168.9540808436487
 30
0.0
 40
0.0298605224766669
100
AcDbArc
 50
47.61705801860659
 51
152.6179806585991
  0
ARC
  5
37B
330
1F
100
AcDbEntity
  8
TEXT
100
AcDbCircle
 10
-154.7034593128674
 20
-168.9489792955046
 30
0.0
 40
0.0246947957724392
100
AcDbArc
 50
136.6395135700781
 51
16.38775991618659
  0
ARC
  5
37C
330
1F
100
AcDbEntity
  8
TEXT
100
AcDbCircle
 10
-154.6738016896906
 20
-169.0158422979187
 30
0.0
 40
0.0740709665709099
100
AcDbArc
 50
41.27304036068998
 51
94.61991284103847
  0
ARC
  5
37D
330
1F
100
AcDbEntity
  8
TEXT
100
AcDbCircle
 10
-154.5883059640112
 20
-168.9700120349365
 30
0.0
 40
0.029979433081375
100
AcDbArc
 50
174.1982733486934
 51
308.0634596483612
  0
ARC
  5
37E
330
1F
100
AcDbEntity
  8
TEXT
100
AcDbCircle
 10
-154.5478725002175
 20
-169.0060509456837
 30
0.0
 40
0.0252278338383251
100
AcDbArc
 50
296.7794474250815
 51
150.4674482996605
  0
ARC
  5
37F
330
1F
100
AcDbEntity
  8
TEXT
100
AcDbCircle
 10
-154.5273438235083
 20
-169.2102777450843
 30
0.0
 40
0.1819355572144818
100
AcDbArc
 50
78.6467194011529
 51
92.8865786316482
  0
ARC
  5
380
330
1F
100
AcDbEntity
  8
TEXT
100
AcDbCircle
 10
-154.5509822895486
 20
-169.104872829748
 30
0.0
 40
0.0941247461656798
100
AcDbArc
 50
356.7791343814141
 51
50.82801334299036
  0
ARC
  5
381
330
1F
100
AcDbEntity
  8
TEXT
100
AcDbCircle
 10
-154.4369318522908
 20
-169.1735282985164
 30
0.0
 40
0.0664707810882636
100
AcDbArc
 50
51.01090143870909
 51
107.577946053111
  0
ARC
  5
382
330
1F
100
AcDbEntity
  8
TEXT
100
AcDbCircle
 10
-154.7274905962796
 20
-169.4069379789381
 30
0.0
 40
0.437886423121702
100
AcDbArc
 50
317.9732863042366
 51
40.61894937560228
  0
ARC
  5
383
330
1F
100
AcDbEntity
  8
TEXT
100
AcDbCircle
 10
-153.9759622026485
 20
-169.7890782170238
 30
0.0
 40
0.4336242952445268
100
AcDbArc
 50
179.4662202071271
 51
190.5890997840366
  0
ARC
  5
384
330
1F
100
AcDbEntity
  8
TEXT
100
AcDbCircle
 10
-154.4389514462758
 20
-169.8861769970409
 30
0.0
 40
0.0406665850158043
100
AcDbArc
 50
282.9712622283036
 51
25.35441378639515
  0
ARC
  5
385
330
1F
100
AcDbEntity
  8
TEXT
100
AcDbCircle
 10
-154.3794691028822
 20
-169.8786162059887
 30
0.0
 40
0.0690102449410196
100
AcDbArc
 50
169.4684867573188
 51
223.1418439421435
  0
ARC
  5
386
330
1F
100
AcDbEntity
  8
TEXT
100
AcDbCircle
 10
-154.5355154526456
 20
-169.8292008406617
 30
0.0
 40
0.0955687062357316
100
AcDbArc
 50
337.3510782224597
 51
22.64892177753659
  0
ARC
  5
387
330
1F
100
AcDbEntity
  8
TEXT
100
AcDbCircle
 10
-154.7836519634517
 20
-169.5424081437035
 30
0.0
 40
0.3761759646803176
100
AcDbArc
 50
311.607168930111
 51
318.3515702307968
  0
ARC
  5
388
330
1F
100
AcDbEntity
  8
TEXT
100
AcDbCircle
 10
-154.5340689395838
 20
-169.8361747930649
 30
0.0
 40
0.012495918793647
100
AcDbArc
 50
89.05883162362073
 51
223.9137905963016
  0
ARC
  5
389
330
1F
100
AcDbEntity
  8
TEXT
100
AcDbCircle
 10
-154.6415337714761
 20
-169.8590659166065
 30
0.0
 40
0.0994851046051784
100
AcDbArc
 50
322.6907301981539
 51
8.220255073940986
  0
ARC
  5
38A
330
1F
100
AcDbEntity
  8
TEXT
100
AcDbCircle
 10
-154.5467224669804
 20
-169.9386275780332
 30
0.0
 40
0.0248393227383133
100
AcDbArc
 50
129.1527393458029
 51
254.8870408388506
  0
ARC
  5
38B
330
1F
100
AcDbEntity
  8
TEXT
100
AcDbCircle
 10
-154.5477312149469
 20
-169.9720554987704
 30
0.0
 40
0.0109156684580052
100
AcDbArc
 50
312.7998628402726
 51
120.058186453337
  0
ARC
  5
38C
330
1F
100
AcDbEntity
  8
TEXT
100
AcDbCircle
 10
-154.3567214104216
 20
-170.0598022103637
 30
0.0
 40
0.098453049239248
100
AcDbArc
 50
99.17143729878524
 51
127.795528329094
  0
ARC
  5
38D
330
1F
100
AcDbEntity
  8
TEXT
100
AcDbCircle
 10
-154.3763424503891
 20
-170.0075029482835
 30
0.0
 40
0.045066717351383
100
AcDbArc
 50
341.5477100758372
 51
84.99888070834156
  0
ARC
  5
38E
330
1F
100
AcDbEntity
  8
TEXT
100
AcDbCircle
 10
-154.5828562596789
 20
-169.8920932562398
 30
0.0
 40
0.0729926500022454
100
AcDbArc
 50
156.2885975497959
 51
210.2571046136436
  0
ARC
  5
38F
330
1F
100
AcDbEntity
  8
TEXT
100
AcDbCircle
 10
-154.6348290096448
 20
-169.8680952362873
 30
0.0
 40
0.0157934303880562
100
AcDbArc
 50
31.23099864076698
 51
160.1819529381848
  0
LINE
  5
390
330
1F
100
AcDbEntity
  8
TEXT
100
AcDbLine
 10
-154.6222697312344
 20
-169.9317071124186
 30
0.0
 11
-154.6213243021044
 21
-169.859906505148
 31
0.0
  0
ARC
  5
391
330
1F
100
AcDbEntity
  8
TEXT
100
AcDbCircle
 10
-154.634859884609
 20
-169.9367308413785
 30
0.0
 40
0.0135554348755297
100
AcDbArc
 50
144.5711585108377
 51
21.75301147887045
  0
ARC
  5
392
330
1F
100
AcDbEntity
  8
TEXT
100
AcDbCircle
 10
-154.8909347893232
 20
-169.9662967379143
 30
0.0
 40
0.0247840272543199
100
AcDbArc
 50
177.787775166229
 51
326.380582641936
  0
ARC
  5
393
330
1F
100
AcDbEntity
  8
TEXT
100
AcDbCircle
 10
-154.9296150122789
 20
-169.964005588332
 30
0.0
 40
0.0139785102316838
100
AcDbArc
 50
354.5219056877808
 51
214.944854376383
  0
LINE
  5
394
330
1F
100
AcDbEntity
  8
TEXT
100
AcDbLine
 10
-155.0051731017354
 20
-169.945323250432
 30
0.0
 11
-155.0025022615123
 21
-170.028059298407
 31
0.0
  0
ARC
  5
395
330
1F
100
AcDbEntity
  8
TEXT
100
AcDbCircle
 10
-155.0601560537223
 20
-169.9213663619821
 30
0.0
 40
0.0149858285280011
100
AcDbArc
 50
5.351678383090956
 51
195.243548802638
  0
LINE
  5
396
330
1F
100
AcDbEntity
  8
TEXT
100
AcDbLine
 10
-155.0786208951846
 20
-170.0560827936671
 30
0.0
 11
-155.0746146348502
 21
-169.9253064747259
 31
0.0
  0
LINE
  5
397
330
1F
100
AcDbEntity
  8
TEXT
100
AcDbLine
 10
-155.1427207478536
 20
-169.8959485184799
 30
0.0
 11
-155.1307020450209
 21
-170.0614205912503
 31
0.0
  0
ARC
  5
398
330
1F
100
AcDbEntity
  8
TEXT
100
AcDbCircle
 10
-155.171002867225
 20
-169.8997256659912
 30
0.0
 40
0.0285332283391293
100
AcDbArc
 50
7.606980527162151
 51
103.0413594591622
  0
ARC
  5
399
330
1F
100
AcDbEntity
  8
TEXT
100
AcDbCircle
 10
-155.1894602367864
 20
-169.8979302447657
 30
0.0
 40
0.0286451828931928
100
AcDbArc
 50
65.19241843010752
 51
139.0508106988784
  0
LINE
  5
39A
330
1F
100
AcDbEntity
  8
TEXT
100
AcDbLine
 10
-155.2110956880742
 20
-169.9152275043872
 30
0.0
 11
-155.2110956880742
 21
-169.8791564931276
 31
0.0
  0
ARC
  5
39B
330
1F
100
AcDbEntity
  8
TEXT
100
AcDbCircle
 10
-155.2271315789477
 20
-169.9195392962129
 30
0.0
 40
0.0166054612961946
100
AcDbArc
 50
168.3169857564318
 51
15.0499521145142
  0
LINE
  5
39C
330
1F
100
AcDbEntity
  8
TEXT
100
AcDbLine
 10
-155.2481426034868
 20
-169.8725118416987
 30
0.0
 11
-155.243393022999
 21
-169.9161767403057
 31
0.0
  0
ARC
  5
39D
330
1F
100
AcDbEntity
  8
TEXT
100
AcDbCircle
 10
-155.25468507676
 20
-169.8667542341119
 30
0.0
 40
0.0087151593018088
100
AcDbArc
 50
318.6510821797588
 51
186.6644145786487
  0
LINE
  5
39E
330
1F
100
AcDbEntity
  8
TEXT
100
AcDbLine
 10
-155.2671410426927
 20
-169.9009889656108
 30
0.0
 11
-155.2633413470345
 21
-169.8677656621066
 31
0.0
  0
ARC
  5
39F
330
1F
100
AcDbEntity
  8
TEXT
100
AcDbCircle
 10
-155.2906023588311
 20
-169.9071949895479
 30
0.0
 40
0.0242682526780891
100
AcDbArc
 50
172.045705651638
 51
14.81661014794035
  0
LINE
  5
3A0
330
1F
100
AcDbEntity
  8
TEXT
100
AcDbLine
 10
-155.320336625568
 20
-169.8241007403199
 30
0.0
 11
-155.3146371211656
 21
-169.9038366733662
 31
0.0
  0
ARC
  5
3A1
330
1F
100
AcDbEntity
  8
TEXT
100
AcDbCircle
 10
-155.3140690338226
 20
-169.7660090437415
 30
0.0
 40
0.058428827796204
100
AcDbArc
 50
209.3802246625999
 51
263.8421008682745
  0
ARC
  5
3A2
330
1F
100
AcDbEntity
  8
TEXT
100
AcDbCircle
 10
-155.3872351766775
 20
-169.801762976407
 30
0.0
 40
0.0233540198560663
100
AcDbArc
 50
17.6695592997087
 51
146.8111142491866
  0
ARC
  5
3A3
330
1F
100
AcDbEntity
  8
TEXT
100
AcDbCircle
 10
-155.4159853046728
 20
-169.7950446322858
 30
0.0
 40
0.0110245073333311
100
AcDbArc
 50
192.9866902548921
 51
33.3806313974108
  0
LINE
  5
3A4
330
1F
100
AcDbEntity
  8
TEXT
100
AcDbLine
 10
-155.426727830403
 20
-169.7633495720016
 30
0.0
 11
-155.426727830403
 21
-169.7975221114244
 31
0.0
  0
ARC
  5
3A5
330
1F
100
AcDbEntity
  8
TEXT
100
AcDbCircle
 10
-155.4339967886503
 20
-169.7597551188324
 30
0.0
 40
0.0081091212587933
100
AcDbArc
 50
333.687900136721
 51
192.0722457553363
  0
LINE
  5
3A6
330
1F
100
AcDbEntity
  8
TEXT
100
AcDbLine
 10
-155.4419265739509
 20
-169.7614511001648
 30
0.0
 11
-155.4438264217799
 21
-169.9902172346615
 31
0.0
  0
ARC
  5
3A7
330
1F
100
AcDbEntity
  8
TEXT
100
AcDbCircle
 10
-150.7579778143714
 20
-169.8512127501888
 30
0.0
 40
4.736900669901752
100
AcDbArc
 50
178.0464319449979
 51
181.7502526685598
  0
ARC
  5
3A8
330
1F
100
AcDbEntity
  8
TEXT
100
AcDbCircle
 10
-155.543282017554
 20
-169.7036053655347
 30
0.0
 40
0.0530040614323816
100
AcDbArc
 50
15.17145974978894
 51
87.54918714297627
  0
ARC
  5
3A9
330
1F
100
AcDbEntity
  8
TEXT
100
AcDbCircle
 10
-154.4054157756625
 20
-169.4135362262476
 30
0.0
 40
1.16009030412099
100
AcDbArc
 50
175.4121316267021
 51
191.7939289657035
  0
ARC
  5
3AA
330
1F
100
AcDbEntity
  8
TEXT
100
AcDbCircle
 10
-155.2882458174788
 20
-169.3239020886893
 30
0.0
 40
0.2735613843960017
100
AcDbArc
 50
117.3222180892419
 51
179.3383492613259
  0
ARC
  5
3AB
330
1F
100
AcDbEntity
  8
TEXT
100
AcDbCircle
 10
-155.4374283038284
 20
-169.0555189495215
 30
0.0
 40
0.0346412414982963
100
AcDbArc
 50
312.9867785858866
 51
66.99118422926675
  0
ARC
  5
3AC
330
1F
100
AcDbEntity
  8
TEXT
100
AcDbCircle
 10
-155.4410644032837
 20
-169.014612789395
 30
0.0
 40
0.0194011431099161
100
AcDbArc
 50
332.2921775479033
 51
119.5678571759907
  0
ARC
  5
3AD
330
1F
100
AcDbEntity
  8
TEXT
100
AcDbCircle
 10
-155.4327721384918
 20
-169.027188986804
 30
0.0
 40
0.0344461283112616
100
AcDbArc
 50
121.2424246402126
 51
213.4732397083764
  0
ARC
  5
3AE
330
1F
100
AcDbEntity
  8
TEXT
100
AcDbCircle
 10
-155.4693030348737
 20
-169.0532006800431
 30
0.0
 40
0.0104875828453919
100
AcDbArc
 50
201.5154657473976
 51
41.96660508022661
  0
ARC
  5
3AF
330
1F
100
AcDbEntity
  8
TEXT
100
AcDbCircle
 10
-155.469035773263
 20
-169.0192855435756
 30
0.0
 40
0.0390693130110343
100
AcDbArc
 50
160.2627782819637
 51
255.1333022011723
  0
ARC
  5
3B0
330
1F
100
AcDbEntity
  8
TEXT
100
AcDbCircle
 10
-155.5144761993386
 20
-168.998767603829
 30
0.0
 40
0.011346659065972
100
AcDbArc
 50
124.2167745950178
 51
319.7988197133707
  0
ARC
  5
3B1
330
1F
100
AcDbEntity
  8
TEXT
100
AcDbCircle
 10
-155.5387687217697
 20
-168.9883653575092
 30
0.0
 40
0.0179409974675114
100
AcDbArc
 50
356.7423630506751
 51
136.5172760690062
  0
ARC
  5
3B2
330
1F
100
AcDbEntity
  8
TEXT
100
AcDbCircle
 10
-155.546979677553
 20
-168.9524623879807
 30
0.0
 40
0.0240425173003956
100
AcDbArc
 50
116.3151684036786
 51
258.4674100382152
  0
ARC
  5
3B3
330
1F
100
AcDbEntity
  8
TEXT
100
AcDbCircle
 10
-155.5448557635946
 20
-168.9431411885867
 30
0.0
 40
0.0176904228191448
100
AcDbArc
 50
348.1206509806774
 51
136.2651890953782
  0
ARC
  5
3B4
330
1F
100
AcDbEntity
  8
TEXT
100
AcDbCircle
 10
-155.5160787717407
 20
-168.9512363974172
 30
0.0
 40
0.0123000389730053
100
AcDbArc
 50
158.7719549350954
 51
25.46716058584042
  0
ARC
  5
3B5
330
1F
100
AcDbEntity
  8
TEXT
100
AcDbCircle
 10
-155.4719256887552
 20
-168.9487237755097
 30
0.0
 40
0.0331646271316668
100
AcDbArc
 50
32.4856949474344
 51
175.1979664789355
  0
ARC
  5
3B6
330
1F
100
AcDbEntity
  8
TEXT
100
AcDbCircle
 10
-155.4302621488384
 20
-168.9370273649053
 30
0.0
 40
0.0149925032258519
100
AcDbArc
 50
155.9249042338166
 51
10.66497725508797
  0
ARC
  5
3B7
330
1F
100
AcDbEntity
  8
TEXT
100
AcDbCircle
 10
-155.3667793470467
 20
-168.9247466826179
 30
0.0
 40
0.0496674704786149
100
AcDbArc
 50
109.4580308571273
 51
191.034176587699
  0
LINE
  5
3B8
330
1F
100
AcDbEntity
  8
TEXT
100
AcDbLine
 10
-153.0960358981265
 20
-169.6038833827126
 30
0.0
 11
-152.7843144510503
 21
-169.6038833827126
 31
0.0
  0
ARC
  5
3B9
330
1F
100
AcDbEntity
  8
TEXT
100
AcDbCircle
 10
-152.9259109447094
 20
-169.5972990459928
 30
0.0
 40
0.1417494991403299
100
AcDbArc
 50
357.337623744369
 51
85.63084243886233
  0
ARC
  5
3BA
330
1F
100
AcDbEntity
  8
TEXT
100
AcDbCircle
 10
-152.9700992225361
 20
-169.7181686300455
 30
0.0
 40
0.2679107432910981
100
AcDbArc
 50
78.15621523985548
 51
106.6122408520356
  0
LINE
  5
3BB
330
1F
100
AcDbEntity
  8
TEXT
100
AcDbLine
 10
-153.0960358981265
 20
-169.5702292029354
 30
0.0
 11
-152.891615542887
 21
-169.5702292029354
 31
0.0
  0
ARC
  5
3BC
330
1F
100
AcDbEntity
  8
TEXT
100
AcDbCircle
 10
-152.9964375299183
 20
-169.5896818902617
 30
0.0
 40
0.1014802542068989
100
AcDbArc
 50
103.9179608005984
 51
168.9486088950471
  0
ARC
  5
3BD
330
1F
100
AcDbEntity
  8
TEXT
100
AcDbCircle
 10
-152.9730882107287
 20
-169.5676558430929
 30
0.0
 40
0.0815132982162193
100
AcDbArc
 50
358.1908821763629
 51
69.7495758340291
  0
ARC
  5
3BE
330
1F
100
AcDbEntity
  8
TEXT
100
AcDbCircle
 10
-152.982860656602
 20
-169.8005402977861
 30
0.0
 40
0.3116827463080194
100
AcDbArc
 50
82.99970676551488
 51
97.00029323448513
  0
ARC
  5
3BF
330
1F
100
AcDbEntity
  8
TEXT
100
AcDbCircle
 10
-152.9851096901974
 20
-169.6450495615114
 30
0.0
 40
0.1936619594120444
100
AcDbArc
 50
108.5416613320802
 51
149.7652339536159
  0
ARC
  5
3C0
330
1F
100
AcDbEntity
  8
TEXT
100
AcDbCircle
 10
-152.9838702197118
 20
-169.65094901969
 30
0.0
 40
0.1977540523086524
100
AcDbArc
 50
148.4692011102813
 51
195.5802361373398
  0
ARC
  5
3C1
330
1F
100
AcDbEntity
  8
TEXT
100
AcDbCircle
 10
-152.9875283482886
 20
-169.6568411112583
 30
0.0
 40
0.1927049530798322
100
AcDbArc
 50
194.1847393568171
 51
248.6586767321129
  0
ARC
  5
3C2
330
1F
100
AcDbEntity
  8
TEXT
100
AcDbCircle
 10
-152.9083736772463
 20
-169.6061894242962
 30
0.0
 40
0.1876763889607835
100
AcDbArc
 50
179.2959701761241
 51
227.5915484940839
  0
ARC
  5
3C3
330
1F
100
AcDbEntity
  8
TEXT
100
AcDbCircle
 10
-152.9493024761993
 20
-169.6395975931226
 30
0.0
 40
0.1356245691002922
100
AcDbArc
 50
230.8416488637728
 51
280.5326941523482
  0
ARC
  5
3C4
330
1F
100
AcDbEntity
  8
TEXT
100
AcDbCircle
 10
-152.9315777185122
 20
-169.6028496447283
 30
0.0
 40
0.1702340953384349
100
AcDbArc
 50
272.3792098458871
 51
327.3581874363233
  0
ARC
  5
3C5
330
1F
100
AcDbEntity
  8
TEXT
100
AcDbCircle
 10
-152.9819040799027
 20
-169.5671029708862
 30
0.0
 40
0.2796837435466482
100
AcDbArc
 50
254.28478308494
 51
294.1819270465997
  0
ARC
  5
3C6
330
1F
100
AcDbEntity
  8
TEXT
100
AcDbCircle
 10
-152.9592004749918
 20
-169.6365610302307
 30
0.0
 40
0.20716515586124
100
AcDbArc
 50
296.3233923707214
 51
339.8348331475784
  0
ARC
  5
3C7
330
1F
100
AcDbEntity
  8
TEXT
100
AcDbCircle
 10
-152.77874909308
 20
-169.705327171521
 30
0.0
 40
0.0142633461297514
100
AcDbArc
 50
349.2952029716974
 51
131.6626905469352
  0
ARC
  5
3C8
330
1F
100
AcDbEntity
  8
TEXT
100
AcDbCircle
 10
-155.0332118564467
 20
-168.1437701620696
 30
0.0
 40
0.0286846169021335
100
AcDbArc
 50
146.5485285753444
 51
33.45147142465562
  0
ARC
  5
3C9
330
1F
100
AcDbEntity
  8
TEXT
100
AcDbCircle
 10
-155.0791115444632
 20
-168.0928699777556
 30
0.0
 40
0.0222434680477838
100
AcDbArc
 50
2.749965920202106
 51
141.7961814814361
  0
LINE
  5
3CA
330
1F
100
AcDbEntity
  8
TEXT
100
AcDbLine
 10
-155.0080936174835
 20
-168.0308466205481
 30
0.0
 11
-155.0092787601548
 21
-168.1279583263536
 31
0.0
  0
LINE
  5
3CB
330
1F
100
AcDbEntity
  8
TEXT
100
AcDbLine
 10
-155.0568936916589
 20
-168.0918027910021
 30
0.0
 11
-155.0571449527384
 21
-168.1279583263536
 31
0.0
  0
LINE
  5
3CC
330
1F
100
AcDbEntity
  8
TEXT
100
AcDbLine
 10
-155.0965908103695
 20
-168.0791132654242
 30
0.0
 11
-155.1617575295286
 21
-168.1138438121304
 31
0.0
  0
LINE
  5
3CD
330
1F
100
AcDbEntity
  8
TEXT
100
AcDbLine
 10
-155.4484911094623
 20
-168.0791132654242
 30
0.0
 11
-155.3833243903033
 21
-168.1138438121304
 31
0.0
  0
ARC
  5
3CE
330
1F
100
AcDbEntity
  8
TEXT
100
AcDbCircle
 10
-155.4659703753687
 20
-168.0928699777556
 30
0.0
 40
0.0222434680477838
100
AcDbArc
 50
38.20381851856388
 51
177.2500340797979
  0
LINE
  5
3CF
330
1F
100
AcDbEntity
  8
TEXT
100
AcDbLine
 10
-155.1617575295286
 20
-168.1138438121304
 30
0.0
 11
-155.1617575295286
 21
-168.877915932385
 31
0.0
  0
LINE
  5
3D0
330
1F
100
AcDbEntity
  8
TEXT
100
AcDbLine
 10
-155.3833243903033
 20
-168.1138438121304
 30
0.0
 11
-155.3833243903033
 21
-168.877915932385
 31
0.0
  0
ARC
  5
3D1
330
1F
100
AcDbEntity
  8
TEXT
100
AcDbCircle
 10
-155.5080132583066
 20
-168.5315261172559
 30
0.0
 40
0.0228904156925393
100
AcDbArc
 50
177.899482485688
 51
2.100517514311817
  0
LINE
  5
3D2
330
1F
100
AcDbEntity
  8
TEXT
100
AcDbLine
 10
-155.4881882281726
 20
-168.0918027910021
 30
0.0
 11
-155.4851382235368
 21
-168.5306871209163
 31
0.0
  0
LINE
  5
3D3
330
1F
100
AcDbEntity
  8
TEXT
100
AcDbLine
 10
-155.5369883023482
 20
-168.0308466205481
 30
0.0
 11
-155.5308882930762
 21
-168.5306871209163
 31
0.0
  0
ARC
  5
3D4
330
1F
100
AcDbEntity
  8
TEXT
100
AcDbCircle
 10
-154.657187687458
 20
-168.6991298556562
 30
0.0
 40
0.0186683424586884
100
AcDbArc
 50
3.288025410275707
 51
105.9275278804377
  0
ARC
  5
3D5
330
1F
100
AcDbEntity
  8
TEXT
100
AcDbCircle
 10
-154.8024959389573
 20
-168.5886003210024
 30
0.0
 40
0.1679957469596828
100
AcDbArc
 50
282.162842666785
 51
326.5593609179315
  0
ARC
  5
3D6
330
1F
100
AcDbEntity
  8
TEXT
100
AcDbCircle
 10
-154.8037297224666
 20
-168.6221081983259
 30
0.0
 40
0.1357518643378255
100
AcDbArc
 50
213.1462108998138
 51
285.6537258536393
  0
ARC
  5
3D7
330
1F
100
AcDbEntity
  8
TEXT
100
AcDbCircle
 10
-154.7653848383164
 20
-168.6008660714017
 30
0.0
 40
0.179500087868065
100
AcDbArc
 50
167.0430028911395
 51
212.1309371309446
  0
ARC
  5
3D8
330
1F
100
AcDbEntity
  8
TEXT
100
AcDbCircle
 10
-154.7865138838228
 20
-168.6163233090756
 30
0.0
 40
0.163577734150781
100
AcDbArc
 50
117.3722826858103
 51
160.0902491401812
  0
ARC
  5
3D9
330
1F
100
AcDbEntity
  8
TEXT
100
AcDbCircle
 10
-154.8591571525728
 20
-168.5773165626364
 30
0.0
 40
0.2514880686065585
100
AcDbArc
 50
310.2152586008197
 51
331.3072507285895
  0
ARC
  5
3DA
330
1F
100
AcDbEntity
  8
TEXT
100
AcDbCircle
 10
-154.835148168852
 20
-168.6376779427267
 30
0.0
 40
0.1910113220746866
100
AcDbArc
 50
251.6347706403313
 51
316.4182924463649
  0
ARC
  5
3DB
330
1F
100
AcDbEntity
  8
TEXT
100
AcDbCircle
 10
-154.8634127054776
 20
-168.644876567855
 30
0.0
 40
0.1769858613605101
100
AcDbArc
 50
194.9511061487688
 51
259.6103135862126
  0
ARC
  5
3DC
330
1F
100
AcDbEntity
  8
TEXT
100
AcDbCircle
 10
-154.8448292263923
 20
-168.6389181538229
 30
0.0
 40
0.1964798170795878
100
AcDbArc
 50
135.7093780000646
 51
195.2317137751531
  0
ARC
  5
3DD
330
1F
100
AcDbEntity
  8
TEXT
100
AcDbCircle
 10
-154.8432063675918
 20
-168.6108854416899
 30
0.0
 40
0.1793237531693766
100
AcDbArc
 50
97.06566064011491
 51
142.4986334312247
  0
ARC
  5
3DE
330
1F
100
AcDbEntity
  8
TEXT
100
AcDbCircle
 10
-154.8223761881864
 20
-169.047639707759
 30
0.0
 40
0.5779205517450058
100
AcDbArc
 50
86.31431733544657
 51
93.90381943516564
  0
ARC
  5
3DF
330
1F
100
AcDbEntity
  8
TEXT
100
AcDbCircle
 10
-154.8346127102069
 20
-168.5220154304611
 30
0.0
 40
0.0710660283707951
100
AcDbArc
 50
16.7168444073072
 51
45.97719400399685
  0
ARC
  5
3E0
330
1F
100
AcDbEntity
  8
TEXT
100
AcDbCircle
 10
-154.6973311174125
 20
-168.5015609532328
 30
0.0
 40
0.0692189600893416
100
AcDbArc
 50
180.010674400693
 51
201.8251852718047
  0
ARC
  5
3E1
330
1F
100
AcDbEntity
  8
TEXT
100
AcDbCircle
 10
-154.7093787600158
 20
-168.5027980290272
 30
0.0
 40
0.0576712024240626
100
AcDbArc
 50
205.1359642898991
 51
307.6679722285764
  0
ARC
  5
3E2
330
1F
100
AcDbEntity
  8
TEXT
100
AcDbCircle
 10
-154.720743209958
 20
-168.5109168097268
 30
0.0
 40
0.0598397141716817
100
AcDbArc
 50
321.1558234807572
 51
36.94217904229983
  0
ARC
  5
3E3
330
1F
100
AcDbEntity
  8
TEXT
100
AcDbCircle
 10
-154.7733993913115
 20
-168.5692052676312
 30
0.0
 40
0.1377690787645897
100
AcDbArc
 50
43.16761867318999
 51
81.57335966331341
  0
ARC
  5
3E4
330
1F
100
AcDbEntity
  8
TEXT
100
AcDbCircle
 10
-154.8092373462717
 20
-169.027980082597
 30
0.0
 40
0.5976883502454575
100
AcDbArc
 50
84.62122141578806
 51
95.37877858421195
  0
ARC
  5
3E5
330
1F
100
AcDbEntity
  8
TEXT
100
AcDbCircle
 10
-154.2043262628243
 20
-168.6857786497999
 30
0.0
 40
0.0142633461297514
100
AcDbArc
 50
349.2952029716974
 51
131.6626905469352
  0
ARC
  5
3E6
330
1F
100
AcDbEntity
  8
TEXT
100
AcDbCircle
 10
-154.3847776447362
 20
-168.6170125085095
 30
0.0
 40
0.20716515586124
100
AcDbArc
 50
296.3233923707214
 51
339.8348331475784
  0
ARC
  5
3E7
330
1F
100
AcDbEntity
  8
TEXT
100
AcDbCircle
 10
-154.4074812496468
 20
-168.5475544491649
 30
0.0
 40
0.2796837435466482
100
AcDbArc
 50
254.28478308494
 51
294.1819270465997
  0
ARC
  5
3E8
330
1F
100
AcDbEntity
  8
TEXT
100
AcDbCircle
 10
-154.3571548882565
 20
-168.5833011230071
 30
0.0
 40
0.1702340953384349
100
AcDbArc
 50
272.3792098458871
 51
327.3581874363233
  0
ARC
  5
3E9
330
1F
100
AcDbEntity
  8
TEXT
100
AcDbCircle
 10
-154.3748796459436
 20
-168.6200490714015
 30
0.0
 40
0.1356245691002922
100
AcDbArc
 50
230.8416488637728
 51
280.5326941523482
  0
ARC
  5
3EA
330
1F
100
AcDbEntity
  8
TEXT
100
AcDbCircle
 10
-154.3339508469905
 20
-168.586640902575
 30
0.0
 40
0.1876763889607835
100
AcDbArc
 50
179.2959701761241
 51
227.5915484940839
  0
ARC
  5
3EB
330
1F
100
AcDbEntity
  8
TEXT
100
AcDbCircle
 10
-154.4131055180329
 20
-168.637292589537
 30
0.0
 40
0.1927049530798322
100
AcDbArc
 50
194.1847393568171
 51
248.6586767321129
  0
ARC
  5
3EC
330
1F
100
AcDbEntity
  8
TEXT
100
AcDbCircle
 10
-154.4094473894562
 20
-168.6314004979689
 30
0.0
 40
0.1977540523086524
100
AcDbArc
 50
148.4692011102813
 51
195.5802361373398
  0
ARC
  5
3ED
330
1F
100
AcDbEntity
  8
TEXT
100
AcDbCircle
 10
-154.4106868599418
 20
-168.6255010397901
 30
0.0
 40
0.1936619594120444
100
AcDbArc
 50
108.5416613320802
 51
149.7652339536159
  0
ARC
  5
3EE
330
1F
100
AcDbEntity
  8
TEXT
100
AcDbCircle
 10
-154.4084378263464
 20
-168.7809917760649
 30
0.0
 40
0.3116827463080194
100
AcDbArc
 50
82.99970676551488
 51
97.00029323448513
  0
ARC
  5
3EF
330
1F
100
AcDbEntity
  8
TEXT
100
AcDbCircle
 10
-154.3986653804729
 20
-168.5481073213717
 30
0.0
 40
0.0815132982162193
100
AcDbArc
 50
358.1908821763629
 51
69.7495758340291
  0
ARC
  5
3F0
330
1F
100
AcDbEntity
  8
TEXT
100
AcDbCircle
 10
-154.4220146996626
 20
-168.5701333685404
 30
0.0
 40
0.1014802542068989
100
AcDbArc
 50
103.9179608005984
 51
168.9486088950471
  0
LINE
  5
3F1
330
1F
100
AcDbEntity
  8
TEXT
100
AcDbLine
 10
-154.5216130678708
 20
-168.5506806812141
 30
0.0
 11
-154.3171927126314
 21
-168.5506806812141
 31
0.0
  0
ARC
  5
3F2
330
1F
100
AcDbEntity
  8
TEXT
100
AcDbCircle
 10
-154.3956763922802
 20
-168.6986201083243
 30
0.0
 40
0.2679107432910981
100
AcDbArc
 50
78.15621523985548
 51
106.6122408520356
  0
ARC
  5
3F3
330
1F
100
AcDbEntity
  8
TEXT
100
AcDbCircle
 10
-154.3514881144536
 20
-168.5777505242717
 30
0.0
 40
0.1417494991403299
100
AcDbArc
 50
357.337623744369
 51
85.63084243886233
  0
LINE
  5
3F4
330
1F
100
AcDbEntity
  8
TEXT
100
AcDbLine
 10
-154.5216130678708
 20
-168.5843348609913
 30
0.0
 11
-154.2098916207947
 21
-168.5843348609913
 31
0.0
  0
ARC
  5
3F5
330
1F
100
AcDbEntity
  8
TEXT
100
AcDbCircle
 10
-153.4596005270552
 20
-169.6826425163363
 30
0.0
 40
0.1215357954785093
100
AcDbArc
 50
325.2939034707323
 51
356.4132772462207
  0
ARC
  5
3F6
330
1F
100
AcDbEntity
  8
TEXT
100
AcDbCircle
 10
-153.4549903129719
 20
-169.6995335593714
 30
0.0
 40
0.1087134105196137
100
AcDbArc
 50
261.8576121462839
 51
331.2394802847383
  0
ARC
  5
3F7
330
1F
100
AcDbEntity
  8
TEXT
100
AcDbCircle
 10
-153.4918308300393
 20
-169.7332000328935
 30
0.0
 40
0.0769971196622154
100
AcDbArc
 50
203.9135879631547
 51
286.1701931802542
  0
ARC
  5
3F8
330
1F
100
AcDbEntity
  8
TEXT
100
AcDbCircle
 10
-153.7772261708201
 20
-169.74926437223
 30
0.0
 40
0.0328532188386484
100
AcDbArc
 50
155.9964711746264
 51
271.4218156194853
  0
LINE
  5
3F9
330
1F
100
AcDbEntity
  8
TEXT
100
AcDbLine
 10
-153.7360984765304
 20
-169.7797378516279
 30
0.0
 11
-153.7764109899095
 21
-169.7821074760442
 31
0.0
  0
LINE
  5
3FA
330
1F
100
AcDbEntity
  8
TEXT
100
AcDbLine
 10
-153.7384697686591
 20
-169.8069884628749
 30
0.0
 11
-153.7360984765304
 21
-169.7797378516279
 31
0.0
  0
ARC
  5
3FB
330
1F
100
AcDbEntity
  8
TEXT
100
AcDbCircle
 10
-153.9980821625326
 20
-169.6413518293274
 30
0.0
 40
0.1489854025161212
100
AcDbArc
 50
257.5730930866192
 51
314.4273867462272
  0
ARC
  5
3FC
330
1F
100
AcDbEntity
  8
TEXT
100
AcDbCircle
 10
-153.9971323008427
 20
-169.7165375850171
 30
0.0
 40
0.0776728586854118
100
AcDbArc
 50
188.1927496775747
 51
244.8496170020153
  0
ARC
  5
3FD
330
1F
100
AcDbEntity
  8
TEXT
100
AcDbCircle
 10
-154.6324688652138
 20
-169.6778442567086
 30
0.0
 40
0.0373825093925913
100
AcDbArc
 50
253.9290889125599
 51
38.65267477511274
  0
ARC
  5
3FE
330
1F
100
AcDbEntity
  8
TEXT
100
AcDbCircle
 10
-154.4975551533734
 20
-169.7346306368551
 30
0.0
 40
0.1014039048372043
100
AcDbArc
 50
330.1916644163819
 51
19.9131875818813
  0
ARC
  5
3FF
330
1F
100
AcDbEntity
  8
TEXT
100
AcDbCircle
 10
-154.4749381697511
 20
-169.8586653317961
 30
0.0
 40
0.071792592412612
100
AcDbArc
 50
67.37252950712522
 51
112.6274704928675
  0
ARC
  5
400
330
1F
100
AcDbEntity
  8
TEXT
100
AcDbCircle
 10
-154.7836940171962
 20
-169.6507479345069
 30
0.0
 40
0.1543291742868731
100
AcDbArc
 50
287.1920036507392
 51
335.899750405154
  0
LINE
  5
401
330
1F
100
AcDbEntity
  8
TEXT
100
AcDbLine
 10
-155.0452355487387
 20
-169.9199686539631
 30
0.0
 11
-155.0051731017354
 21
-169.945323250432
 31
0.0
  0
LINE
  5
402
330
1F
100
AcDbEntity
  8
BORDER
100
AcDbLine
 10
-156.3854213340356
 20
-170.3016180492772
 30
0.0
 11
-144.2603843679435
 21
-170.3016180492772
 31
0.0
  0
LINE
  5
403
330
1F
100
AcDbEntity
  8
BORDER
100
AcDbLine
 10
-156.3854213340356
 20
-167.9598660656195
 30
0.0
 11
-144.2603843679435
 21
-167.9598660656195
 31
0.0
  0
TEXT
  5
404
330
1F
100
AcDbEntity
  8
TEXT
100
AcDbText
 10
-150.0496984528963
 20
-170.2196567298492
 30
0.0
 40
0.2341751983657752
  1
FAX  724-837-3386
 72
     1
 11
-148.0982384665148
 21
-170.1025691306663
 31
0.0
100
AcDbText
 73
     2
  0
TEXT
  5
405
330
1F
100
AcDbEntity
  8
TEXT
100
AcDbText
 10
-151.1815452449975
 20
-168.3696726627595
 30
0.0
 40
0.2341751983657752
  1
INDUSTRIAL COOLING EQUIPMENT
 72
     1
 11
-148.0982384665148
 21
-168.2525850635767
 31
0.0
100
AcDbText
 73
     2
  0
TEXT
  5
406
330
1F
100
AcDbEntity
  8
TEXT
100
AcDbText
 10
-150.0106692531686
 20
-168.8146055396545
 30
0.0
 40
0.2341751983657752
  1
141 WILSON AVENUE
 72
     1
 11
-148.0982384665148
 21
-168.6975179404716
 31
0.0
100
AcDbText
 73
     2
  0
TEXT
  5
407
330
1F
100
AcDbEntity
  8
TEXT
100
AcDbText
 10
-150.3619320507173
 20
-169.282955936386
 30
0.0
 40
0.2341751983657752
  1
GREENSBURG, PA  15601
 72
     1
 11
-148.0982384665148
 21
-169.1658683372032
 31
0.0
100
AcDbText
 73
     2
  0
TEXT
  5
408
330
1F
100
AcDbEntity
  8
TEXT
100
AcDbText
 10
-151.6303810418652
 20
-169.7513063331177
 30
0.0
 40
0.2341751983657752
  1
724-837-2204  *  1-888-867-8234
 72
     1
 11
-148.0982384665148
 21
-169.6342187339348
 31
0.0
100
AcDbText
 73
     2
  0
LWPOLYLINE
  5
409
330
1F
100
AcDbEntity
  8
BORDER
100
AcDbPolyline
 90
        4
 70
     1
 43
0.0
 10
-215.4470643009195
 20
-80.46247589000463
 10
-144.2603843679437
 20
-80.46247589000463
 10
-144.2603843679437
 20
-174.1325552363145
 10
-215.4470643009195
 20
-174.1325552363145
  0
TEXT
  5
40A
330
1F
100
AcDbEntity
  8
TEXT
100
AcDbText
 10
-169.0840502118512
 20
-173.7812924387659
 30
0.0
 40
0.2341751983657752
  1
ICE QUBE, INC.
 72
     1
 11
-167.6985136215204
 21
-173.664204839583
 31
0.0
100
AcDbText
 73
     2
  0
TEXT
  5
40B
330
1F
100
AcDbEntity
  8
TEXT
100
AcDbText
 10
-171.6794919937385
 20
-173.4300296412173
 30
0.0
 40
0.2341751983657752
  1
OR ALTERED WITHOUT AUTHORIZATION OF
 72
     1
 11
-167.6985136215204
 21
-173.3129420420344
 31
0.0
100
AcDbText
 73
     2
  0
TEXT
  5
40C
330
1F
100
AcDbEntity
  8
TEXT
100
AcDbText
 10
-171.8551233925129
 20
-173.0787668436687
 30
0.0
 40
0.2341751983657752
  1
QUBE, INC. AND IS NOT TO BE DUPLICATED
 72
     1
 11
-167.6985136215204
 21
-172.9616792444858
 31
0.0
100
AcDbText
 73
     2
  0
TEXT
  5
40D
330
1F
100
AcDbEntity
  8
TEXT
100
AcDbText
 10
-171.6404627940109
 20
-172.7275040461199
 30
0.0
 40
0.2341751983657752
  1
THIS DRAWING IS THE PROPERTY OF ICE
 72
     1
 11
-167.6985136215204
 21
-172.610416446937
 31
0.0
100
AcDbText
 73
     2
  0
TEXT
  5
40E
330
1F
100
AcDbEntity
  8
TEXT
100
AcDbText
 10
-171.9917255915596
 20
-172.2591536493883
 30
0.0
 40
0.4683503967315506
  1
PROPRIETARY DRAWING
 72
     1
 11
-167.6985136215204
 21
-172.0249784510226
 31
0.0
100
AcDbText
 73
     2
  0
LINE
  5
40F
330
1F
100
AcDbEntity
  8
THERMOSTATCVR
100
AcDbLine
 10
-162.9423268882776
 20
-171.2383188427403
 30
0.0
 11
-172.3657246646457
 21
-171.2383188427403
 31
0.0
  0
LINE
  5
410
330
1F
100
AcDbEntity
  8
THERMOSTATCVR
100
AcDbLine
 10
-172.3657246646457
 20
-171.2383188427403
 30
0.0
 11
-172.3657246646457
 21
-174.1325552363145
 31
0.0
  0
TEXT
  5
416
330
1F
100
AcDbEntity
  8
TEXT
100
AcDbText
 10
-207.368299774764
 20
-173.9413041526417
 30
0.0
 40
0.3825021673460746
  1
REVISIONS
 72
     1
 11
-205.7745407441554
 21
-173.7500530689687
 31
0.0
100
AcDbText
 73
     2
  0
LINE
  5
417
330
1F
100
AcDbEntity
  8
BORDER
100
AcDbLine
 10
-190.591303496144
 20
-171.0725378975458
 30
0.0
 11
-190.591303496144
 21
-174.1325552363145
 31
0.0
  0
LINE
  5
418
330
1F
100
AcDbEntity
  8
BORDER
100
AcDbLine
 10
-215.4470643009195
 20
-173.3675509016226
 30
0.0
 11
-190.591303496144
 21
-173.3675509016226
 31
0.0
  0
LINE
  5
419
330
1F
100
AcDbEntity
  8
BORDER
100
AcDbLine
 10
-197.7754641695306
 20
-173.3675509016226
 30
0.0
 11
-197.7754641695306
 21
-172.6025465669304
 31
0.0
  0
TEXT
  5
41A
330
1F
100
AcDbEntity
  8
TEXT
100
AcDbText
 10
-196.7937086066758
 20
-173.1762998179496
 30
0.0
 40
0.3825021673460746
  1
DATE
 72
     1
 11
-196.092454633208
 21
-172.9850487342766
 31
0.0
100
AcDbText
 73
     2
  0
LINE
  5
41B
330
1F
100
AcDbEntity
  8
BORDER
100
AcDbLine
 10
-194.4094450968853
 20
-173.3675509016226
 30
0.0
 11
-194.4094450968853
 21
-172.6025465669304
 31
0.0
  0
TEXT
  5
41C
330
1F
100
AcDbEntity
  8
TEXT
100
AcDbText
 10
-193.7753815210016
 20
-173.1762998179496
 30
0.0
 40
0.3825021673460746
  1
CHECKED
 72
     1
 11
-192.5003742965147
 21
-172.9850487342766
 31
0.0
100
AcDbText
 73
     2
  0
TEXT
  5
41D
330
1F
100
AcDbEntity
  8
TEXT
100
AcDbText
 10
-207.6870515808858
 20
-173.1762998179496
 30
0.0
 40
0.3825021673460746
  1
DESCRIPTION
 72
     1
 11
-205.7745407441554
 21
-172.9850487342766
 31
0.0
100
AcDbText
 73
     2
  0
LINE
  5
41E
330
1F
100
AcDbEntity
  8
BORDER
100
AcDbLine
 10
-213.7736173187803
 20
-173.3675509016226
 30
0.0
 11
-213.7736173187803
 21
-172.6025465669304
 31
0.0
  0
TEXT
  5
41F
330
1F
100
AcDbEntity
  8
TEXT
100
AcDbText
 10
-215.184094060869
 20
-173.1762998179496
 30
0.0
 40
0.3825021673460746
  1
REV
 72
     1
 11
-214.6103408098499
 21
-172.9850487342766
 31
0.0
100
AcDbText
 73
     2
  0
LINE
  5
420
330
1F
100
AcDbEntity
  8
BORDER
100
AcDbLine
 10
-190.591303496144
 20
-172.6025465669304
 30
0.0
 11
-215.4470643009195
 21
-172.6025465669304
 31
0.0
  0
LINE
  5
421
330
1F
100
AcDbEntity
  8
BORDER
100
AcDbLine
 10
-190.591303496144
 20
-173.3675509016226
 30
0.0
 11
-215.4470643009195
 21
-173.3675509016226
 31
0.0
  0
LINE
  5
422
330
1F
100
AcDbEntity
  8
BORDER
100
AcDbLine
 10
-197.7754641695306
 20
-172.6025465669304
 30
0.0
 11
-197.7754641695306
 21
-171.0725378975458
 31
0.0
  0
TEXT
  5
423
330
1F
100
AcDbEntity
  8
TEXT
100
AcDbText
 10
-197.2718363158584
 20
-172.4112954832573
 30
0.0
 40
0.3825021673460746
  1
3-16-06
 72
     1
 11
-196.092454633208
 21
-172.2200443995843
 31
0.0
100
AcDbText
 73
     2
  0
LINE
  5
424
330
1F
100
AcDbEntity
  8
BORDER
100
AcDbLine
 10
-194.4094450968853
 20
-172.6025465669304
 30
0.0
 11
-194.4094450968853
 21
-171.0725378975458
 31
0.0
  0
TEXT
  5
425
330
1F
100
AcDbEntity
  8
TEXT
100
AcDbText
 10
-193.0103771863095
 20
-172.4112954832573
 30
0.0
 40
0.3825021673460746
  1
GFD
 72
     1
 11
-192.5003742965147
 21
-172.2200443995843
 31
0.0
100
AcDbText
 73
     2
  0
TEXT
  5
426
330
1F
100
AcDbEntity
  8
TEXT
100
AcDbText
 10
-208.3883055543536
 20
-172.4112954832573
 30
0.0
 40
0.3825021673460746
  1
INITIAL RELEASE
 72
     1
 11
-205.7745407441554
 21
-172.2200443995843
 31
0.0
100
AcDbText
 73
     2
  0
LINE
  5
427
330
1F
100
AcDbEntity
  8
BORDER
100
AcDbLine
 10
-213.7736173187803
 20
-172.6025465669304
 30
0.0
 11
-213.7736173187803
 21
-171.0725378975458
 31
0.0
  0
TEXT
  5
428
330
1F
100
AcDbEntity
  8
TEXT
100
AcDbText
 10
-214.7059663516864
 20
-172.4112954832573
 30
0.0
 40
0.3825021673460746
  1
0
 72
     1
 11
-214.6103408098499
 21
-172.2200443995843
 31
0.0
100
AcDbText
 73
     2
  0
LINE
  5
429
330
1F
100
AcDbEntity
  8
BORDER
100
AcDbLine
 10
-190.591303496144
 20
-171.8375422322381
 30
0.0
 11
-215.4470643009195
 21
-171.8375422322381
 31
0.0
  0
LINE
  5
436
330
1F
100
AcDbEntity
  8
0
100
AcDbLine
 10
-189.7826125818236
 20
-130.602825977418
 30
0.0
 11
-188.7826125818236
 21
-130.602825977418
 31
0.0
  0
DIMENSION
  5
437
330
1F
100
AcDbEntity
  8
0
100
AcDbDimension
  2
*D33
 10
-187.8197489756316
 20
-148.342561312917
 30
0.0
 11
-180.9326451905358
 21
-121.0925155631595
 31
0.0
 70
    38
 71
     5
 42
27.25004574975745
  3
Standard
100
AcDbOrdinateDimension
 13
-175.7287243344315
 23
-121.0925155631595
 33
0.0
 14
-178.4259785238691
 24
-121.0925155631595
 34
0.0
  0
DIMENSION
  5
438
330
1F
100
AcDbEntity
  8
0
100
AcDbDimension
  2
*D34
 10
-187.8197489756316
 20
-148.342561312917
 30
0.0
 11
-178.8521560897451
 21
-133.2010005776819
 31
0.0
 70
   102
 71
     5
 42
12.09102464120008
  3
Standard
100
AcDbOrdinateDimension
 13
-175.7287243344315
 23
-121.0925155631595
 33
0.0
 14
-178.8521560897451
 24
-131.0276672443486
 34
0.0
  0
MTEXT
  5
439
330
1F
100
AcDbEntity
  8
0
100
AcDbMText
 10
-177.172716273109
 20
-133.3889764491366
 30
0.0
 40
1.0
 41
0.0
 71
     5
 72
     1
  1
\A1;14.341
 11
0.0000000000000001
 21
1.0
 31
0.0
 73
     1
 44
1.0
1001
ACAD
1000
MTEXTBEGIN
1070
    73
1070
     1
1070
    44
1040
1.0
1070
    74
1070
     0
1000
MTEXTEND
  0
LINE
  5
43A
330
1F
100
AcDbEntity
  8
0
100
AcDbLine
 10
-177.1727162731089
 20
-128.84730978247
 30
0.0
 11
-177.1727162731089
 21
-130.84730978247
 31
0.0
  0
LINE
  5
43B
330
1F
100
AcDbEntity
  8
0
100
AcDbLine
 10
-174.141352808338
 20
-127.206069890725
 30
0.0
 11
-177.1727162731089
 21
-128.84730978247
 31
0.0
  0
LINE
  5
43C
330
1F
100
AcDbEntity
  8
0
100
AcDbLine
 10
-173.4787243344315
 20
-119.7175155631594
 30
0.0
 11
-173.4787243344315
 21
-120.6114085270757
 31
0.0
  0
LINE
  5
43D
330
1F
100
AcDbEntity
  8
0
100
AcDbLine
 10
-174.1413528083379
 20
-120.6114085270757
 30
0.0
 11
-174.141352808338
 21
-127.206069890725
 31
0.0
  0
LINE
  5
43E
330
1F
100
AcDbEntity
  8
0
100
AcDbLine
 10
-173.4787243344315
 20
-120.6114085270757
 30
0.0
 11
-174.1413528083379
 21
-120.6114085270757
 31
0.0
  0
LINE
  5
440
330
1F
100
AcDbEntity
  8
0
100
AcDbLine
 10
-173.2287243344315
 20
-122.984586581976
 30
0.0
 11
-173.2287243344315
 21
-122.2004445443433
 31
0.0
  0
DIMENSION
  5
441
330
1F
100
AcDbEntity
  8
0
100
AcDbDimension
  2
*D35
 10
-187.8197243344315
 20
-148.3425155631595
 30
0.0
 11
-166.4644625269978
 21
-123.7683963110331
 31
0.0
 70
    38
  1
25.000
 71
     5
 42
25.0
  3
Standard
100
AcDbOrdinateDimension
 13
-173.2287243344315
 23
-123.3425155631595
 33
0.0
 14
-168.8044625269978
 24
-123.7683963110331
 34
0.0
  0
MTEXT
  5
442
102
{ACAD_REACTORS
330
443
102
}
330
1F
100
AcDbEntity
  8
0
100
AcDbMText
 10
-168.6635479902103
 20
-125.3069621264954
 30
0.0
 40
1.0
 41
8.294444444444442
 71
     1
 72
     1
  1
%%C1.250 (1) OPTIONAL:\PEXTERNAL HEAT OUTPUT
 73
     1
 44
1.0
1001
ACAD
1000
MTEXTBEGIN
1070
    73
1070
     1
1070
    44
1040
1.0
1070
    74
1070
     0
1000
MTEXTEND
  0
LEADER
  5
443
330
1F
100
AcDbEntity
  8
0
100
AcDbLeader
  3
Standard
 73
     0
 40
7.666666666666666
 41
7.666666666666666
 76
     3
 10
-172.6726417280215
 20
-123.8814533070443
 30
0.0
 10
-170.139789038048
 20
-125.8069621264955
 30
0.0
 10
-169.0385479902103
 20
-125.8069621264954
 30
0.0
340
442
213
0.0
223
-0.5
233
0.0
1001
ACAD
1000
DSTYLE
1002
{
1070
   147
1040
0.375
1070
    77
1070
     0
1002
}
  0
LEADER
  5
444
330
1F
100
AcDbEntity
  8
0
100
AcDbLeader
  3
Standard
 76
     3
 10
-172.7072503426119
 20
-121.3170448142216
 30
0.0
 10
-170.8642536063004
 20
-120.3714567517551
 30
0.0
 10
-168.9714464263133
 20
-120.3714567517551
 30
0.0
1001
ACAD
1000
DSTYLE
1002
{
1070
   147
1040
0.375
1070
    77
1070
     0
1002
}
  0
DIMENSION
  5
445
330
1F
100
AcDbEntity
  8
0
100
AcDbDimension
  2
*D36
 10
-187.8197243344315
 20
-148.3425155631595
 30
0.0
 11
-175.5535299573836
 21
-133.2412617733762
 31
0.0
 70
   102
  1
14.591
 71
     5
 42
14.59100000000001
  3
Standard
100
AcDbOrdinateDimension
 13
-173.2287243344315
 23
-123.3425155631595
 33
0.0
 14
-175.5535299573836
 24
-130.9845951067095
 34
0.0
  0
TEXT
  5
447
330
1F
100
AcDbEntity
  8
DIM
100
AcDbText
 10
-186.4817438745647
 20
-87.5693958825099
 30
0.0
 40
1.25
  1
IQ5000V16HA
 72
     1
 11
-180.3359105412314
 21
-87.5693958825099
 31
0.0
100
AcDbText
  0
TEXT
  5
448
330
1F
100
AcDbEntity
  8
DIM
100
AcDbText
 10
-188.8775772078981
 20
-93.8193958825099
 30
0.0
 40
1.25
  1
CUTOUT DRAWING
 72
     1
 11
-180.3359105412314
 21
-93.8193958825099
 31
0.0
100
AcDbText
  0
TEXT
  5
449
330
1F
100
AcDbEntity
  8
DIM
100
AcDbText
 10
-185.2317438745647
 20
-91.73606254917658
 30
0.0
 40
1.25
  1
IQ8000V16
 72
     1
 11
-180.3359105412314
 21
-91.73606254917658
 31
0.0
100
AcDbText
  0
TEXT
  5
44A
330
1F
100
AcDbEntity
  8
DIM
100
AcDbText
 10
-186.4817438745647
 20
-89.65272921584318
 30
0.0
 40
1.25
  1
IQ6000V16HA
 72
     1
 11
-180.3359105412314
 21
-89.65272921584318
 31
0.0
100
AcDbText
  0
CIRCLE
  5
44B
330
1F
100
AcDbEntity
  8
TEMPLATE
100
AcDbCircle
 10
-186.7887243344316
 20
-147.0925155631597
 30
0.0
 40
0.1875
  0
CIRCLE
  5
44C
330
1F
100
AcDbEntity
  8
TEMPLATE
100
AcDbCircle
 10
-172.9187243344313
 20
-147.0925155631597
 30
0.0
 40
0.1875
  0
CIRCLE
  5
44D
330
1F
100
AcDbEntity
  8
TEMPLATE
100
AcDbCircle
 10
-186.7887243344316
 20
-136.8425314331632
 30
0.0
 40
0.1875
  0
CIRCLE
  5
44E
330
1F
100
AcDbEntity
  8
TEMPLATE
100
AcDbCircle
 10
-172.9187243344313
 20
-136.8425314331623
 30
0.0
 40
0.1875
  0
LINE
  5
44F
330
1F
100
AcDbEntity
  8
TEMPLATE
100
AcDbLine
 10
-187.2287243344316
 20
-115.2175155631599
 30
0.0
 11
-187.2287243344316
 21
-118.4675155631594
 31
0.0
  0
LINE
  5
450
330
1F
100
AcDbEntity
  8
TEMPLATE
100
AcDbLine
 10
-172.4787243344317
 20
-118.4675155631594
 30
0.0
 11
-187.2287243344316
 21
-118.4675155631594
 31
0.0
  0
LINE
  5
451
330
1F
100
AcDbEntity
  8
TEMPLATE
100
AcDbLine
 10
-187.2287243344316
 20
-115.2175155631599
 30
0.0
 11
-172.4787243344315
 21
-115.2175155631598
 31
0.0
  0
LINE
  5
452
330
1F
100
AcDbEntity
  8
TEMPLATE
100
AcDbLine
 10
-172.4787243344317
 20
-118.4675155631594
 30
0.0
 11
-172.4787243344315
 21
-115.2175155631598
 31
0.0
  0
CIRCLE
  5
453
330
1F
100
AcDbEntity
  8
TEMPLATE
100
AcDbCircle
 10
-186.2287243344316
 20
-119.3425155631594
 30
0.0
 40
0.1875
  0
CIRCLE
  5
454
330
1F
100
AcDbEntity
  8
TEMPLATE
100
AcDbCircle
 10
-173.4787243344315
 20
-119.3425155631594
 30
0.0
 40
0.1875
  0
CIRCLE
  5
455
330
1F
100
AcDbEntity
  8
TEMPLATE
100
AcDbCircle
 10
-187.2912243344316
 20
-110.3425155631595
 30
0.0
 40
0.1875
  0
CIRCLE
  5
456
330
1F
100
AcDbEntity
  8
TEMPLATE
100
AcDbCircle
 10
-172.4167243344314
 20
-110.3425155631595
 30
0.0
 40
0.1875
  0
LINE
  5
457
330
1F
100
AcDbEntity
  8
TEMPLATE
100
AcDbLine
 10
-186.3277243344313
 20
-107.4640155631594
 30
0.0
 11
-186.3277243344313
 21
-110.3015155631597
 31
0.0
  0
LINE
  5
458
330
1F
100
AcDbEntity
  8
TEMPLATE
100
AcDbLine
 10
-181.8777243344315
 20
-110.3015155631598
 30
0.0
 11
-186.3277243344313
 21
-110.3015155631597
 31
0.0
  0
LINE
  5
459
330
1F
100
AcDbEntity
  8
TEMPLATE
100
AcDbLine
 10
-181.8777243344315
 20
-110.3015155631598
 30
0.0
 11
-181.8777243344315
 21
-107.4640155631594
 31
0.0
  0
LINE
  5
45A
330
1F
100
AcDbEntity
  8
TEMPLATE
100
AcDbLine
 10
-186.3277243344313
 20
-107.4640155631594
 30
0.0
 11
-181.8777243344315
 21
-107.4640155631594
 31
0.0
  0
LINE
  5
45B
330
1F
100
AcDbEntity
  8
TEMPLATE
100
AcDbLine
 10
-177.8267243344316
 20
-107.4640155631593
 30
0.0
 11
-177.8267243344316
 21
-110.3015155631597
 31
0.0
  0
LINE
  5
45C
330
1F
100
AcDbEntity
  8
TEMPLATE
100
AcDbLine
 10
-173.3767243344314
 20
-110.3015155631597
 30
0.0
 11
-177.8267243344316
 21
-110.3015155631597
 31
0.0
  0
LINE
  5
45D
330
1F
100
AcDbEntity
  8
TEMPLATE
100
AcDbLine
 10
-173.3767243344314
 20
-110.3015155631597
 30
0.0
 11
-173.3767243344316
 21
-107.4640155631594
 31
0.0
  0
LINE
  5
45E
330
1F
100
AcDbEntity
  8
TEMPLATE
100
AcDbLine
 10
-177.8267243344316
 20
-107.4640155631593
 30
0.0
 11
-173.3767243344316
 21
-107.4640155631594
 31
0.0
  0
LINE
  5
45F
330
1F
100
AcDbEntity
  8
TEMPLATE
  6
DASHDOT
100
AcDbLine
 10
-171.8877243344316
 20
-106.2525155631597
 30
0.0
 11
-187.8197243344315
 21
-106.2525155631597
 31
0.0
  0
LINE
  5
460
330
1F
100
AcDbEntity
  8
TEMPLATE
  6
DASHDOT
100
AcDbLine
 10
-171.8877243344316
 20
-106.2525155631597
 30
0.0
 11
-171.8877243344316
 21
-148.3425155631595
 31
0.0
  0
LINE
  5
461
330
1F
100
AcDbEntity
  8
TEMPLATE
100
AcDbLine
 10
-171.4787243344315
 20
-147.5925155631597
 30
0.0
 11
-171.8877243344316
 21
-147.5925155631597
 31
0.0
  0
LINE
  5
462
330
1F
100
AcDbEntity
  8
TEMPLATE
  6
HIDDEN
100
AcDbLine
 10
-171.4787243344315
 20
-147.6415155631595
 30
0.0
 11
-171.8877243344316
 21
-147.6415155631598
 31
0.0
  0
LINE
  5
463
330
1F
100
AcDbEntity
  8
TEMPLATE
100
AcDbLine
 10
-171.4787243344315
 20
-148.0925155631597
 30
0.0
 11
-171.8877243344316
 21
-148.0925155631597
 31
0.0
  0
LINE
  5
464
330
1F
100
AcDbEntity
  8
TEMPLATE
  6
HIDDEN
100
AcDbLine
 10
-171.4787243344315
 20
-148.0435155631597
 30
0.0
 11
-171.8877243344316
 21
-148.0435155631597
 31
0.0
  0
LINE
  5
465
330
1F
100
AcDbEntity
  8
TEMPLATE
100
AcDbLine
 10
-171.4787243344315
 20
-148.0925155631597
 30
0.0
 11
-171.4787243344315
 21
-147.5925155631597
 31
0.0
  0
LINE
  5
467
330
1F
100
AcDbEntity
  8
TEMPLATE
  6
DASHDOT
100
AcDbLine
 10
-187.8197243344315
 20
-106.2525155631597
 30
0.0
 11
-187.8197243344315
 21
-148.3425155631595
 31
0.0
  0
DIMENSION
  5
468
330
1F
100
AcDbEntity
  8
DIM
100
AcDbDimension
  2
*D19
 10
-187.8197489756316
 20
-148.342561312917
 30
0.0
 11
-193.4030576677649
 21
-148.3425155631595
 31
0.0
 70
    38
 71
     5
 42
0.0000457497574473
  3
Standard
100
AcDbOrdinateDimension
 13
-187.8197243344315
 23
-148.3425155631595
 33
0.0
 14
-190.8197243344315
 24
-148.3425155631595
 34
0.0
1001
ACAD
1000
DSTYLE
1002
{
1070
    41
1040
1.25
1070
    42
1040
0.375
1070
    43
1040
2.125
1070
    44
1040
1.0
1070
   140
1040
1.25
1070
   141
1040
0.5
1070
   147
1040
0.5
1070
   271
1070
     3
1070
   272
1070
     3
1070
   288
1070
     1
1002
}
  0
LINE
  5
469
330
1F
100
AcDbEntity
  8
TEMPLATE
  6
DASHDOT
100
AcDbLine
 10
-187.8197243344315
 20
-148.3425155631595
 30
0.0
 11
-171.8877243344316
 21
-148.3425155631595
 31
0.0
  0
DIMENSION
  5
46A
330
1F
100
AcDbEntity
  8
DIM
100
AcDbDimension
  2
*D20
 10
-187.8197489756316
 20
-148.342561312917
 30
0.0
 11
-187.8197243344315
 21
-153.3841822298264
 31
0.0
 70
   102
 71
     5
 42
0.0000246412000706
  3
Standard
100
AcDbOrdinateDimension
 13
-187.8197243344315
 23
-148.3425155631595
 33
0.0
 14
-187.8197243344315
 24
-151.3425155631597
 34
0.0
1001
ACAD
1000
DSTYLE
1002
{
1070
    41
1040
1.0
1070
    42
1040
0.375
1070
    43
1040
2.125
1070
    44
1040
1.0
1070
   140
1040
1.0
1070
   141
1040
0.5
1070
   147
1040
0.375
1070
   271
1070
     3
1070
   272
1070
     3
1070
   288
1070
     1
1002
}
  0
DIMENSION
  5
46B
330
1F
100
AcDbEntity
  8
DIM
100
AcDbDimension
  2
*D21
 10
-187.8197489756316
 20
-148.342561312917
 30
0.0
 11
-193.3197243344315
 21
-146.0925155631597
 31
0.0
 70
    38
 71
     5
 42
1.250045749757304
  3
Standard
100
AcDbOrdinateDimension
 13
-186.7887243344316
 23
-147.0925155631597
 33
0.0
 14
-191.1947243344315
 24
-146.0925155631597
 34
0.0
1001
ACAD
1000
DSTYLE
1002
{
1070
    41
1040
1.0
1070
    42
1040
0.375
1070
    43
1040
2.125
1070
    44
1040
1.0
1070
   140
1040
1.0
1070
   141
1040
0.5
1070
   147
1040
0.375
1070
   271
1070
     3
1070
   272
1070
     3
1070
   288
1070
     1
1002
}
  0
DIMENSION
  5
46C
330
1F
100
AcDbEntity
  8
DIM
100
AcDbDimension
  2
*D22
 10
-187.8197489756316
 20
-148.342561312917
 30
0.0
 11
-185.7887243344316
 21
-153.3008488964931
 31
0.0
 70
   102
 71
     5
 42
1.031024641200019
  3
Standard
100
AcDbOrdinateDimension
 13
-186.7887243344316
 23
-147.0925155631597
 33
0.0
 14
-185.7887243344316
 24
-151.3425155631597
 34
0.0
1001
ACAD
1000
DSTYLE
1002
{
1070
    41
1040
1.0
1070
    42
1040
0.375
1070
    43
1040
2.125
1070
    44
1040
1.0
1070
   140
1040
1.0
1070
   141
1040
0.5
1070
   147
1040
0.375
1070
   271
1070
     3
1070
   272
1070
     3
1070
   288
1070
     1
1002
}
  0
DIMENSION
  5
46D
330
1F
100
AcDbEntity
  8
DIM
100
AcDbDimension
  2
*D23
 10
-187.8197489756316
 20
-148.342561312917
 30
0.0
 11
-173.9187243344313
 21
-153.8008488964931
 31
0.0
 70
   102
 71
     5
 42
14.90102464120031
  3
Standard
100
AcDbOrdinateDimension
 13
-172.9187243344313
 23
-147.0925155631597
 33
0.0
 14
-173.9187243344313
 24
-151.3425155631597
 34
0.0
1001
ACAD
1000
DSTYLE
1002
{
1070
    41
1040
1.0
1070
    42
1040
0.375
1070
    43
1040
2.125
1070
    44
1040
1.0
1070
   140
1040
1.0
1070
   141
1040
0.5
1070
   147
1040
0.375
1070
   271
1070
     3
1070
   272
1070
     3
1070
   288
1070
     1
1002
}
  0
DIMENSION
  5
46E
330
1F
100
AcDbEntity
  8
DIM
100
AcDbDimension
  2
*D24
 10
-187.8197489756316
 20
-148.342561312917
 30
0.0
 11
-193.1947243344315
 21
-136.8425314331632
 31
0.0
 70
    38
 71
     5
 42
11.50002987975384
  3
Standard
100
AcDbOrdinateDimension
 13
-186.7887243344316
 23
-136.8425314331632
 33
0.0
 14
-190.8197243344315
 24
-136.8425314331632
 34
0.0
1001
ACAD
1000
DSTYLE
1002
{
1070
    41
1040
1.0
1070
    42
1040
0.375
1070
    43
1040
2.125
1070
    44
1040
1.0
1070
   140
1040
1.0
1070
   141
1040
0.5
1070
   147
1040
0.375
1070
   271
1070
     3
1070
   272
1070
     3
1070
   288
1070
     1
1002
}
  0
DIMENSION
  5
46F
330
1F
100
AcDbEntity
  8
DIM
100
AcDbDimension
  2
*D25
 10
-187.8197489756316
 20
-148.342561312917
 30
0.0
 11
-166.1793910010983
 21
-116.2175155631598
 31
0.0
 70
    38
 71
     5
 42
33.12504574975719
  3
Standard
100
AcDbOrdinateDimension
 13
-172.4787243344315
 23
-115.2175155631598
 33
0.0
 14
-168.8877243344316
 24
-116.2175155631598
 34
0.0
1001
ACAD
1000
DSTYLE
1002
{
1070
    41
1040
1.0
1070
    42
1040
0.375
1070
    43
1040
2.125
1070
    44
1040
1.0
1070
   140
1040
1.0
1070
   141
1040
0.5
1070
   147
1040
0.375
1070
   271
1070
     3
1070
   272
1070
     3
1070
   288
1070
     1
1002
}
  0
DIMENSION
  5
470
330
1F
100
AcDbEntity
  8
DIM
100
AcDbDimension
  2
*D26
 10
-187.8197489756316
 20
-148.342561312917
 30
0.0
 11
-166.0127243344316
 21
-117.4675155631594
 31
0.0
 70
    38
 71
     5
 42
29.87504574975762
  3
Standard
100
AcDbOrdinateDimension
 13
-172.4787243344317
 23
-118.4675155631594
 33
0.0
 14
-168.8877243344316
 24
-117.4675155631594
 34
0.0
1001
ACAD
1000
DSTYLE
1002
{
1070
    41
1040
1.0
1070
    42
1040
0.375
1070
    43
1040
2.125
1070
    44
1040
1.0
1070
   140
1040
1.0
1070
   141
1040
0.5
1070
   147
1040
0.375
1070
   271
1070
     3
1070
   272
1070
     3
1070
   288
1070
     1
1002
}
  0
DIMENSION
  5
471
330
1F
100
AcDbEntity
  8
DIM
100
AcDbDimension
  2
*D27
 10
-187.8197489756316
 20
-148.342561312917
 30
0.0
 11
-193.4447243344315
 21
-120.3425155631594
 31
0.0
 70
    38
 71
     5
 42
29.00004574975762
  3
Standard
100
AcDbOrdinateDimension
 13
-186.2287243344316
 23
-119.3425155631594
 33
0.0
 14
-190.8197243344315
 24
-120.3425155631594
 34
0.0
1001
ACAD
1000
DSTYLE
1002
{
1070
    41
1040
1.0
1070
    42
1040
0.375
1070
    43
1040
2.125
1070
    44
1040
1.0
1070
   140
1040
1.0
1070
   141
1040
0.5
1070
   147
1040
0.375
1070
   271
1070
     3
1070
   272
1070
     3
1070
   288
1070
     1
1002
}
  0
LINE
  5
472
330
1F
100
AcDbEntity
  8
DIM
100
AcDbLine
 10
-187.2912243344316
 20
-109.9675155631597
 30
0.0
 11
-187.2912243344316
 21
-105.6275155631597
 31
0.0
  0
LINE
  5
473
330
1F
100
AcDbEntity
  8
DIM
100
AcDbLine
 10
-188.8537243344316
 20
-103.6275155631597
 30
0.0
 11
-187.2912243344316
 21
-105.6275155631597
 31
0.0
  0
LINE
  5
474
330
1F
100
AcDbEntity
  8
DIM
100
AcDbLine
 10
-188.8537243344316
 20
-103.2525155631597
 30
0.0
 11
-188.8537243344316
 21
-103.6275155631597
 31
0.0
  0
TEXT
  5
475
330
1F
100
AcDbEntity
  8
DIM
100
AcDbText
 10
-188.3537243344316
 20
-102.8775155631597
 30
0.0
 40
1.0
  1
0.529
 50
90.0
 11
-188.8537243344316
 21
-102.8775155631597
 31
0.0
100
AcDbText
 73
     2
  0
LINE
  5
476
330
1F
100
AcDbEntity
  8
DIM
100
AcDbLine
 10
-187.2287243344316
 20
-114.8425155631598
 30
0.0
 11
-187.2287243344316
 21
-111.0925155631597
 31
0.0
  0
LINE
  5
477
330
1F
100
AcDbEntity
  8
DIM
100
AcDbLine
 10
-187.3537243344316
 20
-103.2525155631597
 30
0.0
 11
-187.3537243344316
 21
-103.6275155631597
 31
0.0
  0
TEXT
  5
478
330
1F
100
AcDbEntity
  8
DIM
100
AcDbText
 10
-186.8537243344316
 20
-102.8775155631597
 30
0.0
 40
1.0
  1
0.591
 50
90.0
 11
-187.3537243344316
 21
-102.8775155631597
 31
0.0
100
AcDbText
 73
     2
  0
LINE
  5
479
330
1F
100
AcDbEntity
  8
DIM
100
AcDbLine
 10
-186.3277243344316
 20
-107.0890155631594
 30
0.0
 11
-186.3277243344316
 21
-105.6275155631597
 31
0.0
  0
LINE
  5
47A
330
1F
100
AcDbEntity
  8
DIM
100
AcDbLine
 10
-185.8537243344316
 20
-103.2525155631597
 30
0.0
 11
-185.8537243344316
 21
-103.6275155631597
 31
0.0
  0
LINE
  5
47B
330
1F
100
AcDbEntity
  8
DIM
100
AcDbLine
 10
-185.8537243344316
 20
-103.6275155631597
 30
0.0
 11
-186.3277243344313
 21
-105.6275155631597
 31
0.0
  0
TEXT
  5
47C
330
1F
100
AcDbEntity
  8
DIM
100
AcDbText
 10
-185.3537243344316
 20
-102.8775155631597
 30
0.0
 40
1.0
  1
1.492
 50
90.0
 11
-185.8537243344316
 21
-102.8775155631597
 31
0.0
100
AcDbText
 73
     2
  0
LINE
  5
47D
330
1F
100
AcDbEntity
  8
DIM
100
AcDbLine
 10
-172.4167243344314
 20
-109.9675155631597
 30
0.0
 11
-172.4167243344314
 21
-105.6275155631597
 31
0.0
  0
LINE
  5
47E
330
1F
100
AcDbEntity
  8
DIM
100
AcDbLine
 10
-170.8537243344315
 20
-103.2525155631597
 30
0.0
 11
-170.8537243344315
 21
-103.6275155631597
 31
0.0
  0
LINE
  5
47F
330
1F
100
AcDbEntity
  8
DIM
100
AcDbLine
 10
-170.8537243344315
 20
-103.6275155631597
 30
0.0
 11
-172.4167243344314
 21
-105.6275155631597
 31
0.0
  0
TEXT
  5
480
330
1F
100
AcDbEntity
  8
DIM
100
AcDbText
 10
-170.3537243344315
 20
-102.8775155631597
 30
0.0
 40
1.0
  1
15.403
 50
90.0
 11
-170.8537243344315
 21
-102.8775155631597
 31
0.0
100
AcDbText
 73
     2
  0
LINE
  5
481
330
1F
100
AcDbEntity
  8
DIM
100
AcDbLine
 10
-172.4787243344316
 20
-114.8425155631598
 30
0.0
 11
-172.4787243344316
 21
-111.0925155631597
 31
0.0
  0
LINE
  5
482
330
1F
100
AcDbEntity
  8
DIM
100
AcDbLine
 10
-172.3537243344315
 20
-103.2525155631597
 30
0.0
 11
-172.3537243344315
 21
-103.6275155631597
 31
0.0
  0
TEXT
  5
483
330
1F
100
AcDbEntity
  8
DIM
100
AcDbText
 10
-171.8537243344315
 20
-102.8775155631597
 30
0.0
 40
1.0
  1
15.341
 50
90.0
 11
-172.3537243344315
 21
-102.8775155631597
 31
0.0
100
AcDbText
 73
     2
  0
LINE
  5
484
330
1F
100
AcDbEntity
  8
DIM
100
AcDbLine
 10
-173.3767243344316
 20
-107.0890155631594
 30
0.0
 11
-173.3767243344316
 21
-105.6275155631597
 31
0.0
  0
LINE
  5
485
330
1F
100
AcDbEntity
  8
DIM
100
AcDbLine
 10
-175.3537243344315
 20
-103.2525155631597
 30
0.0
 11
-175.3537243344315
 21
-103.6275155631597
 31
0.0
  0
LINE
  5
486
330
1F
100
AcDbEntity
  8
DIM
100
AcDbLine
 10
-175.3537243344315
 20
-103.6275155631597
 30
0.0
 11
-173.3767243344316
 21
-105.6275155631597
 31
0.0
  0
TEXT
  5
487
330
1F
100
AcDbEntity
  8
DIM
100
AcDbText
 10
-174.8537243344315
 20
-102.8775155631597
 30
0.0
 40
1.0
  1
14.443
 50
90.0
 11
-175.3537243344315
 21
-102.8775155631597
 31
0.0
100
AcDbText
 73
     2
  0
LINE
  5
488
330
1F
100
AcDbEntity
  8
DIM
100
AcDbLine
 10
-177.8267243344313
 20
-107.0890155631593
 30
0.0
 11
-177.8267243344313
 21
-105.6275155631597
 31
0.0
  0
LINE
  5
489
330
1F
100
AcDbEntity
  8
DIM
100
AcDbLine
 10
-181.8777243344315
 20
-107.0890155631594
 30
0.0
 11
-181.8777243344315
 21
-105.6275155631597
 31
0.0
  0
LINE
  5
48A
330
1F
100
AcDbEntity
  8
DIM
100
AcDbLine
 10
-178.3537243344316
 20
-103.2525155631597
 30
0.0
 11
-178.3537243344316
 21
-103.6275155631597
 31
0.0
  0
LINE
  5
48B
330
1F
100
AcDbEntity
  8
DIM
100
AcDbLine
 10
-178.3537243344316
 20
-103.6275155631597
 30
0.0
 11
-177.8267243344316
 21
-105.6275155631597
 31
0.0
  0
LINE
  5
48C
330
1F
100
AcDbEntity
  8
DIM
100
AcDbLine
 10
-181.3537243344316
 20
-103.2525155631597
 30
0.0
 11
-181.3537243344316
 21
-103.6275155631597
 31
0.0
  0
LINE
  5
48D
330
1F
100
AcDbEntity
  8
DIM
100
AcDbLine
 10
-181.3537243344316
 20
-103.6275155631597
 30
0.0
 11
-181.8777243344315
 21
-105.6275155631597
 31
0.0
  0
DIMENSION
  5
48E
330
1F
100
AcDbEntity
  8
DIM
100
AcDbDimension
  2
*D28
 10
-187.8197489756316
 20
-148.342561312917
 30
0.0
 11
-166.096057667765
 21
-107.4640155631594
 31
0.0
 70
    38
 71
     5
 42
40.87854574975762
  3
Standard
100
AcDbOrdinateDimension
 13
-173.3767243344316
 23
-107.4640155631594
 33
0.0
 14
-168.8877243344316
 24
-107.4640155631594
 34
0.0
1001
ACAD
1000
DSTYLE
1002
{
1070
    41
1040
1.0
1070
    42
1040
0.375
1070
    43
1040
2.125
1070
    44
1040
1.0
1070
   140
1040
1.0
1070
   141
1040
0.5
1070
   147
1040
0.375
1070
   271
1070
     3
1070
   272
1070
     3
1070
   288
1070
     1
1002
}
  0
TEXT
  5
48F
330
1F
100
AcDbEntity
  8
DIM
100
AcDbText
 10
-177.8537243344316
 20
-102.8775155631597
 30
0.0
 40
1.0
  1
9.993
 50
90.0
 11
-178.3537243344316
 21
-102.8775155631597
 31
0.0
100
AcDbText
 73
     2
  0
TEXT
  5
490
330
1F
100
AcDbEntity
  8
DIM
100
AcDbText
 10
-180.8537243344316
 20
-102.8775155631597
 30
0.0
 40
1.0
  1
5.942
 50
90.0
 11
-181.3537243344316
 21
-102.8775155631597
 31
0.0
100
AcDbText
 73
     2
  0
DIMENSION
  5
491
330
1F
100
AcDbEntity
  8
DIM
100
AcDbDimension
  2
*D29
 10
-187.8197489756316
 20
-148.342561312917
 30
0.0
 11
-193.4447243344315
 21
-110.3425155631595
 31
0.0
 70
    38
 71
     5
 42
38.00004574975746
  3
Standard
100
AcDbOrdinateDimension
 13
-187.2912243344316
 23
-110.3425155631595
 33
0.0
 14
-190.8197243344315
 24
-110.3425155631595
 34
0.0
1001
ACAD
1000
DSTYLE
1002
{
1070
    41
1040
1.0
1070
    42
1040
0.375
1070
    43
1040
2.125
1070
    44
1040
1.0
1070
   140
1040
1.0
1070
   141
1040
0.5
1070
   147
1040
0.375
1070
   271
1070
     3
1070
   272
1070
     3
1070
   288
1070
     1
1002
}
  0
DIMENSION
  5
492
330
1F
100
AcDbEntity
  8
DIM
100
AcDbDimension
  2
*D30
 10
-187.8197489756316
 20
-148.342561312917
 30
0.0
 11
-171.8877243344316
 21
-154.050848896493
 31
0.0
 70
   102
 71
     5
 42
15.93202464119997
  3
Standard
100
AcDbOrdinateDimension
 13
-171.8877243344316
 23
-148.3425155631595
 33
0.0
 14
-171.8877243344316
 24
-151.3425155631597
 34
0.0
1001
ACAD
1000
DSTYLE
1002
{
1070
    41
1040
1.0
1070
    42
1040
0.375
1070
    43
1040
2.125
1070
    44
1040
1.0
1070
   140
1040
1.0
1070
   141
1040
0.5
1070
   147
1040
0.375
1070
   271
1070
     3
1070
   272
1070
     3
1070
   288
1070
     1
1002
}
  0
DIMENSION
  5
493
330
1F
100
AcDbEntity
  8
DIM
100
AcDbDimension
  2
*D31
 10
-187.8197489756316
 20
-148.342561312917
 30
0.0
 11
-193.5280576677649
 21
-106.2525155631597
 31
0.0
 70
    38
 71
     5
 42
42.09004574975732
  3
Standard
100
AcDbOrdinateDimension
 13
-187.8197243344315
 23
-106.2525155631597
 33
0.0
 14
-190.8197243344315
 24
-106.2525155631597
 34
0.0
1001
ACAD
1000
DSTYLE
1002
{
1070
    41
1040
1.0
1070
    42
1040
0.375
1070
    43
1040
2.125
1070
    44
1040
1.0
1070
   140
1040
1.0
1070
   141
1040
0.5
1070
   147
1040
0.375
1070
   271
1070
     3
1070
   272
1070
     3
1070
   288
1070
     1
1002
}
  0
LINE
  5
494
330
1F
100
AcDbEntity
  8
DIM
100
AcDbLine
 10
-186.8537243344316
 20
-110.7175155631595
 30
0.0
 11
-186.8537243344316
 21
-105.6275155631597
 31
0.0
  0
LINE
  5
495
330
1F
100
AcDbEntity
  8
DIM
100
AcDbLine
 10
-172.8537243344316
 20
-110.7175155631595
 30
0.0
 11
-172.8537243344315
 21
-105.6275155631597
 31
0.0
  0
LINE
  5
496
330
1F
100
AcDbEntity
  8
DIM
100
AcDbLine
 10
-186.8537243344316
 20
-110.7175155631595
 30
0.0
 11
-187.2287243344316
 21
-111.0925155631597
 31
0.0
  0
LINE
  5
497
330
1F
100
AcDbEntity
  8
DIM
100
AcDbLine
 10
-172.8537243344316
 20
-110.7175155631595
 30
0.0
 11
-172.4787243344316
 21
-111.0925155631597
 31
0.0
  0
LINE
  5
498
330
1F
100
AcDbEntity
  8
DIM
100
AcDbLine
 10
-187.3537243344316
 20
-103.6275155631597
 30
0.0
 11
-186.8537243344316
 21
-105.6275155631597
 31
0.0
  0
LINE
  5
499
330
1F
100
AcDbEntity
  8
DIM
100
AcDbLine
 10
-172.3537243344315
 20
-103.6275155631597
 30
0.0
 11
-172.8537243344315
 21
-105.6275155631597
 31
0.0
  0
LINE
  5
49A
330
1F
100
AcDbEntity
  8
DIM
100
AcDbLine
 10
-173.1892243344314
 20
-110.3015155631597
 30
0.0
 11
-173.0017243344314
 21
-110.3015155631597
 31
0.0
  0
LINE
  5
49B
330
1F
100
AcDbEntity
  8
DIM
100
AcDbLine
 10
-172.7917243344314
 20
-109.9265155631597
 30
0.0
 11
-168.8877243344316
 21
-109.9265155631597
 31
0.0
  0
LINE
  5
49C
330
1F
100
AcDbEntity
  8
DIM
100
AcDbLine
 10
-173.0017243344314
 20
-110.3015155631597
 30
0.0
 11
-172.7917243344314
 21
-109.9265155631597
 31
0.0
  0
TEXT
  5
49D
330
1F
100
AcDbEntity
  8
DIM
100
AcDbText
 10
-168.5127243344316
 20
-110.4265155631597
 30
0.0
 40
1.0
  1
38.041
 11
-168.5127243344316
 21
-109.9265155631597
 31
0.0
100
AcDbText
 73
     2
  0
DIMENSION
  5
49E
330
1F
100
AcDbEntity
  8
DIM
100
AcDbDimension
  2
*D32
 10
-187.8197489756316
 20
-148.342561312917
 30
0.0
 11
-166.1793910010983
 21
-122.3425155631595
 31
0.0
 70
    38
 71
     5
 42
26.50004574975745
  3
Standard
100
AcDbOrdinateDimension
 13
-173.2287243344315
 23
-121.8425155631595
 33
0.0
 14
-168.8877243344316
 24
-122.3425155631595
 34
0.0
1001
ACAD
1000
DSTYLE
1002
{
1070
    41
1040
1.0
1070
    42
1040
0.375
1070
    43
1040
2.125
1070
    44
1040
1.0
1070
   140
1040
1.0
1070
   141
1040
0.5
1070
   147
1040
0.375
1070
   271
1070
     3
1070
   272
1070
     3
1070
   288
1070
     1
1002
}
  0
LINE
  5
49F
330
1F
100
AcDbEntity
  8
DIM
100
AcDbLine
 10
-186.2287243344314
 20
-119.7175155631594
 30
0.0
 11
-186.2287243344316
 21
-120.8450155631596
 31
0.0
  0
TEXT
  5
4A0
330
1F
100
AcDbEntity
  8
DIM
100
AcDbText
 10
-185.7287243344316
 20
-124.5533488964929
 30
0.0
 40
1.0
  1
1.591
 50
90.0
 72
     2
 11
-186.2287243344316
 21
-121.2200155631596
 31
0.0
100
AcDbText
 73
     2
  0
MTEXT
  5
4A1
330
1F
100
AcDbEntity
  8
DIM
100
AcDbMText
 10
-168.5127243344316
 20
-119.9583066479779
 30
0.0
 40
1.0
 41
0.0
 71
     1
 72
     1
  1
%%c1.250 (1)
 73
     1
 44
1.0
1001
ACAD
1000
MTEXTBEGIN
1070
    73
1070
     1
1070
    44
1040
1.0
1070
    74
1070
     0
1000
MTEXTEND
  0
LEADER
  5
4A2
330
1F
100
AcDbEntity
  8
DIM
100
AcDbLeader
  3
Standard
 73
     0
 40
1.0
 41
7.333333333333332
 76
     3
 10
-172.572262554966
 20
-146.6635857739801
 30
0.0
 10
-169.8877243344316
 20
-145.0925155631597
 30
0.0
 10
-168.8877243344316
 20
-145.0925155631595
 30
0.0
213
0.0
223
-0.5
233
0.0
1001
ACAD
1000
DSTYLE
1002
{
1070
    77
1070
     0
1070
    41
1040
1.0
1070
    42
1040
0.375
1070
    43
1040
2.125
1070
    44
1040
1.0
1070
   140
1040
1.0
1070
   141
1040
0.5
1070
   147
1040
0.375
1070
   271
1070
     3
1070
   272
1070
     3
1070
   288
1070
     1
1002
}
  0
MTEXT
  5
4A3
102
{ACAD_REACTORS
330
4A2
102
}
330
1F
100
AcDbEntity
  8
DIM
100
AcDbMText
 10
-168.5127243344316
 20
-144.5925155631595
 30
0.0
 40
1.0
 41
0.0
 71
     1
 72
     1
  1
%%c0.375 (8)
 73
     1
 44
1.0
1001
ACAD
1000
MTEXTBEGIN
1070
    73
1070
     1
1070
    44
1040
1.0
1070
    74
1070
     0
1000
MTEXTEND
  0
TEXT
  5
5D3
330
1F
100
AcDbEntity
  8
TEXT
100
AcDbText
 10
-214.6740911710743
 20
-171.646291148565
 30
0.0
 40
0.3825021673460746
  1
1
 72
     1
 11
-214.6103408098499
 21
-171.455040064892
 31
0.0
100
AcDbText
 73
     2
  0
TEXT
  5
5D4
330
1F
100
AcDbEntity
  8
TEXT
100
AcDbText
 10
-211.2889469900613
 20
-171.646291148565
 30
0.0
 40
0.3825021673460746
  1
ETHERNET HOLE %%C1.250 WAS %%C0.750
 72
     1
 11
-205.7745407441554
 21
-171.455040064892
 31
0.0
100
AcDbText
 73
     2
  0
TEXT
  5
5D5
330
1F
100
AcDbEntity
  8
TEXT
100
AcDbText
 10
-197.2399611352462
 20
-171.646291148565
 30
0.0
 40
0.3825021673460746
  1
5-27-11
 72
     1
 11
-196.092454633208
 21
-171.455040064892
 31
0.0
100
AcDbText
 73
     2
  0
TEXT
  5
5D6
330
1F
100
AcDbEntity
  8
TEXT
100
AcDbText
 10
-193.0103771863095
 20
-171.646291148565
 30
0.0
 40
0.3825021673460746
  1
JJH
 72
     1
 11
-192.5003742965147
 21
-171.455040064892
 31
0.0
100
AcDbText
 73
     2
  0
LINE
  5
5D7
330
1F
100
AcDbEntity
  8
BORDER
100
AcDbLine
 10
-190.591303496144
 20
-171.0725378975458
 30
0.0
 11
-215.4470643009195
 21
-171.0725378975458
 31
0.0
  0
CIRCLE
  5
5D8
102
{ACAD_REACTORS
330
5F1
102
}
330
1F
100
AcDbEntity
  8
0
100
AcDbCircle
 10
-175.7287243344315
 20
-121.0925155631595
 30
0.0
 40
0.625
  0
CIRCLE
  5
5DA
330
1F
100
AcDbEntity
  8
0
100
AcDbCircle
 10
-173.2287243344315
 20
-121.8425155631595
 30
0.0
 40
0.625
  0
CIRCLE
  5
5DB
330
1F
100
AcDbEntity
  8
0
100
AcDbCircle
 10
-173.2287243344315
 20
-123.3425155631595
 30
0.0
 40
0.625
  0
DIMENSION
  5
5DC
102
{ACAD_XDICTIONARY
360
5E8
102
}
102
{ACAD_REACTORS
330
5F1
102
}
330
1F
100
AcDbEntity
  8
0
100
AcDbDimension
  2
*D37
 10
-175.2235695331494
 20
-120.724488897357
 30
0.0
 11
-194.5392792484899
 21
-130.602825977418
 31
0.0
 70
   163
  1
<> (1)\POPTIONAL:\PETHERNET \PCONNECTION \PPORT
 42
1.250000000000028
  3
Standard
100
AcDbDiametricDimension
 15
-176.2338791357136
 25
-121.460542228962
 35
0.0
 40
0.0
1001
ACAD
1000
DSTYLE
1002
{
1070
   288
1070
     1
1002
}
  0
ENDSEC
  0
SECTION
  2
OBJECTS
  0
DICTIONARY
  5
C
330
0
100
AcDbDictionary
281
     1
  3
ACAD_COLOR
350
73
  3
ACAD_GROUP
350
D
  3
ACAD_LAYOUT
350
1A
  3
ACAD_MATERIAL
350
72
  3
ACAD_MLINESTYLE
350
17
  3
ACAD_PLOTSETTINGS
350
19
  3
ACAD_PLOTSTYLENAME
350
E
  3
ACDBHEADERROUNDTRIPXREC
350
60A
  3
AcDbVariableDictionary
350
66
  0
DICTIONARY
  5
136
330
2
100
AcDbDictionary
280
     1
281
     1
  3
ACAD_LAYERSTATES
360
137
  0
DICTIONARY
  5
5E8
330
5DC
100
AcDbDictionary
280
     1
281
     1
  3
ACAD_DIMASSOC
360
5F1
  0
DICTIONARY
  5
73
102
{ACAD_REACTORS
330
C
102
}
330
C
100
AcDbDictionary
281
     1
  0
DICTIONARY
  5
D
102
{ACAD_REACTORS
330
C
102
}
330
C
100
AcDbDictionary
281
     1
  0
DICTIONARY
  5
1A
102
{ACAD_REACTORS
330
C
102
}
330
C
100
AcDbDictionary
281
     1
  3
Layout1
350
59
  3
Layout2
350
5E
  3
Model
350
22
  0
DICTIONARY
  5
72
102
{ACAD_REACTORS
330
C
102
}
330
C
100
AcDbDictionary
281
     1
  0
DICTIONARY
  5
17
102
{ACAD_REACTORS
330
C
102
}
330
C
100
AcDbDictionary
281
     1
  3
Standard
350
18
  0
DICTIONARY
  5
19
102
{ACAD_REACTORS
330
C
102
}
330
C
100
AcDbDictionary
281
     1
  0
ACDBDICTIONARYWDFLT
  5
E
102
{ACAD_REACTORS
330
C
102
}
330
C
100
AcDbDictionary
281
     1
  3
Normal
350
F
100
AcDbDictionaryWithDefault
340
F
  0
DICTIONARY
  5
60A
102
{ACAD_REACTORS
330
C
102
}
330
C
100
AcDbDictionary
281
     1
  3
COLORDICT
350
60C
  3
MATERIALDICT
350
60B
  0
DICTIONARY
  5
66
102
{ACAD_REACTORS
330
C
102
}
330
C
100
AcDbDictionary
281
     1
  3
DIMASSOC
350
67
  3
HIDETEXT
350
6B
  3
PROJECTNAME
350
5B9
  0
DICTIONARY
  5
137
102
{ACAD_REACTORS
330
136
102
}
330
136
100
AcDbDictionary
281
     1
  0
DIMASSOC
  5
5F1
102
{ACAD_REACTORS
330
5E8
102
}
330
5E8
100
AcDbDimAssoc
330
5DC
 90
        2
 70
     0
 71
     0
  1
AcDbOsnapPointRef
 72
     3
331
5D8
 73
     2
 91
        0
 40
0.0
 10
0.0
 20
0.0
 30
0.0
 75
     0
  0
LAYOUT
  5
59
102
{ACAD_XDICTIONARY
360
60F
102
}
102
{ACAD_REACTORS
330
1A
102
}
330
1A
100
AcDbPlotSettings
  1

  2
None
  4

  6

 40
0.0
 41
0.0
 42
0.0
 43
0.0
 44
0.0
 45
0.0
 46
0.0
 47
0.0
 48
0.0
 49
0.0
140
0.0
141
0.0
142
1.0
143
1.0
 70
   688
 72
     0
 73
     0
 74
     5
  7

 75
    16
147
1.0
148
0.0
149
0.0
100
AcDbLayout
  1
Layout1
 70
     1
 71
     1
 10
0.0
 20
0.0
 11
12.0
 21
9.0
 12
0.0
 22
0.0
 32
0.0
 14
0.0
 24
0.0
 34
0.0
 15
0.0
 25
0.0
 35
0.0
146
0.0
 13
0.0
 23
0.0
 33
0.0
 16
1.0
 26
0.0
 36
0.0
 17
0.0
 27
1.0
 37
0.0
 76
     0
330
58
  0
LAYOUT
  5
5E
102
{ACAD_XDICTIONARY
360
611
102
}
102
{ACAD_REACTORS
330
1A
102
}
330
1A
100
AcDbPlotSettings
  1

  2
None
  4

  6

 40
0.0
 41
0.0
 42
0.0
 43
0.0
 44
0.0
 45
0.0
 46
0.0
 47
0.0
 48
0.0
 49
0.0
140
0.0
141
0.0
142
1.0
143
1.0
 70
   688
 72
     0
 73
     0
 74
     5
  7

 75
    16
147
1.0
148
0.0
149
0.0
100
AcDbLayout
  1
Layout2
 70
     1
 71
     2
 10
0.0
 20
0.0
 11
12.0
 21
9.0
 12
0.0
 22
0.0
 32
0.0
 14
0.0
 24
0.0
 34
0.0
 15
0.0
 25
0.0
 35
0.0
146
0.0
 13
0.0
 23
0.0
 33
0.0
 16
1.0
 26
0.0
 36
0.0
 17
0.0
 27
1.0
 37
0.0
 76
     0
330
5D
  0
LAYOUT
  5
22
102
{ACAD_XDICTIONARY
360
60D
102
}
102
{ACAD_REACTORS
330
1A
102
}
330
1A
100
AcDbPlotSettings
  1

  2
none_device
  4
ANSI_A_(8.50_x_11.00_Inches)
  6

 40
6.349999904632567
 41
19.04999923706055
 42
6.350006103515625
 43
19.04998779296875
 44
215.8999938964844
 45
279.3999938964844
 46
0.0
 47
0.0
 48
0.0
 49
0.0
140
0.0
141
0.0
142
1.0
143
2.584895464708373
 70
 11952
 72
     0
 73
     1
 74
     0
  7

 75
     0
147
0.3868628397755418
148
0.0
149
0.0
100
AcDbLayout
  1
Model
 70
     1
 71
     0
 10
0.0
 20
0.0
 11
12.0
 21
9.0
 12
0.0
 22
0.0
 32
0.0
 14
0.0
 24
0.0
 34
0.0
 15
0.0
 25
0.0
 35
0.0
146
0.0
 13
0.0
 23
0.0
 33
0.0
 16
1.0
 26
0.0
 36
0.0
 17
0.0
 27
1.0
 37
0.0
 76
     0
330
1F
  0
MLINESTYLE
  5
18
102
{ACAD_REACTORS
330
17
102
}
330
17
100
AcDbMlineStyle
  2
STANDARD
 70
     0
  3

 62
   256
 51
90.0
 52
90.0
 71
     2
 49
0.5
 62
   256
  6
BYLAYER
 49
-0.5
 62
   256
  6
BYLAYER
  0
ACDBPLACEHOLDER
  5
F
102
{ACAD_REACTORS
330
E
102
}
330
E
  0
XRECORD
  5
60C
102
{ACAD_REACTORS
330
60A
102
}
330
60A
100
AcDbXrecord
280
     1
340
73
  0
XRECORD
  5
60B
102
{ACAD_REACTORS
330
60A
102
}
330
60A
100
AcDbXrecord
280
     1
340
72
  0
DICTIONARYVAR
  5
67
102
{ACAD_REACTORS
330
66
102
}
330
66
100
DictionaryVariables
280
     0
  1
2
  0
DICTIONARYVAR
  5
6B
102
{ACAD_REACTORS
330
66
102
}
330
66
100
DictionaryVariables
280
     0
  1
1
  0
DICTIONARYVAR
  5
5B9
102
{ACAD_REACTORS
330
66
102
}
330
66
100
DictionaryVariables
280
     0
  1

  0
DICTIONARY
  5
60F
330
59
100
AcDbDictionary
280
     1
281
     1
  3
ACAD_XREC_ROUNDTRIP
360
610
  0
DICTIONARY
  5
611
330
5E
100
AcDbDictionary
280
     1
281
     1
  3
ACAD_XREC_ROUNDTRIP
360
612
  0
DICTIONARY
  5
60D
330
22
100
AcDbDictionary
280
     1
281
     1
  3
ACAD_XREC_ROUNDTRIP
360
60E
  0
XRECORD
  5
610
102
{ACAD_REACTORS
330
60F
102
}
330
60F
100
AcDbXrecord
280
     1
102
SHADEPLOT
 70
     0
102
SHADEPLOTRESLEVEL
 70
     2
102
SHADEPLOTCUSTOMDPI
 70
   300
  0
XRECORD
  5
612
102
{ACAD_REACTORS
330
611
102
}
330
611
100
AcDbXrecord
280
     1
102
SHADEPLOT
 70
     0
102
SHADEPLOTRESLEVEL
 70
     2
102
SHADEPLOTCUSTOMDPI
 70
   300
  0
XRECORD
  5
60E
102
{ACAD_REACTORS
330
60D
102
}
330
60D
100
AcDbXrecord
280
     1
102
SHADEPLOT
 70
     0
102
SHADEPLOTRESLEVEL
 70
     2
102
SHADEPLOTCUSTOMDPI
 70
   300
  0
ENDSEC
  0
EOF
