  0
SECTION
  2
HEADER
  9
$ACADVER
  1
AC1015
  9
$ACADMAINTVER
 70
    20
  9
$DWGCODEPAGE
  3
ANSI_1252
  9
$INSBASE
 10
0.0
 20
0.0
 30
0.0
  9
$EXTMIN
 10
-42.28281928928407
 20
-144.3484215805675
 30
0.0
  9
$EXTMAX
 10
105.5675880962076
 20
78.26372681835998
 30
0.0
  9
$LIMMIN
 10
0.0
 20
0.0
  9
$LIMMAX
 10
12.0
 20
9.0
  9
$ORTHOMODE
 70
     1
  9
$REGENMODE
 70
     1
  9
$FILLMODE
 70
     1
  9
$QTEXTMODE
 70
     0
  9
$MIRRTEXT
 70
     0
  9
$LTSCALE
 40
1.0
  9
$ATTMODE
 70
     1
  9
$TEXTSIZE
 40
0.2
  9
$TRACEWID
 40
0.05
  9
$TEXTSTYLE
  7
Standard
  9
$CLAYER
  8
0
  9
$CELTYPE
  6
ByLayer
  9
$CECOLOR
 62
   256
  9
$CELTSCALE
 40
1.0
  9
$DISPSILH
 70
     0
  9
$DIMSCALE
 40
1.0
  9
$DIMASZ
 40
1.0
  9
$DIMEXO
 40
0.2
  9
$DIMDLI
 40
0.38
  9
$DIMRND
 40
0.0
  9
$DIMDLE
 40
0.0
  9
$DIMEXE
 40
0.18
  9
$DIMTP
 40
0.0
  9
$DIMTM
 40
0.0
  9
$DIMTXT
 40
1.0
  9
$DIMCEN
 40
0.09
  9
$DIMTSZ
 40
0.0
  9
$DIMTOL
 70
     0
  9
$DIMLIM
 70
     0
  9
$DIMTIH
 70
     1
  9
$DIMTOH
 70
     1
  9
$DIMSE1
 70
     0
  9
$DIMSE2
 70
     0
  9
$DIMTAD
 70
     0
  9
$DIMZIN
 70
     0
  9
$DIMBLK
  1

  9
$DIMASO
 70
     1
  9
$DIMSHO
 70
     1
  9
$DIMPOST
  1

  9
$DIMAPOST
  1

  9
$DIMALT
 70
     0
  9
$DIMALTD
 70
     2
  9
$DIMALTF
 40
25.4
  9
$DIMLFAC
 40
1.0
  9
$DIMTOFL
 70
     0
  9
$DIMTVP
 40
0.0
  9
$DIMTIX
 70
     0
  9
$DIMSOXD
 70
     0
  9
$DIMSAH
 70
     0
  9
$DIMBLK1
  1

  9
$DIMBLK2
  1

  9
$DIMSTYLE
  2
Standard
  9
$DIMCLRD
 70
     0
  9
$DIMCLRE
 70
     0
  9
$DIMCLRT
 70
     0
  9
$DIMTFAC
 40
1.0
  9
$DIMGAP
 40
0.09
  9
$DIMJUST
 70
     0
  9
$DIMSD1
 70
     0
  9
$DIMSD2
 70
     0
  9
$DIMTOLJ
 70
     1
  9
$DIMTZIN
 70
     0
  9
$DIMALTZ
 70
     0
  9
$DIMALTTZ
 70
     0
  9
$DIMUPT
 70
     0
  9
$DIMDEC
 70
     3
  9
$DIMTDEC
 70
     3
  9
$DIMALTU
 70
     2
  9
$DIMALTTD
 70
     2
  9
$DIMTXSTY
  7
Standard
  9
$DIMAUNIT
 70
     0
  9
$DIMADEC
 70
     0
  9
$DIMALTRND
 40
0.0
  9
$DIMAZIN
 70
     0
  9
$DIMDSEP
 70
    46
  9
$DIMATFIT
 70
     3
  9
$DIMFRAC
 70
     0
  9
$DIMLDRBLK
  1

  9
$DIMLUNIT
 70
     2
  9
$DIMLWD
 70
    -2
  9
$DIMLWE
 70
    -2
  9
$DIMTMOVE
 70
     0
  9
$LUNITS
 70
     2
  9
$LUPREC
 70
     4
  9
$SKETCHINC
 40
0.1
  9
$FILLETRAD
 40
0.0
  9
$AUNITS
 70
     0
  9
$AUPREC
 70
     0
  9
$MENU
  1
.
  9
$ELEVATION
 40
0.0
  9
$PELEVATION
 40
0.0
  9
$THICKNESS
 40
0.0
  9
$LIMCHECK
 70
     0
  9
$CHAMFERA
 40
0.0
  9
$CHAMFERB
 40
0.0
  9
$CHAMFERC
 40
0.0
  9
$CHAMFERD
 40
0.0
  9
$SKPOLY
 70
     0
  9
$TDCREATE
 40
2455309.386685521
  9
$TDUCREATE
 40
2455309.553352187
  9
$TDUPDATE
 40
2455716.511860532
  9
$TDUUPDATE
 40
2455716.678527199
  9
$TDINDWG
 40
0.1005735648
  9
$TDUSRTIMER
 40
0.1005735648
  9
$USRTIMER
 70
     1
  9
$ANGBASE
 50
0.0
  9
$ANGDIR
 70
     0
  9
$PDMODE
 70
     0
  9
$PDSIZE
 40
0.0
  9
$PLINEWID
 40
0.0
  9
$SPLFRAME
 70
     0
  9
$SPLINETYPE
 70
     6
  9
$SPLINESEGS
 70
     8
  9
$HANDSEED
  5
E3C
  9
$SURFTAB1
 70
     6
  9
$SURFTAB2
 70
     6
  9
$SURFTYPE
 70
     6
  9
$SURFU
 70
     6
  9
$SURFV
 70
     6
  9
$UCSBASE
  2

  9
$UCSNAME
  2

  9
$UCSORG
 10
42.1918418689397
 20
8.406005740474839
 30
0.0
  9
$UCSXDIR
 10
1.0
 20
0.0
 30
0.0
  9
$UCSYDIR
 10
0.0
 20
1.0
 30
0.0
  9
$UCSORTHOREF
  2

  9
$UCSORTHOVIEW
 70
     0
  9
$UCSORGTOP
 10
0.0
 20
0.0
 30
0.0
  9
$UCSORGBOTTOM
 10
0.0
 20
0.0
 30
0.0
  9
$UCSORGLEFT
 10
0.0
 20
0.0
 30
0.0
  9
$UCSORGRIGHT
 10
0.0
 20
0.0
 30
0.0
  9
$UCSORGFRONT
 10
0.0
 20
0.0
 30
0.0
  9
$UCSORGBACK
 10
0.0
 20
0.0
 30
0.0
  9
$PUCSBASE
  2

  9
$PUCSNAME
  2

  9
$PUCSORG
 10
0.0
 20
0.0
 30
0.0
  9
$PUCSXDIR
 10
1.0
 20
0.0
 30
0.0
  9
$PUCSYDIR
 10
0.0
 20
1.0
 30
0.0
  9
$PUCSORTHOREF
  2

  9
$PUCSORTHOVIEW
 70
     0
  9
$PUCSORGTOP
 10
0.0
 20
0.0
 30
0.0
  9
$PUCSORGBOTTOM
 10
0.0
 20
0.0
 30
0.0
  9
$PUCSORGLEFT
 10
0.0
 20
0.0
 30
0.0
  9
$PUCSORGRIGHT
 10
0.0
 20
0.0
 30
0.0
  9
$PUCSORGFRONT
 10
0.0
 20
0.0
 30
0.0
  9
$PUCSORGBACK
 10
0.0
 20
0.0
 30
0.0
  9
$USERI1
 70
     0
  9
$USERI2
 70
     0
  9
$USERI3
 70
     0
  9
$USERI4
 70
     0
  9
$USERI5
 70
     0
  9
$USERR1
 40
0.0
  9
$USERR2
 40
0.0
  9
$USERR3
 40
0.0
  9
$USERR4
 40
0.0
  9
$USERR5
 40
0.0
  9
$WORLDVIEW
 70
     1
  9
$SHADEDGE
 70
     3
  9
$SHADEDIF
 70
    70
  9
$TILEMODE
 70
     1
  9
$MAXACTVP
 70
    64
  9
$PINSBASE
 10
0.0
 20
0.0
 30
0.0
  9
$PLIMCHECK
 70
     0
  9
$PEXTMIN
 10
0.0
 20
0.0
 30
0.0
  9
$PEXTMAX
 10
0.0
 20
0.0
 30
0.0
  9
$PLIMMIN
 10
0.0
 20
0.0
  9
$PLIMMAX
 10
12.0
 20
9.0
  9
$UNITMODE
 70
     0
  9
$VISRETAIN
 70
     1
  9
$PLINEGEN
 70
     0
  9
$PSLTSCALE
 70
     1
  9
$TREEDEPTH
 70
  3020
  9
$CMLSTYLE
  2
Standard
  9
$CMLJUST
 70
     0
  9
$CMLSCALE
 40
1.0
  9
$PROXYGRAPHICS
 70
     1
  9
$MEASUREMENT
 70
     0
  9
$CELWEIGHT
370
    -1
  9
$ENDCAPS
280
     0
  9
$JOINSTYLE
280
     0
  9
$LWDISPLAY
290
     0
  9
$INSUNITS
 70
     1
  9
$HYPERLINKBASE
  1

  9
$STYLESHEET
  1

  9
$XEDIT
290
     1
  9
$CEPSNTYPE
380
     0
  9
$PSTYLEMODE
290
     1
  9
$FINGERPRINTGUID
  2
{FDEAD576-A652-11D2-9A35-0060089B3A3F}
  9
$VERSIONGUID
  2
{B3168EAC-BC57-4EFD-B1D9-D446F4A36D2C}
  9
$EXTNAMES
290
     1
  9
$PSVPSCALE
 40
0.0
  9
$OLESTARTUP
290
     0
  0
ENDSEC
  0
SECTION
  2
CLASSES
  0
CLASS
  1
ACDBDICTIONARYWDFLT
  2
AcDbDictionaryWithDefault
  3
ObjectDBX Classes
 90
        0
280
     0
281
     0
  0
CLASS
  1
ACDBPLACEHOLDER
  2
AcDbPlaceHolder
  3
ObjectDBX Classes
 90
        0
280
     0
281
     0
  0
CLASS
  1
LAYOUT
  2
AcDbLayout
  3
ObjectDBX Classes
 90
        0
280
     0
281
     0
  0
CLASS
  1
DICTIONARYVAR
  2
AcDbDictionaryVar
  3
ObjectDBX Classes
 90
        0
280
     0
281
     0
  0
CLASS
  1
DIMASSOC
  2
AcDbDimAssoc
  3
"AcDbDimAssoc|Product Desc:     AcDim ARX App For Dimension|Company:          Autodesk, Inc.|WEB Address:      www.autodesk.com"
 90
        0
280
     0
281
     0
  0
ENDSEC
  0
SECTION
  2
TABLES
  0
TABLE
  2
VPORT
  5
8
330
0
100
AcDbSymbolTable
 70
    10
  0
VPORT
  5
E32
330
8
100
AcDbSymbolTableRecord
100
AcDbViewportTableRecord
  2
*Active
 70
     0
 10
0.0
 20
0.0
 11
1.0
 21
1.0
 12
44.78950766676965
 22
-28.69804154112666
 13
0.0
 23
0.0
 14
0.5
 24
0.5
 15
0.5
 25
0.5
 16
0.0
 26
0.0
 36
1.0
 17
0.0
 27
0.0
 37
0.0
 40
182.6028013149743
 41
2.028571428571428
 42
50.0
 43
0.0
 44
0.0
 50
0.0
 51
0.0
 71
     0
 72
  1000
 73
     1
 74
     3
 75
     0
 76
     0
 77
     0
 78
     0
281
     0
 65
     1
110
42.1918418689397
120
8.406005740474839
130
0.0
111
1.0
121
0.0
131
0.0
112
0.0
122
1.0
132
0.0
 79
     0
146
0.0
  0
ENDTAB
  0
TABLE
  2
LTYPE
  5
5
330
0
100
AcDbSymbolTable
 70
     2
  0
LTYPE
  5
14
330
5
100
AcDbSymbolTableRecord
100
AcDbLinetypeTableRecord
  2
ByBlock
 70
     0
  3

 72
    65
 73
     0
 40
0.0
  0
LTYPE
  5
15
330
5
100
AcDbSymbolTableRecord
100
AcDbLinetypeTableRecord
  2
ByLayer
 70
     0
  3

 72
    65
 73
     0
 40
0.0
  0
LTYPE
  5
16
330
5
100
AcDbSymbolTableRecord
100
AcDbLinetypeTableRecord
  2
Continuous
 70
     0
  3
Solid line
 72
    65
 73
     0
 40
0.0
  0
LTYPE
  5
171
330
5
100
AcDbSymbolTableRecord
100
AcDbLinetypeTableRecord
  2
DOT2
 70
     0
  3
...............................................
 72
    65
 73
     2
 40
0.125
 49
0.0
 74
     0
 49
-0.125
 74
     0
  0
ENDTAB
  0
TABLE
  2
LAYER
  5
2
102
{ACAD_XDICTIONARY
360
176
102
}
330
0
100
AcDbSymbolTable
 70
    11
  0
LAYER
  5
10
330
2
100
AcDbSymbolTableRecord
100
AcDbLayerTableRecord
  2
0
 70
     0
 62
     7
  6
Continuous
370
    -3
390
F
  0
LAYER
  5
172
330
2
100
AcDbSymbolTableRecord
100
AcDbLayerTableRecord
  2
Defpoints
 70
     0
 62
     7
  6
Continuous
290
     0
370
    -3
390
F
  0
LAYER
  5
173
330
2
100
AcDbSymbolTableRecord
100
AcDbLayerTableRecord
  2
DIM
 70
     0
 62
     7
  6
Continuous
370
    -3
390
F
  0
LAYER
  5
174
330
2
100
AcDbSymbolTableRecord
100
AcDbLayerTableRecord
  2
TEMPLATE
 70
     0
 62
     7
  6
Continuous
370
    -3
390
F
  0
LAYER
  5
175
330
2
100
AcDbSymbolTableRecord
100
AcDbLayerTableRecord
  2
GASKET
 70
     0
 62
     7
  6
Continuous
370
    -3
390
F
  0
LAYER
  5
38B
330
2
100
AcDbSymbolTableRecord
100
AcDbLayerTableRecord
  2
TEXT
 70
     0
 62
    -7
  6
Continuous
370
    -3
390
F
  0
LAYER
  5
38C
330
2
100
AcDbSymbolTableRecord
100
AcDbLayerTableRecord
  2
DIMENSION
 70
     0
 62
     7
  6
Continuous
370
    -3
390
F
  0
LAYER
  5
38D
330
2
100
AcDbSymbolTableRecord
100
AcDbLayerTableRecord
  2
THERMOSTATCVR
 70
     0
 62
     7
  6
Continuous
370
    -3
390
F
  0
LAYER
  5
38E
330
2
100
AcDbSymbolTableRecord
100
AcDbLayerTableRecord
  2
BORDER
 70
     0
 62
     7
  6
Continuous
370
    -3
390
F
  0
LAYER
  5
72A
330
2
100
AcDbSymbolTableRecord
100
AcDbLayerTableRecord
  2
OBJ
 70
     0
 62
     7
  6
Continuous
370
    -3
390
F
  0
LAYER
  5
72B
330
2
100
AcDbSymbolTableRecord
100
AcDbLayerTableRecord
  2
Washer
 70
     0
 62
     7
  6
Continuous
370
    -3
390
F
  0
ENDTAB
  0
TABLE
  2
STYLE
  5
3
330
0
100
AcDbSymbolTable
 70
     1
  0
STYLE
  5
11
330
3
100
AcDbSymbolTableRecord
100
AcDbTextStyleTableRecord
  2
Standard
 70
     0
 40
0.0
 41
1.0
 50
0.0
 71
     0
 42
0.2
  3
txt
  4

  0
ENDTAB
  0
TABLE
  2
VIEW
  5
6
330
0
100
AcDbSymbolTable
 70
     0
  0
ENDTAB
  0
TABLE
  2
UCS
  5
7
330
0
100
AcDbSymbolTable
 70
     0
  0
ENDTAB
  0
TABLE
  2
APPID
  5
9
330
0
100
AcDbSymbolTable
 70
     1
  0
APPID
  5
12
330
9
100
AcDbSymbolTableRecord
100
AcDbRegAppTableRecord
  2
ACAD
 70
     0
  0
ENDTAB
  0
TABLE
  2
DIMSTYLE
  5
A
330
0
100
AcDbSymbolTable
 70
     1
100
AcDbDimStyleTable
 71
     1
340
27
  0
DIMSTYLE
105
27
102
{ACAD_REACTORS
330
B15
330
B12
330
AEB
330
AEA
330
AE9
330
AE8
330
AE7
330
AE6
330
AE5
330
AE4
330
AE3
330
AE2
330
AE1
330
AE0
330
ADD
330
ADC
330
ADB
330
ADA
330
AD9
330
AD8
330
AD7
330
AD6
330
AD5
330
AD4
330
AD3
330
AD2
330
AD1
330
D5D
330
D6D
330
D8B
330
D94
330
DC4
330
DD8
102
}
330
A
100
AcDbSymbolTableRecord
100
AcDbDimStyleTableRecord
  2
Standard
 70
     0
 41
1.0
 42
0.2
140
1.0
271
     3
272
     3
340
11
  0
ENDTAB
  0
TABLE
  2
BLOCK_RECORD
  5
1
330
0
100
AcDbSymbolTable
 70
   155
  0
BLOCK_RECORD
  5
1F
330
1
100
AcDbSymbolTableRecord
100
AcDbBlockTableRecord
  2
*Model_Space
340
22
  0
BLOCK_RECORD
  5
58
330
1
100
AcDbSymbolTableRecord
100
AcDbBlockTableRecord
  2
*Paper_Space
340
59
  0
BLOCK_RECORD
  5
5D
330
1
100
AcDbSymbolTableRecord
100
AcDbBlockTableRecord
  2
*Paper_Space0
340
5E
  0
BLOCK_RECORD
  5
89
330
1
100
AcDbSymbolTableRecord
100
AcDbBlockTableRecord
  2
*D1
340
0
  0
BLOCK_RECORD
  5
91
330
1
100
AcDbSymbolTableRecord
100
AcDbBlockTableRecord
  2
*D2
340
0
  0
BLOCK_RECORD
  5
99
330
1
100
AcDbSymbolTableRecord
100
AcDbBlockTableRecord
  2
*D3
340
0
  0
BLOCK_RECORD
  5
A1
330
1
100
AcDbSymbolTableRecord
100
AcDbBlockTableRecord
  2
*D4
340
0
  0
BLOCK_RECORD
  5
A9
330
1
100
AcDbSymbolTableRecord
100
AcDbBlockTableRecord
  2
*D5
340
0
  0
BLOCK_RECORD
  5
B1
330
1
100
AcDbSymbolTableRecord
100
AcDbBlockTableRecord
  2
*D6
340
0
  0
BLOCK_RECORD
  5
B9
330
1
100
AcDbSymbolTableRecord
100
AcDbBlockTableRecord
  2
*D7
340
0
  0
BLOCK_RECORD
  5
C1
330
1
100
AcDbSymbolTableRecord
100
AcDbBlockTableRecord
  2
*D8
340
0
  0
BLOCK_RECORD
  5
CB
330
1
100
AcDbSymbolTableRecord
100
AcDbBlockTableRecord
  2
*D9
340
0
  0
BLOCK_RECORD
  5
D3
330
1
100
AcDbSymbolTableRecord
100
AcDbBlockTableRecord
  2
*D10
340
0
  0
BLOCK_RECORD
  5
DD
330
1
100
AcDbSymbolTableRecord
100
AcDbBlockTableRecord
  2
*D11
340
0
  0
BLOCK_RECORD
  5
E5
330
1
100
AcDbSymbolTableRecord
100
AcDbBlockTableRecord
  2
*D12
340
0
  0
BLOCK_RECORD
  5
ED
330
1
100
AcDbSymbolTableRecord
100
AcDbBlockTableRecord
  2
*D13
340
0
  0
BLOCK_RECORD
  5
F5
330
1
100
AcDbSymbolTableRecord
100
AcDbBlockTableRecord
  2
*D14
340
0
  0
BLOCK_RECORD
  5
FF
330
1
100
AcDbSymbolTableRecord
100
AcDbBlockTableRecord
  2
*D15
340
0
  0
BLOCK_RECORD
  5
107
330
1
100
AcDbSymbolTableRecord
100
AcDbBlockTableRecord
  2
*D16
340
0
  0
BLOCK_RECORD
  5
111
330
1
100
AcDbSymbolTableRecord
100
AcDbBlockTableRecord
  2
*D17
340
0
  0
BLOCK_RECORD
  5
119
330
1
100
AcDbSymbolTableRecord
100
AcDbBlockTableRecord
  2
*D18
340
0
  0
BLOCK_RECORD
  5
121
330
1
100
AcDbSymbolTableRecord
100
AcDbBlockTableRecord
  2
*D19
340
0
  0
BLOCK_RECORD
  5
12B
330
1
100
AcDbSymbolTableRecord
100
AcDbBlockTableRecord
  2
*D20
340
0
  0
BLOCK_RECORD
  5
133
330
1
100
AcDbSymbolTableRecord
100
AcDbBlockTableRecord
  2
*D21
340
0
  0
BLOCK_RECORD
  5
13B
330
1
100
AcDbSymbolTableRecord
100
AcDbBlockTableRecord
  2
*D22
340
0
  0
BLOCK_RECORD
  5
145
330
1
100
AcDbSymbolTableRecord
100
AcDbBlockTableRecord
  2
*D23
340
0
  0
BLOCK_RECORD
  5
14D
330
1
100
AcDbSymbolTableRecord
100
AcDbBlockTableRecord
  2
*D24
340
0
  0
BLOCK_RECORD
  5
157
330
1
100
AcDbSymbolTableRecord
100
AcDbBlockTableRecord
  2
*D25
340
0
  0
BLOCK_RECORD
  5
15F
330
1
100
AcDbSymbolTableRecord
100
AcDbBlockTableRecord
  2
*D26
340
0
  0
BLOCK_RECORD
  5
167
330
1
100
AcDbSymbolTableRecord
100
AcDbBlockTableRecord
  2
*D27
340
0
  0
BLOCK_RECORD
  5
20C
330
1
100
AcDbSymbolTableRecord
100
AcDbBlockTableRecord
  2
*D28
340
0
  0
BLOCK_RECORD
  5
216
330
1
100
AcDbSymbolTableRecord
100
AcDbBlockTableRecord
  2
*D29
340
0
  0
BLOCK_RECORD
  5
220
330
1
100
AcDbSymbolTableRecord
100
AcDbBlockTableRecord
  2
*D30
340
0
  0
BLOCK_RECORD
  5
228
330
1
100
AcDbSymbolTableRecord
100
AcDbBlockTableRecord
  2
*D31
340
0
  0
BLOCK_RECORD
  5
232
330
1
100
AcDbSymbolTableRecord
100
AcDbBlockTableRecord
  2
*D32
340
0
  0
BLOCK_RECORD
  5
23A
330
1
100
AcDbSymbolTableRecord
100
AcDbBlockTableRecord
  2
*D33
340
0
  0
BLOCK_RECORD
  5
242
330
1
100
AcDbSymbolTableRecord
100
AcDbBlockTableRecord
  2
*D34
340
0
  0
BLOCK_RECORD
  5
24C
330
1
100
AcDbSymbolTableRecord
100
AcDbBlockTableRecord
  2
*D35
340
0
  0
BLOCK_RECORD
  5
254
330
1
100
AcDbSymbolTableRecord
100
AcDbBlockTableRecord
  2
*D36
340
0
  0
BLOCK_RECORD
  5
25C
330
1
100
AcDbSymbolTableRecord
100
AcDbBlockTableRecord
  2
*D37
340
0
  0
BLOCK_RECORD
  5
266
330
1
100
AcDbSymbolTableRecord
100
AcDbBlockTableRecord
  2
*D38
340
0
  0
BLOCK_RECORD
  5
26E
330
1
100
AcDbSymbolTableRecord
100
AcDbBlockTableRecord
  2
*D39
340
0
  0
BLOCK_RECORD
  5
278
330
1
100
AcDbSymbolTableRecord
100
AcDbBlockTableRecord
  2
*D40
340
0
  0
BLOCK_RECORD
  5
280
330
1
100
AcDbSymbolTableRecord
100
AcDbBlockTableRecord
  2
*D41
340
0
  0
BLOCK_RECORD
  5
288
330
1
100
AcDbSymbolTableRecord
100
AcDbBlockTableRecord
  2
*D42
340
0
  0
BLOCK_RECORD
  5
290
330
1
100
AcDbSymbolTableRecord
100
AcDbBlockTableRecord
  2
*D43
340
0
  0
BLOCK_RECORD
  5
298
330
1
100
AcDbSymbolTableRecord
100
AcDbBlockTableRecord
  2
*D44
340
0
  0
BLOCK_RECORD
  5
2A0
330
1
100
AcDbSymbolTableRecord
100
AcDbBlockTableRecord
  2
*D45
340
0
  0
BLOCK_RECORD
  5
2A8
330
1
100
AcDbSymbolTableRecord
100
AcDbBlockTableRecord
  2
*D46
340
0
  0
BLOCK_RECORD
  5
2B0
330
1
100
AcDbSymbolTableRecord
100
AcDbBlockTableRecord
  2
*D47
340
0
  0
BLOCK_RECORD
  5
2B8
330
1
100
AcDbSymbolTableRecord
100
AcDbBlockTableRecord
  2
*D48
340
0
  0
BLOCK_RECORD
  5
2C0
330
1
100
AcDbSymbolTableRecord
100
AcDbBlockTableRecord
  2
*D49
340
0
  0
BLOCK_RECORD
  5
2CA
330
1
100
AcDbSymbolTableRecord
100
AcDbBlockTableRecord
  2
*D50
340
0
  0
BLOCK_RECORD
  5
2D2
330
1
100
AcDbSymbolTableRecord
100
AcDbBlockTableRecord
  2
*D51
340
0
  0
BLOCK_RECORD
  5
2DC
330
1
100
AcDbSymbolTableRecord
100
AcDbBlockTableRecord
  2
*D52
340
0
  0
BLOCK_RECORD
  5
2E4
330
1
100
AcDbSymbolTableRecord
100
AcDbBlockTableRecord
  2
*D53
340
0
  0
BLOCK_RECORD
  5
2EC
330
1
100
AcDbSymbolTableRecord
100
AcDbBlockTableRecord
  2
*D54
340
0
  0
BLOCK_RECORD
  5
607
330
1
100
AcDbSymbolTableRecord
100
AcDbBlockTableRecord
  2
*D55
340
0
  0
BLOCK_RECORD
  5
611
330
1
100
AcDbSymbolTableRecord
100
AcDbBlockTableRecord
  2
*D56
340
0
  0
BLOCK_RECORD
  5
619
330
1
100
AcDbSymbolTableRecord
100
AcDbBlockTableRecord
  2
*D57
340
0
  0
BLOCK_RECORD
  5
623
330
1
100
AcDbSymbolTableRecord
100
AcDbBlockTableRecord
  2
*D58
340
0
  0
BLOCK_RECORD
  5
62B
330
1
100
AcDbSymbolTableRecord
100
AcDbBlockTableRecord
  2
*D59
340
0
  0
BLOCK_RECORD
  5
633
330
1
100
AcDbSymbolTableRecord
100
AcDbBlockTableRecord
  2
*D60
340
0
  0
BLOCK_RECORD
  5
63D
330
1
100
AcDbSymbolTableRecord
100
AcDbBlockTableRecord
  2
*D61
340
0
  0
BLOCK_RECORD
  5
645
330
1
100
AcDbSymbolTableRecord
100
AcDbBlockTableRecord
  2
*D62
340
0
  0
BLOCK_RECORD
  5
64D
330
1
100
AcDbSymbolTableRecord
100
AcDbBlockTableRecord
  2
*D63
340
0
  0
BLOCK_RECORD
  5
657
330
1
100
AcDbSymbolTableRecord
100
AcDbBlockTableRecord
  2
*D64
340
0
  0
BLOCK_RECORD
  5
661
330
1
100
AcDbSymbolTableRecord
100
AcDbBlockTableRecord
  2
*D65
340
0
  0
BLOCK_RECORD
  5
66B
330
1
100
AcDbSymbolTableRecord
100
AcDbBlockTableRecord
  2
*D66
340
0
  0
BLOCK_RECORD
  5
673
330
1
100
AcDbSymbolTableRecord
100
AcDbBlockTableRecord
  2
*D67
340
0
  0
BLOCK_RECORD
  5
67D
330
1
100
AcDbSymbolTableRecord
100
AcDbBlockTableRecord
  2
*D68
340
0
  0
BLOCK_RECORD
  5
685
330
1
100
AcDbSymbolTableRecord
100
AcDbBlockTableRecord
  2
*D69
340
0
  0
BLOCK_RECORD
  5
68D
330
1
100
AcDbSymbolTableRecord
100
AcDbBlockTableRecord
  2
*D70
340
0
  0
BLOCK_RECORD
  5
695
330
1
100
AcDbSymbolTableRecord
100
AcDbBlockTableRecord
  2
*D71
340
0
  0
BLOCK_RECORD
  5
69F
330
1
100
AcDbSymbolTableRecord
100
AcDbBlockTableRecord
  2
*D72
340
0
  0
BLOCK_RECORD
  5
6A7
330
1
100
AcDbSymbolTableRecord
100
AcDbBlockTableRecord
  2
*D73
340
0
  0
BLOCK_RECORD
  5
6AF
330
1
100
AcDbSymbolTableRecord
100
AcDbBlockTableRecord
  2
*D74
340
0
  0
BLOCK_RECORD
  5
6B7
330
1
100
AcDbSymbolTableRecord
100
AcDbBlockTableRecord
  2
*D75
340
0
  0
BLOCK_RECORD
  5
6C1
330
1
100
AcDbSymbolTableRecord
100
AcDbBlockTableRecord
  2
*D76
340
0
  0
BLOCK_RECORD
  5
6C9
330
1
100
AcDbSymbolTableRecord
100
AcDbBlockTableRecord
  2
*D77
340
0
  0
BLOCK_RECORD
  5
6D3
330
1
100
AcDbSymbolTableRecord
100
AcDbBlockTableRecord
  2
*D78
340
0
  0
BLOCK_RECORD
  5
6DB
330
1
100
AcDbSymbolTableRecord
100
AcDbBlockTableRecord
  2
*D79
340
0
  0
BLOCK_RECORD
  5
6E3
330
1
100
AcDbSymbolTableRecord
100
AcDbBlockTableRecord
  2
*D80
340
0
  0
BLOCK_RECORD
  5
6EB
330
1
100
AcDbSymbolTableRecord
100
AcDbBlockTableRecord
  2
*D81
340
0
  0
BLOCK_RECORD
  5
6F3
330
1
100
AcDbSymbolTableRecord
100
AcDbBlockTableRecord
  2
*D82
340
0
  0
BLOCK_RECORD
  5
6FB
330
1
100
AcDbSymbolTableRecord
100
AcDbBlockTableRecord
  2
*D83
340
0
  0
BLOCK_RECORD
  5
703
330
1
100
AcDbSymbolTableRecord
100
AcDbBlockTableRecord
  2
*D84
340
0
  0
BLOCK_RECORD
  5
70B
330
1
100
AcDbSymbolTableRecord
100
AcDbBlockTableRecord
  2
*D85
340
0
  0
BLOCK_RECORD
  5
715
330
1
100
AcDbSymbolTableRecord
100
AcDbBlockTableRecord
  2
*D86
340
0
  0
BLOCK_RECORD
  5
720
330
1
100
AcDbSymbolTableRecord
100
AcDbBlockTableRecord
  2
*D87
340
0
  0
BLOCK_RECORD
  5
7D4
330
1
100
AcDbSymbolTableRecord
100
AcDbBlockTableRecord
  2
*D89
340
0
  0
BLOCK_RECORD
  5
7DE
330
1
100
AcDbSymbolTableRecord
100
AcDbBlockTableRecord
  2
*D90
340
0
  0
BLOCK_RECORD
  5
7E8
330
1
100
AcDbSymbolTableRecord
100
AcDbBlockTableRecord
  2
*D91
340
0
  0
BLOCK_RECORD
  5
7F3
330
1
100
AcDbSymbolTableRecord
100
AcDbBlockTableRecord
  2
*D92
340
0
  0
BLOCK_RECORD
  5
7FD
330
1
100
AcDbSymbolTableRecord
100
AcDbBlockTableRecord
  2
*D93
340
0
  0
BLOCK_RECORD
  5
805
330
1
100
AcDbSymbolTableRecord
100
AcDbBlockTableRecord
  2
*D94
340
0
  0
BLOCK_RECORD
  5
80D
330
1
100
AcDbSymbolTableRecord
100
AcDbBlockTableRecord
  2
*D95
340
0
  0
BLOCK_RECORD
  5
815
330
1
100
AcDbSymbolTableRecord
100
AcDbBlockTableRecord
  2
*D96
340
0
  0
BLOCK_RECORD
  5
81D
330
1
100
AcDbSymbolTableRecord
100
AcDbBlockTableRecord
  2
*D97
340
0
  0
BLOCK_RECORD
  5
825
330
1
100
AcDbSymbolTableRecord
100
AcDbBlockTableRecord
  2
*D98
340
0
  0
BLOCK_RECORD
  5
82D
330
1
100
AcDbSymbolTableRecord
100
AcDbBlockTableRecord
  2
*D99
340
0
  0
BLOCK_RECORD
  5
835
330
1
100
AcDbSymbolTableRecord
100
AcDbBlockTableRecord
  2
*D100
340
0
  0
BLOCK_RECORD
  5
83F
330
1
100
AcDbSymbolTableRecord
100
AcDbBlockTableRecord
  2
*D101
340
0
  0
BLOCK_RECORD
  5
847
330
1
100
AcDbSymbolTableRecord
100
AcDbBlockTableRecord
  2
*D102
340
0
  0
BLOCK_RECORD
  5
851
330
1
100
AcDbSymbolTableRecord
100
AcDbBlockTableRecord
  2
*D103
340
0
  0
BLOCK_RECORD
  5
859
330
1
100
AcDbSymbolTableRecord
100
AcDbBlockTableRecord
  2
*D104
340
0
  0
BLOCK_RECORD
  5
861
330
1
100
AcDbSymbolTableRecord
100
AcDbBlockTableRecord
  2
*D105
340
0
  0
BLOCK_RECORD
  5
869
330
1
100
AcDbSymbolTableRecord
100
AcDbBlockTableRecord
  2
*D106
340
0
  0
BLOCK_RECORD
  5
873
330
1
100
AcDbSymbolTableRecord
100
AcDbBlockTableRecord
  2
*D107
340
0
  0
BLOCK_RECORD
  5
87B
330
1
100
AcDbSymbolTableRecord
100
AcDbBlockTableRecord
  2
*D108
340
0
  0
BLOCK_RECORD
  5
883
330
1
100
AcDbSymbolTableRecord
100
AcDbBlockTableRecord
  2
*D109
340
0
  0
BLOCK_RECORD
  5
88B
330
1
100
AcDbSymbolTableRecord
100
AcDbBlockTableRecord
  2
*D110
340
0
  0
BLOCK_RECORD
  5
895
330
1
100
AcDbSymbolTableRecord
100
AcDbBlockTableRecord
  2
*D111
340
0
  0
BLOCK_RECORD
  5
89D
330
1
100
AcDbSymbolTableRecord
100
AcDbBlockTableRecord
  2
*D112
340
0
  0
BLOCK_RECORD
  5
8A7
330
1
100
AcDbSymbolTableRecord
100
AcDbBlockTableRecord
  2
*D113
340
0
  0
BLOCK_RECORD
  5
8B1
330
1
100
AcDbSymbolTableRecord
100
AcDbBlockTableRecord
  2
*D114
340
0
  0
BLOCK_RECORD
  5
8BB
330
1
100
AcDbSymbolTableRecord
100
AcDbBlockTableRecord
  2
*D115
340
0
  0
BLOCK_RECORD
  5
8C3
330
1
100
AcDbSymbolTableRecord
100
AcDbBlockTableRecord
  2
*D116
340
0
  0
BLOCK_RECORD
  5
8CB
330
1
100
AcDbSymbolTableRecord
100
AcDbBlockTableRecord
  2
*D117
340
0
  0
BLOCK_RECORD
  5
8D5
330
1
100
AcDbSymbolTableRecord
100
AcDbBlockTableRecord
  2
*D118
340
0
  0
BLOCK_RECORD
  5
8DD
330
1
100
AcDbSymbolTableRecord
100
AcDbBlockTableRecord
  2
*D119
340
0
  0
BLOCK_RECORD
  5
8E5
330
1
100
AcDbSymbolTableRecord
100
AcDbBlockTableRecord
  2
*D120
340
0
  0
BLOCK_RECORD
  5
8EF
330
1
100
AcDbSymbolTableRecord
100
AcDbBlockTableRecord
  2
*D121
340
0
  0
BLOCK_RECORD
  5
B19
330
1
100
AcDbSymbolTableRecord
100
AcDbBlockTableRecord
  2
*D122
340
0
  0
BLOCK_RECORD
  5
B23
330
1
100
AcDbSymbolTableRecord
100
AcDbBlockTableRecord
  2
*D123
340
0
  0
BLOCK_RECORD
  5
B2D
330
1
100
AcDbSymbolTableRecord
100
AcDbBlockTableRecord
  2
*D124
340
0
  0
BLOCK_RECORD
  5
B35
330
1
100
AcDbSymbolTableRecord
100
AcDbBlockTableRecord
  2
*D125
340
0
  0
BLOCK_RECORD
  5
B3F
330
1
100
AcDbSymbolTableRecord
100
AcDbBlockTableRecord
  2
*D126
340
0
  0
BLOCK_RECORD
  5
B47
330
1
100
AcDbSymbolTableRecord
100
AcDbBlockTableRecord
  2
*D127
340
0
  0
BLOCK_RECORD
  5
B4F
330
1
100
AcDbSymbolTableRecord
100
AcDbBlockTableRecord
  2
*D128
340
0
  0
BLOCK_RECORD
  5
B59
330
1
100
AcDbSymbolTableRecord
100
AcDbBlockTableRecord
  2
*D129
340
0
  0
BLOCK_RECORD
  5
B61
330
1
100
AcDbSymbolTableRecord
100
AcDbBlockTableRecord
  2
*D130
340
0
  0
BLOCK_RECORD
  5
B69
330
1
100
AcDbSymbolTableRecord
100
AcDbBlockTableRecord
  2
*D131
340
0
  0
BLOCK_RECORD
  5
B73
330
1
100
AcDbSymbolTableRecord
100
AcDbBlockTableRecord
  2
*D132
340
0
  0
BLOCK_RECORD
  5
B7B
330
1
100
AcDbSymbolTableRecord
100
AcDbBlockTableRecord
  2
*D133
340
0
  0
BLOCK_RECORD
  5
B85
330
1
100
AcDbSymbolTableRecord
100
AcDbBlockTableRecord
  2
*D134
340
0
  0
BLOCK_RECORD
  5
B8D
330
1
100
AcDbSymbolTableRecord
100
AcDbBlockTableRecord
  2
*D135
340
0
  0
BLOCK_RECORD
  5
B95
330
1
100
AcDbSymbolTableRecord
100
AcDbBlockTableRecord
  2
*D136
340
0
  0
BLOCK_RECORD
  5
B9D
330
1
100
AcDbSymbolTableRecord
100
AcDbBlockTableRecord
  2
*D137
340
0
  0
BLOCK_RECORD
  5
BA5
330
1
100
AcDbSymbolTableRecord
100
AcDbBlockTableRecord
  2
*D138
340
0
  0
BLOCK_RECORD
  5
BAD
330
1
100
AcDbSymbolTableRecord
100
AcDbBlockTableRecord
  2
*D139
340
0
  0
BLOCK_RECORD
  5
BB5
330
1
100
AcDbSymbolTableRecord
100
AcDbBlockTableRecord
  2
*D140
340
0
  0
BLOCK_RECORD
  5
BBD
330
1
100
AcDbSymbolTableRecord
100
AcDbBlockTableRecord
  2
*D141
340
0
  0
BLOCK_RECORD
  5
BC5
330
1
100
AcDbSymbolTableRecord
100
AcDbBlockTableRecord
  2
*D142
340
0
  0
BLOCK_RECORD
  5
BCD
330
1
100
AcDbSymbolTableRecord
100
AcDbBlockTableRecord
  2
*D143
340
0
  0
BLOCK_RECORD
  5
BD7
330
1
100
AcDbSymbolTableRecord
100
AcDbBlockTableRecord
  2
*D144
340
0
  0
BLOCK_RECORD
  5
BDF
330
1
100
AcDbSymbolTableRecord
100
AcDbBlockTableRecord
  2
*D145
340
0
  0
BLOCK_RECORD
  5
BE9
330
1
100
AcDbSymbolTableRecord
100
AcDbBlockTableRecord
  2
*D146
340
0
  0
BLOCK_RECORD
  5
BF1
330
1
100
AcDbSymbolTableRecord
100
AcDbBlockTableRecord
  2
*D147
340
0
  0
BLOCK_RECORD
  5
BF9
330
1
100
AcDbSymbolTableRecord
100
AcDbBlockTableRecord
  2
*D148
340
0
  0
BLOCK_RECORD
  5
D5E
330
1
100
AcDbSymbolTableRecord
100
AcDbBlockTableRecord
  2
*D149
340
0
  0
BLOCK_RECORD
  5
D6E
330
1
100
AcDbSymbolTableRecord
100
AcDbBlockTableRecord
  2
*D150
340
0
  0
BLOCK_RECORD
  5
D8C
330
1
100
AcDbSymbolTableRecord
100
AcDbBlockTableRecord
  2
*D151
340
0
  0
BLOCK_RECORD
  5
D95
330
1
100
AcDbSymbolTableRecord
100
AcDbBlockTableRecord
  2
*D152
340
0
  0
BLOCK_RECORD
  5
DC5
330
1
100
AcDbSymbolTableRecord
100
AcDbBlockTableRecord
  2
*D153
340
0
  0
BLOCK_RECORD
  5
DD9
330
1
100
AcDbSymbolTableRecord
100
AcDbBlockTableRecord
  2
*D154
340
0
  0
ENDTAB
  0
ENDSEC
  0
SECTION
  2
BLOCKS
  0
BLOCK
  5
20
330
1F
100
AcDbEntity
  8
0
100
AcDbBlockBegin
  2
*Model_Space
 70
     0
 10
0.0
 20
0.0
 30
0.0
  3
*Model_Space
  1

  0
ENDBLK
  5
21
330
1F
100
AcDbEntity
  8
0
100
AcDbBlockEnd
  0
BLOCK
  5
5A
330
58
100
AcDbEntity
 67
     1
  8
0
100
AcDbBlockBegin
  2
*Paper_Space
 70
     0
 10
0.0
 20
0.0
 30
0.0
  3
*Paper_Space
  1

  0
ENDBLK
  5
5B
330
58
100
AcDbEntity
 67
     1
  8
0
100
AcDbBlockEnd
  0
BLOCK
  5
5F
330
5D
100
AcDbEntity
  8
0
100
AcDbBlockBegin
  2
*Paper_Space0
 70
     0
 10
0.0
 20
0.0
 30
0.0
  3
*Paper_Space0
  1

  0
ENDBLK
  5
60
330
5D
100
AcDbEntity
  8
0
100
AcDbBlockEnd
  0
BLOCK
  5
8A
330
89
100
AcDbEntity
  8
0
100
AcDbBlockBegin
  2
*D1
 70
     1
 10
0.0
 20
0.0
 30
0.0
  3
*D1
  1

  0
LINE
  5
8B
330
89
100
AcDbEntity
  8
DIM
 62
     0
370
    -2
100
AcDbLine
 10
74.07335825385295
 20
121.4449140994497
 30
0.0
 11
70.5547701156507
 21
121.4449140994497
 31
0.0
  0
MTEXT
  5
8C
330
89
100
AcDbEntity
  8
DIM
 62
     0
100
AcDbMText
 10
68.388103448984
 20
121.4449140994497
 30
0.0
 40
0.9999999999999998
 41
0.0
 71
     5
 72
     1
  1
\A1;0.000
 73
     1
 44
1.0
1001
ACAD
1000
MTEXTBEGIN
1070
    73
1070
     1
1070
    44
1040
1.0
1070
    74
1070
     0
1000
MTEXTEND
  0
POINT
  5
8D
330
89
100
AcDbEntity
  8
Defpoints
 62
     0
100
AcDbPoint
 10
74.44835825385294
 20
121.4449140994497
 30
0.0
  0
POINT
  5
8E
330
89
100
AcDbEntity
  8
Defpoints
 62
     0
100
AcDbPoint
 10
70.5547701156507
 20
121.4449140994497
 30
0.0
  0
POINT
  5
8F
330
89
100
AcDbEntity
  8
Defpoints
 62
     0
100
AcDbPoint
 10
74.44835825385294
 20
121.4449140994497
 30
0.0
  0
ENDBLK
  5
90
330
89
100
AcDbEntity
  8
0
100
AcDbBlockEnd
  0
BLOCK
  5
92
330
91
100
AcDbEntity
  8
0
100
AcDbBlockBegin
  2
*D2
 70
     1
 10
0.0
 20
0.0
 30
0.0
  3
*D2
  1

  0
LINE
  5
93
330
91
100
AcDbEntity
  8
DIM
 62
     0
370
    -2
100
AcDbLine
 10
74.60135825385265
 20
128.3799140994499
 30
0.0
 11
70.52192931688665
 21
128.3799140994499
 31
0.0
  0
MTEXT
  5
94
330
91
100
AcDbEntity
  8
DIM
 62
     0
100
AcDbMText
 10
68.02192931688664
 20
128.3799140994499
 30
0.0
 40
0.9999999999999998
 41
0.0
 71
     5
 72
     1
  1
\A1;6.935
 73
     1
 44
1.0
1001
ACAD
1000
MTEXTBEGIN
1070
    73
1070
     1
1070
    44
1040
1.0
1070
    74
1070
     0
1000
MTEXTEND
  0
POINT
  5
95
330
91
100
AcDbEntity
  8
Defpoints
 62
     0
100
AcDbPoint
 10
74.97635825385265
 20
128.3799140994499
 30
0.0
  0
POINT
  5
96
330
91
100
AcDbEntity
  8
Defpoints
 62
     0
100
AcDbPoint
 10
70.52192931688665
 20
128.3799140994499
 30
0.0
  0
POINT
  5
97
330
91
100
AcDbEntity
  8
Defpoints
 62
     0
100
AcDbPoint
 10
74.44835825385294
 20
121.4449140994497
 30
0.0
  0
ENDBLK
  5
98
330
91
100
AcDbEntity
  8
0
100
AcDbBlockEnd
  0
BLOCK
  5
9A
330
99
100
AcDbEntity
  8
0
100
AcDbBlockBegin
  2
*D3
 70
     1
 10
0.0
 20
0.0
 30
0.0
  3
*D3
  1

  0
LINE
  5
9B
330
99
100
AcDbEntity
  8
DIM
 62
     0
370
    -2
100
AcDbLine
 10
78.16435825385275
 20
135.3799140994499
 30
0.0
 11
70.44835825385269
 21
135.3799140994499
 31
0.0
  0
MTEXT
  5
9C
330
99
100
AcDbEntity
  8
DIM
 62
     0
100
AcDbMText
 10
67.61502492051936
 20
135.3799140994499
 30
0.0
 40
0.9999999999999998
 41
0.0
 71
     5
 72
     1
  1
\A1;13.935
 73
     1
 44
1.0
1001
ACAD
1000
MTEXTBEGIN
1070
    73
1070
     1
1070
    44
1040
1.0
1070
    74
1070
     0
1000
MTEXTEND
  0
POINT
  5
9D
330
99
100
AcDbEntity
  8
Defpoints
 62
     0
100
AcDbPoint
 10
78.53935825385275
 20
135.3799140994499
 30
0.0
  0
POINT
  5
9E
330
99
100
AcDbEntity
  8
Defpoints
 62
     0
100
AcDbPoint
 10
70.44835825385269
 20
135.3799140994499
 30
0.0
  0
POINT
  5
9F
330
99
100
AcDbEntity
  8
Defpoints
 62
     0
100
AcDbPoint
 10
74.44835825385294
 20
121.4449140994497
 30
0.0
  0
ENDBLK
  5
A0
330
99
100
AcDbEntity
  8
0
100
AcDbBlockEnd
  0
BLOCK
  5
A2
330
A1
100
AcDbEntity
  8
0
100
AcDbBlockBegin
  2
*D4
 70
     1
 10
0.0
 20
0.0
 30
0.0
  3
*D4
  1

  0
LINE
  5
A3
330
A1
100
AcDbEntity
  8
DIM
 62
     0
370
    -2
100
AcDbLine
 10
78.16435825385275
 20
142.3799140994499
 30
0.0
 11
70.44835825385262
 21
142.3799140994499
 31
0.0
  0
MTEXT
  5
A4
330
A1
100
AcDbEntity
  8
DIM
 62
     0
100
AcDbMText
 10
67.53169158718596
 20
142.3799140994499
 30
0.0
 40
0.9999999999999998
 41
0.0
 71
     5
 72
     1
  1
\A1;20.935
 73
     1
 44
1.0
1001
ACAD
1000
MTEXTBEGIN
1070
    73
1070
     1
1070
    44
1040
1.0
1070
    74
1070
     0
1000
MTEXTEND
  0
POINT
  5
A5
330
A1
100
AcDbEntity
  8
Defpoints
 62
     0
100
AcDbPoint
 10
78.53935825385275
 20
142.3799140994499
 30
0.0
  0
POINT
  5
A6
330
A1
100
AcDbEntity
  8
Defpoints
 62
     0
100
AcDbPoint
 10
70.44835825385262
 20
142.3799140994499
 30
0.0
  0
POINT
  5
A7
330
A1
100
AcDbEntity
  8
Defpoints
 62
     0
100
AcDbPoint
 10
74.44835825385294
 20
121.4449140994497
 30
0.0
  0
ENDBLK
  5
A8
330
A1
100
AcDbEntity
  8
0
100
AcDbBlockEnd
  0
BLOCK
  5
AA
330
A9
100
AcDbEntity
  8
0
100
AcDbBlockBegin
  2
*D5
 70
     1
 10
0.0
 20
0.0
 30
0.0
  3
*D5
  1

  0
LINE
  5
AB
330
A9
100
AcDbEntity
  8
DIM
 62
     0
370
    -2
100
AcDbLine
 10
75.70135825385233
 20
158.0299140994502
 30
0.0
 11
70.44835825385262
 21
158.0299140994502
 31
0.0
  0
MTEXT
  5
AC
330
A9
100
AcDbEntity
  8
DIM
 62
     0
100
AcDbMText
 10
67.44835825385263
 20
158.0299140994502
 30
0.0
 40
0.9999999999999998
 41
0.0
 71
     5
 72
     1
  1
\A1;36.585
 73
     1
 44
1.0
1001
ACAD
1000
MTEXTBEGIN
1070
    73
1070
     1
1070
    44
1040
1.0
1070
    74
1070
     0
1000
MTEXTEND
  0
POINT
  5
AD
330
A9
100
AcDbEntity
  8
Defpoints
 62
     0
100
AcDbPoint
 10
76.07635825385234
 20
158.0299140994502
 30
0.0
  0
POINT
  5
AE
330
A9
100
AcDbEntity
  8
Defpoints
 62
     0
100
AcDbPoint
 10
70.44835825385262
 20
158.0299140994502
 30
0.0
  0
POINT
  5
AF
330
A9
100
AcDbEntity
  8
Defpoints
 62
     0
100
AcDbPoint
 10
74.44835825385294
 20
121.4449140994497
 30
0.0
  0
ENDBLK
  5
B0
330
A9
100
AcDbEntity
  8
0
100
AcDbBlockEnd
  0
BLOCK
  5
B2
330
B1
100
AcDbEntity
  8
0
100
AcDbBlockBegin
  2
*D6
 70
     1
 10
0.0
 20
0.0
 30
0.0
  3
*D6
  1

  0
LINE
  5
B3
330
B1
100
AcDbEntity
  8
DIM
 62
     0
370
    -2
100
AcDbLine
 10
75.70135825385233
 20
160.8649140994502
 30
0.0
 11
70.44835825385262
 21
160.8649140994502
 31
0.0
  0
MTEXT
  5
B4
330
B1
100
AcDbEntity
  8
DIM
 62
     0
100
AcDbMText
 10
67.53169158718596
 20
160.8649140994502
 30
0.0
 40
0.9999999999999998
 41
0.0
 71
     5
 72
     1
  1
\A1;39.420
 73
     1
 44
1.0
1001
ACAD
1000
MTEXTBEGIN
1070
    73
1070
     1
1070
    44
1040
1.0
1070
    74
1070
     0
1000
MTEXTEND
  0
POINT
  5
B5
330
B1
100
AcDbEntity
  8
Defpoints
 62
     0
100
AcDbPoint
 10
76.07635825385234
 20
160.8649140994502
 30
0.0
  0
POINT
  5
B6
330
B1
100
AcDbEntity
  8
Defpoints
 62
     0
100
AcDbPoint
 10
70.44835825385262
 20
160.8649140994502
 30
0.0
  0
POINT
  5
B7
330
B1
100
AcDbEntity
  8
Defpoints
 62
     0
100
AcDbPoint
 10
74.44835825385294
 20
121.4449140994497
 30
0.0
  0
ENDBLK
  5
B8
330
B1
100
AcDbEntity
  8
0
100
AcDbBlockEnd
  0
BLOCK
  5
BA
330
B9
100
AcDbEntity
  8
0
100
AcDbBlockBegin
  2
*D7
 70
     1
 10
0.0
 20
0.0
 30
0.0
  3
*D7
  1

  0
LINE
  5
BB
330
B9
100
AcDbEntity
  8
DIM
 62
     0
370
    -2
100
AcDbLine
 10
90.22735825385263
 20
141.5049140994499
 30
0.0
 11
94.39352260213267
 21
141.5049140994499
 31
0.0
  0
MTEXT
  5
BC
330
B9
100
AcDbEntity
  8
DIM
 62
     0
100
AcDbMText
 10
97.14352260213267
 20
141.5049140994499
 30
0.0
 40
0.9999999999999998
 41
0.0
 71
     5
 72
     1
  1
\A1;20.060
 73
     1
 44
1.0
1001
ACAD
1000
MTEXTBEGIN
1070
    73
1070
     1
1070
    44
1040
1.0
1070
    74
1070
     0
1000
MTEXTEND
  0
POINT
  5
BD
330
B9
100
AcDbEntity
  8
Defpoints
 62
     0
100
AcDbPoint
 10
89.85235825385263
 20
141.5049140994499
 30
0.0
  0
POINT
  5
BE
330
B9
100
AcDbEntity
  8
Defpoints
 62
     0
100
AcDbPoint
 10
94.39352260213267
 20
141.5049140994499
 30
0.0
  0
POINT
  5
BF
330
B9
100
AcDbEntity
  8
Defpoints
 62
     0
100
AcDbPoint
 10
74.44835825385294
 20
121.4449140994497
 30
0.0
  0
ENDBLK
  5
C0
330
B9
100
AcDbEntity
  8
0
100
AcDbBlockEnd
  0
BLOCK
  5
C2
330
C1
100
AcDbEntity
  8
0
100
AcDbBlockBegin
  2
*D8
 70
     1
 10
0.0
 20
0.0
 30
0.0
  3
*D8
  1

  0
LINE
  5
C3
330
C1
100
AcDbEntity
  8
DIM
 62
     0
370
    -2
100
AcDbLine
 10
89.41435825385275
 20
148.5049140994499
 30
0.0
 11
91.03935825385276
 21
148.5049140994499
 31
0.0
  0
LINE
  5
C4
330
C1
100
AcDbEntity
  8
DIM
 62
     0
370
    -2
100
AcDbLine
 10
91.03935825385276
 20
148.5049140994499
 30
0.0
 11
92.56742904048939
 21
146.7141926657523
 31
0.0
  0
LINE
  5
C5
330
C1
100
AcDbEntity
  8
DIM
 62
     0
370
    -2
100
AcDbLine
 10
92.56742904048939
 20
146.7141926657523
 30
0.0
 11
94.5674290404894
 21
146.7141926657523
 31
0.0
  0
MTEXT
  5
C6
330
C1
100
AcDbEntity
  8
DIM
 62
     0
100
AcDbMText
 10
97.40076237382274
 20
146.7141926657523
 30
0.0
 40
0.9999999999999998
 41
0.0
 71
     5
 72
     1
  1
\A1;27.060
 73
     1
 44
1.0
1001
ACAD
1000
MTEXTBEGIN
1070
    73
1070
     1
1070
    44
1040
1.0
1070
    74
1070
     0
1000
MTEXTEND
  0
POINT
  5
C7
330
C1
100
AcDbEntity
  8
Defpoints
 62
     0
100
AcDbPoint
 10
89.03935825385275
 20
148.5049140994499
 30
0.0
  0
POINT
  5
C8
330
C1
100
AcDbEntity
  8
Defpoints
 62
     0
100
AcDbPoint
 10
94.5674290404894
 20
146.7141926657523
 30
0.0
  0
POINT
  5
C9
330
C1
100
AcDbEntity
  8
Defpoints
 62
     0
100
AcDbPoint
 10
74.44835825385294
 20
121.4449140994497
 30
0.0
  0
ENDBLK
  5
CA
330
C1
100
AcDbEntity
  8
0
100
AcDbBlockEnd
  0
BLOCK
  5
CC
330
CB
100
AcDbEntity
  8
0
100
AcDbBlockBegin
  2
*D9
 70
     1
 10
0.0
 20
0.0
 30
0.0
  3
*D9
  1

  0
LINE
  5
CD
330
CB
100
AcDbEntity
  8
DIM
 62
     0
370
    -2
100
AcDbLine
 10
89.41435825385275
 20
150.0049140994499
 30
0.0
 11
94.3803582538527
 21
150.0049140994499
 31
0.0
  0
MTEXT
  5
CE
330
CB
100
AcDbEntity
  8
DIM
 62
     0
100
AcDbMText
 10
97.29702492051938
 20
150.0049140994499
 30
0.0
 40
0.9999999999999998
 41
0.0
 71
     5
 72
     1
  1
\A1;28.560
 73
     1
 44
1.0
1001
ACAD
1000
MTEXTBEGIN
1070
    73
1070
     1
1070
    44
1040
1.0
1070
    74
1070
     0
1000
MTEXTEND
  0
POINT
  5
CF
330
CB
100
AcDbEntity
  8
Defpoints
 62
     0
100
AcDbPoint
 10
89.03935825385275
 20
150.0049140994499
 30
0.0
  0
POINT
  5
D0
330
CB
100
AcDbEntity
  8
Defpoints
 62
     0
100
AcDbPoint
 10
94.3803582538527
 20
150.0049140994499
 30
0.0
  0
POINT
  5
D1
330
CB
100
AcDbEntity
  8
Defpoints
 62
     0
100
AcDbPoint
 10
74.44835825385294
 20
121.4449140994497
 30
0.0
  0
ENDBLK
  5
D2
330
CB
100
AcDbEntity
  8
0
100
AcDbBlockEnd
  0
BLOCK
  5
D4
330
D3
100
AcDbEntity
  8
0
100
AcDbBlockBegin
  2
*D10
 70
     1
 10
0.0
 20
0.0
 30
0.0
  3
*D10
  1

  0
LINE
  5
D5
330
D3
100
AcDbEntity
  8
DIM
 62
     0
370
    -2
100
AcDbLine
 10
90.22735825385263
 20
152.1299140994499
 30
0.0
 11
91.85235825385262
 21
152.1299140994499
 31
0.0
  0
LINE
  5
D6
330
D3
100
AcDbEntity
  8
DIM
 62
     0
370
    -2
100
AcDbLine
 10
91.85235825385262
 20
152.1299140994499
 30
0.0
 11
92.38035825385271
 21
151.4424140994498
 31
0.0
  0
LINE
  5
D7
330
D3
100
AcDbEntity
  8
DIM
 62
     0
370
    -2
100
AcDbLine
 10
92.38035825385271
 20
151.4424140994498
 30
0.0
 11
94.3803582538527
 21
151.4424140994498
 31
0.0
  0
MTEXT
  5
D8
330
D3
100
AcDbEntity
  8
DIM
 62
     0
100
AcDbMText
 10
97.29702492051938
 20
151.4424140994498
 30
0.0
 40
0.9999999999999998
 41
0.0
 71
     5
 72
     1
  1
\A1;30.685
 73
     1
 44
1.0
1001
ACAD
1000
MTEXTBEGIN
1070
    73
1070
     1
1070
    44
1040
1.0
1070
    74
1070
     0
1000
MTEXTEND
  0
POINT
  5
D9
330
D3
100
AcDbEntity
  8
Defpoints
 62
     0
100
AcDbPoint
 10
89.85235825385263
 20
152.1299140994499
 30
0.0
  0
POINT
  5
DA
330
D3
100
AcDbEntity
  8
Defpoints
 62
     0
100
AcDbPoint
 10
94.3803582538527
 20
151.4424140994498
 30
0.0
  0
POINT
  5
DB
330
D3
100
AcDbEntity
  8
Defpoints
 62
     0
100
AcDbPoint
 10
74.44835825385294
 20
121.4449140994497
 30
0.0
  0
ENDBLK
  5
DC
330
D3
100
AcDbEntity
  8
0
100
AcDbBlockEnd
  0
BLOCK
  5
DE
330
DD
100
AcDbEntity
  8
0
100
AcDbBlockBegin
  2
*D11
 70
     1
 10
0.0
 20
0.0
 30
0.0
  3
*D11
  1

  0
LINE
  5
DF
330
DD
100
AcDbEntity
  8
DIM
 62
     0
370
    -2
100
AcDbLine
 10
89.65935825385264
 20
152.8799140994498
 30
0.0
 11
94.3803582538527
 21
152.8799140994498
 31
0.0
  0
MTEXT
  5
E0
330
DD
100
AcDbEntity
  8
DIM
 62
     0
100
AcDbMText
 10
97.21369158718605
 20
152.8799140994498
 30
0.0
 40
0.9999999999999998
 41
0.0
 71
     5
 72
     1
  1
\A1;31.435
 73
     1
 44
1.0
1001
ACAD
1000
MTEXTBEGIN
1070
    73
1070
     1
1070
    44
1040
1.0
1070
    74
1070
     0
1000
MTEXTEND
  0
POINT
  5
E1
330
DD
100
AcDbEntity
  8
Defpoints
 62
     0
100
AcDbPoint
 10
89.28435825385262
 20
152.8799140994498
 30
0.0
  0
POINT
  5
E2
330
DD
100
AcDbEntity
  8
Defpoints
 62
     0
100
AcDbPoint
 10
94.3803582538527
 20
152.8799140994498
 30
0.0
  0
POINT
  5
E3
330
DD
100
AcDbEntity
  8
Defpoints
 62
     0
100
AcDbPoint
 10
74.44835825385294
 20
121.4449140994497
 30
0.0
  0
ENDBLK
  5
E4
330
DD
100
AcDbEntity
  8
0
100
AcDbBlockEnd
  0
BLOCK
  5
E6
330
E5
100
AcDbEntity
  8
0
100
AcDbBlockBegin
  2
*D12
 70
     1
 10
0.0
 20
0.0
 30
0.0
  3
*D12
  1

  0
LINE
  5
E7
330
E5
100
AcDbEntity
  8
DIM
 62
     0
370
    -2
100
AcDbLine
 10
89.65935825385264
 20
154.6299140994499
 30
0.0
 11
94.3803582538527
 21
154.6299140994499
 31
0.0
  0
MTEXT
  5
E8
330
E5
100
AcDbEntity
  8
DIM
 62
     0
100
AcDbMText
 10
97.21369158718605
 20
154.6299140994499
 30
0.0
 40
0.9999999999999998
 41
0.0
 71
     5
 72
     1
  1
\A1;33.185
 73
     1
 44
1.0
1001
ACAD
1000
MTEXTBEGIN
1070
    73
1070
     1
1070
    44
1040
1.0
1070
    74
1070
     0
1000
MTEXTEND
  0
POINT
  5
E9
330
E5
100
AcDbEntity
  8
Defpoints
 62
     0
100
AcDbPoint
 10
89.28435825385262
 20
154.6299140994499
 30
0.0
  0
POINT
  5
EA
330
E5
100
AcDbEntity
  8
Defpoints
 62
     0
100
AcDbPoint
 10
94.3803582538527
 20
154.6299140994499
 30
0.0
  0
POINT
  5
EB
330
E5
100
AcDbEntity
  8
Defpoints
 62
     0
100
AcDbPoint
 10
74.44835825385294
 20
121.4449140994497
 30
0.0
  0
ENDBLK
  5
EC
330
E5
100
AcDbEntity
  8
0
100
AcDbBlockEnd
  0
BLOCK
  5
EE
330
ED
100
AcDbEntity
  8
0
100
AcDbBlockBegin
  2
*D13
 70
     1
 10
0.0
 20
0.0
 30
0.0
  3
*D13
  1

  0
LINE
  5
EF
330
ED
100
AcDbEntity
  8
DIM
 62
     0
370
    -2
100
AcDbLine
 10
90.22735825385263
 20
157.3799140994499
 30
0.0
 11
94.3803582538527
 21
157.3799140994499
 31
0.0
  0
MTEXT
  5
F0
330
ED
100
AcDbEntity
  8
DIM
 62
     0
100
AcDbMText
 10
97.38035825385271
 20
157.3799140994499
 30
0.0
 40
0.9999999999999998
 41
0.0
 71
     5
 72
     1
  1
\A1;35.935
 73
     1
 44
1.0
1001
ACAD
1000
MTEXTBEGIN
1070
    73
1070
     1
1070
    44
1040
1.0
1070
    74
1070
     0
1000
MTEXTEND
  0
POINT
  5
F1
330
ED
100
AcDbEntity
  8
Defpoints
 62
     0
100
AcDbPoint
 10
89.85235825385263
 20
157.3799140994499
 30
0.0
  0
POINT
  5
F2
330
ED
100
AcDbEntity
  8
Defpoints
 62
     0
100
AcDbPoint
 10
94.3803582538527
 20
157.3799140994499
 30
0.0
  0
POINT
  5
F3
330
ED
100
AcDbEntity
  8
Defpoints
 62
     0
100
AcDbPoint
 10
74.44835825385294
 20
121.4449140994497
 30
0.0
  0
ENDBLK
  5
F4
330
ED
100
AcDbEntity
  8
0
100
AcDbBlockEnd
  0
BLOCK
  5
F6
330
F5
100
AcDbEntity
  8
0
100
AcDbBlockBegin
  2
*D14
 70
     1
 10
0.0
 20
0.0
 30
0.0
  3
*D14
  1

  0
LINE
  5
F7
330
F5
100
AcDbEntity
  8
DIM
 62
     0
370
    -2
100
AcDbLine
 10
86.16435825385275
 20
150.7549140994499
 30
0.0
 11
74.3117432549269
 21
150.7549140994499
 31
0.0
  0
LINE
  5
F8
330
F5
100
AcDbEntity
  8
DIM
 62
     0
370
    -2
100
AcDbLine
 10
74.3117432549269
 20
150.7549140994499
 30
0.0
 11
72.31174325492691
 21
153.0088864271479
 31
0.0
  0
LINE
  5
F9
330
F5
100
AcDbEntity
  8
DIM
 62
     0
370
    -2
100
AcDbLine
 10
72.31174325492691
 20
153.0088864271479
 30
0.0
 11
70.31174325492691
 21
153.0088864271479
 31
0.0
  0
MTEXT
  5
FA
330
F5
100
AcDbEntity
  8
DIM
 62
     0
100
AcDbMText
 10
67.39507658826024
 20
153.0088864271479
 30
0.0
 40
0.9999999999999998
 41
0.0
 71
     5
 72
     1
  1
\A1;25.250
 73
     1
 44
1.0
1001
ACAD
1000
MTEXTBEGIN
1070
    73
1070
     1
1070
    44
1040
1.0
1070
    74
1070
     0
1000
MTEXTEND
  0
POINT
  5
FB
330
F5
100
AcDbEntity
  8
Defpoints
 62
     0
100
AcDbPoint
 10
86.53935825385275
 20
150.7549140994499
 30
0.0
  0
POINT
  5
FC
330
F5
100
AcDbEntity
  8
Defpoints
 62
     0
100
AcDbPoint
 10
70.31174325492691
 20
153.0088864271479
 30
0.0
  0
POINT
  5
FD
330
F5
100
AcDbEntity
  8
Defpoints
 62
     0
100
AcDbPoint
 10
74.44837146015402
 20
125.5049421682588
 30
0.0
  0
ENDBLK
  5
FE
330
F5
100
AcDbEntity
  8
0
100
AcDbBlockEnd
  0
BLOCK
  5
100
330
FF
100
AcDbEntity
  8
0
100
AcDbBlockBegin
  2
*D15
 70
     1
 10
0.0
 20
0.0
 30
0.0
  3
*D15
  1

  0
LINE
  5
101
330
FF
100
AcDbEntity
  8
DIM
 62
     0
370
    -2
100
AcDbLine
 10
74.44835825385268
 20
121.1299140994493
 30
0.0
 11
74.44835825385268
 21
117.681297429455
 31
0.0
  0
MTEXT
  5
102
330
FF
100
AcDbEntity
  8
DIM
 62
     0
100
AcDbMText
 10
74.44835825385266
 20
115.5146307627883
 30
0.0
 40
0.9999999999999998
 41
0.0
 71
     5
 72
     1
  1
\A1;0.000
 11
0.0000000000000001
 21
1.0
 31
0.0
 73
     1
 44
1.0
1001
ACAD
1000
MTEXTBEGIN
1070
    73
1070
     1
1070
    44
1040
1.0
1070
    74
1070
     0
1000
MTEXTEND
  0
POINT
  5
103
330
FF
100
AcDbEntity
  8
Defpoints
 62
     0
100
AcDbPoint
 10
74.44835825385268
 20
121.5049140994493
 30
0.0
  0
POINT
  5
104
330
FF
100
AcDbEntity
  8
Defpoints
 62
     0
100
AcDbPoint
 10
74.44835825385268
 20
117.681297429455
 30
0.0
  0
POINT
  5
105
330
FF
100
AcDbEntity
  8
Defpoints
 62
     0
100
AcDbPoint
 10
74.44835825385268
 20
121.5049140994493
 30
0.0
  0
ENDBLK
  5
106
330
FF
100
AcDbEntity
  8
0
100
AcDbBlockEnd
  0
BLOCK
  5
108
330
107
100
AcDbEntity
  8
0
100
AcDbBlockBegin
  2
*D16
 70
     1
 10
0.0
 20
0.0
 30
0.0
  3
*D16
  1

  0
LINE
  5
109
330
107
100
AcDbEntity
  8
DIM
 62
     0
370
    -2
100
AcDbLine
 10
75.5343582538526
 20
155.00491409945
 30
0.0
 11
75.5343582538526
 21
161.4709140994498
 31
0.0
  0
LINE
  5
10A
330
107
100
AcDbEntity
  8
DIM
 62
     0
370
    -2
100
AcDbLine
 10
75.5343582538526
 20
161.4709140994498
 30
0.0
 11
74.5343582538526
 21
163.4709140994498
 31
0.0
  0
LINE
  5
10B
330
107
100
AcDbEntity
  8
DIM
 62
     0
370
    -2
100
AcDbLine
 10
74.5343582538526
 20
163.4709140994498
 30
0.0
 11
74.5343582538526
 21
165.4709140994498
 31
0.0
  0
MTEXT
  5
10C
330
107
100
AcDbEntity
  8
DIM
 62
     0
100
AcDbMText
 10
74.53435825385255
 20
167.7209140994498
 30
0.0
 40
0.9999999999999998
 41
0.0
 71
     5
 72
     1
  1
\A1;1.086
 11
0.0000000000000001
 21
1.0
 31
0.0
 73
     1
 44
1.0
1001
ACAD
1000
MTEXTBEGIN
1070
    73
1070
     1
1070
    44
1040
1.0
1070
    74
1070
     0
1000
MTEXTEND
  0
POINT
  5
10D
330
107
100
AcDbEntity
  8
Defpoints
 62
     0
100
AcDbPoint
 10
75.5343582538526
 20
154.62991409945
 30
0.0
  0
POINT
  5
10E
330
107
100
AcDbEntity
  8
Defpoints
 62
     0
100
AcDbPoint
 10
74.5343582538526
 20
165.4709140994498
 30
0.0
  0
POINT
  5
10F
330
107
100
AcDbEntity
  8
Defpoints
 62
     0
100
AcDbPoint
 10
74.44837146015402
 20
125.5049421682588
 30
0.0
  0
ENDBLK
  5
110
330
107
100
AcDbEntity
  8
0
100
AcDbBlockEnd
  0
BLOCK
  5
112
330
111
100
AcDbEntity
  8
0
100
AcDbBlockBegin
  2
*D17
 70
     1
 10
0.0
 20
0.0
 30
0.0
  3
*D17
  1

  0
LINE
  5
113
330
111
100
AcDbEntity
  8
DIM
 62
     0
370
    -2
100
AcDbLine
 10
76.07635825385234
 20
161.2399140994502
 30
0.0
 11
76.07635825385234
 21
165.4709140994498
 31
0.0
  0
MTEXT
  5
114
330
111
100
AcDbEntity
  8
DIM
 62
     0
100
AcDbMText
 10
76.0763582538523
 20
167.8042474327831
 30
0.0
 40
0.9999999999999998
 41
0.0
 71
     5
 72
     1
  1
\A1;1.628
 11
0.0000000000000001
 21
1.0
 31
0.0
 73
     1
 44
1.0
1001
ACAD
1000
MTEXTBEGIN
1070
    73
1070
     1
1070
    44
1040
1.0
1070
    74
1070
     0
1000
MTEXTEND
  0
POINT
  5
115
330
111
100
AcDbEntity
  8
Defpoints
 62
     0
100
AcDbPoint
 10
76.07635825385234
 20
160.8649140994502
 30
0.0
  0
POINT
  5
116
330
111
100
AcDbEntity
  8
Defpoints
 62
     0
100
AcDbPoint
 10
76.07635825385234
 20
165.4709140994498
 30
0.0
  0
POINT
  5
117
330
111
100
AcDbEntity
  8
Defpoints
 62
     0
100
AcDbPoint
 10
74.44837146015402
 20
125.5049421682588
 30
0.0
  0
ENDBLK
  5
118
330
111
100
AcDbEntity
  8
0
100
AcDbBlockEnd
  0
BLOCK
  5
11A
330
119
100
AcDbEntity
  8
0
100
AcDbBlockBegin
  2
*D18
 70
     1
 10
0.0
 20
0.0
 30
0.0
  3
*D18
  1

  0
LINE
  5
11B
330
119
100
AcDbEntity
  8
DIM
 62
     0
370
    -2
100
AcDbLine
 10
80.52235825385247
 20
161.2399140994502
 30
0.0
 11
80.52235825385247
 21
165.4709140994498
 31
0.0
  0
MTEXT
  5
11C
330
119
100
AcDbEntity
  8
DIM
 62
     0
100
AcDbMText
 10
80.52235825385244
 20
167.8875807661165
 30
0.0
 40
0.9999999999999998
 41
0.0
 71
     5
 72
     1
  1
\A1;6.074
 11
0.0000000000000001
 21
1.0
 31
0.0
 73
     1
 44
1.0
1001
ACAD
1000
MTEXTBEGIN
1070
    73
1070
     1
1070
    44
1040
1.0
1070
    74
1070
     0
1000
MTEXTEND
  0
POINT
  5
11D
330
119
100
AcDbEntity
  8
Defpoints
 62
     0
100
AcDbPoint
 10
80.52235825385247
 20
160.8649140994502
 30
0.0
  0
POINT
  5
11E
330
119
100
AcDbEntity
  8
Defpoints
 62
     0
100
AcDbPoint
 10
80.52235825385247
 20
165.4709140994498
 30
0.0
  0
POINT
  5
11F
330
119
100
AcDbEntity
  8
Defpoints
 62
     0
100
AcDbPoint
 10
74.44837146015402
 20
125.5049421682588
 30
0.0
  0
ENDBLK
  5
120
330
119
100
AcDbEntity
  8
0
100
AcDbBlockEnd
  0
BLOCK
  5
122
330
121
100
AcDbEntity
  8
0
100
AcDbBlockBegin
  2
*D19
 70
     1
 10
0.0
 20
0.0
 30
0.0
  3
*D19
  1

  0
LINE
  5
123
330
121
100
AcDbEntity
  8
DIM
 62
     0
370
    -2
100
AcDbLine
 10
89.28435825385262
 20
155.0049140994499
 30
0.0
 11
89.28435825385266
 21
161.4709140994498
 31
0.0
  0
LINE
  5
124
330
121
100
AcDbEntity
  8
DIM
 62
     0
370
    -2
100
AcDbLine
 10
89.28435825385266
 20
161.4709140994498
 30
0.0
 11
90.28435825385264
 21
163.4709140994498
 31
0.0
  0
LINE
  5
125
330
121
100
AcDbEntity
  8
DIM
 62
     0
370
    -2
100
AcDbLine
 10
90.28435825385264
 20
163.4709140994498
 30
0.0
 11
90.28435825385264
 21
165.4709140994498
 31
0.0
  0
MTEXT
  5
126
330
121
100
AcDbEntity
  8
DIM
 62
     0
100
AcDbMText
 10
90.28435825385264
 20
168.3042474327832
 30
0.0
 40
0.9999999999999998
 41
0.0
 71
     5
 72
     1
  1
\A1;14.836
 11
0.0000000000000001
 21
1.0
 31
0.0
 73
     1
 44
1.0
1001
ACAD
1000
MTEXTBEGIN
1070
    73
1070
     1
1070
    44
1040
1.0
1070
    74
1070
     0
1000
MTEXTEND
  0
POINT
  5
127
330
121
100
AcDbEntity
  8
Defpoints
 62
     0
100
AcDbPoint
 10
89.28435825385262
 20
154.6299140994499
 30
0.0
  0
POINT
  5
128
330
121
100
AcDbEntity
  8
Defpoints
 62
     0
100
AcDbPoint
 10
90.28435825385264
 20
165.4709140994498
 30
0.0
  0
POINT
  5
129
330
121
100
AcDbEntity
  8
Defpoints
 62
     0
100
AcDbPoint
 10
74.44837146015402
 20
125.5049421682588
 30
0.0
  0
ENDBLK
  5
12A
330
121
100
AcDbEntity
  8
0
100
AcDbBlockEnd
  0
BLOCK
  5
12C
330
12B
100
AcDbEntity
  8
0
100
AcDbBlockBegin
  2
*D20
 70
     1
 10
0.0
 20
0.0
 30
0.0
  3
*D20
  1

  0
LINE
  5
12D
330
12B
100
AcDbEntity
  8
DIM
 62
     0
370
    -2
100
AcDbLine
 10
88.89635825385273
 20
161.23991409945
 30
0.0
 11
88.89635825385273
 21
165.4709140994498
 31
0.0
  0
MTEXT
  5
12E
330
12B
100
AcDbEntity
  8
DIM
 62
     0
100
AcDbMText
 10
88.89635825385269
 20
168.3042474327832
 30
0.0
 40
0.9999999999999998
 41
0.0
 71
     5
 72
     1
  1
\A1;14.448
 11
0.0000000000000001
 21
1.0
 31
0.0
 73
     1
 44
1.0
1001
ACAD
1000
MTEXTBEGIN
1070
    73
1070
     1
1070
    44
1040
1.0
1070
    74
1070
     0
1000
MTEXTEND
  0
POINT
  5
12F
330
12B
100
AcDbEntity
  8
Defpoints
 62
     0
100
AcDbPoint
 10
88.89635825385273
 20
160.8649140994501
 30
0.0
  0
POINT
  5
130
330
12B
100
AcDbEntity
  8
Defpoints
 62
     0
100
AcDbPoint
 10
88.89635825385273
 20
165.4709140994498
 30
0.0
  0
POINT
  5
131
330
12B
100
AcDbEntity
  8
Defpoints
 62
     0
100
AcDbPoint
 10
74.44837146015402
 20
125.5049421682588
 30
0.0
  0
ENDBLK
  5
132
330
12B
100
AcDbEntity
  8
0
100
AcDbBlockEnd
  0
BLOCK
  5
134
330
133
100
AcDbEntity
  8
0
100
AcDbBlockBegin
  2
*D21
 70
     1
 10
0.0
 20
0.0
 30
0.0
  3
*D21
  1

  0
LINE
  5
135
330
133
100
AcDbEntity
  8
DIM
 62
     0
370
    -2
100
AcDbLine
 10
84.45035825385259
 20
161.2399140994501
 30
0.0
 11
84.45035825385259
 21
165.4709140994498
 31
0.0
  0
MTEXT
  5
136
330
133
100
AcDbEntity
  8
DIM
 62
     0
100
AcDbMText
 10
84.45035825385254
 20
168.0542474327831
 30
0.0
 40
0.9999999999999998
 41
0.0
 71
     5
 72
     1
  1
\A1;10.002
 11
0.0000000000000001
 21
1.0
 31
0.0
 73
     1
 44
1.0
1001
ACAD
1000
MTEXTBEGIN
1070
    73
1070
     1
1070
    44
1040
1.0
1070
    74
1070
     0
1000
MTEXTEND
  0
POINT
  5
137
330
133
100
AcDbEntity
  8
Defpoints
 62
     0
100
AcDbPoint
 10
84.45035825385259
 20
160.8649140994501
 30
0.0
  0
POINT
  5
138
330
133
100
AcDbEntity
  8
Defpoints
 62
     0
100
AcDbPoint
 10
84.45035825385259
 20
165.4709140994498
 30
0.0
  0
POINT
  5
139
330
133
100
AcDbEntity
  8
Defpoints
 62
     0
100
AcDbPoint
 10
74.44837146015402
 20
125.5049421682588
 30
0.0
  0
ENDBLK
  5
13A
330
133
100
AcDbEntity
  8
0
100
AcDbBlockEnd
  0
BLOCK
  5
13C
330
13B
100
AcDbEntity
  8
0
100
AcDbBlockBegin
  2
*D22
 70
     1
 10
0.0
 20
0.0
 30
0.0
  3
*D22
  1

  0
LINE
  5
13D
330
13B
100
AcDbEntity
  8
DIM
 62
     0
370
    -2
100
AcDbLine
 10
89.03935825385275
 20
148.1299140994499
 30
0.0
 11
89.03935825385275
 21
146.5049140994499
 31
0.0
  0
LINE
  5
13E
330
13B
100
AcDbEntity
  8
DIM
 62
     0
370
    -2
100
AcDbLine
 10
89.03935825385275
 20
146.5049140994499
 30
0.0
 11
88.0708582538527
 21
145.5049140994499
 31
0.0
  0
LINE
  5
13F
330
13B
100
AcDbEntity
  8
DIM
 62
     0
370
    -2
100
AcDbLine
 10
88.0708582538527
 20
145.5049140994499
 30
0.0
 11
88.0708582538527
 21
143.5049140994499
 31
0.0
  0
MTEXT
  5
140
330
13B
100
AcDbEntity
  8
DIM
 62
     0
100
AcDbMText
 10
88.0708582538527
 20
140.8382474327833
 30
0.0
 40
0.9999999999999998
 41
0.0
 71
     5
 72
     1
  1
\A1;14.591
 11
0.0000000000000001
 21
1.0
 31
0.0
 73
     1
 44
1.0
1001
ACAD
1000
MTEXTBEGIN
1070
    73
1070
     1
1070
    44
1040
1.0
1070
    74
1070
     0
1000
MTEXTEND
  0
POINT
  5
141
330
13B
100
AcDbEntity
  8
Defpoints
 62
     0
100
AcDbPoint
 10
89.03935825385275
 20
148.5049140994499
 30
0.0
  0
POINT
  5
142
330
13B
100
AcDbEntity
  8
Defpoints
 62
     0
100
AcDbPoint
 10
88.0708582538527
 20
143.5049140994499
 30
0.0
  0
POINT
  5
143
330
13B
100
AcDbEntity
  8
Defpoints
 62
     0
100
AcDbPoint
 10
74.44837146015402
 20
124.0049421682588
 30
0.0
  0
ENDBLK
  5
144
330
13B
100
AcDbEntity
  8
0
100
AcDbBlockEnd
  0
BLOCK
  5
146
330
145
100
AcDbEntity
  8
0
100
AcDbBlockBegin
  2
*D23
 70
     1
 10
0.0
 20
0.0
 30
0.0
  3
*D23
  1

  0
LINE
  5
147
330
145
100
AcDbEntity
  8
DIM
 62
     0
370
    -2
100
AcDbLine
 10
89.85235825385263
 20
128.0049140994499
 30
0.0
 11
89.85235825385261
 21
119.3137885851913
 31
0.0
  0
MTEXT
  5
148
330
145
100
AcDbEntity
  8
DIM
 62
     0
100
AcDbMText
 10
89.8523582538526
 20
116.5637885851913
 30
0.0
 40
0.9999999999999998
 41
0.0
 71
     5
 72
     1
  1
\A1;15.404
 11
0.0000000000000001
 21
1.0
 31
0.0
 73
     1
 44
1.0
1001
ACAD
1000
MTEXTBEGIN
1070
    73
1070
     1
1070
    44
1040
1.0
1070
    74
1070
     0
1000
MTEXTEND
  0
POINT
  5
149
330
145
100
AcDbEntity
  8
Defpoints
 62
     0
100
AcDbPoint
 10
89.85235825385263
 20
128.3799140994499
 30
0.0
  0
POINT
  5
14A
330
145
100
AcDbEntity
  8
Defpoints
 62
     0
100
AcDbPoint
 10
89.85235825385261
 20
119.3137885851913
 30
0.0
  0
POINT
  5
14B
330
145
100
AcDbEntity
  8
Defpoints
 62
     0
100
AcDbPoint
 10
74.44837146015402
 20
125.5049421682588
 30
0.0
  0
ENDBLK
  5
14C
330
145
100
AcDbEntity
  8
0
100
AcDbBlockEnd
  0
BLOCK
  5
14E
330
14D
100
AcDbEntity
  8
0
100
AcDbBlockBegin
  2
*D24
 70
     1
 10
0.0
 20
0.0
 30
0.0
  3
*D24
  1

  0
LINE
  5
14F
330
14D
100
AcDbEntity
  8
DIM
 62
     0
370
    -2
100
AcDbLine
 10
74.97635825385265
 20
128.0049140994499
 30
0.0
 11
74.97635825385265
 21
122.1764943550885
 31
0.0
  0
LINE
  5
150
330
14D
100
AcDbEntity
  8
DIM
 62
     0
370
    -2
100
AcDbLine
 10
74.97635825385265
 20
122.1764943550885
 30
0.0
 11
75.97635825385265
 21
120.1764943550885
 31
0.0
  0
LINE
  5
151
330
14D
100
AcDbEntity
  8
DIM
 62
     0
370
    -2
100
AcDbLine
 10
75.97635825385265
 20
120.1764943550885
 30
0.0
 11
75.97635825385265
 21
118.1764943550885
 31
0.0
  0
MTEXT
  5
152
330
14D
100
AcDbEntity
  8
DIM
 62
     0
100
AcDbMText
 10
75.97635825385262
 20
115.7598276884218
 30
0.0
 40
0.9999999999999998
 41
0.0
 71
     5
 72
     1
  1
\A1;0.528
 11
0.0000000000000001
 21
1.0
 31
0.0
 73
     1
 44
1.0
1001
ACAD
1000
MTEXTBEGIN
1070
    73
1070
     1
1070
    44
1040
1.0
1070
    74
1070
     0
1000
MTEXTEND
  0
POINT
  5
153
330
14D
100
AcDbEntity
  8
Defpoints
 62
     0
100
AcDbPoint
 10
74.97635825385265
 20
128.3799140994499
 30
0.0
  0
POINT
  5
154
330
14D
100
AcDbEntity
  8
Defpoints
 62
     0
100
AcDbPoint
 10
75.97635825385265
 20
118.1764943550885
 30
0.0
  0
POINT
  5
155
330
14D
100
AcDbEntity
  8
Defpoints
 62
     0
100
AcDbPoint
 10
74.44837146015402
 20
125.5049421682588
 30
0.0
  0
ENDBLK
  5
156
330
14D
100
AcDbEntity
  8
0
100
AcDbBlockEnd
  0
BLOCK
  5
158
330
157
100
AcDbEntity
  8
0
100
AcDbBlockBegin
  2
*D25
 70
     1
 10
0.0
 20
0.0
 30
0.0
  3
*D25
  1

  0
LINE
  5
159
330
157
100
AcDbEntity
  8
DIM
 62
     0
370
    -2
100
AcDbLine
 10
78.53935825385275
 20
135.0049140994499
 30
0.0
 11
78.53935825385275
 21
117.56847279618
 31
0.0
  0
MTEXT
  5
15A
330
157
100
AcDbEntity
  8
DIM
 62
     0
100
AcDbMText
 10
78.53935825385272
 20
115.31847279618
 30
0.0
 40
0.9999999999999998
 41
0.0
 71
     5
 72
     1
  1
\A1;4.091
 11
0.0000000000000001
 21
1.0
 31
0.0
 73
     1
 44
1.0
1001
ACAD
1000
MTEXTBEGIN
1070
    73
1070
     1
1070
    44
1040
1.0
1070
    74
1070
     0
1000
MTEXTEND
  0
POINT
  5
15B
330
157
100
AcDbEntity
  8
Defpoints
 62
     0
100
AcDbPoint
 10
78.53935825385275
 20
135.3799140994499
 30
0.0
  0
POINT
  5
15C
330
157
100
AcDbEntity
  8
Defpoints
 62
     0
100
AcDbPoint
 10
78.53935825385275
 20
117.56847279618
 30
0.0
  0
POINT
  5
15D
330
157
100
AcDbEntity
  8
Defpoints
 62
     0
100
AcDbPoint
 10
74.44837146015402
 20
125.5049421682588
 30
0.0
  0
ENDBLK
  5
15E
330
157
100
AcDbEntity
  8
0
100
AcDbBlockEnd
  0
BLOCK
  5
160
330
15F
100
AcDbEntity
  8
0
100
AcDbBlockBegin
  2
*D26
 70
     1
 10
0.0
 20
0.0
 30
0.0
  3
*D26
  1

  0
LINE
  5
161
330
15F
100
AcDbEntity
  8
DIM
 62
     0
370
    -2
100
AcDbLine
 10
86.28935825385275
 20
135.0049140994499
 30
0.0
 11
86.28935825385275
 21
118.5231413855585
 31
0.0
  0
MTEXT
  5
162
330
15F
100
AcDbEntity
  8
DIM
 62
     0
100
AcDbMText
 10
86.28935825385273
 20
116.0231413855586
 30
0.0
 40
0.9999999999999998
 41
0.0
 71
     5
 72
     1
  1
\A1;11.841
 11
0.0000000000000001
 21
1.0
 31
0.0
 73
     1
 44
1.0
1001
ACAD
1000
MTEXTBEGIN
1070
    73
1070
     1
1070
    44
1040
1.0
1070
    74
1070
     0
1000
MTEXTEND
  0
POINT
  5
163
330
15F
100
AcDbEntity
  8
Defpoints
 62
     0
100
AcDbPoint
 10
86.28935825385275
 20
135.3799140994499
 30
0.0
  0
POINT
  5
164
330
15F
100
AcDbEntity
  8
Defpoints
 62
     0
100
AcDbPoint
 10
86.28935825385275
 20
118.5231413855585
 30
0.0
  0
POINT
  5
165
330
15F
100
AcDbEntity
  8
Defpoints
 62
     0
100
AcDbPoint
 10
74.44837146015402
 20
125.5049421682588
 30
0.0
  0
ENDBLK
  5
166
330
15F
100
AcDbEntity
  8
0
100
AcDbBlockEnd
  0
BLOCK
  5
168
330
167
100
AcDbEntity
  8
0
100
AcDbBlockBegin
  2
*D27
 70
     1
 10
0.0
 20
0.0
 30
0.0
  3
*D27
  1

  0
LINE
  5
169
330
167
100
AcDbEntity
  8
DIM
 62
     0
370
    -2
100
AcDbLine
 10
86.53935825385275
 20
150.3799140994499
 30
0.0
 11
86.53935825385275
 21
147.7923758572402
 31
0.0
  0
LINE
  5
16A
330
167
100
AcDbEntity
  8
DIM
 62
     0
370
    -2
100
AcDbLine
 10
86.53935825385275
 20
147.7923758572402
 30
0.0
 11
82.17506790513596
 21
145.7923758572402
 31
0.0
  0
LINE
  5
16B
330
167
100
AcDbEntity
  8
DIM
 62
     0
370
    -2
100
AcDbLine
 10
82.17506790513596
 20
145.7923758572402
 30
0.0
 11
82.17506790513596
 21
143.7923758572402
 31
0.0
  0
MTEXT
  5
16C
330
167
100
AcDbEntity
  8
DIM
 62
     0
100
AcDbMText
 10
82.17506790513594
 20
141.2090425239068
 30
0.0
 40
0.9999999999999998
 41
0.0
 71
     5
 72
     1
  1
\A1;12.091
 11
0.0000000000000001
 21
1.0
 31
0.0
 73
     1
 44
1.0
1001
ACAD
1000
MTEXTBEGIN
1070
    73
1070
     1
1070
    44
1040
1.0
1070
    74
1070
     0
1000
MTEXTEND
  0
POINT
  5
16D
330
167
100
AcDbEntity
  8
Defpoints
 62
     0
100
AcDbPoint
 10
86.53935825385275
 20
150.7549140994499
 30
0.0
  0
POINT
  5
16E
330
167
100
AcDbEntity
  8
Defpoints
 62
     0
100
AcDbPoint
 10
82.17506790513596
 20
143.7923758572402
 30
0.0
  0
POINT
  5
16F
330
167
100
AcDbEntity
  8
Defpoints
 62
     0
100
AcDbPoint
 10
74.44837146015402
 20
125.5049421682588
 30
0.0
  0
ENDBLK
  5
170
330
167
100
AcDbEntity
  8
0
100
AcDbBlockEnd
  0
BLOCK
  5
214
330
20C
100
AcDbEntity
  8
0
100
AcDbBlockBegin
  2
*D28
 70
     1
 10
0.0
 20
0.0
 30
0.0
  3
*D28
  1

  0
LINE
  5
2F4
330
20C
100
AcDbEntity
  8
DIM
 62
     0
370
    -2
100
AcDbLine
 10
55.09018712968917
 20
-65.19304530072922
 30
0.0
 11
55.09018712968917
 21
-67.95558354293897
 31
0.0
  0
LINE
  5
2F5
330
20C
100
AcDbEntity
  8
DIM
 62
     0
370
    -2
100
AcDbLine
 10
55.09018712968917
 20
-67.95558354293897
 30
0.0
 11
50.7258967809724
 21
-69.95558354293897
 31
0.0
  0
LINE
  5
2F6
330
20C
100
AcDbEntity
  8
DIM
 62
     0
370
    -2
100
AcDbLine
 10
50.7258967809724
 20
-69.95558354293897
 30
0.0
 11
50.7258967809724
 21
-71.95558354293897
 31
0.0
  0
MTEXT
  5
2F7
330
20C
100
AcDbEntity
  8
DIM
 62
     0
100
AcDbMText
 10
50.7258967809724
 20
-74.12891687627229
 30
0.0
 40
0.9999999999999998
 41
0.0
 71
     5
 72
     1
  1
\A1;12.091
 11
0.0000000000000001
 21
1.0
 31
0.0
 73
     1
 44
1.0
1001
ACAD
1000
MTEXTBEGIN
1070
    73
1070
     1
1070
    44
1040
1.0
1070
    74
1070
     0
1000
MTEXTEND
  0
POINT
  5
2F8
330
20C
100
AcDbEntity
  8
Defpoints
 62
     0
100
AcDbPoint
 10
55.09018712968917
 20
-64.99304530072922
 30
0.0
  0
POINT
  5
2F9
330
20C
100
AcDbEntity
  8
Defpoints
 62
     0
100
AcDbPoint
 10
50.7258967809724
 20
-71.95558354293897
 30
0.0
  0
POINT
  5
2FA
330
20C
100
AcDbEntity
  8
Defpoints
 62
     0
100
AcDbPoint
 10
42.99920033599046
 20
-90.24301723192031
 30
0.0
  0
ENDBLK
  5
215
330
20C
100
AcDbEntity
  8
0
100
AcDbBlockEnd
  0
BLOCK
  5
21E
330
216
100
AcDbEntity
  8
0
100
AcDbBlockBegin
  2
*D29
 70
     1
 10
0.0
 20
0.0
 30
0.0
  3
*D29
  1

  0
LINE
  5
5B7
330
216
100
AcDbEntity
  8
DIM
 62
     0
370
    -2
100
AcDbLine
 10
54.89018712968918
 20
-64.99304530072922
 30
0.0
 11
43.60043134630086
 21
-64.99304530072922
 31
0.0
  0
LINE
  5
5B8
330
216
100
AcDbEntity
  8
DIM
 62
     0
370
    -2
100
AcDbLine
 10
43.60043134630086
 20
-64.99304530072922
 30
0.0
 11
41.60043134630086
 21
-61.0629253537724
 31
0.0
  0
LINE
  5
5B9
330
216
100
AcDbEntity
  8
DIM
 62
     0
370
    -2
100
AcDbLine
 10
41.60043134630086
 20
-61.0629253537724
 30
0.0
 11
39.60043134630087
 21
-61.0629253537724
 31
0.0
  0
MTEXT
  5
5BA
330
216
100
AcDbEntity
  8
DIM
 62
     0
100
AcDbMText
 10
37.09376467963422
 20
-61.0629253537724
 30
0.0
 40
0.9999999999999998
 41
0.0
 71
     5
 72
     1
  1
\A1;25.250
 73
     1
 44
1.0
1001
ACAD
1000
MTEXTBEGIN
1070
    73
1070
     1
1070
    44
1040
1.0
1070
    74
1070
     0
1000
MTEXTEND
  0
POINT
  5
5BB
330
216
100
AcDbEntity
  8
Defpoints
 62
     0
100
AcDbPoint
 10
55.09018712968917
 20
-64.99304530072922
 30
0.0
  0
POINT
  5
5BC
330
216
100
AcDbEntity
  8
Defpoints
 62
     0
100
AcDbPoint
 10
39.60043134630087
 20
-61.0629253537724
 30
0.0
  0
POINT
  5
5BD
330
216
100
AcDbEntity
  8
Defpoints
 62
     0
100
AcDbPoint
 10
42.99920033599046
 20
-90.24301723192031
 30
0.0
  0
ENDBLK
  5
21F
330
216
100
AcDbEntity
  8
0
100
AcDbBlockEnd
  0
BLOCK
  5
226
330
220
100
AcDbEntity
  8
0
100
AcDbBlockBegin
  2
*D30
 70
     1
 10
0.0
 20
0.0
 30
0.0
  3
*D30
  1

  0
LINE
  5
302
330
220
100
AcDbEntity
  8
DIM
 62
     0
370
    -2
100
AcDbLine
 10
42.99918712968912
 20
-94.6180453007298
 30
0.0
 11
42.99918712968907
 21
-98.06666197072416
 31
0.0
  0
MTEXT
  5
303
330
220
100
AcDbEntity
  8
DIM
 62
     0
100
AcDbMText
 10
42.99918712968909
 20
-100.2333286373908
 30
0.0
 40
0.9999999999999998
 41
0.0
 71
     5
 72
     1
  1
\A1;0.000
 11
0.0000000000000001
 21
1.0
 31
0.0
 73
     1
 44
1.0
1001
ACAD
1000
MTEXTBEGIN
1070
    73
1070
     1
1070
    44
1040
1.0
1070
    74
1070
     0
1000
MTEXTEND
  0
POINT
  5
304
330
220
100
AcDbEntity
  8
Defpoints
 62
     0
100
AcDbPoint
 10
42.99918712968912
 20
-94.24304530072978
 30
0.0
  0
POINT
  5
305
330
220
100
AcDbEntity
  8
Defpoints
 62
     0
100
AcDbPoint
 10
42.99918712968907
 20
-98.06666197072416
 30
0.0
  0
POINT
  5
306
330
220
100
AcDbEntity
  8
Defpoints
 62
     0
100
AcDbPoint
 10
42.99918712968912
 20
-94.24304530072978
 30
0.0
  0
ENDBLK
  5
227
330
220
100
AcDbEntity
  8
0
100
AcDbBlockEnd
  0
BLOCK
  5
230
330
228
100
AcDbEntity
  8
0
100
AcDbBlockBegin
  2
*D31
 70
     1
 10
0.0
 20
0.0
 30
0.0
  3
*D31
  1

  0
LINE
  5
307
330
228
100
AcDbEntity
  8
DIM
 62
     0
370
    -2
100
AcDbLine
 10
44.085187129689
 20
-60.74304530072915
 30
0.0
 11
44.085187129689
 21
-54.27704530072932
 31
0.0
  0
LINE
  5
308
330
228
100
AcDbEntity
  8
DIM
 62
     0
370
    -2
100
AcDbLine
 10
44.085187129689
 20
-54.27704530072932
 30
0.0
 11
43.085187129689
 21
-52.27704530072932
 31
0.0
  0
LINE
  5
309
330
228
100
AcDbEntity
  8
DIM
 62
     0
370
    -2
100
AcDbLine
 10
43.085187129689
 20
-52.27704530072932
 30
0.0
 11
43.085187129689
 21
-50.27704530072932
 31
0.0
  0
MTEXT
  5
30A
330
228
100
AcDbEntity
  8
DIM
 62
     0
100
AcDbMText
 10
43.08518712968903
 20
-48.02704530072931
 30
0.0
 40
0.9999999999999998
 41
0.0
 71
     5
 72
     1
  1
\A1;1.086
 11
0.0000000000000001
 21
1.0
 31
0.0
 73
     1
 44
1.0
1001
ACAD
1000
MTEXTBEGIN
1070
    73
1070
     1
1070
    44
1040
1.0
1070
    74
1070
     0
1000
MTEXTEND
  0
POINT
  5
30B
330
228
100
AcDbEntity
  8
Defpoints
 62
     0
100
AcDbPoint
 10
44.085187129689
 20
-61.11804530072916
 30
0.0
  0
POINT
  5
30C
330
228
100
AcDbEntity
  8
Defpoints
 62
     0
100
AcDbPoint
 10
43.085187129689
 20
-50.27704530072932
 30
0.0
  0
POINT
  5
30D
330
228
100
AcDbEntity
  8
Defpoints
 62
     0
100
AcDbPoint
 10
42.99920033599046
 20
-90.24301723192031
 30
0.0
  0
ENDBLK
  5
231
330
228
100
AcDbEntity
  8
0
100
AcDbBlockEnd
  0
BLOCK
  5
238
330
232
100
AcDbEntity
  8
0
100
AcDbBlockBegin
  2
*D32
 70
     1
 10
0.0
 20
0.0
 30
0.0
  3
*D32
  1

  0
LINE
  5
30E
330
232
100
AcDbEntity
  8
DIM
 62
     0
370
    -2
100
AcDbLine
 10
44.62718712968875
 20
-54.50804530072892
 30
0.0
 11
44.62718712968875
 21
-50.27704530072932
 31
0.0
  0
MTEXT
  5
30F
330
232
100
AcDbEntity
  8
DIM
 62
     0
100
AcDbMText
 10
44.62718712968878
 20
-47.94371196739596
 30
0.0
 40
0.9999999999999998
 41
0.0
 71
     5
 72
     1
  1
\A1;1.628
 11
0.0000000000000001
 21
1.0
 31
0.0
 73
     1
 44
1.0
1001
ACAD
1000
MTEXTBEGIN
1070
    73
1070
     1
1070
    44
1040
1.0
1070
    74
1070
     0
1000
MTEXTEND
  0
POINT
  5
310
330
232
100
AcDbEntity
  8
Defpoints
 62
     0
100
AcDbPoint
 10
44.62718712968875
 20
-54.8830453007289
 30
0.0
  0
POINT
  5
311
330
232
100
AcDbEntity
  8
Defpoints
 62
     0
100
AcDbPoint
 10
44.62718712968875
 20
-50.27704530072932
 30
0.0
  0
POINT
  5
312
330
232
100
AcDbEntity
  8
Defpoints
 62
     0
100
AcDbPoint
 10
42.99920033599046
 20
-90.24301723192031
 30
0.0
  0
ENDBLK
  5
239
330
232
100
AcDbEntity
  8
0
100
AcDbBlockEnd
  0
BLOCK
  5
240
330
23A
100
AcDbEntity
  8
0
100
AcDbBlockBegin
  2
*D33
 70
     1
 10
0.0
 20
0.0
 30
0.0
  3
*D33
  1

  0
LINE
  5
313
330
23A
100
AcDbEntity
  8
DIM
 62
     0
370
    -2
100
AcDbLine
 10
49.07318712968891
 20
-54.50804530072897
 30
0.0
 11
49.07318712968891
 21
-50.27704530072932
 31
0.0
  0
MTEXT
  5
314
330
23A
100
AcDbEntity
  8
DIM
 62
     0
100
AcDbMText
 10
49.07318712968891
 20
-47.86037863406264
 30
0.0
 40
0.9999999999999998
 41
0.0
 71
     5
 72
     1
  1
\A1;6.074
 11
0.0000000000000001
 21
1.0
 31
0.0
 73
     1
 44
1.0
1001
ACAD
1000
MTEXTBEGIN
1070
    73
1070
     1
1070
    44
1040
1.0
1070
    74
1070
     0
1000
MTEXTEND
  0
POINT
  5
315
330
23A
100
AcDbEntity
  8
Defpoints
 62
     0
100
AcDbPoint
 10
49.07318712968891
 20
-54.88304530072896
 30
0.0
  0
POINT
  5
316
330
23A
100
AcDbEntity
  8
Defpoints
 62
     0
100
AcDbPoint
 10
49.07318712968891
 20
-50.27704530072932
 30
0.0
  0
POINT
  5
317
330
23A
100
AcDbEntity
  8
Defpoints
 62
     0
100
AcDbPoint
 10
42.99920033599046
 20
-90.24301723192031
 30
0.0
  0
ENDBLK
  5
241
330
23A
100
AcDbEntity
  8
0
100
AcDbBlockEnd
  0
BLOCK
  5
24A
330
242
100
AcDbEntity
  8
0
100
AcDbBlockBegin
  2
*D34
 70
     1
 10
0.0
 20
0.0
 30
0.0
  3
*D34
  1

  0
LINE
  5
318
330
242
100
AcDbEntity
  8
DIM
 62
     0
370
    -2
100
AcDbLine
 10
57.83518712968907
 20
-60.74304530072922
 30
0.0
 11
57.83518712968907
 21
-54.27704530072932
 31
0.0
  0
LINE
  5
319
330
242
100
AcDbEntity
  8
DIM
 62
     0
370
    -2
100
AcDbLine
 10
57.83518712968907
 20
-54.27704530072932
 30
0.0
 11
58.83518712968907
 21
-52.27704530072932
 31
0.0
  0
LINE
  5
31A
330
242
100
AcDbEntity
  8
DIM
 62
     0
370
    -2
100
AcDbLine
 10
58.83518712968907
 20
-52.27704530072932
 30
0.0
 11
58.83518712968907
 21
-50.27704530072932
 31
0.0
  0
MTEXT
  5
31B
330
242
100
AcDbEntity
  8
DIM
 62
     0
100
AcDbMText
 10
58.83518712968909
 20
-47.44371196739597
 30
0.0
 40
0.9999999999999998
 41
0.0
 71
     5
 72
     1
  1
\A1;14.836
 11
0.0000000000000001
 21
1.0
 31
0.0
 73
     1
 44
1.0
1001
ACAD
1000
MTEXTBEGIN
1070
    73
1070
     1
1070
    44
1040
1.0
1070
    74
1070
     0
1000
MTEXTEND
  0
POINT
  5
31C
330
242
100
AcDbEntity
  8
Defpoints
 62
     0
100
AcDbPoint
 10
57.83518712968907
 20
-61.1180453007292
 30
0.0
  0
POINT
  5
31D
330
242
100
AcDbEntity
  8
Defpoints
 62
     0
100
AcDbPoint
 10
58.83518712968907
 20
-50.27704530072932
 30
0.0
  0
POINT
  5
31E
330
242
100
AcDbEntity
  8
Defpoints
 62
     0
100
AcDbPoint
 10
42.99920033599046
 20
-90.24301723192031
 30
0.0
  0
ENDBLK
  5
24B
330
242
100
AcDbEntity
  8
0
100
AcDbBlockEnd
  0
BLOCK
  5
252
330
24C
100
AcDbEntity
  8
0
100
AcDbBlockBegin
  2
*D35
 70
     1
 10
0.0
 20
0.0
 30
0.0
  3
*D35
  1

  0
LINE
  5
31F
330
24C
100
AcDbEntity
  8
DIM
 62
     0
370
    -2
100
AcDbLine
 10
57.44718712968914
 20
-54.50804530072907
 30
0.0
 11
57.44718712968914
 21
-50.27704530072932
 31
0.0
  0
MTEXT
  5
320
330
24C
100
AcDbEntity
  8
DIM
 62
     0
100
AcDbMText
 10
57.44718712968917
 20
-47.44371196739597
 30
0.0
 40
0.9999999999999998
 41
0.0
 71
     5
 72
     1
  1
\A1;14.448
 11
0.0000000000000001
 21
1.0
 31
0.0
 73
     1
 44
1.0
1001
ACAD
1000
MTEXTBEGIN
1070
    73
1070
     1
1070
    44
1040
1.0
1070
    74
1070
     0
1000
MTEXTEND
  0
POINT
  5
321
330
24C
100
AcDbEntity
  8
Defpoints
 62
     0
100
AcDbPoint
 10
57.44718712968914
 20
-54.88304530072909
 30
0.0
  0
POINT
  5
322
330
24C
100
AcDbEntity
  8
Defpoints
 62
     0
100
AcDbPoint
 10
57.44718712968914
 20
-50.27704530072932
 30
0.0
  0
POINT
  5
323
330
24C
100
AcDbEntity
  8
Defpoints
 62
     0
100
AcDbPoint
 10
42.99920033599046
 20
-90.24301723192031
 30
0.0
  0
ENDBLK
  5
253
330
24C
100
AcDbEntity
  8
0
100
AcDbBlockEnd
  0
BLOCK
  5
25A
330
254
100
AcDbEntity
  8
0
100
AcDbBlockBegin
  2
*D36
 70
     1
 10
0.0
 20
0.0
 30
0.0
  3
*D36
  1

  0
LINE
  5
324
330
254
100
AcDbEntity
  8
DIM
 62
     0
370
    -2
100
AcDbLine
 10
53.00118712968902
 20
-54.50804530072903
 30
0.0
 11
53.00118712968902
 21
-50.27704530072932
 31
0.0
  0
MTEXT
  5
325
330
254
100
AcDbEntity
  8
DIM
 62
     0
100
AcDbMText
 10
53.00118712968902
 20
-47.69371196739597
 30
0.0
 40
0.9999999999999998
 41
0.0
 71
     5
 72
     1
  1
\A1;10.002
 11
0.0000000000000001
 21
1.0
 31
0.0
 73
     1
 44
1.0
1001
ACAD
1000
MTEXTBEGIN
1070
    73
1070
     1
1070
    44
1040
1.0
1070
    74
1070
     0
1000
MTEXTEND
  0
POINT
  5
326
330
254
100
AcDbEntity
  8
Defpoints
 62
     0
100
AcDbPoint
 10
53.00118712968902
 20
-54.88304530072903
 30
0.0
  0
POINT
  5
327
330
254
100
AcDbEntity
  8
Defpoints
 62
     0
100
AcDbPoint
 10
53.00118712968902
 20
-50.27704530072932
 30
0.0
  0
POINT
  5
328
330
254
100
AcDbEntity
  8
Defpoints
 62
     0
100
AcDbPoint
 10
42.99920033599046
 20
-90.24301723192031
 30
0.0
  0
ENDBLK
  5
25B
330
254
100
AcDbEntity
  8
0
100
AcDbBlockEnd
  0
BLOCK
  5
264
330
25C
100
AcDbEntity
  8
0
100
AcDbBlockBegin
  2
*D37
 70
     1
 10
0.0
 20
0.0
 30
0.0
  3
*D37
  1

  0
LINE
  5
329
330
25C
100
AcDbEntity
  8
DIM
 62
     0
370
    -2
100
AcDbLine
 10
57.59018712968917
 20
-67.61804530072922
 30
0.0
 11
57.59018712968917
 21
-69.24304530072922
 31
0.0
  0
LINE
  5
32A
330
25C
100
AcDbEntity
  8
DIM
 62
     0
370
    -2
100
AcDbLine
 10
57.59018712968917
 20
-69.24304530072922
 30
0.0
 11
56.62168712968912
 21
-70.24304530072922
 31
0.0
  0
LINE
  5
32B
330
25C
100
AcDbEntity
  8
DIM
 62
     0
370
    -2
100
AcDbLine
 10
56.62168712968912
 20
-70.24304530072922
 30
0.0
 11
56.62168712968912
 21
-72.24304530072922
 31
0.0
  0
MTEXT
  5
32C
330
25C
100
AcDbEntity
  8
DIM
 62
     0
100
AcDbMText
 10
56.62168712968913
 20
-74.90971196739588
 30
0.0
 40
0.9999999999999998
 41
0.0
 71
     5
 72
     1
  1
\A1;14.591
 11
0.0000000000000001
 21
1.0
 31
0.0
 73
     1
 44
1.0
1001
ACAD
1000
MTEXTBEGIN
1070
    73
1070
     1
1070
    44
1040
1.0
1070
    74
1070
     0
1000
MTEXTEND
  0
POINT
  5
32D
330
25C
100
AcDbEntity
  8
Defpoints
 62
     0
100
AcDbPoint
 10
57.59018712968917
 20
-67.24304530072922
 30
0.0
  0
POINT
  5
32E
330
25C
100
AcDbEntity
  8
Defpoints
 62
     0
100
AcDbPoint
 10
56.62168712968912
 20
-72.24304530072922
 30
0.0
  0
POINT
  5
32F
330
25C
100
AcDbEntity
  8
Defpoints
 62
     0
100
AcDbPoint
 10
42.99920033599046
 20
-91.74301723192034
 30
0.0
  0
ENDBLK
  5
265
330
25C
100
AcDbEntity
  8
0
100
AcDbBlockEnd
  0
BLOCK
  5
26C
330
266
100
AcDbEntity
  8
0
100
AcDbBlockBegin
  2
*D38
 70
     1
 10
0.0
 20
0.0
 30
0.0
  3
*D38
  1

  0
LINE
  5
330
330
266
100
AcDbEntity
  8
DIM
 62
     0
370
    -2
100
AcDbLine
 10
58.40318712968906
 20
-87.74304530072923
 30
0.0
 11
58.40318712968901
 21
-96.43417081498785
 31
0.0
  0
MTEXT
  5
331
330
266
100
AcDbEntity
  8
DIM
 62
     0
100
AcDbMText
 10
58.40318712968904
 20
-99.1841708149878
 30
0.0
 40
0.9999999999999998
 41
0.0
 71
     5
 72
     1
  1
\A1;15.404
 11
0.0000000000000001
 21
1.0
 31
0.0
 73
     1
 44
1.0
1001
ACAD
1000
MTEXTBEGIN
1070
    73
1070
     1
1070
    44
1040
1.0
1070
    74
1070
     0
1000
MTEXTEND
  0
POINT
  5
332
330
266
100
AcDbEntity
  8
Defpoints
 62
     0
100
AcDbPoint
 10
58.40318712968906
 20
-87.3680453007292
 30
0.0
  0
POINT
  5
333
330
266
100
AcDbEntity
  8
Defpoints
 62
     0
100
AcDbPoint
 10
58.40318712968901
 20
-96.43417081498785
 30
0.0
  0
POINT
  5
334
330
266
100
AcDbEntity
  8
Defpoints
 62
     0
100
AcDbPoint
 10
42.99920033599046
 20
-90.24301723192031
 30
0.0
  0
ENDBLK
  5
26D
330
266
100
AcDbEntity
  8
0
100
AcDbBlockEnd
  0
BLOCK
  5
276
330
26E
100
AcDbEntity
  8
0
100
AcDbBlockBegin
  2
*D39
 70
     1
 10
0.0
 20
0.0
 30
0.0
  3
*D39
  1

  0
LINE
  5
335
330
26E
100
AcDbEntity
  8
DIM
 62
     0
370
    -2
100
AcDbLine
 10
43.52718712968907
 20
-87.74304530072923
 30
0.0
 11
43.52718712968907
 21
-93.57146504509064
 31
0.0
  0
LINE
  5
336
330
26E
100
AcDbEntity
  8
DIM
 62
     0
370
    -2
100
AcDbLine
 10
43.52718712968907
 20
-93.57146504509064
 30
0.0
 11
44.52718712968903
 21
-95.57146504509063
 31
0.0
  0
LINE
  5
337
330
26E
100
AcDbEntity
  8
DIM
 62
     0
370
    -2
100
AcDbLine
 10
44.52718712968903
 20
-95.57146504509063
 30
0.0
 11
44.52718712968903
 21
-97.57146504509064
 31
0.0
  0
MTEXT
  5
338
330
26E
100
AcDbEntity
  8
DIM
 62
     0
100
AcDbMText
 10
44.52718712968905
 20
-99.98813171175727
 30
0.0
 40
0.9999999999999998
 41
0.0
 71
     5
 72
     1
  1
\A1;0.528
 11
0.0000000000000001
 21
1.0
 31
0.0
 73
     1
 44
1.0
1001
ACAD
1000
MTEXTBEGIN
1070
    73
1070
     1
1070
    44
1040
1.0
1070
    74
1070
     0
1000
MTEXTEND
  0
POINT
  5
339
330
26E
100
AcDbEntity
  8
Defpoints
 62
     0
100
AcDbPoint
 10
43.52718712968907
 20
-87.3680453007292
 30
0.0
  0
POINT
  5
33A
330
26E
100
AcDbEntity
  8
Defpoints
 62
     0
100
AcDbPoint
 10
44.52718712968903
 20
-97.57146504509064
 30
0.0
  0
POINT
  5
33B
330
26E
100
AcDbEntity
  8
Defpoints
 62
     0
100
AcDbPoint
 10
42.99920033599046
 20
-90.24301723192031
 30
0.0
  0
ENDBLK
  5
277
330
26E
100
AcDbEntity
  8
0
100
AcDbBlockEnd
  0
BLOCK
  5
27E
330
278
100
AcDbEntity
  8
0
100
AcDbBlockBegin
  2
*D40
 70
     1
 10
0.0
 20
0.0
 30
0.0
  3
*D40
  1

  0
LINE
  5
33C
330
278
100
AcDbEntity
  8
DIM
 62
     0
370
    -2
100
AcDbLine
 10
47.09018712968918
 20
-80.74304530072922
 30
0.0
 11
47.09018712968914
 21
-98.17948660399915
 31
0.0
  0
MTEXT
  5
33D
330
278
100
AcDbEntity
  8
DIM
 62
     0
100
AcDbMText
 10
47.09018712968915
 20
-100.4294866039991
 30
0.0
 40
0.9999999999999998
 41
0.0
 71
     5
 72
     1
  1
\A1;4.091
 11
0.0000000000000001
 21
1.0
 31
0.0
 73
     1
 44
1.0
1001
ACAD
1000
MTEXTBEGIN
1070
    73
1070
     1
1070
    44
1040
1.0
1070
    74
1070
     0
1000
MTEXTEND
  0
POINT
  5
33E
330
278
100
AcDbEntity
  8
Defpoints
 62
     0
100
AcDbPoint
 10
47.09018712968918
 20
-80.36804530072922
 30
0.0
  0
POINT
  5
33F
330
278
100
AcDbEntity
  8
Defpoints
 62
     0
100
AcDbPoint
 10
47.09018712968914
 20
-98.17948660399915
 30
0.0
  0
POINT
  5
340
330
278
100
AcDbEntity
  8
Defpoints
 62
     0
100
AcDbPoint
 10
42.99920033599046
 20
-90.24301723192031
 30
0.0
  0
ENDBLK
  5
27F
330
278
100
AcDbEntity
  8
0
100
AcDbBlockEnd
  0
BLOCK
  5
286
330
280
100
AcDbEntity
  8
0
100
AcDbBlockBegin
  2
*D41
 70
     1
 10
0.0
 20
0.0
 30
0.0
  3
*D41
  1

  0
LINE
  5
341
330
280
100
AcDbEntity
  8
DIM
 62
     0
370
    -2
100
AcDbLine
 10
54.84018712968918
 20
-80.74304530072922
 30
0.0
 11
54.84018712968914
 21
-97.22481801462059
 31
0.0
  0
MTEXT
  5
342
330
280
100
AcDbEntity
  8
DIM
 62
     0
100
AcDbMText
 10
54.84018712968914
 20
-99.72481801462059
 30
0.0
 40
0.9999999999999998
 41
0.0
 71
     5
 72
     1
  1
\A1;11.841
 11
0.0000000000000001
 21
1.0
 31
0.0
 73
     1
 44
1.0
1001
ACAD
1000
MTEXTBEGIN
1070
    73
1070
     1
1070
    44
1040
1.0
1070
    74
1070
     0
1000
MTEXTEND
  0
POINT
  5
343
330
280
100
AcDbEntity
  8
Defpoints
 62
     0
100
AcDbPoint
 10
54.84018712968918
 20
-80.36804530072922
 30
0.0
  0
POINT
  5
344
330
280
100
AcDbEntity
  8
Defpoints
 62
     0
100
AcDbPoint
 10
54.84018712968914
 20
-97.22481801462059
 30
0.0
  0
POINT
  5
345
330
280
100
AcDbEntity
  8
Defpoints
 62
     0
100
AcDbPoint
 10
42.99920033599046
 20
-90.24301723192031
 30
0.0
  0
ENDBLK
  5
287
330
280
100
AcDbEntity
  8
0
100
AcDbBlockEnd
  0
BLOCK
  5
28E
330
288
100
AcDbEntity
  8
0
100
AcDbBlockBegin
  2
*D42
 70
     1
 10
0.0
 20
0.0
 30
0.0
  3
*D42
  1

  0
LINE
  5
346
330
288
100
AcDbEntity
  8
DIM
 62
     0
370
    -2
100
AcDbLine
 10
42.79918712968937
 20
-94.30304530072945
 30
0.0
 11
39.10559899148712
 21
-94.30304530072945
 31
0.0
  0
MTEXT
  5
347
330
288
100
AcDbEntity
  8
DIM
 62
     0
100
AcDbMText
 10
37.34893232482046
 20
-94.30304530072945
 30
0.0
 40
0.9999999999999998
 41
0.0
 71
     5
 72
     1
  1
\A1;0.000
 73
     1
 44
1.0
1001
ACAD
1000
MTEXTBEGIN
1070
    73
1070
     1
1070
    44
1040
1.0
1070
    74
1070
     0
1000
MTEXTEND
  0
POINT
  5
348
330
288
100
AcDbEntity
  8
Defpoints
 62
     0
100
AcDbPoint
 10
42.99918712968938
 20
-94.30304530072945
 30
0.0
  0
POINT
  5
349
330
288
100
AcDbEntity
  8
Defpoints
 62
     0
100
AcDbPoint
 10
39.10559899148712
 20
-94.30304530072945
 30
0.0
  0
POINT
  5
34A
330
288
100
AcDbEntity
  8
Defpoints
 62
     0
100
AcDbPoint
 10
42.99918712968938
 20
-94.30304530072945
 30
0.0
  0
ENDBLK
  5
28F
330
288
100
AcDbEntity
  8
0
100
AcDbBlockEnd
  0
BLOCK
  5
296
330
290
100
AcDbEntity
  8
0
100
AcDbBlockBegin
  2
*D43
 70
     1
 10
0.0
 20
0.0
 30
0.0
  3
*D43
  1

  0
LINE
  5
34B
330
290
100
AcDbEntity
  8
DIM
 62
     0
370
    -2
100
AcDbLine
 10
43.32718712968907
 20
-87.3680453007292
 30
0.0
 11
38.66275819272308
 21
-87.3680453007292
 31
0.0
  0
MTEXT
  5
34C
330
290
100
AcDbEntity
  8
DIM
 62
     0
100
AcDbMText
 10
36.57275819272309
 20
-87.3680453007292
 30
0.0
 40
0.9999999999999998
 41
0.0
 71
     5
 72
     1
  1
\A1;6.935
 73
     1
 44
1.0
1001
ACAD
1000
MTEXTBEGIN
1070
    73
1070
     1
1070
    44
1040
1.0
1070
    74
1070
     0
1000
MTEXTEND
  0
POINT
  5
34D
330
290
100
AcDbEntity
  8
Defpoints
 62
     0
100
AcDbPoint
 10
43.52718712968907
 20
-87.3680453007292
 30
0.0
  0
POINT
  5
34E
330
290
100
AcDbEntity
  8
Defpoints
 62
     0
100
AcDbPoint
 10
38.66275819272308
 20
-87.3680453007292
 30
0.0
  0
POINT
  5
34F
330
290
100
AcDbEntity
  8
Defpoints
 62
     0
100
AcDbPoint
 10
42.99918712968938
 20
-94.30304530072945
 30
0.0
  0
ENDBLK
  5
297
330
290
100
AcDbEntity
  8
0
100
AcDbBlockEnd
  0
BLOCK
  5
29E
330
298
100
AcDbEntity
  8
0
100
AcDbBlockBegin
  2
*D44
 70
     1
 10
0.0
 20
0.0
 30
0.0
  3
*D44
  1

  0
LINE
  5
350
330
298
100
AcDbEntity
  8
DIM
 62
     0
370
    -2
100
AcDbLine
 10
46.89018712968918
 20
-80.36804530072922
 30
0.0
 11
38.99918712968912
 21
-80.36804530072922
 31
0.0
  0
MTEXT
  5
351
330
298
100
AcDbEntity
  8
DIM
 62
     0
100
AcDbMText
 10
36.57585379635579
 20
-80.36804530072922
 30
0.0
 40
0.9999999999999998
 41
0.0
 71
     5
 72
     1
  1
\A1;13.935
 73
     1
 44
1.0
1001
ACAD
1000
MTEXTBEGIN
1070
    73
1070
     1
1070
    44
1040
1.0
1070
    74
1070
     0
1000
MTEXTEND
  0
POINT
  5
352
330
298
100
AcDbEntity
  8
Defpoints
 62
     0
100
AcDbPoint
 10
47.09018712968918
 20
-80.36804530072922
 30
0.0
  0
POINT
  5
353
330
298
100
AcDbEntity
  8
Defpoints
 62
     0
100
AcDbPoint
 10
38.99918712968912
 20
-80.36804530072922
 30
0.0
  0
POINT
  5
354
330
298
100
AcDbEntity
  8
Defpoints
 62
     0
100
AcDbPoint
 10
42.99918712968938
 20
-94.30304530072945
 30
0.0
  0
ENDBLK
  5
29F
330
298
100
AcDbEntity
  8
0
100
AcDbBlockEnd
  0
BLOCK
  5
2A6
330
2A0
100
AcDbEntity
  8
0
100
AcDbBlockBegin
  2
*D45
 70
     1
 10
0.0
 20
0.0
 30
0.0
  3
*D45
  1

  0
LINE
  5
355
330
2A0
100
AcDbEntity
  8
DIM
 62
     0
370
    -2
100
AcDbLine
 10
46.89018712968918
 20
-73.36804530072922
 30
0.0
 11
38.99918712968906
 21
-73.36804530072922
 31
0.0
  0
MTEXT
  5
356
330
2A0
100
AcDbEntity
  8
DIM
 62
     0
100
AcDbMText
 10
36.49252046302239
 20
-73.36804530072922
 30
0.0
 40
0.9999999999999998
 41
0.0
 71
     5
 72
     1
  1
\A1;20.935
 73
     1
 44
1.0
1001
ACAD
1000
MTEXTBEGIN
1070
    73
1070
     1
1070
    44
1040
1.0
1070
    74
1070
     0
1000
MTEXTEND
  0
POINT
  5
357
330
2A0
100
AcDbEntity
  8
Defpoints
 62
     0
100
AcDbPoint
 10
47.09018712968918
 20
-73.36804530072922
 30
0.0
  0
POINT
  5
358
330
2A0
100
AcDbEntity
  8
Defpoints
 62
     0
100
AcDbPoint
 10
38.99918712968906
 20
-73.36804530072922
 30
0.0
  0
POINT
  5
359
330
2A0
100
AcDbEntity
  8
Defpoints
 62
     0
100
AcDbPoint
 10
42.99918712968938
 20
-94.30304530072945
 30
0.0
  0
ENDBLK
  5
2A7
330
2A0
100
AcDbEntity
  8
0
100
AcDbBlockEnd
  0
BLOCK
  5
2AE
330
2A8
100
AcDbEntity
  8
0
100
AcDbBlockBegin
  2
*D46
 70
     1
 10
0.0
 20
0.0
 30
0.0
  3
*D46
  1

  0
LINE
  5
35A
330
2A8
100
AcDbEntity
  8
DIM
 62
     0
370
    -2
100
AcDbLine
 10
44.42718712968876
 20
-57.71804530072895
 30
0.0
 11
38.99918712968906
 21
-57.71804530072895
 31
0.0
  0
MTEXT
  5
35B
330
2A8
100
AcDbEntity
  8
DIM
 62
     0
100
AcDbMText
 10
36.40918712968907
 20
-57.71804530072895
 30
0.0
 40
0.9999999999999998
 41
0.0
 71
     5
 72
     1
  1
\A1;36.585
 73
     1
 44
1.0
1001
ACAD
1000
MTEXTBEGIN
1070
    73
1070
     1
1070
    44
1040
1.0
1070
    74
1070
     0
1000
MTEXTEND
  0
POINT
  5
35C
330
2A8
100
AcDbEntity
  8
Defpoints
 62
     0
100
AcDbPoint
 10
44.62718712968875
 20
-57.71804530072895
 30
0.0
  0
POINT
  5
35D
330
2A8
100
AcDbEntity
  8
Defpoints
 62
     0
100
AcDbPoint
 10
38.99918712968906
 20
-57.71804530072895
 30
0.0
  0
POINT
  5
35E
330
2A8
100
AcDbEntity
  8
Defpoints
 62
     0
100
AcDbPoint
 10
42.99918712968938
 20
-94.30304530072945
 30
0.0
  0
ENDBLK
  5
2AF
330
2A8
100
AcDbEntity
  8
0
100
AcDbBlockEnd
  0
BLOCK
  5
2B6
330
2B0
100
AcDbEntity
  8
0
100
AcDbBlockBegin
  2
*D47
 70
     1
 10
0.0
 20
0.0
 30
0.0
  3
*D47
  1

  0
LINE
  5
35F
330
2B0
100
AcDbEntity
  8
DIM
 62
     0
370
    -2
100
AcDbLine
 10
44.42718712968876
 20
-54.8830453007289
 30
0.0
 11
38.99918712968906
 21
-54.8830453007289
 31
0.0
  0
MTEXT
  5
360
330
2B0
100
AcDbEntity
  8
DIM
 62
     0
100
AcDbMText
 10
36.49252046302239
 20
-54.8830453007289
 30
0.0
 40
0.9999999999999998
 41
0.0
 71
     5
 72
     1
  1
\A1;39.420
 73
     1
 44
1.0
1001
ACAD
1000
MTEXTBEGIN
1070
    73
1070
     1
1070
    44
1040
1.0
1070
    74
1070
     0
1000
MTEXTEND
  0
POINT
  5
361
330
2B0
100
AcDbEntity
  8
Defpoints
 62
     0
100
AcDbPoint
 10
44.62718712968875
 20
-54.8830453007289
 30
0.0
  0
POINT
  5
362
330
2B0
100
AcDbEntity
  8
Defpoints
 62
     0
100
AcDbPoint
 10
38.99918712968906
 20
-54.8830453007289
 30
0.0
  0
POINT
  5
363
330
2B0
100
AcDbEntity
  8
Defpoints
 62
     0
100
AcDbPoint
 10
42.99918712968938
 20
-94.30304530072945
 30
0.0
  0
ENDBLK
  5
2B7
330
2B0
100
AcDbEntity
  8
0
100
AcDbBlockEnd
  0
BLOCK
  5
2BE
330
2B8
100
AcDbEntity
  8
0
100
AcDbBlockBegin
  2
*D48
 70
     1
 10
0.0
 20
0.0
 30
0.0
  3
*D48
  1

  0
LINE
  5
364
330
2B8
100
AcDbEntity
  8
DIM
 62
     0
370
    -2
100
AcDbLine
 10
58.60318712968906
 20
-74.24304530072922
 30
0.0
 11
62.94435147796912
 21
-74.24304530072922
 31
0.0
  0
MTEXT
  5
365
330
2B8
100
AcDbEntity
  8
DIM
 62
     0
100
AcDbMText
 10
65.28435147796912
 20
-74.24304530072922
 30
0.0
 40
0.9999999999999998
 41
0.0
 71
     5
 72
     1
  1
\A1;20.060
 73
     1
 44
1.0
1001
ACAD
1000
MTEXTBEGIN
1070
    73
1070
     1
1070
    44
1040
1.0
1070
    74
1070
     0
1000
MTEXTEND
  0
POINT
  5
366
330
2B8
100
AcDbEntity
  8
Defpoints
 62
     0
100
AcDbPoint
 10
58.40318712968906
 20
-74.24304530072922
 30
0.0
  0
POINT
  5
367
330
2B8
100
AcDbEntity
  8
Defpoints
 62
     0
100
AcDbPoint
 10
62.94435147796912
 20
-74.24304530072922
 30
0.0
  0
POINT
  5
368
330
2B8
100
AcDbEntity
  8
Defpoints
 62
     0
100
AcDbPoint
 10
42.99918712968938
 20
-94.30304530072945
 30
0.0
  0
ENDBLK
  5
2BF
330
2B8
100
AcDbEntity
  8
0
100
AcDbBlockEnd
  0
BLOCK
  5
2C8
330
2C0
100
AcDbEntity
  8
0
100
AcDbBlockBegin
  2
*D49
 70
     1
 10
0.0
 20
0.0
 30
0.0
  3
*D49
  1

  0
LINE
  5
369
330
2C0
100
AcDbEntity
  8
DIM
 62
     0
370
    -2
100
AcDbLine
 10
57.79018712968919
 20
-67.24304530072922
 30
0.0
 11
59.59018712968918
 21
-67.24304530072922
 31
0.0
  0
LINE
  5
36A
330
2C0
100
AcDbEntity
  8
DIM
 62
     0
370
    -2
100
AcDbLine
 10
59.59018712968918
 20
-67.24304530072922
 30
0.0
 11
61.11825791632583
 21
-69.03376673442685
 31
0.0
  0
LINE
  5
36B
330
2C0
100
AcDbEntity
  8
DIM
 62
     0
370
    -2
100
AcDbLine
 10
61.11825791632583
 20
-69.03376673442685
 30
0.0
 11
63.11825791632582
 21
-69.03376673442685
 31
0.0
  0
MTEXT
  5
36C
330
2C0
100
AcDbEntity
  8
DIM
 62
     0
100
AcDbMText
 10
65.54159124965917
 20
-69.03376673442685
 30
0.0
 40
0.9999999999999998
 41
0.0
 71
     5
 72
     1
  1
\A1;27.060
 73
     1
 44
1.0
1001
ACAD
1000
MTEXTBEGIN
1070
    73
1070
     1
1070
    44
1040
1.0
1070
    74
1070
     0
1000
MTEXTEND
  0
POINT
  5
36D
330
2C0
100
AcDbEntity
  8
Defpoints
 62
     0
100
AcDbPoint
 10
57.59018712968917
 20
-67.24304530072922
 30
0.0
  0
POINT
  5
36E
330
2C0
100
AcDbEntity
  8
Defpoints
 62
     0
100
AcDbPoint
 10
63.11825791632582
 20
-69.03376673442685
 30
0.0
  0
POINT
  5
36F
330
2C0
100
AcDbEntity
  8
Defpoints
 62
     0
100
AcDbPoint
 10
42.99918712968938
 20
-94.30304530072945
 30
0.0
  0
ENDBLK
  5
2C9
330
2C0
100
AcDbEntity
  8
0
100
AcDbBlockEnd
  0
BLOCK
  5
2D0
330
2CA
100
AcDbEntity
  8
0
100
AcDbBlockBegin
  2
*D50
 70
     1
 10
0.0
 20
0.0
 30
0.0
  3
*D50
  1

  0
LINE
  5
370
330
2CA
100
AcDbEntity
  8
DIM
 62
     0
370
    -2
100
AcDbLine
 10
57.79018712968919
 20
-65.74304530072922
 30
0.0
 11
62.93118712968913
 21
-65.74304530072922
 31
0.0
  0
MTEXT
  5
371
330
2CA
100
AcDbEntity
  8
DIM
 62
     0
100
AcDbMText
 10
65.43785379635579
 20
-65.74304530072922
 30
0.0
 40
0.9999999999999998
 41
0.0
 71
     5
 72
     1
  1
\A1;28.560
 73
     1
 44
1.0
1001
ACAD
1000
MTEXTBEGIN
1070
    73
1070
     1
1070
    44
1040
1.0
1070
    74
1070
     0
1000
MTEXTEND
  0
POINT
  5
372
330
2CA
100
AcDbEntity
  8
Defpoints
 62
     0
100
AcDbPoint
 10
57.59018712968917
 20
-65.74304530072922
 30
0.0
  0
POINT
  5
373
330
2CA
100
AcDbEntity
  8
Defpoints
 62
     0
100
AcDbPoint
 10
62.93118712968913
 20
-65.74304530072922
 30
0.0
  0
POINT
  5
374
330
2CA
100
AcDbEntity
  8
Defpoints
 62
     0
100
AcDbPoint
 10
42.99918712968938
 20
-94.30304530072945
 30
0.0
  0
ENDBLK
  5
2D1
330
2CA
100
AcDbEntity
  8
0
100
AcDbBlockEnd
  0
BLOCK
  5
2DA
330
2D2
100
AcDbEntity
  8
0
100
AcDbBlockBegin
  2
*D51
 70
     1
 10
0.0
 20
0.0
 30
0.0
  3
*D51
  1

  0
LINE
  5
375
330
2D2
100
AcDbEntity
  8
DIM
 62
     0
370
    -2
100
AcDbLine
 10
58.60318712968906
 20
-63.6180453007292
 30
0.0
 11
60.40318712968907
 21
-63.6180453007292
 31
0.0
  0
LINE
  5
376
330
2D2
100
AcDbEntity
  8
DIM
 62
     0
370
    -2
100
AcDbLine
 10
60.40318712968907
 20
-63.6180453007292
 30
0.0
 11
60.93118712968912
 21
-64.30554530072928
 31
0.0
  0
LINE
  5
377
330
2D2
100
AcDbEntity
  8
DIM
 62
     0
370
    -2
100
AcDbLine
 10
60.93118712968912
 20
-64.30554530072928
 30
0.0
 11
62.93118712968913
 21
-64.30554530072928
 31
0.0
  0
MTEXT
  5
378
330
2D2
100
AcDbEntity
  8
DIM
 62
     0
100
AcDbMText
 10
65.43785379635579
 20
-64.30554530072928
 30
0.0
 40
0.9999999999999998
 41
0.0
 71
     5
 72
     1
  1
\A1;30.685
 73
     1
 44
1.0
1001
ACAD
1000
MTEXTBEGIN
1070
    73
1070
     1
1070
    44
1040
1.0
1070
    74
1070
     0
1000
MTEXTEND
  0
POINT
  5
379
330
2D2
100
AcDbEntity
  8
Defpoints
 62
     0
100
AcDbPoint
 10
58.40318712968906
 20
-63.6180453007292
 30
0.0
  0
POINT
  5
37A
330
2D2
100
AcDbEntity
  8
Defpoints
 62
     0
100
AcDbPoint
 10
62.93118712968913
 20
-64.30554530072928
 30
0.0
  0
POINT
  5
37B
330
2D2
100
AcDbEntity
  8
Defpoints
 62
     0
100
AcDbPoint
 10
42.99918712968938
 20
-94.30304530072945
 30
0.0
  0
ENDBLK
  5
2DB
330
2D2
100
AcDbEntity
  8
0
100
AcDbBlockEnd
  0
BLOCK
  5
2E2
330
2DC
100
AcDbEntity
  8
0
100
AcDbBlockBegin
  2
*D52
 70
     1
 10
0.0
 20
0.0
 30
0.0
  3
*D52
  1

  0
LINE
  5
37C
330
2DC
100
AcDbEntity
  8
DIM
 62
     0
370
    -2
100
AcDbLine
 10
58.03518712968907
 20
-62.86804530072927
 30
0.0
 11
62.93118712968913
 21
-62.86804530072927
 31
0.0
  0
MTEXT
  5
37D
330
2DC
100
AcDbEntity
  8
DIM
 62
     0
100
AcDbMText
 10
65.35452046302246
 20
-62.86804530072927
 30
0.0
 40
0.9999999999999998
 41
0.0
 71
     5
 72
     1
  1
\A1;31.435
 73
     1
 44
1.0
1001
ACAD
1000
MTEXTBEGIN
1070
    73
1070
     1
1070
    44
1040
1.0
1070
    74
1070
     0
1000
MTEXTEND
  0
POINT
  5
37E
330
2DC
100
AcDbEntity
  8
Defpoints
 62
     0
100
AcDbPoint
 10
57.83518712968907
 20
-62.86804530072927
 30
0.0
  0
POINT
  5
37F
330
2DC
100
AcDbEntity
  8
Defpoints
 62
     0
100
AcDbPoint
 10
62.93118712968913
 20
-62.86804530072927
 30
0.0
  0
POINT
  5
380
330
2DC
100
AcDbEntity
  8
Defpoints
 62
     0
100
AcDbPoint
 10
42.99918712968938
 20
-94.30304530072945
 30
0.0
  0
ENDBLK
  5
2E3
330
2DC
100
AcDbEntity
  8
0
100
AcDbBlockEnd
  0
BLOCK
  5
2EA
330
2E4
100
AcDbEntity
  8
0
100
AcDbBlockBegin
  2
*D53
 70
     1
 10
0.0
 20
0.0
 30
0.0
  3
*D53
  1

  0
LINE
  5
381
330
2E4
100
AcDbEntity
  8
DIM
 62
     0
370
    -2
100
AcDbLine
 10
58.03518712968907
 20
-61.1180453007292
 30
0.0
 11
62.93118712968913
 21
-61.1180453007292
 31
0.0
  0
MTEXT
  5
382
330
2E4
100
AcDbEntity
  8
DIM
 62
     0
100
AcDbMText
 10
65.35452046302246
 20
-61.1180453007292
 30
0.0
 40
0.9999999999999998
 41
0.0
 71
     5
 72
     1
  1
\A1;33.185
 73
     1
 44
1.0
1001
ACAD
1000
MTEXTBEGIN
1070
    73
1070
     1
1070
    44
1040
1.0
1070
    74
1070
     0
1000
MTEXTEND
  0
POINT
  5
383
330
2E4
100
AcDbEntity
  8
Defpoints
 62
     0
100
AcDbPoint
 10
57.83518712968907
 20
-61.1180453007292
 30
0.0
  0
POINT
  5
384
330
2E4
100
AcDbEntity
  8
Defpoints
 62
     0
100
AcDbPoint
 10
62.93118712968913
 20
-61.1180453007292
 30
0.0
  0
POINT
  5
385
330
2E4
100
AcDbEntity
  8
Defpoints
 62
     0
100
AcDbPoint
 10
42.99918712968938
 20
-94.30304530072945
 30
0.0
  0
ENDBLK
  5
2EB
330
2E4
100
AcDbEntity
  8
0
100
AcDbBlockEnd
  0
BLOCK
  5
2F2
330
2EC
100
AcDbEntity
  8
0
100
AcDbBlockBegin
  2
*D54
 70
     1
 10
0.0
 20
0.0
 30
0.0
  3
*D54
  1

  0
LINE
  5
386
330
2EC
100
AcDbEntity
  8
DIM
 62
     0
370
    -2
100
AcDbLine
 10
58.60318712968906
 20
-58.36804530072921
 30
0.0
 11
62.93118712968913
 21
-58.36804530072921
 31
0.0
  0
MTEXT
  5
387
330
2EC
100
AcDbEntity
  8
DIM
 62
     0
100
AcDbMText
 10
65.52118712968914
 20
-58.36804530072921
 30
0.0
 40
0.9999999999999998
 41
0.0
 71
     5
 72
     1
  1
\A1;35.935
 73
     1
 44
1.0
1001
ACAD
1000
MTEXTBEGIN
1070
    73
1070
     1
1070
    44
1040
1.0
1070
    74
1070
     0
1000
MTEXTEND
  0
POINT
  5
388
330
2EC
100
AcDbEntity
  8
Defpoints
 62
     0
100
AcDbPoint
 10
58.40318712968906
 20
-58.36804530072921
 30
0.0
  0
POINT
  5
389
330
2EC
100
AcDbEntity
  8
Defpoints
 62
     0
100
AcDbPoint
 10
62.93118712968913
 20
-58.36804530072921
 30
0.0
  0
POINT
  5
38A
330
2EC
100
AcDbEntity
  8
Defpoints
 62
     0
100
AcDbPoint
 10
42.99918712968938
 20
-94.30304530072945
 30
0.0
  0
ENDBLK
  5
2F3
330
2EC
100
AcDbEntity
  8
0
100
AcDbBlockEnd
  0
BLOCK
  5
608
330
607
100
AcDbEntity
  8
0
100
AcDbBlockBegin
  2
*D55
 70
     1
 10
0.0
 20
0.0
 30
0.0
  3
*D55
  1

  0
LINE
  5
609
330
607
100
AcDbEntity
  8
DIM
 62
     0
370
    -2
100
AcDbLine
 10
187.1860035297364
 20
150.3799140994499
 30
0.0
 11
187.1860035297364
 21
145.2090425239068
 31
0.0
  0
LINE
  5
60A
330
607
100
AcDbEntity
  8
DIM
 62
     0
370
    -2
100
AcDbLine
 10
187.1860035297364
 20
145.2090425239068
 30
0.0
 11
182.8217131810196
 21
143.2090425239068
 31
0.0
  0
LINE
  5
60B
330
607
100
AcDbEntity
  8
DIM
 62
     0
370
    -2
100
AcDbLine
 10
182.8217131810196
 20
143.2090425239068
 30
0.0
 11
182.8217131810196
 21
141.2090425239068
 31
0.0
  0
MTEXT
  5
60C
330
607
100
AcDbEntity
  8
DIM
 62
     0
100
AcDbMText
 10
182.8217131810195
 20
138.6257091905735
 30
0.0
 40
0.9999999999999998
 41
0.0
 71
     5
 72
     1
  1
\A1;12.091
 11
0.0000000000000001
 21
1.0
 31
0.0
 73
     1
 44
1.0
1001
ACAD
1000
MTEXTBEGIN
1070
    73
1070
     1
1070
    44
1040
1.0
1070
    74
1070
     0
1000
MTEXTEND
  0
POINT
  5
60D
330
607
100
AcDbEntity
  8
Defpoints
 62
     0
100
AcDbPoint
 10
187.1860035297364
 20
150.7549140994499
 30
0.0
  0
POINT
  5
60E
330
607
100
AcDbEntity
  8
Defpoints
 62
     0
100
AcDbPoint
 10
182.8217131810196
 20
141.2090425239068
 30
0.0
  0
POINT
  5
60F
330
607
100
AcDbEntity
  8
Defpoints
 62
     0
100
AcDbPoint
 10
175.0950167360377
 20
125.5049421682588
 30
0.0
  0
ENDBLK
  5
610
330
607
100
AcDbEntity
  8
0
100
AcDbBlockEnd
  0
BLOCK
  5
612
330
611
100
AcDbEntity
  8
0
100
AcDbBlockBegin
  2
*D56
 70
     1
 10
0.0
 20
0.0
 30
0.0
  3
*D56
  1

  0
LINE
  5
613
330
611
100
AcDbEntity
  8
DIM
 62
     0
370
    -2
100
AcDbLine
 10
175.0950035297363
 20
121.1299140994493
 30
0.0
 11
175.0950035297363
 21
117.6812974294549
 31
0.0
  0
MTEXT
  5
614
330
611
100
AcDbEntity
  8
DIM
 62
     0
100
AcDbMText
 10
175.0950035297363
 20
115.5146307627883
 30
0.0
 40
0.9999999999999998
 41
0.0
 71
     5
 72
     1
  1
\A1;0.000
 11
0.0000000000000001
 21
1.0
 31
0.0
 73
     1
 44
1.0
1001
ACAD
1000
MTEXTBEGIN
1070
    73
1070
     1
1070
    44
1040
1.0
1070
    74
1070
     0
1000
MTEXTEND
  0
POINT
  5
615
330
611
100
AcDbEntity
  8
Defpoints
 62
     0
100
AcDbPoint
 10
175.0950035297363
 20
121.5049140994493
 30
0.0
  0
POINT
  5
616
330
611
100
AcDbEntity
  8
Defpoints
 62
     0
100
AcDbPoint
 10
175.0950035297363
 20
117.6812974294549
 30
0.0
  0
POINT
  5
617
330
611
100
AcDbEntity
  8
Defpoints
 62
     0
100
AcDbPoint
 10
175.0950035297363
 20
121.5049140994493
 30
0.0
  0
ENDBLK
  5
618
330
611
100
AcDbEntity
  8
0
100
AcDbBlockEnd
  0
BLOCK
  5
61A
330
619
100
AcDbEntity
  8
0
100
AcDbBlockBegin
  2
*D57
 70
     1
 10
0.0
 20
0.0
 30
0.0
  3
*D57
  1

  0
LINE
  5
61B
330
619
100
AcDbEntity
  8
DIM
 62
     0
370
    -2
100
AcDbLine
 10
176.1810035297362
 20
155.00491409945
 30
0.0
 11
176.1810035297362
 21
161.4709140994498
 31
0.0
  0
LINE
  5
61C
330
619
100
AcDbEntity
  8
DIM
 62
     0
370
    -2
100
AcDbLine
 10
176.1810035297362
 20
161.4709140994498
 30
0.0
 11
175.1810035297362
 21
163.4709140994498
 31
0.0
  0
LINE
  5
61D
330
619
100
AcDbEntity
  8
DIM
 62
     0
370
    -2
100
AcDbLine
 10
175.1810035297362
 20
163.4709140994498
 30
0.0
 11
175.1810035297362
 21
165.4709140994498
 31
0.0
  0
MTEXT
  5
61E
330
619
100
AcDbEntity
  8
DIM
 62
     0
100
AcDbMText
 10
175.1810035297362
 20
167.7209140994498
 30
0.0
 40
0.9999999999999998
 41
0.0
 71
     5
 72
     1
  1
\A1;1.086
 11
0.0000000000000001
 21
1.0
 31
0.0
 73
     1
 44
1.0
1001
ACAD
1000
MTEXTBEGIN
1070
    73
1070
     1
1070
    44
1040
1.0
1070
    74
1070
     0
1000
MTEXTEND
  0
POINT
  5
61F
330
619
100
AcDbEntity
  8
Defpoints
 62
     0
100
AcDbPoint
 10
176.1810035297362
 20
154.62991409945
 30
0.0
  0
POINT
  5
620
330
619
100
AcDbEntity
  8
Defpoints
 62
     0
100
AcDbPoint
 10
175.1810035297362
 20
165.4709140994498
 30
0.0
  0
POINT
  5
621
330
619
100
AcDbEntity
  8
Defpoints
 62
     0
100
AcDbPoint
 10
175.0950167360377
 20
125.5049421682588
 30
0.0
  0
ENDBLK
  5
622
330
619
100
AcDbEntity
  8
0
100
AcDbBlockEnd
  0
BLOCK
  5
624
330
623
100
AcDbEntity
  8
0
100
AcDbBlockBegin
  2
*D58
 70
     1
 10
0.0
 20
0.0
 30
0.0
  3
*D58
  1

  0
LINE
  5
625
330
623
100
AcDbEntity
  8
DIM
 62
     0
370
    -2
100
AcDbLine
 10
176.723003529736
 20
161.2399140994502
 30
0.0
 11
176.723003529736
 21
165.4709140994498
 31
0.0
  0
MTEXT
  5
626
330
623
100
AcDbEntity
  8
DIM
 62
     0
100
AcDbMText
 10
176.7230035297359
 20
167.8042474327831
 30
0.0
 40
0.9999999999999998
 41
0.0
 71
     5
 72
     1
  1
\A1;1.628
 11
0.0000000000000001
 21
1.0
 31
0.0
 73
     1
 44
1.0
1001
ACAD
1000
MTEXTBEGIN
1070
    73
1070
     1
1070
    44
1040
1.0
1070
    74
1070
     0
1000
MTEXTEND
  0
POINT
  5
627
330
623
100
AcDbEntity
  8
Defpoints
 62
     0
100
AcDbPoint
 10
176.723003529736
 20
160.8649140994502
 30
0.0
  0
POINT
  5
628
330
623
100
AcDbEntity
  8
Defpoints
 62
     0
100
AcDbPoint
 10
176.723003529736
 20
165.4709140994498
 30
0.0
  0
POINT
  5
629
330
623
100
AcDbEntity
  8
Defpoints
 62
     0
100
AcDbPoint
 10
175.0950167360377
 20
125.5049421682588
 30
0.0
  0
ENDBLK
  5
62A
330
623
100
AcDbEntity
  8
0
100
AcDbBlockEnd
  0
BLOCK
  5
62C
330
62B
100
AcDbEntity
  8
0
100
AcDbBlockBegin
  2
*D59
 70
     1
 10
0.0
 20
0.0
 30
0.0
  3
*D59
  1

  0
LINE
  5
62D
330
62B
100
AcDbEntity
  8
DIM
 62
     0
370
    -2
100
AcDbLine
 10
181.1690035297361
 20
161.2399140994502
 30
0.0
 11
181.1690035297361
 21
165.4709140994498
 31
0.0
  0
MTEXT
  5
62E
330
62B
100
AcDbEntity
  8
DIM
 62
     0
100
AcDbMText
 10
181.1690035297361
 20
167.8875807661165
 30
0.0
 40
0.9999999999999998
 41
0.0
 71
     5
 72
     1
  1
\A1;6.074
 11
0.0000000000000001
 21
1.0
 31
0.0
 73
     1
 44
1.0
1001
ACAD
1000
MTEXTBEGIN
1070
    73
1070
     1
1070
    44
1040
1.0
1070
    74
1070
     0
1000
MTEXTEND
  0
POINT
  5
62F
330
62B
100
AcDbEntity
  8
Defpoints
 62
     0
100
AcDbPoint
 10
181.1690035297361
 20
160.8649140994502
 30
0.0
  0
POINT
  5
630
330
62B
100
AcDbEntity
  8
Defpoints
 62
     0
100
AcDbPoint
 10
181.1690035297361
 20
165.4709140994498
 30
0.0
  0
POINT
  5
631
330
62B
100
AcDbEntity
  8
Defpoints
 62
     0
100
AcDbPoint
 10
175.0950167360377
 20
125.5049421682588
 30
0.0
  0
ENDBLK
  5
632
330
62B
100
AcDbEntity
  8
0
100
AcDbBlockEnd
  0
BLOCK
  5
634
330
633
100
AcDbEntity
  8
0
100
AcDbBlockBegin
  2
*D60
 70
     1
 10
0.0
 20
0.0
 30
0.0
  3
*D60
  1

  0
LINE
  5
635
330
633
100
AcDbEntity
  8
DIM
 62
     0
370
    -2
100
AcDbLine
 10
189.9310035297363
 20
155.0049140994499
 30
0.0
 11
189.9310035297363
 21
161.4709140994498
 31
0.0
  0
LINE
  5
636
330
633
100
AcDbEntity
  8
DIM
 62
     0
370
    -2
100
AcDbLine
 10
189.9310035297363
 20
161.4709140994498
 30
0.0
 11
190.9310035297363
 21
163.4709140994498
 31
0.0
  0
LINE
  5
637
330
633
100
AcDbEntity
  8
DIM
 62
     0
370
    -2
100
AcDbLine
 10
190.9310035297363
 20
163.4709140994498
 30
0.0
 11
190.9310035297363
 21
165.4709140994498
 31
0.0
  0
MTEXT
  5
638
330
633
100
AcDbEntity
  8
DIM
 62
     0
100
AcDbMText
 10
190.9310035297363
 20
168.3042474327832
 30
0.0
 40
0.9999999999999998
 41
0.0
 71
     5
 72
     1
  1
\A1;14.836
 11
0.0000000000000001
 21
1.0
 31
0.0
 73
     1
 44
1.0
1001
ACAD
1000
MTEXTBEGIN
1070
    73
1070
     1
1070
    44
1040
1.0
1070
    74
1070
     0
1000
MTEXTEND
  0
POINT
  5
639
330
633
100
AcDbEntity
  8
Defpoints
 62
     0
100
AcDbPoint
 10
189.9310035297363
 20
154.6299140994499
 30
0.0
  0
POINT
  5
63A
330
633
100
AcDbEntity
  8
Defpoints
 62
     0
100
AcDbPoint
 10
190.9310035297363
 20
165.4709140994498
 30
0.0
  0
POINT
  5
63B
330
633
100
AcDbEntity
  8
Defpoints
 62
     0
100
AcDbPoint
 10
175.0950167360377
 20
125.5049421682588
 30
0.0
  0
ENDBLK
  5
63C
330
633
100
AcDbEntity
  8
0
100
AcDbBlockEnd
  0
BLOCK
  5
63E
330
63D
100
AcDbEntity
  8
0
100
AcDbBlockBegin
  2
*D61
 70
     1
 10
0.0
 20
0.0
 30
0.0
  3
*D61
  1

  0
LINE
  5
63F
330
63D
100
AcDbEntity
  8
DIM
 62
     0
370
    -2
100
AcDbLine
 10
189.5430035297364
 20
161.23991409945
 30
0.0
 11
189.5430035297364
 21
165.4709140994498
 31
0.0
  0
MTEXT
  5
640
330
63D
100
AcDbEntity
  8
DIM
 62
     0
100
AcDbMText
 10
189.5430035297363
 20
168.3042474327832
 30
0.0
 40
0.9999999999999998
 41
0.0
 71
     5
 72
     1
  1
\A1;14.448
 11
0.0000000000000001
 21
1.0
 31
0.0
 73
     1
 44
1.0
1001
ACAD
1000
MTEXTBEGIN
1070
    73
1070
     1
1070
    44
1040
1.0
1070
    74
1070
     0
1000
MTEXTEND
  0
POINT
  5
641
330
63D
100
AcDbEntity
  8
Defpoints
 62
     0
100
AcDbPoint
 10
189.5430035297364
 20
160.8649140994501
 30
0.0
  0
POINT
  5
642
330
63D
100
AcDbEntity
  8
Defpoints
 62
     0
100
AcDbPoint
 10
189.5430035297364
 20
165.4709140994498
 30
0.0
  0
POINT
  5
643
330
63D
100
AcDbEntity
  8
Defpoints
 62
     0
100
AcDbPoint
 10
175.0950167360377
 20
125.5049421682588
 30
0.0
  0
ENDBLK
  5
644
330
63D
100
AcDbEntity
  8
0
100
AcDbBlockEnd
  0
BLOCK
  5
646
330
645
100
AcDbEntity
  8
0
100
AcDbBlockBegin
  2
*D62
 70
     1
 10
0.0
 20
0.0
 30
0.0
  3
*D62
  1

  0
LINE
  5
647
330
645
100
AcDbEntity
  8
DIM
 62
     0
370
    -2
100
AcDbLine
 10
185.0970035297362
 20
161.2399140994501
 30
0.0
 11
185.0970035297362
 21
165.4709140994498
 31
0.0
  0
MTEXT
  5
648
330
645
100
AcDbEntity
  8
DIM
 62
     0
100
AcDbMText
 10
185.0970035297362
 20
168.0542474327831
 30
0.0
 40
0.9999999999999998
 41
0.0
 71
     5
 72
     1
  1
\A1;10.002
 11
0.0000000000000001
 21
1.0
 31
0.0
 73
     1
 44
1.0
1001
ACAD
1000
MTEXTBEGIN
1070
    73
1070
     1
1070
    44
1040
1.0
1070
    74
1070
     0
1000
MTEXTEND
  0
POINT
  5
649
330
645
100
AcDbEntity
  8
Defpoints
 62
     0
100
AcDbPoint
 10
185.0970035297362
 20
160.8649140994501
 30
0.0
  0
POINT
  5
64A
330
645
100
AcDbEntity
  8
Defpoints
 62
     0
100
AcDbPoint
 10
185.0970035297362
 20
165.4709140994498
 30
0.0
  0
POINT
  5
64B
330
645
100
AcDbEntity
  8
Defpoints
 62
     0
100
AcDbPoint
 10
175.0950167360377
 20
125.5049421682588
 30
0.0
  0
ENDBLK
  5
64C
330
645
100
AcDbEntity
  8
0
100
AcDbBlockEnd
  0
BLOCK
  5
64E
330
64D
100
AcDbEntity
  8
0
100
AcDbBlockBegin
  2
*D63
 70
     1
 10
0.0
 20
0.0
 30
0.0
  3
*D63
  1

  0
LINE
  5
64F
330
64D
100
AcDbEntity
  8
DIM
 62
     0
370
    -2
100
AcDbLine
 10
189.6860035297364
 20
148.1299140994499
 30
0.0
 11
189.6860035297364
 21
146.5049140994499
 31
0.0
  0
LINE
  5
650
330
64D
100
AcDbEntity
  8
DIM
 62
     0
370
    -2
100
AcDbLine
 10
189.6860035297364
 20
146.5049140994499
 30
0.0
 11
188.7175035297363
 21
145.5049140994499
 31
0.0
  0
LINE
  5
651
330
64D
100
AcDbEntity
  8
DIM
 62
     0
370
    -2
100
AcDbLine
 10
188.7175035297363
 20
145.5049140994499
 30
0.0
 11
188.7175035297363
 21
143.5049140994499
 31
0.0
  0
MTEXT
  5
652
330
64D
100
AcDbEntity
  8
DIM
 62
     0
100
AcDbMText
 10
188.7175035297363
 20
140.8382474327833
 30
0.0
 40
0.9999999999999998
 41
0.0
 71
     5
 72
     1
  1
\A1;14.591
 11
0.0000000000000001
 21
1.0
 31
0.0
 73
     1
 44
1.0
1001
ACAD
1000
MTEXTBEGIN
1070
    73
1070
     1
1070
    44
1040
1.0
1070
    74
1070
     0
1000
MTEXTEND
  0
POINT
  5
653
330
64D
100
AcDbEntity
  8
Defpoints
 62
     0
100
AcDbPoint
 10
189.6860035297364
 20
148.5049140994499
 30
0.0
  0
POINT
  5
654
330
64D
100
AcDbEntity
  8
Defpoints
 62
     0
100
AcDbPoint
 10
188.7175035297363
 20
143.5049140994499
 30
0.0
  0
POINT
  5
655
330
64D
100
AcDbEntity
  8
Defpoints
 62
     0
100
AcDbPoint
 10
175.0950167360377
 20
124.0049421682588
 30
0.0
  0
ENDBLK
  5
656
330
64D
100
AcDbEntity
  8
0
100
AcDbBlockEnd
  0
BLOCK
  5
658
330
657
100
AcDbEntity
  8
0
100
AcDbBlockBegin
  2
*D64
 70
     1
 10
0.0
 20
0.0
 30
0.0
  3
*D64
  1

  0
LINE
  5
659
330
657
100
AcDbEntity
  8
DIM
 62
     0
370
    -2
100
AcDbLine
 10
190.4990035297363
 20
128.0049140994499
 30
0.0
 11
190.4990035297363
 21
122.8846506097238
 31
0.0
  0
LINE
  5
65A
330
657
100
AcDbEntity
  8
DIM
 62
     0
370
    -2
100
AcDbLine
 10
190.4990035297363
 20
122.8846506097238
 30
0.0
 11
191.5993798871878
 21
120.8846506097238
 31
0.0
  0
LINE
  5
65B
330
657
100
AcDbEntity
  8
DIM
 62
     0
370
    -2
100
AcDbLine
 10
191.5993798871878
 20
120.8846506097238
 30
0.0
 11
191.5993798871878
 21
118.8846506097238
 31
0.0
  0
MTEXT
  5
65C
330
657
100
AcDbEntity
  8
DIM
 62
     0
100
AcDbMText
 10
191.5993798871877
 20
116.1346506097238
 30
0.0
 40
0.9999999999999998
 41
0.0
 71
     5
 72
     1
  1
\A1;15.404
 11
0.0000000000000001
 21
1.0
 31
0.0
 73
     1
 44
1.0
1001
ACAD
1000
MTEXTBEGIN
1070
    73
1070
     1
1070
    44
1040
1.0
1070
    74
1070
     0
1000
MTEXTEND
  0
POINT
  5
65D
330
657
100
AcDbEntity
  8
Defpoints
 62
     0
100
AcDbPoint
 10
190.4990035297363
 20
128.3799140994499
 30
0.0
  0
POINT
  5
65E
330
657
100
AcDbEntity
  8
Defpoints
 62
     0
100
AcDbPoint
 10
191.5993798871878
 20
118.8846506097238
 30
0.0
  0
POINT
  5
65F
330
657
100
AcDbEntity
  8
Defpoints
 62
     0
100
AcDbPoint
 10
175.0950035297363
 20
121.5049140994493
 30
0.0
  0
ENDBLK
  5
660
330
657
100
AcDbEntity
  8
0
100
AcDbBlockEnd
  0
BLOCK
  5
662
330
661
100
AcDbEntity
  8
0
100
AcDbBlockBegin
  2
*D65
 70
     1
 10
0.0
 20
0.0
 30
0.0
  3
*D65
  1

  0
LINE
  5
663
330
661
100
AcDbEntity
  8
DIM
 62
     0
370
    -2
100
AcDbLine
 10
175.6230035297363
 20
128.0049140994499
 30
0.0
 11
175.6230035297363
 21
122.1764943550885
 31
0.0
  0
LINE
  5
664
330
661
100
AcDbEntity
  8
DIM
 62
     0
370
    -2
100
AcDbLine
 10
175.6230035297363
 20
122.1764943550885
 30
0.0
 11
176.6230035297363
 21
120.1764943550885
 31
0.0
  0
LINE
  5
665
330
661
100
AcDbEntity
  8
DIM
 62
     0
370
    -2
100
AcDbLine
 10
176.6230035297363
 20
120.1764943550885
 30
0.0
 11
176.6230035297363
 21
118.1764943550885
 31
0.0
  0
MTEXT
  5
666
330
661
100
AcDbEntity
  8
DIM
 62
     0
100
AcDbMText
 10
176.6230035297361
 20
115.7598276884218
 30
0.0
 40
0.9999999999999998
 41
0.0
 71
     5
 72
     1
  1
\A1;0.528
 11
0.0000000000000001
 21
1.0
 31
0.0
 73
     1
 44
1.0
1001
ACAD
1000
MTEXTBEGIN
1070
    73
1070
     1
1070
    44
1040
1.0
1070
    74
1070
     0
1000
MTEXTEND
  0
POINT
  5
667
330
661
100
AcDbEntity
  8
Defpoints
 62
     0
100
AcDbPoint
 10
175.6230035297363
 20
128.3799140994499
 30
0.0
  0
POINT
  5
668
330
661
100
AcDbEntity
  8
Defpoints
 62
     0
100
AcDbPoint
 10
176.6230035297363
 20
118.1764943550885
 30
0.0
  0
POINT
  5
669
330
661
100
AcDbEntity
  8
Defpoints
 62
     0
100
AcDbPoint
 10
175.0950167360377
 20
125.5049421682588
 30
0.0
  0
ENDBLK
  5
66A
330
661
100
AcDbEntity
  8
0
100
AcDbBlockEnd
  0
BLOCK
  5
66C
330
66B
100
AcDbEntity
  8
0
100
AcDbBlockBegin
  2
*D66
 70
     1
 10
0.0
 20
0.0
 30
0.0
  3
*D66
  1

  0
LINE
  5
66D
330
66B
100
AcDbEntity
  8
DIM
 62
     0
370
    -2
100
AcDbLine
 10
179.1860035297364
 20
135.0049140994499
 30
0.0
 11
179.1860035297364
 21
117.5684727961799
 31
0.0
  0
MTEXT
  5
66E
330
66B
100
AcDbEntity
  8
DIM
 62
     0
100
AcDbMText
 10
179.1860035297364
 20
115.31847279618
 30
0.0
 40
0.9999999999999998
 41
0.0
 71
     5
 72
     1
  1
\A1;4.091
 11
0.0000000000000001
 21
1.0
 31
0.0
 73
     1
 44
1.0
1001
ACAD
1000
MTEXTBEGIN
1070
    73
1070
     1
1070
    44
1040
1.0
1070
    74
1070
     0
1000
MTEXTEND
  0
POINT
  5
66F
330
66B
100
AcDbEntity
  8
Defpoints
 62
     0
100
AcDbPoint
 10
179.1860035297364
 20
135.3799140994499
 30
0.0
  0
POINT
  5
670
330
66B
100
AcDbEntity
  8
Defpoints
 62
     0
100
AcDbPoint
 10
179.1860035297364
 20
117.5684727961799
 30
0.0
  0
POINT
  5
671
330
66B
100
AcDbEntity
  8
Defpoints
 62
     0
100
AcDbPoint
 10
175.0950167360377
 20
125.5049421682588
 30
0.0
  0
ENDBLK
  5
672
330
66B
100
AcDbEntity
  8
0
100
AcDbBlockEnd
  0
BLOCK
  5
674
330
673
100
AcDbEntity
  8
0
100
AcDbBlockBegin
  2
*D67
 70
     1
 10
0.0
 20
0.0
 30
0.0
  3
*D67
  1

  0
LINE
  5
675
330
673
100
AcDbEntity
  8
DIM
 62
     0
370
    -2
100
AcDbLine
 10
186.9360035297364
 20
135.0049140994499
 30
0.0
 11
186.9360035297364
 21
122.5231413855585
 31
0.0
  0
LINE
  5
676
330
673
100
AcDbEntity
  8
DIM
 62
     0
370
    -2
100
AcDbLine
 10
186.9360035297364
 20
122.5231413855585
 30
0.0
 11
185.8958357184433
 21
120.5231413855585
 31
0.0
  0
LINE
  5
677
330
673
100
AcDbEntity
  8
DIM
 62
     0
370
    -2
100
AcDbLine
 10
185.8958357184433
 20
120.5231413855585
 30
0.0
 11
185.8958357184433
 21
118.5231413855585
 31
0.0
  0
MTEXT
  5
678
330
673
100
AcDbEntity
  8
DIM
 62
     0
100
AcDbMText
 10
185.8958357184433
 20
116.0231413855586
 30
0.0
 40
0.9999999999999998
 41
0.0
 71
     5
 72
     1
  1
\A1;11.841
 11
0.0000000000000001
 21
1.0
 31
0.0
 73
     1
 44
1.0
1001
ACAD
1000
MTEXTBEGIN
1070
    73
1070
     1
1070
    44
1040
1.0
1070
    74
1070
     0
1000
MTEXTEND
  0
POINT
  5
679
330
673
100
AcDbEntity
  8
Defpoints
 62
     0
100
AcDbPoint
 10
186.9360035297364
 20
135.3799140994499
 30
0.0
  0
POINT
  5
67A
330
673
100
AcDbEntity
  8
Defpoints
 62
     0
100
AcDbPoint
 10
185.8958357184433
 20
118.5231413855585
 30
0.0
  0
POINT
  5
67B
330
673
100
AcDbEntity
  8
Defpoints
 62
     0
100
AcDbPoint
 10
175.0950167360377
 20
125.5049421682588
 30
0.0
  0
ENDBLK
  5
67C
330
673
100
AcDbEntity
  8
0
100
AcDbBlockEnd
  0
BLOCK
  5
67E
330
67D
100
AcDbEntity
  8
0
100
AcDbBlockBegin
  2
*D68
 70
     1
 10
0.0
 20
0.0
 30
0.0
  3
*D68
  1

  0
LINE
  5
67F
330
67D
100
AcDbEntity
  8
DIM
 62
     0
370
    -2
100
AcDbLine
 10
174.7200035297366
 20
121.4449140994497
 30
0.0
 11
171.2014153915343
 21
121.4449140994497
 31
0.0
  0
MTEXT
  5
680
330
67D
100
AcDbEntity
  8
DIM
 62
     0
100
AcDbMText
 10
169.0347487248677
 20
121.4449140994497
 30
0.0
 40
0.9999999999999998
 41
0.0
 71
     5
 72
     1
  1
\A1;0.000
 73
     1
 44
1.0
1001
ACAD
1000
MTEXTBEGIN
1070
    73
1070
     1
1070
    44
1040
1.0
1070
    74
1070
     0
1000
MTEXTEND
  0
POINT
  5
681
330
67D
100
AcDbEntity
  8
Defpoints
 62
     0
100
AcDbPoint
 10
175.0950035297366
 20
121.4449140994497
 30
0.0
  0
POINT
  5
682
330
67D
100
AcDbEntity
  8
Defpoints
 62
     0
100
AcDbPoint
 10
171.2014153915343
 20
121.4449140994497
 30
0.0
  0
POINT
  5
683
330
67D
100
AcDbEntity
  8
Defpoints
 62
     0
100
AcDbPoint
 10
175.0950035297366
 20
121.4449140994497
 30
0.0
  0
ENDBLK
  5
684
330
67D
100
AcDbEntity
  8
0
100
AcDbBlockEnd
  0
BLOCK
  5
686
330
685
100
AcDbEntity
  8
0
100
AcDbBlockBegin
  2
*D69
 70
     1
 10
0.0
 20
0.0
 30
0.0
  3
*D69
  1

  0
LINE
  5
687
330
685
100
AcDbEntity
  8
DIM
 62
     0
370
    -2
100
AcDbLine
 10
175.2480035297363
 20
128.3799140994499
 30
0.0
 11
171.1685745927703
 21
128.3799140994499
 31
0.0
  0
MTEXT
  5
688
330
685
100
AcDbEntity
  8
DIM
 62
     0
100
AcDbMText
 10
168.6685745927703
 20
128.3799140994499
 30
0.0
 40
0.9999999999999998
 41
0.0
 71
     5
 72
     1
  1
\A1;6.935
 73
     1
 44
1.0
1001
ACAD
1000
MTEXTBEGIN
1070
    73
1070
     1
1070
    44
1040
1.0
1070
    74
1070
     0
1000
MTEXTEND
  0
POINT
  5
689
330
685
100
AcDbEntity
  8
Defpoints
 62
     0
100
AcDbPoint
 10
175.6230035297363
 20
128.3799140994499
 30
0.0
  0
POINT
  5
68A
330
685
100
AcDbEntity
  8
Defpoints
 62
     0
100
AcDbPoint
 10
171.1685745927703
 20
128.3799140994499
 30
0.0
  0
POINT
  5
68B
330
685
100
AcDbEntity
  8
Defpoints
 62
     0
100
AcDbPoint
 10
175.0950035297366
 20
121.4449140994497
 30
0.0
  0
ENDBLK
  5
68C
330
685
100
AcDbEntity
  8
0
100
AcDbBlockEnd
  0
BLOCK
  5
68E
330
68D
100
AcDbEntity
  8
0
100
AcDbBlockBegin
  2
*D70
 70
     1
 10
0.0
 20
0.0
 30
0.0
  3
*D70
  1

  0
LINE
  5
68F
330
68D
100
AcDbEntity
  8
DIM
 62
     0
370
    -2
100
AcDbLine
 10
178.8110035297364
 20
135.3799140994499
 30
0.0
 11
171.0950035297363
 21
135.3799140994499
 31
0.0
  0
MTEXT
  5
690
330
68D
100
AcDbEntity
  8
DIM
 62
     0
100
AcDbMText
 10
168.261670196403
 20
135.3799140994499
 30
0.0
 40
0.9999999999999998
 41
0.0
 71
     5
 72
     1
  1
\A1;13.935
 73
     1
 44
1.0
1001
ACAD
1000
MTEXTBEGIN
1070
    73
1070
     1
1070
    44
1040
1.0
1070
    74
1070
     0
1000
MTEXTEND
  0
POINT
  5
691
330
68D
100
AcDbEntity
  8
Defpoints
 62
     0
100
AcDbPoint
 10
179.1860035297364
 20
135.3799140994499
 30
0.0
  0
POINT
  5
692
330
68D
100
AcDbEntity
  8
Defpoints
 62
     0
100
AcDbPoint
 10
171.0950035297363
 20
135.3799140994499
 30
0.0
  0
POINT
  5
693
330
68D
100
AcDbEntity
  8
Defpoints
 62
     0
100
AcDbPoint
 10
175.0950035297366
 20
121.4449140994497
 30
0.0
  0
ENDBLK
  5
694
330
68D
100
AcDbEntity
  8
0
100
AcDbBlockEnd
  0
BLOCK
  5
696
330
695
100
AcDbEntity
  8
0
100
AcDbBlockBegin
  2
*D71
 70
     1
 10
0.0
 20
0.0
 30
0.0
  3
*D71
  1

  0
LINE
  5
697
330
695
100
AcDbEntity
  8
DIM
 62
     0
370
    -2
100
AcDbLine
 10
178.8110035297364
 20
142.3799140994499
 30
0.0
 11
175.0950035297361
 21
142.3799140994499
 31
0.0
  0
LINE
  5
698
330
695
100
AcDbEntity
  8
DIM
 62
     0
370
    -2
100
AcDbLine
 10
175.0950035297361
 20
142.3799140994499
 30
0.0
 11
173.0950035297363
 21
140.4162551211863
 31
0.0
  0
LINE
  5
699
330
695
100
AcDbEntity
  8
DIM
 62
     0
370
    -2
100
AcDbLine
 10
173.0950035297363
 20
140.4162551211863
 30
0.0
 11
171.0950035297363
 21
140.4162551211863
 31
0.0
  0
MTEXT
  5
69A
330
695
100
AcDbEntity
  8
DIM
 62
     0
100
AcDbMText
 10
168.1783368630696
 20
140.4162551211863
 30
0.0
 40
0.9999999999999998
 41
0.0
 71
     5
 72
     1
  1
\A1;20.935
 73
     1
 44
1.0
1001
ACAD
1000
MTEXTBEGIN
1070
    73
1070
     1
1070
    44
1040
1.0
1070
    74
1070
     0
1000
MTEXTEND
  0
POINT
  5
69B
330
695
100
AcDbEntity
  8
Defpoints
 62
     0
100
AcDbPoint
 10
179.1860035297364
 20
142.3799140994499
 30
0.0
  0
POINT
  5
69C
330
695
100
AcDbEntity
  8
Defpoints
 62
     0
100
AcDbPoint
 10
171.0950035297363
 20
140.4162551211863
 30
0.0
  0
POINT
  5
69D
330
695
100
AcDbEntity
  8
Defpoints
 62
     0
100
AcDbPoint
 10
175.0950035297366
 20
121.4449140994497
 30
0.0
  0
ENDBLK
  5
69E
330
695
100
AcDbEntity
  8
0
100
AcDbBlockEnd
  0
BLOCK
  5
6A0
330
69F
100
AcDbEntity
  8
0
100
AcDbBlockBegin
  2
*D72
 70
     1
 10
0.0
 20
0.0
 30
0.0
  3
*D72
  1

  0
LINE
  5
6A1
330
69F
100
AcDbEntity
  8
DIM
 62
     0
370
    -2
100
AcDbLine
 10
176.348003529736
 20
158.0299140994502
 30
0.0
 11
171.0950035297363
 21
158.0299140994502
 31
0.0
  0
MTEXT
  5
6A2
330
69F
100
AcDbEntity
  8
DIM
 62
     0
100
AcDbMText
 10
168.0950035297363
 20
158.0299140994502
 30
0.0
 40
0.9999999999999998
 41
0.0
 71
     5
 72
     1
  1
\A1;36.585
 73
     1
 44
1.0
1001
ACAD
1000
MTEXTBEGIN
1070
    73
1070
     1
1070
    44
1040
1.0
1070
    74
1070
     0
1000
MTEXTEND
  0
POINT
  5
6A3
330
69F
100
AcDbEntity
  8
Defpoints
 62
     0
100
AcDbPoint
 10
176.723003529736
 20
158.0299140994502
 30
0.0
  0
POINT
  5
6A4
330
69F
100
AcDbEntity
  8
Defpoints
 62
     0
100
AcDbPoint
 10
171.0950035297363
 20
158.0299140994502
 30
0.0
  0
POINT
  5
6A5
330
69F
100
AcDbEntity
  8
Defpoints
 62
     0
100
AcDbPoint
 10
175.0950035297366
 20
121.4449140994497
 30
0.0
  0
ENDBLK
  5
6A6
330
69F
100
AcDbEntity
  8
0
100
AcDbBlockEnd
  0
BLOCK
  5
6A8
330
6A7
100
AcDbEntity
  8
0
100
AcDbBlockBegin
  2
*D73
 70
     1
 10
0.0
 20
0.0
 30
0.0
  3
*D73
  1

  0
LINE
  5
6A9
330
6A7
100
AcDbEntity
  8
DIM
 62
     0
370
    -2
100
AcDbLine
 10
176.348003529736
 20
160.8649140994502
 30
0.0
 11
171.0950035297363
 21
160.8649140994502
 31
0.0
  0
MTEXT
  5
6AA
330
6A7
100
AcDbEntity
  8
DIM
 62
     0
100
AcDbMText
 10
168.1783368630696
 20
160.8649140994502
 30
0.0
 40
0.9999999999999998
 41
0.0
 71
     5
 72
     1
  1
\A1;39.420
 73
     1
 44
1.0
1001
ACAD
1000
MTEXTBEGIN
1070
    73
1070
     1
1070
    44
1040
1.0
1070
    74
1070
     0
1000
MTEXTEND
  0
POINT
  5
6AB
330
6A7
100
AcDbEntity
  8
Defpoints
 62
     0
100
AcDbPoint
 10
176.723003529736
 20
160.8649140994502
 30
0.0
  0
POINT
  5
6AC
330
6A7
100
AcDbEntity
  8
Defpoints
 62
     0
100
AcDbPoint
 10
171.0950035297363
 20
160.8649140994502
 30
0.0
  0
POINT
  5
6AD
330
6A7
100
AcDbEntity
  8
Defpoints
 62
     0
100
AcDbPoint
 10
175.0950035297366
 20
121.4449140994497
 30
0.0
  0
ENDBLK
  5
6AE
330
6A7
100
AcDbEntity
  8
0
100
AcDbBlockEnd
  0
BLOCK
  5
6B0
330
6AF
100
AcDbEntity
  8
0
100
AcDbBlockBegin
  2
*D74
 70
     1
 10
0.0
 20
0.0
 30
0.0
  3
*D74
  1

  0
LINE
  5
6B1
330
6AF
100
AcDbEntity
  8
DIM
 62
     0
370
    -2
100
AcDbLine
 10
190.8740035297363
 20
141.5049140994499
 30
0.0
 11
195.0401678780163
 21
141.5049140994499
 31
0.0
  0
MTEXT
  5
6B2
330
6AF
100
AcDbEntity
  8
DIM
 62
     0
100
AcDbMText
 10
197.7901678780163
 20
141.5049140994499
 30
0.0
 40
0.9999999999999998
 41
0.0
 71
     5
 72
     1
  1
\A1;20.060
 73
     1
 44
1.0
1001
ACAD
1000
MTEXTBEGIN
1070
    73
1070
     1
1070
    44
1040
1.0
1070
    74
1070
     0
1000
MTEXTEND
  0
POINT
  5
6B3
330
6AF
100
AcDbEntity
  8
Defpoints
 62
     0
100
AcDbPoint
 10
190.4990035297363
 20
141.5049140994499
 30
0.0
  0
POINT
  5
6B4
330
6AF
100
AcDbEntity
  8
Defpoints
 62
     0
100
AcDbPoint
 10
195.0401678780163
 20
141.5049140994499
 30
0.0
  0
POINT
  5
6B5
330
6AF
100
AcDbEntity
  8
Defpoints
 62
     0
100
AcDbPoint
 10
175.0950035297366
 20
121.4449140994497
 30
0.0
  0
ENDBLK
  5
6B6
330
6AF
100
AcDbEntity
  8
0
100
AcDbBlockEnd
  0
BLOCK
  5
6B8
330
6B7
100
AcDbEntity
  8
0
100
AcDbBlockBegin
  2
*D75
 70
     1
 10
0.0
 20
0.0
 30
0.0
  3
*D75
  1

  0
LINE
  5
6B9
330
6B7
100
AcDbEntity
  8
DIM
 62
     0
370
    -2
100
AcDbLine
 10
190.0610035297364
 20
148.5049140994499
 30
0.0
 11
191.6860035297364
 21
148.5049140994499
 31
0.0
  0
LINE
  5
6BA
330
6B7
100
AcDbEntity
  8
DIM
 62
     0
370
    -2
100
AcDbLine
 10
191.6860035297364
 20
148.5049140994499
 30
0.0
 11
193.214074316373
 21
146.7141926657523
 31
0.0
  0
LINE
  5
6BB
330
6B7
100
AcDbEntity
  8
DIM
 62
     0
370
    -2
100
AcDbLine
 10
193.214074316373
 20
146.7141926657523
 30
0.0
 11
195.214074316373
 21
146.7141926657523
 31
0.0
  0
MTEXT
  5
6BC
330
6B7
100
AcDbEntity
  8
DIM
 62
     0
100
AcDbMText
 10
198.0474076497064
 20
146.7141926657523
 30
0.0
 40
0.9999999999999998
 41
0.0
 71
     5
 72
     1
  1
\A1;27.060
 73
     1
 44
1.0
1001
ACAD
1000
MTEXTBEGIN
1070
    73
1070
     1
1070
    44
1040
1.0
1070
    74
1070
     0
1000
MTEXTEND
  0
POINT
  5
6BD
330
6B7
100
AcDbEntity
  8
Defpoints
 62
     0
100
AcDbPoint
 10
189.6860035297364
 20
148.5049140994499
 30
0.0
  0
POINT
  5
6BE
330
6B7
100
AcDbEntity
  8
Defpoints
 62
     0
100
AcDbPoint
 10
195.214074316373
 20
146.7141926657523
 30
0.0
  0
POINT
  5
6BF
330
6B7
100
AcDbEntity
  8
Defpoints
 62
     0
100
AcDbPoint
 10
175.0950035297366
 20
121.4449140994497
 30
0.0
  0
ENDBLK
  5
6C0
330
6B7
100
AcDbEntity
  8
0
100
AcDbBlockEnd
  0
BLOCK
  5
6C2
330
6C1
100
AcDbEntity
  8
0
100
AcDbBlockBegin
  2
*D76
 70
     1
 10
0.0
 20
0.0
 30
0.0
  3
*D76
  1

  0
LINE
  5
6C3
330
6C1
100
AcDbEntity
  8
DIM
 62
     0
370
    -2
100
AcDbLine
 10
190.0610035297364
 20
150.0049140994499
 30
0.0
 11
195.0270035297363
 21
150.0049140994499
 31
0.0
  0
MTEXT
  5
6C4
330
6C1
100
AcDbEntity
  8
DIM
 62
     0
100
AcDbMText
 10
197.943670196403
 20
150.0049140994499
 30
0.0
 40
0.9999999999999998
 41
0.0
 71
     5
 72
     1
  1
\A1;28.560
 73
     1
 44
1.0
1001
ACAD
1000
MTEXTBEGIN
1070
    73
1070
     1
1070
    44
1040
1.0
1070
    74
1070
     0
1000
MTEXTEND
  0
POINT
  5
6C5
330
6C1
100
AcDbEntity
  8
Defpoints
 62
     0
100
AcDbPoint
 10
189.6860035297364
 20
150.0049140994499
 30
0.0
  0
POINT
  5
6C6
330
6C1
100
AcDbEntity
  8
Defpoints
 62
     0
100
AcDbPoint
 10
195.0270035297363
 20
150.0049140994499
 30
0.0
  0
POINT
  5
6C7
330
6C1
100
AcDbEntity
  8
Defpoints
 62
     0
100
AcDbPoint
 10
175.0950035297366
 20
121.4449140994497
 30
0.0
  0
ENDBLK
  5
6C8
330
6C1
100
AcDbEntity
  8
0
100
AcDbBlockEnd
  0
BLOCK
  5
6CA
330
6C9
100
AcDbEntity
  8
0
100
AcDbBlockBegin
  2
*D77
 70
     1
 10
0.0
 20
0.0
 30
0.0
  3
*D77
  1

  0
LINE
  5
6CB
330
6C9
100
AcDbEntity
  8
DIM
 62
     0
370
    -2
100
AcDbLine
 10
190.8740035297363
 20
152.1299140994499
 30
0.0
 11
192.4990035297361
 21
152.1299140994499
 31
0.0
  0
LINE
  5
6CC
330
6C9
100
AcDbEntity
  8
DIM
 62
     0
370
    -2
100
AcDbLine
 10
192.4990035297361
 20
152.1299140994499
 30
0.0
 11
193.0270035297363
 21
151.4424140994498
 31
0.0
  0
LINE
  5
6CD
330
6C9
100
AcDbEntity
  8
DIM
 62
     0
370
    -2
100
AcDbLine
 10
193.0270035297363
 20
151.4424140994498
 30
0.0
 11
195.0270035297363
 21
151.4424140994498
 31
0.0
  0
MTEXT
  5
6CE
330
6C9
100
AcDbEntity
  8
DIM
 62
     0
100
AcDbMText
 10
197.943670196403
 20
151.4424140994498
 30
0.0
 40
0.9999999999999998
 41
0.0
 71
     5
 72
     1
  1
\A1;30.685
 73
     1
 44
1.0
1001
ACAD
1000
MTEXTBEGIN
1070
    73
1070
     1
1070
    44
1040
1.0
1070
    74
1070
     0
1000
MTEXTEND
  0
POINT
  5
6CF
330
6C9
100
AcDbEntity
  8
Defpoints
 62
     0
100
AcDbPoint
 10
190.4990035297363
 20
152.1299140994499
 30
0.0
  0
POINT
  5
6D0
330
6C9
100
AcDbEntity
  8
Defpoints
 62
     0
100
AcDbPoint
 10
195.0270035297363
 20
151.4424140994498
 30
0.0
  0
POINT
  5
6D1
330
6C9
100
AcDbEntity
  8
Defpoints
 62
     0
100
AcDbPoint
 10
175.0950035297366
 20
121.4449140994497
 30
0.0
  0
ENDBLK
  5
6D2
330
6C9
100
AcDbEntity
  8
0
100
AcDbBlockEnd
  0
BLOCK
  5
6D4
330
6D3
100
AcDbEntity
  8
0
100
AcDbBlockBegin
  2
*D78
 70
     1
 10
0.0
 20
0.0
 30
0.0
  3
*D78
  1

  0
LINE
  5
6D5
330
6D3
100
AcDbEntity
  8
DIM
 62
     0
370
    -2
100
AcDbLine
 10
190.3060035297363
 20
152.8799140994498
 30
0.0
 11
195.0270035297363
 21
152.8799140994498
 31
0.0
  0
MTEXT
  5
6D6
330
6D3
100
AcDbEntity
  8
DIM
 62
     0
100
AcDbMText
 10
197.8603368630697
 20
152.8799140994498
 30
0.0
 40
0.9999999999999998
 41
0.0
 71
     5
 72
     1
  1
\A1;31.435
 73
     1
 44
1.0
1001
ACAD
1000
MTEXTBEGIN
1070
    73
1070
     1
1070
    44
1040
1.0
1070
    74
1070
     0
1000
MTEXTEND
  0
POINT
  5
6D7
330
6D3
100
AcDbEntity
  8
Defpoints
 62
     0
100
AcDbPoint
 10
189.9310035297363
 20
152.8799140994498
 30
0.0
  0
POINT
  5
6D8
330
6D3
100
AcDbEntity
  8
Defpoints
 62
     0
100
AcDbPoint
 10
195.0270035297363
 20
152.8799140994498
 30
0.0
  0
POINT
  5
6D9
330
6D3
100
AcDbEntity
  8
Defpoints
 62
     0
100
AcDbPoint
 10
175.0950035297366
 20
121.4449140994497
 30
0.0
  0
ENDBLK
  5
6DA
330
6D3
100
AcDbEntity
  8
0
100
AcDbBlockEnd
  0
BLOCK
  5
6DC
330
6DB
100
AcDbEntity
  8
0
100
AcDbBlockBegin
  2
*D79
 70
     1
 10
0.0
 20
0.0
 30
0.0
  3
*D79
  1

  0
LINE
  5
6DD
330
6DB
100
AcDbEntity
  8
DIM
 62
     0
370
    -2
100
AcDbLine
 10
190.3060035297363
 20
154.6299140994499
 30
0.0
 11
195.0270035297363
 21
154.6299140994499
 31
0.0
  0
MTEXT
  5
6DE
330
6DB
100
AcDbEntity
  8
DIM
 62
     0
100
AcDbMText
 10
197.8603368630697
 20
154.6299140994499
 30
0.0
 40
0.9999999999999998
 41
0.0
 71
     5
 72
     1
  1
\A1;33.185
 73
     1
 44
1.0
1001
ACAD
1000
MTEXTBEGIN
1070
    73
1070
     1
1070
    44
1040
1.0
1070
    74
1070
     0
1000
MTEXTEND
  0
POINT
  5
6DF
330
6DB
100
AcDbEntity
  8
Defpoints
 62
     0
100
AcDbPoint
 10
189.9310035297363
 20
154.6299140994499
 30
0.0
  0
POINT
  5
6E0
330
6DB
100
AcDbEntity
  8
Defpoints
 62
     0
100
AcDbPoint
 10
195.0270035297363
 20
154.6299140994499
 30
0.0
  0
POINT
  5
6E1
330
6DB
100
AcDbEntity
  8
Defpoints
 62
     0
100
AcDbPoint
 10
175.0950035297366
 20
121.4449140994497
 30
0.0
  0
ENDBLK
  5
6E2
330
6DB
100
AcDbEntity
  8
0
100
AcDbBlockEnd
  0
BLOCK
  5
6E4
330
6E3
100
AcDbEntity
  8
0
100
AcDbBlockBegin
  2
*D80
 70
     1
 10
0.0
 20
0.0
 30
0.0
  3
*D80
  1

  0
LINE
  5
6E5
330
6E3
100
AcDbEntity
  8
DIM
 62
     0
370
    -2
100
AcDbLine
 10
190.8740035297363
 20
157.3799140994499
 30
0.0
 11
195.0270035297363
 21
157.3799140994499
 31
0.0
  0
MTEXT
  5
6E6
330
6E3
100
AcDbEntity
  8
DIM
 62
     0
100
AcDbMText
 10
198.0270035297363
 20
157.3799140994499
 30
0.0
 40
0.9999999999999998
 41
0.0
 71
     5
 72
     1
  1
\A1;35.935
 73
     1
 44
1.0
1001
ACAD
1000
MTEXTBEGIN
1070
    73
1070
     1
1070
    44
1040
1.0
1070
    74
1070
     0
1000
MTEXTEND
  0
POINT
  5
6E7
330
6E3
100
AcDbEntity
  8
Defpoints
 62
     0
100
AcDbPoint
 10
190.4990035297363
 20
157.3799140994499
 30
0.0
  0
POINT
  5
6E8
330
6E3
100
AcDbEntity
  8
Defpoints
 62
     0
100
AcDbPoint
 10
195.0270035297363
 20
157.3799140994499
 30
0.0
  0
POINT
  5
6E9
330
6E3
100
AcDbEntity
  8
Defpoints
 62
     0
100
AcDbPoint
 10
175.0950035297366
 20
121.4449140994497
 30
0.0
  0
ENDBLK
  5
6EA
330
6E3
100
AcDbEntity
  8
0
100
AcDbBlockEnd
  0
BLOCK
  5
6EC
330
6EB
100
AcDbEntity
  8
0
100
AcDbBlockBegin
  2
*D81
 70
     1
 10
0.0
 20
0.0
 30
0.0
  3
*D81
  1

  0
LINE
  5
6ED
330
6EB
100
AcDbEntity
  8
GASKET
 62
     0
370
    -2
100
AcDbLine
 10
188.0010035297362
 20
121.817414099451
 30
0.0
 11
188.0010035297362
 21
118.6759470655458
 31
0.0
  0
MTEXT
  5
6EE
330
6EB
100
AcDbEntity
  8
GASKET
 62
     0
100
AcDbMText
 10
188.0010035297361
 20
115.9259470655459
 30
0.0
 40
1.0
 41
0.0
 71
     5
 72
     1
  1
\A1;12.906
 11
0.0000000000000001
 21
1.0
 31
0.0
 73
     1
 44
1.0
1001
ACAD
1000
MTEXTBEGIN
1070
    73
1070
     1
1070
    44
1040
1.0
1070
    74
1070
     0
1000
MTEXTEND
  0
POINT
  5
6EF
330
6EB
100
AcDbEntity
  8
Defpoints
 62
     0
100
AcDbPoint
 10
188.0010035297362
 20
122.192414099451
 30
0.0
  0
POINT
  5
6F0
330
6EB
100
AcDbEntity
  8
Defpoints
 62
     0
100
AcDbPoint
 10
188.0010035297362
 20
118.6759470655458
 30
0.0
  0
POINT
  5
6F1
330
6EB
100
AcDbEntity
  8
Defpoints
 62
     0
100
AcDbPoint
 10
175.0950035297366
 20
121.4449140994497
 30
0.0
  0
ENDBLK
  5
6F2
330
6EB
100
AcDbEntity
  8
0
100
AcDbBlockEnd
  0
BLOCK
  5
6F4
330
6F3
100
AcDbEntity
  8
0
100
AcDbBlockBegin
  2
*D82
 70
     1
 10
0.0
 20
0.0
 30
0.0
  3
*D82
  1

  0
LINE
  5
6F5
330
6F3
100
AcDbEntity
  8
GASKET
 62
     0
370
    -2
100
AcDbLine
 10
190.2810035297363
 20
121.817414099451
 30
0.0
 11
190.2810035297363
 21
118.6733825017581
 31
0.0
  0
MTEXT
  5
6F6
330
6F3
100
AcDbEntity
  8
GASKET
 62
     0
100
AcDbMText
 10
190.2810035297363
 20
116.0067158350915
 30
0.0
 40
1.0
 41
0.0
 71
     5
 72
     1
  1
\A1;15.186
 11
0.0000000000000001
 21
1.0
 31
0.0
 73
     1
 44
1.0
1001
ACAD
1000
MTEXTBEGIN
1070
    73
1070
     1
1070
    44
1040
1.0
1070
    74
1070
     0
1000
MTEXTEND
  0
POINT
  5
6F7
330
6F3
100
AcDbEntity
  8
Defpoints
 62
     0
100
AcDbPoint
 10
190.2810035297363
 20
122.192414099451
 30
0.0
  0
POINT
  5
6F8
330
6F3
100
AcDbEntity
  8
Defpoints
 62
     0
100
AcDbPoint
 10
190.2810035297363
 20
118.6733825017581
 30
0.0
  0
POINT
  5
6F9
330
6F3
100
AcDbEntity
  8
Defpoints
 62
     0
100
AcDbPoint
 10
175.0950035297366
 20
121.4449140994497
 30
0.0
  0
ENDBLK
  5
6FA
330
6F3
100
AcDbEntity
  8
0
100
AcDbBlockEnd
  0
BLOCK
  5
6FC
330
6FB
100
AcDbEntity
  8
0
100
AcDbBlockBegin
  2
*D83
 70
     1
 10
0.0
 20
0.0
 30
0.0
  3
*D83
  1

  0
LINE
  5
6FD
330
6FB
100
AcDbEntity
  8
GASKET
 62
     0
370
    -2
100
AcDbLine
 10
190.6560035297364
 20
122.192414099451
 30
0.0
 11
193.7439730695233
 21
122.192414099451
 31
0.0
  0
MTEXT
  5
6FE
330
6FB
100
AcDbEntity
  8
GASKET
 62
     0
100
AcDbMText
 10
196.1606397361901
 20
122.192414099451
 30
0.0
 40
1.0
 41
0.0
 71
     5
 72
     1
  1
\A1;0.748
 73
     1
 44
1.0
1001
ACAD
1000
MTEXTBEGIN
1070
    73
1070
     1
1070
    44
1040
1.0
1070
    74
1070
     0
1000
MTEXTEND
  0
POINT
  5
6FF
330
6FB
100
AcDbEntity
  8
Defpoints
 62
     0
100
AcDbPoint
 10
190.2810035297363
 20
122.192414099451
 30
0.0
  0
POINT
  5
700
330
6FB
100
AcDbEntity
  8
Defpoints
 62
     0
100
AcDbPoint
 10
193.7439730695233
 20
122.192414099451
 30
0.0
  0
POINT
  5
701
330
6FB
100
AcDbEntity
  8
Defpoints
 62
     0
100
AcDbPoint
 10
175.0950035297366
 20
121.4449140994497
 30
0.0
  0
ENDBLK
  5
702
330
6FB
100
AcDbEntity
  8
0
100
AcDbBlockEnd
  0
BLOCK
  5
704
330
703
100
AcDbEntity
  8
0
100
AcDbBlockBegin
  2
*D84
 70
     1
 10
0.0
 20
0.0
 30
0.0
  3
*D84
  1

  0
LINE
  5
705
330
703
100
AcDbEntity
  8
GASKET
 62
     0
370
    -2
100
AcDbLine
 10
190.6560035297364
 20
125.317414099451
 30
0.0
 11
193.8119653248718
 21
125.317414099451
 31
0.0
  0
MTEXT
  5
706
330
703
100
AcDbEntity
  8
GASKET
 62
     0
100
AcDbMText
 10
196.3119653248718
 20
125.317414099451
 30
0.0
 40
1.0
 41
0.0
 71
     5
 72
     1
  1
\A1;3.873
 73
     1
 44
1.0
1001
ACAD
1000
MTEXTBEGIN
1070
    73
1070
     1
1070
    44
1040
1.0
1070
    74
1070
     0
1000
MTEXTEND
  0
POINT
  5
707
330
703
100
AcDbEntity
  8
Defpoints
 62
     0
100
AcDbPoint
 10
190.2810035297364
 20
125.317414099451
 30
0.0
  0
POINT
  5
708
330
703
100
AcDbEntity
  8
Defpoints
 62
     0
100
AcDbPoint
 10
193.8119653248718
 20
125.317414099451
 30
0.0
  0
POINT
  5
709
330
703
100
AcDbEntity
  8
Defpoints
 62
     0
100
AcDbPoint
 10
175.0950035297366
 20
121.4449140994497
 30
0.0
  0
ENDBLK
  5
70A
330
703
100
AcDbEntity
  8
0
100
AcDbBlockEnd
  0
BLOCK
  5
70C
330
70B
100
AcDbEntity
  8
0
100
AcDbBlockBegin
  2
*D85
 70
     1
 10
0.0
 20
0.0
 30
0.0
  3
*D85
  1

  0
LINE
  5
70D
330
70B
100
AcDbEntity
  8
GASKET
 62
     0
370
    -2
100
AcDbLine
 10
173.9390830028483
 20
149.1206246825734
 30
0.0
 11
185.5732307595039
 21
150.5559442736049
 31
0.0
  0
MTEXT
  5
70E
330
70B
100
AcDbEntity
  8
GASKET
 62
     0
100
AcDbMText
 10
156.7724163361816
 20
151.28729134924
 30
0.0
 40
1.0
 41
0.0
 71
     1
 72
     1
  1
\A1;\U+22051.250 (1)\POPTIONAL: ETHERNET \PCONNECTION PORT
 73
     1
 44
1.0
1001
ACAD
1000
MTEXTBEGIN
1070
    73
1070
     1
1070
    44
1040
1.0
1070
    74
1070
     0
1000
MTEXTEND
  0
SOLID
  5
70F
330
70B
100
AcDbEntity
  8
GASKET
 62
     0
100
AcDbTrace
 10
185.5528235978788
 20
150.7213568654236
 30
0.0
 11
185.5936379211291
 21
150.3905316817862
 31
0.0
 12
186.5657063104162
 22
150.6783872433557
 32
0.0
 13
186.5657063104162
 23
150.6783872433557
 33
0.0
  0
LINE
  5
710
330
70B
100
AcDbEntity
  8
GASKET
 62
     0
370
    -2
100
AcDbLine
 10
187.0960035297364
 20
150.7549140994499
 30
0.0
 11
187.2760035297364
 21
150.7549140994499
 31
0.0
  0
LINE
  5
711
330
70B
100
AcDbEntity
  8
GASKET
 62
     0
370
    -2
100
AcDbLine
 10
187.1860035297364
 20
150.6649140994499
 30
0.0
 11
187.1860035297364
 21
150.8449140994499
 31
0.0
  0
POINT
  5
712
330
70B
100
AcDbEntity
  8
Defpoints
 62
     0
100
AcDbPoint
 10
186.5657063104162
 20
150.6783872433557
 30
0.0
  0
POINT
  5
713
330
70B
100
AcDbEntity
  8
Defpoints
 62
     0
100
AcDbPoint
 10
187.8063007490566
 20
150.8314409555441
 30
0.0
  0
ENDBLK
  5
714
330
70B
100
AcDbEntity
  8
0
100
AcDbBlockEnd
  0
BLOCK
  5
716
330
715
100
AcDbEntity
  8
0
100
AcDbBlockBegin
  2
*D86
 70
     1
 10
0.0
 20
0.0
 30
0.0
  3
*D86
  1

  0
LINE
  5
717
330
715
100
AcDbEntity
  8
GASKET
 62
     0
370
    -2
100
AcDbLine
 10
174.0950035297377
 20
144.2848083766414
 30
0.0
 11
175.0950035297377
 21
144.2848083766414
 31
0.0
  0
LINE
  5
718
330
715
100
AcDbEntity
  8
GASKET
 62
     0
370
    -2
100
AcDbLine
 10
175.0950035297377
 20
144.2848083766414
 30
0.0
 11
188.124983633581
 21
148.0534255793221
 31
0.0
  0
MTEXT
  5
719
330
715
100
AcDbEntity
  8
GASKET
 62
     0
100
AcDbMText
 10
156.9283368630711
 20
146.4514750433081
 30
0.0
 40
1.0
 41
0.0
 71
     1
 72
     1
  1
\A1;\U+22051.250 (1) \POPTIONAL: EXTERNAL\PHEAT OUTPUT
 73
     1
 44
1.0
1001
ACAD
1000
MTEXTBEGIN
1070
    73
1070
     1
1070
    44
1040
1.0
1070
    74
1070
     0
1000
MTEXTEND
  0
SOLID
  5
71A
330
715
100
AcDbEntity
  8
GASKET
 62
     0
100
AcDbTrace
 10
188.0786771186961
 20
148.213530184056
 30
0.0
 11
188.1712901484659
 21
147.8933209745883
 31
0.0
 12
189.0856112619843
 22
148.3312646686315
 32
0.0
 13
189.0856112619843
 23
148.3312646686315
 33
0.0
  0
LINE
  5
71B
330
715
100
AcDbEntity
  8
GASKET
 62
     0
370
    -2
100
AcDbLine
 10
189.5960035297363
 20
148.5049140994499
 30
0.0
 11
189.7760035297363
 21
148.5049140994499
 31
0.0
  0
LINE
  5
71C
330
715
100
AcDbEntity
  8
GASKET
 62
     0
370
    -2
100
AcDbLine
 10
189.6860035297364
 20
148.4149140994499
 30
0.0
 11
189.6860035297363
 21
148.5949140994499
 31
0.0
  0
POINT
  5
71D
330
715
100
AcDbEntity
  8
Defpoints
 62
     0
100
AcDbPoint
 10
189.0856112619843
 20
148.3312646686315
 30
0.0
  0
POINT
  5
71E
330
715
100
AcDbEntity
  8
Defpoints
 62
     0
100
AcDbPoint
 10
190.2863957974884
 20
148.6785635302681
 30
0.0
  0
ENDBLK
  5
71F
330
715
100
AcDbEntity
  8
0
100
AcDbBlockEnd
  0
BLOCK
  5
721
330
720
100
AcDbEntity
  8
0
100
AcDbBlockBegin
  2
*D87
 70
     1
 10
0.0
 20
0.0
 30
0.0
  3
*D87
  1

  0
LINE
  5
722
330
720
100
AcDbEntity
  8
GASKET
 62
     0
370
    -2
100
AcDbLine
 10
186.8110035297364
 20
150.7549140994499
 30
0.0
 11
174.8153889168447
 21
150.7549140994499
 31
0.0
  0
LINE
  5
723
330
720
100
AcDbEntity
  8
GASKET
 62
     0
370
    -2
100
AcDbLine
 10
174.8153889168447
 20
150.7549140994499
 30
0.0
 11
172.8153889168448
 21
152.1018348873971
 31
0.0
  0
LINE
  5
724
330
720
100
AcDbEntity
  8
GASKET
 62
     0
370
    -2
100
AcDbLine
 10
172.8153889168448
 20
152.1018348873971
 30
0.0
 11
170.8153889168448
 21
152.1018348873971
 31
0.0
  0
MTEXT
  5
725
330
720
100
AcDbEntity
  8
GASKET
 62
     0
100
AcDbMText
 10
168.0653889168447
 20
152.1018348873971
 30
0.0
 40
1.0
 41
0.0
 71
     5
 72
     1
  1
\A1;29.310
 73
     1
 44
1.0
1001
ACAD
1000
MTEXTBEGIN
1070
    73
1070
     1
1070
    44
1040
1.0
1070
    74
1070
     0
1000
MTEXTEND
  0
POINT
  5
726
330
720
100
AcDbEntity
  8
Defpoints
 62
     0
100
AcDbPoint
 10
187.1860035297364
 20
150.7549140994499
 30
0.0
  0
POINT
  5
727
330
720
100
AcDbEntity
  8
Defpoints
 62
     0
100
AcDbPoint
 10
170.8153889168448
 20
152.1018348873971
 30
0.0
  0
POINT
  5
728
330
720
100
AcDbEntity
  8
Defpoints
 62
     0
100
AcDbPoint
 10
175.0950035297366
 20
121.4449140994497
 30
0.0
  0
ENDBLK
  5
729
330
720
100
AcDbEntity
  8
0
100
AcDbBlockEnd
  0
BLOCK
  5
7DC
330
7D4
100
AcDbEntity
  8
0
100
AcDbBlockBegin
  2
*D89
 70
     1
 10
0.0
 20
0.0
 30
0.0
  3
*D89
  1

  0
LINE
  5
C98
330
7D4
100
AcDbEntity
  8
DIM
 62
     0
370
    -2
100
AcDbLine
 10
-11.27113716564437
 20
33.94669864342804
 30
0.0
 11
-11.27113716564437
 21
28.60082706788495
 31
0.0
  0
LINE
  5
C99
330
7D4
100
AcDbEntity
  8
DIM
 62
     0
370
    -2
100
AcDbLine
 10
-11.27113716564437
 20
28.60082706788495
 30
0.0
 11
-15.63542751436119
 21
26.60082706788495
 31
0.0
  0
LINE
  5
C9A
330
7D4
100
AcDbEntity
  8
DIM
 62
     0
370
    -2
100
AcDbLine
 10
-15.63542751436119
 20
26.60082706788495
 30
0.0
 11
-15.63542751436119
 21
24.60082706788495
 31
0.0
  0
MTEXT
  5
C9B
330
7D4
100
AcDbEntity
  8
DIM
 62
     0
100
AcDbMText
 10
-15.6354275143612
 20
22.42749373455161
 30
0.0
 40
0.9999999999999998
 41
0.0
 71
     5
 72
     1
  1
\A1;12.091
 11
0.0000000000000001
 21
1.0
 31
0.0
 73
     1
 44
1.0
1001
ACAD
1000
MTEXTBEGIN
1070
    73
1070
     1
1070
    44
1040
1.0
1070
    74
1070
     0
1000
MTEXTEND
  0
POINT
  5
C9C
330
7D4
100
AcDbEntity
  8
Defpoints
 62
     0
100
AcDbPoint
 10
-11.27113716564437
 20
34.14669864342804
 30
0.0
  0
POINT
  5
C9D
330
7D4
100
AcDbEntity
  8
Defpoints
 62
     0
100
AcDbPoint
 10
-15.63542751436119
 20
24.60082706788495
 30
0.0
  0
POINT
  5
C9E
330
7D4
100
AcDbEntity
  8
Defpoints
 62
     0
100
AcDbPoint
 10
-23.36212395934311
 20
8.89672671223694
 30
0.0
  0
ENDBLK
  5
7DD
330
7D4
100
AcDbEntity
  8
0
100
AcDbBlockEnd
  0
BLOCK
  5
7E6
330
7DE
100
AcDbEntity
  8
0
100
AcDbBlockBegin
  2
*D90
 70
     1
 10
0.0
 20
0.0
 30
0.0
  3
*D90
  1

  0
LINE
  5
D51
330
7DE
100
AcDbEntity
  8
GASKET
 62
     0
370
    -2
100
AcDbLine
 10
-11.47113716564437
 20
34.14669864342804
 30
0.0
 11
-23.64175177853599
 21
34.14669864342804
 31
0.0
  0
LINE
  5
D52
330
7DE
100
AcDbEntity
  8
GASKET
 62
     0
370
    -2
100
AcDbLine
 10
-23.64175177853599
 20
34.14669864342804
 30
0.0
 11
-25.64175177853599
 21
35.49361943137524
 31
0.0
  0
LINE
  5
D53
330
7DE
100
AcDbEntity
  8
GASKET
 62
     0
370
    -2
100
AcDbLine
 10
-25.64175177853599
 20
35.49361943137524
 30
0.0
 11
-27.64175177853599
 21
35.49361943137524
 31
0.0
  0
MTEXT
  5
D54
330
7DE
100
AcDbEntity
  8
GASKET
 62
     0
100
AcDbMText
 10
-29.98175177853599
 20
35.49361943137524
 30
0.0
 40
1.0
 41
0.0
 71
     5
 72
     1
  1
\A1;29.310
 73
     1
 44
1.0
1001
ACAD
1000
MTEXTBEGIN
1070
    73
1070
     1
1070
    44
1040
1.0
1070
    74
1070
     0
1000
MTEXTEND
  0
POINT
  5
D55
330
7DE
100
AcDbEntity
  8
Defpoints
 62
     0
100
AcDbPoint
 10
-11.27113716564437
 20
34.14669864342804
 30
0.0
  0
POINT
  5
D56
330
7DE
100
AcDbEntity
  8
Defpoints
 62
     0
100
AcDbPoint
 10
-27.64175177853599
 20
35.49361943137524
 30
0.0
  0
POINT
  5
D57
330
7DE
100
AcDbEntity
  8
Defpoints
 62
     0
100
AcDbPoint
 10
-23.36213716564419
 20
4.836698643427837
 30
0.0
  0
ENDBLK
  5
7E7
330
7DE
100
AcDbEntity
  8
0
100
AcDbBlockEnd
  0
BLOCK
  5
7F1
330
7E8
100
AcDbEntity
  8
0
100
AcDbBlockBegin
  2
*D91
 70
     1
 10
0.0
 20
0.0
 30
0.0
  3
*D91
  1

  0
LINE
  5
D49
330
7E8
100
AcDbEntity
  8
GASKET
 62
     0
370
    -2
100
AcDbLine
 10
-24.77213716564309
 20
27.67659292061953
 30
0.0
 11
-23.36213716564337
 21
27.67659292061953
 31
0.0
  0
LINE
  5
D4A
330
7E8
100
AcDbEntity
  8
GASKET
 62
     0
370
    -2
100
AcDbLine
 10
-23.36213716564337
 20
27.67659292061953
 30
0.0
 11
-10.33215706179976
 21
31.44521012330026
 31
0.0
  0
MTEXT
  5
D4B
330
7E8
100
AcDbEntity
  8
GASKET
 62
     0
100
AcDbMText
 10
-33.19547049897642
 20
27.67659292061953
 30
0.0
 40
1.0
 41
0.0
 71
     5
 72
     1
  1
\A1;\U+22051.250 (1) \POPTIONAL: EXTERNAL\PHEAT OUTPUT
 73
     1
 44
1.0
1001
ACAD
1000
MTEXTBEGIN
1070
    73
1070
     1
1070
    44
1040
1.0
1070
    74
1070
     0
1000
MTEXTEND
  0
SOLID
  5
D4C
330
7E8
100
AcDbEntity
  8
GASKET
 62
     0
100
AcDbTrace
 10
-10.37846357668465
 20
31.60531472803414
 30
0.0
 11
-10.28585054691486
 21
31.28510551856638
 31
0.0
 12
-9.371529433396464
 22
31.72304921260963
 32
0.0
 13
-9.371529433396464
 23
31.72304921260963
 33
0.0
  0
LINE
  5
D4D
330
7E8
100
AcDbEntity
  8
GASKET
 62
     0
370
    -2
100
AcDbLine
 10
-8.861137165644434
 20
31.89669864342797
 30
0.0
 11
-8.681137165644432
 21
31.89669864342797
 31
0.0
  0
LINE
  5
D4E
330
7E8
100
AcDbEntity
  8
GASKET
 62
     0
370
    -2
100
AcDbLine
 10
-8.771137165644434
 20
31.80669864342797
 30
0.0
 11
-8.771137165644432
 21
31.98669864342797
 31
0.0
  0
POINT
  5
D4F
330
7E8
100
AcDbEntity
  8
Defpoints
 62
     0
100
AcDbPoint
 10
-9.371529433396464
 20
31.72304921260963
 30
0.0
  0
POINT
  5
D50
330
7E8
100
AcDbEntity
  8
Defpoints
 62
     0
100
AcDbPoint
 10
-8.170744897892404
 20
32.07034807424631
 30
0.0
  0
ENDBLK
  5
7F2
330
7E8
100
AcDbEntity
  8
0
100
AcDbBlockEnd
  0
BLOCK
  5
7FB
330
7F3
100
AcDbEntity
  8
0
100
AcDbBlockBegin
  2
*D92
 70
     1
 10
0.0
 20
0.0
 30
0.0
  3
*D92
  1

  0
LINE
  5
D42
330
7F3
100
AcDbEntity
  8
GASKET
 62
     0
370
    -2
100
AcDbLine
 10
-24.51805769253255
 20
32.51240922655249
 30
0.0
 11
-12.88390993587689
 21
33.94772881758316
 31
0.0
  0
MTEXT
  5
D43
330
7F3
100
AcDbEntity
  8
GASKET
 62
     0
100
AcDbMText
 10
-32.94139102586588
 20
32.5124092265525
 30
0.0
 40
1.0
 41
0.0
 71
     5
 72
     1
  1
\A1;\U+22051.250 (1)\POPTIONAL: ETHERNET \PCONNECTION PORT
 73
     1
 44
1.0
1001
ACAD
1000
MTEXTBEGIN
1070
    73
1070
     1
1070
    44
1040
1.0
1070
    74
1070
     0
1000
MTEXTEND
  0
SOLID
  5
D44
330
7F3
100
AcDbEntity
  8
GASKET
 62
     0
100
AcDbTrace
 10
-12.904317097502
 20
34.11314140940187
 30
0.0
 11
-12.86350277425177
 21
33.78231622576445
 31
0.0
 12
-11.89143438496461
 22
34.07017178733386
 32
0.0
 13
-11.89143438496461
 23
34.07017178733386
 33
0.0
  0
LINE
  5
D45
330
7F3
100
AcDbEntity
  8
GASKET
 62
     0
370
    -2
100
AcDbLine
 10
-11.3611371656444
 20
34.14669864342804
 30
0.0
 11
-11.1811371656444
 21
34.14669864342805
 31
0.0
  0
LINE
  5
D46
330
7F3
100
AcDbEntity
  8
GASKET
 62
     0
370
    -2
100
AcDbLine
 10
-11.2711371656444
 20
34.05669864342804
 30
0.0
 11
-11.2711371656444
 21
34.23669864342804
 31
0.0
  0
POINT
  5
D47
330
7F3
100
AcDbEntity
  8
Defpoints
 62
     0
100
AcDbPoint
 10
-11.89143438496461
 20
34.07017178733386
 30
0.0
  0
POINT
  5
D48
330
7F3
100
AcDbEntity
  8
Defpoints
 62
     0
100
AcDbPoint
 10
-10.65083994632419
 20
34.22322549952224
 30
0.0
  0
ENDBLK
  5
7FC
330
7F3
100
AcDbEntity
  8
0
100
AcDbBlockEnd
  0
BLOCK
  5
803
330
7FD
100
AcDbEntity
  8
0
100
AcDbBlockBegin
  2
*D93
 70
     1
 10
0.0
 20
0.0
 30
0.0
  3
*D93
  1

  0
LINE
  5
D3D
330
7FD
100
AcDbEntity
  8
GASKET
 62
     0
370
    -2
100
AcDbLine
 10
-7.976137165644376
 20
8.709198643429147
 30
0.0
 11
-4.645175370508951
 21
8.709198643429147
 31
0.0
  0
MTEXT
  5
D3E
330
7FD
100
AcDbEntity
  8
GASKET
 62
     0
100
AcDbMText
 10
-2.555175370508951
 20
8.709198643429147
 30
0.0
 40
1.0
 41
0.0
 71
     5
 72
     1
  1
\A1;3.873
 73
     1
 44
1.0
1001
ACAD
1000
MTEXTBEGIN
1070
    73
1070
     1
1070
    44
1040
1.0
1070
    74
1070
     0
1000
MTEXTEND
  0
POINT
  5
D3F
330
7FD
100
AcDbEntity
  8
Defpoints
 62
     0
100
AcDbPoint
 10
-8.176137165644377
 20
8.709198643429147
 30
0.0
  0
POINT
  5
D40
330
7FD
100
AcDbEntity
  8
Defpoints
 62
     0
100
AcDbPoint
 10
-4.645175370508951
 20
8.709198643429147
 30
0.0
  0
POINT
  5
D41
330
7FD
100
AcDbEntity
  8
Defpoints
 62
     0
100
AcDbPoint
 10
-23.36213716564419
 20
4.836698643427837
 30
0.0
  0
ENDBLK
  5
804
330
7FD
100
AcDbEntity
  8
0
100
AcDbBlockEnd
  0
BLOCK
  5
80B
330
805
100
AcDbEntity
  8
0
100
AcDbBlockBegin
  2
*D94
 70
     1
 10
0.0
 20
0.0
 30
0.0
  3
*D94
  1

  0
LINE
  5
D38
330
805
100
AcDbEntity
  8
GASKET
 62
     0
370
    -2
100
AcDbLine
 10
-7.976137165644462
 20
5.584198643429147
 30
0.0
 11
-4.713167625857408
 21
5.584198643429147
 31
0.0
  0
MTEXT
  5
D39
330
805
100
AcDbEntity
  8
GASKET
 62
     0
100
AcDbMText
 10
-2.706500959190742
 20
5.584198643429147
 30
0.0
 40
1.0
 41
0.0
 71
     5
 72
     1
  1
\A1;0.748
 73
     1
 44
1.0
1001
ACAD
1000
MTEXTBEGIN
1070
    73
1070
     1
1070
    44
1040
1.0
1070
    74
1070
     0
1000
MTEXTEND
  0
POINT
  5
D3A
330
805
100
AcDbEntity
  8
Defpoints
 62
     0
100
AcDbPoint
 10
-8.176137165644462
 20
5.584198643429147
 30
0.0
  0
POINT
  5
D3B
330
805
100
AcDbEntity
  8
Defpoints
 62
     0
100
AcDbPoint
 10
-4.713167625857408
 20
5.584198643429147
 30
0.0
  0
POINT
  5
D3C
330
805
100
AcDbEntity
  8
Defpoints
 62
     0
100
AcDbPoint
 10
-23.36213716564419
 20
4.836698643427837
 30
0.0
  0
ENDBLK
  5
80C
330
805
100
AcDbEntity
  8
0
100
AcDbBlockEnd
  0
BLOCK
  5
813
330
80D
100
AcDbEntity
  8
0
100
AcDbBlockBegin
  2
*D95
 70
     1
 10
0.0
 20
0.0
 30
0.0
  3
*D95
  1

  0
LINE
  5
D33
330
80D
100
AcDbEntity
  8
GASKET
 62
     0
370
    -2
100
AcDbLine
 10
-8.176137165644462
 20
5.384198643429146
 30
0.0
 11
-8.176137165644462
 21
2.065167045736231
 31
0.0
  0
MTEXT
  5
D34
330
80D
100
AcDbEntity
  8
GASKET
 62
     0
100
AcDbMText
 10
-8.176137165644462
 20
-0.1914996209304362
 30
0.0
 40
1.0
 41
0.0
 71
     5
 72
     1
  1
\A1;15.186
 11
0.0000000000000001
 21
1.0
 31
0.0
 73
     1
 44
1.0
1001
ACAD
1000
MTEXTBEGIN
1070
    73
1070
     1
1070
    44
1040
1.0
1070
    74
1070
     0
1000
MTEXTEND
  0
POINT
  5
D35
330
80D
100
AcDbEntity
  8
Defpoints
 62
     0
100
AcDbPoint
 10
-8.176137165644462
 20
5.584198643429147
 30
0.0
  0
POINT
  5
D36
330
80D
100
AcDbEntity
  8
Defpoints
 62
     0
100
AcDbPoint
 10
-8.176137165644462
 20
2.065167045736231
 30
0.0
  0
POINT
  5
D37
330
80D
100
AcDbEntity
  8
Defpoints
 62
     0
100
AcDbPoint
 10
-23.36213716564419
 20
4.836698643427837
 30
0.0
  0
ENDBLK
  5
814
330
80D
100
AcDbEntity
  8
0
100
AcDbBlockEnd
  0
BLOCK
  5
81B
330
815
100
AcDbEntity
  8
0
100
AcDbBlockBegin
  2
*D96
 70
     1
 10
0.0
 20
0.0
 30
0.0
  3
*D96
  1

  0
LINE
  5
D2E
330
815
100
AcDbEntity
  8
GASKET
 62
     0
370
    -2
100
AcDbLine
 10
-10.4561371656446
 20
5.384198643429146
 30
0.0
 11
-10.4561371656446
 21
2.067731609523917
 31
0.0
  0
MTEXT
  5
D2F
330
815
100
AcDbEntity
  8
GASKET
 62
     0
100
AcDbMText
 10
-10.4561371656446
 20
-0.2722683904760836
 30
0.0
 40
1.0
 41
0.0
 71
     5
 72
     1
  1
\A1;12.906
 11
0.0000000000000001
 21
1.0
 31
0.0
 73
     1
 44
1.0
1001
ACAD
1000
MTEXTBEGIN
1070
    73
1070
     1
1070
    44
1040
1.0
1070
    74
1070
     0
1000
MTEXTEND
  0
POINT
  5
D30
330
815
100
AcDbEntity
  8
Defpoints
 62
     0
100
AcDbPoint
 10
-10.4561371656446
 20
5.584198643429147
 30
0.0
  0
POINT
  5
D31
330
815
100
AcDbEntity
  8
Defpoints
 62
     0
100
AcDbPoint
 10
-10.4561371656446
 20
2.067731609523917
 30
0.0
  0
POINT
  5
D32
330
815
100
AcDbEntity
  8
Defpoints
 62
     0
100
AcDbPoint
 10
-23.36213716564419
 20
4.836698643427837
 30
0.0
  0
ENDBLK
  5
81C
330
815
100
AcDbEntity
  8
0
100
AcDbBlockEnd
  0
BLOCK
  5
823
330
81D
100
AcDbEntity
  8
0
100
AcDbBlockBegin
  2
*D97
 70
     1
 10
0.0
 20
0.0
 30
0.0
  3
*D97
  1

  0
LINE
  5
D29
330
81D
100
AcDbEntity
  8
DIM
 62
     0
370
    -2
100
AcDbLine
 10
-7.758137165644444
 20
40.77169864342804
 30
0.0
 11
-3.430137165644453
 21
40.77169864342804
 31
0.0
  0
MTEXT
  5
D2A
330
81D
100
AcDbEntity
  8
DIM
 62
     0
100
AcDbMText
 10
-0.8401371656444535
 20
40.77169864342804
 30
0.0
 40
0.9999999999999998
 41
0.0
 71
     5
 72
     1
  1
\A1;35.935
 73
     1
 44
1.0
1001
ACAD
1000
MTEXTBEGIN
1070
    73
1070
     1
1070
    44
1040
1.0
1070
    74
1070
     0
1000
MTEXTEND
  0
POINT
  5
D2B
330
81D
100
AcDbEntity
  8
Defpoints
 62
     0
100
AcDbPoint
 10
-7.958137165644444
 20
40.77169864342804
 30
0.0
  0
POINT
  5
D2C
330
81D
100
AcDbEntity
  8
Defpoints
 62
     0
100
AcDbPoint
 10
-3.430137165644453
 20
40.77169864342804
 30
0.0
  0
POINT
  5
D2D
330
81D
100
AcDbEntity
  8
Defpoints
 62
     0
100
AcDbPoint
 10
-23.36213716564419
 20
4.836698643427837
 30
0.0
  0
ENDBLK
  5
824
330
81D
100
AcDbEntity
  8
0
100
AcDbBlockEnd
  0
BLOCK
  5
82B
330
825
100
AcDbEntity
  8
0
100
AcDbBlockBegin
  2
*D98
 70
     1
 10
0.0
 20
0.0
 30
0.0
  3
*D98
  1

  0
LINE
  5
D24
330
825
100
AcDbEntity
  8
DIM
 62
     0
370
    -2
100
AcDbLine
 10
-8.326137165644457
 20
38.02169864342804
 30
0.0
 11
-3.430137165644453
 21
38.02169864342804
 31
0.0
  0
MTEXT
  5
D25
330
825
100
AcDbEntity
  8
DIM
 62
     0
100
AcDbMText
 10
-1.00680383231112
 20
38.02169864342804
 30
0.0
 40
0.9999999999999998
 41
0.0
 71
     5
 72
     1
  1
\A1;33.185
 73
     1
 44
1.0
1001
ACAD
1000
MTEXTBEGIN
1070
    73
1070
     1
1070
    44
1040
1.0
1070
    74
1070
     0
1000
MTEXTEND
  0
POINT
  5
D26
330
825
100
AcDbEntity
  8
Defpoints
 62
     0
100
AcDbPoint
 10
-8.526137165644456
 20
38.02169864342804
 30
0.0
  0
POINT
  5
D27
330
825
100
AcDbEntity
  8
Defpoints
 62
     0
100
AcDbPoint
 10
-3.430137165644453
 20
38.02169864342804
 30
0.0
  0
POINT
  5
D28
330
825
100
AcDbEntity
  8
Defpoints
 62
     0
100
AcDbPoint
 10
-23.36213716564419
 20
4.836698643427837
 30
0.0
  0
ENDBLK
  5
82C
330
825
100
AcDbEntity
  8
0
100
AcDbBlockEnd
  0
BLOCK
  5
833
330
82D
100
AcDbEntity
  8
0
100
AcDbBlockBegin
  2
*D99
 70
     1
 10
0.0
 20
0.0
 30
0.0
  3
*D99
  1

  0
LINE
  5
D1F
330
82D
100
AcDbEntity
  8
DIM
 62
     0
370
    -2
100
AcDbLine
 10
-8.326137165644457
 20
36.27169864342795
 30
0.0
 11
-3.430137165644453
 21
36.27169864342795
 31
0.0
  0
MTEXT
  5
D20
330
82D
100
AcDbEntity
  8
DIM
 62
     0
100
AcDbMText
 10
-1.00680383231112
 20
36.27169864342795
 30
0.0
 40
0.9999999999999998
 41
0.0
 71
     5
 72
     1
  1
\A1;31.435
 73
     1
 44
1.0
1001
ACAD
1000
MTEXTBEGIN
1070
    73
1070
     1
1070
    44
1040
1.0
1070
    74
1070
     0
1000
MTEXTEND
  0
POINT
  5
D21
330
82D
100
AcDbEntity
  8
Defpoints
 62
     0
100
AcDbPoint
 10
-8.526137165644456
 20
36.27169864342795
 30
0.0
  0
POINT
  5
D22
330
82D
100
AcDbEntity
  8
Defpoints
 62
     0
100
AcDbPoint
 10
-3.430137165644453
 20
36.27169864342795
 30
0.0
  0
POINT
  5
D23
330
82D
100
AcDbEntity
  8
Defpoints
 62
     0
100
AcDbPoint
 10
-23.36213716564419
 20
4.836698643427837
 30
0.0
  0
ENDBLK
  5
834
330
82D
100
AcDbEntity
  8
0
100
AcDbBlockEnd
  0
BLOCK
  5
83D
330
835
100
AcDbEntity
  8
0
100
AcDbBlockBegin
  2
*D100
 70
     1
 10
0.0
 20
0.0
 30
0.0
  3
*D100
  1

  0
LINE
  5
D18
330
835
100
AcDbEntity
  8
DIM
 62
     0
370
    -2
100
AcDbLine
 10
-7.758137165644444
 20
35.52169864342804
 30
0.0
 11
-5.958137165644444
 21
35.52169864342804
 31
0.0
  0
LINE
  5
D19
330
835
100
AcDbEntity
  8
DIM
 62
     0
370
    -2
100
AcDbLine
 10
-5.958137165644444
 20
35.52169864342804
 30
0.0
 11
-5.430137165644453
 21
34.83419864342796
 31
0.0
  0
LINE
  5
D1A
330
835
100
AcDbEntity
  8
DIM
 62
     0
370
    -2
100
AcDbLine
 10
-5.430137165644453
 20
34.83419864342796
 30
0.0
 11
-3.430137165644453
 21
34.83419864342796
 31
0.0
  0
MTEXT
  5
D1B
330
835
100
AcDbEntity
  8
DIM
 62
     0
100
AcDbMText
 10
-0.9234704989777867
 20
34.83419864342796
 30
0.0
 40
0.9999999999999998
 41
0.0
 71
     5
 72
     1
  1
\A1;30.685
 73
     1
 44
1.0
1001
ACAD
1000
MTEXTBEGIN
1070
    73
1070
     1
1070
    44
1040
1.0
1070
    74
1070
     0
1000
MTEXTEND
  0
POINT
  5
D1C
330
835
100
AcDbEntity
  8
Defpoints
 62
     0
100
AcDbPoint
 10
-7.958137165644444
 20
35.52169864342804
 30
0.0
  0
POINT
  5
D1D
330
835
100
AcDbEntity
  8
Defpoints
 62
     0
100
AcDbPoint
 10
-3.430137165644453
 20
34.83419864342796
 30
0.0
  0
POINT
  5
D1E
330
835
100
AcDbEntity
  8
Defpoints
 62
     0
100
AcDbPoint
 10
-23.36213716564419
 20
4.836698643427837
 30
0.0
  0
ENDBLK
  5
83E
330
835
100
AcDbEntity
  8
0
100
AcDbBlockEnd
  0
BLOCK
  5
845
330
83F
100
AcDbEntity
  8
0
100
AcDbBlockBegin
  2
*D101
 70
     1
 10
0.0
 20
0.0
 30
0.0
  3
*D101
  1

  0
LINE
  5
D13
330
83F
100
AcDbEntity
  8
DIM
 62
     0
370
    -2
100
AcDbLine
 10
-8.571137165644376
 20
33.39669864342804
 30
0.0
 11
-3.430137165644453
 21
33.39669864342804
 31
0.0
  0
MTEXT
  5
D14
330
83F
100
AcDbEntity
  8
DIM
 62
     0
100
AcDbMText
 10
-0.9234704989777862
 20
33.39669864342804
 30
0.0
 40
0.9999999999999998
 41
0.0
 71
     5
 72
     1
  1
\A1;28.560
 73
     1
 44
1.0
1001
ACAD
1000
MTEXTBEGIN
1070
    73
1070
     1
1070
    44
1040
1.0
1070
    74
1070
     0
1000
MTEXTEND
  0
POINT
  5
D15
330
83F
100
AcDbEntity
  8
Defpoints
 62
     0
100
AcDbPoint
 10
-8.771137165644375
 20
33.39669864342804
 30
0.0
  0
POINT
  5
D16
330
83F
100
AcDbEntity
  8
Defpoints
 62
     0
100
AcDbPoint
 10
-3.430137165644453
 20
33.39669864342804
 30
0.0
  0
POINT
  5
D17
330
83F
100
AcDbEntity
  8
Defpoints
 62
     0
100
AcDbPoint
 10
-23.36213716564419
 20
4.836698643427837
 30
0.0
  0
ENDBLK
  5
846
330
83F
100
AcDbEntity
  8
0
100
AcDbBlockEnd
  0
BLOCK
  5
84F
330
847
100
AcDbEntity
  8
0
100
AcDbBlockBegin
  2
*D102
 70
     1
 10
0.0
 20
0.0
 30
0.0
  3
*D102
  1

  0
LINE
  5
D0C
330
847
100
AcDbEntity
  8
DIM
 62
     0
370
    -2
100
AcDbLine
 10
-8.571137165644376
 20
31.89669864342804
 30
0.0
 11
-6.771137165644375
 21
31.89669864342804
 31
0.0
  0
LINE
  5
D0D
330
847
100
AcDbEntity
  8
DIM
 62
     0
370
    -2
100
AcDbLine
 10
-6.771137165644375
 20
31.89669864342804
 30
0.0
 11
-5.243066379007814
 21
30.10597720973044
 31
0.0
  0
LINE
  5
D0E
330
847
100
AcDbEntity
  8
DIM
 62
     0
370
    -2
100
AcDbLine
 10
-5.243066379007814
 20
30.10597720973044
 30
0.0
 11
-3.243066379007814
 21
30.10597720973044
 31
0.0
  0
MTEXT
  5
D0F
330
847
100
AcDbEntity
  8
DIM
 62
     0
100
AcDbMText
 10
-0.8197330456744813
 20
30.10597720973044
 30
0.0
 40
0.9999999999999998
 41
0.0
 71
     5
 72
     1
  1
\A1;27.060
 73
     1
 44
1.0
1001
ACAD
1000
MTEXTBEGIN
1070
    73
1070
     1
1070
    44
1040
1.0
1070
    74
1070
     0
1000
MTEXTEND
  0
POINT
  5
D10
330
847
100
AcDbEntity
  8
Defpoints
 62
     0
100
AcDbPoint
 10
-8.771137165644375
 20
31.89669864342804
 30
0.0
  0
POINT
  5
D11
330
847
100
AcDbEntity
  8
Defpoints
 62
     0
100
AcDbPoint
 10
-3.243066379007814
 20
30.10597720973044
 30
0.0
  0
POINT
  5
D12
330
847
100
AcDbEntity
  8
Defpoints
 62
     0
100
AcDbPoint
 10
-23.36213716564419
 20
4.836698643427837
 30
0.0
  0
ENDBLK
  5
850
330
847
100
AcDbEntity
  8
0
100
AcDbBlockEnd
  0
BLOCK
  5
857
330
851
100
AcDbEntity
  8
0
100
AcDbBlockBegin
  2
*D103
 70
     1
 10
0.0
 20
0.0
 30
0.0
  3
*D103
  1

  0
LINE
  5
D07
330
851
100
AcDbEntity
  8
DIM
 62
     0
370
    -2
100
AcDbLine
 10
-7.758137165644444
 20
24.89669864342804
 30
0.0
 11
-3.416972817364467
 21
24.89669864342804
 31
0.0
  0
MTEXT
  5
D08
330
851
100
AcDbEntity
  8
DIM
 62
     0
100
AcDbMText
 10
-1.076972817364467
 20
24.89669864342804
 30
0.0
 40
0.9999999999999998
 41
0.0
 71
     5
 72
     1
  1
\A1;20.060
 73
     1
 44
1.0
1001
ACAD
1000
MTEXTBEGIN
1070
    73
1070
     1
1070
    44
1040
1.0
1070
    74
1070
     0
1000
MTEXTEND
  0
POINT
  5
D09
330
851
100
AcDbEntity
  8
Defpoints
 62
     0
100
AcDbPoint
 10
-7.958137165644444
 20
24.89669864342804
 30
0.0
  0
POINT
  5
D0A
330
851
100
AcDbEntity
  8
Defpoints
 62
     0
100
AcDbPoint
 10
-3.416972817364467
 20
24.89669864342804
 30
0.0
  0
POINT
  5
D0B
330
851
100
AcDbEntity
  8
Defpoints
 62
     0
100
AcDbPoint
 10
-23.36213716564419
 20
4.836698643427837
 30
0.0
  0
ENDBLK
  5
858
330
851
100
AcDbEntity
  8
0
100
AcDbBlockEnd
  0
BLOCK
  5
85F
330
859
100
AcDbEntity
  8
0
100
AcDbBlockBegin
  2
*D104
 70
     1
 10
0.0
 20
0.0
 30
0.0
  3
*D104
  1

  0
LINE
  5
D02
330
859
100
AcDbEntity
  8
DIM
 62
     0
370
    -2
100
AcDbLine
 10
-21.9341371656448
 20
44.25669864342831
 30
0.0
 11
-27.36213716564447
 21
44.25669864342831
 31
0.0
  0
MTEXT
  5
D03
330
859
100
AcDbEntity
  8
DIM
 62
     0
100
AcDbMText
 10
-29.86880383231114
 20
44.25669864342831
 30
0.0
 40
0.9999999999999998
 41
0.0
 71
     5
 72
     1
  1
\A1;39.420
 73
     1
 44
1.0
1001
ACAD
1000
MTEXTBEGIN
1070
    73
1070
     1
1070
    44
1040
1.0
1070
    74
1070
     0
1000
MTEXTEND
  0
POINT
  5
D04
330
859
100
AcDbEntity
  8
Defpoints
 62
     0
100
AcDbPoint
 10
-21.7341371656448
 20
44.25669864342831
 30
0.0
  0
POINT
  5
D05
330
859
100
AcDbEntity
  8
Defpoints
 62
     0
100
AcDbPoint
 10
-27.36213716564447
 20
44.25669864342831
 30
0.0
  0
POINT
  5
D06
330
859
100
AcDbEntity
  8
Defpoints
 62
     0
100
AcDbPoint
 10
-23.36213716564419
 20
4.836698643427837
 30
0.0
  0
ENDBLK
  5
860
330
859
100
AcDbEntity
  8
0
100
AcDbBlockEnd
  0
BLOCK
  5
867
330
861
100
AcDbEntity
  8
0
100
AcDbBlockBegin
  2
*D105
 70
     1
 10
0.0
 20
0.0
 30
0.0
  3
*D105
  1

  0
LINE
  5
CFD
330
861
100
AcDbEntity
  8
DIM
 62
     0
370
    -2
100
AcDbLine
 10
-21.9341371656448
 20
41.42169864342832
 30
0.0
 11
-27.36213716564447
 21
41.42169864342832
 31
0.0
  0
MTEXT
  5
CFE
330
861
100
AcDbEntity
  8
DIM
 62
     0
100
AcDbMText
 10
-29.95213716564447
 20
41.42169864342832
 30
0.0
 40
0.9999999999999998
 41
0.0
 71
     5
 72
     1
  1
\A1;36.585
 73
     1
 44
1.0
1001
ACAD
1000
MTEXTBEGIN
1070
    73
1070
     1
1070
    44
1040
1.0
1070
    74
1070
     0
1000
MTEXTEND
  0
POINT
  5
CFF
330
861
100
AcDbEntity
  8
Defpoints
 62
     0
100
AcDbPoint
 10
-21.7341371656448
 20
41.42169864342832
 30
0.0
  0
POINT
  5
D00
330
861
100
AcDbEntity
  8
Defpoints
 62
     0
100
AcDbPoint
 10
-27.36213716564447
 20
41.42169864342832
 30
0.0
  0
POINT
  5
D01
330
861
100
AcDbEntity
  8
Defpoints
 62
     0
100
AcDbPoint
 10
-23.36213716564419
 20
4.836698643427837
 30
0.0
  0
ENDBLK
  5
868
330
861
100
AcDbEntity
  8
0
100
AcDbBlockEnd
  0
BLOCK
  5
871
330
869
100
AcDbEntity
  8
0
100
AcDbBlockBegin
  2
*D106
 70
     1
 10
0.0
 20
0.0
 30
0.0
  3
*D106
  1

  0
LINE
  5
CF6
330
869
100
AcDbEntity
  8
DIM
 62
     0
370
    -2
100
AcDbLine
 10
-19.47113716564437
 20
25.77169864342804
 30
0.0
 11
-23.77213716564452
 21
25.77169864342804
 31
0.0
  0
LINE
  5
CF7
330
869
100
AcDbEntity
  8
DIM
 62
     0
370
    -2
100
AcDbLine
 10
-23.77213716564452
 20
25.77169864342804
 30
0.0
 11
-25.77213716564452
 21
23.80803966516442
 31
0.0
  0
LINE
  5
CF8
330
869
100
AcDbEntity
  8
DIM
 62
     0
370
    -2
100
AcDbLine
 10
-25.77213716564452
 20
23.80803966516442
 30
0.0
 11
-27.77213716564452
 21
23.80803966516442
 31
0.0
  0
MTEXT
  5
CF9
330
869
100
AcDbEntity
  8
DIM
 62
     0
100
AcDbMText
 10
-30.27880383231118
 20
23.80803966516442
 30
0.0
 40
0.9999999999999998
 41
0.0
 71
     5
 72
     1
  1
\A1;20.935
 73
     1
 44
1.0
1001
ACAD
1000
MTEXTBEGIN
1070
    73
1070
     1
1070
    44
1040
1.0
1070
    74
1070
     0
1000
MTEXTEND
  0
POINT
  5
CFA
330
869
100
AcDbEntity
  8
Defpoints
 62
     0
100
AcDbPoint
 10
-19.27113716564437
 20
25.77169864342804
 30
0.0
  0
POINT
  5
CFB
330
869
100
AcDbEntity
  8
Defpoints
 62
     0
100
AcDbPoint
 10
-27.77213716564452
 20
23.80803966516442
 30
0.0
  0
POINT
  5
CFC
330
869
100
AcDbEntity
  8
Defpoints
 62
     0
100
AcDbPoint
 10
-23.36213716564419
 20
4.836698643427837
 30
0.0
  0
ENDBLK
  5
872
330
869
100
AcDbEntity
  8
0
100
AcDbBlockEnd
  0
BLOCK
  5
879
330
873
100
AcDbEntity
  8
0
100
AcDbBlockBegin
  2
*D107
 70
     1
 10
0.0
 20
0.0
 30
0.0
  3
*D107
  1

  0
LINE
  5
CF1
330
873
100
AcDbEntity
  8
DIM
 62
     0
370
    -2
100
AcDbLine
 10
-19.47113716564437
 20
18.77169864342804
 30
0.0
 11
-27.36213716564447
 21
18.77169864342804
 31
0.0
  0
MTEXT
  5
CF2
330
873
100
AcDbEntity
  8
DIM
 62
     0
100
AcDbMText
 10
-29.7854704989778
 20
18.77169864342804
 30
0.0
 40
0.9999999999999998
 41
0.0
 71
     5
 72
     1
  1
\A1;13.935
 73
     1
 44
1.0
1001
ACAD
1000
MTEXTBEGIN
1070
    73
1070
     1
1070
    44
1040
1.0
1070
    74
1070
     0
1000
MTEXTEND
  0
POINT
  5
CF3
330
873
100
AcDbEntity
  8
Defpoints
 62
     0
100
AcDbPoint
 10
-19.27113716564437
 20
18.77169864342804
 30
0.0
  0
POINT
  5
CF4
330
873
100
AcDbEntity
  8
Defpoints
 62
     0
100
AcDbPoint
 10
-27.36213716564447
 20
18.77169864342804
 30
0.0
  0
POINT
  5
CF5
330
873
100
AcDbEntity
  8
Defpoints
 62
     0
100
AcDbPoint
 10
-23.36213716564419
 20
4.836698643427837
 30
0.0
  0
ENDBLK
  5
87A
330
873
100
AcDbEntity
  8
0
100
AcDbBlockEnd
  0
BLOCK
  5
881
330
87B
100
AcDbEntity
  8
0
100
AcDbBlockBegin
  2
*D108
 70
     1
 10
0.0
 20
0.0
 30
0.0
  3
*D108
  1

  0
LINE
  5
CEC
330
87B
100
AcDbEntity
  8
DIM
 62
     0
370
    -2
100
AcDbLine
 10
-23.03413716564445
 20
11.77169864342804
 30
0.0
 11
-27.69856610261048
 21
11.77169864342804
 31
0.0
  0
MTEXT
  5
CED
330
87B
100
AcDbEntity
  8
DIM
 62
     0
100
AcDbMText
 10
-29.78856610261047
 20
11.77169864342804
 30
0.0
 40
0.9999999999999998
 41
0.0
 71
     5
 72
     1
  1
\A1;6.935
 73
     1
 44
1.0
1001
ACAD
1000
MTEXTBEGIN
1070
    73
1070
     1
1070
    44
1040
1.0
1070
    74
1070
     0
1000
MTEXTEND
  0
POINT
  5
CEE
330
87B
100
AcDbEntity
  8
Defpoints
 62
     0
100
AcDbPoint
 10
-22.83413716564445
 20
11.77169864342804
 30
0.0
  0
POINT
  5
CEF
330
87B
100
AcDbEntity
  8
Defpoints
 62
     0
100
AcDbPoint
 10
-27.69856610261048
 20
11.77169864342804
 30
0.0
  0
POINT
  5
CF0
330
87B
100
AcDbEntity
  8
Defpoints
 62
     0
100
AcDbPoint
 10
-23.36213716564419
 20
4.836698643427837
 30
0.0
  0
ENDBLK
  5
882
330
87B
100
AcDbEntity
  8
0
100
AcDbBlockEnd
  0
BLOCK
  5
889
330
883
100
AcDbEntity
  8
0
100
AcDbBlockBegin
  2
*D109
 70
     1
 10
0.0
 20
0.0
 30
0.0
  3
*D109
  1

  0
LINE
  5
CE7
330
883
100
AcDbEntity
  8
DIM
 62
     0
370
    -2
100
AcDbLine
 10
-23.56213716564418
 20
4.836698643427837
 30
0.0
 11
-27.25572530384648
 21
4.836698643427837
 31
0.0
  0
MTEXT
  5
CE8
330
883
100
AcDbEntity
  8
DIM
 62
     0
100
AcDbMText
 10
-29.01239197051314
 20
4.836698643427837
 30
0.0
 40
0.9999999999999998
 41
0.0
 71
     5
 72
     1
  1
\A1;0.000
 73
     1
 44
1.0
1001
ACAD
1000
MTEXTBEGIN
1070
    73
1070
     1
1070
    44
1040
1.0
1070
    74
1070
     0
1000
MTEXTEND
  0
POINT
  5
CE9
330
883
100
AcDbEntity
  8
Defpoints
 62
     0
100
AcDbPoint
 10
-23.36213716564419
 20
4.836698643427837
 30
0.0
  0
POINT
  5
CEA
330
883
100
AcDbEntity
  8
Defpoints
 62
     0
100
AcDbPoint
 10
-27.25572530384648
 20
4.836698643427837
 30
0.0
  0
POINT
  5
CEB
330
883
100
AcDbEntity
  8
Defpoints
 62
     0
100
AcDbPoint
 10
-23.36213716564419
 20
4.836698643427837
 30
0.0
  0
ENDBLK
  5
88A
330
883
100
AcDbEntity
  8
0
100
AcDbBlockEnd
  0
BLOCK
  5
893
330
88B
100
AcDbEntity
  8
0
100
AcDbBlockBegin
  2
*D110
 70
     1
 10
0.0
 20
0.0
 30
0.0
  3
*D110
  1

  0
LINE
  5
CE0
330
88B
100
AcDbEntity
  8
DIM
 62
     0
370
    -2
100
AcDbLine
 10
-11.52113716564437
 20
18.39669864342804
 30
0.0
 11
-11.52113716564437
 21
5.914925929536722
 31
0.0
  0
LINE
  5
CE1
330
88B
100
AcDbEntity
  8
DIM
 62
     0
370
    -2
100
AcDbLine
 10
-11.52113716564437
 20
5.914925929536722
 30
0.0
 11
-12.56130497693749
 21
3.914925929536723
 31
0.0
  0
LINE
  5
CE2
330
88B
100
AcDbEntity
  8
DIM
 62
     0
370
    -2
100
AcDbLine
 10
-12.56130497693749
 20
3.914925929536723
 30
0.0
 11
-12.56130497693749
 21
1.914925929536723
 31
0.0
  0
MTEXT
  5
CE3
330
88B
100
AcDbEntity
  8
DIM
 62
     0
100
AcDbMText
 10
-12.56130497693749
 20
-0.5850740704632785
 30
0.0
 40
0.9999999999999998
 41
0.0
 71
     5
 72
     1
  1
\A1;11.841
 11
0.0000000000000001
 21
1.0
 31
0.0
 73
     1
 44
1.0
1001
ACAD
1000
MTEXTBEGIN
1070
    73
1070
     1
1070
    44
1040
1.0
1070
    74
1070
     0
1000
MTEXTEND
  0
POINT
  5
CE4
330
88B
100
AcDbEntity
  8
Defpoints
 62
     0
100
AcDbPoint
 10
-11.52113716564437
 20
18.77169864342804
 30
0.0
  0
POINT
  5
CE5
330
88B
100
AcDbEntity
  8
Defpoints
 62
     0
100
AcDbPoint
 10
-12.56130497693749
 20
1.914925929536723
 30
0.0
  0
POINT
  5
CE6
330
88B
100
AcDbEntity
  8
Defpoints
 62
     0
100
AcDbPoint
 10
-23.36212395934311
 20
8.89672671223694
 30
0.0
  0
ENDBLK
  5
894
330
88B
100
AcDbEntity
  8
0
100
AcDbBlockEnd
  0
BLOCK
  5
89B
330
895
100
AcDbEntity
  8
0
100
AcDbBlockBegin
  2
*D111
 70
     1
 10
0.0
 20
0.0
 30
0.0
  3
*D111
  1

  0
LINE
  5
CDB
330
895
100
AcDbEntity
  8
DIM
 62
     0
370
    -2
100
AcDbLine
 10
-19.27113716564437
 20
18.39669864342804
 30
0.0
 11
-19.27113716564437
 21
0.9602573401581395
 31
0.0
  0
MTEXT
  5
CDC
330
895
100
AcDbEntity
  8
DIM
 62
     0
100
AcDbMText
 10
-19.27113716564437
 20
-1.289742659841863
 30
0.0
 40
0.9999999999999998
 41
0.0
 71
     5
 72
     1
  1
\A1;4.091
 11
0.0000000000000001
 21
1.0
 31
0.0
 73
     1
 44
1.0
1001
ACAD
1000
MTEXTBEGIN
1070
    73
1070
     1
1070
    44
1040
1.0
1070
    74
1070
     0
1000
MTEXTEND
  0
POINT
  5
CDD
330
895
100
AcDbEntity
  8
Defpoints
 62
     0
100
AcDbPoint
 10
-19.27113716564437
 20
18.77169864342804
 30
0.0
  0
POINT
  5
CDE
330
895
100
AcDbEntity
  8
Defpoints
 62
     0
100
AcDbPoint
 10
-19.27113716564437
 20
0.9602573401581395
 30
0.0
  0
POINT
  5
CDF
330
895
100
AcDbEntity
  8
Defpoints
 62
     0
100
AcDbPoint
 10
-23.36212395934311
 20
8.89672671223694
 30
0.0
  0
ENDBLK
  5
89C
330
895
100
AcDbEntity
  8
0
100
AcDbBlockEnd
  0
BLOCK
  5
8A5
330
89D
100
AcDbEntity
  8
0
100
AcDbBlockBegin
  2
*D112
 70
     1
 10
0.0
 20
0.0
 30
0.0
  3
*D112
  1

  0
LINE
  5
CD4
330
89D
100
AcDbEntity
  8
DIM
 62
     0
370
    -2
100
AcDbLine
 10
-22.83413716564445
 20
11.39669864342804
 30
0.0
 11
-22.83413716564445
 21
5.568278899066611
 31
0.0
  0
LINE
  5
CD5
330
89D
100
AcDbEntity
  8
DIM
 62
     0
370
    -2
100
AcDbLine
 10
-22.83413716564445
 20
5.568278899066611
 30
0.0
 11
-21.83413716564462
 21
3.568278899066611
 31
0.0
  0
LINE
  5
CD6
330
89D
100
AcDbEntity
  8
DIM
 62
     0
370
    -2
100
AcDbLine
 10
-21.83413716564462
 20
3.568278899066611
 30
0.0
 11
-21.83413716564462
 21
1.568278899066611
 31
0.0
  0
MTEXT
  5
CD7
330
89D
100
AcDbEntity
  8
DIM
 62
     0
100
AcDbMText
 10
-21.83413716564462
 20
-0.8483877676000588
 30
0.0
 40
0.9999999999999998
 41
0.0
 71
     5
 72
     1
  1
\A1;0.528
 11
0.0000000000000001
 21
1.0
 31
0.0
 73
     1
 44
1.0
1001
ACAD
1000
MTEXTBEGIN
1070
    73
1070
     1
1070
    44
1040
1.0
1070
    74
1070
     0
1000
MTEXTEND
  0
POINT
  5
CD8
330
89D
100
AcDbEntity
  8
Defpoints
 62
     0
100
AcDbPoint
 10
-22.83413716564445
 20
11.77169864342804
 30
0.0
  0
POINT
  5
CD9
330
89D
100
AcDbEntity
  8
Defpoints
 62
     0
100
AcDbPoint
 10
-21.83413716564462
 20
1.568278899066611
 30
0.0
  0
POINT
  5
CDA
330
89D
100
AcDbEntity
  8
Defpoints
 62
     0
100
AcDbPoint
 10
-23.36212395934311
 20
8.89672671223694
 30
0.0
  0
ENDBLK
  5
8A6
330
89D
100
AcDbEntity
  8
0
100
AcDbBlockEnd
  0
BLOCK
  5
8AF
330
8A7
100
AcDbEntity
  8
0
100
AcDbBlockBegin
  2
*D113
 70
     1
 10
0.0
 20
0.0
 30
0.0
  3
*D113
  1

  0
LINE
  5
CCD
330
8A7
100
AcDbEntity
  8
DIM
 62
     0
370
    -2
100
AcDbLine
 10
-7.958137165644444
 20
11.39669864342804
 30
0.0
 11
-7.958137165644445
 21
6.276435153701925
 31
0.0
  0
LINE
  5
CCE
330
8A7
100
AcDbEntity
  8
DIM
 62
     0
370
    -2
100
AcDbLine
 10
-7.958137165644445
 20
6.276435153701925
 30
0.0
 11
-6.85776080819309
 21
4.276435153701925
 31
0.0
  0
LINE
  5
CCF
330
8A7
100
AcDbEntity
  8
DIM
 62
     0
370
    -2
100
AcDbLine
 10
-6.85776080819309
 20
4.276435153701925
 30
0.0
 11
-6.85776080819309
 21
2.276435153701925
 31
0.0
  0
MTEXT
  5
CD0
330
8A7
100
AcDbEntity
  8
DIM
 62
     0
100
AcDbMText
 10
-6.857760808193091
 20
-0.4735648462980749
 30
0.0
 40
0.9999999999999998
 41
0.0
 71
     5
 72
     1
  1
\A1;15.404
 11
0.0000000000000001
 21
1.0
 31
0.0
 73
     1
 44
1.0
1001
ACAD
1000
MTEXTBEGIN
1070
    73
1070
     1
1070
    44
1040
1.0
1070
    74
1070
     0
1000
MTEXTEND
  0
POINT
  5
CD1
330
8A7
100
AcDbEntity
  8
Defpoints
 62
     0
100
AcDbPoint
 10
-7.958137165644444
 20
11.77169864342804
 30
0.0
  0
POINT
  5
CD2
330
8A7
100
AcDbEntity
  8
Defpoints
 62
     0
100
AcDbPoint
 10
-6.85776080819309
 20
2.276435153701925
 30
0.0
  0
POINT
  5
CD3
330
8A7
100
AcDbEntity
  8
Defpoints
 62
     0
100
AcDbPoint
 10
-23.36213716564447
 20
4.896698643427427
 30
0.0
  0
ENDBLK
  5
8B0
330
8A7
100
AcDbEntity
  8
0
100
AcDbBlockEnd
  0
BLOCK
  5
8B9
330
8B1
100
AcDbEntity
  8
0
100
AcDbBlockBegin
  2
*D114
 70
     1
 10
0.0
 20
0.0
 30
0.0
  3
*D114
  1

  0
LINE
  5
CC6
330
8B1
100
AcDbEntity
  8
DIM
 62
     0
370
    -2
100
AcDbLine
 10
-8.771137165644375
 20
31.52169864342804
 30
0.0
 11
-8.771137165644375
 21
29.89669864342804
 31
0.0
  0
LINE
  5
CC7
330
8B1
100
AcDbEntity
  8
DIM
 62
     0
370
    -2
100
AcDbLine
 10
-8.771137165644375
 20
29.89669864342804
 30
0.0
 11
-9.739637165644465
 21
28.89669864342804
 31
0.0
  0
LINE
  5
CC8
330
8B1
100
AcDbEntity
  8
DIM
 62
     0
370
    -2
100
AcDbLine
 10
-9.739637165644465
 20
28.89669864342804
 30
0.0
 11
-9.739637165644467
 21
26.89669864342804
 31
0.0
  0
MTEXT
  5
CC9
330
8B1
100
AcDbEntity
  8
DIM
 62
     0
100
AcDbMText
 10
-9.73963716564447
 20
24.23003197676137
 30
0.0
 40
0.9999999999999998
 41
0.0
 71
     5
 72
     1
  1
\A1;14.591
 11
0.0000000000000001
 21
1.0
 31
0.0
 73
     1
 44
1.0
1001
ACAD
1000
MTEXTBEGIN
1070
    73
1070
     1
1070
    44
1040
1.0
1070
    74
1070
     0
1000
MTEXTEND
  0
POINT
  5
CCA
330
8B1
100
AcDbEntity
  8
Defpoints
 62
     0
100
AcDbPoint
 10
-8.771137165644375
 20
31.89669864342804
 30
0.0
  0
POINT
  5
CCB
330
8B1
100
AcDbEntity
  8
Defpoints
 62
     0
100
AcDbPoint
 10
-9.739637165644467
 20
26.89669864342804
 30
0.0
  0
POINT
  5
CCC
330
8B1
100
AcDbEntity
  8
Defpoints
 62
     0
100
AcDbPoint
 10
-23.36212395934311
 20
7.39672671223694
 30
0.0
  0
ENDBLK
  5
8BA
330
8B1
100
AcDbEntity
  8
0
100
AcDbBlockEnd
  0
BLOCK
  5
8C1
330
8BB
100
AcDbEntity
  8
0
100
AcDbBlockBegin
  2
*D115
 70
     1
 10
0.0
 20
0.0
 30
0.0
  3
*D115
  1

  0
LINE
  5
CC1
330
8BB
100
AcDbEntity
  8
DIM
 62
     0
370
    -2
100
AcDbLine
 10
-13.3601371656446
 20
44.63169864342822
 30
0.0
 11
-13.3601371656446
 21
48.86269864342793
 31
0.0
  0
MTEXT
  5
CC2
330
8BB
100
AcDbEntity
  8
DIM
 62
     0
100
AcDbMText
 10
-13.36013716564461
 20
51.44603197676127
 30
0.0
 40
0.9999999999999998
 41
0.0
 71
     5
 72
     1
  1
\A1;10.002
 11
0.0000000000000001
 21
1.0
 31
0.0
 73
     1
 44
1.0
1001
ACAD
1000
MTEXTBEGIN
1070
    73
1070
     1
1070
    44
1040
1.0
1070
    74
1070
     0
1000
MTEXTEND
  0
POINT
  5
CC3
330
8BB
100
AcDbEntity
  8
Defpoints
 62
     0
100
AcDbPoint
 10
-13.3601371656446
 20
44.25669864342822
 30
0.0
  0
POINT
  5
CC4
330
8BB
100
AcDbEntity
  8
Defpoints
 62
     0
100
AcDbPoint
 10
-13.3601371656446
 20
48.86269864342793
 30
0.0
  0
POINT
  5
CC5
330
8BB
100
AcDbEntity
  8
Defpoints
 62
     0
100
AcDbPoint
 10
-23.36212395934311
 20
8.89672671223694
 30
0.0
  0
ENDBLK
  5
8C2
330
8BB
100
AcDbEntity
  8
0
100
AcDbBlockEnd
  0
BLOCK
  5
8C9
330
8C3
100
AcDbEntity
  8
0
100
AcDbBlockBegin
  2
*D116
 70
     1
 10
0.0
 20
0.0
 30
0.0
  3
*D116
  1

  0
LINE
  5
CBC
330
8C3
100
AcDbEntity
  8
DIM
 62
     0
370
    -2
100
AcDbLine
 10
-8.914137165644376
 20
44.63169864342822
 30
0.0
 11
-8.914137165644376
 21
48.86269864342793
 31
0.0
  0
MTEXT
  5
CBD
330
8C3
100
AcDbEntity
  8
DIM
 62
     0
100
AcDbMText
 10
-8.914137165644383
 20
51.69603197676127
 30
0.0
 40
0.9999999999999998
 41
0.0
 71
     5
 72
     1
  1
\A1;14.448
 11
0.0000000000000001
 21
1.0
 31
0.0
 73
     1
 44
1.0
1001
ACAD
1000
MTEXTBEGIN
1070
    73
1070
     1
1070
    44
1040
1.0
1070
    74
1070
     0
1000
MTEXTEND
  0
POINT
  5
CBE
330
8C3
100
AcDbEntity
  8
Defpoints
 62
     0
100
AcDbPoint
 10
-8.914137165644376
 20
44.25669864342822
 30
0.0
  0
POINT
  5
CBF
330
8C3
100
AcDbEntity
  8
Defpoints
 62
     0
100
AcDbPoint
 10
-8.914137165644376
 20
48.86269864342793
 30
0.0
  0
POINT
  5
CC0
330
8C3
100
AcDbEntity
  8
Defpoints
 62
     0
100
AcDbPoint
 10
-23.36212395934311
 20
8.89672671223694
 30
0.0
  0
ENDBLK
  5
8CA
330
8C3
100
AcDbEntity
  8
0
100
AcDbBlockEnd
  0
BLOCK
  5
8D3
330
8CB
100
AcDbEntity
  8
0
100
AcDbBlockBegin
  2
*D117
 70
     1
 10
0.0
 20
0.0
 30
0.0
  3
*D117
  1

  0
LINE
  5
CB5
330
8CB
100
AcDbEntity
  8
DIM
 62
     0
370
    -2
100
AcDbLine
 10
-8.526137165644456
 20
38.39669864342804
 30
0.0
 11
-8.526137165644454
 21
44.86269864342793
 31
0.0
  0
LINE
  5
CB6
330
8CB
100
AcDbEntity
  8
DIM
 62
     0
370
    -2
100
AcDbLine
 10
-8.526137165644454
 20
44.86269864342793
 30
0.0
 11
-7.526137165644456
 21
46.86269864342793
 31
0.0
  0
LINE
  5
CB7
330
8CB
100
AcDbEntity
  8
DIM
 62
     0
370
    -2
100
AcDbLine
 10
-7.526137165644456
 20
46.86269864342793
 30
0.0
 11
-7.526137165644456
 21
48.86269864342793
 31
0.0
  0
MTEXT
  5
CB8
330
8CB
100
AcDbEntity
  8
DIM
 62
     0
100
AcDbMText
 10
-7.526137165644463
 20
51.69603197676127
 30
0.0
 40
0.9999999999999998
 41
0.0
 71
     5
 72
     1
  1
\A1;14.836
 11
0.0000000000000001
 21
1.0
 31
0.0
 73
     1
 44
1.0
1001
ACAD
1000
MTEXTBEGIN
1070
    73
1070
     1
1070
    44
1040
1.0
1070
    74
1070
     0
1000
MTEXTEND
  0
POINT
  5
CB9
330
8CB
100
AcDbEntity
  8
Defpoints
 62
     0
100
AcDbPoint
 10
-8.526137165644456
 20
38.02169864342804
 30
0.0
  0
POINT
  5
CBA
330
8CB
100
AcDbEntity
  8
Defpoints
 62
     0
100
AcDbPoint
 10
-7.526137165644456
 20
48.86269864342793
 30
0.0
  0
POINT
  5
CBB
330
8CB
100
AcDbEntity
  8
Defpoints
 62
     0
100
AcDbPoint
 10
-23.36212395934311
 20
8.89672671223694
 30
0.0
  0
ENDBLK
  5
8D4
330
8CB
100
AcDbEntity
  8
0
100
AcDbBlockEnd
  0
BLOCK
  5
8DB
330
8D5
100
AcDbEntity
  8
0
100
AcDbBlockBegin
  2
*D118
 70
     1
 10
0.0
 20
0.0
 30
0.0
  3
*D118
  1

  0
LINE
  5
CB0
330
8D5
100
AcDbEntity
  8
DIM
 62
     0
370
    -2
100
AcDbLine
 10
-17.28813716564468
 20
44.6316986434283
 30
0.0
 11
-17.28813716564468
 21
48.86269864342793
 31
0.0
  0
MTEXT
  5
CB1
330
8D5
100
AcDbEntity
  8
DIM
 62
     0
100
AcDbMText
 10
-17.28813716564469
 20
51.27936531009459
 30
0.0
 40
0.9999999999999998
 41
0.0
 71
     5
 72
     1
  1
\A1;6.074
 11
0.0000000000000001
 21
1.0
 31
0.0
 73
     1
 44
1.0
1001
ACAD
1000
MTEXTBEGIN
1070
    73
1070
     1
1070
    44
1040
1.0
1070
    74
1070
     0
1000
MTEXTEND
  0
POINT
  5
CB2
330
8D5
100
AcDbEntity
  8
Defpoints
 62
     0
100
AcDbPoint
 10
-17.28813716564468
 20
44.25669864342831
 30
0.0
  0
POINT
  5
CB3
330
8D5
100
AcDbEntity
  8
Defpoints
 62
     0
100
AcDbPoint
 10
-17.28813716564468
 20
48.86269864342793
 30
0.0
  0
POINT
  5
CB4
330
8D5
100
AcDbEntity
  8
Defpoints
 62
     0
100
AcDbPoint
 10
-23.36212395934311
 20
8.89672671223694
 30
0.0
  0
ENDBLK
  5
8DC
330
8D5
100
AcDbEntity
  8
0
100
AcDbBlockEnd
  0
BLOCK
  5
8E3
330
8DD
100
AcDbEntity
  8
0
100
AcDbBlockBegin
  2
*D119
 70
     1
 10
0.0
 20
0.0
 30
0.0
  3
*D119
  1

  0
LINE
  5
CAB
330
8DD
100
AcDbEntity
  8
DIM
 62
     0
370
    -2
100
AcDbLine
 10
-21.7341371656448
 20
44.6316986434283
 30
0.0
 11
-21.7341371656448
 21
48.86269864342793
 31
0.0
  0
MTEXT
  5
CAC
330
8DD
100
AcDbEntity
  8
DIM
 62
     0
100
AcDbMText
 10
-21.7341371656448
 20
51.19603197676126
 30
0.0
 40
0.9999999999999998
 41
0.0
 71
     5
 72
     1
  1
\A1;1.628
 11
0.0000000000000001
 21
1.0
 31
0.0
 73
     1
 44
1.0
1001
ACAD
1000
MTEXTBEGIN
1070
    73
1070
     1
1070
    44
1040
1.0
1070
    74
1070
     0
1000
MTEXTEND
  0
POINT
  5
CAD
330
8DD
100
AcDbEntity
  8
Defpoints
 62
     0
100
AcDbPoint
 10
-21.7341371656448
 20
44.25669864342831
 30
0.0
  0
POINT
  5
CAE
330
8DD
100
AcDbEntity
  8
Defpoints
 62
     0
100
AcDbPoint
 10
-21.7341371656448
 20
48.86269864342793
 30
0.0
  0
POINT
  5
CAF
330
8DD
100
AcDbEntity
  8
Defpoints
 62
     0
100
AcDbPoint
 10
-23.36212395934311
 20
8.89672671223694
 30
0.0
  0
ENDBLK
  5
8E4
330
8DD
100
AcDbEntity
  8
0
100
AcDbBlockEnd
  0
BLOCK
  5
8ED
330
8E5
100
AcDbEntity
  8
0
100
AcDbBlockBegin
  2
*D120
 70
     1
 10
0.0
 20
0.0
 30
0.0
  3
*D120
  1

  0
LINE
  5
CA4
330
8E5
100
AcDbEntity
  8
DIM
 62
     0
370
    -2
100
AcDbLine
 10
-22.2761371656446
 20
38.39669864342813
 30
0.0
 11
-22.2761371656446
 21
44.86269864342793
 31
0.0
  0
LINE
  5
CA5
330
8E5
100
AcDbEntity
  8
DIM
 62
     0
370
    -2
100
AcDbLine
 10
-22.2761371656446
 20
44.86269864342793
 30
0.0
 11
-23.2761371656446
 21
46.86269864342793
 31
0.0
  0
LINE
  5
CA6
330
8E5
100
AcDbEntity
  8
DIM
 62
     0
370
    -2
100
AcDbLine
 10
-23.2761371656446
 20
46.86269864342793
 30
0.0
 11
-23.2761371656446
 21
48.86269864342793
 31
0.0
  0
MTEXT
  5
CA7
330
8E5
100
AcDbEntity
  8
DIM
 62
     0
100
AcDbMText
 10
-23.27613716564461
 20
51.11269864342792
 30
0.0
 40
0.9999999999999998
 41
0.0
 71
     5
 72
     1
  1
\A1;1.086
 11
0.0000000000000001
 21
1.0
 31
0.0
 73
     1
 44
1.0
1001
ACAD
1000
MTEXTBEGIN
1070
    73
1070
     1
1070
    44
1040
1.0
1070
    74
1070
     0
1000
MTEXTEND
  0
POINT
  5
CA8
330
8E5
100
AcDbEntity
  8
Defpoints
 62
     0
100
AcDbPoint
 10
-22.2761371656446
 20
38.02169864342813
 30
0.0
  0
POINT
  5
CA9
330
8E5
100
AcDbEntity
  8
Defpoints
 62
     0
100
AcDbPoint
 10
-23.2761371656446
 20
48.86269864342793
 30
0.0
  0
POINT
  5
CAA
330
8E5
100
AcDbEntity
  8
Defpoints
 62
     0
100
AcDbPoint
 10
-23.36212395934311
 20
8.89672671223694
 30
0.0
  0
ENDBLK
  5
8EE
330
8E5
100
AcDbEntity
  8
0
100
AcDbBlockEnd
  0
BLOCK
  5
8F5
330
8EF
100
AcDbEntity
  8
0
100
AcDbBlockBegin
  2
*D121
 70
     1
 10
0.0
 20
0.0
 30
0.0
  3
*D121
  1

  0
LINE
  5
C9F
330
8EF
100
AcDbEntity
  8
DIM
 62
     0
370
    -2
100
AcDbLine
 10
-23.36213716564447
 20
4.521698643427427
 30
0.0
 11
-23.36213716564447
 21
1.073081973433103
 31
0.0
  0
MTEXT
  5
CA0
330
8EF
100
AcDbEntity
  8
DIM
 62
     0
100
AcDbMText
 10
-23.36213716564447
 20
-1.093584693233566
 30
0.0
 40
0.9999999999999998
 41
0.0
 71
     5
 72
     1
  1
\A1;0.000
 11
0.0000000000000001
 21
1.0
 31
0.0
 73
     1
 44
1.0
1001
ACAD
1000
MTEXTBEGIN
1070
    73
1070
     1
1070
    44
1040
1.0
1070
    74
1070
     0
1000
MTEXTEND
  0
POINT
  5
CA1
330
8EF
100
AcDbEntity
  8
Defpoints
 62
     0
100
AcDbPoint
 10
-23.36213716564447
 20
4.896698643427427
 30
0.0
  0
POINT
  5
CA2
330
8EF
100
AcDbEntity
  8
Defpoints
 62
     0
100
AcDbPoint
 10
-23.36213716564447
 20
1.073081973433103
 30
0.0
  0
POINT
  5
CA3
330
8EF
100
AcDbEntity
  8
Defpoints
 62
     0
100
AcDbPoint
 10
-23.36213716564447
 20
4.896698643427427
 30
0.0
  0
ENDBLK
  5
8F6
330
8EF
100
AcDbEntity
  8
0
100
AcDbBlockEnd
  0
BLOCK
  5
B21
330
B19
100
AcDbEntity
  8
0
100
AcDbBlockBegin
  2
*D122
 70
     1
 10
0.0
 20
0.0
 30
0.0
  3
*D122
  1

  0
LINE
  5
DFD
330
B19
100
AcDbEntity
  8
DIM
 62
     0
370
    -2
100
AcDbLine
 10
54.2828418689395
 20
37.51600574047507
 30
0.0
 11
54.2828418689395
 21
33.27076091843199
 31
0.0
  0
LINE
  5
DFE
330
B19
100
AcDbEntity
  8
DIM
 62
     0
370
    -2
100
AcDbLine
 10
54.2828418689395
 20
33.27076091843199
 30
0.0
 11
49.91855152022272
 21
31.270760918432
 31
0.0
  0
LINE
  5
DFF
330
B19
100
AcDbEntity
  8
DIM
 62
     0
370
    -2
100
AcDbLine
 10
49.91855152022272
 20
31.270760918432
 30
0.0
 11
49.91855152022272
 21
29.270760918432
 31
0.0
  0
MTEXT
  5
E00
330
B19
100
AcDbEntity
  8
DIM
 62
     0
100
AcDbMText
 10
49.91855152022271
 20
27.09742758509867
 30
0.0
 40
0.9999999999999998
 41
0.0
 71
     5
 72
     1
  1
\A1;12.091
 11
0.0000000000000001
 21
1.0
 31
0.0
 73
     1
 44
1.0
1001
ACAD
1000
MTEXTBEGIN
1070
    73
1070
     1
1070
    44
1040
1.0
1070
    74
1070
     0
1000
MTEXTEND
  0
POINT
  5
E01
330
B19
100
AcDbEntity
  8
Defpoints
 62
     0
100
AcDbPoint
 10
54.2828418689395
 20
37.71600574047507
 30
0.0
  0
POINT
  5
E02
330
B19
100
AcDbEntity
  8
Defpoints
 62
     0
100
AcDbPoint
 10
49.91855152022272
 20
29.270760918432
 30
0.0
  0
POINT
  5
E03
330
B19
100
AcDbEntity
  8
Defpoints
 62
     0
100
AcDbPoint
 10
42.19185507524078
 20
12.46603380928397
 30
0.0
  0
ENDBLK
  5
B22
330
B19
100
AcDbEntity
  8
0
100
AcDbBlockEnd
  0
BLOCK
  5
B2B
330
B23
100
AcDbEntity
  8
0
100
AcDbBlockBegin
  2
*D123
 70
     1
 10
0.0
 20
0.0
 30
0.0
  3
*D123
  1

  0
LINE
  5
C08
330
B23
100
AcDbEntity
  8
DIM
 62
     0
370
    -2
100
AcDbLine
 10
54.0828418689395
 20
37.71600574047507
 30
0.0
 11
42.7930860855512
 21
37.71600574047507
 31
0.0
  0
LINE
  5
C09
330
B23
100
AcDbEntity
  8
DIM
 62
     0
370
    -2
100
AcDbLine
 10
42.7930860855512
 20
37.71600574047507
 30
0.0
 11
40.7930860855512
 21
41.64612568743189
 31
0.0
  0
LINE
  5
C0A
330
B23
100
AcDbEntity
  8
DIM
 62
     0
370
    -2
100
AcDbLine
 10
40.7930860855512
 20
41.64612568743189
 30
0.0
 11
38.7930860855512
 21
41.64612568743189
 31
0.0
  0
MTEXT
  5
C0B
330
B23
100
AcDbEntity
  8
DIM
 62
     0
100
AcDbMText
 10
36.28641941888453
 20
41.64612568743189
 30
0.0
 40
0.9999999999999998
 41
0.0
 71
     5
 72
     1
  1
\A1;25.250
 73
     1
 44
1.0
1001
ACAD
1000
MTEXTBEGIN
1070
    73
1070
     1
1070
    44
1040
1.0
1070
    74
1070
     0
1000
MTEXTEND
  0
POINT
  5
C0C
330
B23
100
AcDbEntity
  8
Defpoints
 62
     0
100
AcDbPoint
 10
54.2828418689395
 20
37.71600574047507
 30
0.0
  0
POINT
  5
C0D
330
B23
100
AcDbEntity
  8
Defpoints
 62
     0
100
AcDbPoint
 10
38.7930860855512
 20
41.64612568743189
 30
0.0
  0
POINT
  5
C0E
330
B23
100
AcDbEntity
  8
Defpoints
 62
     0
100
AcDbPoint
 10
42.19185507524078
 20
12.46603380928397
 30
0.0
  0
ENDBLK
  5
B2C
330
B23
100
AcDbEntity
  8
0
100
AcDbBlockEnd
  0
BLOCK
  5
B33
330
B2D
100
AcDbEntity
  8
0
100
AcDbBlockBegin
  2
*D124
 70
     1
 10
0.0
 20
0.0
 30
0.0
  3
*D124
  1

  0
LINE
  5
C0F
330
B2D
100
AcDbEntity
  8
DIM
 62
     0
370
    -2
100
AcDbLine
 10
42.19184186893944
 20
8.0910057404745
 30
0.0
 11
42.19184186893941
 21
4.642389070480151
 31
0.0
  0
MTEXT
  5
C10
330
B2D
100
AcDbEntity
  8
DIM
 62
     0
100
AcDbMText
 10
42.19184186893941
 20
2.475722403813492
 30
0.0
 40
0.9999999999999998
 41
0.0
 71
     5
 72
     1
  1
\A1;0.000
 11
0.0000000000000001
 21
1.0
 31
0.0
 73
     1
 44
1.0
1001
ACAD
1000
MTEXTBEGIN
1070
    73
1070
     1
1070
    44
1040
1.0
1070
    74
1070
     0
1000
MTEXTEND
  0
POINT
  5
C11
330
B2D
100
AcDbEntity
  8
Defpoints
 62
     0
100
AcDbPoint
 10
42.19184186893944
 20
8.4660057404745
 30
0.0
  0
POINT
  5
C12
330
B2D
100
AcDbEntity
  8
Defpoints
 62
     0
100
AcDbPoint
 10
42.19184186893941
 20
4.642389070480151
 30
0.0
  0
POINT
  5
C13
330
B2D
100
AcDbEntity
  8
Defpoints
 62
     0
100
AcDbPoint
 10
42.19184186893944
 20
8.4660057404745
 30
0.0
  0
ENDBLK
  5
B34
330
B2D
100
AcDbEntity
  8
0
100
AcDbBlockEnd
  0
BLOCK
  5
B3D
330
B35
100
AcDbEntity
  8
0
100
AcDbBlockBegin
  2
*D125
 70
     1
 10
0.0
 20
0.0
 30
0.0
  3
*D125
  1

  0
LINE
  5
C14
330
B35
100
AcDbEntity
  8
DIM
 62
     0
370
    -2
100
AcDbLine
 10
43.27784186893932
 20
41.96600574047513
 30
0.0
 11
43.27784186893933
 21
48.43200574047497
 31
0.0
  0
LINE
  5
C15
330
B35
100
AcDbEntity
  8
DIM
 62
     0
370
    -2
100
AcDbLine
 10
43.27784186893933
 20
48.43200574047497
 30
0.0
 11
42.27784186893932
 21
50.43200574047497
 31
0.0
  0
LINE
  5
C16
330
B35
100
AcDbEntity
  8
DIM
 62
     0
370
    -2
100
AcDbLine
 10
42.27784186893932
 20
50.43200574047497
 30
0.0
 11
42.27784186893932
 21
52.43200574047497
 31
0.0
  0
MTEXT
  5
C17
330
B35
100
AcDbEntity
  8
DIM
 62
     0
100
AcDbMText
 10
42.27784186893931
 20
54.68200574047497
 30
0.0
 40
0.9999999999999998
 41
0.0
 71
     5
 72
     1
  1
\A1;1.086
 11
0.0000000000000001
 21
1.0
 31
0.0
 73
     1
 44
1.0
1001
ACAD
1000
MTEXTBEGIN
1070
    73
1070
     1
1070
    44
1040
1.0
1070
    74
1070
     0
1000
MTEXTEND
  0
POINT
  5
C18
330
B35
100
AcDbEntity
  8
Defpoints
 62
     0
100
AcDbPoint
 10
43.27784186893932
 20
41.59100574047513
 30
0.0
  0
POINT
  5
C19
330
B35
100
AcDbEntity
  8
Defpoints
 62
     0
100
AcDbPoint
 10
42.27784186893932
 20
52.43200574047497
 30
0.0
  0
POINT
  5
C1A
330
B35
100
AcDbEntity
  8
Defpoints
 62
     0
100
AcDbPoint
 10
42.19185507524078
 20
12.46603380928397
 30
0.0
  0
ENDBLK
  5
B3E
330
B35
100
AcDbEntity
  8
0
100
AcDbBlockEnd
  0
BLOCK
  5
B45
330
B3F
100
AcDbEntity
  8
0
100
AcDbBlockBegin
  2
*D126
 70
     1
 10
0.0
 20
0.0
 30
0.0
  3
*D126
  1

  0
LINE
  5
C1B
330
B3F
100
AcDbEntity
  8
DIM
 62
     0
370
    -2
100
AcDbLine
 10
43.81984186893908
 20
48.20100574047539
 30
0.0
 11
43.81984186893908
 21
52.43200574047497
 31
0.0
  0
MTEXT
  5
C1C
330
B3F
100
AcDbEntity
  8
DIM
 62
     0
100
AcDbMText
 10
43.81984186893906
 20
54.76533907380831
 30
0.0
 40
0.9999999999999998
 41
0.0
 71
     5
 72
     1
  1
\A1;1.628
 11
0.0000000000000001
 21
1.0
 31
0.0
 73
     1
 44
1.0
1001
ACAD
1000
MTEXTBEGIN
1070
    73
1070
     1
1070
    44
1040
1.0
1070
    74
1070
     0
1000
MTEXTEND
  0
POINT
  5
C1D
330
B3F
100
AcDbEntity
  8
Defpoints
 62
     0
100
AcDbPoint
 10
43.81984186893908
 20
47.82600574047538
 30
0.0
  0
POINT
  5
C1E
330
B3F
100
AcDbEntity
  8
Defpoints
 62
     0
100
AcDbPoint
 10
43.81984186893908
 20
52.43200574047497
 30
0.0
  0
POINT
  5
C1F
330
B3F
100
AcDbEntity
  8
Defpoints
 62
     0
100
AcDbPoint
 10
42.19185507524078
 20
12.46603380928397
 30
0.0
  0
ENDBLK
  5
B46
330
B3F
100
AcDbEntity
  8
0
100
AcDbBlockEnd
  0
BLOCK
  5
B4D
330
B47
100
AcDbEntity
  8
0
100
AcDbBlockBegin
  2
*D127
 70
     1
 10
0.0
 20
0.0
 30
0.0
  3
*D127
  1

  0
LINE
  5
C20
330
B47
100
AcDbEntity
  8
DIM
 62
     0
370
    -2
100
AcDbLine
 10
48.26584186893923
 20
48.20100574047533
 30
0.0
 11
48.26584186893922
 21
52.43200574047497
 31
0.0
  0
MTEXT
  5
C21
330
B47
100
AcDbEntity
  8
DIM
 62
     0
100
AcDbMText
 10
48.26584186893921
 20
54.84867240714165
 30
0.0
 40
0.9999999999999998
 41
0.0
 71
     5
 72
     1
  1
\A1;6.074
 11
0.0000000000000001
 21
1.0
 31
0.0
 73
     1
 44
1.0
1001
ACAD
1000
MTEXTBEGIN
1070
    73
1070
     1
1070
    44
1040
1.0
1070
    74
1070
     0
1000
MTEXTEND
  0
POINT
  5
C22
330
B47
100
AcDbEntity
  8
Defpoints
 62
     0
100
AcDbPoint
 10
48.26584186893922
 20
47.82600574047532
 30
0.0
  0
POINT
  5
C23
330
B47
100
AcDbEntity
  8
Defpoints
 62
     0
100
AcDbPoint
 10
48.26584186893922
 20
52.43200574047497
 30
0.0
  0
POINT
  5
C24
330
B47
100
AcDbEntity
  8
Defpoints
 62
     0
100
AcDbPoint
 10
42.19185507524078
 20
12.46603380928397
 30
0.0
  0
ENDBLK
  5
B4E
330
B47
100
AcDbEntity
  8
0
100
AcDbBlockEnd
  0
BLOCK
  5
B57
330
B4F
100
AcDbEntity
  8
0
100
AcDbBlockBegin
  2
*D128
 70
     1
 10
0.0
 20
0.0
 30
0.0
  3
*D128
  1

  0
LINE
  5
C25
330
B4F
100
AcDbEntity
  8
DIM
 62
     0
370
    -2
100
AcDbLine
 10
57.02784186893939
 20
41.96600574047508
 30
0.0
 11
57.0278418689394
 21
48.43200574047497
 31
0.0
  0
LINE
  5
C26
330
B4F
100
AcDbEntity
  8
DIM
 62
     0
370
    -2
100
AcDbLine
 10
57.0278418689394
 20
48.43200574047497
 30
0.0
 11
58.0278418689394
 21
50.43200574047497
 31
0.0
  0
LINE
  5
C27
330
B4F
100
AcDbEntity
  8
DIM
 62
     0
370
    -2
100
AcDbLine
 10
58.0278418689394
 20
50.43200574047497
 30
0.0
 11
58.0278418689394
 21
52.43200574047497
 31
0.0
  0
MTEXT
  5
C28
330
B4F
100
AcDbEntity
  8
DIM
 62
     0
100
AcDbMText
 10
58.02784186893938
 20
55.26533907380831
 30
0.0
 40
0.9999999999999998
 41
0.0
 71
     5
 72
     1
  1
\A1;14.836
 11
0.0000000000000001
 21
1.0
 31
0.0
 73
     1
 44
1.0
1001
ACAD
1000
MTEXTBEGIN
1070
    73
1070
     1
1070
    44
1040
1.0
1070
    74
1070
     0
1000
MTEXTEND
  0
POINT
  5
C29
330
B4F
100
AcDbEntity
  8
Defpoints
 62
     0
100
AcDbPoint
 10
57.02784186893939
 20
41.59100574047508
 30
0.0
  0
POINT
  5
C2A
330
B4F
100
AcDbEntity
  8
Defpoints
 62
     0
100
AcDbPoint
 10
58.0278418689394
 20
52.43200574047497
 30
0.0
  0
POINT
  5
C2B
330
B4F
100
AcDbEntity
  8
Defpoints
 62
     0
100
AcDbPoint
 10
42.19185507524078
 20
12.46603380928397
 30
0.0
  0
ENDBLK
  5
B58
330
B4F
100
AcDbEntity
  8
0
100
AcDbBlockEnd
  0
BLOCK
  5
B5F
330
B59
100
AcDbEntity
  8
0
100
AcDbBlockBegin
  2
*D129
 70
     1
 10
0.0
 20
0.0
 30
0.0
  3
*D129
  1

  0
LINE
  5
C2C
330
B59
100
AcDbEntity
  8
DIM
 62
     0
370
    -2
100
AcDbLine
 10
56.63984186893948
 20
48.20100574047519
 30
0.0
 11
56.63984186893947
 21
52.43200574047497
 31
0.0
  0
MTEXT
  5
C2D
330
B59
100
AcDbEntity
  8
DIM
 62
     0
100
AcDbMText
 10
56.63984186893945
 20
55.26533907380832
 30
0.0
 40
0.9999999999999998
 41
0.0
 71
     5
 72
     1
  1
\A1;14.448
 11
0.0000000000000001
 21
1.0
 31
0.0
 73
     1
 44
1.0
1001
ACAD
1000
MTEXTBEGIN
1070
    73
1070
     1
1070
    44
1040
1.0
1070
    74
1070
     0
1000
MTEXTEND
  0
POINT
  5
C2E
330
B59
100
AcDbEntity
  8
Defpoints
 62
     0
100
AcDbPoint
 10
56.63984186893947
 20
47.8260057404752
 30
0.0
  0
POINT
  5
C2F
330
B59
100
AcDbEntity
  8
Defpoints
 62
     0
100
AcDbPoint
 10
56.63984186893947
 20
52.43200574047497
 30
0.0
  0
POINT
  5
C30
330
B59
100
AcDbEntity
  8
Defpoints
 62
     0
100
AcDbPoint
 10
42.19185507524078
 20
12.46603380928397
 30
0.0
  0
ENDBLK
  5
B60
330
B59
100
AcDbEntity
  8
0
100
AcDbBlockEnd
  0
BLOCK
  5
B67
330
B61
100
AcDbEntity
  8
0
100
AcDbBlockBegin
  2
*D130
 70
     1
 10
0.0
 20
0.0
 30
0.0
  3
*D130
  1

  0
LINE
  5
C31
330
B61
100
AcDbEntity
  8
DIM
 62
     0
370
    -2
100
AcDbLine
 10
52.19384186893936
 20
48.20100574047526
 30
0.0
 11
52.19384186893935
 21
52.43200574047497
 31
0.0
  0
MTEXT
  5
C32
330
B61
100
AcDbEntity
  8
DIM
 62
     0
100
AcDbMText
 10
52.19384186893933
 20
55.01533907380832
 30
0.0
 40
0.9999999999999998
 41
0.0
 71
     5
 72
     1
  1
\A1;10.002
 11
0.0000000000000001
 21
1.0
 31
0.0
 73
     1
 44
1.0
1001
ACAD
1000
MTEXTBEGIN
1070
    73
1070
     1
1070
    44
1040
1.0
1070
    74
1070
     0
1000
MTEXTEND
  0
POINT
  5
C33
330
B61
100
AcDbEntity
  8
Defpoints
 62
     0
100
AcDbPoint
 10
52.19384186893935
 20
47.82600574047526
 30
0.0
  0
POINT
  5
C34
330
B61
100
AcDbEntity
  8
Defpoints
 62
     0
100
AcDbPoint
 10
52.19384186893935
 20
52.43200574047497
 30
0.0
  0
POINT
  5
C35
330
B61
100
AcDbEntity
  8
Defpoints
 62
     0
100
AcDbPoint
 10
42.19185507524078
 20
12.46603380928397
 30
0.0
  0
ENDBLK
  5
B68
330
B61
100
AcDbEntity
  8
0
100
AcDbBlockEnd
  0
BLOCK
  5
B71
330
B69
100
AcDbEntity
  8
0
100
AcDbBlockBegin
  2
*D131
 70
     1
 10
0.0
 20
0.0
 30
0.0
  3
*D131
  1

  0
LINE
  5
C36
330
B69
100
AcDbEntity
  8
DIM
 62
     0
370
    -2
100
AcDbLine
 10
56.7828418689395
 20
35.09100574047507
 30
0.0
 11
56.7828418689395
 21
33.46600574047507
 31
0.0
  0
LINE
  5
C37
330
B69
100
AcDbEntity
  8
DIM
 62
     0
370
    -2
100
AcDbLine
 10
56.7828418689395
 20
33.46600574047507
 30
0.0
 11
55.81434186893944
 21
32.46600574047507
 31
0.0
  0
LINE
  5
C38
330
B69
100
AcDbEntity
  8
DIM
 62
     0
370
    -2
100
AcDbLine
 10
55.81434186893944
 20
32.46600574047507
 30
0.0
 11
55.81434186893944
 21
30.46600574047507
 31
0.0
  0
MTEXT
  5
C39
330
B69
100
AcDbEntity
  8
DIM
 62
     0
100
AcDbMText
 10
55.81434186893943
 20
27.79933907380841
 30
0.0
 40
0.9999999999999998
 41
0.0
 71
     5
 72
     1
  1
\A1;14.591
 11
0.0000000000000001
 21
1.0
 31
0.0
 73
     1
 44
1.0
1001
ACAD
1000
MTEXTBEGIN
1070
    73
1070
     1
1070
    44
1040
1.0
1070
    74
1070
     0
1000
MTEXTEND
  0
POINT
  5
C3A
330
B69
100
AcDbEntity
  8
Defpoints
 62
     0
100
AcDbPoint
 10
56.7828418689395
 20
35.46600574047507
 30
0.0
  0
POINT
  5
C3B
330
B69
100
AcDbEntity
  8
Defpoints
 62
     0
100
AcDbPoint
 10
55.81434186893944
 20
30.46600574047507
 30
0.0
  0
POINT
  5
C3C
330
B69
100
AcDbEntity
  8
Defpoints
 62
     0
100
AcDbPoint
 10
42.19185507524078
 20
10.96603380928395
 30
0.0
  0
ENDBLK
  5
B72
330
B69
100
AcDbEntity
  8
0
100
AcDbBlockEnd
  0
BLOCK
  5
B79
330
B73
100
AcDbEntity
  8
0
100
AcDbBlockBegin
  2
*D132
 70
     1
 10
0.0
 20
0.0
 30
0.0
  3
*D132
  1

  0
LINE
  5
DB5
330
B73
100
AcDbEntity
  8
DIM
 62
     0
370
    -2
100
AcDbLine
 10
57.59584186893938
 20
14.9660057404751
 30
0.0
 11
57.59584186893938
 21
9.774970504574005
 31
0.0
  0
LINE
  5
DB6
330
B73
100
AcDbEntity
  8
DIM
 62
     0
370
    -2
100
AcDbLine
 10
57.59584186893938
 20
9.774970504574005
 30
0.0
 11
58.62053756417572
 21
7.774970504574003
 31
0.0
  0
LINE
  5
DB7
330
B73
100
AcDbEntity
  8
DIM
 62
     0
370
    -2
100
AcDbLine
 10
58.62053756417572
 20
7.774970504574003
 30
0.0
 11
58.62053756417572
 21
5.774970504574003
 31
0.0
  0
MTEXT
  5
DB8
330
B73
100
AcDbEntity
  8
DIM
 62
     0
100
AcDbMText
 10
58.62053756417572
 20
3.024970504574014
 30
0.0
 40
0.9999999999999998
 41
0.0
 71
     5
 72
     1
  1
\A1;15.404
 11
0.0000000000000001
 21
1.0
 31
0.0
 73
     1
 44
1.0
1001
ACAD
1000
MTEXTBEGIN
1070
    73
1070
     1
1070
    44
1040
1.0
1070
    74
1070
     0
1000
MTEXTEND
  0
POINT
  5
DB9
330
B73
100
AcDbEntity
  8
Defpoints
 62
     0
100
AcDbPoint
 10
57.59584186893938
 20
15.34100574047509
 30
0.0
  0
POINT
  5
DBA
330
B73
100
AcDbEntity
  8
Defpoints
 62
     0
100
AcDbPoint
 10
58.62053756417572
 20
5.774970504574003
 30
0.0
  0
POINT
  5
DBB
330
B73
100
AcDbEntity
  8
Defpoints
 62
     0
100
AcDbPoint
 10
42.19184186893944
 20
8.4660057404745
 30
0.0
  0
ENDBLK
  5
B7A
330
B73
100
AcDbEntity
  8
0
100
AcDbBlockEnd
  0
BLOCK
  5
B83
330
B7B
100
AcDbEntity
  8
0
100
AcDbBlockBegin
  2
*D133
 70
     1
 10
0.0
 20
0.0
 30
0.0
  3
*D133
  1

  0
LINE
  5
C42
330
B7B
100
AcDbEntity
  8
DIM
 62
     0
370
    -2
100
AcDbLine
 10
42.7198418689394
 20
14.9660057404751
 30
0.0
 11
42.7198418689394
 21
9.137585996113674
 31
0.0
  0
LINE
  5
C43
330
B7B
100
AcDbEntity
  8
DIM
 62
     0
370
    -2
100
AcDbLine
 10
42.7198418689394
 20
9.137585996113674
 30
0.0
 11
43.71984186893937
 21
7.137585996113673
 31
0.0
  0
LINE
  5
C44
330
B7B
100
AcDbEntity
  8
DIM
 62
     0
370
    -2
100
AcDbLine
 10
43.71984186893937
 20
7.137585996113673
 30
0.0
 11
43.71984186893937
 21
5.137585996113673
 31
0.0
  0
MTEXT
  5
C45
330
B7B
100
AcDbEntity
  8
DIM
 62
     0
100
AcDbMText
 10
43.71984186893937
 20
2.720919329447013
 30
0.0
 40
0.9999999999999998
 41
0.0
 71
     5
 72
     1
  1
\A1;0.528
 11
0.0000000000000001
 21
1.0
 31
0.0
 73
     1
 44
1.0
1001
ACAD
1000
MTEXTBEGIN
1070
    73
1070
     1
1070
    44
1040
1.0
1070
    74
1070
     0
1000
MTEXTEND
  0
POINT
  5
C46
330
B7B
100
AcDbEntity
  8
Defpoints
 62
     0
100
AcDbPoint
 10
42.7198418689394
 20
15.34100574047509
 30
0.0
  0
POINT
  5
C47
330
B7B
100
AcDbEntity
  8
Defpoints
 62
     0
100
AcDbPoint
 10
43.71984186893937
 20
5.137585996113673
 30
0.0
  0
POINT
  5
C48
330
B7B
100
AcDbEntity
  8
Defpoints
 62
     0
100
AcDbPoint
 10
42.19185507524078
 20
12.46603380928397
 30
0.0
  0
ENDBLK
  5
B84
330
B7B
100
AcDbEntity
  8
0
100
AcDbBlockEnd
  0
BLOCK
  5
B8B
330
B85
100
AcDbEntity
  8
0
100
AcDbBlockBegin
  2
*D134
 70
     1
 10
0.0
 20
0.0
 30
0.0
  3
*D134
  1

  0
LINE
  5
C49
330
B85
100
AcDbEntity
  8
DIM
 62
     0
370
    -2
100
AcDbLine
 10
46.28284186893949
 20
21.96600574047507
 30
0.0
 11
46.28284186893947
 21
4.529564437205186
 31
0.0
  0
MTEXT
  5
C4A
330
B85
100
AcDbEntity
  8
DIM
 62
     0
100
AcDbMText
 10
46.28284186893947
 20
2.279564437205195
 30
0.0
 40
0.9999999999999998
 41
0.0
 71
     5
 72
     1
  1
\A1;4.091
 11
0.0000000000000001
 21
1.0
 31
0.0
 73
     1
 44
1.0
1001
ACAD
1000
MTEXTBEGIN
1070
    73
1070
     1
1070
    44
1040
1.0
1070
    74
1070
     0
1000
MTEXTEND
  0
POINT
  5
C4B
330
B85
100
AcDbEntity
  8
Defpoints
 62
     0
100
AcDbPoint
 10
46.28284186893949
 20
22.34100574047507
 30
0.0
  0
POINT
  5
C4C
330
B85
100
AcDbEntity
  8
Defpoints
 62
     0
100
AcDbPoint
 10
46.28284186893947
 20
4.529564437205186
 30
0.0
  0
POINT
  5
C4D
330
B85
100
AcDbEntity
  8
Defpoints
 62
     0
100
AcDbPoint
 10
42.19185507524078
 20
12.46603380928397
 30
0.0
  0
ENDBLK
  5
B8C
330
B85
100
AcDbEntity
  8
0
100
AcDbBlockEnd
  0
BLOCK
  5
B93
330
B8D
100
AcDbEntity
  8
0
100
AcDbBlockBegin
  2
*D135
 70
     1
 10
0.0
 20
0.0
 30
0.0
  3
*D135
  1

  0
LINE
  5
DA9
330
B8D
100
AcDbEntity
  8
DIM
 62
     0
370
    -2
100
AcDbLine
 10
54.0328418689395
 20
21.96600574047507
 30
0.0
 11
54.03284186893949
 21
9.484233026583686
 31
0.0
  0
LINE
  5
DAA
330
B8D
100
AcDbEntity
  8
DIM
 62
     0
370
    -2
100
AcDbLine
 10
54.03284186893949
 20
9.484233026583686
 30
0.0
 11
52.81171855506954
 21
7.484233026583686
 31
0.0
  0
LINE
  5
DAB
330
B8D
100
AcDbEntity
  8
DIM
 62
     0
370
    -2
100
AcDbLine
 10
52.81171855506954
 20
7.484233026583686
 30
0.0
 11
52.81171855506954
 21
5.484233026583686
 31
0.0
  0
MTEXT
  5
DAC
330
B8D
100
AcDbEntity
  8
DIM
 62
     0
100
AcDbMText
 10
52.81171855506954
 20
2.984233026583694
 30
0.0
 40
0.9999999999999998
 41
0.0
 71
     5
 72
     1
  1
\A1;11.841
 11
0.0000000000000001
 21
1.0
 31
0.0
 73
     1
 44
1.0
1001
ACAD
1000
MTEXTBEGIN
1070
    73
1070
     1
1070
    44
1040
1.0
1070
    74
1070
     0
1000
MTEXTEND
  0
POINT
  5
DAD
330
B8D
100
AcDbEntity
  8
Defpoints
 62
     0
100
AcDbPoint
 10
54.0328418689395
 20
22.34100574047507
 30
0.0
  0
POINT
  5
DAE
330
B8D
100
AcDbEntity
  8
Defpoints
 62
     0
100
AcDbPoint
 10
52.81171855506954
 20
5.484233026583686
 30
0.0
  0
POINT
  5
DAF
330
B8D
100
AcDbEntity
  8
Defpoints
 62
     0
100
AcDbPoint
 10
42.19185507524078
 20
12.46603380928397
 30
0.0
  0
ENDBLK
  5
B94
330
B8D
100
AcDbEntity
  8
0
100
AcDbBlockEnd
  0
BLOCK
  5
B9B
330
B95
100
AcDbEntity
  8
0
100
AcDbBlockBegin
  2
*D136
 70
     1
 10
0.0
 20
0.0
 30
0.0
  3
*D136
  1

  0
LINE
  5
C53
330
B95
100
AcDbEntity
  8
DIM
 62
     0
370
    -2
100
AcDbLine
 10
41.9918418689397
 20
8.406005740474839
 30
0.0
 11
38.29825373073744
 21
8.406005740474839
 31
0.0
  0
MTEXT
  5
C54
330
B95
100
AcDbEntity
  8
DIM
 62
     0
100
AcDbMText
 10
36.54158706407077
 20
8.406005740474839
 30
0.0
 40
0.9999999999999998
 41
0.0
 71
     5
 72
     1
  1
\A1;0.000
 73
     1
 44
1.0
1001
ACAD
1000
MTEXTBEGIN
1070
    73
1070
     1
1070
    44
1040
1.0
1070
    74
1070
     0
1000
MTEXTEND
  0
POINT
  5
C55
330
B95
100
AcDbEntity
  8
Defpoints
 62
     0
100
AcDbPoint
 10
42.1918418689397
 20
8.406005740474839
 30
0.0
  0
POINT
  5
C56
330
B95
100
AcDbEntity
  8
Defpoints
 62
     0
100
AcDbPoint
 10
38.29825373073744
 20
8.406005740474839
 30
0.0
  0
POINT
  5
C57
330
B95
100
AcDbEntity
  8
Defpoints
 62
     0
100
AcDbPoint
 10
42.1918418689397
 20
8.406005740474839
 30
0.0
  0
ENDBLK
  5
B9C
330
B95
100
AcDbEntity
  8
0
100
AcDbBlockEnd
  0
BLOCK
  5
BA3
330
B9D
100
AcDbEntity
  8
0
100
AcDbBlockBegin
  2
*D137
 70
     1
 10
0.0
 20
0.0
 30
0.0
  3
*D137
  1

  0
LINE
  5
C58
330
B9D
100
AcDbEntity
  8
DIM
 62
     0
370
    -2
100
AcDbLine
 10
42.51984186893939
 20
15.34100574047509
 30
0.0
 11
37.85541293197341
 21
15.34100574047509
 31
0.0
  0
MTEXT
  5
C59
330
B9D
100
AcDbEntity
  8
DIM
 62
     0
100
AcDbMText
 10
35.76541293197342
 20
15.34100574047509
 30
0.0
 40
0.9999999999999998
 41
0.0
 71
     5
 72
     1
  1
\A1;6.935
 73
     1
 44
1.0
1001
ACAD
1000
MTEXTBEGIN
1070
    73
1070
     1
1070
    44
1040
1.0
1070
    74
1070
     0
1000
MTEXTEND
  0
POINT
  5
C5A
330
B9D
100
AcDbEntity
  8
Defpoints
 62
     0
100
AcDbPoint
 10
42.7198418689394
 20
15.34100574047509
 30
0.0
  0
POINT
  5
C5B
330
B9D
100
AcDbEntity
  8
Defpoints
 62
     0
100
AcDbPoint
 10
37.85541293197341
 20
15.34100574047509
 30
0.0
  0
POINT
  5
C5C
330
B9D
100
AcDbEntity
  8
Defpoints
 62
     0
100
AcDbPoint
 10
42.1918418689397
 20
8.406005740474839
 30
0.0
  0
ENDBLK
  5
BA4
330
B9D
100
AcDbEntity
  8
0
100
AcDbBlockEnd
  0
BLOCK
  5
BAB
330
BA5
100
AcDbEntity
  8
0
100
AcDbBlockBegin
  2
*D138
 70
     1
 10
0.0
 20
0.0
 30
0.0
  3
*D138
  1

  0
LINE
  5
C5D
330
BA5
100
AcDbEntity
  8
DIM
 62
     0
370
    -2
100
AcDbLine
 10
46.08284186893949
 20
22.34100574047507
 30
0.0
 11
38.19184186893944
 21
22.34100574047507
 31
0.0
  0
MTEXT
  5
C5E
330
BA5
100
AcDbEntity
  8
DIM
 62
     0
100
AcDbMText
 10
35.76850853560611
 20
22.34100574047507
 30
0.0
 40
0.9999999999999998
 41
0.0
 71
     5
 72
     1
  1
\A1;13.935
 73
     1
 44
1.0
1001
ACAD
1000
MTEXTBEGIN
1070
    73
1070
     1
1070
    44
1040
1.0
1070
    74
1070
     0
1000
MTEXTEND
  0
POINT
  5
C5F
330
BA5
100
AcDbEntity
  8
Defpoints
 62
     0
100
AcDbPoint
 10
46.28284186893949
 20
22.34100574047507
 30
0.0
  0
POINT
  5
C60
330
BA5
100
AcDbEntity
  8
Defpoints
 62
     0
100
AcDbPoint
 10
38.19184186893944
 20
22.34100574047507
 30
0.0
  0
POINT
  5
C61
330
BA5
100
AcDbEntity
  8
Defpoints
 62
     0
100
AcDbPoint
 10
42.1918418689397
 20
8.406005740474839
 30
0.0
  0
ENDBLK
  5
BAC
330
BA5
100
AcDbEntity
  8
0
100
AcDbBlockEnd
  0
BLOCK
  5
BB3
330
BAD
100
AcDbEntity
  8
0
100
AcDbBlockBegin
  2
*D139
 70
     1
 10
0.0
 20
0.0
 30
0.0
  3
*D139
  1

  0
LINE
  5
DBC
330
BAD
100
AcDbEntity
  8
DIM
 62
     0
370
    -2
100
AcDbLine
 10
46.08284186893949
 20
29.34100574047507
 30
0.0
 11
42.19184186893938
 21
29.34100574047507
 31
0.0
  0
LINE
  5
DBD
330
BAD
100
AcDbEntity
  8
DIM
 62
     0
370
    -2
100
AcDbLine
 10
42.19184186893938
 20
29.34100574047507
 30
0.0
 11
40.19184186893938
 21
27.65490556358208
 31
0.0
  0
LINE
  5
DBE
330
BAD
100
AcDbEntity
  8
DIM
 62
     0
370
    -2
100
AcDbLine
 10
40.19184186893938
 20
27.65490556358208
 30
0.0
 11
38.19184186893938
 21
27.65490556358208
 31
0.0
  0
MTEXT
  5
DBF
330
BAD
100
AcDbEntity
  8
DIM
 62
     0
100
AcDbMText
 10
35.68517520227272
 20
27.65490556358208
 30
0.0
 40
0.9999999999999998
 41
0.0
 71
     5
 72
     1
  1
\A1;20.935
 73
     1
 44
1.0
1001
ACAD
1000
MTEXTBEGIN
1070
    73
1070
     1
1070
    44
1040
1.0
1070
    74
1070
     0
1000
MTEXTEND
  0
POINT
  5
DC0
330
BAD
100
AcDbEntity
  8
Defpoints
 62
     0
100
AcDbPoint
 10
46.28284186893949
 20
29.34100574047507
 30
0.0
  0
POINT
  5
DC1
330
BAD
100
AcDbEntity
  8
Defpoints
 62
     0
100
AcDbPoint
 10
38.19184186893938
 20
27.65490556358208
 30
0.0
  0
POINT
  5
DC2
330
BAD
100
AcDbEntity
  8
Defpoints
 62
     0
100
AcDbPoint
 10
42.1918418689397
 20
8.406005740474839
 30
0.0
  0
ENDBLK
  5
BB4
330
BAD
100
AcDbEntity
  8
0
100
AcDbBlockEnd
  0
BLOCK
  5
BBB
330
BB5
100
AcDbEntity
  8
0
100
AcDbBlockBegin
  2
*D140
 70
     1
 10
0.0
 20
0.0
 30
0.0
  3
*D140
  1

  0
LINE
  5
C67
330
BB5
100
AcDbEntity
  8
DIM
 62
     0
370
    -2
100
AcDbLine
 10
43.61984186893907
 20
44.99100574047534
 30
0.0
 11
38.19184186893938
 21
44.99100574047534
 31
0.0
  0
MTEXT
  5
C68
330
BB5
100
AcDbEntity
  8
DIM
 62
     0
100
AcDbMText
 10
35.60184186893939
 20
44.99100574047534
 30
0.0
 40
0.9999999999999998
 41
0.0
 71
     5
 72
     1
  1
\A1;36.585
 73
     1
 44
1.0
1001
ACAD
1000
MTEXTBEGIN
1070
    73
1070
     1
1070
    44
1040
1.0
1070
    74
1070
     0
1000
MTEXTEND
  0
POINT
  5
C69
330
BB5
100
AcDbEntity
  8
Defpoints
 62
     0
100
AcDbPoint
 10
43.81984186893908
 20
44.99100574047534
 30
0.0
  0
POINT
  5
C6A
330
BB5
100
AcDbEntity
  8
Defpoints
 62
     0
100
AcDbPoint
 10
38.19184186893938
 20
44.99100574047534
 30
0.0
  0
POINT
  5
C6B
330
BB5
100
AcDbEntity
  8
Defpoints
 62
     0
100
AcDbPoint
 10
42.1918418689397
 20
8.406005740474839
 30
0.0
  0
ENDBLK
  5
BBC
330
BB5
100
AcDbEntity
  8
0
100
AcDbBlockEnd
  0
BLOCK
  5
BC3
330
BBD
100
AcDbEntity
  8
0
100
AcDbBlockBegin
  2
*D141
 70
     1
 10
0.0
 20
0.0
 30
0.0
  3
*D141
  1

  0
LINE
  5
C6C
330
BBD
100
AcDbEntity
  8
DIM
 62
     0
370
    -2
100
AcDbLine
 10
43.61984186893907
 20
47.82600574047538
 30
0.0
 11
38.19184186893938
 21
47.82600574047538
 31
0.0
  0
MTEXT
  5
C6D
330
BBD
100
AcDbEntity
  8
DIM
 62
     0
100
AcDbMText
 10
35.68517520227272
 20
47.82600574047538
 30
0.0
 40
0.9999999999999998
 41
0.0
 71
     5
 72
     1
  1
\A1;39.420
 73
     1
 44
1.0
1001
ACAD
1000
MTEXTBEGIN
1070
    73
1070
     1
1070
    44
1040
1.0
1070
    74
1070
     0
1000
MTEXTEND
  0
POINT
  5
C6E
330
BBD
100
AcDbEntity
  8
Defpoints
 62
     0
100
AcDbPoint
 10
43.81984186893908
 20
47.82600574047538
 30
0.0
  0
POINT
  5
C6F
330
BBD
100
AcDbEntity
  8
Defpoints
 62
     0
100
AcDbPoint
 10
38.19184186893938
 20
47.82600574047538
 30
0.0
  0
POINT
  5
C70
330
BBD
100
AcDbEntity
  8
Defpoints
 62
     0
100
AcDbPoint
 10
42.1918418689397
 20
8.406005740474839
 30
0.0
  0
ENDBLK
  5
BC4
330
BBD
100
AcDbEntity
  8
0
100
AcDbBlockEnd
  0
BLOCK
  5
BCB
330
BC5
100
AcDbEntity
  8
0
100
AcDbBlockBegin
  2
*D142
 70
     1
 10
0.0
 20
0.0
 30
0.0
  3
*D142
  1

  0
LINE
  5
C71
330
BC5
100
AcDbEntity
  8
DIM
 62
     0
370
    -2
100
AcDbLine
 10
57.79584186893939
 20
28.46600574047507
 30
0.0
 11
62.13700621721944
 21
28.46600574047507
 31
0.0
  0
MTEXT
  5
C72
330
BC5
100
AcDbEntity
  8
DIM
 62
     0
100
AcDbMText
 10
64.47700621721944
 20
28.46600574047507
 30
0.0
 40
0.9999999999999998
 41
0.0
 71
     5
 72
     1
  1
\A1;20.060
 73
     1
 44
1.0
1001
ACAD
1000
MTEXTBEGIN
1070
    73
1070
     1
1070
    44
1040
1.0
1070
    74
1070
     0
1000
MTEXTEND
  0
POINT
  5
C73
330
BC5
100
AcDbEntity
  8
Defpoints
 62
     0
100
AcDbPoint
 10
57.59584186893938
 20
28.46600574047507
 30
0.0
  0
POINT
  5
C74
330
BC5
100
AcDbEntity
  8
Defpoints
 62
     0
100
AcDbPoint
 10
62.13700621721944
 20
28.46600574047507
 30
0.0
  0
POINT
  5
C75
330
BC5
100
AcDbEntity
  8
Defpoints
 62
     0
100
AcDbPoint
 10
42.1918418689397
 20
8.406005740474839
 30
0.0
  0
ENDBLK
  5
BCC
330
BC5
100
AcDbEntity
  8
0
100
AcDbBlockEnd
  0
BLOCK
  5
BD5
330
BCD
100
AcDbEntity
  8
0
100
AcDbBlockBegin
  2
*D143
 70
     1
 10
0.0
 20
0.0
 30
0.0
  3
*D143
  1

  0
LINE
  5
C76
330
BCD
100
AcDbEntity
  8
DIM
 62
     0
370
    -2
100
AcDbLine
 10
56.9828418689395
 20
35.46600574047507
 30
0.0
 11
58.78284186893949
 21
35.46600574047507
 31
0.0
  0
LINE
  5
C77
330
BCD
100
AcDbEntity
  8
DIM
 62
     0
370
    -2
100
AcDbLine
 10
58.78284186893949
 20
35.46600574047507
 30
0.0
 11
60.31091265557614
 21
33.67528430677744
 31
0.0
  0
LINE
  5
C78
330
BCD
100
AcDbEntity
  8
DIM
 62
     0
370
    -2
100
AcDbLine
 10
60.31091265557614
 20
33.67528430677744
 30
0.0
 11
62.31091265557615
 21
33.67528430677744
 31
0.0
  0
MTEXT
  5
C79
330
BCD
100
AcDbEntity
  8
DIM
 62
     0
100
AcDbMText
 10
64.73424598890948
 20
33.67528430677744
 30
0.0
 40
0.9999999999999998
 41
0.0
 71
     5
 72
     1
  1
\A1;27.060
 73
     1
 44
1.0
1001
ACAD
1000
MTEXTBEGIN
1070
    73
1070
     1
1070
    44
1040
1.0
1070
    74
1070
     0
1000
MTEXTEND
  0
POINT
  5
C7A
330
BCD
100
AcDbEntity
  8
Defpoints
 62
     0
100
AcDbPoint
 10
56.7828418689395
 20
35.46600574047507
 30
0.0
  0
POINT
  5
C7B
330
BCD
100
AcDbEntity
  8
Defpoints
 62
     0
100
AcDbPoint
 10
62.31091265557615
 20
33.67528430677744
 30
0.0
  0
POINT
  5
C7C
330
BCD
100
AcDbEntity
  8
Defpoints
 62
     0
100
AcDbPoint
 10
42.1918418689397
 20
8.406005740474839
 30
0.0
  0
ENDBLK
  5
BD6
330
BCD
100
AcDbEntity
  8
0
100
AcDbBlockEnd
  0
BLOCK
  5
BDD
330
BD7
100
AcDbEntity
  8
0
100
AcDbBlockBegin
  2
*D144
 70
     1
 10
0.0
 20
0.0
 30
0.0
  3
*D144
  1

  0
LINE
  5
C7D
330
BD7
100
AcDbEntity
  8
DIM
 62
     0
370
    -2
100
AcDbLine
 10
56.9828418689395
 20
36.96600574047507
 30
0.0
 11
62.12384186893945
 21
36.96600574047507
 31
0.0
  0
MTEXT
  5
C7E
330
BD7
100
AcDbEntity
  8
DIM
 62
     0
100
AcDbMText
 10
64.63050853560611
 20
36.96600574047507
 30
0.0
 40
0.9999999999999998
 41
0.0
 71
     5
 72
     1
  1
\A1;28.560
 73
     1
 44
1.0
1001
ACAD
1000
MTEXTBEGIN
1070
    73
1070
     1
1070
    44
1040
1.0
1070
    74
1070
     0
1000
MTEXTEND
  0
POINT
  5
C7F
330
BD7
100
AcDbEntity
  8
Defpoints
 62
     0
100
AcDbPoint
 10
56.7828418689395
 20
36.96600574047507
 30
0.0
  0
POINT
  5
C80
330
BD7
100
AcDbEntity
  8
Defpoints
 62
     0
100
AcDbPoint
 10
62.12384186893945
 20
36.96600574047507
 30
0.0
  0
POINT
  5
C81
330
BD7
100
AcDbEntity
  8
Defpoints
 62
     0
100
AcDbPoint
 10
42.1918418689397
 20
8.406005740474839
 30
0.0
  0
ENDBLK
  5
BDE
330
BD7
100
AcDbEntity
  8
0
100
AcDbBlockEnd
  0
BLOCK
  5
BE7
330
BDF
100
AcDbEntity
  8
0
100
AcDbBlockBegin
  2
*D145
 70
     1
 10
0.0
 20
0.0
 30
0.0
  3
*D145
  1

  0
LINE
  5
C82
330
BDF
100
AcDbEntity
  8
DIM
 62
     0
370
    -2
100
AcDbLine
 10
57.79584186893939
 20
39.09100574047509
 30
0.0
 11
59.59584186893938
 21
39.09100574047509
 31
0.0
  0
LINE
  5
C83
330
BDF
100
AcDbEntity
  8
DIM
 62
     0
370
    -2
100
AcDbLine
 10
59.59584186893938
 20
39.09100574047509
 30
0.0
 11
60.12384186893945
 21
38.40350574047501
 31
0.0
  0
LINE
  5
C84
330
BDF
100
AcDbEntity
  8
DIM
 62
     0
370
    -2
100
AcDbLine
 10
60.12384186893945
 20
38.40350574047501
 30
0.0
 11
62.12384186893945
 21
38.40350574047501
 31
0.0
  0
MTEXT
  5
C85
330
BDF
100
AcDbEntity
  8
DIM
 62
     0
100
AcDbMText
 10
64.63050853560611
 20
38.40350574047501
 30
0.0
 40
0.9999999999999998
 41
0.0
 71
     5
 72
     1
  1
\A1;30.685
 73
     1
 44
1.0
1001
ACAD
1000
MTEXTBEGIN
1070
    73
1070
     1
1070
    44
1040
1.0
1070
    74
1070
     0
1000
MTEXTEND
  0
POINT
  5
C86
330
BDF
100
AcDbEntity
  8
Defpoints
 62
     0
100
AcDbPoint
 10
57.59584186893938
 20
39.09100574047509
 30
0.0
  0
POINT
  5
C87
330
BDF
100
AcDbEntity
  8
Defpoints
 62
     0
100
AcDbPoint
 10
62.12384186893945
 20
38.40350574047501
 30
0.0
  0
POINT
  5
C88
330
BDF
100
AcDbEntity
  8
Defpoints
 62
     0
100
AcDbPoint
 10
42.1918418689397
 20
8.406005740474839
 30
0.0
  0
ENDBLK
  5
BE8
330
BDF
100
AcDbEntity
  8
0
100
AcDbBlockEnd
  0
BLOCK
  5
BEF
330
BE9
100
AcDbEntity
  8
0
100
AcDbBlockBegin
  2
*D146
 70
     1
 10
0.0
 20
0.0
 30
0.0
  3
*D146
  1

  0
LINE
  5
C89
330
BE9
100
AcDbEntity
  8
DIM
 62
     0
370
    -2
100
AcDbLine
 10
57.2278418689394
 20
39.84100574047502
 30
0.0
 11
62.12384186893945
 21
39.84100574047502
 31
0.0
  0
MTEXT
  5
C8A
330
BE9
100
AcDbEntity
  8
DIM
 62
     0
100
AcDbMText
 10
64.54717520227278
 20
39.84100574047502
 30
0.0
 40
0.9999999999999998
 41
0.0
 71
     5
 72
     1
  1
\A1;31.435
 73
     1
 44
1.0
1001
ACAD
1000
MTEXTBEGIN
1070
    73
1070
     1
1070
    44
1040
1.0
1070
    74
1070
     0
1000
MTEXTEND
  0
POINT
  5
C8B
330
BE9
100
AcDbEntity
  8
Defpoints
 62
     0
100
AcDbPoint
 10
57.02784186893939
 20
39.84100574047502
 30
0.0
  0
POINT
  5
C8C
330
BE9
100
AcDbEntity
  8
Defpoints
 62
     0
100
AcDbPoint
 10
62.12384186893945
 20
39.84100574047502
 30
0.0
  0
POINT
  5
C8D
330
BE9
100
AcDbEntity
  8
Defpoints
 62
     0
100
AcDbPoint
 10
42.1918418689397
 20
8.406005740474839
 30
0.0
  0
ENDBLK
  5
BF0
330
BE9
100
AcDbEntity
  8
0
100
AcDbBlockEnd
  0
BLOCK
  5
BF7
330
BF1
100
AcDbEntity
  8
0
100
AcDbBlockBegin
  2
*D147
 70
     1
 10
0.0
 20
0.0
 30
0.0
  3
*D147
  1

  0
LINE
  5
C8E
330
BF1
100
AcDbEntity
  8
DIM
 62
     0
370
    -2
100
AcDbLine
 10
57.2278418689394
 20
41.59100574047508
 30
0.0
 11
62.12384186893945
 21
41.59100574047508
 31
0.0
  0
MTEXT
  5
C8F
330
BF1
100
AcDbEntity
  8
DIM
 62
     0
100
AcDbMText
 10
64.54717520227278
 20
41.59100574047508
 30
0.0
 40
0.9999999999999998
 41
0.0
 71
     5
 72
     1
  1
\A1;33.185
 73
     1
 44
1.0
1001
ACAD
1000
MTEXTBEGIN
1070
    73
1070
     1
1070
    44
1040
1.0
1070
    74
1070
     0
1000
MTEXTEND
  0
POINT
  5
C90
330
BF1
100
AcDbEntity
  8
Defpoints
 62
     0
100
AcDbPoint
 10
57.02784186893939
 20
41.59100574047508
 30
0.0
  0
POINT
  5
C91
330
BF1
100
AcDbEntity
  8
Defpoints
 62
     0
100
AcDbPoint
 10
62.12384186893945
 20
41.59100574047508
 30
0.0
  0
POINT
  5
C92
330
BF1
100
AcDbEntity
  8
Defpoints
 62
     0
100
AcDbPoint
 10
42.1918418689397
 20
8.406005740474839
 30
0.0
  0
ENDBLK
  5
BF8
330
BF1
100
AcDbEntity
  8
0
100
AcDbBlockEnd
  0
BLOCK
  5
BFF
330
BF9
100
AcDbEntity
  8
0
100
AcDbBlockBegin
  2
*D148
 70
     1
 10
0.0
 20
0.0
 30
0.0
  3
*D148
  1

  0
LINE
  5
C93
330
BF9
100
AcDbEntity
  8
DIM
 62
     0
370
    -2
100
AcDbLine
 10
57.79584186893939
 20
44.34100574047508
 30
0.0
 11
62.12384186893945
 21
44.34100574047508
 31
0.0
  0
MTEXT
  5
C94
330
BF9
100
AcDbEntity
  8
DIM
 62
     0
100
AcDbMText
 10
64.71384186893946
 20
44.34100574047508
 30
0.0
 40
0.9999999999999998
 41
0.0
 71
     5
 72
     1
  1
\A1;35.935
 73
     1
 44
1.0
1001
ACAD
1000
MTEXTBEGIN
1070
    73
1070
     1
1070
    44
1040
1.0
1070
    74
1070
     0
1000
MTEXTEND
  0
POINT
  5
C95
330
BF9
100
AcDbEntity
  8
Defpoints
 62
     0
100
AcDbPoint
 10
57.59584186893938
 20
44.34100574047508
 30
0.0
  0
POINT
  5
C96
330
BF9
100
AcDbEntity
  8
Defpoints
 62
     0
100
AcDbPoint
 10
62.12384186893945
 20
44.34100574047508
 30
0.0
  0
POINT
  5
C97
330
BF9
100
AcDbEntity
  8
Defpoints
 62
     0
100
AcDbPoint
 10
42.1918418689397
 20
8.406005740474839
 30
0.0
  0
ENDBLK
  5
C00
330
BF9
100
AcDbEntity
  8
0
100
AcDbBlockEnd
  0
BLOCK
  5
D64
330
D5E
100
AcDbEntity
  8
0
100
AcDbBlockBegin
  2
*D149
 70
     1
 10
0.0
 20
0.0
 30
0.0
  3
*D149
  1

  0
LINE
  5
D67
330
D5E
100
AcDbEntity
  8
0
 62
     0
370
    -2
100
AcDbLine
 10
57.57784186893944
 20
9.153505740476184
 30
0.0
 11
60.71969627623707
 21
9.153505740476184
 31
0.0
  0
MTEXT
  5
D68
330
D5E
100
AcDbEntity
  8
0
 62
     0
100
AcDbMText
 10
62.72636294290374
 20
9.153505740476184
 30
0.0
 40
1.0
 41
0.0
 71
     5
 72
     1
  1
\A1;0.748
 73
     1
 44
1.0
1001
ACAD
1000
MTEXTBEGIN
1070
    73
1070
     1
1070
    44
1040
1.0
1070
    74
1070
     0
1000
MTEXTEND
  0
POINT
  5
D69
330
D5E
100
AcDbEntity
  8
Defpoints
 62
     0
100
AcDbPoint
 10
57.37784186893944
 20
9.153505740476184
 30
0.0
  0
POINT
  5
D6A
330
D5E
100
AcDbEntity
  8
Defpoints
 62
     0
100
AcDbPoint
 10
60.71969627623707
 20
9.153505740476184
 30
0.0
  0
POINT
  5
D6B
330
D5E
100
AcDbEntity
  8
Defpoints
 62
     0
100
AcDbPoint
 10
42.1918418689397
 20
8.406005740474839
 30
0.0
  0
ENDBLK
  5
D65
330
D5E
100
AcDbEntity
  8
0
100
AcDbBlockEnd
  0
BLOCK
  5
D74
330
D6E
100
AcDbEntity
  8
0
100
AcDbBlockBegin
  2
*D150
 70
     1
 10
0.0
 20
0.0
 30
0.0
  3
*D150
  1

  0
LINE
  5
D77
330
D6E
100
AcDbEntity
  8
0
 62
     0
370
    -2
100
AcDbLine
 10
57.57784186893944
 20
12.27850574047618
 30
0.0
 11
60.79195941972102
 21
12.27850574047618
 31
0.0
  0
MTEXT
  5
D78
330
D6E
100
AcDbEntity
  8
0
 62
     0
100
AcDbMText
 10
62.88195941972102
 20
12.27850574047618
 30
0.0
 40
1.0
 41
0.0
 71
     5
 72
     1
  1
\A1;3.873
 73
     1
 44
1.0
1001
ACAD
1000
MTEXTBEGIN
1070
    73
1070
     1
1070
    44
1040
1.0
1070
    74
1070
     0
1000
MTEXTEND
  0
POINT
  5
D79
330
D6E
100
AcDbEntity
  8
Defpoints
 62
     0
100
AcDbPoint
 10
57.37784186893944
 20
12.27850574047618
 30
0.0
  0
POINT
  5
D7A
330
D6E
100
AcDbEntity
  8
Defpoints
 62
     0
100
AcDbPoint
 10
60.79195941972102
 20
12.27850574047618
 30
0.0
  0
POINT
  5
D7B
330
D6E
100
AcDbEntity
  8
Defpoints
 62
     0
100
AcDbPoint
 10
42.1918418689397
 20
8.406005740474839
 30
0.0
  0
ENDBLK
  5
D75
330
D6E
100
AcDbEntity
  8
0
100
AcDbBlockEnd
  0
BLOCK
  5
D92
330
D8C
100
AcDbEntity
  8
0
100
AcDbBlockBegin
  2
*D151
 70
     1
 10
0.0
 20
0.0
 30
0.0
  3
*D151
  1

  0
LINE
  5
DB0
330
D8C
100
AcDbEntity
  8
0
 62
     0
370
    -2
100
AcDbLine
 10
57.37784186893944
 20
8.953505740476185
 30
0.0
 11
57.37784186893944
 21
5.186716738288961
 31
0.0
  0
MTEXT
  5
DB1
330
D8C
100
AcDbEntity
  8
0
 62
     0
100
AcDbMText
 10
57.37784186893944
 20
2.930050071622304
 30
0.0
 40
1.0
 41
0.0
 71
     5
 72
     1
  1
\A1;15.186
 11
0.0000000000000001
 21
1.0
 31
0.0
 73
     1
 44
1.0
1001
ACAD
1000
MTEXTBEGIN
1070
    73
1070
     1
1070
    44
1040
1.0
1070
    74
1070
     0
1000
MTEXTEND
  0
POINT
  5
DB2
330
D8C
100
AcDbEntity
  8
Defpoints
 62
     0
100
AcDbPoint
 10
57.37784186893944
 20
9.153505740476184
 30
0.0
  0
POINT
  5
DB3
330
D8C
100
AcDbEntity
  8
Defpoints
 62
     0
100
AcDbPoint
 10
57.37784186893944
 20
5.186716738288961
 30
0.0
  0
POINT
  5
DB4
330
D8C
100
AcDbEntity
  8
Defpoints
 62
     0
100
AcDbPoint
 10
42.1918418689397
 20
8.406005740474839
 30
0.0
  0
ENDBLK
  5
D93
330
D8C
100
AcDbEntity
  8
0
100
AcDbBlockEnd
  0
BLOCK
  5
D9B
330
D95
100
AcDbEntity
  8
0
100
AcDbBlockBegin
  2
*D152
 70
     1
 10
0.0
 20
0.0
 30
0.0
  3
*D152
  1

  0
LINE
  5
D9E
330
D95
100
AcDbEntity
  8
0
 62
     0
370
    -2
100
AcDbLine
 10
55.0978418689393
 20
8.953505740476185
 30
0.0
 11
55.0978418689393
 21
5.412248307153163
 31
0.0
  0
MTEXT
  5
D9F
330
D95
100
AcDbEntity
  8
0
 62
     0
100
AcDbMText
 10
55.0978418689393
 20
3.072248307153172
 30
0.0
 40
1.0
 41
0.0
 71
     5
 72
     1
  1
\A1;12.906
 11
0.0000000000000001
 21
1.0
 31
0.0
 73
     1
 44
1.0
1001
ACAD
1000
MTEXTBEGIN
1070
    73
1070
     1
1070
    44
1040
1.0
1070
    74
1070
     0
1000
MTEXTEND
  0
POINT
  5
DA0
330
D95
100
AcDbEntity
  8
Defpoints
 62
     0
100
AcDbPoint
 10
55.0978418689393
 20
9.153505740476184
 30
0.0
  0
POINT
  5
DA1
330
D95
100
AcDbEntity
  8
Defpoints
 62
     0
100
AcDbPoint
 10
55.0978418689393
 20
5.412248307153163
 30
0.0
  0
POINT
  5
DA2
330
D95
100
AcDbEntity
  8
Defpoints
 62
     0
100
AcDbPoint
 10
42.1918418689397
 20
8.406005740474839
 30
0.0
  0
ENDBLK
  5
D9C
330
D95
100
AcDbEntity
  8
0
100
AcDbBlockEnd
  0
BLOCK
  5
DCD
330
DC5
100
AcDbEntity
  8
0
100
AcDbBlockBegin
  2
*D153
 70
     1
 10
0.0
 20
0.0
 30
0.0
  3
*D153
  1

  0
LINE
  5
DF6
330
DC5
100
AcDbEntity
  8
0
 62
     0
370
    -2
100
AcDbLine
 10
40.67163089078228
 20
35.81572096914723
 30
0.0
 11
52.67345084700045
 21
37.49131586864733
 31
0.0
  0
MTEXT
  5
DF7
330
DC5
100
AcDbEntity
  8
0
 62
     0
100
AcDbMText
 10
23.91496422411561
 20
37.9823876358139
 30
0.0
 40
1.0
 41
0.0
 71
     1
 72
     1
  1
\A1;\U+22051.250 (1) \POPTIONAL: ETHERNET \PCONNECTION PORT
 73
     1
 44
1.0
1001
ACAD
1000
MTEXTBEGIN
1070
    73
1070
     1
1070
    44
1040
1.0
1070
    74
1070
     0
1000
MTEXTEND
  0
SOLID
  5
DF8
330
DC5
100
AcDbEntity
  8
0
 62
     0
100
AcDbTrace
 10
52.6504057319412
 20
37.65638161448723
 30
0.0
 11
52.69649596205971
 21
37.32625012280742
 31
0.0
 12
53.66384532203987
 22
37.62958655900286
 32
0.0
 13
53.66384532203987
 23
37.62958655900286
 33
0.0
  0
LINE
  5
DF9
330
DC5
100
AcDbEntity
  8
0
 62
     0
370
    -2
100
AcDbLine
 10
54.1928418689395
 20
37.71600574047508
 30
0.0
 11
54.3728418689395
 21
37.71600574047508
 31
0.0
  0
LINE
  5
DFA
330
DC5
100
AcDbEntity
  8
0
 62
     0
370
    -2
100
AcDbLine
 10
54.2828418689395
 20
37.62600574047508
 30
0.0
 11
54.2828418689395
 21
37.80600574047508
 31
0.0
  0
POINT
  5
DFB
330
DC5
100
AcDbEntity
  8
Defpoints
 62
     0
100
AcDbPoint
 10
53.66384532203987
 20
37.62958655900286
 30
0.0
  0
POINT
  5
DFC
330
DC5
100
AcDbEntity
  8
Defpoints
 62
     0
100
AcDbPoint
 10
54.90183841583913
 20
37.80242492194728
 30
0.0
  0
ENDBLK
  5
DCE
330
DC5
100
AcDbEntity
  8
0
100
AcDbBlockEnd
  0
BLOCK
  5
DE2
330
DD9
100
AcDbEntity
  8
0
100
AcDbBlockBegin
  2
*D154
 70
     1
 10
0.0
 20
0.0
 30
0.0
  3
*D154
  1

  0
LINE
  5
DE5
330
DD9
100
AcDbEntity
  8
0
 62
     0
370
    -2
100
AcDbLine
 10
41.09136026412364
 20
30.9017738460937
 30
0.0
 11
42.09136026412363
 21
30.9017738460937
 31
0.0
  0
LINE
  5
DE6
330
DD9
100
AcDbEntity
  8
0
 62
     0
370
    -2
100
AcDbLine
 10
42.09136026412363
 20
30.9017738460937
 30
0.0
 11
55.23100643823226
 21
34.98389393186462
 31
0.0
  0
MTEXT
  5
DE7
330
DD9
100
AcDbEntity
  8
0
 62
     0
100
AcDbMText
 10
24.33469359745697
 20
33.06844051276037
 30
0.0
 40
1.0
 41
0.0
 71
     1
 72
     1
  1
\A1;\U+22051.250 (1)\POPTIONAL: EXTERNAL \PHEAT OUTPUT
 73
     1
 44
1.0
1001
ACAD
1000
MTEXTBEGIN
1070
    73
1070
     1
1070
    44
1040
1.0
1070
    74
1070
     0
1000
MTEXTEND
  0
SOLID
  5
DE8
330
DD9
100
AcDbEntity
  8
0
 62
     0
100
AcDbTrace
 10
55.18155907324657
 20
35.14305654014228
 30
0.0
 11
55.28045380321795
 21
34.82473132358695
 31
0.0
 12
56.18598208789825
 22
35.28057812177875
 32
0.0
 13
56.18598208789825
 23
35.28057812177875
 33
0.0
  0
LINE
  5
DE9
330
DD9
100
AcDbEntity
  8
0
 62
     0
370
    -2
100
AcDbLine
 10
56.6928418689395
 20
35.46600574047508
 30
0.0
 11
56.8728418689395
 21
35.46600574047508
 31
0.0
  0
LINE
  5
DEA
330
DD9
100
AcDbEntity
  8
0
 62
     0
370
    -2
100
AcDbLine
 10
56.78284186893949
 20
35.37600574047507
 30
0.0
 11
56.7828418689395
 21
35.55600574047508
 31
0.0
  0
POINT
  5
DEB
330
DD9
100
AcDbEntity
  8
Defpoints
 62
     0
100
AcDbPoint
 10
56.18598208789825
 20
35.28057812177875
 30
0.0
  0
POINT
  5
DEC
330
DD9
100
AcDbEntity
  8
Defpoints
 62
     0
100
AcDbPoint
 10
57.37970164998075
 20
35.65143335917141
 30
0.0
  0
ENDBLK
  5
DE3
330
DD9
100
AcDbEntity
  8
0
100
AcDbBlockEnd
  0
ENDSEC
  0
SECTION
  2
ENTITIES
  0
TEXT
  5
9BA
330
1F
100
AcDbEntity
  8
DIM
100
AcDbText
 10
45.79072900730225
 20
65.07043333229026
 30
0.0
 40
1.0
  1
IQ5000V16
100
AcDbText
  0
TEXT
  5
9BB
330
1F
100
AcDbEntity
  8
DIM
100
AcDbText
 10
45.79072900730225
 20
63.40376666562358
 30
0.0
 40
1.0
  1
IQ6000V16
100
AcDbText
  0
TEXT
  5
9BC
330
1F
100
AcDbEntity
  8
DIM
100
AcDbText
 10
44.69563403007632
 20
60.24030208440997
 30
0.0
 40
1.0
  1
480-400VAC
 72
     1
 11
49.44563403007633
 21
60.24030208440997
 31
0.0
100
AcDbText
  0
TEXT
  5
9BD
330
1F
100
AcDbEntity
  8
DIM
100
AcDbText
 10
44.86289637440493
 20
61.77078159165187
 30
0.0
 40
1.0
  1
IQ4000V16HA
100
AcDbText
  0
TEXT
  5
9BE
330
1F
100
AcDbEntity
  8
DIM
100
AcDbText
 10
42.61230069674299
 20
58.60338901940608
 30
0.0
 40
1.0
  1
CUTOUT DRAWING
 72
     1
 11
49.44563403007633
 21
58.60338901940608
 31
0.0
100
AcDbText
  0
LINE
  5
9BF
330
1F
100
AcDbEntity
  8
BORDER
100
AcDbLine
 10
38.6427979452474
 20
-6.405669236493309
 30
0.0
 11
19.14819405013769
 21
-6.405669236493309
 31
0.0
  0
TEXT
  5
9C0
330
1F
100
AcDbEntity
  8
TEXT
100
AcDbText
 10
19.72944405013777
 20
-6.855669236493506
 30
0.0
 40
0.3
  1
0
 72
     1
 11
19.80444405013777
 21
-6.705669236493505
 31
0.0
100
AcDbText
 73
     2
  0
LINE
  5
9C1
330
1F
100
AcDbEntity
  8
BORDER
100
AcDbLine
 10
20.46069405013776
 20
-7.005669236493503
 30
0.0
 11
20.46069405013776
 21
-5.805669236493116
 31
0.0
  0
TEXT
  5
9C2
330
1F
100
AcDbEntity
  8
TEXT
100
AcDbText
 10
24.68444405013809
 20
-6.855669236493506
 30
0.0
 40
0.3
  1
INITIAL RELEASE
 72
     1
 11
26.73444405013809
 21
-6.705669236493505
 31
0.0
100
AcDbText
 73
     2
  0
TEXT
  5
9C3
330
1F
100
AcDbEntity
  8
TEXT
100
AcDbText
 10
36.74549599769276
 20
-6.855669236493506
 30
0.0
 40
0.3
  1
JJH
 72
     1
 11
37.14549599769276
 21
-6.705669236493505
 31
0.0
100
AcDbText
 73
     2
  0
LINE
  5
9C4
330
1F
100
AcDbEntity
  8
BORDER
100
AcDbLine
 10
35.64819405013778
 20
-7.005669236493503
 30
0.0
 11
35.64819405013778
 21
-5.805669236493116
 31
0.0
  0
TEXT
  5
9C5
330
1F
100
AcDbEntity
  8
TEXT
100
AcDbText
 10
33.42819405013781
 20
-6.855669236493506
 30
0.0
 40
0.3
  1
4-20-10
 72
     1
 11
34.32819405013781
 21
-6.705669236493505
 31
0.0
100
AcDbText
 73
     2
  0
LINE
  5
9C6
330
1F
100
AcDbEntity
  8
BORDER
100
AcDbLine
 10
33.00819405013778
 20
-7.005669236493503
 30
0.0
 11
33.00819405013778
 21
-5.805669236493116
 31
0.0
  0
LINE
  5
9C7
330
1F
100
AcDbEntity
  8
BORDER
100
AcDbLine
 10
38.6427979452474
 20
-7.605669236493497
 30
0.0
 11
19.14819405013769
 21
-7.605669236493497
 31
0.0
  0
LINE
  5
9C8
330
1F
100
AcDbEntity
  8
BORDER
100
AcDbLine
 10
38.6427979452474
 20
-7.005669236493503
 30
0.0
 11
19.14819405013769
 21
-7.005669236493503
 31
0.0
  0
TEXT
  5
9C9
330
1F
100
AcDbEntity
  8
TEXT
100
AcDbText
 10
19.35444405013777
 20
-7.4556692364935
 30
0.0
 40
0.3
  1
REV
 72
     1
 11
19.80444405013777
 21
-7.3056692364935
 31
0.0
100
AcDbText
 73
     2
  0
LINE
  5
9CA
330
1F
100
AcDbEntity
  8
BORDER
100
AcDbLine
 10
19.14819405013769
 20
-8.205669236493505
 30
0.0
 11
19.14819405013769
 21
-4.605669236493213
 31
0.0
  0
LINE
  5
9CB
330
1F
100
AcDbEntity
  8
BORDER
100
AcDbLine
 10
20.46069405013776
 20
-7.605669236493497
 30
0.0
 11
20.46069405013776
 21
-7.005669236493503
 31
0.0
  0
TEXT
  5
9CC
330
1F
100
AcDbEntity
  8
TEXT
100
AcDbText
 10
25.23444405013809
 20
-7.4556692364935
 30
0.0
 40
0.3
  1
DESCRIPTION
 72
     1
 11
26.73444405013809
 21
-7.3056692364935
 31
0.0
100
AcDbText
 73
     2
  0
TEXT
  5
9CD
330
1F
100
AcDbEntity
  8
TEXT
100
AcDbText
 10
36.14549599769276
 20
-7.4556692364935
 30
0.0
 40
0.3
  1
CHECKED
 72
     1
 11
37.14549599769276
 21
-7.3056692364935
 31
0.0
100
AcDbText
 73
     2
  0
LINE
  5
9CE
330
1F
100
AcDbEntity
  8
BORDER
100
AcDbLine
 10
35.64819405013778
 20
-7.605669236493497
 30
0.0
 11
35.64819405013778
 21
-7.005669236493503
 31
0.0
  0
TEXT
  5
9CF
330
1F
100
AcDbEntity
  8
TEXT
100
AcDbText
 10
33.77819405013781
 20
-7.4556692364935
 30
0.0
 40
0.3
  1
DATE
 72
     1
 11
34.32819405013781
 21
-7.3056692364935
 31
0.0
100
AcDbText
 73
     2
  0
LINE
  5
9D0
330
1F
100
AcDbEntity
  8
BORDER
100
AcDbLine
 10
33.00819405013778
 20
-7.605669236493497
 30
0.0
 11
33.00819405013778
 21
-7.005669236493503
 31
0.0
  0
LINE
  5
9D1
330
1F
100
AcDbEntity
  8
BORDER
100
AcDbLine
 10
19.14819405013769
 20
-7.605669236493497
 30
0.0
 11
38.6427979452474
 21
-7.605669236493497
 31
0.0
  0
LINE
  5
9D2
330
1F
100
AcDbEntity
  8
BORDER
100
AcDbLine
 10
38.6427979452474
 20
-5.805669236493116
 30
0.0
 11
38.6427979452474
 21
-8.205669236493505
 31
0.0
  0
LINE
  5
9D3
330
1F
100
AcDbEntity
  8
BORDER
100
AcDbLine
 10
38.6427979452474
 20
-8.205669236493505
 30
0.0
 11
19.14819405013769
 21
-8.205669236493505
 31
0.0
  0
TEXT
  5
9D4
330
1F
100
AcDbEntity
  8
TEXT
100
AcDbText
 10
74.99302672139709
 20
-7.937611917481305
 30
0.0
 40
0.75
  1
1
 72
     1
 11
75.11802672139708
 21
-7.562611917481305
 31
0.0
100
AcDbText
 73
     2
  0
TEXT
  5
9D5
330
1F
100
AcDbEntity
  8
TEXT
100
AcDbText
 10
67.63887383285933
 20
-7.937611917481305
 30
0.0
 40
0.75
  1
IQ300448
 72
     1
 11
70.26387383285933
 21
-7.562611917481305
 31
0.0
100
AcDbText
 73
     2
  0
TEXT
  5
9D6
330
1F
100
AcDbEntity
  8
TEXT
100
AcDbText
 10
70.24510010413718
 20
-4.697679598468994
 30
0.0
 40
0.1875
  1
724-837-2204  *  1-888-867-8234
 72
     1
 11
73.07322510413718
 21
-4.603929598468994
 31
0.0
100
AcDbText
 73
     2
  0
TEXT
  5
9D7
330
1F
100
AcDbEntity
  8
TEXT
100
AcDbText
 10
71.26072510413718
 20
-4.322679598468994
 30
0.0
 40
0.1875
  1
GREENSBURG, PA  15601
 72
     1
 11
73.07322510413718
 21
-4.228929598468994
 31
0.0
100
AcDbText
 73
     2
  0
TEXT
  5
9D8
330
1F
100
AcDbEntity
  8
TEXT
100
AcDbText
 10
71.54197510413718
 20
-3.947679598468994
 30
0.0
 40
0.1875
  1
141 WILSON AVENUE
 72
     1
 11
73.07322510413718
 21
-3.853929598468994
 31
0.0
100
AcDbText
 73
     2
  0
TEXT
  5
9D9
330
1F
100
AcDbEntity
  8
TEXT
100
AcDbText
 10
70.60447510413718
 20
-3.591429598469005
 30
0.0
 40
0.1875
  1
INDUSTRIAL COOLING EQUIPMENT
 72
     1
 11
73.07322510413718
 21
-3.497679598469005
 31
0.0
100
AcDbText
 73
     2
  0
TEXT
  5
9DA
330
1F
100
AcDbEntity
  8
TEXT
100
AcDbText
 10
71.51072510413718
 20
-5.072679598468994
 30
0.0
 40
0.1875
  1
FAX  724-837-3386
 72
     1
 11
73.07322510413718
 21
-4.978929598468994
 31
0.0
100
AcDbText
 73
     2
  0
LINE
  5
9DB
330
1F
100
AcDbEntity
  8
BORDER
100
AcDbLine
 10
66.43782221559954
 20
-3.263304598469005
 30
0.0
 11
76.14612799267504
 21
-3.263304598469005
 31
0.0
  0
LINE
  5
9DC
330
1F
100
AcDbEntity
  8
BORDER
100
AcDbLine
 10
66.43782221559954
 20
-5.138304598469005
 30
0.0
 11
76.14612799267504
 21
-5.138304598469005
 31
0.0
  0
LINE
  5
9DD
330
1F
100
AcDbEntity
  8
BORDER
100
AcDbLine
 10
66.43782221559954
 20
-6.638304598469005
 30
0.0
 11
76.14612799267504
 21
-6.638304598469005
 31
0.0
  0
LINE
  5
9DE
330
1F
100
AcDbEntity
  8
BORDER
100
AcDbLine
 10
74.08992545011926
 20
-6.638304598469005
 30
0.0
 11
74.08992545011926
 21
-8.205669236493505
 31
0.0
  0
TEXT
  5
9DF
330
1F
100
AcDbEntity
  8
TEXT
100
AcDbText
 10
61.76958410154583
 20
-7.981488063303217
 30
0.0
 40
0.375
  1
SHEET 1 OF 1
 72
     1
 11
63.83208410154582
 21
-7.793988063303217
 31
0.0
100
AcDbText
 73
     2
  0
LINE
  5
9E0
330
1F
100
AcDbEntity
  8
BORDER
100
AcDbLine
 10
61.18782221559939
 20
-7.388304598469005
 30
0.0
 11
66.43782221559954
 21
-7.388304598469005
 31
0.0
  0
TEXT
  5
9E1
330
1F
100
AcDbEntity
  8
TEXT
100
AcDbText
 10
62.6878222155994
 20
-7.194762554431903
 30
0.0
 40
0.375
  1
4-20-10
 72
     1
 11
63.8128222155994
 21
-7.007262554431903
 31
0.0
100
AcDbText
 73
     2
  0
TEXT
  5
9E2
330
1F
100
AcDbEntity
  8
TEXT
100
AcDbText
 10
61.3753222155996
 20
-6.919554598469005
 30
0.0
 40
0.1875
  1
DATE
100
AcDbText
  0
TEXT
  5
9E3
330
1F
100
AcDbEntity
  8
TEXT
100
AcDbText
 10
62.08594721559958
 20
-6.57155459846912
 30
0.0
 40
0.28125
  1
JJH
 72
     1
 11
62.46094721559957
 21
-6.43092959846912
 31
0.0
100
AcDbText
 73
     2
  0
TEXT
  5
9E4
330
1F
100
AcDbEntity
  8
TEXT
100
AcDbText
 10
61.29657221559958
 20
-6.169554598469005
 30
0.0
 40
0.1875
  1
DRAWN
100
AcDbText
  0
TEXT
  5
9E5
330
1F
100
AcDbEntity
  8
TEXT
100
AcDbText
 10
64.0003222155996
 20
-6.169554598469005
 30
0.0
 40
0.1875
  1
SCALE
100
AcDbText
  0
TEXT
  5
9E6
330
1F
100
AcDbEntity
  8
TEXT
100
AcDbText
 10
64.64907221559929
 20
-6.57155459846912
 30
0.0
 40
0.28125
  1
NONE
 72
     1
 11
65.16469721559928
 21
-6.43092959846912
 31
0.0
100
AcDbText
 73
     2
  0
LINE
  5
9E7
330
1F
100
AcDbEntity
  8
BORDER
100
AcDbLine
 10
61.18782221559939
 20
-5.888304598469005
 30
0.0
 11
66.43782221559954
 21
-5.888304598469005
 31
0.0
  0
LINE
  5
9E8
330
1F
100
AcDbEntity
  8
BORDER
100
AcDbLine
 10
61.18782221559939
 20
-6.638304598469005
 30
0.0
 11
66.43782221559954
 21
-6.638304598469005
 31
0.0
  0
LINE
  5
9E9
330
1F
100
AcDbEntity
  8
BORDER
100
AcDbLine
 10
66.43782221559954
 20
-8.205669236493505
 30
0.0
 11
66.43782221559954
 21
-3.263304598469005
 31
0.0
  0
LINE
  5
9EA
330
1F
100
AcDbEntity
  8
TEXT
100
AcDbLine
 10
67.51088561640713
 20
-4.832724579232305
 30
0.0
 11
67.54296291949237
 21
-4.853025562731289
 31
0.0
  0
ARC
  5
9EB
330
1F
100
AcDbEntity
  8
TEXT
100
AcDbCircle
 10
67.72029736242618
 20
-4.617164241287412
 30
0.0
 40
0.1235686801195331
100
AcDbArc
 50
287.1920036507388
 51
335.899750405153
  0
ARC
  5
9EC
330
1F
100
AcDbEntity
  8
TEXT
100
AcDbCircle
 10
67.96751278831251
 20
-4.783640077600509
 30
0.0
 40
0.0574830775048128
100
AcDbArc
 50
67.37252950712522
 51
112.6274704928673
  0
ARC
  5
9ED
330
1F
100
AcDbEntity
  8
TEXT
100
AcDbCircle
 10
67.94940376370735
 20
-4.684327659104624
 30
0.0
 40
0.0811923392812831
100
AcDbArc
 50
330.1916644163835
 51
19.9131875818796
  0
ARC
  5
9EE
330
1F
100
AcDbEntity
  8
TEXT
100
AcDbCircle
 10
67.84138070598533
 20
-4.638859794225012
 30
0.0
 40
0.0299315237481412
100
AcDbArc
 50
253.9290889125599
 51
38.652674775114
  0
ARC
  5
9EF
330
1F
100
AcDbEntity
  8
TEXT
100
AcDbCircle
 10
68.35008362008952
 20
-4.669840867833514
 30
0.0
 40
0.062191304224996
100
AcDbArc
 50
188.1927496775747
 51
244.8496170020147
  0
ARC
  5
9F0
330
1F
100
AcDbEntity
  8
TEXT
100
AcDbCircle
 10
68.34932308238879
 20
-4.609640943630608
 30
0.0
 40
0.1192900151968246
100
AcDbArc
 50
257.5730930866192
 51
314.4273867462274
  0
LINE
  5
9F1
330
1F
100
AcDbEntity
  8
TEXT
100
AcDbLine
 10
68.55719020149874
 20
-4.742263309307503
 30
0.0
 11
68.55908885377832
 21
-4.720444219820407
 31
0.0
  0
LINE
  5
9F2
330
1F
100
AcDbEntity
  8
TEXT
100
AcDbLine
 10
68.55908885377832
 20
-4.720444219820407
 30
0.0
 11
68.52681132690358
 21
-4.722341536791503
 31
0.0
  0
ARC
  5
9F3
330
1F
100
AcDbEntity
  8
TEXT
100
AcDbCircle
 10
68.52615862575615
 20
-4.6960446359748
 30
0.0
 40
0.0263049997405141
100
AcDbArc
 50
155.9964711746254
 51
271.4218156194853
  0
ARC
  5
9F4
330
1F
100
AcDbEntity
  8
TEXT
100
AcDbCircle
 10
68.7546697010952
 20
-4.683182199445909
 30
0.0
 40
0.0616502517662663
100
AcDbArc
 50
203.9135879631545
 51
286.170193180254
  0
ARC
  5
9F5
330
1F
100
AcDbEntity
  8
TEXT
100
AcDbCircle
 10
68.78416726103527
 20
-4.656226040854306
 30
0.0
 40
0.0870449330871868
100
AcDbArc
 50
261.8576121462839
 51
331.2394802847385
  0
ARC
  5
9F6
330
1F
100
AcDbEntity
  8
TEXT
100
AcDbCircle
 10
68.78047594296808
 20
-4.6427016770822
 30
0.0
 40
0.0973115932483437
100
AcDbArc
 50
325.293903470732
 51
356.4132772462207
  0
ARC
  5
9F7
330
1F
100
AcDbEntity
  8
TEXT
100
AcDbCircle
 10
68.01995011468623
 20
-3.80099051458751
 30
0.0
 40
0.1583382231194103
100
AcDbArc
 50
148.4692011102824
 51
195.5802361373379
  0
ARC
  5
9F8
330
1F
100
AcDbEntity
  8
TEXT
100
AcDbCircle
 10
68.01702111489061
 20
-3.805708209615616
 30
0.0
 40
0.1542954973653146
100
AcDbArc
 50
194.1847393568155
 51
248.6586767321129
  0
ARC
  5
9F9
330
1F
100
AcDbEntity
  8
TEXT
100
AcDbCircle
 10
68.08039888044365
 20
-3.765152286649907
 30
0.0
 40
0.1502692137157161
100
AcDbArc
 50
179.2959701761241
 51
227.5915484940839
  0
ARC
  5
9FA
330
1F
100
AcDbEntity
  8
TEXT
100
AcDbCircle
 10
68.04762790445116
 20
-3.791901625173707
 30
0.0
 40
0.1085922287405707
100
AcDbArc
 50
230.8416488637727
 51
280.5326941523483
  0
ARC
  5
9FB
330
1F
100
AcDbEntity
  8
TEXT
100
AcDbCircle
 10
68.06181980901456
 20
-3.762478183357302
 30
0.0
 40
0.1363034732059888
100
AcDbArc
 50
272.3792098458872
 51
327.3581874363217
  0
ARC
  5
9FC
330
1F
100
AcDbEntity
  8
TEXT
100
AcDbCircle
 10
68.02152436856463
 20
-3.733856444624294
 30
0.0
 40
0.2239378989788902
100
AcDbArc
 50
254.28478308494
 51
294.1819270465997
  0
ARC
  5
9FD
330
1F
100
AcDbEntity
  8
TEXT
100
AcDbCircle
 10
68.03970274932595
 20
-3.789470302188917
 30
0.0
 40
0.165873529712186
100
AcDbArc
 50
296.3233923707219
 51
339.8348331475788
  0
ARC
  5
9FE
330
1F
100
AcDbEntity
  8
TEXT
100
AcDbCircle
 10
68.18418702581874
 20
-3.844530153026909
 30
0.0
 40
0.0114204126568138
100
AcDbArc
 50
349.2952029716974
 51
131.6626905469364
  0
ARC
  5
9FF
330
1F
100
AcDbEntity
  8
TEXT
100
AcDbCircle
 10
67.67134746592034
 20
-3.807009770608019
 30
0.0
 40
0.1573179651795563
100
AcDbArc
 50
135.7093780000635
 51
195.2317137751529
  0
ARC
  5
A00
330
1F
100
AcDbEntity
  8
TEXT
100
AcDbCircle
 10
67.65646799809977
 20
-3.811780568877111
 30
0.0
 40
0.1417094945864497
100
AcDbArc
 50
194.9511061487671
 51
259.6103135862126
  0
ARC
  5
A01
330
1F
100
AcDbEntity
  8
TEXT
100
AcDbCircle
 10
67.67909891996632
 20
-3.806016755198413
 30
0.0
 40
0.1529394365370079
100
AcDbArc
 50
251.6347706403312
 51
316.4182924463649
  0
ARC
  5
A02
330
1F
100
AcDbEntity
  8
TEXT
100
AcDbCircle
 10
67.65987534514235
 20
-3.757686450170723
 30
0.0
 40
0.2013621134637685
100
AcDbArc
 50
310.2152586008206
 51
331.3072507285891
  0
ARC
  5
A03
330
1F
100
AcDbEntity
  8
TEXT
100
AcDbCircle
 10
67.734957202853
 20
-3.776542131405605
 30
0.0
 40
0.1437225919317553
100
AcDbArc
 50
167.0430028911412
 51
212.1309371309448
  0
ARC
  5
A04
330
1F
100
AcDbEntity
  8
TEXT
100
AcDbCircle
 10
67.70425512240954
 20
-3.793550332214607
 30
0.0
 40
0.1086941518186937
100
AcDbArc
 50
213.1462108998123
 51
285.6537258536391
  0
ARC
  5
A05
330
1F
100
AcDbEntity
  8
TEXT
100
AcDbCircle
 10
67.70524299136258
 20
-3.766721158834911
 30
0.0
 40
0.134511266670263
100
AcDbArc
 50
282.1628426667851
 51
326.5593609179318
  0
ARC
  5
A06
330
1F
100
AcDbEntity
  8
TEXT
100
AcDbCircle
 10
67.8215887758273
 20
-3.855220230864006
 30
0.0
 40
0.0149474164447453
100
AcDbArc
 50
3.288025410275707
 51
105.9275278804377
  0
LINE
  5
A07
330
1F
100
AcDbEntity
  8
TEXT
100
AcDbLine
 10
67.24018377336083
 20
-3.386591896493399
 30
0.0
 11
67.24018377336083
 21
-3.998371126520694
 31
0.0
  0
LINE
  5
A08
330
1F
100
AcDbEntity
  8
TEXT
100
AcDbLine
 10
67.41758849719639
 20
-3.386591896493399
 30
0.0
 11
67.41758849719639
 21
-3.998371126520694
 31
0.0
  0
ARC
  5
A09
330
1F
100
AcDbEntity
  8
TEXT
100
AcDbCircle
 10
69.32562181990616
 20
-4.660864885128205
 30
0.0
 40
0.0114204126568138
100
AcDbArc
 50
349.2952029716974
 51
131.6626905469364
  0
ARC
  5
A0A
330
1F
100
AcDbEntity
  8
TEXT
100
AcDbCircle
 10
69.18113754341345
 20
-4.605805034290412
 30
0.0
 40
0.165873529712186
100
AcDbArc
 50
296.3233923707219
 51
339.8348331475788
  0
ARC
  5
A0B
330
1F
100
AcDbEntity
  8
TEXT
100
AcDbCircle
 10
69.16295916265219
 20
-4.550191176725604
 30
0.0
 40
0.2239378989788902
100
AcDbArc
 50
254.28478308494
 51
294.1819270465997
  0
ARC
  5
A0C
330
1F
100
AcDbEntity
  8
TEXT
100
AcDbCircle
 10
69.20325460310201
 20
-4.578812915458911
 30
0.0
 40
0.1363034732059888
100
AcDbArc
 50
272.3792098458872
 51
327.3581874363217
  0
ARC
  5
A0D
330
1F
100
AcDbEntity
  8
TEXT
100
AcDbCircle
 10
69.18906269853891
 20
-4.608236357275202
 30
0.0
 40
0.1085922287405707
100
AcDbArc
 50
230.8416488637727
 51
280.5326941523483
  0
ARC
  5
A0E
330
1F
100
AcDbEntity
  8
TEXT
100
AcDbCircle
 10
69.22183367453143
 20
-4.581487018751502
 30
0.0
 40
0.1502692137157161
100
AcDbArc
 50
179.2959701761241
 51
227.5915484940839
  0
ARC
  5
A0F
330
1F
100
AcDbEntity
  8
TEXT
100
AcDbCircle
 10
69.15845590897816
 20
-4.622042941717126
 30
0.0
 40
0.1542954973653146
100
AcDbArc
 50
194.1847393568155
 51
248.6586767321129
  0
ARC
  5
A10
330
1F
100
AcDbEntity
  8
TEXT
100
AcDbCircle
 10
69.16138490877378
 20
-4.617325246688906
 30
0.0
 40
0.1583382231194103
100
AcDbArc
 50
148.4692011102824
 51
195.5802361373379
  0
ARC
  5
A11
330
1F
100
AcDbEntity
  8
TEXT
100
AcDbCircle
 10
69.16039248635789
 20
-4.6126016533441
 30
0.0
 40
0.1550617556562953
100
AcDbArc
 50
108.5416613320802
 51
149.7652339536174
  0
ARC
  5
A12
330
1F
100
AcDbEntity
  8
TEXT
100
AcDbCircle
 10
69.16219324836029
 20
-4.737100375903125
 30
0.0
 40
0.2495589427940663
100
AcDbArc
 50
82.99970676551479
 51
97.00029323448521
  0
ARC
  5
A13
330
1F
100
AcDbEntity
  8
TEXT
100
AcDbCircle
 10
69.17001787545186
 20
-4.55063385186591
 30
0.0
 40
0.0652662772240651
100
AcDbArc
 50
358.1908821763629
 51
69.74957583402924
  0
ARC
  5
A14
330
1F
100
AcDbEntity
  8
TEXT
100
AcDbCircle
 10
69.15132248252115
 20
-4.568269723952113
 30
0.0
 40
0.0812534708909398
100
AcDbArc
 50
103.9179608005984
 51
168.9486088950471
  0
LINE
  5
A15
330
1F
100
AcDbEntity
  8
TEXT
100
AcDbLine
 10
69.07157580495095
 20
-4.552694296241909
 30
0.0
 11
69.23525162064291
 21
-4.552694296241909
 31
0.0
  0
ARC
  5
A16
330
1F
100
AcDbEntity
  8
TEXT
100
AcDbCircle
 10
69.17241110620395
 20
-4.671146817160916
 30
0.0
 40
0.2145114628604602
100
AcDbArc
 50
78.15621523985544
 51
106.6122408520357
  0
ARC
  5
A17
330
1F
100
AcDbEntity
  8
TEXT
100
AcDbCircle
 10
69.2077918901229
 20
-4.574368647790208
 30
0.0
 40
0.1134963534750494
100
AcDbArc
 50
357.337623744369
 51
85.63084243886228
  0
LINE
  5
A18
330
1F
100
AcDbEntity
  8
TEXT
100
AcDbLine
 10
69.07157580495095
 20
-4.579640611446222
 30
0.0
 11
69.32116573477554
 21
-4.579640611446222
 31
0.0
  0
ARC
  5
A19
330
1F
100
AcDbEntity
  8
TEXT
100
AcDbCircle
 10
67.25343110114022
 20
-4.035867692040696
 30
0.0
 40
0.0397678779808021
100
AcDbArc
 50
109.4580308571273
 51
191.0341765877006
  0
ARC
  5
A1A
330
1F
100
AcDbEntity
  8
TEXT
100
AcDbCircle
 10
67.20260152815817
 20
-4.045700620313922
 30
0.0
 40
0.0120042360355189
100
AcDbArc
 50
155.9249042338183
 51
10.66497725508799
  0
ARC
  5
A1B
330
1F
100
AcDbEntity
  8
TEXT
100
AcDbCircle
 10
67.16924225788139
 20
-4.055065732433405
 30
0.0
 40
0.0265543389333426
100
AcDbArc
 50
32.48569494743581
 51
175.1979664789355
  0
ARC
  5
A1C
330
1F
100
AcDbEntity
  8
TEXT
100
AcDbCircle
 10
67.13388965385843
 20
-4.057077545003494
 30
0.0
 40
0.0098484268339817
100
AcDbArc
 50
158.7719549350952
 51
25.4671605858406
  0
ARC
  5
A1D
330
1F
100
AcDbEntity
  8
TEXT
100
AcDbCircle
 10
67.11084841802236
 20
-4.05059585238061
 30
0.0
 40
0.0141644132330729
100
AcDbArc
 50
348.1206509806772
 51
136.2651890953769
  0
ARC
  5
A1E
330
1F
100
AcDbEntity
  8
TEXT
100
AcDbCircle
 10
67.10914783713232
 20
-4.058059174280401
 30
0.0
 40
0.0192504245764867
100
AcDbArc
 50
116.3151684036786
 51
258.4674100382152
  0
ARC
  5
A1F
330
1F
100
AcDbEntity
  8
TEXT
100
AcDbCircle
 10
67.11572220632319
 20
-4.08680605624572
 30
0.0
 40
0.0143650439868701
100
AcDbArc
 50
356.7423630506751
 51
136.5172760690077
  0
ARC
  5
A20
330
1F
100
AcDbEntity
  8
TEXT
100
AcDbCircle
 10
67.13517280565042
 20
-4.095134953577911
 30
0.0
 40
0.0090850721584386
100
AcDbArc
 50
124.216774595017
 51
319.7988197133694
  0
ARC
  5
A21
330
1F
100
AcDbEntity
  8
TEXT
100
AcDbCircle
 10
67.17155616284893
 20
-4.111563310335299
 30
0.0
 40
0.0312821180069065
100
AcDbArc
 50
160.262778281964
 51
255.1333022011721
  0
ARC
  5
A22
330
1F
100
AcDbEntity
  8
TEXT
100
AcDbCircle
 10
67.17134217113514
 20
-4.138718569013704
 30
0.0
 40
0.0083972248010632
100
AcDbArc
 50
201.5154657473978
 51
41.96660508022808
  0
ARC
  5
A23
330
1F
100
AcDbEntity
  8
TEXT
100
AcDbCircle
 10
67.20059182318803
 20
-4.117891459582907
 30
0.0
 40
0.0275804145931513
100
AcDbArc
 50
121.2424246402124
 51
213.4732397083749
  0
ARC
  5
A24
330
1F
100
AcDbEntity
  8
TEXT
100
AcDbCircle
 10
67.1939523512913
 20
-4.107821917502292
 30
0.0
 40
0.015534157154539
100
AcDbArc
 50
332.2921775479049
 51
119.5678571759902
  0
ARC
  5
A25
330
1F
100
AcDbEntity
  8
TEXT
100
AcDbCircle
 10
67.19686371275319
 20
-4.140574766980904
 30
0.0
 40
0.0277366383214723
100
AcDbArc
 50
312.9867785858869
 51
66.99118422926658
  0
ARC
  5
A26
330
1F
100
AcDbEntity
  8
TEXT
100
AcDbCircle
 10
67.31631152954037
 20
-4.35546446898661
 30
0.0
 40
0.2190358327107401
100
AcDbArc
 50
117.3222180892419
 51
179.3383492613259
  0
ARC
  5
A27
330
1F
100
AcDbEntity
  8
TEXT
100
AcDbCircle
 10
68.02317815758539
 20
-4.427232960737626
 30
0.0
 40
0.9288640878310687
100
AcDbArc
 50
175.4121316267021
 51
191.7939289657055
  0
ARC
  5
A28
330
1F
100
AcDbEntity
  8
TEXT
100
AcDbCircle
 10
67.11210848904892
 20
-4.659486265083515
 30
0.0
 40
0.042439428205579
100
AcDbArc
 50
15.17145974978874
 51
87.54918714297627
  0
ARC
  5
A29
330
1F
100
AcDbEntity
  8
TEXT
100
AcDbCircle
 10
70.94361816367836
 20
-4.777672925395123
 30
0.0
 40
3.792753809134314
100
AcDbArc
 50
178.0464319449979
 51
181.7502526685598
  0
LINE
  5
A2A
330
1F
100
AcDbEntity
  8
TEXT
100
AcDbLine
 10
67.19326202626433
 20
-4.705802336635287
 30
0.0
 11
67.19174085121935
 21
-4.888971393467414
 31
0.0
  0
ARC
  5
A2B
330
1F
100
AcDbEntity
  8
TEXT
100
AcDbCircle
 10
67.19961126714991
 20
-4.704444393940917
 30
0.0
 40
0.0064928320617832
100
AcDbArc
 50
333.6879001367202
 51
192.072245755338
  0
LINE
  5
A2C
330
1F
100
AcDbEntity
  8
TEXT
100
AcDbLine
 10
67.2054313953312
 20
-4.707322409947408
 30
0.0
 11
67.2054313953312
 21
-4.734683766685805
 31
0.0
  0
ARC
  5
A2D
330
1F
100
AcDbEntity
  8
TEXT
100
AcDbCircle
 10
67.21403274845679
 20
-4.73270009231841
 30
0.0
 40
0.0088271308807469
100
AcDbArc
 50
192.9866902548923
 51
33.38063139741046
  0
ARC
  5
A2E
330
1F
100
AcDbEntity
  8
TEXT
100
AcDbCircle
 10
67.23705247486998
 20
-4.738079353365293
 30
0.0
 40
0.0186991566723166
100
AcDbArc
 50
17.66955929970848
 51
146.8111142491872
  0
ARC
  5
A2F
330
1F
100
AcDbEntity
  8
TEXT
100
AcDbCircle
 10
67.29563533027501
 20
-4.709451802618914
 30
0.0
 40
0.0467829440873418
100
AcDbArc
 50
209.3802246625984
 51
263.8421008682747
  0
LINE
  5
A30
330
1F
100
AcDbEntity
  8
TEXT
100
AcDbLine
 10
67.29061697879973
 20
-4.755964811615911
 30
0.0
 11
67.29518047264057
 21
-4.819807983525109
 31
0.0
  0
ARC
  5
A31
330
1F
100
AcDbEntity
  8
TEXT
100
AcDbCircle
 10
67.31442468795084
 20
-4.822496928761296
 30
0.0
 40
0.0194311669591681
100
AcDbArc
 50
172.0457056516397
 51
14.81661014794206
  0
LINE
  5
A32
330
1F
100
AcDbEntity
  8
TEXT
100
AcDbLine
 10
67.33320975488644
 20
-4.817527873557011
 30
0.0
 11
67.33625210497677
 21
-4.790926553474605
 31
0.0
  0
ARC
  5
A33
330
1F
100
AcDbEntity
  8
TEXT
100
AcDbCircle
 10
67.34318302971954
 20
-4.790116720706905
 30
0.0
 40
0.0069780761604683
100
AcDbArc
 50
318.6510821797587
 51
186.664414578649
  0
LINE
  5
A34
330
1F
100
AcDbEntity
  8
TEXT
100
AcDbLine
 10
67.34842147404364
 20
-4.794726736755109
 30
0.0
 11
67.35222438036197
 21
-4.829688460054313
 31
0.0
  0
ARC
  5
A35
330
1F
100
AcDbEntity
  8
TEXT
100
AcDbCircle
 10
67.36524463520041
 20
-4.83238079996471
 30
0.0
 40
0.0132957034509403
100
AcDbArc
 50
168.3169857564318
 51
15.04995211451593
  0
LINE
  5
A36
330
1F
100
AcDbEntity
  8
TEXT
100
AcDbLine
 10
67.37808429354092
 20
-4.828928423398224
 30
0.0
 11
67.37808429354092
 21
-4.800046993347706
 31
0.0
  0
ARC
  5
A37
330
1F
100
AcDbEntity
  8
TEXT
100
AcDbCircle
 10
67.39540742231262
 20
-4.815078809085107
 30
0.0
 40
0.0229356986989046
100
AcDbArc
 50
65.19241843010778
 51
139.0508106988798
  0
ARC
  5
A38
330
1F
100
AcDbEntity
  8
TEXT
100
AcDbCircle
 10
67.41018591643561
 20
-4.816516371568923
 30
0.0
 40
0.0228460586386703
100
AcDbArc
 50
7.606980527162162
 51
103.0413594591623
  0
LINE
  5
A39
330
1F
100
AcDbEntity
  8
TEXT
100
AcDbLine
 10
67.43283091650027
 20
-4.813492075386704
 30
0.0
 11
67.44245408239018
 21
-4.945982680117495
 31
0.0
  0
LINE
  5
A3A
330
1F
100
AcDbEntity
  8
TEXT
100
AcDbLine
 10
67.4841545513656
 20
-4.941708798622897
 30
0.0
 11
67.48736229419188
 21
-4.83699847928662
 31
0.0
  0
ARC
  5
A3B
330
1F
100
AcDbEntity
  8
TEXT
100
AcDbCircle
 10
67.49893902810953
 20
-4.833843699683129
 30
0.0
 40
0.01199889172128
100
AcDbArc
 50
5.351678383090964
 51
195.2435488026397
  0
LINE
  5
A3C
330
1F
100
AcDbEntity
  8
TEXT
100
AcDbLine
 10
67.54296291949237
 20
-4.853025562731289
 30
0.0
 11
67.54510141471024
 21
-4.919270874376422
 31
0.0
  0
ARC
  5
A3D
330
1F
100
AcDbEntity
  8
TEXT
100
AcDbCircle
 10
67.60346096485341
 20
-4.867984185082121
 30
0.0
 40
0.0111923495175046
100
AcDbArc
 50
354.5219056877808
 51
214.9448543763829
  0
ARC
  5
A3E
330
1F
100
AcDbEntity
  8
TEXT
100
AcDbCircle
 10
67.63443154523443
 20
-4.869818668621206
 30
0.0
 40
0.0198441386731591
100
AcDbArc
 50
177.787775166229
 51
326.3805826419361
  0
ARC
  5
A3F
330
1F
100
AcDbEntity
  8
TEXT
100
AcDbCircle
 10
67.83946625842736
 20
-4.846145770555409
 30
0.0
 40
0.0108536004534172
100
AcDbArc
 50
144.5711585108376
 51
21.75301147887019
  0
LINE
  5
A40
330
1F
100
AcDbEntity
  8
TEXT
100
AcDbLine
 10
67.84954697480674
 20
-4.84212335833341
 30
0.0
 11
67.85030396343353
 21
-4.784633863471498
 31
0.0
  0
ARC
  5
A41
330
1F
100
AcDbEntity
  8
TEXT
100
AcDbCircle
 10
67.83949097947322
 20
-4.791190437777103
 30
0.0
 40
0.012645524455306
100
AcDbArc
 50
31.2309986407668
 51
160.1819529381848
  0
ARC
  5
A42
330
1F
100
AcDbEntity
  8
TEXT
100
AcDbCircle
 10
67.88110465456196
 20
-4.810405234102717
 30
0.0
 40
0.0584439427015822
100
AcDbArc
 50
156.2885975497958
 51
210.2571046136439
  0
ARC
  5
A43
330
1F
100
AcDbEntity
  8
TEXT
100
AcDbCircle
 10
68.04645666242612
 20
-4.90281176309972
 30
0.0
 40
0.036084135136231
100
AcDbArc
 50
341.5477100758355
 51
84.99888070834158
  0
ARC
  5
A44
330
1F
100
AcDbEntity
  8
TEXT
100
AcDbCircle
 10
68.06216688716225
 20
-4.944686870747617
 30
0.0
 40
0.0788296406331001
100
AcDbArc
 50
99.17143729878524
 51
127.7955283290942
  0
ARC
  5
A45
330
1F
100
AcDbEntity
  8
TEXT
100
AcDbCircle
 10
67.90922866570074
 20
-4.874429608071906
 30
0.0
 40
0.0087399854901761
100
AcDbArc
 50
312.7998628402738
 51
120.0581864533371
  0
ARC
  5
A46
330
1F
100
AcDbEntity
  8
TEXT
100
AcDbCircle
 10
67.91003635261635
 20
-4.847664454537422
 30
0.0
 40
0.0198884128034731
100
AcDbArc
 50
129.1527393458017
 51
254.8870408388506
  0
ARC
  5
A47
330
1F
100
AcDbEntity
  8
TEXT
100
AcDbCircle
 10
67.8341225935294
 20
-4.783960818876622
 30
0.0
 40
0.0796559893773839
100
AcDbArc
 50
322.6907301981541
 51
8.220255073940986
  0
ARC
  5
A48
330
1F
100
AcDbEntity
  8
TEXT
100
AcDbCircle
 10
67.92016781147035
 20
-4.76563229521561
 30
0.0
 40
0.0100052643924706
100
AcDbArc
 50
89.05883162362073
 51
223.9137905963002
  0
ARC
  5
A49
330
1F
100
AcDbEntity
  8
TEXT
100
AcDbCircle
 10
67.72033103412656
 20
-4.530418458995299
 30
0.0
 40
0.3011975387222217
100
AcDbArc
 50
311.6071689301101
 51
318.3515702307968
  0
ARC
  5
A4A
330
1F
100
AcDbEntity
  8
TEXT
100
AcDbCircle
 10
67.9190096136723
 20
-4.760048373072123
 30
0.0
 40
0.0765201974600679
100
AcDbArc
 50
337.3510782224615
 51
22.64892177753845
  0
ARC
  5
A4B
330
1F
100
AcDbEntity
  8
TEXT
100
AcDbCircle
 10
68.04395320626809
 20
-4.799614394852
 30
0.0
 40
0.0552553003765589
100
AcDbArc
 50
169.468486757319
 51
223.141843942142
  0
ARC
  5
A4C
330
1F
100
AcDbEntity
  8
TEXT
100
AcDbCircle
 10
67.99632673060322
 20
-4.805668188473916
 30
0.0
 40
0.0325610258630092
100
AcDbArc
 50
282.9712622283038
 51
25.35441378639511
  0
ARC
  5
A4D
330
1F
100
AcDbEntity
  8
TEXT
100
AcDbCircle
 10
68.36703414874981
 20
-4.727922887603995
 30
0.0
 40
0.3471954157645391
100
AcDbArc
 50
179.4662202071271
 51
190.5890997840383
  0
ARC
  5
A4E
330
1F
100
AcDbEntity
  8
TEXT
100
AcDbCircle
 10
67.76529846201097
 20
-4.421949859114803
 30
0.0
 40
0.3506080272731332
100
AcDbArc
 50
317.973286304238
 51
40.61894937560235
  0
ARC
  5
A4F
330
1F
100
AcDbEntity
  8
TEXT
100
AcDbCircle
 10
67.99794378430857
 20
-4.2350627959907
 30
0.0
 40
0.0532219959288009
100
AcDbArc
 50
51.01090143870928
 51
107.577946053111
  0
ARC
  5
A50
330
1F
100
AcDbEntity
  8
TEXT
100
AcDbCircle
 10
67.90662558692827
 20
-4.180091558712305
 30
0.0
 40
0.0753640437980911
100
AcDbArc
 50
356.7791343814141
 51
50.82801334298917
  0
ARC
  5
A51
330
1F
100
AcDbEntity
  8
TEXT
100
AcDbCircle
 10
67.92555249470274
 20
-4.264487437368302
 30
0.0
 40
0.1456726297907598
100
AcDbArc
 50
78.6467194011529
 51
92.8865786316482
  0
ARC
  5
A52
330
1F
100
AcDbEntity
  8
TEXT
100
AcDbCircle
 10
67.90911554104662
 20
-4.100966598462804
 30
0.0
 40
0.0201994868700719
100
AcDbArc
 50
296.7794474250815
 51
150.4674482996603
  0
ARC
  5
A53
330
1F
100
AcDbEntity
  8
TEXT
100
AcDbCircle
 10
67.87674117128315
 20
-4.072110870733311
 30
0.0
 40
0.0240040095705513
100
AcDbArc
 50
174.1982733486934
 51
308.0634596483613
  0
ARC
  5
A54
330
1F
100
AcDbEntity
  8
TEXT
100
AcDbCircle
 10
67.80828623379753
 20
-4.108806363548609
 30
0.0
 40
0.05930733198463
100
AcDbArc
 50
41.27304036069129
 51
94.61991284103847
  0
ARC
  5
A55
330
1F
100
AcDbEntity
  8
TEXT
100
AcDbCircle
 10
67.78453989180881
 20
-4.055270322840016
 30
0.0
 40
0.0197726925807916
100
AcDbArc
 50
136.6395135700795
 51
16.38775991618488
  0
ARC
  5
A56
330
1F
100
AcDbEntity
  8
TEXT
100
AcDbCircle
 10
67.75404768467911
 20
-4.059355043526622
 30
0.0
 40
0.0239087999217996
100
AcDbArc
 50
47.61705801860808
 51
152.6179806586008
  0
ARC
  5
A57
330
1F
100
AcDbEntity
  8
TEXT
100
AcDbCircle
 10
67.70489211057702
 20
-4.06123729711372
 30
0.0
 40
0.0307520466590095
100
AcDbArc
 50
24.75773987532642
 51
121.5483884163393
  0
ARC
  5
A58
330
1F
100
AcDbEntity
  8
TEXT
100
AcDbCircle
 10
67.66546047831901
 20
-4.043940417617619
 30
0.0
 40
0.0249843467382301
100
AcDbArc
 50
20.89289471578084
 51
159.1071052842191
  0
ARC
  5
A59
330
1F
100
AcDbEntity
  8
TEXT
100
AcDbCircle
 10
67.62967234149423
 20
-4.031562307833112
 30
0.0
 40
0.0129206974282422
100
AcDbArc
 50
183.5606974541693
 51
344.4298925613464
  0
ARC
  5
A5A
330
1F
100
AcDbEntity
  8
TEXT
100
AcDbCircle
 10
67.59002972638853
 20
-4.060487253200406
 30
0.0
 40
0.0388106839919887
100
AcDbArc
 50
46.43616582623978
 51
130.628309502666
  0
ARC
  5
A5B
330
1F
100
AcDbEntity
  8
TEXT
100
AcDbCircle
 10
67.55075323030829
 20
-4.03521343368321
 30
0.0
 40
0.0146158742644252
100
AcDbArc
 50
163.375655046466
 51
16.62434495353051
  0
ARC
  5
A5C
330
1F
100
AcDbEntity
  8
TEXT
100
AcDbCircle
 10
67.49551359922361
 20
-4.144660605305304
 30
0.0
 40
0.1208792060706077
100
AcDbArc
 50
70.05468846035601
 51
100.2232656721041
  0
ARC
  5
A5D
330
1F
100
AcDbEntity
  8
TEXT
100
AcDbCircle
 10
67.46405589151317
 20
-4.090208443690315
 30
0.0
 40
0.0652789593552486
100
AcDbArc
 50
81.18509483549694
 51
120.03929138241
  0
ARC
  5
A5E
330
1F
100
AcDbEntity
  8
TEXT
100
AcDbCircle
 10
67.41549875185035
 20
-4.01954125851472
 30
0.0
 40
0.021273023392419
100
AcDbArc
 50
318.2823815987273
 51
84.36248438139951
  0
ARC
  5
A5F
330
1F
100
AcDbEntity
  8
TEXT
100
AcDbCircle
 10
67.31978709115097
 20
-4.114117788986916
 30
0.0
 40
0.0305931025250902
100
AcDbArc
 50
35.60679995345861
 51
177.5845513854531
  0
LINE
  5
A60
330
1F
100
AcDbEntity
  8
TEXT
100
AcDbLine
 10
67.34466025232794
 20
-4.096305889167197
 30
0.0
 11
67.34271503346571
 21
-4.1244914247482
 31
0.0
  0
LINE
  5
A61
330
1F
100
AcDbEntity
  8
TEXT
100
AcDbLine
 10
67.28922117050953
 20
-4.112828441307797
 30
0.0
 11
67.28824856107815
 21
-4.185722064610516
 31
0.0
  0
ARC
  5
A62
330
1F
100
AcDbEntity
  8
TEXT
100
AcDbCircle
 10
67.41169515384635
 20
-4.240691382385719
 30
0.0
 40
0.1351321100356082
100
AcDbArc
 50
120.6947626763565
 51
155.9971516553444
  0
ARC
  5
A63
330
1F
100
AcDbEntity
  8
TEXT
100
AcDbCircle
 10
67.36197696447394
 20
-4.203220864619609
 30
0.0
 40
0.0251421004004534
100
AcDbArc
 50
218.6904014524238
 51
353.6659411500762
  0
ARC
  5
A64
330
1F
100
AcDbEntity
  8
TEXT
100
AcDbCircle
 10
67.34808660383214
 20
-4.242454925126509
 30
0.0
 40
0.0242063564316216
100
AcDbArc
 50
103.7022990326948
 51
207.0193065629254
  0
ARC
  5
A65
330
1F
100
AcDbEntity
  8
TEXT
100
AcDbCircle
 10
67.70729124580615
 20
-4.442985279045515
 30
0.0
 40
0.4253328080527317
100
AcDbArc
 50
153.5374647244114
 51
193.3327646348701
  0
ARC
  5
A66
330
1F
100
AcDbEntity
  8
TEXT
100
AcDbCircle
 10
67.21137689101354
 20
-4.596436140872512
 30
0.0
 40
0.0989793222879928
100
AcDbArc
 50
346.9852122362369
 51
34.01252680042774
  0
ARC
  5
A67
330
1F
100
AcDbEntity
  8
TEXT
100
AcDbCircle
 10
67.29414929357261
 20
-4.661963764332
 30
0.0
 40
0.0453450343487554
100
AcDbArc
 50
345.4259909574664
 51
72.46181126870029
  0
ARC
  5
A68
330
1F
100
AcDbEntity
  8
TEXT
100
AcDbCircle
 10
67.34133089667617
 20
-4.759245613306205
 30
0.0
 40
0.0859348789800251
100
AcDbArc
 50
18.24878221232236
 51
92.19784172829085
  0
ARC
  5
A69
330
1F
100
AcDbEntity
  8
TEXT
100
AcDbCircle
 10
67.43331528342437
 20
-4.736940501282305
 30
0.0
 40
0.0113478351145246
100
AcDbArc
 50
156.0593073728623
 51
8.762281217119962
  0
ARC
  5
A6A
330
1F
100
AcDbEntity
  8
TEXT
100
AcDbCircle
 10
67.45779771253359
 20
-4.739933609066
 30
0.0
 40
0.0140822397522689
100
AcDbArc
 50
1.658272028068491
 51
160.4091839300748
  0
ARC
  5
A6B
330
1F
100
AcDbEntity
  8
TEXT
100
AcDbCircle
 10
67.51076648924621
 20
-4.712501741131902
 30
0.0
 40
0.0473596567490983
100
AcDbArc
 50
214.7934494581967
 51
299.0409507876105
  0
ARC
  5
A6C
330
1F
100
AcDbEntity
  8
TEXT
100
AcDbCircle
 10
67.56402255350036
 20
-4.725653264778301
 30
0.0
 40
0.0414041993530744
100
AcDbArc
 50
223.0305625061279
 51
311.2487591160725
  0
ARC
  5
A6D
330
1F
100
AcDbEntity
  8
TEXT
100
AcDbCircle
 10
67.61480188869305
 20
-4.750555460548909
 30
0.0
 40
0.0242921821141258
100
AcDbArc
 50
194.8546182240452
 51
330.4510994340788
  0
ARC
  5
A6E
330
1F
100
AcDbEntity
  8
TEXT
100
AcDbCircle
 10
67.6532040316194
 20
-4.82054801257091
 30
0.0
 40
0.0605283642044279
100
AcDbArc
 50
33.67851647490044
 51
106.5775508010123
  0
ARC
  5
A6F
330
1F
100
AcDbEntity
  8
TEXT
100
AcDbCircle
 10
67.72084296358801
 20
-4.751476346049912
 30
0.0
 40
0.0394837165390078
100
AcDbArc
 50
244.0629515517949
 51
24.32612031264391
  0
ARC
  5
A70
330
1F
100
AcDbEntity
  8
TEXT
100
AcDbCircle
 10
67.81235311398379
 20
-4.531746180544303
 30
0.0
 40
0.1027805697804442
100
AcDbArc
 50
300.6537348898138
 51
16.68245916375919
  0
ARC
  5
A71
330
1F
100
AcDbEntity
  8
TEXT
100
AcDbCircle
 10
67.61325424183877
 20
-4.421907473088012
 30
0.0
 40
0.3082070260753686
100
AcDbArc
 50
344.8914411173256
 51
24.57723374822019
  0
ARC
  5
A72
330
1F
100
AcDbEntity
  8
TEXT
100
AcDbCircle
 10
67.95488400061618
 20
-4.262722450611718
 30
0.0
 40
0.0687317033736608
100
AcDbArc
 50
155.9906329013478
 51
206.8057304576939
  0
ARC
  5
A73
330
1F
100
AcDbEntity
  8
TEXT
100
AcDbCircle
 10
67.88190108739829
 20
-4.235325516999125
 30
0.0
 40
0.0102138123940189
100
AcDbArc
 50
3.19372534848457
 51
193.0548754998599
  0
ARC
  5
A74
330
1F
100
AcDbEntity
  8
TEXT
100
AcDbCircle
 10
67.85827955479621
 20
-4.253074091935914
 30
0.0
 40
0.0206240992388143
100
AcDbArc
 50
131.5213803610231
 51
48.47861963898633
  0
ARC
  5
A75
330
1F
100
AcDbEntity
  8
TEXT
100
AcDbCircle
 10
67.78992802470694
 20
-4.208416435719115
 30
0.0
 40
0.0619957321343656
100
AcDbArc
 50
331.883766695981
 51
33.32508059324487
  0
ARC
  5
A76
330
1F
100
AcDbEntity
  8
TEXT
100
AcDbCircle
 10
67.82793645066391
 20
-4.178172719855623
 30
0.0
 40
0.0143113016618727
100
AcDbArc
 50
15.46471151433632
 51
237.0036058083551
  0
ARC
  5
A77
330
1F
100
AcDbEntity
  8
TEXT
100
AcDbCircle
 10
67.80067211588582
 20
-4.199218431890116
 30
0.0
 40
0.0214680118608069
100
AcDbArc
 50
124.599119475162
 51
24.91162951380384
  0
ARC
  5
A78
330
1F
100
AcDbEntity
  8
TEXT
100
AcDbCircle
 10
67.73927373691612
 20
-4.159103763843205
 30
0.0
 40
0.0540846530434769
100
AcDbArc
 50
335.482723053163
 51
36.54383594003283
  0
ARC
  5
A79
330
1F
100
AcDbEntity
  8
TEXT
100
AcDbCircle
 10
67.67070014399704
 20
-4.327538846629309
 30
0.0
 40
0.2297949550948067
100
AcDbArc
 50
60.82353397560631
 51
101.6183182656855
  0
LINE
  5
A7A
330
1F
100
AcDbEntity
  8
TEXT
100
AcDbLine
 10
67.62442148640317
 20
-4.102452180568519
 30
0.0
 11
67.62298236618391
 21
-4.157099616062311
 31
0.0
  0
ARC
  5
A7B
330
1F
100
AcDbEntity
  8
TEXT
100
AcDbCircle
 10
67.60178471571752
 20
-4.158137792693622
 30
0.0
 40
0.021223058120899
100
AcDbArc
 50
165.3922446503685
 51
2.803879044206374
  0
LINE
  5
A7C
330
1F
100
AcDbEntity
  8
TEXT
100
AcDbLine
 10
67.58124769205039
 20
-4.152785330186702
 30
0.0
 11
67.57836945161134
 21
-4.111080733759905
 31
0.0
  0
ARC
  5
A7D
330
1F
100
AcDbEntity
  8
TEXT
100
AcDbCircle
 10
67.55973805964541
 20
-4.12041446796212
 30
0.0
 40
0.0208386026582117
100
AcDbArc
 50
26.609411299397
 51
166.0619000058104
  0
LINE
  5
A7E
330
1F
100
AcDbEntity
  8
TEXT
100
AcDbLine
 10
67.53951301791676
 20
-4.11539500107591
 30
0.0
 11
67.53951301791676
 21
-4.134090165631306
 31
0.0
  0
ARC
  5
A7F
330
1F
100
AcDbEntity
  8
TEXT
100
AcDbCircle
 10
67.52301632310988
 20
-4.144457272723201
 30
0.0
 40
0.019483784257779
100
AcDbArc
 50
179.1163546128549
 51
32.14670843865839
  0
LINE
  5
A80
330
1F
100
AcDbEntity
  8
TEXT
100
AcDbLine
 10
67.50353485595582
 20
-4.14415679555492
 30
0.0
 11
67.50353485595582
 21
-4.213185128288415
 31
0.0
  0
ARC
  5
A81
330
1F
100
AcDbEntity
  8
TEXT
100
AcDbCircle
 10
67.47761985128187
 20
-4.213517561807719
 30
0.0
 40
0.0259171367879809
100
AcDbArc
 50
182.4450201076249
 51
0.7349407504797699
  0
LINE
  5
A82
330
1F
100
AcDbEntity
  8
TEXT
100
AcDbLine
 10
67.45172630899097
 20
-4.214623205020515
 30
0.0
 11
67.46323930204173
 21
-4.128337803023612
 31
0.0
  0
ARC
  5
A83
330
1F
100
AcDbEntity
  8
TEXT
100
AcDbCircle
 10
67.44982080350741
 20
-4.130252948698512
 30
0.0
 40
0.0135544784431422
100
AcDbArc
 50
8.122642540875256
 51
202.904313618346
  0
LINE
  5
A84
330
1F
100
AcDbEntity
  8
TEXT
100
AcDbLine
 10
67.43733501291217
 20
-4.135528260923109
 30
0.0
 11
67.43157853203396
 21
-4.180109047933697
 31
0.0
  0
ARC
  5
A85
330
1F
100
AcDbEntity
  8
TEXT
100
AcDbCircle
 10
67.41502857127319
 20
-4.179234565423499
 30
0.0
 40
0.0165730480253287
100
AcDbArc
 50
183.0246359049376
 51
356.9753640950624
  0
LINE
  5
A86
330
1F
100
AcDbEntity
  8
TEXT
100
AcDbLine
 10
67.39847861051214
 20
-4.180109047933697
 30
0.0
 11
67.38696558616635
 21
-4.205994670388705
 31
0.0
  0
LINE
  5
A87
330
1F
100
AcDbEntity
  8
TEXT
100
AcDbLine
 10
68.16511284147281
 20
-4.47474228454871
 30
0.0
 11
68.28662833985439
 21
-4.469999010680908
 31
0.0
  0
LINE
  5
A88
330
1F
100
AcDbEntity
  8
TEXT
100
AcDbLine
 10
68.37871428978022
 20
-4.47474228454871
 30
0.0
 11
68.50022978816159
 21
-4.469999010680908
 31
0.0
  0
LINE
  5
A89
330
1F
100
AcDbEntity
  8
TEXT
100
AcDbLine
 10
68.21447848921923
 20
-4.512688531169715
 30
0.0
 11
68.2163771727933
 21
-4.696727813362201
 31
0.0
  0
LINE
  5
A8A
330
1F
100
AcDbEntity
  8
TEXT
100
AcDbLine
 10
68.28662833985439
 20
-4.469999010680908
 30
0.0
 11
68.2885270234284
 21
-4.678703357817013
 31
0.0
  0
LINE
  5
A8B
330
1F
100
AcDbEntity
  8
TEXT
100
AcDbLine
 10
68.50022978816159
 20
-4.469999010680908
 30
0.0
 11
68.50212847173557
 21
-4.685343948655798
 31
0.0
  0
ARC
  5
A8C
330
1F
100
AcDbEntity
  8
TEXT
100
AcDbCircle
 10
68.19227169134478
 20
-4.512177825720698
 30
0.0
 40
0.0222126696255043
100
AcDbArc
 50
358.6825606331185
 51
106.4049357729542
  0
LINE
  5
A8D
330
1F
100
AcDbEntity
  8
TEXT
100
AcDbLine
 10
68.16511284147281
 20
-4.47474228454871
 30
0.0
 11
68.16606216761252
 21
-4.488023484785912
 31
0.0
  0
LINE
  5
A8E
330
1F
100
AcDbEntity
  8
TEXT
100
AcDbLine
 10
68.185998298198
 20
-4.490869441682619
 30
0.0
 11
68.16606216761252
 21
-4.488023484785912
 31
0.0
  0
LINE
  5
A8F
330
1F
100
AcDbEntity
  8
TEXT
100
AcDbLine
 10
68.37871428978022
 20
-4.47474228454871
 30
0.0
 11
68.37776496364043
 21
-4.492766758653615
 31
0.0
  0
LINE
  5
A90
330
1F
100
AcDbEntity
  8
TEXT
100
AcDbLine
 10
68.37776496364043
 20
-4.492766758653615
 30
0.0
 11
68.41194120538398
 21
-4.494664075624513
 31
0.0
  0
LINE
  5
A91
330
1F
100
AcDbEntity
  8
TEXT
100
AcDbLine
 10
68.43282666210902
 20
-4.694830496391304
 30
0.0
 11
68.43187733596934
 21
-4.513637189655213
 31
0.0
  0
ARC
  5
A92
330
1F
100
AcDbEntity
  8
TEXT
100
AcDbCircle
 10
68.41831011324337
 20
-4.507932472166629
 30
0.0
 40
0.0147177897158776
100
AcDbArc
 50
337.1943218370272
 51
115.6412778855144
  0
ARC
  5
A93
330
1F
100
AcDbEntity
  8
TEXT
100
AcDbCircle
 10
68.28943612993882
 20
-4.695760320795301
 30
0.0
 40
0.0730653629368009
100
AcDbArc
 50
180.7587023263156
 51
270.031539090741
  0
ARC
  5
A94
330
1F
100
AcDbEntity
  8
TEXT
100
AcDbCircle
 10
68.31831045470668
 20
-4.603621763872922
 30
0.0
 40
0.1677013330253736
100
AcDbArc
 50
260.0995263030862
 51
313.067387883247
  0
LINE
  5
A95
330
1F
100
AcDbEntity
  8
TEXT
100
AcDbLine
 10
68.43282666210902
 20
-4.726136152173694
 30
0.0
 11
68.4337760195433
 21
-4.762185081823702
 31
0.0
  0
ARC
  5
A96
330
1F
100
AcDbEntity
  8
TEXT
100
AcDbCircle
 10
68.44500182982173
 20
-4.757717652542709
 30
0.0
 40
0.0120820834620642
100
AcDbArc
 50
201.700602772434
 51
343.0678677067636
  0
ARC
  5
A97
330
1F
100
AcDbEntity
  8
TEXT
100
AcDbCircle
 10
68.54970935865935
 20
-4.978934771675312
 30
0.0
 40
0.2367896621663238
100
AcDbArc
 50
88.18956599987521
 51
113.1652090520224
  0
LINE
  5
A98
330
1F
100
AcDbEntity
  8
TEXT
100
AcDbLine
 10
68.61773398850679
 20
-4.364957772598415
 30
0.0
 11
68.62478453845364
 21
-4.730315546436912
 31
0.0
  0
LINE
  5
A99
330
1F
100
AcDbEntity
  8
TEXT
100
AcDbLine
 10
68.69427147057331
 20
-4.315628428718397
 30
0.0
 11
68.69629722804688
 21
-4.497815134779926
 31
0.0
  0
ARC
  5
A9A
330
1F
100
AcDbEntity
  8
TEXT
100
AcDbCircle
 10
68.5452611656774
 20
-3.884723858610129
 30
0.0
 40
0.4559416843250936
100
AcDbArc
 50
273.5403564160214
 51
289.075801678542
  0
LINE
  5
A9B
330
1F
100
AcDbEntity
  8
TEXT
100
AcDbLine
 10
68.57341627727922
 20
-4.339795401552308
 30
0.0
 11
68.57543072012129
 21
-4.361938282876209
 31
0.0
  0
LINE
  5
A9C
330
1F
100
AcDbEntity
  8
TEXT
100
AcDbLine
 10
68.57543072012129
 20
-4.361938282876209
 30
0.0
 11
68.61773398850679
 21
-4.364957772598415
 31
0.0
  0
LINE
  5
A9D
330
1F
100
AcDbEntity
  8
TEXT
100
AcDbLine
 10
68.69730441817296
 20
-4.535055464714915
 30
0.0
 11
68.69831163959403
 21
-4.708172646553407
 31
0.0
  0
ARC
  5
A9E
330
1F
100
AcDbEntity
  8
TEXT
100
AcDbCircle
 10
68.81487952696051
 20
-4.654538176436304
 30
0.0
 40
0.1965295738601858
100
AcDbArc
 50
71.07988584761975
 51
127.1124618564865
  0
ARC
  5
A9F
330
1F
100
AcDbEntity
  8
TEXT
100
AcDbCircle
 10
68.81502406747504
 20
-4.590101265414702
 30
0.0
 40
0.1371075361286845
100
AcDbArc
 50
359.8698564192901
 51
62.37231490188371
  0
ARC
  5
AA0
330
1F
100
AcDbEntity
  8
TEXT
100
AcDbCircle
 10
68.7595005516672
 20
-4.575806645095198
 30
0.0
 40
0.0743573649614326
100
AcDbArc
 50
78.87075864991579
 51
146.7670066549802
  0
ARC
  5
AA1
330
1F
100
AcDbEntity
  8
TEXT
100
AcDbCircle
 10
68.78197719252401
 20
-4.589047891038504
 30
0.0
 40
0.0865822445917264
100
AcDbArc
 50
21.58325850317263
 51
95.38396011116697
  0
ARC
  5
AA2
330
1F
100
AcDbEntity
  8
TEXT
100
AcDbCircle
 10
68.77519003540957
 20
-4.618640209562315
 30
0.0
 40
0.1067527339653108
100
AcDbArc
 50
343.5952529167624
 51
35.13836089167873
  0
ARC
  5
AA3
330
1F
100
AcDbEntity
  8
TEXT
100
AcDbCircle
 10
68.74070894831078
 20
-4.583563648553507
 30
0.0
 40
0.1870149414703838
100
AcDbArc
 50
231.6935697703414
 51
269.6626044169122
  0
ARC
  5
AA4
330
1F
100
AcDbEntity
  8
TEXT
100
AcDbCircle
 10
68.76009673124054
 20
-4.551106882835412
 30
0.0
 40
0.2204227936246722
100
AcDbArc
 50
264.6664639047648
 51
308.6423664458129
  0
ARC
  5
AA5
330
1F
100
AcDbEntity
  8
TEXT
100
AcDbCircle
 10
68.78583949737461
 20
-4.599897161665509
 30
0.0
 40
0.1665620066274168
100
AcDbArc
 50
312.208697425786
 51
3.264333629957775
  0
ARC
  5
AA6
330
1F
100
AcDbEntity
  8
TEXT
100
AcDbCircle
 10
67.1703276838904
 20
-4.875235824169209
 30
0.0
 40
0.0254399213638606
100
AcDbArc
 50
225.9317407160006
 51
327.3216812937221
  0
ARC
  5
AA7
330
1F
100
AcDbEntity
  8
TEXT
100
AcDbCircle
 10
67.46400416814291
 20
-4.950674222098911
 30
0.0
 40
0.0220548580163535
100
AcDbArc
 50
167.7181143692787
 51
23.98551077365533
  0
ARC
  5
AA8
330
1F
100
AcDbEntity
  8
TEXT
100
AcDbCircle
 10
67.57148974339301
 20
-4.923579229083912
 30
0.0
 40
0.0267377226208751
100
AcDbArc
 50
170.7272794785987
 51
21.15794103948668
  0
LINE
  5
AA9
330
1F
100
AcDbEntity
  8
TEXT
100
AcDbLine
 10
67.5964250495758
 20
-4.913928513228313
 30
0.0
 11
67.59428655435797
 21
-4.8743950258837
 31
0.0
  0
LINE
  5
AAA
330
1F
100
AcDbEntity
  8
TEXT
100
AcDbLine
 10
67.65095642726755
 20
-4.880805848125902
 30
0.0
 11
67.66164887206116
 21
-4.936366437474717
 31
0.0
  0
ARC
  5
AAB
330
1F
100
AcDbEntity
  8
TEXT
100
AcDbCircle
 10
67.67478783550498
 20
-4.938997294840504
 30
0.0
 40
0.0133997675676505
100
AcDbArc
 50
168.6772178130462
 51
20.8432182574363
  0
LINE
  5
AAC
330
1F
100
AcDbEntity
  8
TEXT
100
AcDbLine
 10
67.68731068949373
 20
-4.934229496727297
 30
0.0
 11
67.68731068949373
 21
-4.896832950130203
 31
0.0
  0
ARC
  5
AAD
330
1F
100
AcDbEntity
  8
TEXT
100
AcDbCircle
 10
67.7044108105629
 20
-4.898518519250416
 30
0.0
 40
0.0171829940300718
100
AcDbArc
 50
354.9255052590734
 51
174.3705062402905
  0
LINE
  5
AAE
330
1F
100
AcDbEntity
  8
TEXT
100
AcDbLine
 10
67.72152645650217
 20
-4.900038370531106
 30
0.0
 11
67.72580341564276
 21
-5.004748689867199
 31
0.0
  0
ARC
  5
AAF
330
1F
100
AcDbEntity
  8
TEXT
100
AcDbCircle
 10
67.74714414303758
 20
-5.002557143967621
 30
0.0
 40
0.0214529606157013
100
AcDbArc
 50
185.8633287467241
 51
2.70882780951028
  0
LINE
  5
AB0
330
1F
100
AcDbEntity
  8
TEXT
100
AcDbLine
 10
67.76857313222717
 20
-5.001543269466296
 30
0.0
 11
67.76001921394575
 21
-4.914996974322122
 31
0.0
  0
LINE
  5
AB1
330
1F
100
AcDbEntity
  8
TEXT
100
AcDbLine
 10
67.76001921394575
 20
-4.914996974322122
 30
0.0
 11
67.76964237983557
 21
-4.937434898568511
 31
0.0
  0
ARC
  5
AB2
330
1F
100
AcDbEntity
  8
TEXT
100
AcDbCircle
 10
67.783713387657
 20
-4.929729069855696
 30
0.0
 40
0.0160428506586113
100
AcDbArc
 50
208.7068196476633
 51
351.5282258973499
  0
LINE
  5
AB3
330
1F
100
AcDbEntity
  8
TEXT
100
AcDbLine
 10
67.79958118770378
 20
-4.932092537420302
 30
0.0
 11
67.79851194009509
 21
-4.916065453975704
 31
0.0
  0
ARC
  5
AB4
330
1F
100
AcDbEntity
  8
TEXT
100
AcDbCircle
 10
67.82010085693506
 20
-4.922189143214623
 30
0.0
 40
0.0224406082855181
100
AcDbArc
 50
7.472141028409409
 51
164.1640293291679
  0
LINE
  5
AB5
330
1F
100
AcDbEntity
  8
TEXT
100
AcDbLine
 10
67.84235090428822
 20
-4.919270874376422
 30
0.0
 11
67.85304331778679
 21
-5.007954091708427
 31
0.0
  0
ARC
  5
AB6
330
1F
100
AcDbEntity
  8
TEXT
100
AcDbCircle
 10
67.87390668987995
 20
-5.013294737115018
 30
0.0
 40
0.0215360810840735
100
AcDbArc
 50
165.6416373020916
 51
23.37981978602075
  0
LINE
  5
AB7
330
1F
100
AcDbEntity
  8
TEXT
100
AcDbLine
 10
67.89367453915335
 20
-5.004748689867199
 30
0.0
 11
67.89042423547138
 21
-4.925331847018497
 31
0.0
  0
ARC
  5
AB8
330
1F
100
AcDbEntity
  8
TEXT
100
AcDbCircle
 10
67.89653255634485
 20
-4.918742509816908
 30
0.0
 40
0.0089850402696247
100
AcDbArc
 50
60.02231951668139
 51
227.1694577924194
  0
LINE
  5
AB9
330
1F
100
AcDbEntity
  8
TEXT
100
AcDbLine
 10
67.90102204495122
 20
-4.91095948722291
 30
0.0
 11
67.93770236714277
 21
-4.916562500242903
 31
0.0
  0
ARC
  5
ABA
330
1F
100
AcDbEntity
  8
TEXT
100
AcDbCircle
 10
67.93491659171633
 20
-4.932588048189614
 30
0.0
 40
0.0162658762973286
100
AcDbArc
 50
327.1504341221702
 51
80.13862259361685
  0
LINE
  5
ABB
330
1F
100
AcDbEntity
  8
TEXT
100
AcDbLine
 10
67.94858151639477
 20
-4.941411231586499
 30
0.0
 11
67.95402110666805
 21
-5.09593939156791
 31
0.0
  0
LINE
  5
ABC
330
1F
100
AcDbEntity
  8
TEXT
100
AcDbLine
 10
67.99986900582758
 20
-5.092833283910309
 30
0.0
 11
68.00064608568177
 21
-4.935975571024997
 31
0.0
  0
ARC
  5
ABD
330
1F
100
AcDbEntity
  8
TEXT
100
AcDbCircle
 10
68.01287690468979
 20
-4.93488799997192
 30
0.0
 40
0.0122790775063351
100
AcDbArc
 50
32.94435831946183
 51
185.0814072168599
  0
ARC
  5
ABE
330
1F
100
AcDbEntity
  8
TEXT
100
AcDbCircle
 10
68.04800751974534
 20
-4.905069608000118
 30
0.0
 40
0.0339385462160546
100
AcDbArc
 50
222.9877626572334
 51
344.3358851615585
  0
ARC
  5
ABF
330
1F
100
AcDbEntity
  8
TEXT
100
AcDbCircle
 10
68.00083656961638
 20
-4.875772299855299
 30
0.0
 40
0.0146077050800437
100
AcDbArc
 50
193.9319034609791
 51
333.0378283509304
  0
ARC
  5
AC0
330
1F
100
AcDbEntity
  8
TEXT
100
AcDbCircle
 10
67.97409621568025
 20
-4.893677701199621
 30
0.0
 40
0.0191007083808739
100
AcDbArc
 50
48.87596376793528
 51
143.7953529790059
  0
ARC
  5
AC1
330
1F
100
AcDbEntity
  8
TEXT
100
AcDbCircle
 10
67.93758382137696
 20
-4.863166773699717
 30
0.0
 40
0.0285472227785874
100
AcDbArc
 50
218.2556843178653
 51
317.6564247238851
  0
ARC
  5
AC2
330
1F
100
AcDbEntity
  8
TEXT
100
AcDbCircle
 10
67.97712631262363
 20
-5.097061783973302
 30
0.0
 40
0.0231324513824082
100
AcDbArc
 50
177.2189023070876
 51
10.53261226457849
  0
LINE
  5
AC3
330
1F
100
AcDbEntity
  8
DIMENSION
100
AcDbLine
 10
61.18782221559939
 20
-5.888304598469005
 30
0.0
 11
61.18782221559939
 21
-8.205669236493505
 31
0.0
  0
TEXT
  5
AC4
330
1F
100
AcDbEntity
  8
TEXT
100
AcDbText
 10
25.48444405013809
 20
-8.055669236493509
 30
0.0
 40
0.3
  1
REVISIONS
 72
     1
 11
26.73444405013809
 21
-7.905669236493508
 31
0.0
100
AcDbText
 73
     2
  0
LWPOLYLINE
  5
AC5
330
1F
100
AcDbEntity
  8
BORDER
100
AcDbPolyline
 90
        4
 70
     1
 43
0.0
 10
19.1481940501377
 20
66.79433076350662
 10
76.14612799267502
 20
66.79433076350662
 10
76.14612799267502
 20
-8.205669236493505
 10
19.1481940501377
 20
-8.205669236493505
  0
TEXT
  5
AC6
330
1F
100
AcDbEntity
  8
TEXT
100
AcDbText
 10
56.27025139167578
 20
-7.924419236493505
 30
0.0
 40
0.1875
  1
ICE QUBE, INC.
 72
     1
 11
57.37962639167578
 21
-7.830669236493505
 31
0.0
100
AcDbText
 73
     2
  0
TEXT
  5
AC7
330
1F
100
AcDbEntity
  8
TEXT
100
AcDbText
 10
54.19212639167579
 20
-7.643169236493307
 30
0.0
 40
0.1875
  1
OR ALTERED WITHOUT AUTHORIZATION OF
 72
     1
 11
57.37962639167578
 21
-7.549419236493307
 31
0.0
100
AcDbText
 73
     2
  0
TEXT
  5
AC8
330
1F
100
AcDbEntity
  8
TEXT
100
AcDbText
 10
54.05150139167578
 20
-7.361919236493505
 30
0.0
 40
0.1875
  1
QUBE, INC. AND IS NOT TO BE DUPLICATED
 72
     1
 11
57.37962639167578
 21
-7.268169236493505
 31
0.0
100
AcDbText
 73
     2
  0
TEXT
  5
AC9
330
1F
100
AcDbEntity
  8
TEXT
100
AcDbText
 10
54.22337639167579
 20
-7.080669236493505
 30
0.0
 40
0.1875
  1
THIS DRAWING IS THE PROPERTY OF ICE
 72
     1
 11
57.37962639167578
 21
-6.986919236493505
 31
0.0
100
AcDbText
 73
     2
  0
TEXT
  5
ACA
330
1F
100
AcDbEntity
  8
TEXT
100
AcDbText
 10
53.94212639167578
 20
-6.705669236493505
 30
0.0
 40
0.375
  1
PROPRIETARY DRAWING
 72
     1
 11
57.37962639167578
 21
-6.518169236493505
 31
0.0
100
AcDbText
 73
     2
  0
LINE
  5
ACB
330
1F
100
AcDbEntity
  8
BORDER
100
AcDbLine
 10
61.18782221559939
 20
-8.205669236493505
 30
0.0
 11
53.57143056775222
 21
-8.205669236493505
 31
0.0
  0
LINE
  5
ACC
330
1F
100
AcDbEntity
  8
BORDER
100
AcDbLine
 10
61.18782221559939
 20
-8.205669236493505
 30
0.0
 11
61.18782221559939
 21
-6.143169236493307
 31
0.0
  0
LINE
  5
ACD
330
1F
100
AcDbEntity
  8
THERMOSTATCVR
100
AcDbLine
 10
61.18782221559939
 20
-5.888304598469005
 30
0.0
 11
53.64267185211301
 21
-5.888304598469005
 31
0.0
  0
LINE
  5
ACE
330
1F
100
AcDbEntity
  8
THERMOSTATCVR
100
AcDbLine
 10
53.64267185211301
 20
-5.888304598469005
 30
0.0
 11
53.64267185211301
 21
-8.205669236493505
 31
0.0
  0
TEXT
  5
ACF
330
1F
100
AcDbEntity
  8
TEXT
100
AcDbText
 10
68.56148002525017
 20
-5.96675231799962
 30
0.0
 40
0.75
  1
IQ4000VS
 72
     1
 11
71.24898002525018
 21
-5.59175231799962
 31
0.0
100
AcDbText
 73
     2
  0
TEXT
  5
AD0
330
1F
100
AcDbEntity
  8
TEXT
100
AcDbText
 10
69.51072510413718
 20
-6.520846319673509
 30
0.0
 40
0.375
  1
480-400VAC
 72
     1
 11
71.29197510413717
 21
-6.333346319673509
 31
0.0
100
AcDbText
 73
     2
  0
DIMENSION
  5
AD1
330
1F
100
AcDbEntity
  8
DIM
100
AcDbDimension
  2
*D148
 10
42.1918418689397
 20
8.406005740474839
 30
0.0
 11
64.71384186893946
 21
44.34100574047508
 31
0.0
 70
    38
 71
     5
 42
35.93500000000025
  3
Standard
100
AcDbOrdinateDimension
 13
57.59584186893938
 23
44.34100574047508
 33
0.0
 14
62.12384186893945
 24
44.34100574047508
 34
0.0
1001
ACAD
1000
DSTYLE
1002
{
1070
    43
1040
2.125
1070
    44
1040
1.0
1070
   140
1040
0.9999999999999998
1070
   141
1040
0.5
1002
}
  0
DIMENSION
  5
AD2
330
1F
100
AcDbEntity
  8
DIM
100
AcDbDimension
  2
*D147
 10
42.1918418689397
 20
8.406005740474839
 30
0.0
 11
64.54717520227278
 21
41.59100574047508
 31
0.0
 70
    38
 71
     5
 42
33.18500000000025
  3
Standard
100
AcDbOrdinateDimension
 13
57.02784186893939
 23
41.59100574047508
 33
0.0
 14
62.12384186893945
 24
41.59100574047508
 34
0.0
1001
ACAD
1000
DSTYLE
1002
{
1070
    43
1040
2.125
1070
    44
1040
1.0
1070
   140
1040
0.9999999999999998
1070
   141
1040
0.5
1002
}
  0
DIMENSION
  5
AD3
330
1F
100
AcDbEntity
  8
DIM
100
AcDbDimension
  2
*D146
 10
42.1918418689397
 20
8.406005740474839
 30
0.0
 11
64.54717520227278
 21
39.84100574047502
 31
0.0
 70
    38
 71
     5
 42
31.43500000000018
  3
Standard
100
AcDbOrdinateDimension
 13
57.02784186893939
 23
39.84100574047502
 33
0.0
 14
62.12384186893945
 24
39.84100574047502
 34
0.0
1001
ACAD
1000
DSTYLE
1002
{
1070
    43
1040
2.125
1070
    44
1040
1.0
1070
   140
1040
0.9999999999999998
1070
   141
1040
0.5
1002
}
  0
DIMENSION
  5
AD4
330
1F
100
AcDbEntity
  8
DIM
100
AcDbDimension
  2
*D145
 10
42.1918418689397
 20
8.406005740474839
 30
0.0
 11
64.63050853560611
 21
38.40350574047501
 31
0.0
 70
    38
 71
     5
 42
30.68500000000025
  3
Standard
100
AcDbOrdinateDimension
 13
57.59584186893938
 23
39.09100574047509
 33
0.0
 14
62.12384186893945
 24
38.40350574047501
 34
0.0
1001
ACAD
1000
DSTYLE
1002
{
1070
    43
1040
2.125
1070
    44
1040
1.0
1070
   140
1040
0.9999999999999998
1070
   141
1040
0.5
1002
}
  0
DIMENSION
  5
AD5
330
1F
100
AcDbEntity
  8
DIM
100
AcDbDimension
  2
*D144
 10
42.1918418689397
 20
8.406005740474839
 30
0.0
 11
64.63050853560611
 21
36.96600574047507
 31
0.0
 70
    38
 71
     5
 42
28.56000000000023
  3
Standard
100
AcDbOrdinateDimension
 13
56.7828418689395
 23
36.96600574047507
 33
0.0
 14
62.12384186893945
 24
36.96600574047507
 34
0.0
1001
ACAD
1000
DSTYLE
1002
{
1070
    43
1040
2.125
1070
    44
1040
1.0
1070
   140
1040
0.9999999999999998
1070
   141
1040
0.5
1002
}
  0
DIMENSION
  5
AD6
330
1F
100
AcDbEntity
  8
DIM
100
AcDbDimension
  2
*D143
 10
42.1918418689397
 20
8.406005740474839
 30
0.0
 11
64.73424598890948
 21
33.67528430677744
 31
0.0
 70
    38
 71
     5
 42
27.06000000000023
  3
Standard
100
AcDbOrdinateDimension
 13
56.7828418689395
 23
35.46600574047507
 33
0.0
 14
62.31091265557615
 24
33.67528430677744
 34
0.0
1001
ACAD
1000
DSTYLE
1002
{
1070
    43
1040
2.125
1070
    44
1040
1.0
1070
   140
1040
0.9999999999999998
1070
   141
1040
0.5
1002
}
  0
DIMENSION
  5
AD7
330
1F
100
AcDbEntity
  8
DIM
100
AcDbDimension
  2
*D142
 10
42.1918418689397
 20
8.406005740474839
 30
0.0
 11
64.47700621721944
 21
28.46600574047507
 31
0.0
 70
    38
 71
     5
 42
20.06000000000023
  3
Standard
100
AcDbOrdinateDimension
 13
57.59584186893938
 23
28.46600574047507
 33
0.0
 14
62.13700621721944
 24
28.46600574047507
 34
0.0
1001
ACAD
1000
DSTYLE
1002
{
1070
    43
1040
2.125
1070
    44
1040
1.0
1070
   140
1040
0.9999999999999998
1070
   141
1040
0.5
1002
}
  0
DIMENSION
  5
AD8
330
1F
100
AcDbEntity
  8
DIM
100
AcDbDimension
  2
*D141
 10
42.1918418689397
 20
8.406005740474839
 30
0.0
 11
35.68517520227272
 21
47.82600574047538
 31
0.0
 70
    38
 71
     5
 42
39.42000000000055
  3
Standard
100
AcDbOrdinateDimension
 13
43.81984186893908
 23
47.82600574047538
 33
0.0
 14
38.19184186893938
 24
47.82600574047538
 34
0.0
1001
ACAD
1000
DSTYLE
1002
{
1070
    43
1040
2.125
1070
    44
1040
1.0
1070
   140
1040
0.9999999999999998
1070
   141
1040
0.5
1002
}
  0
DIMENSION
  5
AD9
330
1F
100
AcDbEntity
  8
DIM
100
AcDbDimension
  2
*D140
 10
42.1918418689397
 20
8.406005740474839
 30
0.0
 11
35.60184186893939
 21
44.99100574047534
 31
0.0
 70
    38
 71
     5
 42
36.5850000000005
  3
Standard
100
AcDbOrdinateDimension
 13
43.81984186893908
 23
44.99100574047534
 33
0.0
 14
38.19184186893938
 24
44.99100574047534
 34
0.0
1001
ACAD
1000
DSTYLE
1002
{
1070
    43
1040
2.125
1070
    44
1040
1.0
1070
   140
1040
0.9999999999999998
1070
   141
1040
0.5
1002
}
  0
DIMENSION
  5
ADA
330
1F
100
AcDbEntity
  8
DIM
100
AcDbDimension
  2
*D139
 10
42.1918418689397
 20
8.406005740474839
 30
0.0
 11
35.68517520227272
 21
27.65490556358208
 31
0.0
 70
   166
 71
     5
 42
20.93500000000023
  3
Standard
100
AcDbOrdinateDimension
 13
46.28284186893949
 23
29.34100574047507
 33
0.0
 14
38.19184186893938
 24
27.65490556358208
 34
0.0
1001
ACAD
1000
DSTYLE
1002
{
1070
    43
1040
2.125
1070
    44
1040
1.0
1070
   140
1040
0.9999999999999998
1070
   141
1040
0.5
1002
}
  0
DIMENSION
  5
ADB
330
1F
100
AcDbEntity
  8
DIM
100
AcDbDimension
  2
*D138
 10
42.1918418689397
 20
8.406005740474839
 30
0.0
 11
35.76850853560611
 21
22.34100574047507
 31
0.0
 70
    38
 71
     5
 42
13.93500000000023
  3
Standard
100
AcDbOrdinateDimension
 13
46.28284186893949
 23
22.34100574047507
 33
0.0
 14
38.19184186893944
 24
22.34100574047507
 34
0.0
1001
ACAD
1000
DSTYLE
1002
{
1070
    43
1040
2.125
1070
    44
1040
1.0
1070
   140
1040
0.9999999999999998
1070
   141
1040
0.5
1002
}
  0
DIMENSION
  5
ADC
330
1F
100
AcDbEntity
  8
DIM
100
AcDbDimension
  2
*D137
 10
42.1918418689397
 20
8.406005740474839
 30
0.0
 11
35.76541293197342
 21
15.34100574047509
 31
0.0
 70
   166
 71
     5
 42
6.935000000000258
  3
Standard
100
AcDbOrdinateDimension
 13
42.7198418689394
 23
15.34100574047509
 33
0.0
 14
37.85541293197341
 24
15.34100574047509
 34
0.0
1001
ACAD
1000
DSTYLE
1002
{
1070
    43
1040
2.125
1070
    44
1040
1.0
1070
   140
1040
0.9999999999999998
1070
   141
1040
0.5
1002
}
  0
DIMENSION
  5
ADD
330
1F
100
AcDbEntity
  8
DIM
100
AcDbDimension
  2
*D136
 10
42.1918418689397
 20
8.406005740474839
 30
0.0
 11
36.54158706407077
 21
8.406005740474839
 31
0.0
 70
    38
 71
     5
 42
0.0
  3
Standard
100
AcDbOrdinateDimension
 13
42.1918418689397
 23
8.406005740474839
 33
0.0
 14
38.29825373073744
 24
8.406005740474839
 34
0.0
1001
ACAD
1000
DSTYLE
1002
{
1070
    43
1040
2.125
1070
    44
1040
1.0
1070
   140
1040
0.9999999999999998
1070
   141
1040
0.5
1002
}
  0
MTEXT
  5
ADE
102
{ACAD_REACTORS
330
ADF
102
}
330
1F
100
AcDbEntity
  8
DIM
100
AcDbMText
 10
37.69184186893939
 20
24.33931415431831
 30
0.0
 40
0.9999999999999998
 41
0.0
 71
     9
 72
     1
  1
%%C0.375 (10)
 73
     1
 44
1.0
1001
ACAD
1000
MTEXTBEGIN
1070
    73
1070
     1
1070
    44
1040
1.0
1070
    74
1070
     0
1000
MTEXTEND
  0
LEADER
  5
ADF
330
1F
100
AcDbEntity
  8
DIM
100
AcDbLeader
  3
Standard
 73
     0
 40
0.9999999999999998
 41
8.666666666666664
 76
     3
 10
45.79880996546271
 20
28.49047940594223
 30
0.0
 10
43.72094312595738
 20
24.8393141543183
 30
0.0
 10
38.19184186893938
 20
24.8393141543183
 30
0.0
340
ADE
213
0.0
223
0.5
233
0.0
1001
ACAD
1000
DSTYLE
1002
{
1070
    77
1070
     0
1070
    41
1040
1.0
1070
    42
1040
0.375
1070
    43
1040
2.125
1070
    44
1040
1.0
1070
   140
1040
0.9999999999999998
1070
   141
1040
0.5
1070
   147
1040
0.5
1070
   271
1070
     3
1070
   272
1070
     3
1070
   288
1070
     1
1002
}
  0
DIMENSION
  5
AE0
330
1F
100
AcDbEntity
  8
DIM
100
AcDbDimension
  2
*D135
 10
42.19185507524078
 20
12.46603380928397
 30
0.0
 11
52.81171855506954
 21
2.984233026583694
 31
0.0
 70
   230
 71
     5
 42
11.84098679369871
  3
Standard
100
AcDbOrdinateDimension
 13
54.0328418689395
 23
22.34100574047507
 33
0.0
 14
52.81171855506954
 24
5.484233026583686
 34
0.0
1001
ACAD
1000
DSTYLE
1002
{
1070
    41
1040
1.0
1070
    42
1040
0.375
1070
    43
1040
2.125
1070
    44
1040
1.0
1070
   140
1040
0.9999999999999998
1070
   141
1040
0.5
1070
   147
1040
0.5
1070
   271
1070
     3
1070
   272
1070
     3
1070
   288
1070
     1
1002
}
  0
DIMENSION
  5
AE1
330
1F
100
AcDbEntity
  8
DIM
100
AcDbDimension
  2
*D134
 10
42.19185507524078
 20
12.46603380928397
 30
0.0
 11
46.28284186893947
 21
2.279564437205195
 31
0.0
 70
   230
 71
     5
 42
4.090986793698711
  3
Standard
100
AcDbOrdinateDimension
 13
46.28284186893949
 23
22.34100574047507
 33
0.0
 14
46.28284186893947
 24
4.529564437205186
 34
0.0
1001
ACAD
1000
DSTYLE
1002
{
1070
    41
1040
1.0
1070
    42
1040
0.375
1070
    43
1040
2.125
1070
    44
1040
1.0
1070
   140
1040
0.9999999999999998
1070
   141
1040
0.5
1070
   147
1040
0.5
1070
   271
1070
     3
1070
   272
1070
     3
1070
   288
1070
     1
1002
}
  0
DIMENSION
  5
AE2
330
1F
100
AcDbEntity
  8
DIM
100
AcDbDimension
  2
*D133
 10
42.19185507524078
 20
12.46603380928397
 30
0.0
 11
43.71984186893937
 21
2.720919329447013
 31
0.0
 70
   230
 71
     5
 42
0.5279867936986165
  3
Standard
100
AcDbOrdinateDimension
 13
42.7198418689394
 23
15.34100574047509
 33
0.0
 14
43.71984186893937
 24
5.137585996113673
 34
0.0
1001
ACAD
1000
DSTYLE
1002
{
1070
    41
1040
1.0
1070
    42
1040
0.375
1070
    43
1040
2.125
1070
    44
1040
1.0
1070
   140
1040
0.9999999999999998
1070
   141
1040
0.5
1070
   147
1040
0.5
1070
   271
1070
     3
1070
   272
1070
     3
1070
   288
1070
     1
1002
}
  0
DIMENSION
  5
AE3
330
1F
100
AcDbEntity
  8
DIM
100
AcDbDimension
  2
*D132
 10
42.19184186893944
 20
8.4660057404745
 30
0.0
 11
58.62053756417572
 21
3.024970504574014
 31
0.0
 70
   230
 71
     5
 42
15.40399999999994
  3
Standard
100
AcDbOrdinateDimension
 13
57.59584186893938
 23
15.34100574047509
 33
0.0
 14
58.62053756417572
 24
5.774970504574003
 34
0.0
1001
ACAD
1000
DSTYLE
1002
{
1070
    41
1040
1.0
1070
    42
1040
0.375
1070
    43
1040
2.125
1070
    44
1040
1.0
1070
   140
1040
0.9999999999999998
1070
   141
1040
0.5
1070
   147
1040
0.5
1070
   271
1070
     3
1070
   272
1070
     3
1070
   288
1070
     1
1002
}
  0
DIMENSION
  5
AE4
330
1F
100
AcDbEntity
  8
DIM
100
AcDbDimension
  2
*D131
 10
42.19185507524078
 20
10.96603380928395
 30
0.0
 11
55.81434186893943
 21
27.79933907380841
 31
0.0
 70
   102
 71
     5
 42
14.59098679369871
  3
Standard
100
AcDbOrdinateDimension
 13
56.7828418689395
 23
35.46600574047507
 33
0.0
 14
55.81434186893944
 24
30.46600574047507
 34
0.0
1001
ACAD
1000
DSTYLE
1002
{
1070
    41
1040
1.0
1070
    42
1040
0.375
1070
    43
1040
2.125
1070
    44
1040
1.0
1070
   140
1040
0.9999999999999998
1070
   141
1040
0.5
1070
   147
1040
0.5
1070
   271
1070
     3
1070
   272
1070
     3
1070
   288
1070
     1
1002
}
  0
DIMENSION
  5
AE5
330
1F
100
AcDbEntity
  8
DIM
100
AcDbDimension
  2
*D130
 10
42.19185507524078
 20
12.46603380928397
 30
0.0
 11
52.19384186893933
 21
55.01533907380832
 31
0.0
 70
   102
 71
     5
 42
10.00198679369856
  3
Standard
100
AcDbOrdinateDimension
 13
52.19384186893935
 23
47.82600574047526
 33
0.0
 14
52.19384186893935
 24
52.43200574047497
 34
0.0
1001
ACAD
1000
DSTYLE
1002
{
1070
    41
1040
1.0
1070
    42
1040
0.375
1070
    43
1040
2.125
1070
    44
1040
1.0
1070
   140
1040
0.9999999999999998
1070
   141
1040
0.5
1070
   147
1040
0.5
1070
   271
1070
     3
1070
   272
1070
     3
1070
   288
1070
     1
1002
}
  0
DIMENSION
  5
AE6
330
1F
100
AcDbEntity
  8
DIM
100
AcDbDimension
  2
*D129
 10
42.19185507524078
 20
12.46603380928397
 30
0.0
 11
56.63984186893945
 21
55.26533907380832
 31
0.0
 70
   102
 71
     5
 42
14.44798679369868
  3
Standard
100
AcDbOrdinateDimension
 13
56.63984186893947
 23
47.8260057404752
 33
0.0
 14
56.63984186893947
 24
52.43200574047497
 34
0.0
1001
ACAD
1000
DSTYLE
1002
{
1070
    41
1040
1.0
1070
    42
1040
0.375
1070
    43
1040
2.125
1070
    44
1040
1.0
1070
   140
1040
0.9999999999999998
1070
   141
1040
0.5
1070
   147
1040
0.5
1070
   271
1070
     3
1070
   272
1070
     3
1070
   288
1070
     1
1002
}
  0
DIMENSION
  5
AE7
330
1F
100
AcDbEntity
  8
DIM
100
AcDbDimension
  2
*D128
 10
42.19185507524078
 20
12.46603380928397
 30
0.0
 11
58.02784186893938
 21
55.26533907380831
 31
0.0
 70
   102
 71
     5
 42
14.83598679369861
  3
Standard
100
AcDbOrdinateDimension
 13
57.02784186893939
 23
41.59100574047508
 33
0.0
 14
58.0278418689394
 24
52.43200574047497
 34
0.0
1001
ACAD
1000
DSTYLE
1002
{
1070
    41
1040
1.0
1070
    42
1040
0.375
1070
    43
1040
2.125
1070
    44
1040
1.0
1070
   140
1040
0.9999999999999998
1070
   141
1040
0.5
1070
   147
1040
0.5
1070
   271
1070
     3
1070
   272
1070
     3
1070
   288
1070
     1
1002
}
  0
DIMENSION
  5
AE8
330
1F
100
AcDbEntity
  8
DIM
100
AcDbDimension
  2
*D127
 10
42.19185507524078
 20
12.46603380928397
 30
0.0
 11
48.26584186893921
 21
54.84867240714165
 31
0.0
 70
   102
 71
     5
 42
6.073986793698438
  3
Standard
100
AcDbOrdinateDimension
 13
48.26584186893922
 23
47.82600574047532
 33
0.0
 14
48.26584186893922
 24
52.43200574047497
 34
0.0
1001
ACAD
1000
DSTYLE
1002
{
1070
    41
1040
1.0
1070
    42
1040
0.375
1070
    43
1040
2.125
1070
    44
1040
1.0
1070
   140
1040
0.9999999999999998
1070
   141
1040
0.5
1070
   147
1040
0.5
1070
   271
1070
     3
1070
   272
1070
     3
1070
   288
1070
     1
1002
}
  0
DIMENSION
  5
AE9
330
1F
100
AcDbEntity
  8
DIM
100
AcDbDimension
  2
*D126
 10
42.19185507524078
 20
12.46603380928397
 30
0.0
 11
43.81984186893906
 21
54.76533907380831
 31
0.0
 70
   102
 71
     5
 42
1.627986793698291
  3
Standard
100
AcDbOrdinateDimension
 13
43.81984186893908
 23
47.82600574047538
 33
0.0
 14
43.81984186893908
 24
52.43200574047497
 34
0.0
1001
ACAD
1000
DSTYLE
1002
{
1070
    41
1040
1.0
1070
    42
1040
0.375
1070
    43
1040
2.125
1070
    44
1040
1.0
1070
   140
1040
0.9999999999999998
1070
   141
1040
0.5
1070
   147
1040
0.5
1070
   271
1070
     3
1070
   272
1070
     3
1070
   288
1070
     1
1002
}
  0
DIMENSION
  5
AEA
330
1F
100
AcDbEntity
  8
DIM
100
AcDbDimension
  2
*D125
 10
42.19185507524078
 20
12.46603380928397
 30
0.0
 11
42.27784186893931
 21
54.68200574047497
 31
0.0
 70
   102
 71
     5
 42
1.085986793698538
  3
Standard
100
AcDbOrdinateDimension
 13
43.27784186893932
 23
41.59100574047513
 33
0.0
 14
42.27784186893932
 24
52.43200574047497
 34
0.0
1001
ACAD
1000
DSTYLE
1002
{
1070
    41
1040
1.0
1070
    42
1040
0.375
1070
    43
1040
2.125
1070
    44
1040
1.0
1070
   140
1040
0.9999999999999998
1070
   141
1040
0.5
1070
   147
1040
0.5
1070
   271
1070
     3
1070
   272
1070
     3
1070
   288
1070
     1
1002
}
  0
DIMENSION
  5
AEB
330
1F
100
AcDbEntity
  8
DIM
100
AcDbDimension
  2
*D124
 10
42.19184186893944
 20
8.4660057404745
 30
0.0
 11
42.19184186893941
 21
2.475722403813492
 31
0.0
 70
   230
 71
     5
 42
0.0
  3
Standard
100
AcDbOrdinateDimension
 13
42.19184186893944
 23
8.4660057404745
 33
0.0
 14
42.19184186893941
 24
4.642389070480151
 34
0.0
1001
ACAD
1000
DSTYLE
1002
{
1070
    41
1040
1.0
1070
    42
1040
0.375
1070
    43
1040
2.125
1070
    44
1040
1.0
1070
   140
1040
0.9999999999999998
1070
   141
1040
0.5
1070
   147
1040
0.5
1070
   271
1070
     3
1070
   272
1070
     3
1070
   288
1070
     1
1002
}
  0
LINE
  5
AEC
330
1F
100
AcDbEntity
  8
TEMPLATE
100
AcDbLine
 10
58.53376937657721
 20
13.15350574047509
 30
0.0
 11
58.53376937657721
 21
12.77850574047505
 31
0.0
  0
LINE
  5
AED
330
1F
100
AcDbEntity
  8
TEMPLATE
100
AcDbLine
 10
58.1238418689394
 20
12.77850574047505
 30
0.0
 11
58.53376937657721
 21
12.77850574047505
 31
0.0
  0
LINE
  5
AEE
330
1F
100
AcDbEntity
  8
TEMPLATE
100
AcDbLine
 10
58.1238418689394
 20
13.15350574047509
 30
0.0
 11
58.53376937657721
 21
13.15350574047509
 31
0.0
  0
LINE
  5
AEF
330
1F
100
AcDbEntity
  8
TEMPLATE
100
AcDbLine
 10
58.53376937657721
 20
13.15350574047509
 30
0.0
 11
58.53376937657721
 21
12.77850574047505
 31
0.0
  0
LINE
  5
AF0
330
1F
100
AcDbEntity
  8
TEMPLATE
100
AcDbLine
 10
58.12384186893935
 20
12.77850574047505
 30
0.0
 11
58.53376937657721
 21
12.77850574047505
 31
0.0
  0
LINE
  5
AF1
330
1F
100
AcDbEntity
  8
TEMPLATE
100
AcDbLine
 10
58.12384186893935
 20
13.15350574047504
 30
0.0
 11
58.53376937657721
 21
13.15350574047509
 31
0.0
  0
LINE
  5
AF2
330
1F
100
AcDbEntity
  8
TEMPLATE
100
AcDbLine
 10
56.63984186893947
 20
47.8260057404752
 30
0.0
 11
52.19384186893935
 21
47.82600574047525
 31
0.0
  0
LINE
  5
AF3
330
1F
100
AcDbEntity
  8
TEMPLATE
100
AcDbLine
 10
56.63984186893947
 20
47.8260057404752
 30
0.0
 11
56.63984186893947
 21
44.99100574047505
 31
0.0
  0
LINE
  5
AF4
330
1F
100
AcDbEntity
  8
TEMPLATE
100
AcDbLine
 10
52.19384186893935
 20
44.99100574047521
 30
0.0
 11
56.63984186893947
 21
44.99100574047505
 31
0.0
  0
LINE
  5
AF5
330
1F
100
AcDbEntity
  8
TEMPLATE
100
AcDbLine
 10
52.19384186893935
 20
44.99100574047521
 30
0.0
 11
52.19384186893935
 21
47.82600574047525
 31
0.0
  0
LINE
  5
AF6
330
1F
100
AcDbEntity
  8
TEMPLATE
100
AcDbLine
 10
43.81984186893908
 20
44.99100574047533
 30
0.0
 11
43.81984186893908
 21
47.82600574047539
 31
0.0
  0
LINE
  5
AF7
330
1F
100
AcDbEntity
  8
TEMPLATE
100
AcDbLine
 10
43.81984186893908
 20
44.99100574047533
 30
0.0
 11
48.26584186893922
 21
44.99100574047516
 31
0.0
  0
LINE
  5
AF8
330
1F
100
AcDbEntity
  8
TEMPLATE
100
AcDbLine
 10
48.26584186893922
 20
47.82600574047532
 30
0.0
 11
48.26584186893922
 21
44.99100574047516
 31
0.0
  0
LINE
  5
AF9
330
1F
100
AcDbEntity
  8
TEMPLATE
100
AcDbLine
 10
48.26584186893922
 20
47.82600574047532
 30
0.0
 11
43.81984186893908
 21
47.82600574047539
 31
0.0
  0
LINE
  5
AFA
330
1F
100
AcDbEntity
  8
TEMPLATE
100
AcDbLine
 10
43.27784186893932
 20
41.59100574047513
 30
0.0
 11
57.02784186893939
 21
41.59100574047508
 31
0.0
  0
LINE
  5
AFB
330
1F
100
AcDbEntity
  8
TEMPLATE
100
AcDbLine
 10
57.02784186893939
 20
39.84100574047501
 30
0.0
 11
57.02784186893939
 21
41.59100574047508
 31
0.0
  0
LINE
  5
AFC
330
1F
100
AcDbEntity
  8
TEMPLATE
100
AcDbLine
 10
57.02784186893939
 20
39.84100574047501
 30
0.0
 11
43.27784186893939
 21
39.84100574047508
 31
0.0
  0
LINE
  5
AFD
330
1F
100
AcDbEntity
  8
TEMPLATE
100
AcDbLine
 10
43.27784186893932
 20
41.59100574047513
 30
0.0
 11
43.27784186893939
 21
39.84100574047508
 31
0.0
  0
CIRCLE
  5
AFE
330
1F
100
AcDbEntity
  8
TEMPLATE
100
AcDbCircle
 10
57.59584186893938
 20
44.34100574047508
 30
0.0
 40
0.1875
  0
CIRCLE
  5
AFF
330
1F
100
AcDbEntity
  8
TEMPLATE
100
AcDbCircle
 10
42.7198418689394
 20
44.34100574047508
 30
0.0
 40
0.1875
  0
CIRCLE
  5
B00
330
1F
100
AcDbEntity
  8
TEMPLATE
100
AcDbCircle
 10
57.59584186893938
 20
39.09100574047509
 30
0.0
 40
0.1875
  0
LINE
  5
B01
330
1F
100
AcDbEntity
  8
TEMPLATE
  6
DOT2
100
AcDbLine
 10
42.19184186893938
 20
48.43200574047497
 30
0.0
 11
58.12384186893945
 21
48.43200574047497
 31
0.0
  0
LINE
  5
B02
330
1F
100
AcDbEntity
  8
TEMPLATE
  6
DOT2
100
AcDbLine
 10
58.1238418689394
 20
12.4660057404746
 30
0.0
 11
58.12384186893945
 21
48.43200574047497
 31
0.0
  0
LINE
  5
B03
330
1F
100
AcDbEntity
  8
TEMPLATE
  6
DOT2
100
AcDbLine
 10
42.19184186893938
 20
48.43200574047497
 30
0.0
 11
42.19184186893944
 21
12.4660057404745
 31
0.0
  0
CIRCLE
  5
B04
330
1F
100
AcDbEntity
  8
TEMPLATE
100
AcDbCircle
 10
56.7828418689395
 20
36.96600574047507
 30
0.0
 40
0.625
  0
CIRCLE
  5
B05
330
1F
100
AcDbEntity
  8
TEMPLATE
100
AcDbCircle
 10
57.59584186893938
 20
28.46600574047507
 30
0.0
 40
0.1875
  0
CIRCLE
  5
B06
330
1F
100
AcDbEntity
  8
TEMPLATE
100
AcDbCircle
 10
54.0328418689395
 20
29.34100574047507
 30
0.0
 40
0.1875
  0
CIRCLE
  5
B07
330
1F
100
AcDbEntity
  8
TEMPLATE
100
AcDbCircle
 10
57.59584186893938
 20
15.34100574047509
 30
0.0
 40
0.1875
  0
CIRCLE
  5
B08
330
1F
100
AcDbEntity
  8
TEMPLATE
100
AcDbCircle
 10
42.7198418689394
 20
15.34100574047509
 30
0.0
 40
0.1875
  0
CIRCLE
  5
B09
330
1F
100
AcDbEntity
  8
TEMPLATE
100
AcDbCircle
 10
54.0328418689395
 20
22.34100574047507
 30
0.0
 40
0.1875
  0
CIRCLE
  5
B0A
330
1F
100
AcDbEntity
  8
TEMPLATE
100
AcDbCircle
 10
46.28284186893949
 20
29.34100574047507
 30
0.0
 40
0.1875
  0
CIRCLE
  5
B0B
330
1F
100
AcDbEntity
  8
TEMPLATE
100
AcDbCircle
 10
46.28284186893949
 20
22.34100574047507
 30
0.0
 40
0.1875
  0
CIRCLE
  5
B0C
102
{ACAD_REACTORS
330
DED
102
}
330
1F
100
AcDbEntity
  8
TEMPLATE
100
AcDbCircle
 10
56.7828418689395
 20
35.46600574047507
 30
0.0
 40
0.625
  0
LEADER
  5
B10
330
1F
100
AcDbEntity
  8
DIM
100
AcDbLeader
  3
Standard
 73
     0
 74
     0
 75
     1
 40
2.666666666666666
 41
13.83333333333333
 76
     3
 10
57.67252917428672
 20
36.54826637511123
 30
0.0
 10
60.54541260464075
 20
35.39185630274353
 30
0.0
 10
61.54541260464075
 20
35.39185630274353
 30
0.0
340
B11
213
0.0
223
-0.5
233
0.0
1001
ACAD
1000
DSTYLE
1002
{
1070
    43
1040
2.125
1070
    44
1040
1.0
1070
   140
1040
0.9999999999999998
1070
   141
1040
0.5
1002
}
  0
MTEXT
  5
B11
102
{ACAD_REACTORS
330
B10
102
}
330
1F
100
AcDbEntity
  8
DIM
100
AcDbMText
 10
61.63541260464075
 20
35.89185630274354
 30
0.0
 40
1.0
 41
0.0
 71
     1
 72
     1
  1
%%c1.250 (1) POWER \P          CORD
 73
     1
 44
1.0
1001
ACAD
1000
MTEXTBEGIN
1070
    73
1070
     1
1070
    44
1040
1.0
1070
    74
1070
     0
1000
MTEXTEND
  0
DIMENSION
  5
B12
330
1F
100
AcDbEntity
  8
DIM
100
AcDbDimension
  2
*D123
 10
42.19185507524078
 20
12.46603380928397
 30
0.0
 11
36.28641941888453
 21
41.64612568743189
 31
0.0
 70
   166
 71
     5
 42
25.2499719311911
  3
Standard
100
AcDbOrdinateDimension
 13
54.2828418689395
 23
37.71600574047507
 33
0.0
 14
38.7930860855512
 24
41.64612568743189
 34
0.0
1001
ACAD
1000
DSTYLE
1002
{
1070
    43
1040
2.125
1070
    44
1040
1.0
1070
   140
1040
0.9999999999999998
1070
   141
1040
0.5
1002
}
  0
DIMENSION
  5
B15
330
1F
100
AcDbEntity
  8
DIM
100
AcDbDimension
  2
*D122
 10
42.19185507524078
 20
12.46603380928397
 30
0.0
 11
49.91855152022271
 21
27.09742758509867
 31
0.0
 70
   230
 71
     5
 42
12.09098679369871
  3
Standard
100
AcDbOrdinateDimension
 13
54.2828418689395
 23
37.71600574047507
 33
0.0
 14
49.91855152022272
 24
29.270760918432
 34
0.0
1001
ACAD
1000
DSTYLE
1002
{
1070
    43
1040
2.125
1070
    44
1040
1.0
1070
   140
1040
0.9999999999999998
1070
   141
1040
0.5
1002
}
  0
LINE
  5
B16
330
1F
100
AcDbEntity
  8
TEMPLATE
  6
DOT2
100
AcDbLine
 10
58.12384186893949
 20
8.406005740474938
 30
0.0
 11
42.1918418689397
 21
8.406005740474839
 31
0.0
  0
LINE
  5
B17
330
1F
100
AcDbEntity
  8
TEMPLATE
  6
DOT2
100
AcDbLine
 10
58.12384186893936
 20
12.46600574047841
 30
0.0
 11
58.12384186893949
 21
8.406005740474938
 31
0.0
  0
LINE
  5
B18
330
1F
100
AcDbEntity
  8
TEMPLATE
  6
DOT2
100
AcDbLine
 10
42.1918418689397
 20
8.406005740474839
 30
0.0
 11
42.19184186893946
 21
12.46600574047457
 31
0.0
  0
LINE
  5
D59
330
1F
100
AcDbEntity
  8
Washer
100
AcDbLine
 10
57.37784186893944
 20
9.153505740476184
 30
0.0
 11
55.0978418689393
 21
9.153505740476184
 31
0.0
  0
LINE
  5
D5A
330
1F
100
AcDbEntity
  8
Washer
100
AcDbLine
 10
57.37784186893944
 20
12.27850574047618
 30
0.0
 11
55.0978418689393
 21
12.27850574047618
 31
0.0
  0
LINE
  5
D5B
102
{ACAD_REACTORS
330
D6C
330
D7C
102
}
330
1F
100
AcDbEntity
  8
Washer
100
AcDbLine
 10
57.37784186893944
 20
9.153505740476184
 30
0.0
 11
57.37784186893944
 21
12.27850574047618
 31
0.0
  0
LINE
  5
D5C
102
{ACAD_REACTORS
330
DA3
102
}
330
1F
100
AcDbEntity
  8
Washer
100
AcDbLine
 10
55.0978418689393
 20
9.153505740476184
 30
0.0
 11
55.0978418689393
 21
12.27850574047618
 31
0.0
  0
DIMENSION
  5
D5D
102
{ACAD_XDICTIONARY
360
D66
102
}
102
{ACAD_REACTORS
330
D6C
102
}
330
1F
100
AcDbEntity
  8
0
100
AcDbDimension
  2
*D149
 10
42.1918418689397
 20
8.406005740474839
 30
0.0
 11
62.72636294290374
 21
9.153505740476184
 31
0.0
 70
    38
 71
     5
 42
0.7475000000013452
  3
Standard
100
AcDbOrdinateDimension
 13
57.37784186893944
 23
9.153505740476184
 33
0.0
 14
60.71969627623707
 24
9.153505740476184
 34
0.0
  0
DIMENSION
  5
D6D
102
{ACAD_XDICTIONARY
360
D76
102
}
102
{ACAD_REACTORS
330
D7C
102
}
330
1F
100
AcDbEntity
  8
0
100
AcDbDimension
  2
*D150
 10
42.1918418689397
 20
8.406005740474839
 30
0.0
 11
62.88195941972102
 21
12.27850574047618
 31
0.0
 70
    38
 71
     5
 42
3.872500000001345
  3
Standard
100
AcDbOrdinateDimension
 13
57.37784186893944
 23
12.27850574047618
 33
0.0
 14
60.79195941972102
 24
12.27850574047618
 34
0.0
  0
DIMENSION
  5
D8B
330
1F
100
AcDbEntity
  8
0
100
AcDbDimension
  2
*D151
 10
42.1918418689397
 20
8.406005740474839
 30
0.0
 11
57.37784186893944
 21
2.930050071622304
 31
0.0
 70
   230
 71
     5
 42
15.18599999999973
  3
Standard
100
AcDbOrdinateDimension
 13
57.37784186893944
 23
9.153505740476184
 33
0.0
 14
57.37784186893944
 24
5.186716738288961
 34
0.0
  0
DIMENSION
  5
D94
102
{ACAD_XDICTIONARY
360
D9D
102
}
102
{ACAD_REACTORS
330
DA3
102
}
330
1F
100
AcDbEntity
  8
0
100
AcDbDimension
  2
*D152
 10
42.1918418689397
 20
8.406005740474839
 30
0.0
 11
55.0978418689393
 21
3.072248307153172
 31
0.0
 70
   102
 71
     5
 42
12.90599999999959
  3
Standard
100
AcDbOrdinateDimension
 13
55.0978418689393
 23
9.153505740476184
 33
0.0
 14
55.0978418689393
 24
5.412248307153163
 34
0.0
  0
CIRCLE
  5
DC3
102
{ACAD_REACTORS
330
DD7
102
}
330
1F
100
AcDbEntity
  8
TEMPLATE
100
AcDbCircle
 10
54.2828418689395
 20
37.71600574047507
 30
0.0
 40
0.625
  0
DIMENSION
  5
DC4
102
{ACAD_XDICTIONARY
360
DCF
102
}
102
{ACAD_REACTORS
330
DD7
102
}
330
1F
100
AcDbEntity
  8
0
100
AcDbDimension
  2
*D153
 10
54.90183841583913
 20
37.80242492194728
 30
0.0
 11
40.67163089078228
 21
35.81572096914723
 31
0.0
 70
   163
  1
<> (1) \POPTIONAL: ETHERNET \PCONNECTION PORT
 42
1.249999999999985
  3
Standard
100
AcDbDiametricDimension
 15
53.66384532203987
 25
37.62958655900286
 35
0.0
 40
0.0
1001
ACAD
1000
DSTYLE
1002
{
1070
   288
1070
     1
1002
}
  0
DIMENSION
  5
DD8
102
{ACAD_XDICTIONARY
360
DE4
102
}
102
{ACAD_REACTORS
330
DED
102
}
330
1F
100
AcDbEntity
  8
0
100
AcDbDimension
  2
*D154
 10
57.37970164998075
 20
35.65143335917141
 30
0.0
 11
32.66802693079031
 21
30.90177384609371
 31
0.0
 70
   163
  1
<> (1)\POPTIONAL: EXTERNAL \PHEAT OUTPUT
 42
1.25
  3
Standard
100
AcDbDiametricDimension
 15
56.18598208789825
 25
35.28057812177875
 35
0.0
 40
0.0
1001
ACAD
1000
DSTYLE
1002
{
1070
   288
1070
     1
1002
}
  0
TEXT
  5
E04
330
1F
100
AcDbEntity
  8
TEXT
100
AcDbText
 10
19.75444405013777
 20
-6.255669236493313
 30
0.0
 40
0.3
  1
1
 72
     1
 11
19.80444405013777
 21
-6.105669236493312
 31
0.0
100
AcDbText
 73
     2
  0
TEXT
  5
E05
330
1F
100
AcDbEntity
  8
TEXT
100
AcDbText
 10
21.08444405013809
 20
-6.255669236493313
 30
0.0
 40
0.3
  1
%%C1.250 WAS %%C0.750, ADDED FUSE BLOCK RECT.
 72
     1
 11
26.73444405013809
 21
-6.105669236493312
 31
0.0
100
AcDbText
 73
     2
  0
TEXT
  5
E06
330
1F
100
AcDbEntity
  8
TEXT
100
AcDbText
 10
33.57819405013781
 20
-6.255669236493313
 30
0.0
 40
0.3
  1
6-3-11
 72
     1
 11
34.32819405013781
 21
-6.105669236493312
 31
0.0
100
AcDbText
 73
     2
  0
TEXT
  5
E07
330
1F
100
AcDbEntity
  8
TEXT
100
AcDbText
 10
36.74549599769276
 20
-6.255669236493313
 30
0.0
 40
0.3
  1
JJH
 72
     1
 11
37.14549599769276
 21
-6.105669236493312
 31
0.0
100
AcDbText
 73
     2
  0
LINE
  5
E08
330
1F
100
AcDbEntity
  8
BORDER
100
AcDbLine
 10
38.6427979452474
 20
-5.805669236493116
 30
0.0
 11
19.14819405013769
 21
-5.805669236493116
 31
0.0
  0
ENDSEC
  0
SECTION
  2
OBJECTS
  0
DICTIONARY
  5
C
330
0
100
AcDbDictionary
281
     1
  3
ACAD_COLOR
350
73
  3
ACAD_GROUP
350
D
  3
ACAD_LAYOUT
350
1A
  3
ACAD_MATERIAL
350
72
  3
ACAD_MLINESTYLE
350
17
  3
ACAD_PLOTSETTINGS
350
19
  3
ACAD_PLOTSTYLENAME
350
E
  3
ACDBHEADERROUNDTRIPXREC
350
E33
  3
AcDbVariableDictionary
350
66
  0
DICTIONARY
  5
176
330
2
100
AcDbDictionary
280
     1
281
     1
  3
ACAD_LAYERSTATES
360
177
  0
DICTIONARY
  5
D66
330
D5D
100
AcDbDictionary
280
     1
281
     1
  3
ACAD_DIMASSOC
360
D6C
  0
DICTIONARY
  5
D76
330
D6D
100
AcDbDictionary
280
     1
281
     1
  3
ACAD_DIMASSOC
360
D7C
  0
DICTIONARY
  5
D9D
330
D94
100
AcDbDictionary
280
     1
281
     1
  3
ACAD_DIMASSOC
360
DA3
  0
DICTIONARY
  5
DCF
330
DC4
100
AcDbDictionary
280
     1
281
     1
  3
ACAD_DIMASSOC
360
DD7
  0
DICTIONARY
  5
DE4
330
DD8
100
AcDbDictionary
280
     1
281
     1
  3
ACAD_DIMASSOC
360
DED
  0
DICTIONARY
  5
73
102
{ACAD_REACTORS
330
C
102
}
330
C
100
AcDbDictionary
281
     1
  0
DICTIONARY
  5
D
102
{ACAD_REACTORS
330
C
102
}
330
C
100
AcDbDictionary
281
     1
  0
DICTIONARY
  5
1A
102
{ACAD_REACTORS
330
C
102
}
330
C
100
AcDbDictionary
281
     1
  3
Layout1
350
59
  3
Layout2
350
5E
  3
Model
350
22
  0
DICTIONARY
  5
72
102
{ACAD_REACTORS
330
C
102
}
330
C
100
AcDbDictionary
281
     1
  0
DICTIONARY
  5
17
102
{ACAD_REACTORS
330
C
102
}
330
C
100
AcDbDictionary
281
     1
  3
Standard
350
18
  0
DICTIONARY
  5
19
102
{ACAD_REACTORS
330
C
102
}
330
C
100
AcDbDictionary
281
     1
  0
ACDBDICTIONARYWDFLT
  5
E
102
{ACAD_REACTORS
330
C
102
}
330
C
100
AcDbDictionary
281
     1
  3
Normal
350
F
100
AcDbDictionaryWithDefault
340
F
  0
DICTIONARY
  5
E33
102
{ACAD_REACTORS
330
C
102
}
330
C
100
AcDbDictionary
281
     1
  3
COLORDICT
350
E35
  3
MATERIALDICT
350
E34
  0
DICTIONARY
  5
66
102
{ACAD_REACTORS
330
C
102
}
330
C
100
AcDbDictionary
281
     1
  3
DIMASSOC
350
67
  3
HIDETEXT
350
6B
  3
PROJECTNAME
350
5BF
  0
DICTIONARY
  5
177
102
{ACAD_REACTORS
330
176
102
}
330
176
100
AcDbDictionary
281
     1
  0
DIMASSOC
  5
D6C
102
{ACAD_REACTORS
330
D66
102
}
330
D66
100
AcDbDimAssoc
330
D5D
 90
        2
 70
     0
 71
     0
  1
AcDbOsnapPointRef
 72
    13
331
D5B
 73
     2
 91
        0
 40
0.0
 10
0.0
 20
0.0
 30
2.000000000000000E+50
 75
     0
  0
DIMASSOC
  5
D7C
102
{ACAD_REACTORS
330
D76
102
}
330
D76
100
AcDbDimAssoc
330
D6D
 90
        2
 70
     0
 71
     0
  1
AcDbOsnapPointRef
 72
     1
331
D5B
 73
     2
 91
        0
 40
1.0
 10
0.0
 20
0.0
 30
2.000000000000000E+50
 75
     0
  0
DIMASSOC
  5
DA3
102
{ACAD_REACTORS
330
D9D
102
}
330
D9D
100
AcDbDimAssoc
330
D94
 90
        2
 70
     0
 71
     0
  1
AcDbOsnapPointRef
 72
    13
331
D5C
 73
     2
 91
        0
 40
0.0
 10
0.0
 20
0.0
 30
2.000000000000000E+50
 75
     0
  0
DIMASSOC
  5
DD7
102
{ACAD_REACTORS
330
DCF
102
}
330
DCF
100
AcDbDimAssoc
330
DC4
 90
        2
 70
     0
 71
     0
  1
AcDbOsnapPointRef
 72
     3
331
DC3
 73
     2
 91
        0
 40
0.0
 10
0.0
 20
0.0
 30
0.0
 75
     0
  0
DIMASSOC
  5
DED
102
{ACAD_REACTORS
330
DE4
102
}
330
DE4
100
AcDbDimAssoc
330
DD8
 90
        2
 70
     0
 71
     0
  1
AcDbOsnapPointRef
 72
     3
331
B0C
 73
     2
 91
        0
 40
0.0
 10
0.0
 20
0.0
 30
0.0
 75
     0
  0
LAYOUT
  5
59
102
{ACAD_XDICTIONARY
360
E38
102
}
102
{ACAD_REACTORS
330
1A
102
}
330
1A
100
AcDbPlotSettings
  1

  2
None
  4

  6

 40
0.0
 41
0.0
 42
0.0
 43
0.0
 44
0.0
 45
0.0
 46
0.0
 47
0.0
 48
0.0
 49
0.0
140
0.0
141
0.0
142
1.0
143
1.0
 70
   688
 72
     0
 73
     0
 74
     5
  7

 75
    16
147
1.0
148
0.0
149
0.0
100
AcDbLayout
  1
Layout1
 70
     1
 71
     1
 10
0.0
 20
0.0
 11
12.0
 21
9.0
 12
0.0
 22
0.0
 32
0.0
 14
0.0
 24
0.0
 34
0.0
 15
0.0
 25
0.0
 35
0.0
146
0.0
 13
0.0
 23
0.0
 33
0.0
 16
1.0
 26
0.0
 36
0.0
 17
0.0
 27
1.0
 37
0.0
 76
     0
330
58
  0
LAYOUT
  5
5E
102
{ACAD_XDICTIONARY
360
E3A
102
}
102
{ACAD_REACTORS
330
1A
102
}
330
1A
100
AcDbPlotSettings
  1

  2
None
  4

  6

 40
0.0
 41
0.0
 42
0.0
 43
0.0
 44
0.0
 45
0.0
 46
0.0
 47
0.0
 48
0.0
 49
0.0
140
0.0
141
0.0
142
1.0
143
1.0
 70
   688
 72
     0
 73
     0
 74
     5
  7

 75
    16
147
1.0
148
0.0
149
0.0
100
AcDbLayout
  1
Layout2
 70
     1
 71
     2
 10
0.0
 20
0.0
 11
12.0
 21
9.0
 12
0.0
 22
0.0
 32
0.0
 14
0.0
 24
0.0
 34
0.0
 15
0.0
 25
0.0
 35
0.0
146
0.0
 13
0.0
 23
0.0
 33
0.0
 16
1.0
 26
0.0
 36
0.0
 17
0.0
 27
1.0
 37
0.0
 76
     0
330
5D
  0
LAYOUT
  5
22
102
{ACAD_XDICTIONARY
360
E36
102
}
102
{ACAD_REACTORS
330
1A
102
}
330
1A
100
AcDbPlotSettings
  1

  2
none_device
  4
ANSI_A_(8.50_x_11.00_Inches)
  6

 40
6.349999904632567
 41
19.04999923706055
 42
6.350006103515625
 43
19.04998779296875
 44
215.8999938964844
 45
279.3999938964844
 46
0.0
 47
0.0
 48
0.0
 49
0.0
140
0.0
141
0.0
142
1.0
143
2.584895464708373
 70
 11952
 72
     0
 73
     1
 74
     0
  7

 75
     0
147
0.3868628397755418
148
0.0
149
0.0
100
AcDbLayout
  1
Model
 70
     1
 71
     0
 10
0.0
 20
0.0
 11
12.0
 21
9.0
 12
0.0
 22
0.0
 32
0.0
 14
0.0
 24
0.0
 34
0.0
 15
0.0
 25
0.0
 35
0.0
146
0.0
 13
0.0
 23
0.0
 33
0.0
 16
1.0
 26
0.0
 36
0.0
 17
0.0
 27
1.0
 37
0.0
 76
     0
330
1F
  0
MLINESTYLE
  5
18
102
{ACAD_REACTORS
330
17
102
}
330
17
100
AcDbMlineStyle
  2
STANDARD
 70
     0
  3

 62
   256
 51
90.0
 52
90.0
 71
     2
 49
0.5
 62
   256
  6
BYLAYER
 49
-0.5
 62
   256
  6
BYLAYER
  0
ACDBPLACEHOLDER
  5
F
102
{ACAD_REACTORS
330
E
102
}
330
E
  0
XRECORD
  5
E35
102
{ACAD_REACTORS
330
E33
102
}
330
E33
100
AcDbXrecord
280
     1
340
73
  0
XRECORD
  5
E34
102
{ACAD_REACTORS
330
E33
102
}
330
E33
100
AcDbXrecord
280
     1
340
72
  0
DICTIONARYVAR
  5
67
102
{ACAD_REACTORS
330
66
102
}
330
66
100
DictionaryVariables
280
     0
  1
2
  0
DICTIONARYVAR
  5
6B
102
{ACAD_REACTORS
330
66
102
}
330
66
100
DictionaryVariables
280
     0
  1
1
  0
DICTIONARYVAR
  5
5BF
102
{ACAD_REACTORS
330
66
102
}
330
66
100
DictionaryVariables
280
     0
  1

  0
DICTIONARY
  5
E38
330
59
100
AcDbDictionary
280
     1
281
     1
  3
ACAD_XREC_ROUNDTRIP
360
E39
  0
DICTIONARY
  5
E3A
330
5E
100
AcDbDictionary
280
     1
281
     1
  3
ACAD_XREC_ROUNDTRIP
360
E3B
  0
DICTIONARY
  5
E36
330
22
100
AcDbDictionary
280
     1
281
     1
  3
ACAD_XREC_ROUNDTRIP
360
E37
  0
XRECORD
  5
E39
102
{ACAD_REACTORS
330
E38
102
}
330
E38
100
AcDbXrecord
280
     1
102
SHADEPLOT
 70
     0
102
SHADEPLOTRESLEVEL
 70
     2
102
SHADEPLOTCUSTOMDPI
 70
   300
  0
XRECORD
  5
E3B
102
{ACAD_REACTORS
330
E3A
102
}
330
E3A
100
AcDbXrecord
280
     1
102
SHADEPLOT
 70
     0
102
SHADEPLOTRESLEVEL
 70
     2
102
SHADEPLOTCUSTOMDPI
 70
   300
  0
XRECORD
  5
E37
102
{ACAD_REACTORS
330
E36
102
}
330
E36
100
AcDbXrecord
280
     1
102
SHADEPLOT
 70
     0
102
SHADEPLOTRESLEVEL
 70
     2
102
SHADEPLOTCUSTOMDPI
 70
   300
  0
ENDSEC
  0
EOF
