  0
SECTION
  2
HEADER
  9
$ACADVER
  1
AC1015
  9
$ACADMAINTVER
 70
    20
  9
$DWGCODEPAGE
  3
ANSI_1252
  9
$INSBASE
 10
0.0
 20
0.0
 30
0.0
  9
$EXTMIN
 10
-13.18443724341311
 20
-15.36139991884161
 30
0.0
  9
$EXTMAX
 10
62.02810621954812
 20
40.55228707486437
 30
0.0
  9
$LIMMIN
 10
0.0
 20
0.0
  9
$LIMMAX
 10
12.0
 20
9.0
  9
$ORTHOMODE
 70
     0
  9
$REGENMODE
 70
     1
  9
$FILLMODE
 70
     1
  9
$QTEXTMODE
 70
     0
  9
$MIRRTEXT
 70
     0
  9
$LTSCALE
 40
1.0
  9
$ATTMODE
 70
     1
  9
$TEXTSIZE
 40
0.2
  9
$TRACEWID
 40
0.05
  9
$TEXTSTYLE
  7
Standard
  9
$CLAYER
  8
0
  9
$CELTYPE
  6
ByLayer
  9
$CECOLOR
 62
   256
  9
$CELTSCALE
 40
1.0
  9
$DISPSILH
 70
     0
  9
$DIMSCALE
 40
1.0
  9
$DIMASZ
 40
0.18
  9
$DIMEXO
 40
0.0625
  9
$DIMDLI
 40
0.38
  9
$DIMRND
 40
0.0
  9
$DIMDLE
 40
0.0
  9
$DIMEXE
 40
0.18
  9
$DIMTP
 40
0.0
  9
$DIMTM
 40
0.0
  9
$DIMTXT
 40
0.18
  9
$DIMCEN
 40
0.09
  9
$DIMTSZ
 40
0.0
  9
$DIMTOL
 70
     0
  9
$DIMLIM
 70
     0
  9
$DIMTIH
 70
     1
  9
$DIMTOH
 70
     1
  9
$DIMSE1
 70
     0
  9
$DIMSE2
 70
     0
  9
$DIMTAD
 70
     0
  9
$DIMZIN
 70
     0
  9
$DIMBLK
  1

  9
$DIMASO
 70
     1
  9
$DIMSHO
 70
     1
  9
$DIMPOST
  1

  9
$DIMAPOST
  1

  9
$DIMALT
 70
     0
  9
$DIMALTD
 70
     2
  9
$DIMALTF
 40
25.4
  9
$DIMLFAC
 40
1.0
  9
$DIMTOFL
 70
     0
  9
$DIMTVP
 40
0.0
  9
$DIMTIX
 70
     0
  9
$DIMSOXD
 70
     0
  9
$DIMSAH
 70
     0
  9
$DIMBLK1
  1

  9
$DIMBLK2
  1

  9
$DIMSTYLE
  2
Standard
  9
$DIMCLRD
 70
     0
  9
$DIMCLRE
 70
     0
  9
$DIMCLRT
 70
     0
  9
$DIMTFAC
 40
1.0
  9
$DIMGAP
 40
0.09
  9
$DIMJUST
 70
     0
  9
$DIMSD1
 70
     0
  9
$DIMSD2
 70
     0
  9
$DIMTOLJ
 70
     1
  9
$DIMTZIN
 70
     0
  9
$DIMALTZ
 70
     0
  9
$DIMALTTZ
 70
     0
  9
$DIMUPT
 70
     0
  9
$DIMDEC
 70
     4
  9
$DIMTDEC
 70
     4
  9
$DIMALTU
 70
     2
  9
$DIMALTTD
 70
     2
  9
$DIMTXSTY
  7
Standard
  9
$DIMAUNIT
 70
     0
  9
$DIMADEC
 70
     0
  9
$DIMALTRND
 40
0.0
  9
$DIMAZIN
 70
     0
  9
$DIMDSEP
 70
    46
  9
$DIMATFIT
 70
     3
  9
$DIMFRAC
 70
     0
  9
$DIMLDRBLK
  1

  9
$DIMLUNIT
 70
     2
  9
$DIMLWD
 70
    -2
  9
$DIMLWE
 70
    -2
  9
$DIMTMOVE
 70
     0
  9
$LUNITS
 70
     2
  9
$LUPREC
 70
     4
  9
$SKETCHINC
 40
0.1
  9
$FILLETRAD
 40
0.0
  9
$AUNITS
 70
     0
  9
$AUPREC
 70
     0
  9
$MENU
  1
.
  9
$ELEVATION
 40
0.0
  9
$PELEVATION
 40
0.0
  9
$THICKNESS
 40
0.0
  9
$LIMCHECK
 70
     0
  9
$CHAMFERA
 40
0.0
  9
$CHAMFERB
 40
0.0
  9
$CHAMFERC
 40
0.0
  9
$CHAMFERD
 40
0.0
  9
$SKPOLY
 70
     0
  9
$TDCREATE
 40
2455918.650163658
  9
$TDUCREATE
 40
2455918.858496990
  9
$TDUPDATE
 40
2455918.667553530
  9
$TDUUPDATE
 40
2455918.875886864
  9
$TDINDWG
 40
0.0173902315
  9
$TDUSRTIMER
 40
0.0173902315
  9
$USRTIMER
 70
     1
  9
$ANGBASE
 50
0.0
  9
$ANGDIR
 70
     0
  9
$PDMODE
 70
     0
  9
$PDSIZE
 40
0.0
  9
$PLINEWID
 40
0.0
  9
$SPLFRAME
 70
     0
  9
$SPLINETYPE
 70
     6
  9
$SPLINESEGS
 70
     8
  9
$HANDSEED
  5
85F
  9
$SURFTAB1
 70
     6
  9
$SURFTAB2
 70
     6
  9
$SURFTYPE
 70
     6
  9
$SURFU
 70
     6
  9
$SURFV
 70
     6
  9
$UCSBASE
  2

  9
$UCSNAME
  2

  9
$UCSORG
 10
0.0
 20
0.0
 30
0.0
  9
$UCSXDIR
 10
1.0
 20
0.0
 30
0.0
  9
$UCSYDIR
 10
0.0
 20
1.0
 30
0.0
  9
$UCSORTHOREF
  2

  9
$UCSORTHOVIEW
 70
     0
  9
$UCSORGTOP
 10
0.0
 20
0.0
 30
0.0
  9
$UCSORGBOTTOM
 10
0.0
 20
0.0
 30
0.0
  9
$UCSORGLEFT
 10
0.0
 20
0.0
 30
0.0
  9
$UCSORGRIGHT
 10
0.0
 20
0.0
 30
0.0
  9
$UCSORGFRONT
 10
0.0
 20
0.0
 30
0.0
  9
$UCSORGBACK
 10
0.0
 20
0.0
 30
0.0
  9
$PUCSBASE
  2

  9
$PUCSNAME
  2

  9
$PUCSORG
 10
0.0
 20
0.0
 30
0.0
  9
$PUCSXDIR
 10
1.0
 20
0.0
 30
0.0
  9
$PUCSYDIR
 10
0.0
 20
1.0
 30
0.0
  9
$PUCSORTHOREF
  2

  9
$PUCSORTHOVIEW
 70
     0
  9
$PUCSORGTOP
 10
0.0
 20
0.0
 30
0.0
  9
$PUCSORGBOTTOM
 10
0.0
 20
0.0
 30
0.0
  9
$PUCSORGLEFT
 10
0.0
 20
0.0
 30
0.0
  9
$PUCSORGRIGHT
 10
0.0
 20
0.0
 30
0.0
  9
$PUCSORGFRONT
 10
0.0
 20
0.0
 30
0.0
  9
$PUCSORGBACK
 10
0.0
 20
0.0
 30
0.0
  9
$USERI1
 70
     0
  9
$USERI2
 70
     0
  9
$USERI3
 70
     0
  9
$USERI4
 70
     0
  9
$USERI5
 70
     0
  9
$USERR1
 40
0.0
  9
$USERR2
 40
0.0
  9
$USERR3
 40
0.0
  9
$USERR4
 40
0.0
  9
$USERR5
 40
0.0
  9
$WORLDVIEW
 70
     1
  9
$SHADEDGE
 70
     3
  9
$SHADEDIF
 70
    70
  9
$TILEMODE
 70
     1
  9
$MAXACTVP
 70
    64
  9
$PINSBASE
 10
0.0
 20
0.0
 30
0.0
  9
$PLIMCHECK
 70
     0
  9
$PEXTMIN
 10
0.0
 20
0.0
 30
0.0
  9
$PEXTMAX
 10
0.0
 20
0.0
 30
0.0
  9
$PLIMMIN
 10
0.0
 20
0.0
  9
$PLIMMAX
 10
12.0
 20
9.0
  9
$UNITMODE
 70
     0
  9
$VISRETAIN
 70
     1
  9
$PLINEGEN
 70
     0
  9
$PSLTSCALE
 70
     1
  9
$TREEDEPTH
 70
  3020
  9
$CMLSTYLE
  2
Standard
  9
$CMLJUST
 70
     0
  9
$CMLSCALE
 40
1.0
  9
$PROXYGRAPHICS
 70
     1
  9
$MEASUREMENT
 70
     0
  9
$CELWEIGHT
370
    -1
  9
$ENDCAPS
280
     0
  9
$JOINSTYLE
280
     0
  9
$LWDISPLAY
290
     0
  9
$INSUNITS
 70
     1
  9
$HYPERLINKBASE
  1

  9
$STYLESHEET
  1

  9
$XEDIT
290
     1
  9
$CEPSNTYPE
380
     0
  9
$PSTYLEMODE
290
     1
  9
$FINGERPRINTGUID
  2
{FDEAD576-A652-11D2-9A35-0060089B3A3F}
  9
$VERSIONGUID
  2
{60C1C871-EE03-4392-9ED6-88A144EF6A89}
  9
$EXTNAMES
290
     1
  9
$PSVPSCALE
 40
0.0
  9
$OLESTARTUP
290
     0
  0
ENDSEC
  0
SECTION
  2
CLASSES
  0
CLASS
  1
ACDBDICTIONARYWDFLT
  2
AcDbDictionaryWithDefault
  3
ObjectDBX Classes
 90
        0
280
     0
281
     0
  0
CLASS
  1
ACDBPLACEHOLDER
  2
AcDbPlaceHolder
  3
ObjectDBX Classes
 90
        0
280
     0
281
     0
  0
CLASS
  1
LAYOUT
  2
AcDbLayout
  3
ObjectDBX Classes
 90
        0
280
     0
281
     0
  0
CLASS
  1
DICTIONARYVAR
  2
AcDbDictionaryVar
  3
ObjectDBX Classes
 90
        0
280
     0
281
     0
  0
CLASS
  1
DIMASSOC
  2
AcDbDimAssoc
  3
"AcDbDimAssoc|Product Desc:     AcDim ARX App For Dimension|Company:          Autodesk, Inc.|WEB Address:      www.autodesk.com"
 90
        0
280
     0
281
     0
  0
ENDSEC
  0
SECTION
  2
TABLES
  0
TABLE
  2
VPORT
  5
8
330
0
100
AcDbSymbolTable
 70
     6
  0
VPORT
  5
855
330
8
100
AcDbSymbolTableRecord
100
AcDbViewportTableRecord
  2
*Active
 70
     0
 10
0.0
 20
0.0
 11
1.0
 21
1.0
 12
48.45768082254678
 22
18.68878821477078
 13
0.0
 23
0.0
 14
0.5
 24
0.5
 15
0.5
 25
0.5
 16
0.0
 26
0.0
 36
1.0
 17
0.0
 27
0.0
 37
0.0
 40
78.61937607250509
 41
1.693574958813838
 42
50.0
 43
0.0
 44
0.0
 50
0.0
 51
0.0
 71
     0
 72
  1000
 73
     1
 74
     3
 75
     0
 76
     0
 77
     0
 78
     0
281
     0
 65
     1
110
0.0
120
0.0
130
0.0
111
1.0
121
0.0
131
0.0
112
0.0
122
1.0
132
0.0
 79
     0
146
0.0
  0
ENDTAB
  0
TABLE
  2
LTYPE
  5
5
330
0
100
AcDbSymbolTable
 70
     2
  0
LTYPE
  5
14
330
5
100
AcDbSymbolTableRecord
100
AcDbLinetypeTableRecord
  2
ByBlock
 70
     0
  3

 72
    65
 73
     0
 40
0.0
  0
LTYPE
  5
15
330
5
100
AcDbSymbolTableRecord
100
AcDbLinetypeTableRecord
  2
ByLayer
 70
     0
  3

 72
    65
 73
     0
 40
0.0
  0
LTYPE
  5
16
330
5
100
AcDbSymbolTableRecord
100
AcDbLinetypeTableRecord
  2
Continuous
 70
     0
  3
Solid line
 72
    65
 73
     0
 40
0.0
  0
LTYPE
  5
3DA
330
5
100
AcDbSymbolTableRecord
100
AcDbLinetypeTableRecord
  2
HIDDEN
 70
     0
  3
Hidden __ __ __ __ __ __ __ __ __ __ __ __ __ _
 72
    65
 73
     2
 40
0.375
 49
0.25
 74
     0
 49
-0.125
 74
     0
  0
ENDTAB
  0
TABLE
  2
LAYER
  5
2
102
{ACAD_XDICTIONARY
360
8C
102
}
330
0
100
AcDbSymbolTable
 70
     6
  0
LAYER
  5
10
330
2
100
AcDbSymbolTableRecord
100
AcDbLayerTableRecord
  2
0
 70
     0
 62
     7
  6
Continuous
370
    -3
390
F
  0
LAYER
  5
89
330
2
100
AcDbSymbolTableRecord
100
AcDbLayerTableRecord
  2
TEXT
 70
     0
 62
     7
  6
Continuous
370
    -3
390
F
  0
LAYER
  5
8A
330
2
100
AcDbSymbolTableRecord
100
AcDbLayerTableRecord
  2
BORDER
 70
     0
 62
     1
  6
Continuous
370
    -3
390
F
  0
LAYER
  5
8B
330
2
100
AcDbSymbolTableRecord
100
AcDbLayerTableRecord
  2
DIMENSION
 70
     0
 62
     7
  6
Continuous
370
    -3
390
F
  0
LAYER
  5
3DB
330
2
100
AcDbSymbolTableRecord
100
AcDbLayerTableRecord
  2
TXT
 70
     0
 62
     7
  6
Continuous
370
    -3
390
F
  0
LAYER
  5
3DC
330
2
100
AcDbSymbolTableRecord
100
AcDbLayerTableRecord
  2
Defpoints
 70
     0
 62
     7
  6
Continuous
290
     0
370
    -3
390
F
  0
ENDTAB
  0
TABLE
  2
STYLE
  5
3
330
0
100
AcDbSymbolTable
 70
     1
  0
STYLE
  5
11
330
3
100
AcDbSymbolTableRecord
100
AcDbTextStyleTableRecord
  2
Standard
 70
     0
 40
0.0
 41
1.0
 50
0.0
 71
     0
 42
0.2
  3
txt
  4

  0
ENDTAB
  0
TABLE
  2
VIEW
  5
6
330
0
100
AcDbSymbolTable
 70
     0
  0
ENDTAB
  0
TABLE
  2
UCS
  5
7
330
0
100
AcDbSymbolTable
 70
     0
  0
ENDTAB
  0
TABLE
  2
APPID
  5
9
330
0
100
AcDbSymbolTable
 70
     1
  0
APPID
  5
12
330
9
100
AcDbSymbolTableRecord
100
AcDbRegAppTableRecord
  2
ACAD
 70
     0
  0
ENDTAB
  0
TABLE
  2
DIMSTYLE
  5
A
330
0
100
AcDbSymbolTable
 70
     1
100
AcDbDimStyleTable
 71
     0
  0
DIMSTYLE
105
27
102
{ACAD_REACTORS
330
434
330
435
330
438
330
43B
330
43E
330
441
330
444
330
447
330
452
330
455
330
458
330
459
330
45A
330
45D
330
460
330
461
330
462
330
465
330
468
330
46B
330
46C
330
46F
330
470
330
471
330
472
102
}
330
A
100
AcDbSymbolTableRecord
100
AcDbDimStyleTableRecord
  2
Standard
 70
     0
340
11
  0
ENDTAB
  0
TABLE
  2
BLOCK_RECORD
  5
1
330
0
100
AcDbSymbolTable
 70
    54
  0
BLOCK_RECORD
  5
1F
330
1
100
AcDbSymbolTableRecord
100
AcDbBlockTableRecord
  2
*Model_Space
340
22
  0
BLOCK_RECORD
  5
58
330
1
100
AcDbSymbolTableRecord
100
AcDbBlockTableRecord
  2
*Paper_Space
340
59
  0
BLOCK_RECORD
  5
5D
330
1
100
AcDbSymbolTableRecord
100
AcDbBlockTableRecord
  2
*Paper_Space0
340
5E
  0
BLOCK_RECORD
  5
304
330
1
100
AcDbSymbolTableRecord
100
AcDbBlockTableRecord
  2
*D2
340
0
  0
BLOCK_RECORD
  5
30C
330
1
100
AcDbSymbolTableRecord
100
AcDbBlockTableRecord
  2
*D3
340
0
  0
BLOCK_RECORD
  5
314
330
1
100
AcDbSymbolTableRecord
100
AcDbBlockTableRecord
  2
*D4
340
0
  0
BLOCK_RECORD
  5
31C
330
1
100
AcDbSymbolTableRecord
100
AcDbBlockTableRecord
  2
*D5
340
0
  0
BLOCK_RECORD
  5
324
330
1
100
AcDbSymbolTableRecord
100
AcDbBlockTableRecord
  2
*D6
340
0
  0
BLOCK_RECORD
  5
32C
330
1
100
AcDbSymbolTableRecord
100
AcDbBlockTableRecord
  2
*D7
340
0
  0
BLOCK_RECORD
  5
334
330
1
100
AcDbSymbolTableRecord
100
AcDbBlockTableRecord
  2
*D8
340
0
  0
BLOCK_RECORD
  5
33C
330
1
100
AcDbSymbolTableRecord
100
AcDbBlockTableRecord
  2
*D9
340
0
  0
BLOCK_RECORD
  5
344
330
1
100
AcDbSymbolTableRecord
100
AcDbBlockTableRecord
  2
*D10
340
0
  0
BLOCK_RECORD
  5
34C
330
1
100
AcDbSymbolTableRecord
100
AcDbBlockTableRecord
  2
*D11
340
0
  0
BLOCK_RECORD
  5
354
330
1
100
AcDbSymbolTableRecord
100
AcDbBlockTableRecord
  2
*D12
340
0
  0
BLOCK_RECORD
  5
35C
330
1
100
AcDbSymbolTableRecord
100
AcDbBlockTableRecord
  2
*D13
340
0
  0
BLOCK_RECORD
  5
364
330
1
100
AcDbSymbolTableRecord
100
AcDbBlockTableRecord
  2
*D14
340
0
  0
BLOCK_RECORD
  5
36C
330
1
100
AcDbSymbolTableRecord
100
AcDbBlockTableRecord
  2
*D15
340
0
  0
BLOCK_RECORD
  5
374
330
1
100
AcDbSymbolTableRecord
100
AcDbBlockTableRecord
  2
*D16
340
0
  0
BLOCK_RECORD
  5
37E
330
1
100
AcDbSymbolTableRecord
100
AcDbBlockTableRecord
  2
*D17
340
0
  0
BLOCK_RECORD
  5
388
330
1
100
AcDbSymbolTableRecord
100
AcDbBlockTableRecord
  2
*D18
340
0
  0
BLOCK_RECORD
  5
393
330
1
100
AcDbSymbolTableRecord
100
AcDbBlockTableRecord
  2
*D19
340
0
  0
BLOCK_RECORD
  5
39E
330
1
100
AcDbSymbolTableRecord
100
AcDbBlockTableRecord
  2
*D20
340
0
  0
BLOCK_RECORD
  5
3A6
330
1
100
AcDbSymbolTableRecord
100
AcDbBlockTableRecord
  2
*D21
340
0
  0
BLOCK_RECORD
  5
3AE
330
1
100
AcDbSymbolTableRecord
100
AcDbBlockTableRecord
  2
*D22
340
0
  0
BLOCK_RECORD
  5
3B6
330
1
100
AcDbSymbolTableRecord
100
AcDbBlockTableRecord
  2
*D23
340
0
  0
BLOCK_RECORD
  5
3BE
330
1
100
AcDbSymbolTableRecord
100
AcDbBlockTableRecord
  2
*D24
340
0
  0
BLOCK_RECORD
  5
3C6
330
1
100
AcDbSymbolTableRecord
100
AcDbBlockTableRecord
  2
*D25
340
0
  0
BLOCK_RECORD
  5
3D0
330
1
100
AcDbSymbolTableRecord
100
AcDbBlockTableRecord
  2
*D26
340
0
  0
BLOCK_RECORD
  5
487
330
1
100
AcDbSymbolTableRecord
100
AcDbBlockTableRecord
  2
*D28
340
0
  0
BLOCK_RECORD
  5
491
330
1
100
AcDbSymbolTableRecord
100
AcDbBlockTableRecord
  2
*D29
340
0
  0
BLOCK_RECORD
  5
49B
330
1
100
AcDbSymbolTableRecord
100
AcDbBlockTableRecord
  2
*D30
340
0
  0
BLOCK_RECORD
  5
4A3
330
1
100
AcDbSymbolTableRecord
100
AcDbBlockTableRecord
  2
*D31
340
0
  0
BLOCK_RECORD
  5
4AB
330
1
100
AcDbSymbolTableRecord
100
AcDbBlockTableRecord
  2
*D32
340
0
  0
BLOCK_RECORD
  5
4B3
330
1
100
AcDbSymbolTableRecord
100
AcDbBlockTableRecord
  2
*D33
340
0
  0
BLOCK_RECORD
  5
4BB
330
1
100
AcDbSymbolTableRecord
100
AcDbBlockTableRecord
  2
*D34
340
0
  0
BLOCK_RECORD
  5
4C3
330
1
100
AcDbSymbolTableRecord
100
AcDbBlockTableRecord
  2
*D35
340
0
  0
BLOCK_RECORD
  5
4CB
330
1
100
AcDbSymbolTableRecord
100
AcDbBlockTableRecord
  2
*D36
340
0
  0
BLOCK_RECORD
  5
4DA
330
1
100
AcDbSymbolTableRecord
100
AcDbBlockTableRecord
  2
*D37
340
0
  0
BLOCK_RECORD
  5
4E4
330
1
100
AcDbSymbolTableRecord
100
AcDbBlockTableRecord
  2
*D38
340
0
  0
BLOCK_RECORD
  5
4EC
330
1
100
AcDbSymbolTableRecord
100
AcDbBlockTableRecord
  2
*D39
340
0
  0
BLOCK_RECORD
  5
4F4
330
1
100
AcDbSymbolTableRecord
100
AcDbBlockTableRecord
  2
*D40
340
0
  0
BLOCK_RECORD
  5
4FC
330
1
100
AcDbSymbolTableRecord
100
AcDbBlockTableRecord
  2
*D41
340
0
  0
BLOCK_RECORD
  5
504
330
1
100
AcDbSymbolTableRecord
100
AcDbBlockTableRecord
  2
*D42
340
0
  0
BLOCK_RECORD
  5
50C
330
1
100
AcDbSymbolTableRecord
100
AcDbBlockTableRecord
  2
*D43
340
0
  0
BLOCK_RECORD
  5
517
330
1
100
AcDbSymbolTableRecord
100
AcDbBlockTableRecord
  2
*D44
340
0
  0
BLOCK_RECORD
  5
522
330
1
100
AcDbSymbolTableRecord
100
AcDbBlockTableRecord
  2
*D45
340
0
  0
BLOCK_RECORD
  5
538
330
1
100
AcDbSymbolTableRecord
100
AcDbBlockTableRecord
  2
*D46
340
0
  0
BLOCK_RECORD
  5
540
330
1
100
AcDbSymbolTableRecord
100
AcDbBlockTableRecord
  2
*D47
340
0
  0
BLOCK_RECORD
  5
552
330
1
100
AcDbSymbolTableRecord
100
AcDbBlockTableRecord
  2
*D48
340
0
  0
BLOCK_RECORD
  5
55A
330
1
100
AcDbSymbolTableRecord
100
AcDbBlockTableRecord
  2
*D49
340
0
  0
BLOCK_RECORD
  5
562
330
1
100
AcDbSymbolTableRecord
100
AcDbBlockTableRecord
  2
*D50
340
0
  0
BLOCK_RECORD
  5
56F
330
1
100
AcDbSymbolTableRecord
100
AcDbBlockTableRecord
  2
*D51
340
0
  0
BLOCK_RECORD
  5
586
330
1
100
AcDbSymbolTableRecord
100
AcDbBlockTableRecord
  2
*D52
340
0
  0
BLOCK_RECORD
  5
5D9
330
1
100
AcDbSymbolTableRecord
100
AcDbBlockTableRecord
  2
A$C541A4087
340
0
  0
ENDTAB
  0
ENDSEC
  0
SECTION
  2
BLOCKS
  0
BLOCK
  5
20
330
1F
100
AcDbEntity
  8
0
100
AcDbBlockBegin
  2
*Model_Space
 70
     0
 10
0.0
 20
0.0
 30
0.0
  3
*Model_Space
  1

  0
ENDBLK
  5
21
330
1F
100
AcDbEntity
  8
0
100
AcDbBlockEnd
  0
BLOCK
  5
5A
330
58
100
AcDbEntity
 67
     1
  8
0
100
AcDbBlockBegin
  2
*Paper_Space
 70
     0
 10
0.0
 20
0.0
 30
0.0
  3
*Paper_Space
  1

  0
ENDBLK
  5
5B
330
58
100
AcDbEntity
 67
     1
  8
0
100
AcDbBlockEnd
  0
BLOCK
  5
5F
330
5D
100
AcDbEntity
  8
0
100
AcDbBlockBegin
  2
*Paper_Space0
 70
     0
 10
0.0
 20
0.0
 30
0.0
  3
*Paper_Space0
  1

  0
ENDBLK
  5
60
330
5D
100
AcDbEntity
  8
0
100
AcDbBlockEnd
  0
BLOCK
  5
305
330
304
100
AcDbEntity
  8
0
100
AcDbBlockBegin
  2
*D2
 70
     1
 10
0.0
 20
0.0
 30
0.0
  3
*D2
  1

  0
LINE
  5
306
330
304
100
AcDbEntity
  8
0
 62
     0
370
    -2
100
AcDbLine
 10
-10.01662089141294
 20
2.980037195910853
 30
0.0
 11
-10.76662089141294
 21
2.980037195910853
 31
0.0
  0
MTEXT
  5
307
330
304
100
AcDbEntity
  8
0
 62
     0
100
AcDbMText
 10
-12.02995422474627
 20
2.980037195910853
 30
0.0
 40
0.7040000000000001
 41
0.0
 71
     5
 72
     1
  1
\A1;0.000
 73
     1
 44
1.0
1001
ACAD
1000
MTEXTBEGIN
1070
    73
1070
     1
1070
    44
1040
1.0
1070
    74
1070
     0
1000
MTEXTEND
  0
POINT
  5
308
330
304
100
AcDbEntity
  8
Defpoints
 62
     0
100
AcDbPoint
 10
-9.766620891412939
 20
2.980037195910853
 30
0.0
  0
POINT
  5
309
330
304
100
AcDbEntity
  8
Defpoints
 62
     0
100
AcDbPoint
 10
-10.76662089141294
 20
2.980037195910853
 30
0.0
  0
POINT
  5
30A
330
304
100
AcDbEntity
  8
Defpoints
 62
     0
100
AcDbPoint
 10
-9.766620891412827
 20
2.980037195910853
 30
0.0
  0
ENDBLK
  5
30B
330
304
100
AcDbEntity
  8
0
100
AcDbBlockEnd
  0
BLOCK
  5
30D
330
30C
100
AcDbEntity
  8
0
100
AcDbBlockBegin
  2
*D3
 70
     1
 10
0.0
 20
0.0
 30
0.0
  3
*D3
  1

  0
LINE
  5
30E
330
30C
100
AcDbEntity
  8
0
 62
     0
370
    -2
100
AcDbLine
 10
-9.766620891412827
 20
2.730037195910853
 30
0.0
 11
-9.766620891412827
 21
1.980037195910853
 31
0.0
  0
MTEXT
  5
30F
330
30C
100
AcDbEntity
  8
0
 62
     0
100
AcDbMText
 10
-9.766620891412827
 20
0.7167038625775181
 30
0.0
 40
0.7040000000000001
 41
0.0
 71
     5
 72
     1
  1
\A1;0.000
 11
0.0000000000000001
 21
1.0
 31
0.0
 73
     1
 44
1.0
1001
ACAD
1000
MTEXTBEGIN
1070
    73
1070
     1
1070
    44
1040
1.0
1070
    74
1070
     0
1000
MTEXTEND
  0
POINT
  5
310
330
30C
100
AcDbEntity
  8
Defpoints
 62
     0
100
AcDbPoint
 10
-9.766620891412827
 20
2.980037195910853
 30
0.0
  0
POINT
  5
311
330
30C
100
AcDbEntity
  8
Defpoints
 62
     0
100
AcDbPoint
 10
-9.766620891412827
 20
1.980037195910853
 30
0.0
  0
POINT
  5
312
330
30C
100
AcDbEntity
  8
Defpoints
 62
     0
100
AcDbPoint
 10
-9.766620891412827
 20
2.980037195910853
 30
0.0
  0
ENDBLK
  5
313
330
30C
100
AcDbEntity
  8
0
100
AcDbBlockEnd
  0
BLOCK
  5
315
330
314
100
AcDbEntity
  8
0
100
AcDbBlockBegin
  2
*D4
 70
     1
 10
0.0
 20
0.0
 30
0.0
  3
*D4
  1

  0
LINE
  5
316
330
314
100
AcDbEntity
  8
0
 62
     0
370
    -2
100
AcDbLine
 10
-0.4266208914128529
 20
5.570037195910797
 30
0.0
 11
1.913379108587226
 21
5.570037195910841
 31
0.0
  0
MTEXT
  5
317
330
314
100
AcDbEntity
  8
0
 62
     0
100
AcDbMText
 10
3.35271244192056
 20
5.570037195910841
 30
0.0
 40
0.7040000000000001
 41
0.0
 71
     5
 72
     1
  1
\A1;2.590
 73
     1
 44
1.0
1001
ACAD
1000
MTEXTBEGIN
1070
    73
1070
     1
1070
    44
1040
1.0
1070
    74
1070
     0
1000
MTEXTEND
  0
POINT
  5
318
330
314
100
AcDbEntity
  8
Defpoints
 62
     0
100
AcDbPoint
 10
-0.6766208914128528
 20
5.570037195910797
 30
0.0
  0
POINT
  5
319
330
314
100
AcDbEntity
  8
Defpoints
 62
     0
100
AcDbPoint
 10
1.913379108587226
 20
5.570037195910841
 30
0.0
  0
POINT
  5
31A
330
314
100
AcDbEntity
  8
Defpoints
 62
     0
100
AcDbPoint
 10
-9.766620891412827
 20
2.980037195910853
 30
0.0
  0
ENDBLK
  5
31B
330
314
100
AcDbEntity
  8
0
100
AcDbBlockEnd
  0
BLOCK
  5
31D
330
31C
100
AcDbEntity
  8
0
100
AcDbBlockBegin
  2
*D5
 70
     1
 10
0.0
 20
0.0
 30
0.0
  3
*D5
  1

  0
LINE
  5
31E
330
31C
100
AcDbEntity
  8
0
 62
     0
370
    -2
100
AcDbLine
 10
-8.176620891412794
 20
5.320037195910797
 30
0.0
 11
-8.176620891412794
 21
1.98003719591086
 31
0.0
  0
MTEXT
  5
31F
330
31C
100
AcDbEntity
  8
0
 62
     0
100
AcDbMText
 10
-8.176620891412794
 20
0.6580371959108609
 30
0.0
 40
0.7040000000000001
 41
0.0
 71
     5
 72
     1
  1
\A1;1.590
 11
0.0000000000000001
 21
1.0
 31
0.0
 73
     1
 44
1.0
1001
ACAD
1000
MTEXTBEGIN
1070
    73
1070
     1
1070
    44
1040
1.0
1070
    74
1070
     0
1000
MTEXTEND
  0
POINT
  5
320
330
31C
100
AcDbEntity
  8
Defpoints
 62
     0
100
AcDbPoint
 10
-8.176620891412794
 20
5.570037195910797
 30
0.0
  0
POINT
  5
321
330
31C
100
AcDbEntity
  8
Defpoints
 62
     0
100
AcDbPoint
 10
-8.176620891412794
 20
1.98003719591086
 30
0.0
  0
POINT
  5
322
330
31C
100
AcDbEntity
  8
Defpoints
 62
     0
100
AcDbPoint
 10
-9.766620891412827
 20
2.980037195910853
 30
0.0
  0
ENDBLK
  5
323
330
31C
100
AcDbEntity
  8
0
100
AcDbBlockEnd
  0
BLOCK
  5
325
330
324
100
AcDbEntity
  8
0
100
AcDbBlockBegin
  2
*D6
 70
     1
 10
0.0
 20
0.0
 30
0.0
  3
*D6
  1

  0
LINE
  5
326
330
324
100
AcDbEntity
  8
0
 62
     0
370
    -2
100
AcDbLine
 10
-0.6766208914128528
 20
5.320037195910797
 30
0.0
 11
-0.6766208914128528
 21
1.9800371959109
 31
0.0
  0
MTEXT
  5
327
330
324
100
AcDbEntity
  8
0
 62
     0
100
AcDbMText
 10
-0.6766208914128531
 20
0.5993705292442347
 30
0.0
 40
0.7040000000000001
 41
0.0
 71
     5
 72
     1
  1
\A1;9.090
 11
0.0000000000000001
 21
1.0
 31
0.0
 73
     1
 44
1.0
1001
ACAD
1000
MTEXTBEGIN
1070
    73
1070
     1
1070
    44
1040
1.0
1070
    74
1070
     0
1000
MTEXTEND
  0
POINT
  5
328
330
324
100
AcDbEntity
  8
Defpoints
 62
     0
100
AcDbPoint
 10
-0.6766208914128528
 20
5.570037195910797
 30
0.0
  0
POINT
  5
329
330
324
100
AcDbEntity
  8
Defpoints
 62
     0
100
AcDbPoint
 10
-0.6766208914128528
 20
1.9800371959109
 30
0.0
  0
POINT
  5
32A
330
324
100
AcDbEntity
  8
Defpoints
 62
     0
100
AcDbPoint
 10
-9.766620891412827
 20
2.980037195910853
 30
0.0
  0
ENDBLK
  5
32B
330
324
100
AcDbEntity
  8
0
100
AcDbBlockEnd
  0
BLOCK
  5
32D
330
32C
100
AcDbEntity
  8
0
100
AcDbBlockBegin
  2
*D7
 70
     1
 10
0.0
 20
0.0
 30
0.0
  3
*D7
  1

  0
LINE
  5
32E
330
32C
100
AcDbEntity
  8
0
 62
     0
370
    -2
100
AcDbLine
 10
-0.4266208914128529
 20
12.57003719591083
 30
0.0
 11
1.913379108587205
 21
12.57003719591087
 31
0.0
  0
MTEXT
  5
32F
330
32C
100
AcDbEntity
  8
0
 62
     0
100
AcDbMText
 10
3.352712441920537
 20
12.57003719591087
 30
0.0
 40
0.7040000000000001
 41
0.0
 71
     5
 72
     1
  1
\A1;9.590
 73
     1
 44
1.0
1001
ACAD
1000
MTEXTBEGIN
1070
    73
1070
     1
1070
    44
1040
1.0
1070
    74
1070
     0
1000
MTEXTEND
  0
POINT
  5
330
330
32C
100
AcDbEntity
  8
Defpoints
 62
     0
100
AcDbPoint
 10
-0.6766208914128528
 20
12.57003719591083
 30
0.0
  0
POINT
  5
331
330
32C
100
AcDbEntity
  8
Defpoints
 62
     0
100
AcDbPoint
 10
1.913379108587205
 20
12.57003719591087
 30
0.0
  0
POINT
  5
332
330
32C
100
AcDbEntity
  8
Defpoints
 62
     0
100
AcDbPoint
 10
-9.766620891412827
 20
2.980037195910853
 30
0.0
  0
ENDBLK
  5
333
330
32C
100
AcDbEntity
  8
0
100
AcDbBlockEnd
  0
BLOCK
  5
335
330
334
100
AcDbEntity
  8
0
100
AcDbBlockBegin
  2
*D8
 70
     1
 10
0.0
 20
0.0
 30
0.0
  3
*D8
  1

  0
LINE
  5
336
330
334
100
AcDbEntity
  8
0
 62
     0
370
    -2
100
AcDbLine
 10
-9.516620891412882
 20
15.01183597998152
 30
0.0
 11
-10.7666208914129
 21
15.01183597998152
 31
0.0
  0
MTEXT
  5
337
330
334
100
AcDbEntity
  8
0
 62
     0
100
AcDbMText
 10
-12.4406208914129
 20
15.01183597998152
 30
0.0
 40
0.7040000000000001
 41
0.0
 71
     5
 72
     1
  1
\A1;12.032
 73
     1
 44
1.0
1001
ACAD
1000
MTEXTBEGIN
1070
    73
1070
     1
1070
    44
1040
1.0
1070
    74
1070
     0
1000
MTEXTEND
  0
POINT
  5
338
330
334
100
AcDbEntity
  8
Defpoints
 62
     0
100
AcDbPoint
 10
-9.266620891412882
 20
15.01183597998152
 30
0.0
  0
POINT
  5
339
330
334
100
AcDbEntity
  8
Defpoints
 62
     0
100
AcDbPoint
 10
-10.7666208914129
 20
15.01183597998152
 30
0.0
  0
POINT
  5
33A
330
334
100
AcDbEntity
  8
Defpoints
 62
     0
100
AcDbPoint
 10
-9.766620891412827
 20
2.980037195910853
 30
0.0
  0
ENDBLK
  5
33B
330
334
100
AcDbEntity
  8
0
100
AcDbBlockEnd
  0
BLOCK
  5
33D
330
33C
100
AcDbEntity
  8
0
100
AcDbBlockBegin
  2
*D9
 70
     1
 10
0.0
 20
0.0
 30
0.0
  3
*D9
  1

  0
LINE
  5
33E
330
33C
100
AcDbEntity
  8
0
 62
     0
370
    -2
100
AcDbLine
 10
-9.516620891412882
 20
18.1180859799818
 30
0.0
 11
-10.76662089141289
 21
18.1180859799818
 31
0.0
  0
MTEXT
  5
33F
330
33C
100
AcDbEntity
  8
0
 62
     0
100
AcDbMText
 10
-12.38195422474622
 20
18.1180859799818
 30
0.0
 40
0.7040000000000001
 41
0.0
 71
     5
 72
     1
  1
\A1;15.138
 73
     1
 44
1.0
1001
ACAD
1000
MTEXTBEGIN
1070
    73
1070
     1
1070
    44
1040
1.0
1070
    74
1070
     0
1000
MTEXTEND
  0
POINT
  5
340
330
33C
100
AcDbEntity
  8
Defpoints
 62
     0
100
AcDbPoint
 10
-9.266620891412882
 20
18.1180859799818
 30
0.0
  0
POINT
  5
341
330
33C
100
AcDbEntity
  8
Defpoints
 62
     0
100
AcDbPoint
 10
-10.76662089141289
 20
18.1180859799818
 30
0.0
  0
POINT
  5
342
330
33C
100
AcDbEntity
  8
Defpoints
 62
     0
100
AcDbPoint
 10
-9.766620891412827
 20
2.980037195910853
 30
0.0
  0
ENDBLK
  5
343
330
33C
100
AcDbEntity
  8
0
100
AcDbBlockEnd
  0
BLOCK
  5
345
330
344
100
AcDbEntity
  8
0
100
AcDbBlockBegin
  2
*D10
 70
     1
 10
0.0
 20
0.0
 30
0.0
  3
*D10
  1

  0
LINE
  5
346
330
344
100
AcDbEntity
  8
0
 62
     0
370
    -2
100
AcDbLine
 10
-0.4266208914127108
 20
27.69812782696636
 30
0.0
 11
1.913379108587168
 21
27.69812782696636
 31
0.0
  0
MTEXT
  5
347
330
344
100
AcDbEntity
  8
0
 62
     0
100
AcDbMText
 10
3.646045775253833
 20
27.69812782696636
 30
0.0
 40
0.7040000000000001
 41
0.0
 71
     5
 72
     1
  1
\A1;24.718
 73
     1
 44
1.0
1001
ACAD
1000
MTEXTBEGIN
1070
    73
1070
     1
1070
    44
1040
1.0
1070
    74
1070
     0
1000
MTEXTEND
  0
POINT
  5
348
330
344
100
AcDbEntity
  8
Defpoints
 62
     0
100
AcDbPoint
 10
-0.6766208914127107
 20
27.69812782696636
 30
0.0
  0
POINT
  5
349
330
344
100
AcDbEntity
  8
Defpoints
 62
     0
100
AcDbPoint
 10
1.913379108587168
 20
27.69812782696636
 30
0.0
  0
POINT
  5
34A
330
344
100
AcDbEntity
  8
Defpoints
 62
     0
100
AcDbPoint
 10
-9.766620891412827
 20
2.980037195910853
 30
0.0
  0
ENDBLK
  5
34B
330
344
100
AcDbEntity
  8
0
100
AcDbBlockEnd
  0
BLOCK
  5
34D
330
34C
100
AcDbEntity
  8
0
100
AcDbBlockBegin
  2
*D11
 70
     1
 10
0.0
 20
0.0
 30
0.0
  3
*D11
  1

  0
LINE
  5
34E
330
34C
100
AcDbEntity
  8
0
 62
     0
370
    -2
100
AcDbLine
 10
-4.676620891412794
 20
32.74463015287159
 30
0.0
 11
-10.76662089141284
 21
32.74463015287164
 31
0.0
  0
MTEXT
  5
34F
330
34C
100
AcDbEntity
  8
0
 62
     0
100
AcDbMText
 10
-12.61662089141284
 20
32.74463015287164
 30
0.0
 40
0.7040000000000001
 41
0.0
 71
     5
 72
     1
  1
\A1;29.765
 73
     1
 44
1.0
1001
ACAD
1000
MTEXTBEGIN
1070
    73
1070
     1
1070
    44
1040
1.0
1070
    74
1070
     0
1000
MTEXTEND
  0
POINT
  5
350
330
34C
100
AcDbEntity
  8
Defpoints
 62
     0
100
AcDbPoint
 10
-4.426620891412794
 20
32.74463015287159
 30
0.0
  0
POINT
  5
351
330
34C
100
AcDbEntity
  8
Defpoints
 62
     0
100
AcDbPoint
 10
-10.76662089141284
 20
32.74463015287164
 30
0.0
  0
POINT
  5
352
330
34C
100
AcDbEntity
  8
Defpoints
 62
     0
100
AcDbPoint
 10
-9.766620891412827
 20
2.980037195910853
 30
0.0
  0
ENDBLK
  5
353
330
34C
100
AcDbEntity
  8
0
100
AcDbBlockEnd
  0
BLOCK
  5
355
330
354
100
AcDbEntity
  8
0
100
AcDbBlockBegin
  2
*D12
 70
     1
 10
0.0
 20
0.0
 30
0.0
  3
*D12
  1

  0
LINE
  5
356
330
354
100
AcDbEntity
  8
0
 62
     0
370
    -2
100
AcDbLine
 10
-4.426620891412851
 20
32.99463015287159
 30
0.0
 11
-4.426620891412887
 21
39.1600371959108
 31
0.0
  0
MTEXT
  5
357
330
354
100
AcDbEntity
  8
0
 62
     0
100
AcDbMText
 10
-4.426620891412891
 20
40.59937052924412
 30
0.0
 40
0.7040000000000001
 41
0.0
 71
     5
 72
     1
  1
\A1;5.340
 11
0.0000000000000001
 21
1.0
 31
0.0
 73
     1
 44
1.0
1001
ACAD
1000
MTEXTBEGIN
1070
    73
1070
     1
1070
    44
1040
1.0
1070
    74
1070
     0
1000
MTEXTEND
  0
POINT
  5
358
330
354
100
AcDbEntity
  8
Defpoints
 62
     0
100
AcDbPoint
 10
-4.426620891412851
 20
32.74463015287159
 30
0.0
  0
POINT
  5
359
330
354
100
AcDbEntity
  8
Defpoints
 62
     0
100
AcDbPoint
 10
-4.426620891412887
 20
39.1600371959108
 30
0.0
  0
POINT
  5
35A
330
354
100
AcDbEntity
  8
Defpoints
 62
     0
100
AcDbPoint
 10
-9.766620891412827
 20
2.980037195910853
 30
0.0
  0
ENDBLK
  5
35B
330
354
100
AcDbEntity
  8
0
100
AcDbBlockEnd
  0
BLOCK
  5
35D
330
35C
100
AcDbEntity
  8
0
100
AcDbBlockBegin
  2
*D13
 70
     1
 10
0.0
 20
0.0
 30
0.0
  3
*D13
  1

  0
LINE
  5
35E
330
35C
100
AcDbEntity
  8
0
 62
     0
370
    -2
100
AcDbLine
 10
-0.4266208914128529
 20
37.0700371959108
 30
0.0
 11
1.913379108587125
 21
37.0700371959108
 31
0.0
  0
MTEXT
  5
35F
330
35C
100
AcDbEntity
  8
0
 62
     0
100
AcDbMText
 10
3.646045775253791
 20
37.0700371959108
 30
0.0
 40
0.7040000000000001
 41
0.0
 71
     5
 72
     1
  1
\A1;34.090
 73
     1
 44
1.0
1001
ACAD
1000
MTEXTBEGIN
1070
    73
1070
     1
1070
    44
1040
1.0
1070
    74
1070
     0
1000
MTEXTEND
  0
POINT
  5
360
330
35C
100
AcDbEntity
  8
Defpoints
 62
     0
100
AcDbPoint
 10
-0.6766208914128528
 20
37.0700371959108
 30
0.0
  0
POINT
  5
361
330
35C
100
AcDbEntity
  8
Defpoints
 62
     0
100
AcDbPoint
 10
1.913379108587125
 20
37.0700371959108
 30
0.0
  0
POINT
  5
362
330
35C
100
AcDbEntity
  8
Defpoints
 62
     0
100
AcDbPoint
 10
-9.766620891412827
 20
2.980037195910853
 30
0.0
  0
ENDBLK
  5
363
330
35C
100
AcDbEntity
  8
0
100
AcDbBlockEnd
  0
BLOCK
  5
365
330
364
100
AcDbEntity
  8
0
100
AcDbBlockBegin
  2
*D14
 70
     1
 10
0.0
 20
0.0
 30
0.0
  3
*D14
  1

  0
LINE
  5
366
330
364
100
AcDbEntity
  8
0
 62
     0
370
    -2
100
AcDbLine
 10
0.9133791085871223
 20
38.41003719591083
 30
0.0
 11
0.9133791085871223
 21
39.16003719591083
 31
0.0
  0
MTEXT
  5
367
330
364
100
AcDbEntity
  8
0
 62
     0
100
AcDbMText
 10
0.9133791085871159
 20
40.77537052924415
 30
0.0
 40
0.7040000000000001
 41
0.0
 71
     5
 72
     1
  1
\A1;10.680
 11
0.0000000000000001
 21
1.0
 31
0.0
 73
     1
 44
1.0
1001
ACAD
1000
MTEXTBEGIN
1070
    73
1070
     1
1070
    44
1040
1.0
1070
    74
1070
     0
1000
MTEXTEND
  0
POINT
  5
368
330
364
100
AcDbEntity
  8
Defpoints
 62
     0
100
AcDbPoint
 10
0.9133791085871223
 20
38.16003719591083
 30
0.0
  0
POINT
  5
369
330
364
100
AcDbEntity
  8
Defpoints
 62
     0
100
AcDbPoint
 10
0.9133791085871223
 20
39.16003719591083
 30
0.0
  0
POINT
  5
36A
330
364
100
AcDbEntity
  8
Defpoints
 62
     0
100
AcDbPoint
 10
-9.766620891412827
 20
2.980037195910853
 30
0.0
  0
ENDBLK
  5
36B
330
364
100
AcDbEntity
  8
0
100
AcDbBlockEnd
  0
BLOCK
  5
36D
330
36C
100
AcDbEntity
  8
0
100
AcDbBlockBegin
  2
*D15
 70
     1
 10
0.0
 20
0.0
 30
0.0
  3
*D15
  1

  0
LINE
  5
36E
330
36C
100
AcDbEntity
  8
0
 62
     0
370
    -2
100
AcDbLine
 10
1.163379108587122
 20
38.16003719591083
 30
0.0
 11
1.91337910858712
 21
38.16003719591083
 31
0.0
  0
MTEXT
  5
36F
330
36C
100
AcDbEntity
  8
0
 62
     0
100
AcDbMText
 10
3.587379108587121
 20
38.16003719591083
 30
0.0
 40
0.7040000000000001
 41
0.0
 71
     5
 72
     1
  1
\A1;35.180
 73
     1
 44
1.0
1001
ACAD
1000
MTEXTBEGIN
1070
    73
1070
     1
1070
    44
1040
1.0
1070
    74
1070
     0
1000
MTEXTEND
  0
POINT
  5
370
330
36C
100
AcDbEntity
  8
Defpoints
 62
     0
100
AcDbPoint
 10
0.9133791085871223
 20
38.16003719591083
 30
0.0
  0
POINT
  5
371
330
36C
100
AcDbEntity
  8
Defpoints
 62
     0
100
AcDbPoint
 10
1.91337910858712
 20
38.16003719591083
 30
0.0
  0
POINT
  5
372
330
36C
100
AcDbEntity
  8
Defpoints
 62
     0
100
AcDbPoint
 10
-9.766620891412827
 20
2.980037195910853
 30
0.0
  0
ENDBLK
  5
373
330
36C
100
AcDbEntity
  8
0
100
AcDbBlockEnd
  0
BLOCK
  5
375
330
374
100
AcDbEntity
  8
0
100
AcDbBlockBegin
  2
*D16
 70
     1
 10
0.0
 20
0.0
 30
0.0
  3
*D16
  1

  0
LINE
  5
376
330
374
100
AcDbEntity
  8
0
 62
     0
370
    -2
100
AcDbLine
 10
-9.266620891412882
 20
14.76183597998152
 30
0.0
 11
-9.266620891412882
 21
13.60903457198341
 31
0.0
  0
LINE
  5
377
330
374
100
AcDbEntity
  8
0
 62
     0
370
    -2
100
AcDbLine
 10
-9.266620891412882
 20
13.60903457198341
 30
0.0
 11
-7.464353850581915
 21
13.24903457198341
 31
0.0
  0
LINE
  5
378
330
374
100
AcDbEntity
  8
0
 62
     0
370
    -2
100
AcDbLine
 10
-7.464353850581915
 20
13.24903457198341
 30
0.0
 11
-7.464353850581915
 21
12.88903457198341
 31
0.0
  0
MTEXT
  5
379
330
374
100
AcDbEntity
  8
0
 62
     0
100
AcDbMText
 10
-7.464353850581916
 20
11.56703457198341
 30
0.0
 40
0.7040000000000001
 41
0.0
 71
     5
 72
     1
  1
\A1;0.500
 11
0.0000000000000001
 21
1.0
 31
0.0
 73
     1
 44
1.0
1001
ACAD
1000
MTEXTBEGIN
1070
    73
1070
     1
1070
    44
1040
1.0
1070
    74
1070
     0
1000
MTEXTEND
  0
POINT
  5
37A
330
374
100
AcDbEntity
  8
Defpoints
 62
     0
100
AcDbPoint
 10
-9.266620891412882
 20
15.01183597998152
 30
0.0
  0
POINT
  5
37B
330
374
100
AcDbEntity
  8
Defpoints
 62
     0
100
AcDbPoint
 10
-7.464353850581915
 20
12.88903457198341
 30
0.0
  0
POINT
  5
37C
330
374
100
AcDbEntity
  8
Defpoints
 62
     0
100
AcDbPoint
 10
-9.766620891412827
 20
2.980037195910853
 30
0.0
  0
ENDBLK
  5
37D
330
374
100
AcDbEntity
  8
0
100
AcDbBlockEnd
  0
BLOCK
  5
37F
330
37E
100
AcDbEntity
  8
0
100
AcDbBlockBegin
  2
*D17
 70
     1
 10
0.0
 20
0.0
 30
0.0
  3
*D17
  1

  0
LINE
  5
380
330
37E
100
AcDbEntity
  8
0
 62
     0
370
    -2
100
AcDbLine
 10
0.4133791085871791
 20
14.76183597998149
 30
0.0
 11
0.413379108587179
 21
13.60903457198341
 31
0.0
  0
LINE
  5
381
330
37E
100
AcDbEntity
  8
0
 62
     0
370
    -2
100
AcDbLine
 10
0.413379108587179
 20
13.60903457198341
 30
0.0
 11
-1.425701934194762
 21
13.24903457198341
 31
0.0
  0
LINE
  5
382
330
37E
100
AcDbEntity
  8
0
 62
     0
370
    -2
100
AcDbLine
 10
-1.425701934194762
 20
13.24903457198341
 30
0.0
 11
-1.425701934194762
 21
12.88903457198341
 31
0.0
  0
MTEXT
  5
383
330
37E
100
AcDbEntity
  8
0
 62
     0
100
AcDbMText
 10
-1.425701934194764
 20
11.39103457198341
 30
0.0
 40
0.7040000000000001
 41
0.0
 71
     5
 72
     1
  1
\A1;10.180
 11
0.0000000000000001
 21
1.0
 31
0.0
 73
     1
 44
1.0
1001
ACAD
1000
MTEXTBEGIN
1070
    73
1070
     1
1070
    44
1040
1.0
1070
    74
1070
     0
1000
MTEXTEND
  0
POINT
  5
384
330
37E
100
AcDbEntity
  8
Defpoints
 62
     0
100
AcDbPoint
 10
0.4133791085871792
 20
15.01183597998149
 30
0.0
  0
POINT
  5
385
330
37E
100
AcDbEntity
  8
Defpoints
 62
     0
100
AcDbPoint
 10
-1.425701934194762
 20
12.88903457198341
 30
0.0
  0
POINT
  5
386
330
37E
100
AcDbEntity
  8
Defpoints
 62
     0
100
AcDbPoint
 10
-9.766620891412827
 20
2.980037195910853
 30
0.0
  0
ENDBLK
  5
387
330
37E
100
AcDbEntity
  8
0
100
AcDbBlockEnd
  0
BLOCK
  5
389
330
388
100
AcDbEntity
  8
0
100
AcDbBlockBegin
  2
*D18
 70
     1
 10
0.0
 20
0.0
 30
0.0
  3
*D18
  1

  0
LINE
  5
38A
330
388
100
AcDbEntity
  8
0
 62
     0
370
    -2
100
AcDbLine
 10
2.617379108587293
 20
24.66670218456068
 30
0.0
 11
1.91337910858726
 21
24.66670218456068
 31
0.0
  0
LINE
  5
38B
330
388
100
AcDbEntity
  8
0
 62
     0
370
    -2
100
AcDbLine
 10
1.91337910858726
 20
24.66670218456068
 30
0.0
 11
-0.0975192938572551
 21
27.0203272739209
 31
0.0
  0
MTEXT
  5
38C
330
388
100
AcDbEntity
  8
0
 62
     0
100
AcDbMText
 10
5.582045775253957
 20
24.66670218456068
 30
0.0
 40
0.7040000000000001
 41
0.0
 71
     5
 72
     1
  1
\A1;\U+22050.375 (8)
 73
     1
 44
1.0
1001
ACAD
1000
MTEXTBEGIN
1070
    73
1070
     1
1070
    44
1040
1.0
1070
    74
1070
     0
1000
MTEXTEND
  0
SOLID
  5
38D
330
388
100
AcDbEntity
  8
0
 62
     0
100
AcDbTrace
 10
-0.0083116682554607
 20
27.09654479582762
 30
0.0
 11
-0.1867269194590513
 21
26.94410975201418
 31
0.0
 12
-0.5548244252975696
 22
27.55557302753167
 32
0.0
 13
-0.5548244252975696
 23
27.55557302753167
 33
0.0
  0
LINE
  5
38E
330
388
100
AcDbEntity
  8
0
 62
     0
370
    -2
100
AcDbLine
 10
-0.7666208914127087
 20
27.69812782696635
 30
0.0
 11
-0.5866208914127107
 21
27.69812782696635
 31
0.0
  0
LINE
  5
38F
330
388
100
AcDbEntity
  8
0
 62
     0
370
    -2
100
AcDbLine
 10
-0.6766208914127107
 20
27.60812782696636
 30
0.0
 11
-0.6766208914127107
 21
27.78812782696635
 31
0.0
  0
POINT
  5
390
330
388
100
AcDbEntity
  8
Defpoints
 62
     0
100
AcDbPoint
 10
-0.5548244252975696
 20
27.55557302753167
 30
0.0
  0
POINT
  5
391
330
388
100
AcDbEntity
  8
Defpoints
 62
     0
100
AcDbPoint
 10
-0.7984173575278515
 20
27.84068262640104
 30
0.0
  0
ENDBLK
  5
392
330
388
100
AcDbEntity
  8
0
100
AcDbBlockEnd
  0
BLOCK
  5
394
330
393
100
AcDbEntity
  8
0
100
AcDbBlockBegin
  2
*D19
 70
     1
 10
0.0
 20
0.0
 30
0.0
  3
*D19
  1

  0
LINE
  5
395
330
393
100
AcDbEntity
  8
0
 62
     0
370
    -2
100
AcDbLine
 10
-7.614544301709929
 20
39.23370248942074
 30
0.0
 11
-7.434544301709933
 21
39.23370248942075
 31
0.0
  0
LINE
  5
396
330
393
100
AcDbEntity
  8
0
 62
     0
370
    -2
100
AcDbLine
 10
-7.434544301709933
 20
39.23370248942075
 30
0.0
 11
-5.974253007331664
 21
36.08337764763314
 31
0.0
  0
MTEXT
  5
397
330
393
100
AcDbEntity
  8
0
 62
     0
100
AcDbMText
 10
-9.288544301709928
 20
39.23370248942076
 30
0.0
 40
0.7040000000000001
 41
0.0
 71
     5
 72
     1
  1
\A1;\U+22057.000
 73
     1
 44
1.0
1001
ACAD
1000
MTEXTBEGIN
1070
    73
1070
     1
1070
    44
1040
1.0
1070
    74
1070
     0
1000
MTEXTEND
  0
SOLID
  5
398
330
393
100
AcDbEntity
  8
0
 62
     0
100
AcDbTrace
 10
-5.94703495710263
 20
36.09599421379551
 30
0.0
 11
-6.001471057560697
 21
36.07076108147075
 31
0.0
 12
-5.898553610357371
 22
35.92006934625894
 32
0.0
 13
-5.898553610357371
 23
35.92006934625894
 33
0.0
  0
LINE
  5
399
330
393
100
AcDbEntity
  8
0
 62
     0
370
    -2
100
AcDbLine
 10
-4.516620891412794
 20
32.74463015287158
 30
0.0
 11
-4.336620891412794
 21
32.74463015287157
 31
0.0
  0
LINE
  5
39A
330
393
100
AcDbEntity
  8
0
 62
     0
370
    -2
100
AcDbLine
 10
-4.426620891412794
 20
32.65463015287159
 30
0.0
 11
-4.426620891412794
 21
32.83463015287158
 31
0.0
  0
POINT
  5
39B
330
393
100
AcDbEntity
  8
Defpoints
 62
     0
100
AcDbPoint
 10
-5.898553610357371
 20
35.92006934625894
 30
0.0
  0
POINT
  5
39C
330
393
100
AcDbEntity
  8
Defpoints
 62
     0
100
AcDbPoint
 10
-2.95468817246822
 20
29.56919095948423
 30
0.0
  0
ENDBLK
  5
39D
330
393
100
AcDbEntity
  8
0
100
AcDbBlockEnd
  0
BLOCK
  5
39F
330
39E
100
AcDbEntity
  8
0
100
AcDbBlockBegin
  2
*D20
 70
     1
 10
0.0
 20
0.0
 30
0.0
  3
*D20
  1

  0
LINE
  5
3A0
330
39E
100
AcDbEntity
  8
0
 62
     0
370
    -2
100
AcDbLine
 10
-8.516620891412671
 20
21.5947741329975
 30
0.0
 11
-10.76662089141289
 21
21.5947741329975
 31
0.0
  0
MTEXT
  5
3A1
330
39E
100
AcDbEntity
  8
0
 62
     0
100
AcDbMText
 10
-12.38195422474622
 20
21.5947741329975
 30
0.0
 40
0.7040000000000001
 41
0.0
 71
     5
 72
     1
  1
\A1;18.615
 73
     1
 44
1.0
1001
ACAD
1000
MTEXTBEGIN
1070
    73
1070
     1
1070
    44
1040
1.0
1070
    74
1070
     0
1000
MTEXTEND
  0
POINT
  5
3A2
330
39E
100
AcDbEntity
  8
Defpoints
 62
     0
100
AcDbPoint
 10
-8.266620891412671
 20
21.5947741329975
 30
0.0
  0
POINT
  5
3A3
330
39E
100
AcDbEntity
  8
Defpoints
 62
     0
100
AcDbPoint
 10
-10.76662089141289
 20
21.5947741329975
 30
0.0
  0
POINT
  5
3A4
330
39E
100
AcDbEntity
  8
Defpoints
 62
     0
100
AcDbPoint
 10
-9.766620891412939
 20
2.980037195910881
 30
0.0
  0
ENDBLK
  5
3A5
330
39E
100
AcDbEntity
  8
0
100
AcDbBlockEnd
  0
BLOCK
  5
3A7
330
3A6
100
AcDbEntity
  8
0
100
AcDbBlockBegin
  2
*D21
 70
     1
 10
0.0
 20
0.0
 30
0.0
  3
*D21
  1

  0
LINE
  5
3A8
330
3A6
100
AcDbEntity
  8
0
 62
     0
370
    -2
100
AcDbLine
 10
-8.516620891412671
 20
26.5947741329975
 30
0.0
 11
-10.76662089141288
 21
26.5947741329975
 31
0.0
  0
MTEXT
  5
3A9
330
3A6
100
AcDbEntity
  8
0
 62
     0
100
AcDbMText
 10
-12.49928755807955
 20
26.5947741329975
 30
0.0
 40
0.7040000000000001
 41
0.0
 71
     5
 72
     1
  1
\A1;23.615
 73
     1
 44
1.0
1001
ACAD
1000
MTEXTBEGIN
1070
    73
1070
     1
1070
    44
1040
1.0
1070
    74
1070
     0
1000
MTEXTEND
  0
POINT
  5
3AA
330
3A6
100
AcDbEntity
  8
Defpoints
 62
     0
100
AcDbPoint
 10
-8.266620891412671
 20
26.5947741329975
 30
0.0
  0
POINT
  5
3AB
330
3A6
100
AcDbEntity
  8
Defpoints
 62
     0
100
AcDbPoint
 10
-10.76662089141288
 20
26.5947741329975
 30
0.0
  0
POINT
  5
3AC
330
3A6
100
AcDbEntity
  8
Defpoints
 62
     0
100
AcDbPoint
 10
-9.766620891412939
 20
2.980037195910881
 30
0.0
  0
ENDBLK
  5
3AD
330
3A6
100
AcDbEntity
  8
0
100
AcDbBlockEnd
  0
BLOCK
  5
3AF
330
3AE
100
AcDbEntity
  8
0
100
AcDbBlockBegin
  2
*D22
 70
     1
 10
0.0
 20
0.0
 30
0.0
  3
*D22
  1

  0
LINE
  5
3B0
330
3AE
100
AcDbEntity
  8
0
 62
     0
370
    -2
100
AcDbLine
 10
-7.016620891412599
 20
30.14186239527183
 30
0.0
 11
-10.76662089141288
 21
30.14186239527183
 31
0.0
  0
MTEXT
  5
3B1
330
3AE
100
AcDbEntity
  8
0
 62
     0
100
AcDbMText
 10
-12.49928755807955
 20
30.14186239527183
 30
0.0
 40
0.7040000000000001
 41
0.0
 71
     5
 72
     1
  1
\A1;27.162
 73
     1
 44
1.0
1001
ACAD
1000
MTEXTBEGIN
1070
    73
1070
     1
1070
    44
1040
1.0
1070
    74
1070
     0
1000
MTEXTEND
  0
POINT
  5
3B2
330
3AE
100
AcDbEntity
  8
Defpoints
 62
     0
100
AcDbPoint
 10
-6.766620891412599
 20
30.14186239527183
 30
0.0
  0
POINT
  5
3B3
330
3AE
100
AcDbEntity
  8
Defpoints
 62
     0
100
AcDbPoint
 10
-10.76662089141288
 20
30.14186239527183
 30
0.0
  0
POINT
  5
3B4
330
3AE
100
AcDbEntity
  8
Defpoints
 62
     0
100
AcDbPoint
 10
-9.766620891412939
 20
2.980037195910881
 30
0.0
  0
ENDBLK
  5
3B5
330
3AE
100
AcDbEntity
  8
0
100
AcDbBlockEnd
  0
BLOCK
  5
3B7
330
3B6
100
AcDbEntity
  8
0
100
AcDbBlockBegin
  2
*D23
 70
     1
 10
0.0
 20
0.0
 30
0.0
  3
*D23
  1

  0
LINE
  5
3B8
330
3B6
100
AcDbEntity
  8
0
 62
     0
370
    -2
100
AcDbLine
 10
-6.766620891412599
 20
26.3447741329975
 30
0.0
 11
-6.766620891412599
 21
25.03211814973611
 31
0.0
  0
MTEXT
  5
3B9
330
3B6
100
AcDbEntity
  8
0
 62
     0
100
AcDbMText
 10
-6.766620891412602
 20
23.71011814973611
 30
0.0
 40
0.7040000000000001
 41
0.0
 71
     5
 72
     1
  1
\A1;3.000
 11
0.0000000000000001
 21
1.0
 31
0.0
 73
     1
 44
1.0
1001
ACAD
1000
MTEXTBEGIN
1070
    73
1070
     1
1070
    44
1040
1.0
1070
    74
1070
     0
1000
MTEXTEND
  0
POINT
  5
3BA
330
3B6
100
AcDbEntity
  8
Defpoints
 62
     0
100
AcDbPoint
 10
-6.766620891412599
 20
26.5947741329975
 30
0.0
  0
POINT
  5
3BB
330
3B6
100
AcDbEntity
  8
Defpoints
 62
     0
100
AcDbPoint
 10
-6.766620891412599
 20
25.03211814973611
 30
0.0
  0
POINT
  5
3BC
330
3B6
100
AcDbEntity
  8
Defpoints
 62
     0
100
AcDbPoint
 10
-9.766620891412939
 20
2.980037195910881
 30
0.0
  0
ENDBLK
  5
3BD
330
3B6
100
AcDbEntity
  8
0
100
AcDbBlockEnd
  0
BLOCK
  5
3BF
330
3BE
100
AcDbEntity
  8
0
100
AcDbBlockBegin
  2
*D24
 70
     1
 10
0.0
 20
0.0
 30
0.0
  3
*D24
  1

  0
LINE
  5
3C0
330
3BE
100
AcDbEntity
  8
0
 62
     0
370
    -2
100
AcDbLine
 10
-2.08662089141299
 20
26.34477413299749
 30
0.0
 11
-2.08662089141299
 21
25.03211814973611
 31
0.0
  0
MTEXT
  5
3C1
330
3BE
100
AcDbEntity
  8
0
 62
     0
100
AcDbMText
 10
-2.086620891412994
 20
23.59278481640277
 30
0.0
 40
0.7040000000000001
 41
0.0
 71
     5
 72
     1
  1
\A1;7.680
 11
0.0000000000000001
 21
1.0
 31
0.0
 73
     1
 44
1.0
1001
ACAD
1000
MTEXTBEGIN
1070
    73
1070
     1
1070
    44
1040
1.0
1070
    74
1070
     0
1000
MTEXTEND
  0
POINT
  5
3C2
330
3BE
100
AcDbEntity
  8
Defpoints
 62
     0
100
AcDbPoint
 10
-2.08662089141299
 20
26.59477413299749
 30
0.0
  0
POINT
  5
3C3
330
3BE
100
AcDbEntity
  8
Defpoints
 62
     0
100
AcDbPoint
 10
-2.08662089141299
 20
25.03211814973611
 30
0.0
  0
POINT
  5
3C4
330
3BE
100
AcDbEntity
  8
Defpoints
 62
     0
100
AcDbPoint
 10
-9.766620891412939
 20
2.980037195910881
 30
0.0
  0
ENDBLK
  5
3C5
330
3BE
100
AcDbEntity
  8
0
100
AcDbBlockEnd
  0
BLOCK
  5
3C7
330
3C6
100
AcDbEntity
  8
0
100
AcDbBlockBegin
  2
*D25
 70
     1
 10
0.0
 20
0.0
 30
0.0
  3
*D25
  1

  0
LINE
  5
3C8
330
3C6
100
AcDbEntity
  8
0
 62
     0
370
    -2
100
AcDbLine
 10
-8.266620891412671
 20
21.3447741329975
 30
0.0
 11
-8.266620891412673
 21
13.60903457198341
 31
0.0
  0
LINE
  5
3C9
330
3C6
100
AcDbEntity
  8
0
 62
     0
370
    -2
100
AcDbLine
 10
-8.266620891412673
 20
13.60903457198341
 30
0.0
 11
-5.817203491374812
 21
13.24903457198341
 31
0.0
  0
LINE
  5
3CA
330
3C6
100
AcDbEntity
  8
0
 62
     0
370
    -2
100
AcDbLine
 10
-5.817203491374812
 20
13.24903457198341
 30
0.0
 11
-5.817203491374812
 21
12.88903457198341
 31
0.0
  0
MTEXT
  5
3CB
330
3C6
100
AcDbEntity
  8
0
 62
     0
100
AcDbMText
 10
-5.817203491374812
 20
11.62570123865007
 30
0.0
 40
0.7040000000000001
 41
0.0
 71
     5
 72
     1
  1
\A1;1.500
 11
0.0000000000000001
 21
1.0
 31
0.0
 73
     1
 44
1.0
1001
ACAD
1000
MTEXTBEGIN
1070
    73
1070
     1
1070
    44
1040
1.0
1070
    74
1070
     0
1000
MTEXTEND
  0
POINT
  5
3CC
330
3C6
100
AcDbEntity
  8
Defpoints
 62
     0
100
AcDbPoint
 10
-8.266620891412671
 20
21.5947741329975
 30
0.0
  0
POINT
  5
3CD
330
3C6
100
AcDbEntity
  8
Defpoints
 62
     0
100
AcDbPoint
 10
-5.817203491374812
 20
12.88903457198341
 30
0.0
  0
POINT
  5
3CE
330
3C6
100
AcDbEntity
  8
Defpoints
 62
     0
100
AcDbPoint
 10
-9.766620891412939
 20
2.980037195910881
 30
0.0
  0
ENDBLK
  5
3CF
330
3C6
100
AcDbEntity
  8
0
100
AcDbBlockEnd
  0
BLOCK
  5
3D1
330
3D0
100
AcDbEntity
  8
0
100
AcDbBlockBegin
  2
*D26
 70
     1
 10
0.0
 20
0.0
 30
0.0
  3
*D26
  1

  0
LINE
  5
3D2
330
3D0
100
AcDbEntity
  8
0
 62
     0
370
    -2
100
AcDbLine
 10
-0.5866208914130339
 20
21.3447741329975
 30
0.0
 11
-0.5866208914130358
 21
13.78903457198341
 31
0.0
  0
LINE
  5
3D3
330
3D0
100
AcDbEntity
  8
0
 62
     0
370
    -2
100
AcDbLine
 10
-0.5866208914130358
 20
13.78903457198341
 30
0.0
 11
-2.780790599330542
 21
13.42903457198341
 31
0.0
  0
LINE
  5
3D4
330
3D0
100
AcDbEntity
  8
0
 62
     0
370
    -2
100
AcDbLine
 10
-2.780790599330542
 20
13.42903457198341
 30
0.0
 11
-2.780790599330542
 21
13.06903457198341
 31
0.0
  0
MTEXT
  5
3D5
330
3D0
100
AcDbEntity
  8
0
 62
     0
100
AcDbMText
 10
-2.780790599330545
 20
11.74703457198341
 30
0.0
 40
0.7040000000000001
 41
0.0
 71
     5
 72
     1
  1
\A1;9.180
 11
0.0000000000000001
 21
1.0
 31
0.0
 73
     1
 44
1.0
1001
ACAD
1000
MTEXTBEGIN
1070
    73
1070
     1
1070
    44
1040
1.0
1070
    74
1070
     0
1000
MTEXTEND
  0
POINT
  5
3D6
330
3D0
100
AcDbEntity
  8
Defpoints
 62
     0
100
AcDbPoint
 10
-0.5866208914130339
 20
21.5947741329975
 30
0.0
  0
POINT
  5
3D7
330
3D0
100
AcDbEntity
  8
Defpoints
 62
     0
100
AcDbPoint
 10
-2.780790599330542
 20
13.06903457198341
 30
0.0
  0
POINT
  5
3D8
330
3D0
100
AcDbEntity
  8
Defpoints
 62
     0
100
AcDbPoint
 10
-9.766620891412939
 20
2.980037195910881
 30
0.0
  0
ENDBLK
  5
3D9
330
3D0
100
AcDbEntity
  8
0
100
AcDbBlockEnd
  0
BLOCK
  5
48F
330
487
100
AcDbEntity
  8
0
100
AcDbBlockBegin
  2
*D28
 70
     1
 10
0.0
 20
0.0
 30
0.0
  3
*D28
  1

  0
LINE
  5
4D3
330
487
100
AcDbEntity
  8
0
 62
     0
370
    -2
100
AcDbLine
 10
43.84713673788737
 20
15.21496179524555
 30
0.0
 11
43.84713673788737
 21
7.65922223423146
 31
0.0
  0
LINE
  5
4D4
330
487
100
AcDbEntity
  8
0
 62
     0
370
    -2
100
AcDbLine
 10
43.84713673788737
 20
7.65922223423146
 30
0.0
 11
41.65296702996985
 21
7.299222234231462
 31
0.0
  0
LINE
  5
4D5
330
487
100
AcDbEntity
  8
0
 62
     0
370
    -2
100
AcDbLine
 10
41.65296702996985
 20
7.299222234231462
 30
0.0
 11
41.65296702996985
 21
6.939222234231461
 31
0.0
  0
MTEXT
  5
4D6
330
487
100
AcDbEntity
  8
0
 62
     0
100
AcDbMText
 10
41.65296702996985
 20
5.617222234231467
 30
0.0
 40
0.7040000000000001
 41
0.0
 71
     5
 72
     1
  1
\A1;9.180
 11
0.0000000000000001
 21
1.0
 31
0.0
 73
     1
 44
1.0
1001
ACAD
1000
MTEXTBEGIN
1070
    73
1070
     1
1070
    44
1040
1.0
1070
    74
1070
     0
1000
MTEXTEND
  0
POINT
  5
4D7
330
487
100
AcDbEntity
  8
Defpoints
 62
     0
100
AcDbPoint
 10
43.84713673788737
 20
15.46496179524555
 30
0.0
  0
POINT
  5
4D8
330
487
100
AcDbEntity
  8
Defpoints
 62
     0
100
AcDbPoint
 10
41.65296702996985
 20
6.939222234231461
 30
0.0
  0
POINT
  5
4D9
330
487
100
AcDbEntity
  8
Defpoints
 62
     0
100
AcDbPoint
 10
34.66713673788746
 20
-3.149775141841068
 30
0.0
  0
ENDBLK
  5
490
330
487
100
AcDbEntity
  8
0
100
AcDbBlockEnd
  0
BLOCK
  5
499
330
491
100
AcDbEntity
  8
0
100
AcDbBlockBegin
  2
*D29
 70
     1
 10
0.0
 20
0.0
 30
0.0
  3
*D29
  1

  0
LINE
  5
52C
330
491
100
AcDbEntity
  8
0
 62
     0
370
    -2
100
AcDbLine
 10
35.16713673788752
 20
8.632023642229569
 30
0.0
 11
35.16713673788752
 21
7.479222234231458
 31
0.0
  0
LINE
  5
52D
330
491
100
AcDbEntity
  8
0
 62
     0
370
    -2
100
AcDbLine
 10
35.16713673788752
 20
7.479222234231458
 30
0.0
 11
36.96940377871849
 21
7.119222234231458
 31
0.0
  0
LINE
  5
52E
330
491
100
AcDbEntity
  8
0
 62
     0
370
    -2
100
AcDbLine
 10
36.96940377871849
 20
7.119222234231458
 30
0.0
 11
36.96940377871849
 21
6.759222234231458
 31
0.0
  0
MTEXT
  5
52F
330
491
100
AcDbEntity
  8
0
 62
     0
100
AcDbMText
 10
36.96940377871849
 20
5.437222234231463
 30
0.0
 40
0.7040000000000001
 41
0.0
 71
     5
 72
     1
  1
\A1;0.500
 11
0.0000000000000001
 21
1.0
 31
0.0
 73
     1
 44
1.0
1001
ACAD
1000
MTEXTBEGIN
1070
    73
1070
     1
1070
    44
1040
1.0
1070
    74
1070
     0
1000
MTEXTEND
  0
POINT
  5
530
330
491
100
AcDbEntity
  8
Defpoints
 62
     0
100
AcDbPoint
 10
35.16713673788752
 20
8.882023642229569
 30
0.0
  0
POINT
  5
531
330
491
100
AcDbEntity
  8
Defpoints
 62
     0
100
AcDbPoint
 10
36.96940377871849
 20
6.759222234231458
 30
0.0
  0
POINT
  5
532
330
491
100
AcDbEntity
  8
Defpoints
 62
     0
100
AcDbPoint
 10
34.66713673788758
 20
-3.149775141841097
 30
0.0
  0
ENDBLK
  5
49A
330
491
100
AcDbEntity
  8
0
100
AcDbBlockEnd
  0
BLOCK
  5
4A1
330
49B
100
AcDbEntity
  8
0
100
AcDbBlockBegin
  2
*D30
 70
     1
 10
0.0
 20
0.0
 30
0.0
  3
*D30
  1

  0
LINE
  5
533
330
49B
100
AcDbEntity
  8
0
 62
     0
370
    -2
100
AcDbLine
 10
45.59713673788752
 20
32.03022485815888
 30
0.0
 11
46.34713673788752
 21
32.03022485815888
 31
0.0
  0
MTEXT
  5
534
330
49B
100
AcDbEntity
  8
0
 62
     0
100
AcDbMText
 10
48.02113673788753
 20
32.03022485815888
 30
0.0
 40
0.7040000000000001
 41
0.0
 71
     5
 72
     1
  1
\A1;35.180
 73
     1
 44
1.0
1001
ACAD
1000
MTEXTBEGIN
1070
    73
1070
     1
1070
    44
1040
1.0
1070
    74
1070
     0
1000
MTEXTEND
  0
POINT
  5
535
330
49B
100
AcDbEntity
  8
Defpoints
 62
     0
100
AcDbPoint
 10
45.34713673788752
 20
32.03022485815888
 30
0.0
  0
POINT
  5
536
330
49B
100
AcDbEntity
  8
Defpoints
 62
     0
100
AcDbPoint
 10
46.34713673788752
 20
32.03022485815888
 30
0.0
  0
POINT
  5
537
330
49B
100
AcDbEntity
  8
Defpoints
 62
     0
100
AcDbPoint
 10
34.66713673788758
 20
-3.149775141841097
 30
0.0
  0
ENDBLK
  5
4A2
330
49B
100
AcDbEntity
  8
0
100
AcDbBlockEnd
  0
BLOCK
  5
4A9
330
4A3
100
AcDbEntity
  8
0
100
AcDbBlockBegin
  2
*D31
 70
     1
 10
0.0
 20
0.0
 30
0.0
  3
*D31
  1

  0
LINE
  5
548
330
4A3
100
AcDbEntity
  8
0
 62
     0
370
    -2
100
AcDbLine
 10
40.00713673788754
 20
26.86481781511964
 30
0.0
 11
40.00713673788751
 21
33.03022485815885
 31
0.0
  0
MTEXT
  5
549
330
4A3
100
AcDbEntity
  8
0
 62
     0
100
AcDbMText
 10
40.00713673788751
 20
34.46955819149219
 30
0.0
 40
0.7040000000000001
 41
0.0
 71
     5
 72
     1
  1
\A1;5.340
 11
0.0000000000000001
 21
1.0
 31
0.0
 73
     1
 44
1.0
1001
ACAD
1000
MTEXTBEGIN
1070
    73
1070
     1
1070
    44
1040
1.0
1070
    74
1070
     0
1000
MTEXTEND
  0
POINT
  5
54A
330
4A3
100
AcDbEntity
  8
Defpoints
 62
     0
100
AcDbPoint
 10
40.00713673788754
 20
26.61481781511964
 30
0.0
  0
POINT
  5
54B
330
4A3
100
AcDbEntity
  8
Defpoints
 62
     0
100
AcDbPoint
 10
40.00713673788751
 20
33.03022485815885
 30
0.0
  0
POINT
  5
54C
330
4A3
100
AcDbEntity
  8
Defpoints
 62
     0
100
AcDbPoint
 10
34.66713673788758
 20
-3.149775141841097
 30
0.0
  0
ENDBLK
  5
4AA
330
4A3
100
AcDbEntity
  8
0
100
AcDbBlockEnd
  0
BLOCK
  5
4B1
330
4AB
100
AcDbEntity
  8
0
100
AcDbBlockBegin
  2
*D32
 70
     1
 10
0.0
 20
0.0
 30
0.0
  3
*D32
  1

  0
LINE
  5
54D
330
4AB
100
AcDbEntity
  8
0
 62
     0
370
    -2
100
AcDbLine
 10
39.7571367378876
 20
26.61481781511964
 30
0.0
 11
33.66713673788756
 21
26.6148178151197
 31
0.0
  0
MTEXT
  5
54E
330
4AB
100
AcDbEntity
  8
0
 62
     0
100
AcDbMText
 10
31.81713673788756
 20
26.6148178151197
 30
0.0
 40
0.7040000000000001
 41
0.0
 71
     5
 72
     1
  1
\A1;29.765
 73
     1
 44
1.0
1001
ACAD
1000
MTEXTBEGIN
1070
    73
1070
     1
1070
    44
1040
1.0
1070
    74
1070
     0
1000
MTEXTEND
  0
POINT
  5
54F
330
4AB
100
AcDbEntity
  8
Defpoints
 62
     0
100
AcDbPoint
 10
40.0071367378876
 20
26.61481781511964
 30
0.0
  0
POINT
  5
550
330
4AB
100
AcDbEntity
  8
Defpoints
 62
     0
100
AcDbPoint
 10
33.66713673788756
 20
26.6148178151197
 30
0.0
  0
POINT
  5
551
330
4AB
100
AcDbEntity
  8
Defpoints
 62
     0
100
AcDbPoint
 10
34.66713673788758
 20
-3.149775141841097
 30
0.0
  0
ENDBLK
  5
4B2
330
4AB
100
AcDbEntity
  8
0
100
AcDbBlockEnd
  0
BLOCK
  5
4B9
330
4B3
100
AcDbEntity
  8
0
100
AcDbBlockBegin
  2
*D33
 70
     1
 10
0.0
 20
0.0
 30
0.0
  3
*D33
  1

  0
LINE
  5
56A
330
4B3
100
AcDbEntity
  8
0
 62
     0
370
    -2
100
AcDbLine
 10
44.00713673788755
 20
6.440224858158877
 30
0.0
 11
46.34713673788761
 21
6.44022485815892
 31
0.0
  0
MTEXT
  5
56B
330
4B3
100
AcDbEntity
  8
0
 62
     0
100
AcDbMText
 10
47.78647007122095
 20
6.44022485815892
 30
0.0
 40
0.7040000000000001
 41
0.0
 71
     5
 72
     1
  1
\A1;9.590
 73
     1
 44
1.0
1001
ACAD
1000
MTEXTBEGIN
1070
    73
1070
     1
1070
    44
1040
1.0
1070
    74
1070
     0
1000
MTEXTEND
  0
POINT
  5
56C
330
4B3
100
AcDbEntity
  8
Defpoints
 62
     0
100
AcDbPoint
 10
43.75713673788754
 20
6.440224858158877
 30
0.0
  0
POINT
  5
56D
330
4B3
100
AcDbEntity
  8
Defpoints
 62
     0
100
AcDbPoint
 10
46.34713673788761
 20
6.44022485815892
 30
0.0
  0
POINT
  5
56E
330
4B3
100
AcDbEntity
  8
Defpoints
 62
     0
100
AcDbPoint
 10
34.66713673788758
 20
-3.149775141841097
 30
0.0
  0
ENDBLK
  5
4BA
330
4B3
100
AcDbEntity
  8
0
100
AcDbBlockEnd
  0
BLOCK
  5
4C1
330
4BB
100
AcDbEntity
  8
0
100
AcDbBlockBegin
  2
*D34
 70
     1
 10
0.0
 20
0.0
 30
0.0
  3
*D34
  1

  0
LINE
  5
577
330
4BB
100
AcDbEntity
  8
0
 62
     0
370
    -2
100
AcDbLine
 10
36.25713673788761
 20
-0.809775141841154
 30
0.0
 11
36.25713673788761
 21
-4.149775141841089
 31
0.0
  0
MTEXT
  5
578
330
4BB
100
AcDbEntity
  8
0
 62
     0
100
AcDbMText
 10
36.25713673788761
 20
-5.471775141841083
 30
0.0
 40
0.7040000000000001
 41
0.0
 71
     5
 72
     1
  1
\A1;1.590
 11
0.0000000000000001
 21
1.0
 31
0.0
 73
     1
 44
1.0
1001
ACAD
1000
MTEXTBEGIN
1070
    73
1070
     1
1070
    44
1040
1.0
1070
    74
1070
     0
1000
MTEXTEND
  0
POINT
  5
579
330
4BB
100
AcDbEntity
  8
Defpoints
 62
     0
100
AcDbPoint
 10
36.25713673788761
 20
-0.5597751418411541
 30
0.0
  0
POINT
  5
57A
330
4BB
100
AcDbEntity
  8
Defpoints
 62
     0
100
AcDbPoint
 10
36.25713673788761
 20
-4.149775141841089
 30
0.0
  0
POINT
  5
57B
330
4BB
100
AcDbEntity
  8
Defpoints
 62
     0
100
AcDbPoint
 10
34.66713673788758
 20
-3.149775141841097
 30
0.0
  0
ENDBLK
  5
4C2
330
4BB
100
AcDbEntity
  8
0
100
AcDbBlockEnd
  0
BLOCK
  5
4C9
330
4C3
100
AcDbEntity
  8
0
100
AcDbBlockBegin
  2
*D35
 70
     1
 10
0.0
 20
0.0
 30
0.0
  3
*D35
  1

  0
LINE
  5
57C
330
4C3
100
AcDbEntity
  8
0
 62
     0
370
    -2
100
AcDbLine
 10
44.00713673788755
 20
-0.5597751418411541
 30
0.0
 11
46.34713673788762
 21
-0.5597751418411079
 31
0.0
  0
MTEXT
  5
57D
330
4C3
100
AcDbEntity
  8
0
 62
     0
100
AcDbMText
 10
47.78647007122096
 20
-0.5597751418411079
 30
0.0
 40
0.7040000000000001
 41
0.0
 71
     5
 72
     1
  1
\A1;2.590
 73
     1
 44
1.0
1001
ACAD
1000
MTEXTBEGIN
1070
    73
1070
     1
1070
    44
1040
1.0
1070
    74
1070
     0
1000
MTEXTEND
  0
POINT
  5
57E
330
4C3
100
AcDbEntity
  8
Defpoints
 62
     0
100
AcDbPoint
 10
43.75713673788754
 20
-0.5597751418411541
 30
0.0
  0
POINT
  5
57F
330
4C3
100
AcDbEntity
  8
Defpoints
 62
     0
100
AcDbPoint
 10
46.34713673788762
 20
-0.5597751418411079
 30
0.0
  0
POINT
  5
580
330
4C3
100
AcDbEntity
  8
Defpoints
 62
     0
100
AcDbPoint
 10
34.66713673788758
 20
-3.149775141841097
 30
0.0
  0
ENDBLK
  5
4CA
330
4C3
100
AcDbEntity
  8
0
100
AcDbBlockEnd
  0
BLOCK
  5
4D1
330
4CB
100
AcDbEntity
  8
0
100
AcDbBlockBegin
  2
*D36
 70
     1
 10
0.0
 20
0.0
 30
0.0
  3
*D36
  1

  0
LINE
  5
581
330
4CB
100
AcDbEntity
  8
0
 62
     0
370
    -2
100
AcDbLine
 10
34.66713673788758
 20
-3.399775141841097
 30
0.0
 11
34.66713673788758
 21
-4.149775141841097
 31
0.0
  0
MTEXT
  5
582
330
4CB
100
AcDbEntity
  8
0
 62
     0
100
AcDbMText
 10
34.66713673788758
 20
-5.413108475174424
 30
0.0
 40
0.7040000000000001
 41
0.0
 71
     5
 72
     1
  1
\A1;0.000
 11
0.0000000000000001
 21
1.0
 31
0.0
 73
     1
 44
1.0
1001
ACAD
1000
MTEXTBEGIN
1070
    73
1070
     1
1070
    44
1040
1.0
1070
    74
1070
     0
1000
MTEXTEND
  0
POINT
  5
583
330
4CB
100
AcDbEntity
  8
Defpoints
 62
     0
100
AcDbPoint
 10
34.66713673788758
 20
-3.149775141841097
 30
0.0
  0
POINT
  5
584
330
4CB
100
AcDbEntity
  8
Defpoints
 62
     0
100
AcDbPoint
 10
34.66713673788758
 20
-4.149775141841097
 30
0.0
  0
POINT
  5
585
330
4CB
100
AcDbEntity
  8
Defpoints
 62
     0
100
AcDbPoint
 10
34.66713673788758
 20
-3.149775141841097
 30
0.0
  0
ENDBLK
  5
4D2
330
4CB
100
AcDbEntity
  8
0
100
AcDbBlockEnd
  0
BLOCK
  5
4E2
330
4DA
100
AcDbEntity
  8
0
100
AcDbBlockBegin
  2
*D37
 70
     1
 10
0.0
 20
0.0
 30
0.0
  3
*D37
  1

  0
LINE
  5
4DB
330
4DA
100
AcDbEntity
  8
0
 62
     0
370
    -2
100
AcDbLine
 10
36.16713673788773
 20
15.21496179524555
 30
0.0
 11
36.16713673788773
 21
7.479222234231459
 31
0.0
  0
LINE
  5
4DC
330
4DA
100
AcDbEntity
  8
0
 62
     0
370
    -2
100
AcDbLine
 10
36.16713673788773
 20
7.479222234231459
 30
0.0
 11
38.61655413792559
 21
7.119222234231458
 31
0.0
  0
LINE
  5
4DD
330
4DA
100
AcDbEntity
  8
0
 62
     0
370
    -2
100
AcDbLine
 10
38.61655413792559
 20
7.119222234231458
 30
0.0
 11
38.61655413792559
 21
6.759222234231458
 31
0.0
  0
MTEXT
  5
4DE
330
4DA
100
AcDbEntity
  8
0
 62
     0
100
AcDbMText
 10
38.61655413792559
 20
5.495888900898131
 30
0.0
 40
0.7040000000000001
 41
0.0
 71
     5
 72
     1
  1
\A1;1.500
 11
0.0000000000000001
 21
1.0
 31
0.0
 73
     1
 44
1.0
1001
ACAD
1000
MTEXTBEGIN
1070
    73
1070
     1
1070
    44
1040
1.0
1070
    74
1070
     0
1000
MTEXTEND
  0
POINT
  5
4DF
330
4DA
100
AcDbEntity
  8
Defpoints
 62
     0
100
AcDbPoint
 10
36.16713673788773
 20
15.46496179524555
 30
0.0
  0
POINT
  5
4E0
330
4DA
100
AcDbEntity
  8
Defpoints
 62
     0
100
AcDbPoint
 10
38.61655413792559
 20
6.759222234231458
 30
0.0
  0
POINT
  5
4E1
330
4DA
100
AcDbEntity
  8
Defpoints
 62
     0
100
AcDbPoint
 10
34.66713673788746
 20
-3.149775141841068
 30
0.0
  0
ENDBLK
  5
4E3
330
4DA
100
AcDbEntity
  8
0
100
AcDbBlockEnd
  0
BLOCK
  5
4EA
330
4E4
100
AcDbEntity
  8
0
100
AcDbBlockBegin
  2
*D38
 70
     1
 10
0.0
 20
0.0
 30
0.0
  3
*D38
  1

  0
LINE
  5
4E5
330
4E4
100
AcDbEntity
  8
0
 62
     0
370
    -2
100
AcDbLine
 10
42.34713673788741
 20
20.21496179524554
 30
0.0
 11
42.34713673788741
 21
18.90230581198416
 31
0.0
  0
MTEXT
  5
4E6
330
4E4
100
AcDbEntity
  8
0
 62
     0
100
AcDbMText
 10
42.3471367378874
 20
17.46297247865083
 30
0.0
 40
0.7040000000000001
 41
0.0
 71
     5
 72
     1
  1
\A1;7.680
 11
0.0000000000000001
 21
1.0
 31
0.0
 73
     1
 44
1.0
1001
ACAD
1000
MTEXTBEGIN
1070
    73
1070
     1
1070
    44
1040
1.0
1070
    74
1070
     0
1000
MTEXTEND
  0
POINT
  5
4E7
330
4E4
100
AcDbEntity
  8
Defpoints
 62
     0
100
AcDbPoint
 10
42.34713673788741
 20
20.46496179524554
 30
0.0
  0
POINT
  5
4E8
330
4E4
100
AcDbEntity
  8
Defpoints
 62
     0
100
AcDbPoint
 10
42.34713673788741
 20
18.90230581198416
 30
0.0
  0
POINT
  5
4E9
330
4E4
100
AcDbEntity
  8
Defpoints
 62
     0
100
AcDbPoint
 10
34.66713673788746
 20
-3.149775141841068
 30
0.0
  0
ENDBLK
  5
4EB
330
4E4
100
AcDbEntity
  8
0
100
AcDbBlockEnd
  0
BLOCK
  5
4F2
330
4EC
100
AcDbEntity
  8
0
100
AcDbBlockBegin
  2
*D39
 70
     1
 10
0.0
 20
0.0
 30
0.0
  3
*D39
  1

  0
LINE
  5
5CE
330
4EC
100
AcDbEntity
  8
0
 62
     0
370
    -2
100
AcDbLine
 10
37.66713673788779
 20
20.21496179524555
 30
0.0
 11
37.66713673788781
 21
18.90230581198416
 31
0.0
  0
MTEXT
  5
5CF
330
4EC
100
AcDbEntity
  8
0
 62
     0
100
AcDbMText
 10
37.6671367378878
 20
17.58030581198416
 30
0.0
 40
0.7040000000000001
 41
0.0
 71
     5
 72
     1
  1
\A1;3.000
 11
0.0000000000000001
 21
1.0
 31
0.0
 73
     1
 44
1.0
1001
ACAD
1000
MTEXTBEGIN
1070
    73
1070
     1
1070
    44
1040
1.0
1070
    74
1070
     0
1000
MTEXTEND
  0
POINT
  5
5D0
330
4EC
100
AcDbEntity
  8
Defpoints
 62
     0
100
AcDbPoint
 10
37.66713673788779
 20
20.46496179524555
 30
0.0
  0
POINT
  5
5D1
330
4EC
100
AcDbEntity
  8
Defpoints
 62
     0
100
AcDbPoint
 10
37.66713673788781
 20
18.90230581198416
 30
0.0
  0
POINT
  5
5D2
330
4EC
100
AcDbEntity
  8
Defpoints
 62
     0
100
AcDbPoint
 10
34.66713673788746
 20
-3.149775141841068
 30
0.0
  0
ENDBLK
  5
4F3
330
4EC
100
AcDbEntity
  8
0
100
AcDbBlockEnd
  0
BLOCK
  5
4FA
330
4F4
100
AcDbEntity
  8
0
100
AcDbBlockBegin
  2
*D40
 70
     1
 10
0.0
 20
0.0
 30
0.0
  3
*D40
  1

  0
LINE
  5
4F5
330
4F4
100
AcDbEntity
  8
0
 62
     0
370
    -2
100
AcDbLine
 10
37.4171367378878
 20
24.01205005751988
 30
0.0
 11
33.66713673788752
 21
24.01205005751988
 31
0.0
  0
MTEXT
  5
4F6
330
4F4
100
AcDbEntity
  8
0
 62
     0
100
AcDbMText
 10
31.93447007122085
 20
24.01205005751988
 30
0.0
 40
0.7040000000000001
 41
0.0
 71
     5
 72
     1
  1
\A1;27.162
 73
     1
 44
1.0
1001
ACAD
1000
MTEXTBEGIN
1070
    73
1070
     1
1070
    44
1040
1.0
1070
    74
1070
     0
1000
MTEXTEND
  0
POINT
  5
4F7
330
4F4
100
AcDbEntity
  8
Defpoints
 62
     0
100
AcDbPoint
 10
37.6671367378878
 20
24.01205005751988
 30
0.0
  0
POINT
  5
4F8
330
4F4
100
AcDbEntity
  8
Defpoints
 62
     0
100
AcDbPoint
 10
33.66713673788752
 20
24.01205005751988
 30
0.0
  0
POINT
  5
4F9
330
4F4
100
AcDbEntity
  8
Defpoints
 62
     0
100
AcDbPoint
 10
34.66713673788746
 20
-3.149775141841068
 30
0.0
  0
ENDBLK
  5
4FB
330
4F4
100
AcDbEntity
  8
0
100
AcDbBlockEnd
  0
BLOCK
  5
502
330
4FC
100
AcDbEntity
  8
0
100
AcDbBlockBegin
  2
*D41
 70
     1
 10
0.0
 20
0.0
 30
0.0
  3
*D41
  1

  0
LINE
  5
5D3
330
4FC
100
AcDbEntity
  8
0
 62
     0
370
    -2
100
AcDbLine
 10
35.91713673788774
 20
20.46496179524555
 30
0.0
 11
33.66713673788752
 21
20.46496179524555
 31
0.0
  0
MTEXT
  5
5D4
330
4FC
100
AcDbEntity
  8
0
 62
     0
100
AcDbMText
 10
31.93447007122085
 20
20.46496179524555
 30
0.0
 40
0.7040000000000001
 41
0.0
 71
     5
 72
     1
  1
\A1;23.615
 73
     1
 44
1.0
1001
ACAD
1000
MTEXTBEGIN
1070
    73
1070
     1
1070
    44
1040
1.0
1070
    74
1070
     0
1000
MTEXTEND
  0
POINT
  5
5D5
330
4FC
100
AcDbEntity
  8
Defpoints
 62
     0
100
AcDbPoint
 10
36.16713673788775
 20
20.46496179524555
 30
0.0
  0
POINT
  5
5D6
330
4FC
100
AcDbEntity
  8
Defpoints
 62
     0
100
AcDbPoint
 10
33.66713673788752
 20
20.46496179524555
 30
0.0
  0
POINT
  5
5D7
330
4FC
100
AcDbEntity
  8
Defpoints
 62
     0
100
AcDbPoint
 10
34.66713673788746
 20
-3.149775141841068
 30
0.0
  0
ENDBLK
  5
503
330
4FC
100
AcDbEntity
  8
0
100
AcDbBlockEnd
  0
BLOCK
  5
50A
330
504
100
AcDbEntity
  8
0
100
AcDbBlockBegin
  2
*D42
 70
     1
 10
0.0
 20
0.0
 30
0.0
  3
*D42
  1

  0
LINE
  5
505
330
504
100
AcDbEntity
  8
0
 62
     0
370
    -2
100
AcDbLine
 10
35.91713673788773
 20
15.46496179524555
 30
0.0
 11
33.66713673788751
 21
15.46496179524555
 31
0.0
  0
MTEXT
  5
506
330
504
100
AcDbEntity
  8
0
 62
     0
100
AcDbMText
 10
32.05180340455418
 20
15.46496179524555
 30
0.0
 40
0.7040000000000001
 41
0.0
 71
     5
 72
     1
  1
\A1;18.615
 73
     1
 44
1.0
1001
ACAD
1000
MTEXTBEGIN
1070
    73
1070
     1
1070
    44
1040
1.0
1070
    74
1070
     0
1000
MTEXTEND
  0
POINT
  5
507
330
504
100
AcDbEntity
  8
Defpoints
 62
     0
100
AcDbPoint
 10
36.16713673788773
 20
15.46496179524555
 30
0.0
  0
POINT
  5
508
330
504
100
AcDbEntity
  8
Defpoints
 62
     0
100
AcDbPoint
 10
33.66713673788751
 20
15.46496179524555
 30
0.0
  0
POINT
  5
509
330
504
100
AcDbEntity
  8
Defpoints
 62
     0
100
AcDbPoint
 10
34.66713673788746
 20
-3.149775141841068
 30
0.0
  0
ENDBLK
  5
50B
330
504
100
AcDbEntity
  8
0
100
AcDbBlockEnd
  0
BLOCK
  5
515
330
50C
100
AcDbEntity
  8
0
100
AcDbBlockBegin
  2
*D43
 70
     1
 10
0.0
 20
0.0
 30
0.0
  3
*D43
  1

  0
LINE
  5
59A
330
50C
100
AcDbEntity
  8
0
 62
     0
370
    -2
100
AcDbLine
 10
36.81921332759048
 20
33.1038901516688
 30
0.0
 11
36.99921332759049
 21
33.1038901516688
 31
0.0
  0
LINE
  5
59B
330
50C
100
AcDbEntity
  8
0
 62
     0
370
    -2
100
AcDbLine
 10
36.99921332759049
 20
33.1038901516688
 30
0.0
 11
38.45950462196875
 21
29.95356530988118
 31
0.0
  0
MTEXT
  5
59C
330
50C
100
AcDbEntity
  8
0
 62
     0
100
AcDbMText
 10
35.14521332759047
 20
33.1038901516688
 30
0.0
 40
0.7040000000000001
 41
0.0
 71
     5
 72
     1
  1
\A1;\U+22057.000
 73
     1
 44
1.0
1001
ACAD
1000
MTEXTBEGIN
1070
    73
1070
     1
1070
    44
1040
1.0
1070
    74
1070
     0
1000
MTEXTEND
  0
SOLID
  5
59D
330
50C
100
AcDbEntity
  8
0
 62
     0
100
AcDbTrace
 10
38.48672267219778
 20
29.96618187604357
 30
0.0
 11
38.43228657173971
 21
29.94094874371881
 31
0.0
 12
38.53520401894304
 22
29.79025700850698
 32
0.0
 13
38.53520401894304
 23
29.79025700850698
 33
0.0
  0
LINE
  5
59E
330
50C
100
AcDbEntity
  8
0
 62
     0
370
    -2
100
AcDbLine
 10
39.91713673788761
 20
26.61481781511962
 30
0.0
 11
40.09713673788762
 21
26.61481781511963
 31
0.0
  0
LINE
  5
59F
330
50C
100
AcDbEntity
  8
0
 62
     0
370
    -2
100
AcDbLine
 10
40.00713673788761
 20
26.52481781511963
 30
0.0
 11
40.00713673788761
 21
26.70481781511963
 31
0.0
  0
POINT
  5
5A0
330
50C
100
AcDbEntity
  8
Defpoints
 62
     0
100
AcDbPoint
 10
38.53520401894304
 20
29.79025700850698
 30
0.0
  0
POINT
  5
5A1
330
50C
100
AcDbEntity
  8
Defpoints
 62
     0
100
AcDbPoint
 10
41.47906945683218
 20
23.43937862173227
 30
0.0
  0
ENDBLK
  5
516
330
50C
100
AcDbEntity
  8
0
100
AcDbBlockEnd
  0
BLOCK
  5
520
330
517
100
AcDbEntity
  8
0
100
AcDbBlockBegin
  2
*D44
 70
     1
 10
0.0
 20
0.0
 30
0.0
  3
*D44
  1

  0
LINE
  5
5A2
330
517
100
AcDbEntity
  8
0
 62
     0
370
    -2
100
AcDbLine
 10
47.05113673788784
 20
18.53688984680873
 30
0.0
 11
46.34713673788783
 21
18.53688984680873
 31
0.0
  0
LINE
  5
5A3
330
517
100
AcDbEntity
  8
0
 62
     0
370
    -2
100
AcDbLine
 10
46.34713673788783
 20
18.53688984680873
 30
0.0
 11
44.33623833544317
 21
20.89051493616898
 31
0.0
  0
MTEXT
  5
5A4
330
517
100
AcDbEntity
  8
0
 62
     0
100
AcDbMText
 10
50.01580340455451
 20
18.53688984680873
 30
0.0
 40
0.7040000000000001
 41
0.0
 71
     5
 72
     1
  1
\A1;\U+22050.375 (8)
 73
     1
 44
1.0
1001
ACAD
1000
MTEXTBEGIN
1070
    73
1070
     1
1070
    44
1040
1.0
1070
    74
1070
     0
1000
MTEXTEND
  0
SOLID
  5
5A5
330
517
100
AcDbEntity
  8
0
 62
     0
100
AcDbTrace
 10
44.42544596104497
 20
20.9667324580757
 30
0.0
 11
44.24703070984138
 21
20.81429741426226
 31
0.0
 12
43.87893320400284
 22
21.42576068977973
 32
0.0
 13
43.87893320400284
 23
21.42576068977973
 33
0.0
  0
LINE
  5
5A6
330
517
100
AcDbEntity
  8
0
 62
     0
370
    -2
100
AcDbLine
 10
43.6671367378877
 20
21.56831548921442
 30
0.0
 11
43.84713673788771
 21
21.56831548921442
 31
0.0
  0
LINE
  5
5A7
330
517
100
AcDbEntity
  8
0
 62
     0
370
    -2
100
AcDbLine
 10
43.75713673788769
 20
21.47831548921442
 30
0.0
 11
43.7571367378877
 21
21.65831548921442
 31
0.0
  0
POINT
  5
5A8
330
517
100
AcDbEntity
  8
Defpoints
 62
     0
100
AcDbPoint
 10
43.87893320400284
 20
21.42576068977973
 30
0.0
  0
POINT
  5
5A9
330
517
100
AcDbEntity
  8
Defpoints
 62
     0
100
AcDbPoint
 10
43.63534027177254
 20
21.71087028864909
 30
0.0
  0
ENDBLK
  5
521
330
517
100
AcDbEntity
  8
0
100
AcDbBlockEnd
  0
BLOCK
  5
52A
330
522
100
AcDbEntity
  8
0
100
AcDbBlockBegin
  2
*D45
 70
     1
 10
0.0
 20
0.0
 30
0.0
  3
*D45
  1

  0
LINE
  5
523
330
522
100
AcDbEntity
  8
0
 62
     0
370
    -2
100
AcDbLine
 10
44.84713673788758
 20
8.632023642229539
 30
0.0
 11
44.84713673788758
 21
7.479222234231458
 31
0.0
  0
LINE
  5
524
330
522
100
AcDbEntity
  8
0
 62
     0
370
    -2
100
AcDbLine
 10
44.84713673788758
 20
7.479222234231458
 30
0.0
 11
43.00805569510564
 21
7.119222234231458
 31
0.0
  0
LINE
  5
525
330
522
100
AcDbEntity
  8
0
 62
     0
370
    -2
100
AcDbLine
 10
43.00805569510564
 20
7.119222234231458
 30
0.0
 11
43.00805569510564
 21
6.759222234231458
 31
0.0
  0
MTEXT
  5
526
330
522
100
AcDbEntity
  8
0
 62
     0
100
AcDbMText
 10
43.00805569510564
 20
5.261222234231465
 30
0.0
 40
0.7040000000000001
 41
0.0
 71
     5
 72
     1
  1
\A1;10.180
 11
0.0000000000000001
 21
1.0
 31
0.0
 73
     1
 44
1.0
1001
ACAD
1000
MTEXTBEGIN
1070
    73
1070
     1
1070
    44
1040
1.0
1070
    74
1070
     0
1000
MTEXTEND
  0
POINT
  5
527
330
522
100
AcDbEntity
  8
Defpoints
 62
     0
100
AcDbPoint
 10
44.84713673788758
 20
8.882023642229539
 30
0.0
  0
POINT
  5
528
330
522
100
AcDbEntity
  8
Defpoints
 62
     0
100
AcDbPoint
 10
43.00805569510564
 20
6.759222234231458
 30
0.0
  0
POINT
  5
529
330
522
100
AcDbEntity
  8
Defpoints
 62
     0
100
AcDbPoint
 10
34.66713673788758
 20
-3.149775141841097
 30
0.0
  0
ENDBLK
  5
52B
330
522
100
AcDbEntity
  8
0
100
AcDbBlockEnd
  0
BLOCK
  5
53E
330
538
100
AcDbEntity
  8
0
100
AcDbBlockBegin
  2
*D46
 70
     1
 10
0.0
 20
0.0
 30
0.0
  3
*D46
  1

  0
LINE
  5
539
330
538
100
AcDbEntity
  8
0
 62
     0
370
    -2
100
AcDbLine
 10
45.34713673788752
 20
32.28022485815888
 30
0.0
 11
45.34713673788752
 21
33.03022485815888
 31
0.0
  0
MTEXT
  5
53A
330
538
100
AcDbEntity
  8
0
 62
     0
100
AcDbMText
 10
45.34713673788751
 20
34.64555819149222
 30
0.0
 40
0.7040000000000001
 41
0.0
 71
     5
 72
     1
  1
\A1;10.680
 11
0.0000000000000001
 21
1.0
 31
0.0
 73
     1
 44
1.0
1001
ACAD
1000
MTEXTBEGIN
1070
    73
1070
     1
1070
    44
1040
1.0
1070
    74
1070
     0
1000
MTEXTEND
  0
POINT
  5
53B
330
538
100
AcDbEntity
  8
Defpoints
 62
     0
100
AcDbPoint
 10
45.34713673788752
 20
32.03022485815888
 30
0.0
  0
POINT
  5
53C
330
538
100
AcDbEntity
  8
Defpoints
 62
     0
100
AcDbPoint
 10
45.34713673788752
 20
33.03022485815888
 30
0.0
  0
POINT
  5
53D
330
538
100
AcDbEntity
  8
Defpoints
 62
     0
100
AcDbPoint
 10
34.66713673788758
 20
-3.149775141841097
 30
0.0
  0
ENDBLK
  5
53F
330
538
100
AcDbEntity
  8
0
100
AcDbBlockEnd
  0
BLOCK
  5
546
330
540
100
AcDbEntity
  8
0
100
AcDbBlockBegin
  2
*D47
 70
     1
 10
0.0
 20
0.0
 30
0.0
  3
*D47
  1

  0
LINE
  5
541
330
540
100
AcDbEntity
  8
0
 62
     0
370
    -2
100
AcDbLine
 10
44.00713673788755
 20
30.94022485815885
 30
0.0
 11
46.34713673788752
 21
30.94022485815885
 31
0.0
  0
MTEXT
  5
542
330
540
100
AcDbEntity
  8
0
 62
     0
100
AcDbMText
 10
48.07980340455419
 20
30.94022485815885
 30
0.0
 40
0.7040000000000001
 41
0.0
 71
     5
 72
     1
  1
\A1;34.090
 73
     1
 44
1.0
1001
ACAD
1000
MTEXTBEGIN
1070
    73
1070
     1
1070
    44
1040
1.0
1070
    74
1070
     0
1000
MTEXTEND
  0
POINT
  5
543
330
540
100
AcDbEntity
  8
Defpoints
 62
     0
100
AcDbPoint
 10
43.75713673788754
 20
30.94022485815885
 30
0.0
  0
POINT
  5
544
330
540
100
AcDbEntity
  8
Defpoints
 62
     0
100
AcDbPoint
 10
46.34713673788752
 20
30.94022485815885
 30
0.0
  0
POINT
  5
545
330
540
100
AcDbEntity
  8
Defpoints
 62
     0
100
AcDbPoint
 10
34.66713673788758
 20
-3.149775141841097
 30
0.0
  0
ENDBLK
  5
547
330
540
100
AcDbEntity
  8
0
100
AcDbBlockEnd
  0
BLOCK
  5
558
330
552
100
AcDbEntity
  8
0
100
AcDbBlockBegin
  2
*D48
 70
     1
 10
0.0
 20
0.0
 30
0.0
  3
*D48
  1

  0
LINE
  5
553
330
552
100
AcDbEntity
  8
0
 62
     0
370
    -2
100
AcDbLine
 10
44.00713673788769
 20
21.56831548921441
 30
0.0
 11
46.34713673788756
 21
21.56831548921441
 31
0.0
  0
MTEXT
  5
554
330
552
100
AcDbEntity
  8
0
 62
     0
100
AcDbMText
 10
48.07980340455423
 20
21.56831548921441
 30
0.0
 40
0.7040000000000001
 41
0.0
 71
     5
 72
     1
  1
\A1;24.718
 73
     1
 44
1.0
1001
ACAD
1000
MTEXTBEGIN
1070
    73
1070
     1
1070
    44
1040
1.0
1070
    74
1070
     0
1000
MTEXTEND
  0
POINT
  5
555
330
552
100
AcDbEntity
  8
Defpoints
 62
     0
100
AcDbPoint
 10
43.75713673788768
 20
21.56831548921441
 30
0.0
  0
POINT
  5
556
330
552
100
AcDbEntity
  8
Defpoints
 62
     0
100
AcDbPoint
 10
46.34713673788756
 20
21.56831548921441
 30
0.0
  0
POINT
  5
557
330
552
100
AcDbEntity
  8
Defpoints
 62
     0
100
AcDbPoint
 10
34.66713673788758
 20
-3.149775141841097
 30
0.0
  0
ENDBLK
  5
559
330
552
100
AcDbEntity
  8
0
100
AcDbBlockEnd
  0
BLOCK
  5
560
330
55A
100
AcDbEntity
  8
0
100
AcDbBlockBegin
  2
*D49
 70
     1
 10
0.0
 20
0.0
 30
0.0
  3
*D49
  1

  0
LINE
  5
55B
330
55A
100
AcDbEntity
  8
0
 62
     0
370
    -2
100
AcDbLine
 10
34.91713673788752
 20
11.98827364222985
 30
0.0
 11
33.66713673788751
 21
11.98827364222985
 31
0.0
  0
MTEXT
  5
55C
330
55A
100
AcDbEntity
  8
0
 62
     0
100
AcDbMText
 10
32.05180340455418
 20
11.98827364222985
 30
0.0
 40
0.7040000000000001
 41
0.0
 71
     5
 72
     1
  1
\A1;15.138
 73
     1
 44
1.0
1001
ACAD
1000
MTEXTBEGIN
1070
    73
1070
     1
1070
    44
1040
1.0
1070
    74
1070
     0
1000
MTEXTEND
  0
POINT
  5
55D
330
55A
100
AcDbEntity
  8
Defpoints
 62
     0
100
AcDbPoint
 10
35.16713673788752
 20
11.98827364222985
 30
0.0
  0
POINT
  5
55E
330
55A
100
AcDbEntity
  8
Defpoints
 62
     0
100
AcDbPoint
 10
33.66713673788751
 20
11.98827364222985
 30
0.0
  0
POINT
  5
55F
330
55A
100
AcDbEntity
  8
Defpoints
 62
     0
100
AcDbPoint
 10
34.66713673788758
 20
-3.149775141841097
 30
0.0
  0
ENDBLK
  5
561
330
55A
100
AcDbEntity
  8
0
100
AcDbBlockEnd
  0
BLOCK
  5
568
330
562
100
AcDbEntity
  8
0
100
AcDbBlockBegin
  2
*D50
 70
     1
 10
0.0
 20
0.0
 30
0.0
  3
*D50
  1

  0
LINE
  5
563
330
562
100
AcDbEntity
  8
0
 62
     0
370
    -2
100
AcDbLine
 10
34.91713673788752
 20
8.882023642229569
 30
0.0
 11
33.6671367378875
 21
8.882023642229569
 31
0.0
  0
MTEXT
  5
564
330
562
100
AcDbEntity
  8
0
 62
     0
100
AcDbMText
 10
31.99313673788751
 20
8.882023642229569
 30
0.0
 40
0.7040000000000001
 41
0.0
 71
     5
 72
     1
  1
\A1;12.032
 73
     1
 44
1.0
1001
ACAD
1000
MTEXTBEGIN
1070
    73
1070
     1
1070
    44
1040
1.0
1070
    74
1070
     0
1000
MTEXTEND
  0
POINT
  5
565
330
562
100
AcDbEntity
  8
Defpoints
 62
     0
100
AcDbPoint
 10
35.16713673788752
 20
8.882023642229569
 30
0.0
  0
POINT
  5
566
330
562
100
AcDbEntity
  8
Defpoints
 62
     0
100
AcDbPoint
 10
33.6671367378875
 20
8.882023642229569
 30
0.0
  0
POINT
  5
567
330
562
100
AcDbEntity
  8
Defpoints
 62
     0
100
AcDbPoint
 10
34.66713673788758
 20
-3.149775141841097
 30
0.0
  0
ENDBLK
  5
569
330
562
100
AcDbEntity
  8
0
100
AcDbBlockEnd
  0
BLOCK
  5
575
330
56F
100
AcDbEntity
  8
0
100
AcDbBlockBegin
  2
*D51
 70
     1
 10
0.0
 20
0.0
 30
0.0
  3
*D51
  1

  0
LINE
  5
570
330
56F
100
AcDbEntity
  8
0
 62
     0
370
    -2
100
AcDbLine
 10
43.75713673788754
 20
-0.809775141841154
 30
0.0
 11
43.75713673788754
 21
-4.14977514184105
 31
0.0
  0
MTEXT
  5
571
330
56F
100
AcDbEntity
  8
0
 62
     0
100
AcDbMText
 10
43.75713673788754
 20
-5.53044180850771
 30
0.0
 40
0.7040000000000001
 41
0.0
 71
     5
 72
     1
  1
\A1;9.090
 11
0.0000000000000001
 21
1.0
 31
0.0
 73
     1
 44
1.0
1001
ACAD
1000
MTEXTBEGIN
1070
    73
1070
     1
1070
    44
1040
1.0
1070
    74
1070
     0
1000
MTEXTEND
  0
POINT
  5
572
330
56F
100
AcDbEntity
  8
Defpoints
 62
     0
100
AcDbPoint
 10
43.75713673788754
 20
-0.5597751418411541
 30
0.0
  0
POINT
  5
573
330
56F
100
AcDbEntity
  8
Defpoints
 62
     0
100
AcDbPoint
 10
43.75713673788754
 20
-4.14977514184105
 30
0.0
  0
POINT
  5
574
330
56F
100
AcDbEntity
  8
Defpoints
 62
     0
100
AcDbPoint
 10
34.66713673788758
 20
-3.149775141841097
 30
0.0
  0
ENDBLK
  5
576
330
56F
100
AcDbEntity
  8
0
100
AcDbBlockEnd
  0
BLOCK
  5
58C
330
586
100
AcDbEntity
  8
0
100
AcDbBlockBegin
  2
*D52
 70
     1
 10
0.0
 20
0.0
 30
0.0
  3
*D52
  1

  0
LINE
  5
587
330
586
100
AcDbEntity
  8
0
 62
     0
370
    -2
100
AcDbLine
 10
34.41713673788746
 20
-3.149775141841097
 30
0.0
 11
33.66713673788746
 21
-3.149775141841097
 31
0.0
  0
MTEXT
  5
588
330
586
100
AcDbEntity
  8
0
 62
     0
100
AcDbMText
 10
32.40380340455413
 20
-3.149775141841097
 30
0.0
 40
0.7040000000000001
 41
0.0
 71
     5
 72
     1
  1
\A1;0.000
 73
     1
 44
1.0
1001
ACAD
1000
MTEXTBEGIN
1070
    73
1070
     1
1070
    44
1040
1.0
1070
    74
1070
     0
1000
MTEXTEND
  0
POINT
  5
589
330
586
100
AcDbEntity
  8
Defpoints
 62
     0
100
AcDbPoint
 10
34.66713673788746
 20
-3.149775141841097
 30
0.0
  0
POINT
  5
58A
330
586
100
AcDbEntity
  8
Defpoints
 62
     0
100
AcDbPoint
 10
33.66713673788746
 20
-3.149775141841097
 30
0.0
  0
POINT
  5
58B
330
586
100
AcDbEntity
  8
Defpoints
 62
     0
100
AcDbPoint
 10
34.66713673788758
 20
-3.149775141841097
 30
0.0
  0
ENDBLK
  5
58D
330
586
100
AcDbEntity
  8
0
100
AcDbBlockEnd
  0
BLOCK
  5
713
330
5D9
100
AcDbEntity
  8
0
100
AcDbBlockBegin
  2
A$C541A4087
 70
     0
 10
0.0
 20
0.0
 30
0.0
  3
A$C541A4087
  1

  0
LWPOLYLINE
  5
5DA
330
5D9
100
AcDbEntity
  8
BORDER
100
AcDbPolyline
 90
        4
 70
     1
 43
0.0
 10
-9.649411689909335
 20
11.66886351232551
 10
12.23646560417619
 20
11.66886351232551
 10
12.23646560417619
 20
-17.12938729289209
 10
-9.649411689909335
 20
-17.12938729289209
  0
LINE
  5
5DB
330
5D9
100
AcDbEntity
  8
BORDER
100
AcDbLine
 10
6.492825052318071
 20
-16.23957331885252
 30
0.0
 11
3.595663285241212
 21
-16.23957331885252
 31
0.0
  0
LINE
  5
5DC
330
5D9
100
AcDbEntity
  8
BORDER
100
AcDbLine
 10
6.492825052318071
 20
-17.1293872928921
 30
0.0
 11
6.492825052318071
 21
-16.33743539574861
 31
0.0
  0
LINE
  5
5DD
330
5D9
100
AcDbEntity
  8
BORDER
100
AcDbLine
 10
6.492825052318071
 20
-17.1293872928921
 30
0.0
 11
3.568308293578397
 21
-17.1293872928921
 31
0.0
  0
TEXT
  5
5DE
330
5D9
100
AcDbEntity
  8
TEXT
100
AcDbText
 10
3.710646844375776
 20
-16.55342227678775
 30
0.0
 40
0.1439912540260879
  1
PROPRIETARY DRAWING
 72
     1
 11
5.03056667294825
 21
-16.48142664977471
 31
0.0
100
AcDbText
 73
     2
  0
TEXT
  5
5DF
330
5D9
100
AcDbEntity
  8
TEXT
100
AcDbText
 10
3.818640284895344
 20
-16.69741353081384
 30
0.0
 40
0.071995627013044
  1
THIS DRAWING IS THE PROPERTY OF ICE
 72
     1
 11
5.03056667294825
 21
-16.66141571730731
 31
0.0
100
AcDbText
 73
     2
  0
TEXT
  5
5E0
330
5D9
100
AcDbEntity
  8
TEXT
100
AcDbText
 10
3.75264429346672
 20
-16.8054069713334
 30
0.0
 40
0.071995627013044
  1
QUBE, INC. AND IS NOT TO BE DUPLICATED
 72
     1
 11
5.03056667294825
 21
-16.76940915782688
 31
0.0
100
AcDbText
 73
     2
  0
TEXT
  5
5E1
330
5D9
100
AcDbEntity
  8
TEXT
100
AcDbText
 10
3.806641013726502
 20
-16.91340041185297
 30
0.0
 40
0.071995627013044
  1
OR ALTERED WITHOUT AUTHORIZATION OF
 72
     1
 11
5.03056667294825
 21
-16.87740259834645
 31
0.0
100
AcDbText
 73
     2
  0
TEXT
  5
5E2
330
5D9
100
AcDbEntity
  8
TEXT
100
AcDbText
 10
4.604592546454407
 20
-17.02139385237253
 30
0.0
 40
0.071995627013044
  1
ICE QUBE, INC.
 72
     1
 11
5.03056667294825
 21
-16.98539603886601
 31
0.0
100
AcDbText
 73
     2
  0
LINE
  5
5E3
330
5D9
100
AcDbEntity
  8
DIMENSION
100
AcDbLine
 10
6.492825052318071
 20
-16.23957331885252
 30
0.0
 11
6.492825052318071
 21
-17.1293872928921
 31
0.0
  0
ARC
  5
5E4
330
5D9
100
AcDbEntity
  8
TEXT
100
AcDbCircle
 10
9.099759481371258
 20
-15.9357545319235
 30
0.0
 40
0.0088823218220013
100
AcDbArc
 50
177.2189023070876
 51
10.53261226457849
  0
ARC
  5
5E5
330
5D9
100
AcDbEntity
  8
TEXT
100
AcDbCircle
 10
9.08457608696608
 20
-15.84594430301755
 30
0.0
 40
0.0109614677516024
100
AcDbArc
 50
218.2556843178653
 51
317.6564247238853
  0
ARC
  5
5E6
330
5D9
100
AcDbEntity
  8
TEXT
100
AcDbCircle
 10
9.098595994814736
 20
-15.85765978758345
 30
0.0
 40
0.0073342265401297
100
AcDbArc
 50
48.87596376793599
 51
143.7953529790059
  0
ARC
  5
5E7
330
5D9
100
AcDbEntity
  8
TEXT
100
AcDbCircle
 10
9.108863667071737
 20
-15.85078453106771
 30
0.0
 40
0.0056090180611167
100
AcDbArc
 50
193.9319034609791
 51
333.0378283509304
  0
ARC
  5
5E8
330
5D9
100
AcDbEntity
  8
TEXT
100
AcDbCircle
 10
9.126976211772195
 20
-15.862034014106
 30
0.0
 40
0.0130316102119255
100
AcDbArc
 50
222.9877626572325
 51
344.3358851615585
  0
ARC
  5
5E9
330
5D9
100
AcDbEntity
  8
TEXT
100
AcDbCircle
 10
9.113486874928106
 20
-15.87348358118086
 30
0.0
 40
0.0047148793824553
100
AcDbArc
 50
32.94435831946194
 51
185.0814072168599
  0
LINE
  5
5EA
330
5D9
100
AcDbEntity
  8
TEXT
100
AcDbLine
 10
9.108492145142911
 20
-15.93413088651886
 30
0.0
 11
9.10879052568341
 21
-15.87390118310022
 31
0.0
  0
LINE
  5
5EB
330
5D9
100
AcDbEntity
  8
TEXT
100
AcDbLine
 10
9.088798945358185
 20
-15.87598834998209
 30
0.0
 11
9.090887621157783
 21
-15.93532355941693
 31
0.0
  0
ARC
  5
5EC
330
5D9
100
AcDbEntity
  8
TEXT
100
AcDbCircle
 10
9.083551932983205
 20
-15.8726004533372
 30
0.0
 40
0.0062457171356948
100
AcDbArc
 50
327.1504341221701
 51
80.13862259361689
  0
LINE
  5
5ED
330
5D9
100
AcDbEntity
  8
TEXT
100
AcDbLine
 10
9.070537217534251
 20
-15.86429559036023
 30
0.0
 11
9.084621605775375
 21
-15.86644701668313
 31
0.0
  0
ARC
  5
5EE
330
5D9
100
AcDbEntity
  8
TEXT
100
AcDbCircle
 10
9.068813358615898
 20
-15.86728408951604
 30
0.0
 40
0.0034500459090618
100
AcDbArc
 50
60.02231951668143
 51
227.1694577924201
  0
LINE
  5
5EF
330
5D9
100
AcDbEntity
  8
TEXT
100
AcDbLine
 10
9.067715946670844
 20
-15.9003084567679
 30
0.0
 11
9.066467905862523
 21
-15.86981424132106
 31
0.0
  0
ARC
  5
5F0
330
5D9
100
AcDbEntity
  8
TEXT
100
AcDbCircle
 10
9.060125553587425
 20
-15.903589939595
 30
0.0
 40
0.008269352858942
100
AcDbArc
 50
165.6416373020916
 51
23.37981978602062
  0
LINE
  5
5F1
330
5D9
100
AcDbEntity
  8
TEXT
100
AcDbLine
 10
9.048008867882984
 20
-15.86748696918408
 30
0.0
 11
9.052114505291697
 21
-15.90153925631662
 31
0.0
  0
ARC
  5
5F2
330
5D9
100
AcDbEntity
  8
TEXT
100
AcDbCircle
 10
9.039465368628349
 20
-15.86860751635633
 30
0.0
 40
0.0086166702083732
100
AcDbArc
 50
7.472141028409415
 51
164.1640293291679
  0
LINE
  5
5F3
330
5D9
100
AcDbEntity
  8
TEXT
100
AcDbLine
 10
9.031586294215486
 20
-15.87241018875843
 30
0.0
 11
9.031175728071332
 21
-15.86625616250891
 31
0.0
  0
ARC
  5
5F4
330
5D9
100
AcDbEntity
  8
TEXT
100
AcDbCircle
 10
9.025493429075815
 20
-15.87150267233578
 30
0.0
 40
0.0061600804919645
100
AcDbArc
 50
208.7068196476631
 51
351.5282258973499
  0
LINE
  5
5F5
330
5D9
100
AcDbEntity
  8
TEXT
100
AcDbLine
 10
9.01639541898043
 20
-15.86584589124166
 30
0.0
 11
9.020090490244967
 21
-15.87446153084158
 31
0.0
  0
LINE
  5
5F6
330
5D9
100
AcDbEntity
  8
TEXT
100
AcDbLine
 10
9.019679924100813
 20
-15.89907765009268
 30
0.0
 11
9.01639541898043
 21
-15.86584589124166
 31
0.0
  0
ARC
  5
5F7
330
5D9
100
AcDbEntity
  8
TEXT
100
AcDbCircle
 10
9.011451692031791
 20
-15.89946695425496
 30
0.0
 40
0.0082374365376723
100
AcDbArc
 50
185.8633287467241
 51
2.708827809510279
  0
LINE
  5
5F8
330
5D9
100
AcDbEntity
  8
TEXT
100
AcDbLine
 10
9.001615097873141
 20
-15.86010213625939
 30
0.0
 11
9.003257350433315
 21
-15.9003084567679
 31
0.0
  0
ARC
  5
5F9
330
5D9
100
AcDbEntity
  8
TEXT
100
AcDbCircle
 10
8.995043089013698
 20
-15.85951854881448
 30
0.0
 40
0.0065978689555009
100
AcDbArc
 50
354.9255052590733
 51
174.3705062402905
  0
LINE
  5
5FA
330
5D9
100
AcDbEntity
  8
TEXT
100
AcDbLine
 10
8.988477041342399
 20
-15.87323073129286
 30
0.0
 11
8.988477041342399
 21
-15.85887132958412
 31
0.0
  0
ARC
  5
5FB
330
5D9
100
AcDbEntity
  8
TEXT
100
AcDbCircle
 10
8.983668557476285
 20
-15.87506145457098
 30
0.0
 40
0.0051451982285976
100
AcDbArc
 50
168.6772178130462
 51
20.84321825743627
  0
LINE
  5
5FC
330
5D9
100
AcDbEntity
  8
TEXT
100
AcDbLine
 10
8.974517852523426
 20
-15.85271729620818
 30
0.0
 11
8.978623501948469
 21
-15.87405126670082
 31
0.0
  0
LINE
  5
5FD
330
5D9
100
AcDbEntity
  8
TEXT
100
AcDbLine
 10
8.953579075303053
 20
-15.86543562710089
 30
0.0
 11
8.952757943014773
 21
-15.85025568998421
 31
0.0
  0
ARC
  5
5FE
330
5D9
100
AcDbEntity
  8
TEXT
100
AcDbCircle
 10
8.944004499285014
 20
-15.86914127690973
 30
0.0
 40
0.010266661893284
100
AcDbArc
 50
170.7272794785987
 51
21.15794103948678
  0
ARC
  5
5FF
330
5D9
100
AcDbEntity
  8
TEXT
100
AcDbCircle
 10
8.902732545231742
 20
-15.87954512230188
 30
0.0
 40
0.0084685511017121
100
AcDbArc
 50
167.7181143692785
 51
23.9855107736551
  0
ARC
  5
600
330
5D9
100
AcDbEntity
  8
TEXT
100
AcDbCircle
 10
8.789967624577172
 20
-15.85057853691617
 30
0.0
 40
0.0097683364786862
100
AcDbArc
 50
225.9317407159997
 51
327.321681293723
  0
ARC
  5
601
330
5D9
100
AcDbEntity
  8
TEXT
100
AcDbCircle
 10
8.92858301975427
 20
-15.24835987166339
 30
0.0
 40
0.0062230007908292
100
AcDbArc
 50
305.0065695458966
 51
188.3798152009863
  0
ARC
  5
602
330
5D9
100
AcDbEntity
  8
TEXT
100
AcDbCircle
 10
8.915576797261273
 20
-15.24989481390311
 30
0.0
 40
0.0068783917551291
100
AcDbArc
 50
183.0745908828774
 51
5.238726745824511
  0
ARC
  5
603
330
5D9
100
AcDbEntity
  8
TEXT
100
AcDbCircle
 10
8.902402913083761
 20
-15.25175873926614
 30
0.0
 40
0.0064802006361648
100
AcDbArc
 50
13.3384122638142
 51
197.9246330182951
  0
ARC
  5
604
330
5D9
100
AcDbEntity
  8
TEXT
100
AcDbCircle
 10
8.89293164503077
 20
-15.24637113328529
 30
0.0
 40
0.008088311031239
100
AcDbArc
 50
191.7667831442131
 51
294.1224948725133
  0
ARC
  5
605
330
5D9
100
AcDbEntity
  8
TEXT
100
AcDbCircle
 10
8.87749052057979
 20
-15.25756971843647
 30
0.0
 40
0.0121564175439883
100
AcDbArc
 50
51.76909225769996
 51
154.0890012254433
  0
ARC
  5
606
330
5D9
100
AcDbEntity
  8
TEXT
100
AcDbCircle
 10
8.85910760401223
 20
-15.24929633466422
 30
0.0
 40
0.0080156237088035
100
AcDbArc
 50
179.7887253899368
 51
338.318548208448
  0
ARC
  5
607
330
5D9
100
AcDbEntity
  8
TEXT
100
AcDbCircle
 10
8.845853081732194
 20
-15.24738245306935
 30
0.0
 40
0.0055675226302596
100
AcDbArc
 50
340.2175703033615
 51
119.5111127021389
  0
ARC
  5
608
330
5D9
100
AcDbEntity
  8
TEXT
100
AcDbCircle
 10
8.83842945143251
 20
-15.24394656657929
 30
0.0
 40
0.004888654969623
100
AcDbArc
 50
208.4553291170971
 51
16.75507449313881
  0
ARC
  5
609
330
5D9
100
AcDbEntity
  8
TEXT
100
AcDbCircle
 10
8.828788493363717
 20
-15.24698570292265
 30
0.0
 40
0.0053898518740112
100
AcDbArc
 50
7.567610287757029
 51
183.0538693842452
  0
ARC
  5
60A
330
5D9
100
AcDbEntity
  8
TEXT
100
AcDbCircle
 10
8.816657832871733
 20
-15.24800802123559
 30
0.0
 40
0.0067883895264755
100
AcDbArc
 50
151.6108765070449
 51
6.217261201770565
  0
ARC
  5
60B
330
5D9
100
AcDbEntity
  8
TEXT
100
AcDbCircle
 10
8.805399402949305
 20
-15.24508710174542
 30
0.0
 40
0.0052953075499502
100
AcDbArc
 50
3.320051391017451
 51
168.5145862198274
  0
ARC
  5
60C
330
5D9
100
AcDbEntity
  8
TEXT
100
AcDbCircle
 10
8.79370698965495
 20
-15.24653946674374
 30
0.0
 40
0.0069695548051274
100
AcDbArc
 50
181.931421762249
 51
21.08009584438978
  0
ARC
  5
60D
330
5D9
100
AcDbEntity
  8
TEXT
100
AcDbCircle
 10
8.778836337521731
 20
-15.25189549221995
 30
0.0
 40
0.0094189108603316
100
AcDbArc
 50
32.93635467158795
 51
189.5430854165199
  0
ARC
  5
60E
330
5D9
100
AcDbEntity
  8
TEXT
100
AcDbCircle
 10
9.410286483023917
 20
-15.74485491212751
 30
0.0
 40
0.0639559258863555
100
AcDbArc
 50
312.2086974257853
 51
3.26433362995777
  0
ARC
  5
60F
330
5D9
100
AcDbEntity
  8
TEXT
100
AcDbCircle
 10
9.400401861216586
 20
-15.72612058297281
 30
0.0
 40
0.0846372119198671
100
AcDbArc
 50
264.6664639047648
 51
308.6423664458132
  0
ARC
  5
610
330
5D9
100
AcDbEntity
  8
TEXT
100
AcDbCircle
 10
9.392957404745054
 20
-15.73858322403244
 30
0.0
 40
0.071809375850496
100
AcDbArc
 50
231.6935697703408
 51
269.6626044169122
  0
ARC
  5
611
330
5D9
100
AcDbEntity
  8
TEXT
100
AcDbCircle
 10
9.406197338002527
 20
-15.75205180538329
 30
0.0
 40
0.0409905600916759
100
AcDbArc
 50
343.5952529167627
 51
35.13836089167869
  0
ARC
  5
612
330
5D9
100
AcDbEntity
  8
TEXT
100
AcDbCircle
 10
9.408803448040245
 20
-15.74068904523984
 30
0.0
 40
0.0332455626004164
100
AcDbArc
 50
21.58325850317259
 51
95.38396011116697
  0
ARC
  5
613
330
5D9
100
AcDbEntity
  8
TEXT
100
AcDbCircle
 10
9.400172942164886
 20
-15.73560471561782
 30
0.0
 40
0.0285514939383258
100
AcDbArc
 50
78.87075864991584
 51
146.7670066549813
  0
ARC
  5
614
330
5D9
100
AcDbEntity
  8
TEXT
100
AcDbCircle
 10
9.421492677282508
 20
-15.74109351643288
 30
0.0
 40
0.0526460961695905
100
AcDbArc
 50
359.8698564192901
 51
62.37231490188335
  0
ARC
  5
615
330
5D9
100
AcDbEntity
  8
TEXT
100
AcDbCircle
 10
9.421437177095974
 20
-15.76583578742905
 30
0.0
 40
0.0754627727822422
100
AcDbArc
 50
71.07988584761956
 51
127.1124618564865
  0
LINE
  5
616
330
5D9
100
AcDbEntity
  8
TEXT
100
AcDbLine
 10
9.37629107747847
 20
-15.71995721277523
 30
0.0
 11
9.376677827013125
 21
-15.78643017305896
 31
0.0
  0
LINE
  5
617
330
5D9
100
AcDbEntity
  8
TEXT
100
AcDbLine
 10
9.32949441983775
 20
-15.65348425249145
 30
0.0
 11
9.345737888275706
 21
-15.65464366612242
 31
0.0
  0
LINE
  5
618
330
5D9
100
AcDbEntity
  8
TEXT
100
AcDbLine
 10
9.328720920768532
 20
-15.64498190249265
 30
0.0
 11
9.32949441983775
 21
-15.65348425249145
 31
0.0
  0
ARC
  5
619
330
5D9
100
AcDbEntity
  8
TEXT
100
AcDbCircle
 10
9.317910014563686
 20
-15.47024504345304
 30
0.0
 40
0.1750709730366319
100
AcDbArc
 50
273.5403564160214
 51
289.0758016785418
  0
LINE
  5
61A
330
5D9
100
AcDbEntity
  8
TEXT
100
AcDbLine
 10
9.375126496336335
 20
-15.63570234856089
 30
0.0
 11
9.375904339960264
 21
-15.70565779462144
 31
0.0
  0
LINE
  5
61B
330
5D9
100
AcDbEntity
  8
TEXT
100
AcDbLine
 10
9.345737888275706
 20
-15.65464366612242
 30
0.0
 11
9.348445135018152
 21
-15.79493253018425
 31
0.0
  0
ARC
  5
61C
330
5D9
100
AcDbEntity
  8
TEXT
100
AcDbCircle
 10
9.319618016925346
 20
-15.89039651422978
 30
0.0
 40
0.0909217077219805
100
AcDbArc
 50
88.18956599987521
 51
113.1652090520224
  0
ARC
  5
61D
330
5D9
100
AcDbEntity
  8
TEXT
100
AcDbCircle
 10
9.279412767903188
 20
-15.8054542998406
 30
0.0
 40
0.004639238263868
100
AcDbArc
 50
201.700602772435
 51
343.0678677067636
  0
LINE
  5
61E
330
5D9
100
AcDbEntity
  8
TEXT
100
AcDbLine
 10
9.274737787458008
 20
-15.79332774026155
 30
0.0
 11
9.275102318571398
 21
-15.80716968849246
 31
0.0
  0
ARC
  5
61F
330
5D9
100
AcDbEntity
  8
TEXT
100
AcDbCircle
 10
9.230766234630912
 20
-15.74628507250775
 30
0.0
 40
0.0643934006511204
100
AcDbArc
 50
260.0995263030863
 51
313.0673878832467
  0
ARC
  5
620
330
5D9
100
AcDbEntity
  8
TEXT
100
AcDbCircle
 10
9.219679167344352
 20
-15.78166412945552
 30
0.0
 40
0.0280553952937099
100
AcDbArc
 50
180.7587023263156
 51
270.031539090741
  0
ARC
  5
621
330
5D9
100
AcDbEntity
  8
TEXT
100
AcDbCircle
 10
9.269163771257254
 20
-15.70954261621534
 30
0.0
 40
0.0056512879938172
100
AcDbArc
 50
337.1943218370272
 51
115.6412778855147
  0
LINE
  5
622
330
5D9
100
AcDbEntity
  8
TEXT
100
AcDbLine
 10
9.274737787458008
 20
-15.78130709857026
 30
0.0
 11
9.274373268361145
 21
-15.71173309468213
 31
0.0
  0
LINE
  5
623
330
5D9
100
AcDbEntity
  8
TEXT
100
AcDbLine
 10
9.253595379427935
 20
-15.70371933593015
 30
0.0
 11
9.266718259178716
 21
-15.70444786139663
 31
0.0
  0
LINE
  5
624
330
5D9
100
AcDbEntity
  8
TEXT
100
AcDbLine
 10
9.253959898524826
 20
-15.69679835825144
 30
0.0
 11
9.253595379427935
 21
-15.70371933593015
 31
0.0
  0
LINE
  5
625
330
5D9
100
AcDbEntity
  8
TEXT
100
AcDbLine
 10
9.179961452394678
 20
-15.70299081046366
 30
0.0
 11
9.172306443212193
 21
-15.70189802939041
 31
0.0
  0
LINE
  5
626
330
5D9
100
AcDbEntity
  8
TEXT
100
AcDbLine
 10
9.171941924115309
 20
-15.69679835825144
 30
0.0
 11
9.172306443212193
 21
-15.70189802939041
 31
0.0
  0
ARC
  5
627
330
5D9
100
AcDbEntity
  8
TEXT
100
AcDbCircle
 10
9.18237028905122
 20
-15.71117273296744
 30
0.0
 40
0.0085291470790495
100
AcDbArc
 50
358.6825606331185
 51
106.404935772954
  0
LINE
  5
628
330
5D9
100
AcDbEntity
  8
TEXT
100
AcDbLine
 10
9.300619015846265
 20
-15.69497705171164
 30
0.0
 11
9.30134806605649
 21
-15.77766448549074
 31
0.0
  0
LINE
  5
629
330
5D9
100
AcDbEntity
  8
TEXT
100
AcDbLine
 10
9.218601041436826
 20
-15.69497705171164
 30
0.0
 11
9.219330091647044
 21
-15.77511465348456
 31
0.0
  0
LINE
  5
62A
330
5D9
100
AcDbEntity
  8
TEXT
100
AcDbLine
 10
9.190897181514834
 20
-15.71136883194888
 30
0.0
 11
9.191626231725066
 21
-15.78203562403675
 31
0.0
  0
LINE
  5
62B
330
5D9
100
AcDbEntity
  8
TEXT
100
AcDbLine
 10
9.253959898524826
 20
-15.69679835825144
 30
0.0
 11
9.300619015846265
 21
-15.69497705171164
 31
0.0
  0
LINE
  5
62C
330
5D9
100
AcDbEntity
  8
TEXT
100
AcDbLine
 10
9.171941924115309
 20
-15.69679835825144
 30
0.0
 11
9.218601041436826
 21
-15.69497705171164
 31
0.0
  0
LINE
  5
62D
330
5D9
100
AcDbEntity
  8
TEXT
100
AcDbLine
 10
8.877572259327692
 20
-15.58366606700356
 30
0.0
 11
8.873151526492641
 21
-15.59360554230632
 31
0.0
  0
ARC
  5
62E
330
5D9
100
AcDbEntity
  8
TEXT
100
AcDbCircle
 10
8.883927058271851
 20
-15.5833302861148
 30
0.0
 40
0.0063636639152044
100
AcDbArc
 50
183.0246359049376
 51
356.9753640950624
  0
LINE
  5
62F
330
5D9
100
AcDbEntity
  8
TEXT
100
AcDbLine
 10
8.89249221161701
 20
-15.56654808453122
 30
0.0
 11
8.890281857215917
 21
-15.58366606700356
 31
0.0
  0
ARC
  5
630
330
5D9
100
AcDbEntity
  8
TEXT
100
AcDbCircle
 10
8.897286464004743
 20
-15.56452248767095
 30
0.0
 40
0.005204603596527
100
AcDbArc
 50
8.122642540875249
 51
202.9043136183462
  0
LINE
  5
631
330
5D9
100
AcDbEntity
  8
TEXT
100
AcDbLine
 10
8.898018133669005
 20
-15.5969186983651
 30
0.0
 11
8.902438854487535
 21
-15.56378711639796
 31
0.0
  0
ARC
  5
632
330
5D9
100
AcDbEntity
  8
TEXT
100
AcDbCircle
 10
8.907960650004042
 20
-15.59649415715785
 30
0.0
 40
0.0099515760716454
100
AcDbArc
 50
182.4450201076249
 51
0.7349407504797704
  0
LINE
  5
633
330
5D9
100
AcDbEntity
  8
TEXT
100
AcDbLine
 10
8.91791140739356
 20
-15.56986124059
 30
0.0
 11
8.91791140739356
 21
-15.59636651043958
 31
0.0
  0
ARC
  5
634
330
5D9
100
AcDbEntity
  8
TEXT
100
AcDbCircle
 10
8.925391836422342
 20
-15.56997661681464
 30
0.0
 40
0.0074813187425369
100
AcDbArc
 50
179.1163546128549
 51
32.14670843865929
  0
LINE
  5
635
330
5D9
100
AcDbEntity
  8
TEXT
100
AcDbLine
 10
8.931726182482414
 20
-15.55881738230981
 30
0.0
 11
8.931726182482414
 21
-15.56599588947932
 31
0.0
  0
ARC
  5
636
330
5D9
100
AcDbEntity
  8
TEXT
100
AcDbCircle
 10
8.93949212680566
 20
-15.56074474052709
 30
0.0
 40
0.0080015374104194
100
AcDbArc
 50
26.60941129939754
 51
166.0619000058106
  0
LINE
  5
637
330
5D9
100
AcDbEntity
  8
TEXT
100
AcDbLine
 10
8.947751323988754
 20
-15.57317439664876
 30
0.0
 11
8.946646146788125
 21
-15.55716080428036
 31
0.0
  0
ARC
  5
638
330
5D9
100
AcDbEntity
  8
TEXT
100
AcDbCircle
 10
8.955637062100272
 20
-15.57522961741804
 30
0.0
 40
0.0081491593415915
100
AcDbArc
 50
165.3922446503685
 51
2.803879044206379
  0
LINE
  5
639
330
5D9
100
AcDbEntity
  8
TEXT
100
AcDbLine
 10
8.964329054095237
 20
-15.55384764109514
 30
0.0
 11
8.963776465495008
 21
-15.5748309818046
 31
0.0
  0
ARC
  5
63A
330
5D9
100
AcDbEntity
  8
TEXT
100
AcDbCircle
 10
8.982098979272755
 20
-15.64027567125675
 30
0.0
 40
0.0882359033412528
100
AcDbArc
 50
60.82353397560634
 51
101.6183182656855
  0
ARC
  5
63B
330
5D9
100
AcDbEntity
  8
TEXT
100
AcDbCircle
 10
9.008429639639366
 20
-15.57560052781061
 30
0.0
 40
0.020767245374123
100
AcDbArc
 50
335.4827230531638
 51
36.54383594003191
  0
ARC
  5
63C
330
5D9
100
AcDbEntity
  8
TEXT
100
AcDbCircle
 10
9.03200518519408
 20
-15.59100362476235
 30
0.0
 40
0.0082432158647587
100
AcDbArc
 50
124.5991194751616
 51
24.91162951380403
  0
ARC
  5
63D
330
5D9
100
AcDbEntity
  8
TEXT
100
AcDbCircle
 10
9.042474053873789
 20
-15.58292256218176
 30
0.0
 40
0.0054952060614365
100
AcDbArc
 50
15.46471151433633
 51
237.0036058083549
  0
ARC
  5
63E
330
5D9
100
AcDbEntity
  8
TEXT
100
AcDbCircle
 10
9.027879704761502
 20
-15.59453544371133
 30
0.0
 40
0.023804915238114
100
AcDbArc
 50
331.8837666959812
 51
33.32508059324599
  0
ARC
  5
63F
330
5D9
100
AcDbEntity
  8
TEXT
100
AcDbCircle
 10
9.054125098180669
 20
-15.61168294216606
 30
0.0
 40
0.0079191731001476
100
AcDbArc
 50
131.5213803610224
 51
48.47861963898638
  0
ARC
  5
640
330
5D9
100
AcDbEntity
  8
TEXT
100
AcDbCircle
 10
9.063195215784325
 20
-15.60486790333319
 30
0.0
 40
0.003921865746672
100
AcDbArc
 50
3.19372534848457
 51
193.0548754998598
  0
ARC
  5
641
330
5D9
100
AcDbEntity
  8
TEXT
100
AcDbCircle
 10
9.091218952308949
 20
-15.61538768687278
 30
0.0
 40
0.0263913710936601
100
AcDbArc
 50
155.9906329013486
 51
206.8057304576949
  0
ARC
  5
642
330
5D9
100
AcDbEntity
  8
TEXT
100
AcDbCircle
 10
8.960041092631605
 20
-15.67651102289548
 30
0.0
 40
0.1183443098246494
100
AcDbArc
 50
344.8914411173256
 51
24.57723374822076
  0
ARC
  5
643
330
5D9
100
AcDbEntity
  8
TEXT
100
AcDbCircle
 10
9.036490416032556
 20
-15.71868652483479
 30
0.0
 40
0.039465341685872
100
AcDbArc
 50
300.6537348898141
 51
16.68245916375876
  0
ARC
  5
644
330
5D9
100
AcDbEntity
  8
TEXT
100
AcDbCircle
 10
9.001352652534883
 20
-15.80305778371088
 30
0.0
 40
0.0151608262881662
100
AcDbArc
 50
244.0629515517945
 51
24.32612031264302
  0
ARC
  5
645
330
5D9
100
AcDbEntity
  8
TEXT
100
AcDbCircle
 10
8.97538088017449
 20
-15.82957969272428
 30
0.0
 40
0.0232414801758489
100
AcDbArc
 50
33.67851647490049
 51
106.5775508010124
  0
ARC
  5
646
330
5D9
100
AcDbEntity
  8
TEXT
100
AcDbCircle
 10
8.960635352928512
 20
-15.80270418515592
 30
0.0
 40
0.0093276313750482
100
AcDbArc
 50
194.8546182240452
 51
330.451099434079
  0
ARC
  5
647
330
5D9
100
AcDbEntity
  8
TEXT
100
AcDbCircle
 10
8.941137272520535
 20
-15.79314232276391
 30
0.0
 40
0.0158982468981209
100
AcDbArc
 50
223.0305625061276
 51
311.2487591160724
  0
ARC
  5
648
330
5D9
100
AcDbEntity
  8
TEXT
100
AcDbCircle
 10
8.920688185916574
 20
-15.78809244441136
 30
0.0
 40
0.0181850036414607
100
AcDbArc
 50
214.7934494581965
 51
299.040950787611
  0
ARC
  5
649
330
5D9
100
AcDbEntity
  8
TEXT
100
AcDbCircle
 10
8.900349411028422
 20
-15.79862564191566
 30
0.0
 40
0.0054072516304673
100
AcDbArc
 50
1.658272028068491
 51
160.4091839300748
  0
ARC
  5
64A
330
5D9
100
AcDbEntity
  8
TEXT
100
AcDbCircle
 10
8.890948729244314
 20
-15.79747635833374
 30
0.0
 40
0.0043573040229911
100
AcDbArc
 50
156.0593073728624
 51
8.762281217119962
  0
ARC
  5
64B
330
5D9
100
AcDbEntity
  8
TEXT
100
AcDbCircle
 10
8.855628870047894
 20
-15.80604100113774
 30
0.0
 40
0.0329969893037705
100
AcDbArc
 50
18.24878221232238
 51
92.19784172829085
  0
ARC
  5
64C
330
5D9
100
AcDbEntity
  8
TEXT
100
AcDbCircle
 10
8.837512234853591
 20
-15.768687039997
 30
0.0
 40
0.0174114356259555
100
AcDbArc
 50
345.4259909574664
 51
72.46181126870009
  0
ARC
  5
64D
330
5D9
100
AcDbEntity
  8
TEXT
100
AcDbCircle
 10
8.805729562738243
 20
-15.74352596086294
 30
0.0
 40
0.0380057513037344
100
AcDbArc
 50
346.9852122362369
 51
34.01252680042887
  0
ARC
  5
64E
330
5D9
100
AcDbEntity
  8
TEXT
100
AcDbCircle
 10
8.996149108967969
 20
-15.68460440879398
 30
0.0
 40
0.1633178784265339
100
AcDbArc
 50
153.5374647244112
 51
193.3327646348702
  0
ARC
  5
64F
330
5D9
100
AcDbEntity
  8
TEXT
100
AcDbCircle
 10
8.858222904035095
 20
-15.6076054297778
 30
0.0
 40
0.0092946763146444
100
AcDbArc
 50
103.7022990326946
 51
207.0193065629252
  0
ARC
  5
650
330
5D9
100
AcDbEntity
  8
TEXT
100
AcDbCircle
 10
8.863556478562244
 20
-15.59254046558335
 30
0.0
 40
0.0096539801746963
100
AcDbArc
 50
218.6904014524231
 51
353.6659411500759
  0
ARC
  5
651
330
5D9
100
AcDbEntity
  8
TEXT
100
AcDbCircle
 10
8.882647103723954
 20
-15.60692827049575
 30
0.0
 40
0.0518875786219161
100
AcDbArc
 50
120.6947626763568
 51
155.9971516553446
  0
LINE
  5
652
330
5D9
100
AcDbEntity
  8
TEXT
100
AcDbLine
 10
8.83561995053396
 20
-15.55783188321768
 30
0.0
 11
8.835246491196166
 21
-15.58582133449736
 31
0.0
  0
LINE
  5
653
330
5D9
100
AcDbEntity
  8
TEXT
100
AcDbLine
 10
8.856907264968825
 20
-15.55148760854451
 30
0.0
 11
8.856160346293329
 21
-15.56231019684777
 31
0.0
  0
ARC
  5
654
330
5D9
100
AcDbEntity
  8
TEXT
100
AcDbCircle
 10
8.8473565511837
 20
-15.55832696265548
 30
0.0
 40
0.0117470378590304
100
AcDbArc
 50
35.60679995345928
 51
177.5845513854531
  0
ARC
  5
655
330
5D9
100
AcDbEntity
  8
TEXT
100
AcDbCircle
 10
8.884107596647695
 20
-15.52201178072448
 30
0.0
 40
0.0081683448405352
100
AcDbArc
 50
318.2823815987277
 51
84.36248438139955
  0
ARC
  5
656
330
5D9
100
AcDbEntity
  8
TEXT
100
AcDbCircle
 10
8.902752405799716
 20
-15.54914633168965
 30
0.0
 40
0.0250655979175474
100
AcDbArc
 50
81.18509483549694
 51
120.0392913824104
  0
ARC
  5
657
330
5D9
100
AcDbEntity
  8
TEXT
100
AcDbCircle
 10
8.914831431885005
 20
-15.57005469178396
 30
0.0
 40
0.0464147959140925
100
AcDbArc
 50
70.05468846035578
 51
100.2232656721042
  0
ARC
  5
658
330
5D9
100
AcDbEntity
  8
TEXT
100
AcDbCircle
 10
8.936042161889773
 20
-15.52802953047339
 30
0.0
 40
0.0056121548373925
100
AcDbArc
 50
163.375655046466
 51
16.62434495353051
  0
ARC
  5
659
330
5D9
100
AcDbEntity
  8
TEXT
100
AcDbCircle
 10
8.95112342035479
 20
-15.53773408771685
 30
0.0
 40
0.0149023974869778
100
AcDbArc
 50
46.43616582623992
 51
130.6283095026662
  0
ARC
  5
65A
330
5D9
100
AcDbEntity
  8
TEXT
100
AcDbCircle
 10
8.966345259986582
 20
-15.52662758330068
 30
0.0
 40
0.0049612464682247
100
AcDbArc
 50
183.5606974541693
 51
344.4298925613464
  0
ARC
  5
65B
330
5D9
100
AcDbEntity
  8
TEXT
100
AcDbCircle
 10
8.980087069854924
 20
-15.53138048876827
 30
0.0
 40
0.0095934064476276
100
AcDbArc
 50
20.89289471578036
 51
159.1071052842194
  0
ARC
  5
65C
330
5D9
100
AcDbEntity
  8
TEXT
100
AcDbCircle
 10
8.995227896993988
 20
-15.53802208708655
 30
0.0
 40
0.0118080686994655
100
AcDbArc
 50
24.75773987532591
 51
121.5483884163393
  0
ARC
  5
65D
330
5D9
100
AcDbEntity
  8
TEXT
100
AcDbCircle
 10
9.014102491013538
 20
-15.53729934560819
 30
0.0
 40
0.0091804215546634
100
AcDbArc
 50
47.61705801860741
 51
152.6179806586004
  0
ARC
  5
65E
330
5D9
100
AcDbEntity
  8
TEXT
100
AcDbCircle
 10
9.025810787393901
 20
-15.53573090813084
 30
0.0
 40
0.0075922528004813
100
AcDbArc
 50
136.6395135700791
 51
16.3877599161853
  0
ARC
  5
65F
330
5D9
100
AcDbEntity
  8
TEXT
100
AcDbCircle
 10
9.034928828891182
 20
-15.55628749916344
 30
0.0
 40
0.0227726322810891
100
AcDbArc
 50
41.27304036069129
 51
94.61991284103847
  0
ARC
  5
660
330
5D9
100
AcDbEntity
  8
TEXT
100
AcDbCircle
 10
9.061213928338879
 20
-15.54219728575656
 30
0.0
 40
0.0092169798392477
100
AcDbArc
 50
174.1982733486934
 51
308.0634596483615
  0
ARC
  5
661
330
5D9
100
AcDbEntity
  8
TEXT
100
AcDbCircle
 10
9.073644931273598
 20
-15.55327721221418
 30
0.0
 40
0.0077561318536137
100
AcDbArc
 50
296.7794474250819
 51
150.4674482996605
  0
ARC
  5
662
330
5D9
100
AcDbEntity
  8
TEXT
100
AcDbCircle
 10
9.079956338125121
 20
-15.61606540062326
 30
0.0
 40
0.0559348923755989
100
AcDbArc
 50
78.6467194011529
 51
92.8865786316482
  0
ARC
  5
663
330
5D9
100
AcDbEntity
  8
TEXT
100
AcDbCircle
 10
9.072688846964382
 20
-15.58365935155042
 30
0.0
 40
0.0289380351332378
100
AcDbArc
 50
356.7791343814141
 51
50.82801334298975
  0
ARC
  5
664
330
5D9
100
AcDbEntity
  8
TEXT
100
AcDbCircle
 10
9.107752904980806
 20
-15.60476702459324
 30
0.0
 40
0.0204360051614917
100
AcDbArc
 50
51.01090143870943
 51
107.577946053111
  0
ARC
  5
665
330
5D9
100
AcDbEntity
  8
TEXT
100
AcDbCircle
 10
9.018422527111667
 20
-15.67652729814126
 30
0.0
 40
0.1346253053831234
100
AcDbArc
 50
317.9732863042375
 51
40.61894937560249
  0
ARC
  5
666
330
5D9
100
AcDbEntity
  8
TEXT
100
AcDbCircle
 10
9.249474996780385
 20
-15.79401380499544
 30
0.0
 40
0.1333149421547866
100
AcDbArc
 50
179.4662202071271
 51
190.5890997840382
  0
ARC
  5
667
330
5D9
100
AcDbEntity
  8
TEXT
100
AcDbCircle
 10
9.107131994071849
 20
-15.82386618730716
 30
0.0
 40
0.0125026745237082
100
AcDbArc
 50
282.9712622283037
 51
25.35441378639515
  0
ARC
  5
668
330
5D9
100
AcDbEntity
  8
TEXT
100
AcDbCircle
 10
9.125419449954094
 20
-15.82154167174656
 30
0.0
 40
0.0212167466474904
100
AcDbArc
 50
169.468486757319
 51
223.1418439421427
  0
ARC
  5
669
330
5D9
100
AcDbEntity
  8
TEXT
100
AcDbCircle
 10
9.077444024406375
 20
-15.80634924216546
 30
0.0
 40
0.0293819711749308
100
AcDbArc
 50
337.3510782224612
 51
22.64892177753835
  0
ARC
  5
66A
330
5D9
100
AcDbEntity
  8
TEXT
100
AcDbCircle
 10
9.001156083561262
 20
-15.71817671072591
 30
0.0
 40
0.1156528301604903
100
AcDbArc
 50
311.6071689301103
 51
318.3515702307968
  0
ARC
  5
66B
330
5D9
100
AcDbEntity
  8
TEXT
100
AcDbCircle
 10
9.077888745348609
 20
-15.80849333803694
 30
0.0
 40
0.0038417881779584
100
AcDbArc
 50
89.05883162362073
 51
223.9137905963005
  0
ARC
  5
66C
330
5D9
100
AcDbEntity
  8
TEXT
100
AcDbCircle
 10
9.044849388457244
 20
-15.81553106365399
 30
0.0
 40
0.0305860421363687
100
AcDbArc
 50
322.6907301981532
 51
8.220255073940977
  0
ARC
  5
66D
330
5D9
100
AcDbEntity
  8
TEXT
100
AcDbCircle
 10
9.073998501440627
 20
-15.83999177401357
 30
0.0
 40
0.0076366866670949
100
AcDbArc
 50
129.1527393458021
 51
254.8870408388504
  0
ARC
  5
66E
330
5D9
100
AcDbEntity
  8
TEXT
100
AcDbCircle
 10
9.073688368502367
 20
-15.85026896873789
 30
0.0
 40
0.0033559505890674
100
AcDbArc
 50
312.7998628402736
 51
120.0581864533373
  0
ARC
  5
66F
330
5D9
100
AcDbEntity
  8
TEXT
100
AcDbCircle
 10
9.132413078627116
 20
-15.87724611902357
 30
0.0
 40
0.0302687434911625
100
AcDbArc
 50
99.17143729878524
 51
127.7955283290937
  0
ARC
  5
670
330
5D9
100
AcDbEntity
  8
TEXT
100
AcDbCircle
 10
9.126380718731674
 20
-15.86116705432309
 30
0.0
 40
0.0138554663165673
100
AcDbArc
 50
341.5477100758356
 51
84.99888070834156
  0
ARC
  5
671
330
5D9
100
AcDbEntity
  8
TEXT
100
AcDbCircle
 10
9.062889404150006
 20
-15.82568510234836
 30
0.0
 40
0.0224411109328791
100
AcDbArc
 50
156.2885975497952
 51
210.2571046136445
  0
ARC
  5
672
330
5D9
100
AcDbEntity
  8
TEXT
100
AcDbCircle
 10
9.046910723454963
 20
-15.81830706869835
 30
0.0
 40
0.0048555864643655
100
AcDbArc
 50
31.23099864076721
 51
160.1819529381846
  0
LINE
  5
673
330
5D9
100
AcDbEntity
  8
TEXT
100
AcDbLine
 10
9.050771991131135
 20
-15.83786412230399
 30
0.0
 11
9.05106265710885
 21
-15.81578949708131
 31
0.0
  0
ARC
  5
674
330
5D9
100
AcDbEntity
  8
TEXT
100
AcDbCircle
 10
9.046901231149981
 20
-15.83940863478415
 30
0.0
 40
0.0041675294399618
100
AcDbArc
 50
144.5711585108375
 51
21.75301147887022
  0
ARC
  5
675
330
5D9
100
AcDbEntity
  8
TEXT
100
AcDbCircle
 10
8.968172683225859
 20
-15.84849847552789
 30
0.0
 40
0.0076196864336421
100
AcDbArc
 50
177.787775166229
 51
326.3805826419355
  0
ARC
  5
676
330
5D9
100
AcDbEntity
  8
TEXT
100
AcDbCircle
 10
8.956280702673872
 20
-15.84779407663382
 30
0.0
 40
0.0042976011800634
100
AcDbArc
 50
354.5219056877809
 51
214.9448543763828
  0
LINE
  5
677
330
5D9
100
AcDbEntity
  8
TEXT
100
AcDbLine
 10
8.933050864226892
 20
-15.84205031452508
 30
0.0
 11
8.933871996515222
 21
-15.86748696918408
 31
0.0
  0
ARC
  5
678
330
5D9
100
AcDbEntity
  8
TEXT
100
AcDbCircle
 10
8.916146716687258
 20
-15.83468492648547
 30
0.0
 40
0.0046072945756543
100
AcDbArc
 50
5.351678383090961
 51
195.2435488026392
  0
LINE
  5
679
330
5D9
100
AcDbEntity
  8
TEXT
100
AcDbLine
 10
8.910469822430023
 20
-15.876102608784
 30
0.0
 11
8.911701520862422
 21
-15.83589628827551
 31
0.0
  0
LINE
  5
67A
330
5D9
100
AcDbEntity
  8
TEXT
100
AcDbLine
 10
8.890762743642163
 20
-15.82687037740834
 30
0.0
 11
8.89445781490663
 21
-15.87774367959997
 31
0.0
  0
ARC
  5
67B
330
5D9
100
AcDbEntity
  8
TEXT
100
AcDbCircle
 10
8.882067591757596
 20
-15.8280316366078
 30
0.0
 40
0.0087723536878285
100
AcDbArc
 50
7.606980527162157
 51
103.0413594591621
  0
ARC
  5
67C
330
5D9
100
AcDbEntity
  8
TEXT
100
AcDbCircle
 10
8.876392994687151
 20
-15.82747964614176
 30
0.0
 40
0.0088067733803194
100
AcDbArc
 50
65.19241843010743
 51
139.050810698879
  0
LINE
  5
67D
330
5D9
100
AcDbEntity
  8
TEXT
100
AcDbLine
 10
8.869741317259183
 20
-15.83279757502901
 30
0.0
 11
8.869741317259183
 21
-15.82170777947959
 31
0.0
  0
ARC
  5
67E
330
5D9
100
AcDbEntity
  8
TEXT
100
AcDbCircle
 10
8.86481118791066
 20
-15.83412320711217
 30
0.0
 40
0.0051052400348263
100
AcDbArc
 50
168.3169857564316
 51
15.04995211451589
  0
LINE
  5
67F
330
5D9
100
AcDbEntity
  8
TEXT
100
AcDbLine
 10
8.858351486386226
 20
-15.81966492503022
 30
0.0
 11
8.859811713718762
 21
-15.83308941137888
 31
0.0
  0
ARC
  5
680
330
5D9
100
AcDbEntity
  8
TEXT
100
AcDbCircle
 10
8.856340045939894
 20
-15.81789478638526
 30
0.0
 40
0.002679418498761
100
AcDbArc
 50
318.6510821797593
 51
186.6644145786489
  0
LINE
  5
681
330
5D9
100
AcDbEntity
  8
TEXT
100
AcDbLine
 10
8.852510541006623
 20
-15.82842002978038
 30
0.0
 11
8.853678732485825
 21
-15.81820574328065
 31
0.0
  0
ARC
  5
682
330
5D9
100
AcDbEntity
  8
TEXT
100
AcDbCircle
 10
8.845297513419964
 20
-15.83032803108759
 30
0.0
 40
0.0074611149270424
100
AcDbArc
 50
172.0457056516397
 51
14.81661014794205
  0
LINE
  5
683
330
5D9
100
AcDbEntity
  8
TEXT
100
AcDbLine
 10
8.836155908363508
 20
-15.80478124980553
 30
0.0
 11
8.837908183565886
 21
-15.8292955388301
 31
0.0
  0
ARC
  5
684
330
5D9
100
AcDbEntity
  8
TEXT
100
AcDbCircle
 10
8.838082838289054
 20
-15.78692133915486
 30
0.0
 40
0.0179635594297832
100
AcDbArc
 50
209.3802246625985
 51
263.8421008682747
  0
ARC
  5
685
330
5D9
100
AcDbEntity
  8
TEXT
100
AcDbCircle
 10
8.815588388117824
 20
-15.79791365097265
 30
0.0
 40
0.0071800400492724
100
AcDbArc
 50
17.66955929970851
 51
146.8111142491861
  0
ARC
  5
686
330
5D9
100
AcDbEntity
  8
TEXT
100
AcDbCircle
 10
8.806749350055021
 20
-15.79584814018903
 30
0.0
 40
0.0033894123865897
100
AcDbArc
 50
192.9866902548923
 51
33.38063139741035
  0
LINE
  5
687
330
5D9
100
AcDbEntity
  8
TEXT
100
AcDbLine
 10
8.803446631060751
 20
-15.78610370203198
 30
0.0
 11
8.803446631060751
 21
-15.7966098248816
 31
0.0
  0
ARC
  5
688
330
5D9
100
AcDbEntity
  8
TEXT
100
AcDbCircle
 10
8.801211837579522
 20
-15.78499861100828
 30
0.0
 40
0.0024930960820185
100
AcDbArc
 50
333.6879001367226
 51
192.072245755338
  0
LINE
  5
689
330
5D9
100
AcDbEntity
  8
TEXT
100
AcDbLine
 10
8.798773877160293
 20
-15.78552002933218
 30
0.0
 11
8.798189781420703
 21
-15.85585267517763
 31
0.0
  0
ARC
  5
68A
330
5D9
100
AcDbEntity
  8
TEXT
100
AcDbCircle
 10
10.23882316588209
 20
-15.81311665920714
 30
0.0
 40
1.45632900583859
100
AcDbArc
 50
178.0464319449979
 51
181.7502526685598
  0
ARC
  5
68B
330
5D9
100
AcDbEntity
  8
TEXT
100
AcDbCircle
 10
8.767612811580789
 20
-15.76773573806735
 30
0.0
 40
0.0162957506332572
100
AcDbArc
 50
15.17145974978873
 51
87.54918714297627
  0
ARC
  5
68C
330
5D9
100
AcDbEntity
  8
TEXT
100
AcDbCircle
 10
9.117442315788039
 20
-15.67855588594875
 30
0.0
 40
0.3566621462042507
100
AcDbArc
 50
175.4121316267021
 51
191.7939289657056
  0
ARC
  5
68D
330
5D9
100
AcDbEntity
  8
TEXT
100
AcDbCircle
 10
8.846022016584306
 20
-15.65099845894406
 30
0.0
 40
0.0841046512764477
100
AcDbArc
 50
117.322218089242
 51
179.3383492613259
  0
ARC
  5
68E
330
5D9
100
AcDbEntity
  8
TEXT
100
AcDbCircle
 10
8.8001568407713
 20
-15.56848582515977
 30
0.0
 40
0.0106502222250049
100
AcDbArc
 50
312.9867785858861
 51
66.99118422926635
  0
ARC
  5
68F
330
5D9
100
AcDbEntity
  8
TEXT
100
AcDbCircle
 10
8.799038945870435
 20
-15.55590949484148
 30
0.0
 40
0.0059647540504544
100
AcDbArc
 50
332.2921775479047
 51
119.5678571759902
  0
ARC
  5
690
330
5D9
100
AcDbEntity
  8
TEXT
100
AcDbCircle
 10
8.801588348229053
 20
-15.55977596415258
 30
0.0
 40
0.0105902359568728
100
AcDbArc
 50
121.2424246402127
 51
213.473239708375
  0
ARC
  5
691
330
5D9
100
AcDbEntity
  8
TEXT
100
AcDbCircle
 10
8.790357164018672
 20
-15.56777308843169
 30
0.0
 40
0.0032243384785175
100
AcDbArc
 50
201.5154657473976
 51
41.96660508022721
  0
ARC
  5
692
330
5D9
100
AcDbEntity
  8
TEXT
100
AcDbCircle
 10
8.790439331845803
 20
-15.55734610243038
 30
0.0
 40
0.0120116037344174
100
AcDbArc
 50
160.2627782819637
 51
255.1333022011724
  0
ARC
  5
693
330
5D9
100
AcDbEntity
  8
TEXT
100
AcDbCircle
 10
8.776468971236006
 20
-15.55103799658746
 30
0.0
 40
0.0034884558213629
100
AcDbArc
 50
124.2167745950174
 51
319.7988197133694
  0
ARC
  5
694
330
5D9
100
AcDbEntity
  8
TEXT
100
AcDbCircle
 10
8.769000394732898
 20
-15.54783989426338
 30
0.0
 40
0.0055158418608249
100
AcDbArc
 50
356.7423630506751
 51
136.5172760690068
  0
ARC
  5
695
330
5D9
100
AcDbEntity
  8
TEXT
100
AcDbCircle
 10
8.7664759902949
 20
-15.53680176204067
 30
0.0
 40
0.0073917140674745
100
AcDbArc
 50
116.3151684036785
 51
258.4674100382152
  0
ARC
  5
696
330
5D9
100
AcDbEntity
  8
TEXT
100
AcDbCircle
 10
8.767128973694681
 20
-15.53393602049518
 30
0.0
 40
0.005438804330597
100
AcDbArc
 50
348.1206509806774
 51
136.2651890953773
  0
ARC
  5
697
330
5D9
100
AcDbEntity
  8
TEXT
100
AcDbCircle
 10
8.775976270874302
 20
-15.53642483929252
 30
0.0
 40
0.0037815662133579
100
AcDbArc
 50
158.7719549350954
 51
25.4671605858409
  0
ARC
  5
698
330
5D9
100
AcDbEntity
  8
TEXT
100
AcDbCircle
 10
8.789550846304614
 20
-15.53565235018632
 30
0.0
 40
0.0101962468342554
100
AcDbArc
 50
32.48569494743589
 51
175.1979664789355
  0
ARC
  5
699
330
5D9
100
AcDbEntity
  8
TEXT
100
AcDbCircle
 10
8.802360028066026
 20
-15.53205636555103
 30
0.0
 40
0.0046093466676787
100
AcDbArc
 50
155.9249042338181
 51
10.66497725508797
  0
ARC
  5
69A
330
5D9
100
AcDbEntity
  8
TEXT
100
AcDbCircle
 10
8.82187739861348
 20
-15.52828075042366
 30
0.0
 40
0.0152699376544324
100
AcDbArc
 50
109.4580308571273
 51
191.0341765877008
  0
LINE
  5
69B
330
5D9
100
AcDbEntity
  8
TEXT
100
AcDbLine
 10
9.520002561020497
 20
-15.73707686927871
 30
0.0
 11
9.615839272987706
 21
-15.73707686927871
 31
0.0
  0
ARC
  5
69C
330
5D9
100
AcDbEntity
  8
TEXT
100
AcDbCircle
 10
9.572306360813577
 20
-15.73505255819061
 30
0.0
 40
0.0435799527046947
100
AcDbArc
 50
357.3376237443689
 51
85.63084243886232
  0
ARC
  5
69D
330
5D9
100
AcDbEntity
  8
TEXT
100
AcDbCircle
 10
9.558720964960535
 20
-15.77221311811073
 30
0.0
 40
0.0823673987739953
100
AcDbArc
 50
78.15621523985548
 51
106.6122408520358
  0
LINE
  5
69E
330
5D9
100
AcDbEntity
  8
TEXT
100
AcDbLine
 10
9.520002561020497
 20
-15.72673011269824
 30
0.0
 11
9.582850256901082
 21
-15.72673011269824
 31
0.0
  0
ARC
  5
69F
330
5D9
100
AcDbEntity
  8
TEXT
100
AcDbCircle
 10
9.550623425307776
 20
-15.73271071367952
 30
0.0
 40
0.0311994377801564
100
AcDbArc
 50
103.9179608005984
 51
168.9486088950471
  0
ARC
  5
6A0
330
5D9
100
AcDbEntity
  8
TEXT
100
AcDbCircle
 10
9.557802020168026
 20
-15.72593895011276
 30
0.0
 40
0.0250607282749532
100
AcDbArc
 50
358.1908821763629
 51
69.74957583402939
  0
ARC
  5
6A1
330
5D9
100
AcDbEntity
  8
TEXT
100
AcDbCircle
 10
9.554797545855535
 20
-15.79753774645945
 30
0.0
 40
0.0958248136702463
100
AcDbArc
 50
82.99970676551479
 51
97.00029323448521
  0
ARC
  5
6A2
330
5D9
100
AcDbEntity
  8
TEXT
100
AcDbCircle
 10
9.55410609524501
 20
-15.74973314063038
 30
0.0
 40
0.0595400977291648
100
AcDbArc
 50
108.54166133208
 51
149.7652339536173
  0
ARC
  5
6A3
330
5D9
100
AcDbEntity
  8
TEXT
100
AcDbCircle
 10
9.554487162306841
 20
-15.75154689030826
 30
0.0
 40
0.0607981848192704
100
AcDbArc
 50
148.4692011102834
 51
195.580236137338
  0
ARC
  5
6A4
330
5D9
100
AcDbEntity
  8
TEXT
100
AcDbCircle
 10
9.553362494697253
 20
-15.7533583751702
 30
0.0
 40
0.0592458724165616
100
AcDbArc
 50
194.1847393568156
 51
248.6586767321129
  0
ARC
  5
6A5
330
5D9
100
AcDbEntity
  8
TEXT
100
AcDbCircle
 10
9.577698078535568
 20
-15.73778584662087
 30
0.0
 40
0.0576998733985072
100
AcDbArc
 50
179.2959701761241
 51
227.5915484940841
  0
ARC
  5
6A6
330
5D9
100
AcDbEntity
  8
TEXT
100
AcDbCircle
 10
9.565114788058679
 20
-15.74805696874988
 30
0.0
 40
0.0416968831835802
100
AcDbArc
 50
230.8416488637729
 51
280.5326941523482
  0
ARC
  5
6A7
330
5D9
100
AcDbEntity
  8
TEXT
100
AcDbCircle
 10
9.570564148418988
 20
-15.7367590533235
 30
0.0
 40
0.0523373547601109
100
AcDbArc
 50
272.3792098458871
 51
327.3581874363218
  0
ARC
  5
6A8
330
5D9
100
AcDbEntity
  8
TEXT
100
AcDbCircle
 10
9.555091639080451
 20
-15.72576897318325
 30
0.0
 40
0.0859869303945008
100
AcDbArc
 50
254.2847830849397
 51
294.1819270465994
  0
ARC
  5
6A9
330
5D9
100
AcDbEntity
  8
TEXT
100
AcDbCircle
 10
9.562071713325757
 20
-15.74712339742854
 30
0.0
 40
0.0636915668079766
100
AcDbArc
 50
296.3233923707218
 51
339.8348331475783
  0
ARC
  5
6AA
330
5D9
100
AcDbEntity
  8
TEXT
100
AcDbCircle
 10
9.61755030575042
 20
-15.76826509601149
 30
0.0
 40
0.0043851721065334
100
AcDbArc
 50
349.2952029716974
 51
131.662690546936
  0
ARC
  5
6AB
330
5D9
100
AcDbEntity
  8
TEXT
100
AcDbCircle
 10
8.924430533209026
 20
-15.28817464750702
 30
0.0
 40
0.0088188971074227
100
AcDbArc
 50
146.5485285753439
 51
33.4514714246556
  0
ARC
  5
6AC
330
5D9
100
AcDbEntity
  8
TEXT
100
AcDbCircle
 10
8.910318975531197
 20
-15.27252572007858
 30
0.0
 40
0.0068386081883164
100
AcDbArc
 50
2.749965920202104
 51
141.7961814814361
  0
LINE
  5
6AD
330
5D9
100
AcDbEntity
  8
TEXT
100
AcDbLine
 10
8.932152970837812
 20
-15.25345704618496
 30
0.0
 11
8.931788606505861
 21
-15.28331340244545
 31
0.0
  0
LINE
  5
6AE
330
5D9
100
AcDbEntity
  8
TEXT
100
AcDbLine
 10
8.917149708480991
 20
-15.27219762051896
 30
0.0
 11
8.917072459912084
 21
-15.28331340244545
 31
0.0
  0
LINE
  5
6AF
330
5D9
100
AcDbEntity
  8
TEXT
100
AcDbLine
 10
8.904945090006783
 20
-15.26829630920648
 30
0.0
 11
8.884910010122354
 21
-15.27897398773122
 31
0.0
  0
LINE
  5
6B0
330
5D9
100
AcDbEntity
  8
TEXT
100
AcDbLine
 10
8.796755653823716
 20
-15.26829630920648
 30
0.0
 11
8.816790733708288
 21
-15.27897398773122
 31
0.0
  0
ARC
  5
6B1
330
5D9
100
AcDbEntity
  8
TEXT
100
AcDbCircle
 10
8.791381768299444
 20
-15.27252572007858
 30
0.0
 40
0.0068386081883164
100
AcDbArc
 50
38.20381851856385
 51
177.2500340797979
  0
LINE
  5
6B2
330
5D9
100
AcDbEntity
  8
TEXT
100
AcDbLine
 10
8.884910010122354
 20
-15.27897398773122
 30
0.0
 11
8.884910010122354
 21
-15.51388294378122
 31
0.0
  0
LINE
  5
6B3
330
5D9
100
AcDbEntity
  8
TEXT
100
AcDbLine
 10
8.816790733708288
 20
-15.27897398773122
 30
0.0
 11
8.816790733708288
 21
-15.51388294378122
 31
0.0
  0
ARC
  5
6B4
330
5D9
100
AcDbEntity
  8
TEXT
100
AcDbCircle
 10
8.778455960017076
 20
-15.40738766970789
 30
0.0
 40
0.0070375079934786
100
AcDbArc
 50
177.8994824856881
 51
2.10051751431182
  0
LINE
  5
6B5
330
5D9
100
AcDbEntity
  8
TEXT
100
AcDbLine
 10
8.784551035349494
 20
-15.27219762051896
 30
0.0
 11
8.785488739246865
 21
-15.40712972579258
 31
0.0
  0
LINE
  5
6B6
330
5D9
100
AcDbEntity
  8
TEXT
100
AcDbLine
 10
8.76954777299268
 20
-15.25345704618496
 30
0.0
 11
8.771423180787294
 21
-15.40712972579258
 31
0.0
  0
ARC
  5
6B7
330
5D9
100
AcDbEntity
  8
TEXT
100
AcDbCircle
 10
9.040036694780845
 20
-15.45891633849979
 30
0.0
 40
0.0057394593022108
100
AcDbArc
 50
3.28802541027571
 51
105.9275278804377
  0
ARC
  5
6B8
330
5D9
100
AcDbEntity
  8
TEXT
100
AcDbCircle
 10
8.995362627032207
 20
-15.42493475886879
 30
0.0
 40
0.0516491892493032
100
AcDbArc
 50
282.1628426667851
 51
326.5593609179302
  0
ARC
  5
6B9
330
5D9
100
AcDbEntity
  8
TEXT
100
AcDbCircle
 10
8.994983308393912
 20
-15.43523653572058
 30
0.0
 40
0.0417360192684685
100
AcDbArc
 50
213.1462108998121
 51
285.6537258536394
  0
ARC
  5
6BA
330
5D9
100
AcDbEntity
  8
TEXT
100
AcDbCircle
 10
9.006772191231988
 20
-15.42870578328534
 30
0.0
 40
0.0551861233176884
100
AcDbArc
 50
167.0430028911411
 51
212.1309371309447
  0
ARC
  5
6BB
330
5D9
100
AcDbEntity
  8
TEXT
100
AcDbCircle
 10
9.000276204936142
 20
-15.43345800950738
 30
0.0
 40
0.0502909002223341
100
AcDbArc
 50
117.3722826858102
 51
160.0902491401812
  0
ARC
  5
6BC
330
5D9
100
AcDbEntity
  8
TEXT
100
AcDbCircle
 10
8.977942508975054
 20
-15.4214656414546
 30
0.0
 40
0.0773183552826438
100
AcDbArc
 50
310.2152586008202
 51
331.3072507285895
  0
ARC
  5
6BD
330
5D9
100
AcDbEntity
  8
TEXT
100
AcDbCircle
 10
8.985323913363679
 20
-15.44002335139698
 30
0.0
 40
0.0587251766853522
100
AcDbArc
 50
251.6347706403311
 51
316.4182924463649
  0
ARC
  5
6BE
330
5D9
100
AcDbEntity
  8
TEXT
100
AcDbCircle
 10
8.976634167178744
 20
-15.44223652142252
 30
0.0
 40
0.0544131408877494
100
AcDbArc
 50
194.9511061487671
 51
259.6103135862126
  0
ARC
  5
6BF
330
5D9
100
AcDbEntity
  8
TEXT
100
AcDbCircle
 10
8.982347535794083
 20
-15.4404046461546
 30
0.0
 40
0.0604064295654313
100
AcDbArc
 50
135.7093780000637
 51
195.2317137751528
  0
ARC
  5
6C0
330
5D9
100
AcDbEntity
  8
TEXT
100
AcDbCircle
 10
8.98284647307576
 20
-15.43178617288766
 30
0.0
 40
0.0551319103724884
100
AcDbArc
 50
97.06566064011504
 51
142.4986334312248
  0
ARC
  5
6C1
330
5D9
100
AcDbEntity
  8
TEXT
100
AcDbCircle
 10
8.98925057495137
 20
-15.56606340401934
 30
0.0
 40
0.1776778786864348
100
AcDbArc
 50
86.31431733544657
 51
93.90381943516562
  0
ARC
  5
6C2
330
5D9
100
AcDbEntity
  8
TEXT
100
AcDbCircle
 10
8.985488536608002
 20
-15.40446367150531
 30
0.0
 40
0.0218487837635582
100
AcDbArc
 50
16.716844407307
 51
45.97719400399777
  0
ARC
  5
6C3
330
5D9
100
AcDbEntity
  8
TEXT
100
AcDbCircle
 10
9.027694860845379
 20
-15.3981750767969
 30
0.0
 40
0.0212809147493023
100
AcDbArc
 50
180.010674400693
 51
201.825185271803
  0
ARC
  5
6C4
330
5D9
100
AcDbEntity
  8
TEXT
100
AcDbCircle
 10
9.0239908922386
 20
-15.39855540762663
 30
0.0
 40
0.0177306324841077
100
AcDbArc
 50
205.1359642898991
 51
307.6679722285764
  0
ARC
  5
6C5
330
5D9
100
AcDbEntity
  8
TEXT
100
AcDbCircle
 10
9.020496966729091
 20
-15.40105147344019
 30
0.0
 40
0.0183973271812597
100
AcDbArc
 50
321.1558234807585
 51
36.9421790422999
  0
ARC
  5
6C6
330
5D9
100
AcDbEntity
  8
TEXT
100
AcDbCircle
 10
9.004308169541715
 20
-15.41897187706855
 30
0.0
 40
0.0423561985978261
100
AcDbArc
 50
43.16761867319049
 51
81.57335966331341
  0
ARC
  5
6C7
330
5D9
100
AcDbEntity
  8
TEXT
100
AcDbCircle
 10
8.993290025621135
 20
-15.56001918135932
 30
0.0
 40
0.1837553585290462
100
AcDbArc
 50
84.62122141578795
 51
95.37877858421204
  0
ARC
  5
6C8
330
5D9
100
AcDbEntity
  8
TEXT
100
AcDbCircle
 10
9.179265966044624
 20
-15.4548115979307
 30
0.0
 40
0.0043851721065334
100
AcDbArc
 50
349.2952029716974
 51
131.662690546936
  0
ARC
  5
6C9
330
5D9
100
AcDbEntity
  8
TEXT
100
AcDbCircle
 10
9.123787373619954
 20
-15.43366989934762
 30
0.0
 40
0.0636915668079766
100
AcDbArc
 50
296.3233923707218
 51
339.8348331475783
  0
ARC
  5
6CA
330
5D9
100
AcDbEntity
  8
TEXT
100
AcDbCircle
 10
9.11680729937462
 20
-15.41231547510238
 30
0.0
 40
0.0859869303945008
100
AcDbArc
 50
254.2847830849397
 51
294.1819270465994
  0
ARC
  5
6CB
330
5D9
100
AcDbEntity
  8
TEXT
100
AcDbCircle
 10
9.132279808713128
 20
-15.42330555524263
 30
0.0
 40
0.0523373547601109
100
AcDbArc
 50
272.3792098458871
 51
327.3581874363218
  0
ARC
  5
6CC
330
5D9
100
AcDbEntity
  8
TEXT
100
AcDbCircle
 10
9.126830448352855
 20
-15.43460347066902
 30
0.0
 40
0.0416968831835802
100
AcDbArc
 50
230.8416488637729
 51
280.5326941523482
  0
ARC
  5
6CD
330
5D9
100
AcDbEntity
  8
TEXT
100
AcDbCircle
 10
9.13941373882973
 20
-15.42433234853996
 30
0.0
 40
0.0576998733985072
100
AcDbArc
 50
179.2959701761241
 51
227.5915484940841
  0
ARC
  5
6CE
330
5D9
100
AcDbEntity
  8
TEXT
100
AcDbCircle
 10
9.115078154991472
 20
-15.43990487708927
 30
0.0
 40
0.0592458724165616
100
AcDbArc
 50
194.1847393568156
 51
248.6586767321129
  0
ARC
  5
6CF
330
5D9
100
AcDbEntity
  8
TEXT
100
AcDbCircle
 10
9.11620282260106
 20
-15.43809339222741
 30
0.0
 40
0.0607981848192704
100
AcDbArc
 50
148.4692011102834
 51
195.580236137338
  0
ARC
  5
6D0
330
5D9
100
AcDbEntity
  8
TEXT
100
AcDbCircle
 10
9.115821755539229
 20
-15.43627964254948
 30
0.0
 40
0.0595400977291648
100
AcDbArc
 50
108.54166133208
 51
149.7652339536173
  0
ARC
  5
6D1
330
5D9
100
AcDbEntity
  8
TEXT
100
AcDbCircle
 10
9.116513206149704
 20
-15.48408424837852
 30
0.0
 40
0.0958248136702463
100
AcDbArc
 50
82.99970676551479
 51
97.00029323448521
  0
ARC
  5
6D2
330
5D9
100
AcDbEntity
  8
TEXT
100
AcDbCircle
 10
9.11951768046223
 20
-15.4124854520319
 30
0.0
 40
0.0250607282749532
100
AcDbArc
 50
358.1908821763629
 51
69.74957583402939
  0
ARC
  5
6D3
330
5D9
100
AcDbEntity
  8
TEXT
100
AcDbCircle
 10
9.112339085601931
 20
-15.41925721559865
 30
0.0
 40
0.0311994377801564
100
AcDbArc
 50
103.9179608005984
 51
168.9486088950471
  0
LINE
  5
6D4
330
5D9
100
AcDbEntity
  8
TEXT
100
AcDbLine
 10
9.081718221314723
 20
-15.41327661461736
 30
0.0
 11
9.144565917195251
 21
-15.41327661461736
 31
0.0
  0
ARC
  5
6D5
330
5D9
100
AcDbEntity
  8
TEXT
100
AcDbCircle
 10
9.120436625254683
 20
-15.45875962002982
 30
0.0
 40
0.0823673987739953
100
AcDbArc
 50
78.15621523985548
 51
106.6122408520358
  0
ARC
  5
6D6
330
5D9
100
AcDbEntity
  8
TEXT
100
AcDbCircle
 10
9.134022021107796
 20
-15.42159906010971
 30
0.0
 40
0.0435799527046947
100
AcDbArc
 50
357.3376237443689
 51
85.63084243886232
  0
LINE
  5
6D7
330
5D9
100
AcDbEntity
  8
TEXT
100
AcDbLine
 10
9.081718221314723
 20
-15.42362337119774
 30
0.0
 11
9.177554933281854
 21
-15.42362337119774
 31
0.0
  0
ARC
  5
6D8
330
5D9
100
AcDbEntity
  8
TEXT
100
AcDbCircle
 10
9.408227003223814
 20
-15.76129084773505
 30
0.0
 40
0.0373653822482816
100
AcDbArc
 50
325.2939034707313
 51
356.4132772462207
  0
ARC
  5
6D9
330
5D9
100
AcDbEntity
  8
TEXT
100
AcDbCircle
 10
9.409644383270425
 20
-15.76648388800026
 30
0.0
 40
0.0334232241915759
100
AcDbArc
 50
261.8576121462839
 51
331.2394802847384
  0
ARC
  5
6DA
330
5D9
100
AcDbEntity
  8
TEXT
100
AcDbCircle
 10
9.398318008213308
 20
-15.7768344242118
 30
0.0
 40
0.0236722588342633
100
AcDbArc
 50
203.9135879631542
 51
286.1701931802543
  0
ARC
  5
6DB
330
5D9
100
AcDbEntity
  8
TEXT
100
AcDbCircle
 10
9.310575084754809
 20
-15.78177329985346
 30
0.0
 40
0.0101005063994468
100
AcDbArc
 50
155.9964711746264
 51
271.4218156194853
  0
LINE
  5
6DC
330
5D9
100
AcDbEntity
  8
TEXT
100
AcDbLine
 10
9.32321952429681
 20
-15.79114217098851
 30
0.0
 11
9.310825706772668
 21
-15.79187069645499
 31
0.0
  0
LINE
  5
6DD
330
5D9
100
AcDbEntity
  8
TEXT
100
AcDbLine
 10
9.322490486102971
 20
-15.79952019247377
 30
0.0
 11
9.32321952429681
 21
-15.79114217098851
 31
0.0
  0
ARC
  5
6DE
330
5D9
100
AcDbEntity
  8
TEXT
100
AcDbCircle
 10
9.242674360365889
 20
-15.74859629715173
 30
0.0
 40
0.0458045836826183
100
AcDbArc
 50
257.573093086619
 51
314.4273867462269
  0
ARC
  5
6DF
330
5D9
100
AcDbEntity
  8
TEXT
100
AcDbCircle
 10
9.242966389105163
 20
-15.77171166402707
 30
0.0
 40
0.023880010359667
100
AcDbArc
 50
188.1927496775747
 51
244.8496170020148
  0
ARC
  5
6E0
330
5D9
100
AcDbEntity
  8
TEXT
100
AcDbCircle
 10
9.04763633436228
 20
-15.75981565432051
 30
0.0
 40
0.0114930070384173
100
AcDbArc
 50
253.9290889125597
 51
38.65267477511383
  0
ARC
  5
6E1
330
5D9
100
AcDbEntity
  8
TEXT
100
AcDbCircle
 10
9.089114669149211
 20
-15.77727425400565
 30
0.0
 40
0.0311759646677962
100
AcDbArc
 50
330.1916644163827
 51
19.91318758188
  0
ARC
  5
6E2
330
5D9
100
AcDbEntity
  8
TEXT
100
AcDbCircle
 10
9.096068112248147
 20
-15.81540790648451
 30
0.0
 40
0.0220721611071915
100
AcDbArc
 50
67.37252950712534
 51
112.6274704928675
  0
ARC
  5
6E3
330
5D9
100
AcDbEntity
  8
TEXT
100
AcDbCircle
 10
9.001143154413703
 20
-15.75148506798915
 30
0.0
 40
0.0474474912233602
100
AcDbArc
 50
287.1920036507392
 51
335.8997504051536
  0
LINE
  5
6E4
330
5D9
100
AcDbEntity
  8
TEXT
100
AcDbLine
 10
8.920733927968072
 20
-15.83425521033305
 30
0.0
 11
8.933050864226892
 21
-15.84205031452508
 31
0.0
  0
LINE
  5
6E5
330
5D9
100
AcDbEntity
  8
BORDER
100
AcDbLine
 10
8.508702608683307
 20
-17.1293872928921
 30
0.0
 11
8.508702608683307
 21
-15.23163454066989
 31
0.0
  0
LINE
  5
6E6
330
5D9
100
AcDbEntity
  8
BORDER
100
AcDbLine
 10
6.492825052318071
 20
-16.52755582690469
 30
0.0
 11
8.508702608683307
 21
-16.52755582690469
 31
0.0
  0
LINE
  5
6E7
330
5D9
100
AcDbEntity
  8
BORDER
100
AcDbLine
 10
6.492825052318071
 20
-16.23957331885252
 30
0.0
 11
8.508702608683307
 21
-16.23957331885252
 31
0.0
  0
TEXT
  5
6E8
330
5D9
100
AcDbEntity
  8
TEXT
100
AcDbText
 10
7.821864326978884
 20
-16.50192538368804
 30
0.0
 40
0.107993440519566
  1
NONE
 72
     1
 11
8.019852301264755
 21
-16.44792866342825
 31
0.0
100
AcDbText
 73
     2
  0
TEXT
  5
6E9
330
5D9
100
AcDbEntity
  8
TEXT
100
AcDbText
 10
7.572759457513733
 20
-16.34756675937208
 30
0.0
 40
0.071995627013044
  1
SCALE
100
AcDbText
  0
TEXT
  5
6EA
330
5D9
100
AcDbEntity
  8
TEXT
100
AcDbText
 10
6.53458251598565
 20
-16.34756675937208
 30
0.0
 40
0.071995627013044
  1
DRAWN
100
AcDbText
  0
TEXT
  5
6EB
330
5D9
100
AcDbEntity
  8
TEXT
100
AcDbText
 10
6.837684105710564
 20
-16.50192538368804
 30
0.0
 40
0.107993440519566
  1
JMH
 72
     1
 11
6.981675359736652
 21
-16.44792866342825
 31
0.0
100
AcDbText
 73
     2
  0
TEXT
  5
6EC
330
5D9
100
AcDbEntity
  8
TEXT
100
AcDbText
 10
6.564820679331127
 20
-16.63554926742426
 30
0.0
 40
0.071995627013044
  1
DATE
100
AcDbText
  0
TEXT
  5
6ED
330
5D9
100
AcDbEntity
  8
TEXT
100
AcDbText
 10
7.008793712578228
 20
-16.74122270394972
 30
0.0
 40
0.1439912540260879
  1
12-31-09
 72
     1
 11
7.500763830500694
 21
-16.66922707693667
 31
0.0
100
AcDbText
 73
     2
  0
LINE
  5
6EE
330
5D9
100
AcDbEntity
  8
BORDER
100
AcDbLine
 10
6.492825052318071
 20
-16.81553833495687
 30
0.0
 11
8.508702608683307
 21
-16.81553833495687
 31
0.0
  0
TEXT
  5
6EF
330
5D9
100
AcDbEntity
  8
TEXT
100
AcDbText
 10
6.716208048323417
 20
-17.04330695087424
 30
0.0
 40
0.1439912540260879
  1
SHEET 1 OF 1
 72
     1
 11
7.5081599454669
 21
-16.9713113238612
 31
0.0
100
AcDbText
 73
     2
  0
LINE
  5
6F0
330
5D9
100
AcDbEntity
  8
BORDER
100
AcDbLine
 10
11.44693178381818
 20
-16.52755582690469
 30
0.0
 11
11.44693178381818
 21
-17.1293872928921
 31
0.0
  0
LINE
  5
6F1
330
5D9
100
AcDbEntity
  8
BORDER
100
AcDbLine
 10
8.508702608683307
 20
-16.52755582690469
 30
0.0
 11
12.23646560417619
 21
-16.52755582690469
 31
0.0
  0
LINE
  5
6F2
330
5D9
100
AcDbEntity
  8
BORDER
100
AcDbLine
 10
8.508702608683307
 20
-15.95159081080034
 30
0.0
 11
12.23646560417619
 21
-15.95159081080034
 31
0.0
  0
LINE
  5
6F3
330
5D9
100
AcDbEntity
  8
BORDER
100
AcDbLine
 10
8.508702608683307
 20
-15.23163454066989
 30
0.0
 11
12.23646560417619
 21
-15.23163454066989
 31
0.0
  0
TEXT
  5
6F4
330
5D9
100
AcDbEntity
  8
TEXT
100
AcDbText
 10
10.45657900461162
 20
-15.92639234134577
 30
0.0
 40
0.071995627013044
  1
FAX  724-837-3386
 72
     1
 11
11.05654256305365
 21
-15.89039452783925
 31
0.0
100
AcDbText
 73
     2
  0
TEXT
  5
6F5
330
5D9
100
AcDbEntity
  8
TEXT
100
AcDbText
 10
10.10860014071524
 20
-15.35762688794273
 30
0.0
 40
0.071995627013044
  1
INDUSTRIAL COOLING EQUIPMENT
 72
     1
 11
11.05654256305365
 21
-15.3216290744362
 31
0.0
100
AcDbText
 73
     2
  0
TEXT
  5
6F6
330
5D9
100
AcDbEntity
  8
TEXT
100
AcDbText
 10
10.46857827578046
 20
-15.49441857926755
 30
0.0
 40
0.071995627013044
  1
141 WILSON AVENUE
 72
     1
 11
11.05654256305365
 21
-15.45842076576102
 31
0.0
100
AcDbText
 73
     2
  0
TEXT
  5
6F7
330
5D9
100
AcDbEntity
  8
TEXT
100
AcDbText
 10
10.36058483526089
 20
-15.63840983329359
 30
0.0
 40
0.071995627013044
  1
GREENSBURG, PA  15601
 72
     1
 11
11.05654256305365
 21
-15.60241201978707
 31
0.0
100
AcDbText
 73
     2
  0
TEXT
  5
6F8
330
5D9
100
AcDbEntity
  8
TEXT
100
AcDbText
 10
9.970608522273574
 20
-15.78240108731973
 30
0.0
 40
0.071995627013044
  1
724-837-2204  *  1-888-867-8234
 72
     1
 11
11.05654256305365
 21
-15.7464032738132
 31
0.0
100
AcDbText
 73
     2
  0
TEXT
  5
6F9
330
5D9
100
AcDbEntity
  8
TEXT
100
AcDbText
 10
9.076501339711763
 20
-16.44116107448908
 30
0.0
 40
0.2879825080521759
  1
IQ700HE-CF
 72
     1
 11
10.37242262594655
 21
-16.29716982046299
 31
0.0
100
AcDbText
 73
     2
  0
TEXT
  5
6FA
330
5D9
100
AcDbEntity
  8
TEXT
100
AcDbText
 10
8.969878418068102
 20
-17.02645953418423
 30
0.0
 40
0.2879825080521759
  1
IQ291226
 72
     1
 11
9.977817196250718
 21
-16.88246828015815
 31
0.0
100
AcDbText
 73
     2
  0
TEXT
  5
6FB
330
5D9
100
AcDbEntity
  8
TEXT
100
AcDbText
 10
11.76970306698411
 20
-17.02645953418423
 30
0.0
 40
0.2879825080521759
  1
0
 72
     1
 11
11.84169869399715
 21
-16.88246828015815
 31
0.0
100
AcDbText
 73
     2
  0
LINE
  5
6FC
330
5D9
100
AcDbEntity
  8
BORDER
100
AcDbLine
 10
3.595663285241212
 20
-16.23957331885252
 30
0.0
 11
3.595663285241212
 21
-17.1293872928921
 31
0.0
  0
TEXT
  5
6FD
330
5D9
100
AcDbEntity
  8
TEXT
100
AcDbText
 10
-7.216439467715112
 20
-17.07179079128167
 30
0.0
 40
0.1151930032208704
  1
REVISIONS
 72
     1
 11
-6.736468620961485
 21
-17.01419428967123
 31
0.0
100
AcDbText
 73
     2
  0
LINE
  5
6FE
330
5D9
100
AcDbEntity
  8
BORDER
100
AcDbLine
 10
-2.163938458979515
 20
-17.1293872928921
 30
0.0
 11
-9.649411689909342
 21
-17.1293872928921
 31
0.0
  0
LINE
  5
6FF
330
5D9
100
AcDbEntity
  8
BORDER
100
AcDbLine
 10
-2.163938458979515
 20
-16.43822927356684
 30
0.0
 11
-2.163938458979515
 21
-17.1293872928921
 31
0.0
  0
LINE
  5
700
330
5D9
100
AcDbEntity
  8
BORDER
100
AcDbLine
 10
-9.649411689909342
 20
-16.89900128645035
 30
0.0
 11
-2.163938458979515
 21
-16.89900128645035
 31
0.0
  0
LINE
  5
701
330
5D9
100
AcDbEntity
  8
BORDER
100
AcDbLine
 10
-4.327494941105086
 20
-16.89900128645035
 30
0.0
 11
-4.327494941105086
 21
-16.66861528000861
 31
0.0
  0
TEXT
  5
702
330
5D9
100
AcDbEntity
  8
TEXT
100
AcDbText
 10
-4.031832899504842
 20
-16.84140478483993
 30
0.0
 40
0.1151930032208704
  1
DATE
 72
     1
 11
-3.820645726933246
 21
-16.78380828322949
 31
0.0
100
AcDbText
 73
     2
  0
LINE
  5
703
330
5D9
100
AcDbEntity
  8
BORDER
100
AcDbLine
 10
-3.313796512761477
 20
-16.89900128645035
 30
0.0
 11
-3.313796512761477
 21
-16.66861528000861
 31
0.0
  0
TEXT
  5
704
330
5D9
100
AcDbEntity
  8
TEXT
100
AcDbText
 10
-3.122844163273408
 20
-16.84140478483993
 30
0.0
 40
0.1151930032208704
  1
CHECKED
 72
     1
 11
-2.738867485870507
 21
-16.78380828322949
 31
0.0
100
AcDbText
 73
     2
  0
TEXT
  5
705
330
5D9
100
AcDbEntity
  8
TEXT
100
AcDbText
 10
-7.312433637065836
 20
-16.84140478483993
 30
0.0
 40
0.1151930032208704
  1
DESCRIPTION
 72
     1
 11
-6.736468620961485
 21
-16.78380828322949
 31
0.0
100
AcDbText
 73
     2
  0
LINE
  5
706
330
5D9
100
AcDbEntity
  8
BORDER
100
AcDbLine
 10
-9.145442300817986
 20
-16.89900128645035
 30
0.0
 11
-9.145442300817986
 21
-16.66861528000861
 31
0.0
  0
TEXT
  5
707
330
5D9
100
AcDbEntity
  8
TEXT
100
AcDbText
 10
-9.570216500194993
 20
-16.84140478483993
 30
0.0
 40
0.1151930032208704
  1
REV
 72
     1
 11
-9.397426995363687
 21
-16.78380828322949
 31
0.0
100
AcDbText
 73
     2
  0
LINE
  5
708
330
5D9
100
AcDbEntity
  8
BORDER
100
AcDbLine
 10
-2.163938458979515
 20
-16.66861528000861
 30
0.0
 11
-9.649411689909342
 21
-16.66861528000861
 31
0.0
  0
LINE
  5
709
330
5D9
100
AcDbEntity
  8
BORDER
100
AcDbLine
 10
-2.163938458979515
 20
-16.89900128645035
 30
0.0
 11
-9.649411689909342
 21
-16.89900128645035
 31
0.0
  0
LINE
  5
70A
330
5D9
100
AcDbEntity
  8
BORDER
100
AcDbLine
 10
-4.327494941105086
 20
-16.66861528000861
 30
0.0
 11
-4.327494941105086
 21
-16.43822927356684
 31
0.0
  0
TEXT
  5
70B
330
5D9
100
AcDbEntity
  8
TEXT
100
AcDbText
 10
-4.214221821271221
 20
-16.61101877839818
 30
0.0
 40
0.1151930032208704
  1
12-31-09
 72
     1
 11
-3.820645726933246
 21
-16.55342227678775
 31
0.0
100
AcDbText
 73
     2
  0
LINE
  5
70C
330
5D9
100
AcDbEntity
  8
BORDER
100
AcDbLine
 10
-3.313796512761477
 20
-16.66861528000861
 30
0.0
 11
-3.313796512761477
 21
-16.43822927356684
 31
0.0
  0
TEXT
  5
70D
330
5D9
100
AcDbEntity
  8
TEXT
100
AcDbText
 10
-2.892458156831668
 20
-16.61101877839818
 30
0.0
 40
0.1151930032208704
  1
JMH
 72
     1
 11
-2.738867485870507
 21
-16.55342227678775
 31
0.0
100
AcDbText
 73
     2
  0
TEXT
  5
70E
330
5D9
100
AcDbEntity
  8
TEXT
100
AcDbText
 10
-7.523620809637432
 20
-16.61101877839818
 30
0.0
 40
0.1151930032208704
  1
INITIAL RELEASE
 72
     1
 11
-6.736468620961485
 21
-16.55342227678775
 31
0.0
100
AcDbText
 73
     2
  0
LINE
  5
70F
330
5D9
100
AcDbEntity
  8
BORDER
100
AcDbLine
 10
-9.145442300817986
 20
-16.66861528000861
 30
0.0
 11
-9.145442300817986
 21
-16.43822927356684
 31
0.0
  0
TEXT
  5
710
330
5D9
100
AcDbEntity
  8
TEXT
100
AcDbText
 10
-9.426225246168906
 20
-16.61101877839818
 30
0.0
 40
0.1151930032208704
  1
0
 72
     1
 11
-9.397426995363687
 21
-16.55342227678775
 31
0.0
100
AcDbText
 73
     2
  0
LINE
  5
711
330
5D9
100
AcDbEntity
  8
BORDER
100
AcDbLine
 10
-2.163938458979515
 20
-16.43822927356684
 30
0.0
 11
-9.649411689909342
 21
-16.43822927356684
 31
0.0
  0
LINE
  5
712
330
5D9
100
AcDbEntity
  8
BORDER
100
AcDbLine
 10
-9.649411689909342
 20
-17.1293872928921
 30
0.0
 11
-9.649411689909342
 21
-15.74707125424157
 31
0.0
  0
ENDBLK
  5
714
330
5D9
100
AcDbEntity
  8
0
100
AcDbBlockEnd
  0
ENDSEC
  0
SECTION
  2
ENTITIES
  0
DIMENSION
  5
434
330
1F
100
AcDbEntity
  8
0
100
AcDbDimension
  2
*D28
 10
34.66713673788746
 20
-3.149775141841068
 30
0.0
 11
41.65296702996985
 21
5.617222234231467
 31
0.0
 70
   102
 71
     5
 42
9.179999999999907
  3
Standard
100
AcDbOrdinateDimension
 13
43.84713673788737
 23
15.46496179524555
 33
0.0
 14
41.65296702996985
 24
6.939222234231461
 34
0.0
1001
ACAD
1000
DSTYLE
1002
{
1070
    42
1040
0.25
1070
   140
1040
0.7040000000000001
1070
   271
1070
     3
1002
}
  0
DIMENSION
  5
435
102
{ACAD_XDICTIONARY
360
436
102
}
102
{ACAD_REACTORS
330
437
102
}
330
1F
100
AcDbEntity
  8
0
100
AcDbDimension
  2
*D37
 10
34.66713673788746
 20
-3.149775141841068
 30
0.0
 11
38.61655413792559
 21
5.495888900898131
 31
0.0
 70
   102
 71
     5
 42
1.50000000000027
  3
Standard
100
AcDbOrdinateDimension
 13
36.16713673788773
 23
15.46496179524555
 33
0.0
 14
38.61655413792559
 24
6.759222234231458
 34
0.0
1001
ACAD
1000
DSTYLE
1002
{
1070
    42
1040
0.25
1070
   140
1040
0.7040000000000001
1070
   271
1070
     3
1002
}
  0
DIMENSION
  5
438
102
{ACAD_XDICTIONARY
360
439
102
}
102
{ACAD_REACTORS
330
43A
102
}
330
1F
100
AcDbEntity
  8
0
100
AcDbDimension
  2
*D38
 10
34.66713673788746
 20
-3.149775141841068
 30
0.0
 11
42.3471367378874
 21
17.46297247865083
 31
0.0
 70
   102
 71
     5
 42
7.679999999999942
  3
Standard
100
AcDbOrdinateDimension
 13
42.34713673788741
 23
20.46496179524554
 33
0.0
 14
42.34713673788741
 24
18.90230581198416
 34
0.0
1001
ACAD
1000
DSTYLE
1002
{
1070
    42
1040
0.25
1070
   140
1040
0.7040000000000001
1070
   271
1070
     3
1002
}
  0
DIMENSION
  5
43B
330
1F
100
AcDbEntity
  8
0
100
AcDbDimension
  2
*D39
 10
34.66713673788746
 20
-3.149775141841068
 30
0.0
 11
37.6671367378878
 21
17.58030581198416
 31
0.0
 70
   102
 71
     5
 42
3.000000000000319
  3
Standard
100
AcDbOrdinateDimension
 13
37.66713673788779
 23
20.46496179524555
 33
0.0
 14
37.66713673788781
 24
18.90230581198416
 34
0.0
1001
ACAD
1000
DSTYLE
1002
{
1070
    42
1040
0.25
1070
   140
1040
0.7040000000000001
1070
   271
1070
     3
1002
}
  0
DIMENSION
  5
43E
102
{ACAD_XDICTIONARY
360
43F
102
}
102
{ACAD_REACTORS
330
440
102
}
330
1F
100
AcDbEntity
  8
0
100
AcDbDimension
  2
*D40
 10
34.66713673788746
 20
-3.149775141841068
 30
0.0
 11
31.93447007122085
 21
24.01205005751988
 31
0.0
 70
    38
 71
     5
 42
27.16182519936094
  3
Standard
100
AcDbOrdinateDimension
 13
37.6671367378878
 23
24.01205005751988
 33
0.0
 14
33.66713673788752
 24
24.01205005751988
 34
0.0
1001
ACAD
1000
DSTYLE
1002
{
1070
    42
1040
0.25
1070
   140
1040
0.7040000000000001
1070
   271
1070
     3
1002
}
  0
DIMENSION
  5
441
330
1F
100
AcDbEntity
  8
0
100
AcDbDimension
  2
*D41
 10
34.66713673788746
 20
-3.149775141841068
 30
0.0
 11
31.93447007122085
 21
20.46496179524555
 31
0.0
 70
    38
 71
     5
 42
23.61473693708662
  3
Standard
100
AcDbOrdinateDimension
 13
36.16713673788775
 23
20.46496179524555
 33
0.0
 14
33.66713673788752
 24
20.46496179524555
 34
0.0
1001
ACAD
1000
DSTYLE
1002
{
1070
    42
1040
0.25
1070
   140
1040
0.7040000000000001
1070
   271
1070
     3
1002
}
  0
DIMENSION
  5
444
102
{ACAD_XDICTIONARY
360
445
102
}
102
{ACAD_REACTORS
330
446
102
}
330
1F
100
AcDbEntity
  8
0
100
AcDbDimension
  2
*D42
 10
34.66713673788746
 20
-3.149775141841068
 30
0.0
 11
32.05180340455418
 21
15.46496179524555
 31
0.0
 70
    38
 71
     5
 42
18.61473693708662
  3
Standard
100
AcDbOrdinateDimension
 13
36.16713673788773
 23
15.46496179524555
 33
0.0
 14
33.66713673788751
 24
15.46496179524555
 34
0.0
1001
ACAD
1000
DSTYLE
1002
{
1070
    42
1040
0.25
1070
   140
1040
0.7040000000000001
1070
   271
1070
     3
1002
}
  0
DIMENSION
  5
447
102
{ACAD_XDICTIONARY
360
448
102
}
102
{ACAD_REACTORS
330
449
102
}
330
1F
100
AcDbEntity
  8
0
100
AcDbDimension
  2
*D43
 10
41.47906945683218
 20
23.43937862173227
 30
0.0
 11
35.14521332759047
 21
33.1038901516688
 31
0.0
 70
   163
 71
     5
 42
7.000000000000028
  3
Standard
100
AcDbDiametricDimension
 15
38.53520401894304
 25
29.79025700850698
 35
0.0
 40
0.0
1001
ACAD
1000
DSTYLE
1002
{
1070
    42
1040
0.25
1070
   140
1040
0.7040000000000001
1070
   271
1070
     3
1002
}
  0
LINE
  5
44A
330
1F
100
AcDbEntity
  8
0
100
AcDbLine
 10
37.66713673788779
 20
20.46496179524555
 30
0.0
 11
36.16713673788775
 21
20.46496179524555
 31
0.0
  0
LINE
  5
44B
102
{ACAD_REACTORS
330
43A
102
}
330
1F
100
AcDbEntity
  8
0
100
AcDbLine
 10
42.34713673788742
 20
20.46496179524554
 30
0.0
 11
43.84713673788735
 21
20.46496179524555
 31
0.0
  0
LINE
  5
44C
330
1F
100
AcDbEntity
  8
0
100
AcDbLine
 10
43.84713673788737
 20
15.46496179524554
 30
0.0
 11
43.84713673788737
 21
20.46496179524555
 31
0.0
  0
LINE
  5
44D
102
{ACAD_REACTORS
330
446
102
}
330
1F
100
AcDbEntity
  8
0
100
AcDbLine
 10
43.84713673788737
 20
15.46496179524554
 30
0.0
 11
36.16713673788773
 21
15.46496179524555
 31
0.0
  0
LINE
  5
44E
102
{ACAD_REACTORS
330
437
102
}
330
1F
100
AcDbEntity
  8
0
100
AcDbLine
 10
36.16713673788773
 20
15.46496179524555
 30
0.0
 11
36.16713673788773
 21
20.46496179524555
 31
0.0
  0
LINE
  5
44F
102
{ACAD_REACTORS
330
440
102
}
330
1F
100
AcDbEntity
  8
0
100
AcDbLine
 10
37.6671367378878
 20
24.01205005751988
 30
0.0
 11
37.6671367378878
 21
20.46496179524555
 31
0.0
  0
LINE
  5
450
102
{ACAD_REACTORS
330
43A
102
}
330
1F
100
AcDbEntity
  8
0
100
AcDbLine
 10
42.34713673788736
 20
24.01205005751984
 30
0.0
 11
42.34713673788741
 21
20.46496179524555
 31
0.0
  0
ARC
  5
451
102
{ACAD_REACTORS
330
449
102
}
330
1F
100
AcDbEntity
  8
0
100
AcDbCircle
 10
40.0071367378876
 20
26.61481781511964
 30
0.0
 40
3.5
100
AcDbArc
 50
311.9569024995899
 51
228.043097500409
  0
DIMENSION
  5
452
102
{ACAD_XDICTIONARY
360
453
102
}
102
{ACAD_REACTORS
330
454
102
}
330
1F
100
AcDbEntity
  8
0
100
AcDbDimension
  2
*D44
 10
43.63534027177254
 20
21.71087028864909
 30
0.0
 11
50.01580340455451
 21
18.53688984680873
 31
0.0
 70
   163
  1
<> (8)
 71
     5
 42
0.375
  3
Standard
100
AcDbDiametricDimension
 15
43.87893320400284
 25
21.42576068977973
 35
0.0
 40
0.0
1001
ACAD
1000
DSTYLE
1002
{
1070
    41
1040
0.7040000000000001
1070
    42
1040
0.25
1070
   140
1040
0.7040000000000001
1070
   271
1070
     3
1002
}
  0
DIMENSION
  5
455
102
{ACAD_XDICTIONARY
360
456
102
}
102
{ACAD_REACTORS
330
457
102
}
330
1F
100
AcDbEntity
  8
0
100
AcDbDimension
  2
*D45
 10
34.66713673788758
 20
-3.149775141841097
 30
0.0
 11
43.00805569510564
 21
5.261222234231465
 31
0.0
 70
   102
 71
     5
 42
10.18
  3
Standard
100
AcDbOrdinateDimension
 13
44.84713673788758
 23
8.882023642229539
 33
0.0
 14
43.00805569510564
 24
6.759222234231458
 34
0.0
1001
ACAD
1000
DSTYLE
1002
{
1070
    42
1040
0.25
1070
   140
1040
0.7040000000000001
1070
   271
1070
     3
1002
}
  0
DIMENSION
  5
458
330
1F
100
AcDbEntity
  8
0
100
AcDbDimension
  2
*D29
 10
34.66713673788758
 20
-3.149775141841097
 30
0.0
 11
36.96940377871849
 21
5.437222234231463
 31
0.0
 70
   102
 71
     5
 42
0.4999999999999432
  3
Standard
100
AcDbOrdinateDimension
 13
35.16713673788752
 23
8.882023642229569
 33
0.0
 14
36.96940377871849
 24
6.759222234231458
 34
0.0
1001
ACAD
1000
DSTYLE
1002
{
1070
    42
1040
0.25
1070
   140
1040
0.7040000000000001
1070
   271
1070
     3
1002
}
  0
DIMENSION
  5
459
330
1F
100
AcDbEntity
  8
0
100
AcDbDimension
  2
*D30
 10
34.66713673788758
 20
-3.149775141841097
 30
0.0
 11
48.02113673788753
 21
32.03022485815888
 31
0.0
 70
    38
 71
     5
 42
35.17999999999998
  3
Standard
100
AcDbOrdinateDimension
 13
45.34713673788752
 23
32.03022485815888
 33
0.0
 14
46.34713673788752
 24
32.03022485815888
 34
0.0
1001
ACAD
1000
DSTYLE
1002
{
1070
    42
1040
0.25
1070
   140
1040
0.7040000000000001
1070
   271
1070
     3
1002
}
  0
DIMENSION
  5
45A
102
{ACAD_XDICTIONARY
360
45B
102
}
102
{ACAD_REACTORS
330
45C
102
}
330
1F
100
AcDbEntity
  8
0
100
AcDbDimension
  2
*D46
 10
34.66713673788758
 20
-3.149775141841097
 30
0.0
 11
45.34713673788751
 21
34.64555819149222
 31
0.0
 70
   102
 71
     5
 42
10.67999999999994
  3
Standard
100
AcDbOrdinateDimension
 13
45.34713673788752
 23
32.03022485815888
 33
0.0
 14
45.34713673788752
 24
33.03022485815888
 34
0.0
1001
ACAD
1000
DSTYLE
1002
{
1070
    42
1040
0.25
1070
   140
1040
0.7040000000000001
1070
   271
1070
     3
1002
}
  0
DIMENSION
  5
45D
102
{ACAD_XDICTIONARY
360
45E
102
}
102
{ACAD_REACTORS
330
45F
102
}
330
1F
100
AcDbEntity
  8
0
100
AcDbDimension
  2
*D47
 10
34.66713673788758
 20
-3.149775141841097
 30
0.0
 11
48.07980340455419
 21
30.94022485815885
 31
0.0
 70
    38
 71
     5
 42
34.08999999999995
  3
Standard
100
AcDbOrdinateDimension
 13
43.75713673788754
 23
30.94022485815885
 33
0.0
 14
46.34713673788752
 24
30.94022485815885
 34
0.0
1001
ACAD
1000
DSTYLE
1002
{
1070
    42
1040
0.25
1070
   140
1040
0.7040000000000001
1070
   271
1070
     3
1002
}
  0
DIMENSION
  5
460
330
1F
100
AcDbEntity
  8
0
100
AcDbDimension
  2
*D31
 10
34.66713673788758
 20
-3.149775141841097
 30
0.0
 11
40.00713673788751
 21
34.46955819149219
 31
0.0
 70
   102
 71
     5
 42
5.339999999999967
  3
Standard
100
AcDbOrdinateDimension
 13
40.00713673788754
 23
26.61481781511964
 33
0.0
 14
40.00713673788751
 24
33.03022485815885
 34
0.0
1001
ACAD
1000
DSTYLE
1002
{
1070
    42
1040
0.25
1070
   140
1040
0.7040000000000001
1070
   271
1070
     3
1002
}
  0
DIMENSION
  5
461
330
1F
100
AcDbEntity
  8
0
100
AcDbDimension
  2
*D32
 10
34.66713673788758
 20
-3.149775141841097
 30
0.0
 11
31.81713673788756
 21
26.6148178151197
 31
0.0
 70
    38
 71
     5
 42
29.76459295696074
  3
Standard
100
AcDbOrdinateDimension
 13
40.0071367378876
 23
26.61481781511964
 33
0.0
 14
33.66713673788756
 24
26.6148178151197
 34
0.0
1001
ACAD
1000
DSTYLE
1002
{
1070
    42
1040
0.25
1070
   140
1040
0.7040000000000001
1070
   271
1070
     3
1002
}
  0
DIMENSION
  5
462
102
{ACAD_XDICTIONARY
360
463
102
}
102
{ACAD_REACTORS
330
464
102
}
330
1F
100
AcDbEntity
  8
0
100
AcDbDimension
  2
*D48
 10
34.66713673788758
 20
-3.149775141841097
 30
0.0
 11
48.07980340455423
 21
21.56831548921441
 31
0.0
 70
    38
 71
     5
 42
24.7180906310555
  3
Standard
100
AcDbOrdinateDimension
 13
43.75713673788768
 23
21.56831548921441
 33
0.0
 14
46.34713673788756
 24
21.56831548921441
 34
0.0
1001
ACAD
1000
DSTYLE
1002
{
1070
    42
1040
0.25
1070
   140
1040
0.7040000000000001
1070
   271
1070
     3
1002
}
  0
DIMENSION
  5
465
102
{ACAD_XDICTIONARY
360
466
102
}
102
{ACAD_REACTORS
330
467
102
}
330
1F
100
AcDbEntity
  8
0
100
AcDbDimension
  2
*D49
 10
34.66713673788758
 20
-3.149775141841097
 30
0.0
 11
32.05180340455418
 21
11.98827364222985
 31
0.0
 70
    38
 71
     5
 42
15.13804878407095
  3
Standard
100
AcDbOrdinateDimension
 13
35.16713673788752
 23
11.98827364222985
 33
0.0
 14
33.66713673788751
 24
11.98827364222985
 34
0.0
1001
ACAD
1000
DSTYLE
1002
{
1070
    42
1040
0.25
1070
   140
1040
0.7040000000000001
1070
   271
1070
     3
1002
}
  0
DIMENSION
  5
468
102
{ACAD_XDICTIONARY
360
469
102
}
102
{ACAD_REACTORS
330
46A
102
}
330
1F
100
AcDbEntity
  8
0
100
AcDbDimension
  2
*D50
 10
34.66713673788758
 20
-3.149775141841097
 30
0.0
 11
31.99313673788751
 21
8.882023642229569
 31
0.0
 70
    38
 71
     5
 42
12.03179878407066
  3
Standard
100
AcDbOrdinateDimension
 13
35.16713673788752
 23
8.882023642229569
 33
0.0
 14
33.6671367378875
 24
8.882023642229569
 34
0.0
1001
ACAD
1000
DSTYLE
1002
{
1070
    42
1040
0.25
1070
   140
1040
0.7040000000000001
1070
   271
1070
     3
1002
}
  0
DIMENSION
  5
46B
330
1F
100
AcDbEntity
  8
0
100
AcDbDimension
  2
*D33
 10
34.66713673788758
 20
-3.149775141841097
 30
0.0
 11
47.78647007122095
 21
6.44022485815892
 31
0.0
 70
    38
 71
     5
 42
9.589999999999974
  3
Standard
100
AcDbOrdinateDimension
 13
43.75713673788754
 23
6.440224858158877
 33
0.0
 14
46.34713673788761
 24
6.44022485815892
 34
0.0
1001
ACAD
1000
DSTYLE
1002
{
1070
    42
1040
0.25
1070
   140
1040
0.7040000000000001
1070
   271
1070
     3
1002
}
  0
DIMENSION
  5
46C
102
{ACAD_XDICTIONARY
360
46D
102
}
102
{ACAD_REACTORS
330
46E
102
}
330
1F
100
AcDbEntity
  8
0
100
AcDbDimension
  2
*D51
 10
34.66713673788758
 20
-3.149775141841097
 30
0.0
 11
43.75713673788754
 21
-5.53044180850771
 31
0.0
 70
   102
 71
     5
 42
9.089999999999974
  3
Standard
100
AcDbOrdinateDimension
 13
43.75713673788754
 23
-0.5597751418411541
 33
0.0
 14
43.75713673788754
 24
-4.14977514184105
 34
0.0
1001
ACAD
1000
DSTYLE
1002
{
1070
    42
1040
0.25
1070
   140
1040
0.7040000000000001
1070
   271
1070
     3
1002
}
  0
DIMENSION
  5
46F
330
1F
100
AcDbEntity
  8
0
100
AcDbDimension
  2
*D34
 10
34.66713673788758
 20
-3.149775141841097
 30
0.0
 11
36.25713673788761
 21
-5.471775141841083
 31
0.0
 70
   102
 71
     5
 42
1.590000000000031
  3
Standard
100
AcDbOrdinateDimension
 13
36.25713673788761
 23
-0.5597751418411541
 33
0.0
 14
36.25713673788761
 24
-4.149775141841089
 34
0.0
1001
ACAD
1000
DSTYLE
1002
{
1070
    42
1040
0.25
1070
   140
1040
0.7040000000000001
1070
   271
1070
     3
1002
}
  0
DIMENSION
  5
470
330
1F
100
AcDbEntity
  8
0
100
AcDbDimension
  2
*D35
 10
34.66713673788758
 20
-3.149775141841097
 30
0.0
 11
47.78647007122096
 21
-0.5597751418411079
 31
0.0
 70
    38
 71
     5
 42
2.589999999999943
  3
Standard
100
AcDbOrdinateDimension
 13
43.75713673788754
 23
-0.5597751418411541
 33
0.0
 14
46.34713673788762
 24
-0.5597751418411079
 34
0.0
1001
ACAD
1000
DSTYLE
1002
{
1070
    42
1040
0.25
1070
   140
1040
0.7040000000000001
1070
   271
1070
     3
1002
}
  0
DIMENSION
  5
471
330
1F
100
AcDbEntity
  8
0
100
AcDbDimension
  2
*D36
 10
34.66713673788758
 20
-3.149775141841097
 30
0.0
 11
34.66713673788758
 21
-5.413108475174424
 31
0.0
 70
   102
 71
     5
 42
0.0
  3
Standard
100
AcDbOrdinateDimension
 13
34.66713673788758
 23
-3.149775141841097
 33
0.0
 14
34.66713673788758
 24
-4.149775141841097
 34
0.0
1001
ACAD
1000
DSTYLE
1002
{
1070
    42
1040
0.25
1070
   140
1040
0.7040000000000001
1070
   271
1070
     3
1002
}
  0
DIMENSION
  5
472
102
{ACAD_XDICTIONARY
360
473
102
}
102
{ACAD_REACTORS
330
474
102
}
330
1F
100
AcDbEntity
  8
0
100
AcDbDimension
  2
*D52
 10
34.66713673788758
 20
-3.149775141841097
 30
0.0
 11
32.40380340455413
 21
-3.149775141841097
 31
0.0
 70
    38
 71
     5
 42
0.0
  3
Standard
100
AcDbOrdinateDimension
 13
34.66713673788746
 23
-3.149775141841097
 33
0.0
 14
33.66713673788746
 24
-3.149775141841097
 34
0.0
1001
ACAD
1000
DSTYLE
1002
{
1070
    42
1040
0.25
1070
   140
1040
0.7040000000000001
1070
   271
1070
     3
1002
}
  0
CIRCLE
  5
475
330
1F
100
AcDbEntity
  8
0
100
AcDbCircle
 10
36.25713673788761
 20
30.94022485815885
 30
0.0
 40
0.1875
  0
CIRCLE
  5
476
102
{ACAD_REACTORS
330
45F
102
}
330
1F
100
AcDbEntity
  8
0
100
AcDbCircle
 10
43.75713673788754
 20
30.94022485815885
 30
0.0
 40
0.1875
  0
CIRCLE
  5
477
102
{ACAD_REACTORS
330
464
330
454
102
}
330
1F
100
AcDbEntity
  8
0
100
AcDbCircle
 10
43.75713673788768
 20
21.56831548921441
 30
0.0
 40
0.1875
  0
CIRCLE
  5
478
330
1F
100
AcDbEntity
  8
0
100
AcDbCircle
 10
36.25713673788769
 20
21.56831548921441
 30
0.0
 40
0.1875
  0
CIRCLE
  5
479
330
1F
100
AcDbEntity
  8
0
100
AcDbCircle
 10
43.75713673788754
 20
6.440224858158877
 30
0.0
 40
0.1875
  0
CIRCLE
  5
47A
330
1F
100
AcDbEntity
  8
0
100
AcDbCircle
 10
36.25713673788761
 20
6.440224858158877
 30
0.0
 40
0.1875
  0
CIRCLE
  5
47B
102
{ACAD_REACTORS
330
46E
102
}
330
1F
100
AcDbEntity
  8
0
100
AcDbCircle
 10
43.75713673788754
 20
-0.5597751418411541
 30
0.0
 40
0.1875
  0
CIRCLE
  5
47C
330
1F
100
AcDbEntity
  8
0
100
AcDbCircle
 10
36.25713673788761
 20
-0.5597751418411541
 30
0.0
 40
0.1875
  0
LINE
  5
47D
102
{ACAD_REACTORS
330
46A
330
467
102
}
330
1F
100
AcDbEntity
  8
0
100
AcDbLine
 10
35.16713673788752
 20
11.98827364222985
 30
0.0
 11
35.16713673788752
 21
8.882023642229569
 31
0.0
  0
LINE
  5
47E
330
1F
100
AcDbEntity
  8
0
100
AcDbLine
 10
35.16713673788752
 20
11.98827364222985
 30
0.0
 11
44.84713673788758
 21
11.98827364222985
 31
0.0
  0
LINE
  5
47F
102
{ACAD_REACTORS
330
457
102
}
330
1F
100
AcDbEntity
  8
0
100
AcDbLine
 10
35.16713673788752
 20
8.882023642229539
 30
0.0
 11
44.84713673788758
 21
8.882023642229539
 31
0.0
  0
LINE
  5
480
330
1F
100
AcDbEntity
  8
0
100
AcDbLine
 10
44.84713673788758
 20
8.882023642229569
 30
0.0
 11
44.84713673788758
 21
11.98827364222985
 31
0.0
  0
LINE
  5
481
102
{ACAD_REACTORS
330
45C
102
}
330
1F
100
AcDbEntity
  8
0
  6
HIDDEN
100
AcDbLine
 10
45.34713673788752
 20
32.03022485815888
 30
0.0
 11
34.66713673788758
 21
32.03022485815883
 31
0.0
  0
LINE
  5
482
102
{ACAD_REACTORS
330
474
102
}
330
1F
100
AcDbEntity
  8
0
  6
HIDDEN
100
AcDbLine
 10
34.66713673788746
 20
-3.149775141841068
 30
0.0
 11
34.66713673788758
 21
32.03022485815888
 31
0.0
  0
LINE
  5
483
330
1F
100
AcDbEntity
  8
0
  6
HIDDEN
100
AcDbLine
 10
45.34713673788764
 20
-3.149775141841043
 30
0.0
 11
45.34713673788752
 21
32.03022485815888
 31
0.0
  0
LINE
  5
484
102
{ACAD_REACTORS
330
474
102
}
330
1F
100
AcDbEntity
  8
0
  6
HIDDEN
100
AcDbLine
 10
45.34713673788752
 20
-3.149775141841043
 30
0.0
 11
34.66713673788758
 21
-3.149775141841097
 31
0.0
  0
TEXT
  5
485
330
1F
100
AcDbEntity
  8
TXT
100
AcDbText
 10
36.6088080223124
 20
38.60707666654594
 30
0.0
 40
0.7031024928776187
  1
IQ1800HE-CF
 72
     1
 11
40.00713673788754
 21
38.60707666654594
 31
0.0
100
AcDbText
  0
TEXT
  5
486
330
1F
100
AcDbEntity
  8
TXT
100
AcDbText
 10
34.85105179011835
 20
37.35519299031444
 30
0.0
 40
0.7031024928776187
  1
CUT OUT DRAWING
 72
     1
 11
40.00713673788754
 21
37.35519299031444
 31
0.0
100
AcDbText
  0
LWPOLYLINE
  5
717
330
1F
100
AcDbEntity
  8
BORDER
100
AcDbPolyline
 90
        4
 70
     1
 43
0.0
 10
20.18077726728105
 20
40.55228707486437
 10
59.5670062293386
 20
40.55228707486437
 10
59.5670062293386
 20
-11.27357691403689
 10
20.18077726728105
 20
-11.27357691403689
  0
LINE
  5
718
330
1F
100
AcDbEntity
  8
BORDER
100
AcDbLine
 10
49.23064461991037
 20
-9.672251253464342
 30
0.0
 11
44.01685879972553
 21
-9.672251253464342
 31
0.0
  0
LINE
  5
719
330
1F
100
AcDbEntity
  8
BORDER
100
AcDbLine
 10
49.23064461991037
 20
-11.2735769140369
 30
0.0
 11
49.23064461991037
 21
-9.848365654342106
 31
0.0
  0
LINE
  5
71A
330
1F
100
AcDbEntity
  8
BORDER
100
AcDbLine
 10
49.23064461991037
 20
-11.2735769140369
 30
0.0
 11
43.96763025154309
 21
-11.2735769140369
 31
0.0
  0
TEXT
  5
71B
330
1F
100
AcDbEntity
  8
TEXT
100
AcDbText
 10
44.22378533623545
 20
-10.23705963425888
 30
0.0
 40
0.2591293199445061
  1
PROPRIETARY DRAWING
 72
     1
 11
46.59913743572675
 21
-10.10749497428662
 31
0.0
100
AcDbText
 73
     2
  0
TEXT
  5
71C
330
1F
100
AcDbEntity
  8
TEXT
100
AcDbText
 10
44.41813232619383
 20
-10.49618895420337
 30
0.0
 40
0.1295646599722531
  1
THIS DRAWING IS THE PROPERTY OF ICE
 72
     1
 11
46.59913743572675
 21
-10.43140662421725
 31
0.0
100
AcDbText
 73
     2
  0
TEXT
  5
71D
330
1F
100
AcDbEntity
  8
TEXT
100
AcDbText
 10
44.29936472121926
 20
-10.69053594416175
 30
0.0
 40
0.1295646599722531
  1
QUBE, INC. AND IS NOT TO BE DUPLICATED
 72
     1
 11
46.59913743572675
 21
-10.62575361417562
 31
0.0
100
AcDbText
 73
     2
  0
TEXT
  5
71E
330
1F
100
AcDbEntity
  8
TEXT
100
AcDbText
 10
44.39653821619845
 20
-10.88488293412014
 30
0.0
 40
0.1295646599722531
  1
OR ALTERED WITHOUT AUTHORIZATION OF
 72
     1
 11
46.59913743572675
 21
-10.82010060413401
 31
0.0
100
AcDbText
 73
     2
  0
TEXT
  5
71F
330
1F
100
AcDbEntity
  8
TEXT
100
AcDbText
 10
45.83254653089093
 20
-11.07922992407852
 30
0.0
 40
0.1295646599722531
  1
ICE QUBE, INC.
 72
     1
 11
46.59913743572675
 21
-11.01444759409239
 31
0.0
100
AcDbText
 73
     2
  0
LINE
  5
720
330
1F
100
AcDbEntity
  8
DIMENSION
100
AcDbLine
 10
49.23064461991037
 20
-9.672251253464342
 30
0.0
 11
49.23064461991037
 21
-11.2735769140369
 31
0.0
  0
ARC
  5
721
330
1F
100
AcDbEntity
  8
TEXT
100
AcDbCircle
 10
53.92213196273246
 20
-9.125493353647613
 30
0.0
 40
0.0159847903876609
100
AcDbArc
 50
177.2189023070876
 51
10.53261226457854
  0
ARC
  5
722
330
1F
100
AcDbEntity
  8
TEXT
100
AcDbCircle
 10
53.89480764575728
 20
-8.963869207112701
 30
0.0
 40
0.0197264597997858
100
AcDbArc
 50
218.2556843178653
 51
317.6564247238853
  0
ARC
  5
723
330
1F
100
AcDbEntity
  8
TEXT
100
AcDbCircle
 10
53.92003813083833
 20
-8.984952609496509
 30
0.0
 40
0.0131988095285178
100
AcDbArc
 50
48.87596376793599
 51
143.7953529790059
  0
ARC
  5
724
330
1F
100
AcDbEntity
  8
TEXT
100
AcDbCircle
 10
53.93851602345316
 20
-8.97257977090004
 30
0.0
 40
0.0100940924889111
100
AcDbArc
 50
193.931903460979
 51
333.0378283509305
  0
ARC
  5
725
330
1F
100
AcDbEntity
  8
TEXT
100
AcDbCircle
 10
53.97111169339464
 20
-8.992824548328748
 30
0.0
 40
0.0234519264023239
100
AcDbArc
 50
222.9877626572325
 51
344.3358851615585
  0
ARC
  5
726
330
1F
100
AcDbEntity
  8
TEXT
100
AcDbCircle
 10
53.94683603369188
 20
-9.013429400684785
 30
0.0
 40
0.0084849840100334
100
AcDbArc
 50
32.94435831946192
 51
185.0814072168599
  0
LINE
  5
727
330
1F
100
AcDbEntity
  8
TEXT
100
AcDbLine
 10
53.93784742572886
 20
-9.1225714113923
 30
0.0
 11
53.93838439685997
 21
-9.01418092481105
 31
0.0
  0
LINE
  5
728
330
1F
100
AcDbEntity
  8
TEXT
100
AcDbLine
 10
53.90240717970654
 20
-9.017937028877
 30
0.0
 11
53.90616599924871
 21
-9.124717767565694
 31
0.0
  0
ARC
  5
729
330
1F
100
AcDbEntity
  8
TEXT
100
AcDbCircle
 10
53.89296455933584
 20
-9.011840107507932
 30
0.0
 40
0.0112399079019419
100
AcDbArc
 50
327.1504341221701
 51
80.13862259361694
  0
LINE
  5
72A
330
1F
100
AcDbEntity
  8
TEXT
100
AcDbLine
 10
53.86954303706097
 20
-8.996894522722172
 30
0.0
 11
53.89488956224711
 21
-9.000766269264925
 31
0.0
  0
ARC
  5
72B
330
1F
100
AcDbEntity
  8
TEXT
100
AcDbCircle
 10
53.86644074871565
 20
-9.002272680993918
 30
0.0
 40
0.006208766332645
100
AcDbArc
 50
60.02231951668152
 51
227.16945779242
  0
LINE
  5
72C
330
1F
100
AcDbEntity
  8
TEXT
100
AcDbLine
 10
53.86446582591257
 20
-9.061703942187186
 30
0.0
 11
53.86221982862537
 21
-9.006825988908527
 31
0.0
  0
ARC
  5
72D
330
1F
100
AcDbEntity
  8
TEXT
100
AcDbCircle
 10
53.85080601434192
 20
-9.067609359284549
 30
0.0
 40
0.0148816801215619
100
AcDbArc
 50
165.6416373020916
 51
23.37981978602068
  0
LINE
  5
72E
330
1F
100
AcDbEntity
  8
TEXT
100
AcDbLine
 10
53.82900060297989
 20
-9.00263778699125
 30
0.0
 11
53.83638918388263
 21
-9.063918911785211
 31
0.0
  0
ARC
  5
72F
330
1F
100
AcDbEntity
  8
TEXT
100
AcDbCircle
 10
53.81362556394176
 20
-9.004654344376465
 30
0.0
 40
0.0155067188377795
100
AcDbArc
 50
7.472141028409393
 51
164.1640293291679
  0
LINE
  5
730
330
1F
100
AcDbEntity
  8
TEXT
100
AcDbLine
 10
53.79944623611934
 20
-9.011497703858207
 30
0.0
 11
53.79870737370407
 21
-9.000422804568355
 31
0.0
  0
ARC
  5
731
330
1F
100
AcDbEntity
  8
TEXT
100
AcDbCircle
 10
53.78848140349228
 20
-9.009864520544198
 30
0.0
 40
0.0110857946163659
100
AcDbArc
 50
208.7068196476631
 51
351.5282258973499
  0
LINE
  5
732
330
1F
100
AcDbEntity
  8
TEXT
100
AcDbLine
 10
53.77210845650456
 20
-8.999684472819012
 30
0.0
 11
53.77875817499199
 21
-9.015189336954787
 31
0.0
  0
LINE
  5
733
330
1F
100
AcDbEntity
  8
TEXT
100
AcDbLine
 10
53.77801931257672
 20
-9.059488959764191
 30
0.0
 11
53.77210845650456
 21
-8.999684472819012
 31
0.0
  0
ARC
  5
734
330
1F
100
AcDbEntity
  8
TEXT
100
AcDbCircle
 10
53.76321163418811
 20
-9.060189558724218
 30
0.0
 40
0.0148242429203812
100
AcDbArc
 50
185.8633287467241
 51
2.708827809510285
  0
LINE
  5
735
330
1F
100
AcDbEntity
  8
TEXT
100
AcDbLine
 10
53.74550951768013
 20
-8.989347905278503
 30
0.0
 11
53.74846494571618
 21
-9.061703942187186
 31
0.0
  0
ARC
  5
736
330
1F
100
AcDbEntity
  8
TEXT
100
AcDbCircle
 10
53.73368240916624
 20
-8.988297670535065
 30
0.0
 40
0.0118736468203281
100
AcDbArc
 50
354.9255052590733
 51
174.3705062402905
  0
LINE
  5
737
330
1F
100
AcDbEntity
  8
TEXT
100
AcDbLine
 10
53.72186602851662
 20
-9.012974367356768
 30
0.0
 11
53.72186602851662
 21
-8.987132922855405
 31
0.0
  0
ARC
  5
738
330
1F
100
AcDbEntity
  8
TEXT
100
AcDbCircle
 10
53.71321259214913
 20
-9.016268970777478
 30
0.0
 40
0.0092593937525859
100
AcDbArc
 50
168.6772178130463
 51
20.84321825743627
  0
LINE
  5
739
330
1F
100
AcDbEntity
  8
TEXT
100
AcDbLine
 10
53.69674481452275
 20
-8.976058010740722
 30
0.0
 11
53.70413341705029
 21
-9.014451018030406
 31
0.0
  0
LINE
  5
73A
330
1F
100
AcDbEntity
  8
TEXT
100
AcDbLine
 10
53.65906300434417
 20
-8.99894615389461
 30
0.0
 11
53.6575852795137
 21
-8.971628058719648
 31
0.0
  0
ARC
  5
73B
330
1F
100
AcDbEntity
  8
TEXT
100
AcDbCircle
 10
53.64183242052092
 20
-9.005614909725739
 30
0.0
 40
0.0184760743456325
100
AcDbArc
 50
170.7272794785986
 51
21.1579410394868
  0
ARC
  5
73C
330
1F
100
AcDbEntity
  8
TEXT
100
AcDbCircle
 10
53.56755864980519
 20
-9.024337862029391
 30
0.0
 40
0.0152401609580008
100
AcDbArc
 50
167.7181143692786
 51
23.98551077365512
  0
ARC
  5
73D
330
1F
100
AcDbEntity
  8
TEXT
100
AcDbCircle
 10
53.36462481607719
 20
-8.972209060020681
 30
0.0
 40
0.017579278726557
100
AcDbArc
 50
225.9317407159998
 51
327.3216812937229
  0
ARC
  5
73E
330
1F
100
AcDbEntity
  8
TEXT
100
AcDbCircle
 10
53.61407964115688
 20
-7.888445228388462
 30
0.0
 40
0.0111990271482012
100
AcDbArc
 50
305.0065695458967
 51
188.3798152009863
  0
ARC
  5
73F
330
1F
100
AcDbEntity
  8
TEXT
100
AcDbCircle
 10
53.59067340296238
 20
-7.891207538790045
 30
0.0
 40
0.0123784808311731
100
AcDbArc
 50
183.0745908828774
 51
5.23872674582452
  0
ARC
  5
740
330
1F
100
AcDbEntity
  8
TEXT
100
AcDbCircle
 10
53.56696543770411
 20
-7.894561893295918
 30
0.0
 40
0.011661888739778
100
AcDbArc
 50
13.33841226381418
 51
197.9246330182951
  0
ARC
  5
741
330
1F
100
AcDbEntity
  8
TEXT
100
AcDbCircle
 10
53.54992076880263
 20
-7.884866258075646
 30
0.0
 40
0.0145558739049865
100
AcDbArc
 50
191.7667831442131
 51
294.1224948725132
  0
ARC
  5
742
330
1F
100
AcDbEntity
  8
TEXT
100
AcDbCircle
 10
53.52213263607731
 20
-7.905019438726746
 30
0.0
 40
0.0218769135142363
100
AcDbArc
 50
51.76909225769996
 51
154.0890012254433
  0
ARC
  5
743
330
1F
100
AcDbEntity
  8
TEXT
100
AcDbCircle
 10
53.48905039993063
 20
-7.89013050449915
 30
0.0
 40
0.0144250644571579
100
AcDbArc
 50
179.7887253899368
 51
338.318548208448
  0
ARC
  5
744
330
1F
100
AcDbEntity
  8
TEXT
100
AcDbCircle
 10
53.46519731685384
 20
-7.886686247835871
 30
0.0
 40
0.0100194165452121
100
AcDbArc
 50
340.2175703033615
 51
119.5111127021388
  0
ARC
  5
745
330
1F
100
AcDbEntity
  8
TEXT
100
AcDbCircle
 10
53.45183761466854
 20
-7.88050296305516
 30
0.0
 40
0.0087977137659501
100
AcDbArc
 50
208.455329117097
 51
16.75507449313884
  0
ARC
  5
746
330
1F
100
AcDbEntity
  8
TEXT
100
AcDbCircle
 10
53.43448756848083
 20
-7.885972248944778
 30
0.0
 40
0.0096996769710826
100
AcDbArc
 50
7.56761028775702
 51
183.0538693842453
  0
ARC
  5
747
330
1F
100
AcDbEntity
  8
TEXT
100
AcDbCircle
 10
53.41265700783305
 20
-7.887812031860693
 30
0.0
 40
0.0122165111583465
100
AcDbArc
 50
151.610876507045
 51
6.217261201770547
  0
ARC
  5
748
330
1F
100
AcDbEntity
  8
TEXT
100
AcDbCircle
 10
53.39239612942641
 20
-7.88255549120328
 30
0.0
 40
0.0095295332594784
100
AcDbArc
 50
3.32005139101741
 51
168.5145862198274
  0
ARC
  5
749
330
1F
100
AcDbEntity
  8
TEXT
100
AcDbCircle
 10
53.37135424652895
 20
-7.885169194076219
 30
0.0
 40
0.0125425395395294
100
AcDbArc
 50
181.931421762249
 51
21.08009584438979
  0
ARC
  5
74A
330
1F
100
AcDbEntity
  8
TEXT
100
AcDbCircle
 10
53.34459274632203
 20
-7.894807996437119
 30
0.0
 40
0.0169504459306497
100
AcDbArc
 50
32.93635467158789
 51
189.54308541652
  0
ARC
  5
74B
330
1F
100
AcDbEntity
  8
TEXT
100
AcDbCircle
 10
54.48096208965171
 20
-8.781946872370099
 30
0.0
 40
0.1150962653492129
100
AcDbArc
 50
312.2086974257852
 51
3.264333629957772
  0
ARC
  5
74C
330
1F
100
AcDbEntity
  8
TEXT
100
AcDbCircle
 10
54.46317354170019
 20
-8.748232227641778
 30
0.0
 40
0.1523146896326122
100
AcDbArc
 50
264.6664639047648
 51
308.6423664458132
  0
ARC
  5
74D
330
1F
100
AcDbEntity
  8
TEXT
100
AcDbCircle
 10
54.44977636035142
 20
-8.770660226650043
 30
0.0
 40
0.1292294789404858
100
AcDbArc
 50
231.6935697703409
 51
269.6626044169122
  0
ARC
  5
74E
330
1F
100
AcDbEntity
  8
TEXT
100
AcDbCircle
 10
54.47360318875377
 20
-8.794898534383865
 30
0.0
 40
0.0737673689457274
100
AcDbArc
 50
343.5952529167626
 51
35.13836089167867
  0
ARC
  5
74F
330
1F
100
AcDbEntity
  8
TEXT
100
AcDbCircle
 10
54.47829319250672
 20
-8.774449901384723
 30
0.0
 40
0.0598293284275279
100
AcDbArc
 50
21.58325850317257
 51
95.38396011116688
  0
ARC
  5
750
330
1F
100
AcDbEntity
  8
TEXT
100
AcDbCircle
 10
54.46276157474712
 20
-8.765300047900634
 30
0.0
 40
0.0513817957741906
100
AcDbArc
 50
78.87075864991577
 51
146.7670066549814
  0
ARC
  5
751
330
1F
100
AcDbEntity
  8
TEXT
100
AcDbCircle
 10
54.50112896379302
 20
-8.775177795213412
 30
0.0
 40
0.0947428869234475
100
AcDbArc
 50
359.8698564192901
 51
62.37231490188334
  0
ARC
  5
752
330
1F
100
AcDbEntity
  8
TEXT
100
AcDbCircle
 10
54.50102908463238
 20
-8.819704443033
 30
0.0
 40
0.1358041995289961
100
AcDbArc
 50
71.07988584761945
 51
127.1124618564865
  0
LINE
  5
753
330
1F
100
AcDbEntity
  8
TEXT
100
AcDbLine
 10
54.41978333001237
 20
-8.737140512810434
 30
0.0
 11
54.42047933161734
 21
-8.856766479745207
 31
0.0
  0
LINE
  5
754
330
1F
100
AcDbEntity
  8
TEXT
100
AcDbLine
 10
54.33556720069162
 20
-8.617514545875575
 30
0.0
 11
54.36479924647342
 21
-8.619601048057663
 31
0.0
  0
LINE
  5
755
330
1F
100
AcDbEntity
  8
TEXT
100
AcDbLine
 10
54.33417519748186
 20
-8.602213559798183
 30
0.0
 11
54.33556720069162
 21
-8.617514545875575
 31
0.0
  0
ARC
  5
756
330
1F
100
AcDbEntity
  8
TEXT
100
AcDbCircle
 10
54.31471969102215
 20
-8.287753881268205
 30
0.0
 40
0.3150609562493712
100
AcDbArc
 50
273.5403564160213
 51
289.0758016785419
  0
LINE
  5
757
330
1F
100
AcDbEntity
  8
TEXT
100
AcDbLine
 10
54.41768752828174
 20
-8.585513903169804
 30
0.0
 11
54.41908735003242
 21
-8.711407015822327
 31
0.0
  0
LINE
  5
758
330
1F
100
AcDbEntity
  8
TEXT
100
AcDbLine
 10
54.36479924647342
 20
-8.619601048057663
 30
0.0
 11
54.36967125770797
 21
-8.872067478647558
 31
0.0
  0
ARC
  5
759
330
1F
100
AcDbEntity
  8
TEXT
100
AcDbCircle
 10
54.31779344361521
 20
-9.043866227343993
 30
0.0
 40
0.163624384338797
100
AcDbArc
 50
88.18956599987519
 51
113.1652090520224
  0
ARC
  5
75A
330
1F
100
AcDbEntity
  8
TEXT
100
AcDbCircle
 10
54.24543933497314
 20
-8.891002649634884
 30
0.0
 40
0.0083488588561
100
AcDbArc
 50
201.700602772435
 51
343.0678677067636
  0
LINE
  5
75B
330
1F
100
AcDbEntity
  8
TEXT
100
AcDbLine
 10
54.23702615382747
 20
-8.869179469065763
 30
0.0
 11
54.23768217075121
 21
-8.894089694732191
 31
0.0
  0
ARC
  5
75C
330
1F
100
AcDbEntity
  8
TEXT
100
AcDbCircle
 10
54.15789413530275
 20
-8.784520615402275
 30
0.0
 40
0.1158835530150726
100
AcDbArc
 50
260.0995263030863
 51
313.0673878832468
  0
ARC
  5
75D
330
1F
100
AcDbEntity
  8
TEXT
100
AcDbCircle
 10
54.13794164426033
 20
-8.848189419658201
 30
0.0
 40
0.050489007491498
100
AcDbArc
 50
180.7587023263156
 51
270.031539090741
  0
ARC
  5
75E
330
1F
100
AcDbEntity
  8
TEXT
100
AcDbCircle
 10
54.22699505133287
 20
-8.718398212506752
 30
0.0
 40
0.0101701622404308
100
AcDbArc
 50
337.1943218370271
 51
115.6412778855147
  0
LINE
  5
75F
330
1F
100
AcDbEntity
  8
TEXT
100
AcDbLine
 10
54.23702615382747
 20
-8.847546900283525
 30
0.0
 11
54.23637015852889
 21
-8.722340238008868
 31
0.0
  0
LINE
  5
760
330
1F
100
AcDbEntity
  8
TEXT
100
AcDbLine
 10
54.19897788588316
 20
-8.707918529762448
 30
0.0
 11
54.22259406263315
 21
-8.709229597646185
 31
0.0
  0
LINE
  5
761
330
1F
100
AcDbEntity
  8
TEXT
100
AcDbLine
 10
54.19963388118178
 20
-8.695463410516737
 30
0.0
 11
54.19897788588316
 21
-8.707918529762448
 31
0.0
  0
LINE
  5
762
330
1F
100
AcDbEntity
  8
TEXT
100
AcDbLine
 10
54.06646491093876
 20
-8.706607461878704
 30
0.0
 11
54.05268881504292
 21
-8.704640872878051
 31
0.0
  0
LINE
  5
763
330
1F
100
AcDbEntity
  8
TEXT
100
AcDbLine
 10
54.0520328197443
 20
-8.695463410516737
 30
0.0
 11
54.05268881504292
 21
-8.704640872878051
 31
0.0
  0
ARC
  5
764
330
1F
100
AcDbEntity
  8
TEXT
100
AcDbCircle
 10
54.07079989787175
 20
-8.721331800718484
 30
0.0
 40
0.0153492105978905
100
AcDbArc
 50
358.6825606331184
 51
106.404935772954
  0
LINE
  5
765
330
1F
100
AcDbEntity
  8
TEXT
100
AcDbLine
 10
54.28360249040387
 20
-8.692185753632216
 30
0.0
 11
54.28491450262614
 21
-8.840991586514622
 31
0.0
  0
LINE
  5
766
330
1F
100
AcDbEntity
  8
TEXT
100
AcDbLine
 10
54.13600142896654
 20
-8.692185753632216
 30
0.0
 11
54.13731344118879
 21
-8.836402861746563
 31
0.0
  0
LINE
  5
767
330
1F
100
AcDbEntity
  8
TEXT
100
AcDbLine
 10
54.08614505102207
 20
-8.721684704066987
 30
0.0
 11
54.08745706324434
 21
-8.848857968167259
 31
0.0
  0
LINE
  5
768
330
1F
100
AcDbEntity
  8
TEXT
100
AcDbLine
 10
54.19963388118178
 20
-8.695463410516737
 30
0.0
 11
54.28360249040387
 21
-8.692185753632216
 31
0.0
  0
LINE
  5
769
330
1F
100
AcDbEntity
  8
TEXT
100
AcDbLine
 10
54.0520328197443
 20
-8.695463410516737
 30
0.0
 11
54.13600142896654
 21
-8.692185753632216
 31
0.0
  0
LINE
  5
76A
330
1F
100
AcDbEntity
  8
TEXT
100
AcDbLine
 10
53.52227973463757
 20
-8.491868449884503
 30
0.0
 11
53.51432410218649
 21
-8.509755713199428
 31
0.0
  0
ARC
  5
76B
330
1F
100
AcDbEntity
  8
TEXT
100
AcDbCircle
 10
53.53371594817653
 20
-8.491264172395961
 30
0.0
 40
0.0114521671045628
100
AcDbArc
 50
183.0246359049376
 51
356.9753640950624
  0
LINE
  5
76C
330
1F
100
AcDbEntity
  8
TEXT
100
AcDbLine
 10
53.54912995631586
 20
-8.461062612496114
 30
0.0
 11
53.54515216171531
 21
-8.491868449884503
 31
0.0
  0
ARC
  5
76D
330
1F
100
AcDbEntity
  8
TEXT
100
AcDbCircle
 10
53.55775778145204
 20
-8.457417310978083
 30
0.0
 40
0.0093663007497971
100
AcDbArc
 50
8.122642540875286
 51
202.9043136183462
  0
LINE
  5
76E
330
1F
100
AcDbEntity
  8
TEXT
100
AcDbLine
 10
53.55907450769215
 20
-8.515718130029448
 30
0.0
 11
53.56703011851809
 21
-8.456093923254538
 31
0.0
  0
ARC
  5
76F
330
1F
100
AcDbEntity
  8
TEXT
100
AcDbCircle
 10
53.57696724370493
 20
-8.514954117832555
 30
0.0
 40
0.0179090400820753
100
AcDbArc
 50
182.4450201076248
 51
0.734940750479812
  0
LINE
  5
770
330
1F
100
AcDbEntity
  8
TEXT
100
AcDbLine
 10
53.59487481047152
 20
-8.467025029326133
 30
0.0
 11
53.59487481047152
 21
-8.514724402440997
 31
0.0
  0
ARC
  5
771
330
1F
100
AcDbEntity
  8
TEXT
100
AcDbCircle
 10
53.60833672869866
 20
-8.467232662510742
 30
0.0
 40
0.0134635193724366
100
AcDbArc
 50
179.1163546128549
 51
32.14670843865927
  0
LINE
  5
772
330
1F
100
AcDbEntity
  8
TEXT
100
AcDbLine
 10
53.61973613484969
 20
-8.447150298009525
 30
0.0
 11
53.61973613484969
 21
-8.460068872082885
 31
0.0
  0
ARC
  5
773
330
1F
100
AcDbEntity
  8
TEXT
100
AcDbCircle
 10
53.63371187167357
 20
-8.45061880745138
 30
0.0
 40
0.0143997144944432
100
AcDbArc
 50
26.60941129939753
 51
166.0619000058106
  0
LINE
  5
774
330
1F
100
AcDbEntity
  8
TEXT
100
AcDbLine
 10
53.64857527545332
 20
-8.472987446156121
 30
0.0
 11
53.6465863781529
 21
-8.444169089594403
 31
0.0
  0
ARC
  5
775
330
1F
100
AcDbEntity
  8
TEXT
100
AcDbCircle
 10
53.6627665953909
 20
-8.476686059407896
 30
0.0
 40
0.0146653776480302
100
AcDbArc
 50
165.3922446503685
 51
2.803879044206389
  0
LINE
  5
776
330
1F
100
AcDbEntity
  8
TEXT
100
AcDbLine
 10
53.67840886470687
 20
-8.43820665993951
 30
0.0
 11
53.6774144160568
 21
-8.475968667396028
 31
0.0
  0
ARC
  5
777
330
1F
100
AcDbEntity
  8
TEXT
100
AcDbCircle
 10
53.71038795022744
 20
-8.593744139152406
 30
0.0
 40
0.1587909611743883
100
AcDbArc
 50
60.82353397560645
 51
101.6183182656855
  0
ARC
  5
778
330
1F
100
AcDbEntity
  8
TEXT
100
AcDbCircle
 10
53.75777309289209
 20
-8.47735355660026
 30
0.0
 40
0.037373118300242
100
AcDbArc
 50
335.4827230531638
 51
36.54383594003191
  0
ARC
  5
779
330
1F
100
AcDbEntity
  8
TEXT
100
AcDbCircle
 10
53.80020008006041
 20
-8.505073254335655
 30
0.0
 40
0.0148346435041373
100
AcDbArc
 50
124.5991194751616
 51
24.91162951380401
  0
ARC
  5
77A
330
1F
100
AcDbEntity
  8
TEXT
100
AcDbCircle
 10
53.8190400494732
 20
-8.490530424876304
 30
0.0
 40
0.0098892743124313
100
AcDbArc
 50
15.46471151433628
 51
237.003605808355
  0
ARC
  5
77B
330
1F
100
AcDbEntity
  8
TEXT
100
AcDbCircle
 10
53.79277578928547
 20
-8.511429180941092
 30
0.0
 40
0.0428397650865065
100
AcDbArc
 50
331.8837666959812
 51
33.32508059324599
  0
ARC
  5
77C
330
1F
100
AcDbEntity
  8
TEXT
100
AcDbCircle
 10
53.84000748397681
 20
-8.542288135836493
 30
0.0
 40
0.0142514901605919
100
AcDbArc
 50
131.5213803610224
 51
48.47861963898638
  0
ARC
  5
77D
330
1F
100
AcDbEntity
  8
TEXT
100
AcDbCircle
 10
53.85633023512132
 20
-8.530023666094212
 30
0.0
 40
0.0070578620258745
100
AcDbArc
 50
3.193725348484611
 51
193.0548754998599
  0
ARC
  5
77E
330
1F
100
AcDbEntity
  8
TEXT
100
AcDbCircle
 10
53.9067622689073
 20
-8.548955262829142
 30
0.0
 40
0.0474943988102514
100
AcDbArc
 50
155.9906329013486
 51
206.8057304576949
  0
ARC
  5
77F
330
1F
100
AcDbEntity
  8
TEXT
100
AcDbCircle
 10
53.67069217006776
 20
-8.658953947148052
 30
0.0
 40
0.2129746055174105
100
AcDbArc
 50
344.8914411173256
 51
24.57723374822075
  0
ARC
  5
780
330
1F
100
AcDbEntity
  8
TEXT
100
AcDbCircle
 10
53.80827178430959
 20
-8.734853759326032
 30
0.0
 40
0.071022557735241
100
AcDbArc
 50
300.6537348898141
 51
16.68245916375874
  0
ARC
  5
781
330
1F
100
AcDbEntity
  8
TEXT
100
AcDbCircle
 10
53.74503721620261
 20
-8.8866898349495
 30
0.0
 40
0.027283702975026
100
AcDbArc
 50
244.0629515517944
 51
24.32612031264303
  0
ARC
  5
782
330
1F
100
AcDbEntity
  8
TEXT
100
AcDbCircle
 10
53.6982979350218
 20
-8.934419152210868
 30
0.0
 40
0.0418257969430581
100
AcDbArc
 50
33.67851647490051
 51
106.5775508010123
  0
ARC
  5
783
330
1F
100
AcDbEntity
  8
TEXT
100
AcDbCircle
 10
53.67176161187275
 20
-8.886053492459822
 30
0.0
 40
0.016786177683204
100
AcDbArc
 50
194.8546182240452
 51
330.451099434079
  0
ARC
  5
784
330
1F
100
AcDbEntity
  8
TEXT
100
AcDbCircle
 10
53.63667250628425
 20
-8.868845788312754
 30
0.0
 40
0.0286107787232239
100
AcDbArc
 50
223.0305625061276
 51
311.2487591160724
  0
ARC
  5
785
330
1F
100
AcDbEntity
  8
TEXT
100
AcDbCircle
 10
53.59987195238248
 20
-8.859757933969451
 30
0.0
 40
0.0327260683898643
100
AcDbArc
 50
214.7934494581965
 51
299.040950787611
  0
ARC
  5
786
330
1F
100
AcDbEntity
  8
TEXT
100
AcDbCircle
 10
53.56326991748169
 20
-8.878713670723001
 30
0.0
 40
0.0097309898941359
100
AcDbArc
 50
1.658272028068524
 51
160.4091839300748
  0
ARC
  5
787
330
1F
100
AcDbEntity
  8
TEXT
100
AcDbCircle
 10
53.54635227693326
 20
-8.876645398764246
 30
0.0
 40
0.0078414847895177
100
AcDbArc
 50
156.0593073728624
 51
8.762281217119939
  0
ARC
  5
788
330
1F
100
AcDbEntity
  8
TEXT
100
AcDbCircle
 10
53.48279000604391
 20
-8.892058488124298
 30
0.0
 40
0.0593819913322863
100
AcDbArc
 50
18.24878221232246
 51
92.19784172829077
  0
ARC
  5
789
330
1F
100
AcDbEntity
  8
TEXT
100
AcDbCircle
 10
53.45018697477416
 20
-8.824835609810595
 30
0.0
 40
0.0313339411030753
100
AcDbArc
 50
345.4259909574663
 51
72.46181126870003
  0
ARC
  5
78A
330
1F
100
AcDbEntity
  8
TEXT
100
AcDbCircle
 10
53.39299029107991
 20
-8.779555267131588
 30
0.0
 40
0.0683958519281485
100
AcDbArc
 50
346.9852122362369
 51
34.01252680042881
  0
ARC
  5
78B
330
1F
100
AcDbEntity
  8
TEXT
100
AcDbCircle
 10
53.73567282310168
 20
-8.673518953877884
 30
0.0
 40
0.2939098701354441
100
AcDbArc
 50
153.5374647244112
 51
193.3327646348701
  0
ARC
  5
78C
330
1F
100
AcDbEntity
  8
TEXT
100
AcDbCircle
 10
53.48745827751333
 20
-8.53495016923998
 30
0.0
 40
0.0167268711478945
100
AcDbArc
 50
103.7022990326947
 51
207.0193065629252
  0
ARC
  5
78D
330
1F
100
AcDbEntity
  8
TEXT
100
AcDbCircle
 10
53.49705667673169
 20
-8.507838981459151
 30
0.0
 40
0.0173734810099894
100
AcDbArc
 50
218.690401452423
 51
353.6659411500759
  0
ARC
  5
78E
330
1F
100
AcDbEntity
  8
TEXT
100
AcDbCircle
 10
53.5314125183342
 20
-8.533731540890361
 30
0.0
 40
0.0933778447365156
100
AcDbArc
 50
120.6947626763569
 51
155.9971516553446
  0
LINE
  5
78F
330
1F
100
AcDbEntity
  8
TEXT
100
AcDbLine
 10
53.44678158496626
 20
-8.445376775643346
 30
0.0
 11
53.446109500645
 21
-8.495747109069352
 31
0.0
  0
LINE
  5
790
330
1F
100
AcDbEntity
  8
TEXT
100
AcDbLine
 10
53.48509062915273
 20
-8.433959501776829
 30
0.0
 11
53.48374646051038
 21
-8.453436031556595
 31
0.0
  0
ARC
  5
791
330
1F
100
AcDbEntity
  8
TEXT
100
AcDbCircle
 10
53.46790298824451
 20
-8.44626772974264
 30
0.0
 40
0.0211401862728511
100
AcDbArc
 50
35.60679995345934
 51
177.5845513854531
  0
ARC
  5
792
330
1F
100
AcDbEntity
  8
TEXT
100
AcDbCircle
 10
53.53404084837183
 20
-8.380914257678732
 30
0.0
 40
0.0146999042262429
100
AcDbArc
 50
318.2823815987277
 51
84.36248438139953
  0
ARC
  5
793
330
1F
100
AcDbEntity
  8
TEXT
100
AcDbCircle
 10
53.5675943912501
 20
-8.429746096710633
 30
0.0
 40
0.0451085129184284
100
AcDbArc
 50
81.18509483549685
 51
120.0392913824103
  0
ARC
  5
794
330
1F
100
AcDbEntity
  8
TEXT
100
AcDbCircle
 10
53.58933202966601
 20
-8.467373167667396
 30
0.0
 40
0.0835289239053556
100
AcDbArc
 50
70.05468846035586
 51
100.2232656721041
  0
ARC
  5
795
330
1F
100
AcDbEntity
  8
TEXT
100
AcDbCircle
 10
53.62750325109773
 20
-8.391743911261354
 30
0.0
 40
0.0100997374894263
100
AcDbArc
 50
163.375655046466
 51
16.62434495353058
  0
ARC
  5
796
330
1F
100
AcDbEntity
  8
TEXT
100
AcDbCircle
 10
53.65464376234879
 20
-8.40920841169834
 30
0.0
 40
0.0268186297318005
100
AcDbArc
 50
46.43616582623985
 51
130.6283095026662
  0
ARC
  5
797
330
1F
100
AcDbEntity
  8
TEXT
100
AcDbCircle
 10
53.68203726606378
 20
-8.389220941238484
 30
0.0
 40
0.0089283507674378
100
AcDbArc
 50
183.5606974541693
 51
344.4298925613465
  0
ARC
  5
798
330
1F
100
AcDbEntity
  8
TEXT
100
AcDbCircle
 10
53.7067672808836
 20
-8.397774357693602
 30
0.0
 40
0.0172644714120942
100
AcDbArc
 50
20.8928947157803
 51
159.1071052842194
  0
ARC
  5
799
330
1F
100
AcDbEntity
  8
TEXT
100
AcDbCircle
 10
53.73401499302056
 20
-8.409726700682764
 30
0.0
 40
0.0212500185004024
100
AcDbArc
 50
24.75773987532588
 51
121.5483884163392
  0
ARC
  5
79A
330
1F
100
AcDbEntity
  8
TEXT
100
AcDbCircle
 10
53.76798206099004
 20
-8.408426041770876
 30
0.0
 40
0.0165212561718006
100
AcDbArc
 50
47.61705801860741
 51
152.6179806586004
  0
ARC
  5
79B
330
1F
100
AcDbEntity
  8
TEXT
100
AcDbCircle
 10
53.78905252738241
 20
-8.405603452721067
 30
0.0
 40
0.0136631583518194
100
AcDbArc
 50
136.6395135700792
 51
16.38775991618535
  0
ARC
  5
79C
330
1F
100
AcDbEntity
  8
TEXT
100
AcDbCircle
 10
53.80546152325092
 20
-8.44259747357799
 30
0.0
 40
0.0409820496130674
100
AcDbArc
 50
41.27304036069133
 51
94.61991284103843
  0
ARC
  5
79D
330
1F
100
AcDbEntity
  8
TEXT
100
AcDbCircle
 10
53.8527646736445
 20
-8.417240465315966
 30
0.0
 40
0.016587047135889
100
AcDbArc
 50
174.1982733486934
 51
308.0634596483614
  0
ARC
  5
79E
330
1F
100
AcDbEntity
  8
TEXT
100
AcDbCircle
 10
53.87513573609888
 20
-8.437180105590776
 30
0.0
 40
0.0139580781223192
100
AcDbArc
 50
296.7794474250819
 51
150.4674482996605
  0
ARC
  5
79F
330
1F
100
AcDbEntity
  8
TEXT
100
AcDbCircle
 10
53.88649386042657
 20
-8.550174889010364
 30
0.0
 40
0.1006614653125532
100
AcDbArc
 50
78.64671940115279
 51
92.88657863164827
  0
ARC
  5
7A0
330
1F
100
AcDbEntity
  8
TEXT
100
AcDbCircle
 10
53.87341514911926
 20
-8.491856364631026
 30
0.0
 40
0.052077422447113
100
AcDbArc
 50
356.7791343814141
 51
50.82801334298977
  0
ARC
  5
7A1
330
1F
100
AcDbEntity
  8
TEXT
100
AcDbCircle
 10
53.93651707548102
 20
-8.529842122850787
 30
0.0
 40
0.0367770122963185
100
AcDbArc
 50
51.01090143870939
 51
107.5779460531109
  0
ARC
  5
7A2
330
1F
100
AcDbEntity
  8
TEXT
100
AcDbCircle
 10
53.77575647773372
 20
-8.658983236380926
 30
0.0
 40
0.2422741857983249
100
AcDbArc
 50
317.9732863042374
 51
40.61894937560254
  0
ARC
  5
7A3
330
1F
100
AcDbEntity
  8
TEXT
100
AcDbCircle
 10
54.1915627691763
 20
-8.870414123830972
 30
0.0
 40
0.2399160319331069
100
AcDbArc
 50
179.4662202071271
 51
190.5890997840382
  0
ARC
  5
7A4
330
1F
100
AcDbEntity
  8
TEXT
100
AcDbCircle
 10
53.9353996727424
 20
-8.924137022346439
 30
0.0
 40
0.0225000439695388
100
AcDbArc
 50
282.9712622283036
 51
25.35441378639518
  0
ARC
  5
7A5
330
1F
100
AcDbEntity
  8
TEXT
100
AcDbCircle
 10
53.96831011607685
 20
-8.919953781214942
 30
0.0
 40
0.0381820490930857
100
AcDbArc
 50
169.468486757319
 51
223.1418439421427
  0
ARC
  5
7A6
330
1F
100
AcDbEntity
  8
TEXT
100
AcDbCircle
 10
53.88197265426145
 20
-8.892613204370313
 30
0.0
 40
0.0528763379462579
100
AcDbArc
 50
337.3510782224612
 51
22.64892177753832
  0
ARC
  5
7A7
330
1F
100
AcDbEntity
  8
TEXT
100
AcDbCircle
 10
53.74468346704749
 20
-8.733936288440553
 30
0.0
 40
0.2081309690081289
100
AcDbArc
 50
311.6071689301103
 51
318.3515702307967
  0
ARC
  5
7A8
330
1F
100
AcDbEntity
  8
TEXT
100
AcDbCircle
 10
53.8827729822821
 20
-8.896471758897309
 30
0.0
 40
0.0069137529543623
100
AcDbArc
 50
89.05883162362064
 51
223.9137905963006
  0
ARC
  5
7A9
330
1F
100
AcDbEntity
  8
TEXT
100
AcDbCircle
 10
53.82331474545675
 20
-8.909136979888945
 30
0.0
 40
0.0550432062849822
100
AcDbArc
 50
322.6907301981532
 51
8.220255073940997
  0
ARC
  5
7AA
330
1F
100
AcDbEntity
  8
TEXT
100
AcDbCircle
 10
53.87577202750112
 20
-8.953156925987123
 30
0.0
 40
0.0137431223587722
100
AcDbArc
 50
129.152739345802
 51
254.8870408388505
  0
ARC
  5
7AB
330
1F
100
AcDbEntity
  8
TEXT
100
AcDbCircle
 10
53.87521390653796
 20
-8.971651955410013
 30
0.0
 40
0.0060394306570512
100
AcDbArc
 50
312.7998628402735
 51
120.0581864533373
  0
ARC
  5
7AC
330
1F
100
AcDbEntity
  8
TEXT
100
AcDbCircle
 10
53.98089597939364
 20
-9.020200533272262
 30
0.0
 40
0.0544721897832668
100
AcDbArc
 50
99.17143729878517
 51
127.7955283290937
  0
ARC
  5
7AD
330
1F
100
AcDbEntity
  8
TEXT
100
AcDbCircle
 10
53.97004003312149
 20
-8.99126435149261
 30
0.0
 40
0.0249345530630326
100
AcDbArc
 50
341.5477100758356
 51
84.99888070834151
  0
ARC
  5
7AE
330
1F
100
AcDbEntity
  8
TEXT
100
AcDbCircle
 10
53.85577989085652
 20
-8.927410375445905
 30
0.0
 40
0.0403854376723645
100
AcDbArc
 50
156.2885975497952
 51
210.2571046136445
  0
ARC
  5
7AF
330
1F
100
AcDbEntity
  8
TEXT
100
AcDbCircle
 10
53.82702436198693
 20
-8.914132729833433
 30
0.0
 40
0.0087382030731868
100
AcDbArc
 50
31.23099864076719
 51
160.1819529381847
  0
LINE
  5
7B0
330
1F
100
AcDbEntity
  8
TEXT
100
AcDbLine
 10
53.83397317060602
 20
-8.94932796467755
 30
0.0
 11
53.83449625846747
 21
-8.909602061457448
 31
0.0
  0
ARC
  5
7B1
330
1F
100
AcDbEntity
  8
TEXT
100
AcDbCircle
 10
53.82700727945958
 20
-8.952107497860566
 30
0.0
 40
0.0074999629451824
100
AcDbArc
 50
144.5711585108375
 51
21.75301147887025
  0
ARC
  5
7B2
330
1F
100
AcDbEntity
  8
TEXT
100
AcDbCircle
 10
53.68532593067364
 20
-8.968465743132203
 30
0.0
 40
0.013712528424694
100
AcDbArc
 50
177.7877751662291
 51
326.3805826419355
  0
ARC
  5
7B3
330
1F
100
AcDbEntity
  8
TEXT
100
AcDbCircle
 10
53.66392490285377
 20
-8.967198093873744
 30
0.0
 40
0.0077340424508059
100
AcDbArc
 50
354.5219056877808
 51
214.9448543763829
  0
LINE
  5
7B4
330
1F
100
AcDbEntity
  8
TEXT
100
AcDbLine
 10
53.62212005658098
 20
-8.956861513508314
 30
0.0
 11
53.62359778141155
 21
-9.00263778699125
 31
0.0
  0
ARC
  5
7B5
330
1F
100
AcDbEntity
  8
TEXT
100
AcDbCircle
 10
53.59169904048653
 20
-8.943606625169856
 30
0.0
 40
0.0082913724048615
100
AcDbArc
 50
5.351678383090914
 51
195.2435488026392
  0
LINE
  5
7B6
330
1F
100
AcDbEntity
  8
TEXT
100
AcDbLine
 10
53.58148279674157
 20
-9.018142651127025
 30
0.0
 11
53.58369938398725
 21
-8.945786614218373
 31
0.0
  0
LINE
  5
7B7
330
1F
100
AcDbEntity
  8
TEXT
100
AcDbLine
 10
53.54601757380889
 20
-8.929543418333249
 30
0.0
 11
53.5526672922962
 21
-9.021095952474386
 31
0.0
  0
ARC
  5
7B8
330
1F
100
AcDbEntity
  8
TEXT
100
AcDbCircle
 10
53.53036961789725
 20
-8.931633241834486
 30
0.0
 40
0.0157868897025359
100
AcDbArc
 50
7.606980527162185
 51
103.0413594591622
  0
ARC
  5
7B9
330
1F
100
AcDbEntity
  8
TEXT
100
AcDbCircle
 10
53.52015750821205
 20
-8.930639869597754
 30
0.0
 40
0.0158488320167979
100
AcDbArc
 50
65.19241843010743
 51
139.0508106988789
  0
LINE
  5
7BA
330
1F
100
AcDbEntity
  8
TEXT
100
AcDbLine
 10
53.50818702667095
 20
-8.9402101126336
 30
0.0
 11
53.50818702667095
 21
-8.920252711758934
 31
0.0
  0
ARC
  5
7BB
330
1F
100
AcDbEntity
  8
TEXT
100
AcDbCircle
 10
53.4993146748468
 20
-8.942595744611946
 30
0.0
 40
0.0091874842491359
100
AcDbArc
 50
168.3169857564315
 51
15.04995211451592
  0
LINE
  5
7BC
330
1F
100
AcDbEntity
  8
TEXT
100
AcDbLine
 10
53.48768967668705
 20
-8.916576353164867
 30
0.0
 11
53.49031752876185
 21
-8.940735306718398
 31
0.0
  0
ARC
  5
7BD
330
1F
100
AcDbEntity
  8
TEXT
100
AcDbCircle
 10
53.48406985131299
 20
-8.913390778968853
 30
0.0
 40
0.0048219310132883
100
AcDbArc
 50
318.6510821797593
 51
186.6644145786489
  0
LINE
  5
7BE
330
1F
100
AcDbEntity
  8
TEXT
100
AcDbLine
 10
53.47717820351261
 20
-8.932332201360619
 30
0.0
 11
53.47928050247249
 21
-8.913950382740495
 31
0.0
  0
ARC
  5
7BF
330
1F
100
AcDbEntity
  8
TEXT
100
AcDbCircle
 10
53.46419750585904
 20
-8.935765875749623
 30
0.0
 40
0.013427160212953
100
AcDbArc
 50
172.0457056516397
 51
14.81661014794201
  0
LINE
  5
7C0
330
1F
100
AcDbEntity
  8
TEXT
100
AcDbLine
 10
53.44774610457426
 20
-8.889791416362026
 30
0.0
 11
53.4508995313891
 21
-8.933907783615207
 31
0.0
  0
ARC
  5
7C1
330
1F
100
AcDbEntity
  8
TEXT
100
AcDbCircle
 10
53.4512138432544
 20
-8.857650391322138
 30
0.0
 40
0.032327553296946
100
AcDbArc
 50
209.3802246625985
 51
263.8421008682747
  0
ARC
  5
7C2
330
1F
100
AcDbEntity
  8
TEXT
100
AcDbCircle
 10
53.41073241530364
 20
-8.877432358673058
 30
0.0
 40
0.0129213326720884
100
AcDbArc
 50
17.66955929970853
 51
146.8111142491861
  0
ARC
  5
7C3
330
1F
100
AcDbEntity
  8
TEXT
100
AcDbCircle
 10
53.39482551916839
 20
-8.873715227321451
 30
0.0
 40
0.0060996491258375
100
AcDbArc
 50
192.9866902548922
 51
33.38063139741037
  0
LINE
  5
7C4
330
1F
100
AcDbEntity
  8
TEXT
100
AcDbLine
 10
53.3888818850724
 20
-8.85617895645586
 30
0.0
 11
53.3888818850724
 21
-8.875085969160839
 31
0.0
  0
ARC
  5
7C5
330
1F
100
AcDbEntity
  8
TEXT
100
AcDbCircle
 10
53.38486010945191
 20
-8.854190214241022
 30
0.0
 40
0.0044866217511566
100
AcDbArc
 50
333.6879001367225
 51
192.072245755338
  0
LINE
  5
7C6
330
1F
100
AcDbEntity
  8
TEXT
100
AcDbLine
 10
53.38047271085774
 20
-8.855128568286158
 30
0.0
 11
53.37942156137782
 21
-8.981700496637635
 31
0.0
  0
ARC
  5
7C7
330
1F
100
AcDbEntity
  8
TEXT
100
AcDbCircle
 10
55.97201200535852
 20
-8.904791973057694
 30
0.0
 40
2.620836574074425
100
AcDbArc
 50
178.0464319449979
 51
181.7502526685598
  0
ARC
  5
7C8
330
1F
100
AcDbEntity
  8
TEXT
100
AcDbCircle
 10
53.32439468176509
 20
-8.82312362928955
 30
0.0
 40
0.0293261337859877
100
AcDbArc
 50
15.17145974978866
 51
87.54918714297625
  0
ARC
  5
7C9
330
1F
100
AcDbEntity
  8
TEXT
100
AcDbCircle
 10
53.95395431811164
 20
-8.662633920462809
 30
0.0
 40
0.6418557850681042
100
AcDbArc
 50
175.412131626702
 51
191.7939289657056
  0
ARC
  5
7CA
330
1F
100
AcDbEntity
  8
TEXT
100
AcDbCircle
 10
53.46550133513356
 20
-8.613041065900599
 30
0.0
 40
0.1513562836635005
100
AcDbArc
 50
117.3222180892419
 51
179.3383492613259
  0
ARC
  5
7CB
330
1F
100
AcDbEntity
  8
TEXT
100
AcDbCircle
 10
53.38296151771238
 20
-8.464549806317027
 30
0.0
 40
0.0191663366021062
100
AcDbArc
 50
312.9867785858861
 51
66.99118422926639
  0
ARC
  5
7CC
330
1F
100
AcDbEntity
  8
TEXT
100
AcDbCircle
 10
53.38094973340375
 20
-8.441917210019298
 30
0.0
 40
0.0107342815449781
100
AcDbArc
 50
332.2921775479046
 51
119.5678571759903
  0
ARC
  5
7CD
330
1F
100
AcDbEntity
  8
TEXT
100
AcDbCircle
 10
53.38553768497011
 20
-8.44887537959666
 30
0.0
 40
0.0190583842061624
100
AcDbArc
 50
121.2424246402127
 51
213.4732397083749
  0
ARC
  5
7CE
330
1F
100
AcDbEntity
  8
TEXT
100
AcDbCircle
 10
53.36532583845006
 20
-8.463267152138499
 30
0.0
 40
0.0058025790723218
100
AcDbArc
 50
201.5154657473976
 51
41.96660508022719
  0
ARC
  5
7CF
330
1F
100
AcDbEntity
  8
TEXT
100
AcDbCircle
 10
53.36547370918921
 20
-8.444502555567236
 30
0.0
 40
0.0216163039081426
100
AcDbArc
 50
160.2627782819638
 51
255.1333022011724
  0
ARC
  5
7D0
330
1F
100
AcDbEntity
  8
TEXT
100
AcDbCircle
 10
53.34033239023424
 20
-8.43315037179558
 30
0.0
 40
0.006277889520168
100
AcDbArc
 50
124.2167745950174
 51
319.7988197133693
  0
ARC
  5
7D1
330
1F
100
AcDbEntity
  8
TEXT
100
AcDbCircle
 10
53.32689180203121
 20
-8.427395007791311
 30
0.0
 40
0.0099264108781082
100
AcDbArc
 50
356.7423630506751
 51
136.5172760690069
  0
ARC
  5
7D2
330
1F
100
AcDbEntity
  8
TEXT
100
AcDbCircle
 10
53.32234883718443
 20
-8.407530581193501
 30
0.0
 40
0.0133022651443947
100
AcDbArc
 50
116.3151684036785
 51
258.4674100382153
  0
ARC
  5
7D3
330
1F
100
AcDbEntity
  8
TEXT
100
AcDbCircle
 10
53.32352395816982
 20
-8.40237333978434
 30
0.0
 40
0.0097877727159977
100
AcDbArc
 50
348.1206509806775
 51
136.2651890953774
  0
ARC
  5
7D4
330
1F
100
AcDbEntity
  8
TEXT
100
AcDbCircle
 10
53.33944571756424
 20
-8.406852264055
 30
0.0
 40
0.0068053763947011
100
AcDbArc
 50
158.7719549350955
 51
25.4671605858409
  0
ARC
  5
7D5
330
1F
100
AcDbEntity
  8
TEXT
100
AcDbCircle
 10
53.36387477420093
 20
-8.40546207839333
 30
0.0
 40
0.0183493541049947
100
AcDbArc
 50
32.48569494743585
 51
175.1979664789355
  0
ARC
  5
7D6
330
1F
100
AcDbEntity
  8
TEXT
100
AcDbCircle
 10
53.38692641425595
 20
-8.398990678033786
 30
0.0
 40
0.0082950653875662
100
AcDbArc
 50
155.9249042338181
 51
10.66497725508799
  0
ARC
  5
7D7
330
1F
100
AcDbEntity
  8
TEXT
100
AcDbCircle
 10
53.42205023473571
 20
-8.392196011323338
 30
0.0
 40
0.0274800618048036
100
AcDbArc
 50
109.4580308571273
 51
191.0341765877008
  0
LINE
  5
7D8
330
1F
100
AcDbEntity
  8
TEXT
100
AcDbLine
 10
54.67840916982702
 20
-8.767949362816199
 30
0.0
 11
54.85087868657476
 21
-8.767949362816199
 31
0.0
  0
ARC
  5
7D9
330
1F
100
AcDbEntity
  8
TEXT
100
AcDbCircle
 10
54.77253605386984
 20
-8.764306375197513
 30
0.0
 40
0.0784272877124556
100
AcDbArc
 50
357.337623744369
 51
85.63084243886221
  0
ARC
  5
7DA
330
1F
100
AcDbEntity
  8
TEXT
100
AcDbCircle
 10
54.74808752460057
 20
-8.831181205102904
 30
0.0
 40
0.1482298919768859
100
AcDbArc
 50
78.1562152398555
 51
106.6122408520358
  0
LINE
  5
7DB
330
1F
100
AcDbEntity
  8
TEXT
100
AcDbLine
 10
54.67840916982702
 20
-8.74932914859233
 30
0.0
 11
54.79151104399129
 21
-8.74932914859233
 31
0.0
  0
ARC
  5
7DC
330
1F
100
AcDbEntity
  8
TEXT
100
AcDbCircle
 10
54.73351504269786
 20
-8.760091948566689
 30
0.0
 40
0.0561470844135999
100
AcDbArc
 50
103.9179608005983
 51
168.9486088950471
  0
ARC
  5
7DD
330
1F
100
AcDbEntity
  8
TEXT
100
AcDbCircle
 10
54.74643377458109
 20
-8.74790535779249
 30
0.0
 40
0.0450997494196843
100
AcDbArc
 50
358.1908821763629
 51
69.74957583402932
  0
ARC
  5
7DE
330
1F
100
AcDbEntity
  8
TEXT
100
AcDbCircle
 10
54.74102686712235
 20
-8.876755873968974
 30
0.0
 40
0.1724481043527902
100
AcDbArc
 50
82.99970676551472
 51
97.00029323448529
  0
ARC
  5
7DF
330
1F
100
AcDbEntity
  8
TEXT
100
AcDbCircle
 10
54.7397825198341
 20
-8.79072582247393
 30
0.0
 40
0.1071494594469786
100
AcDbArc
 50
108.54166133208
 51
149.7652339536172
  0
ARC
  5
7E0
330
1F
100
AcDbEntity
  8
TEXT
100
AcDbCircle
 10
54.74046829515604
 20
-8.793989879890169
 30
0.0
 40
0.1094135362084114
100
AcDbArc
 50
148.4692011102835
 51
195.580236137338
  0
ARC
  5
7E1
330
1F
100
AcDbEntity
  8
TEXT
100
AcDbCircle
 10
54.73844432255571
 20
-8.797249861501821
 30
0.0
 40
0.1066199661407288
100
AcDbArc
 50
194.1847393568155
 51
248.6586767321129
  0
ARC
  5
7E2
330
1F
100
AcDbEntity
  8
TEXT
100
AcDbCircle
 10
54.7822390886554
 20
-8.76922525153439
 30
0.0
 40
0.1038377577566645
100
AcDbArc
 50
179.2959701761241
 51
227.5915484940841
  0
ARC
  5
7E3
330
1F
100
AcDbEntity
  8
TEXT
100
AcDbCircle
 10
54.75959396672772
 20
-8.787709352602597
 30
0.0
 40
0.0750384810261396
100
AcDbArc
 50
230.8416488637729
 51
280.5326941523481
  0
ARC
  5
7E4
330
1F
100
AcDbEntity
  8
TEXT
100
AcDbCircle
 10
54.76940073626973
 20
-8.767377415353841
 30
0.0
 40
0.0941872701811788
100
AcDbArc
 50
272.3792098458871
 51
327.3581874363218
  0
ARC
  5
7E5
330
1F
100
AcDbEntity
  8
TEXT
100
AcDbCircle
 10
54.74155612272117
 20
-8.747599464171038
 30
0.0
 40
0.1547436679258702
100
AcDbArc
 50
254.2847830849396
 51
294.1819270465992
  0
ARC
  5
7E6
330
1F
100
AcDbEntity
  8
TEXT
100
AcDbCircle
 10
54.75411759323951
 20
-8.786029280411728
 30
0.0
 40
0.1146205198696362
100
AcDbArc
 50
296.3233923707218
 51
339.8348331475782
  0
ARC
  5
7E7
330
1F
100
AcDbEntity
  8
TEXT
100
AcDbCircle
 10
54.85395789273352
 20
-8.824076271621887
 30
0.0
 40
0.0078916367073221
100
AcDbArc
 50
349.2952029716974
 51
131.6626905469359
  0
ARC
  5
7E8
330
1F
100
AcDbEntity
  8
TEXT
100
AcDbCircle
 10
53.60660674968283
 20
-7.960096634287278
 30
0.0
 40
0.0158706500999914
100
AcDbArc
 50
146.5485285753439
 51
33.45147142465562
  0
ARC
  5
7E9
330
1F
100
AcDbEntity
  8
TEXT
100
AcDbCircle
 10
53.58121132987664
 20
-7.931934535486067
 30
0.0
 40
0.0123068855896227
100
AcDbArc
 50
2.749965920202072
 51
141.7961814814362
  0
LINE
  5
7EA
330
1F
100
AcDbEntity
  8
TEXT
100
AcDbLine
 10
53.62050419105589
 20
-7.89761819779099
 30
0.0
 11
53.61984847427511
 21
-7.95134824789806
 31
0.0
  0
LINE
  5
7EB
330
1F
100
AcDbEntity
  8
TEXT
100
AcDbLine
 10
53.59350404304158
 20
-7.931344081459307
 30
0.0
 11
53.59336502509036
 21
-7.95134824789806
 31
0.0
  0
LINE
  5
7EC
330
1F
100
AcDbEntity
  8
TEXT
100
AcDbLine
 10
53.57154038624315
 20
-7.924323209572797
 30
0.0
 11
53.53548488647963
 21
-7.943538957038963
 31
0.0
  0
LINE
  5
7ED
330
1F
100
AcDbEntity
  8
TEXT
100
AcDbLine
 10
53.37684067886913
 20
-7.924323209572797
 30
0.0
 11
53.4128961786329
 21
-7.943538957038963
 31
0.0
  0
ARC
  5
7EE
330
1F
100
AcDbEntity
  8
TEXT
100
AcDbCircle
 10
53.36716973523589
 20
-7.931934535486067
 30
0.0
 40
0.0123068855896227
100
AcDbArc
 50
38.20381851856378
 51
177.2500340797979
  0
LINE
  5
7EF
330
1F
100
AcDbEntity
  8
TEXT
100
AcDbLine
 10
53.53548488647963
 20
-7.943538957038963
 30
0.0
 11
53.53548488647963
 21
-8.366285452594048
 31
0.0
  0
LINE
  5
7F0
330
1F
100
AcDbEntity
  8
TEXT
100
AcDbLine
 10
53.4128961786329
 20
-7.943538957038963
 30
0.0
 11
53.4128961786329
 21
-8.366285452594048
 31
0.0
  0
ARC
  5
7F1
330
1F
100
AcDbEntity
  8
TEXT
100
AcDbCircle
 10
53.34390821193993
 20
-8.174634590640131
 30
0.0
 40
0.0126648293522309
100
AcDbArc
 50
177.8994824856881
 51
2.100517514311762
  0
LINE
  5
7F2
330
1F
100
AcDbEntity
  8
TEXT
100
AcDbLine
 10
53.35487702207068
 20
-7.931344081459307
 30
0.0
 11
53.3565645313217
 21
-8.174170390006477
 31
0.0
  0
LINE
  5
7F3
330
1F
100
AcDbEntity
  8
TEXT
100
AcDbLine
 10
53.32787687405637
 20
-7.89761819779099
 30
0.0
 11
53.33125189255818
 21
-8.174170390006477
 31
0.0
  0
ARC
  5
7F4
330
1F
100
AcDbEntity
  8
TEXT
100
AcDbCircle
 10
53.81465373303692
 20
-8.267366534618282
 30
0.0
 40
0.0103288369553445
100
AcDbArc
 50
3.288025410275728
 51
105.9275278804377
  0
ARC
  5
7F5
330
1F
100
AcDbEntity
  8
TEXT
100
AcDbCircle
 10
53.73425745568551
 20
-8.206212656349912
 30
0.0
 40
0.0929488348190383
100
AcDbArc
 50
282.1628426667852
 51
326.5593609179302
  0
ARC
  5
7F6
330
1F
100
AcDbEntity
  8
TEXT
100
AcDbCircle
 10
53.73357482685886
 20
-8.224751924223369
 30
0.0
 40
0.0751089110472613
100
AcDbArc
 50
213.1462108998121
 51
285.6537258536395
  0
ARC
  5
7F7
330
1F
100
AcDbEntity
  8
TEXT
100
AcDbCircle
 10
53.75479031812878
 20
-8.212999061532379
 30
0.0
 40
0.0993139666878334
100
AcDbArc
 50
167.0430028911411
 51
212.1309371309446
  0
ARC
  5
7F8
330
1F
100
AcDbEntity
  8
TEXT
100
AcDbCircle
 10
53.74310002122432
 20
-8.221551255604644
 30
0.0
 40
0.0905044328015184
100
AcDbArc
 50
117.3722826858102
 51
160.0902491401812
  0
ARC
  5
7F9
330
1F
100
AcDbEntity
  8
TEXT
100
AcDbCircle
 10
53.70290788951891
 20
-8.199969568584432
 30
0.0
 40
0.1391435400652128
100
AcDbArc
 50
310.2152586008201
 51
331.3072507285895
  0
ARC
  5
7FA
330
1F
100
AcDbEntity
  8
TEXT
100
AcDbCircle
 10
53.71619160117484
 20
-8.233366366116474
 30
0.0
 40
0.1056829124867489
100
AcDbArc
 50
251.634770640331
 51
316.4182924463649
  0
ARC
  5
7FB
330
1F
100
AcDbEntity
  8
TEXT
100
AcDbCircle
 10
53.70055337346009
 20
-8.237349227766777
 30
0.0
 40
0.0979228932316438
100
AcDbArc
 50
194.9511061487671
 51
259.6103135862126
  0
ARC
  5
7FC
330
1F
100
AcDbEntity
  8
TEXT
100
AcDbCircle
 10
53.71083525713351
 20
-8.234052551203969
 30
0.0
 40
0.1087085262187517
100
AcDbArc
 50
135.7093780000636
 51
195.2317137751528
  0
ARC
  5
7FD
330
1F
100
AcDbEntity
  8
TEXT
100
AcDbCircle
 10
53.71173315387988
 20
-8.218542587548689
 30
0.0
 40
0.0992164040704586
100
AcDbArc
 50
97.06566064011511
 51
142.4986334312247
  0
ARC
  5
7FE
330
1F
100
AcDbEntity
  8
TEXT
100
AcDbCircle
 10
53.72325809388478
 20
-8.460190372495958
 30
0.0
 40
0.319752391800523
100
AcDbArc
 50
86.31431733544657
 51
93.90381943516564
  0
ARC
  5
7FF
330
1F
100
AcDbEntity
  8
TEXT
100
AcDbCircle
 10
53.71648786020555
 20
-8.169372509475003
 30
0.0
 40
0.0393194747594853
100
AcDbArc
 50
16.71684440730699
 51
45.97719400399783
  0
ARC
  5
800
330
1F
100
AcDbEntity
  8
TEXT
100
AcDbCircle
 10
53.79244314076036
 20
-8.158055438301349
 30
0.0
 40
0.038297527194149
100
AcDbArc
 50
180.010674400693
 51
201.8251852718029
  0
ARC
  5
801
330
1F
100
AcDbEntity
  8
TEXT
100
AcDbCircle
 10
53.78577741045151
 20
-8.15873988868639
 30
0.0
 40
0.0319083736638642
100
AcDbArc
 50
205.1359642898991
 51
307.6679722285764
  0
ARC
  5
802
330
1F
100
AcDbEntity
  8
TEXT
100
AcDbCircle
 10
53.77948967757953
 20
-8.163231854821273
 30
0.0
 40
0.0331081697532316
100
AcDbArc
 50
321.1558234807585
 51
36.94217904229984
  0
ARC
  5
803
330
1F
100
AcDbEntity
  8
TEXT
100
AcDbCircle
 10
53.75035601918995
 20
-8.195481744140984
 30
0.0
 40
0.0762249972217102
100
AcDbArc
 50
43.16761867319047
 51
81.57335966331347
  0
ARC
  5
804
330
1F
100
AcDbEntity
  8
TEXT
100
AcDbCircle
 10
53.73052756390979
 20
-8.449313077773599
 30
0.0
 40
0.3306895367628622
100
AcDbArc
 50
84.62122141578804
 51
95.37877858421197
  0
ARC
  5
805
330
1F
100
AcDbEntity
  8
TEXT
100
AcDbCircle
 10
54.06521330085912
 20
-8.259979567684688
 30
0.0
 40
0.0078916367073221
100
AcDbArc
 50
349.2952029716974
 51
131.6626905469359
  0
ARC
  5
806
330
1F
100
AcDbEntity
  8
TEXT
100
AcDbCircle
 10
53.9653730013651
 20
-8.22193257647428
 30
0.0
 40
0.1146205198696362
100
AcDbArc
 50
296.3233923707218
 51
339.8348331475782
  0
ARC
  5
807
330
1F
100
AcDbEntity
  8
TEXT
100
AcDbCircle
 10
53.9528115308467
 20
-8.183502760233686
 30
0.0
 40
0.1547436679258702
100
AcDbArc
 50
254.2847830849396
 51
294.1819270465992
  0
ARC
  5
808
330
1F
100
AcDbEntity
  8
TEXT
100
AcDbCircle
 10
53.98065614439523
 20
-8.203280711416496
 30
0.0
 40
0.0941872701811788
100
AcDbArc
 50
272.3792098458871
 51
327.3581874363218
  0
ARC
  5
809
330
1F
100
AcDbEntity
  8
TEXT
100
AcDbCircle
 10
53.97084937485328
 20
-8.223612648665262
 30
0.0
 40
0.0750384810261396
100
AcDbArc
 50
230.8416488637729
 51
280.5326941523481
  0
ARC
  5
80A
330
1F
100
AcDbEntity
  8
TEXT
100
AcDbCircle
 10
53.99349449678092
 20
-8.205128547596963
 30
0.0
 40
0.1038377577566645
100
AcDbArc
 50
179.2959701761241
 51
227.5915484940841
  0
ARC
  5
80B
330
1F
100
AcDbEntity
  8
TEXT
100
AcDbCircle
 10
53.94969973068133
 20
-8.233153157564377
 30
0.0
 40
0.1066199661407288
100
AcDbArc
 50
194.1847393568155
 51
248.6586767321129
  0
ARC
  5
80C
330
1F
100
AcDbEntity
  8
TEXT
100
AcDbCircle
 10
53.95172370328165
 20
-8.229893175952859
 30
0.0
 40
0.1094135362084114
100
AcDbArc
 50
148.4692011102835
 51
195.580236137338
  0
ARC
  5
80D
330
1F
100
AcDbEntity
  8
TEXT
100
AcDbCircle
 10
53.95103792795973
 20
-8.226629118536525
 30
0.0
 40
0.1071494594469786
100
AcDbArc
 50
108.54166133208
 51
149.7652339536172
  0
ARC
  5
80E
330
1F
100
AcDbEntity
  8
TEXT
100
AcDbCircle
 10
53.95228227524789
 20
-8.312659170031512
 30
0.0
 40
0.1724481043527902
100
AcDbArc
 50
82.99970676551472
 51
97.00029323448529
  0
ARC
  5
80F
330
1F
100
AcDbEntity
  8
TEXT
100
AcDbCircle
 10
53.9576891827067
 20
-8.183808653855148
 30
0.0
 40
0.0450997494196843
100
AcDbArc
 50
358.1908821763629
 51
69.74957583402932
  0
ARC
  5
810
330
1F
100
AcDbEntity
  8
TEXT
100
AcDbCircle
 10
53.94477045082337
 20
-8.195995244629319
 30
0.0
 40
0.0561470844135999
100
AcDbArc
 50
103.9179608005983
 51
168.9486088950471
  0
LINE
  5
811
330
1F
100
AcDbEntity
  8
TEXT
100
AcDbLine
 10
53.88966457795266
 20
-8.185232444654957
 30
0.0
 11
54.00276645211683
 21
-8.185232444654957
 31
0.0
  0
ARC
  5
812
330
1F
100
AcDbEntity
  8
TEXT
100
AcDbCircle
 10
53.95934293272607
 20
-8.267084501165463
 30
0.0
 40
0.1482298919768859
100
AcDbArc
 50
78.1562152398555
 51
106.6122408520358
  0
ARC
  5
813
330
1F
100
AcDbEntity
  8
TEXT
100
AcDbCircle
 10
53.98379146199546
 20
-8.2002096712601
 30
0.0
 40
0.0784272877124556
100
AcDbArc
 50
357.337623744369
 51
85.63084243886221
  0
LINE
  5
814
330
1F
100
AcDbEntity
  8
TEXT
100
AcDbLine
 10
53.88966457795266
 20
-8.203852658878663
 30
0.0
 11
54.06213409470026
 21
-8.203852658878663
 31
0.0
  0
ARC
  5
815
330
1F
100
AcDbEntity
  8
TEXT
100
AcDbCircle
 10
54.47725581176942
 20
-8.811525285624718
 30
0.0
 40
0.0672434319497592
100
AcDbArc
 50
325.2939034707313
 51
356.4132772462207
  0
ARC
  5
816
330
1F
100
AcDbEntity
  8
TEXT
100
AcDbCircle
 10
54.47980655507716
 20
-8.820870776789913
 30
0.0
 40
0.0601490515079941
100
AcDbArc
 50
261.8576121462839
 51
331.2394802847383
  0
ARC
  5
817
330
1F
100
AcDbEntity
  8
TEXT
100
AcDbCircle
 10
54.45942340135134
 20
-8.839497792907664
 30
0.0
 40
0.0426010341722672
100
AcDbArc
 50
203.9135879631541
 51
286.1701931802542
  0
ARC
  5
818
330
1F
100
AcDbEntity
  8
TEXT
100
AcDbCircle
 10
54.30151961587821
 20
-8.848385884722475
 30
0.0
 40
0.0181770578503996
100
AcDbArc
 50
155.9964711746264
 51
271.4218156194853
  0
LINE
  5
819
330
1F
100
AcDbEntity
  8
TEXT
100
AcDbLine
 10
54.32427478279275
 20
-8.865246278239379
 30
0.0
 11
54.30197063988998
 21
-8.866557346123112
 31
0.0
  0
LINE
  5
81A
330
1F
100
AcDbEntity
  8
TEXT
100
AcDbLine
 10
54.32296279219539
 20
-8.880323520427733
 30
0.0
 11
54.32427478279275
 21
-8.865246278239379
 31
0.0
  0
ARC
  5
81B
330
1F
100
AcDbEntity
  8
TEXT
100
AcDbCircle
 10
54.1793242182921
 20
-8.788679937954775
 30
0.0
 40
0.0824307747043279
100
AcDbArc
 50
257.5730930866189
 51
314.4273867462269
  0
ARC
  5
81C
330
1F
100
AcDbEntity
  8
TEXT
100
AcDbCircle
 10
54.17984975860441
 20
-8.830278779073204
 30
0.0
 40
0.0429749076540937
100
AcDbArc
 50
188.1927496775747
 51
244.8496170020147
  0
ARC
  5
81D
330
1F
100
AcDbEntity
  8
TEXT
100
AcDbCircle
 10
53.82833018477616
 20
-8.808870500312352
 30
0.0
 40
0.0206830277166898
100
AcDbArc
 50
253.9290889125596
 51
38.65267477511385
  0
ARC
  5
81E
330
1F
100
AcDbEntity
  8
TEXT
100
AcDbCircle
 10
53.90297536207159
 20
-8.840289318727354
 30
0.0
 40
0.0561048417671001
100
AcDbArc
 50
330.1916644163827
 51
19.91318758187995
  0
ARC
  5
81F
330
1F
100
AcDbEntity
  8
TEXT
100
AcDbCircle
 10
53.91548890668711
 20
-8.908915343972303
 30
0.0
 40
0.039721468752372
100
AcDbArc
 50
67.37252950712528
 51
112.6274704928676
  0
ARC
  5
820
330
1F
100
AcDbEntity
  8
TEXT
100
AcDbCircle
 10
53.74466019951476
 20
-8.79387862330299
 30
0.0
 40
0.0853873814555061
100
AcDbArc
 50
287.1920036507392
 51
335.8997504051536
  0
LINE
  5
821
330
1F
100
AcDbEntity
  8
TEXT
100
AcDbLine
 10
53.59995427062311
 20
-8.942833300046054
 30
0.0
 11
53.62212005658098
 21
-8.956861513508314
 31
0.0
  0
LINE
  5
822
330
1F
100
AcDbEntity
  8
BORDER
100
AcDbLine
 10
52.85845509913347
 20
-11.2735769140369
 30
0.0
 11
52.85845509913347
 21
-7.858346013852784
 31
0.0
  0
LINE
  5
823
330
1F
100
AcDbEntity
  8
BORDER
100
AcDbLine
 10
49.23064461991037
 20
-10.19050989335335
 30
0.0
 11
52.85845509913347
 21
-10.19050989335335
 31
0.0
  0
LINE
  5
824
330
1F
100
AcDbEntity
  8
BORDER
100
AcDbLine
 10
49.23064461991037
 20
-9.672251253464342
 30
0.0
 11
52.85845509913347
 21
-9.672251253464342
 31
0.0
  0
TEXT
  5
825
330
1F
100
AcDbEntity
  8
TEXT
100
AcDbText
 10
51.62240824299821
 20
-10.14438487440322
 30
0.0
 40
0.1943469899583796
  1
NONE
 72
     1
 11
51.9787110579219
 21
-10.04721137942403
 31
0.0
100
AcDbText
 73
     2
  0
TEXT
  5
826
330
1F
100
AcDbEntity
  8
TEXT
100
AcDbText
 10
51.17411451949418
 20
-9.866598243422714
 30
0.0
 40
0.1295646599722531
  1
SCALE
100
AcDbText
  0
TEXT
  5
827
330
1F
100
AcDbEntity
  8
TEXT
100
AcDbText
 10
49.30579212269431
 20
-9.866598243422714
 30
0.0
 40
0.1295646599722531
  1
DRAWN
100
AcDbText
  0
TEXT
  5
828
330
1F
100
AcDbEntity
  8
TEXT
100
AcDbText
 10
49.85125934117749
 20
-10.14438487440322
 30
0.0
 40
0.1943469899583796
  1
JMH
 72
     1
 11
50.11038866112199
 21
-10.04721137942403
 31
0.0
100
AcDbText
 73
     2
  0
TEXT
  5
829
330
1F
100
AcDbEntity
  8
TEXT
100
AcDbText
 10
49.36020927988264
 20
-10.38485688331173
 30
0.0
 40
0.1295646599722531
  1
DATE
100
AcDbText
  0
TEXT
  5
82A
330
1F
100
AcDbEntity
  8
TEXT
100
AcDbText
 10
50.18078545970691
 20
-10.57502875123698
 30
0.0
 40
0.2591293199445061
  1
12-22-11
 72
     1
 11
51.04454985952193
 21
-10.44546409126473
 31
0.0
100
AcDbText
 73
     2
  0
LINE
  5
82B
330
1F
100
AcDbEntity
  8
BORDER
100
AcDbLine
 10
49.23064461991037
 20
-10.70876853324236
 30
0.0
 11
52.85845509913347
 21
-10.70876853324236
 31
0.0
  0
TEXT
  5
82C
330
1F
100
AcDbEntity
  8
TEXT
100
AcDbText
 10
49.63264878491017
 20
-11.11866514082852
 30
0.0
 40
0.2591293199445061
  1
SHEET 1 OF 1
 72
     1
 11
51.05786004460496
 21
-10.98910048085627
 31
0.0
100
AcDbText
 73
     2
  0
LINE
  5
82D
330
1F
100
AcDbEntity
  8
BORDER
100
AcDbLine
 10
58.14614658528348
 20
-10.19050989335335
 30
0.0
 11
58.14614658528348
 21
-11.2735769140369
 31
0.0
  0
LINE
  5
82E
330
1F
100
AcDbEntity
  8
BORDER
100
AcDbLine
 10
52.85845509913347
 20
-10.19050989335335
 30
0.0
 11
59.5670062293386
 21
-10.19050989335335
 31
0.0
  0
LINE
  5
82F
330
1F
100
AcDbEntity
  8
BORDER
100
AcDbLine
 10
52.85845509913347
 20
-9.153992613575326
 30
0.0
 11
59.5670062293386
 21
-9.153992613575326
 31
0.0
  0
LINE
  5
830
330
1F
100
AcDbEntity
  8
BORDER
100
AcDbLine
 10
52.85845509913347
 20
-7.858346013852784
 30
0.0
 11
59.5670062293386
 21
-7.858346013852784
 31
0.0
  0
TEXT
  5
831
330
1F
100
AcDbEntity
  8
TEXT
100
AcDbText
 10
56.36388943420364
 20
-9.10864498258503
 30
0.0
 40
0.1295646599722531
  1
FAX  724-837-3386
 72
     1
 11
57.44359493397241
 21
-9.043862652598903
 31
0.0
100
AcDbText
 73
     2
  0
TEXT
  5
832
330
1F
100
AcDbEntity
  8
TEXT
100
AcDbText
 10
55.73766024433775
 20
-8.08508416880424
 30
0.0
 40
0.1295646599722531
  1
INDUSTRIAL COOLING EQUIPMENT
 72
     1
 11
57.44359493397241
 21
-8.020301838818113
 31
0.0
100
AcDbText
 73
     2
  0
TEXT
  5
833
330
1F
100
AcDbEntity
  8
TEXT
100
AcDbText
 10
56.38548354419901
 20
-8.331257022751589
 30
0.0
 40
0.1295646599722531
  1
141 WILSON AVENUE
 72
     1
 11
57.44359493397241
 21
-8.266474692765463
 31
0.0
100
AcDbText
 73
     2
  0
TEXT
  5
834
330
1F
100
AcDbEntity
  8
TEXT
100
AcDbText
 10
56.19113655424063
 20
-8.590386342696014
 30
0.0
 40
0.1295646599722531
  1
GREENSBURG, PA  15601
 72
     1
 11
57.44359493397241
 21
-8.525604012709887
 31
0.0
100
AcDbText
 73
     2
  0
TEXT
  5
835
330
1F
100
AcDbEntity
  8
TEXT
100
AcDbText
 10
55.48932797939093
 20
-8.849515662640602
 30
0.0
 40
0.1295646599722531
  1
724-837-2204  *  1-888-867-8234
 72
     1
 11
57.44359493397241
 21
-8.784733332654475
 31
0.0
100
AcDbText
 73
     2
  0
TEXT
  5
837
330
1F
100
AcDbEntity
  8
TEXT
100
AcDbText
 10
53.68839560259687
 20
-11.08834621861876
 30
0.0
 40
0.5182586398890123
  1
IQ291226
 72
     1
 11
55.50230084220842
 21
-10.82921689867426
 31
0.0
100
AcDbText
 73
     2
  0
TEXT
  5
838
330
1F
100
AcDbEntity
  8
TEXT
100
AcDbText
 10
58.72701174733871
 20
-11.08834621861876
 30
0.0
 40
0.5182586398890123
  1
0
 72
     1
 11
58.85657640731096
 21
-10.82921689867426
 31
0.0
100
AcDbText
 73
     2
  0
LINE
  5
839
330
1F
100
AcDbEntity
  8
BORDER
100
AcDbLine
 10
44.01685879972553
 20
-9.672251253464342
 30
0.0
 11
44.01685879972553
 21
-11.2735769140369
 31
0.0
  0
TEXT
  5
83A
330
1F
100
AcDbEntity
  8
TEXT
100
AcDbText
 10
24.55919900994355
 20
-11.1699251860591
 30
0.0
 40
0.2073034559556049
  1
REVISIONS
 72
     1
 11
25.42296340975858
 21
-11.0662734580813
 31
0.0
100
AcDbText
 73
     2
  0
LINE
  5
83B
330
1F
100
AcDbEntity
  8
BORDER
100
AcDbLine
 10
33.65177313375374
 20
-11.2735769140369
 30
0.0
 11
20.18077726728104
 21
-11.2735769140369
 31
0.0
  0
LINE
  5
83C
330
1F
100
AcDbEntity
  8
BORDER
100
AcDbLine
 10
33.65177313375374
 20
-10.0297561783032
 30
0.0
 11
33.65177313375374
 21
-11.2735769140369
 31
0.0
  0
LINE
  5
83D
330
1F
100
AcDbEntity
  8
BORDER
100
AcDbLine
 10
20.18077726728104
 20
-10.85897000212568
 30
0.0
 11
33.65177313375374
 21
-10.85897000212568
 31
0.0
  0
LINE
  5
83E
330
1F
100
AcDbEntity
  8
BORDER
100
AcDbLine
 10
29.75819693243007
 20
-10.85897000212568
 30
0.0
 11
29.75819693243007
 21
-10.44436309021447
 31
0.0
  0
TEXT
  5
83F
330
1F
100
AcDbEntity
  8
TEXT
100
AcDbText
 10
30.29027580271614
 20
-10.75531827414788
 30
0.0
 40
0.2073034559556049
  1
DATE
 72
     1
 11
30.67033213863475
 21
-10.65166654617008
 31
0.0
100
AcDbText
 73
     2
  0
LINE
  5
840
330
1F
100
AcDbEntity
  8
BORDER
100
AcDbLine
 10
31.5824673448393
 20
-10.85897000212568
 30
0.0
 11
31.5824673448393
 21
-10.44436309021447
 31
0.0
  0
TEXT
  5
841
330
1F
100
AcDbEntity
  8
TEXT
100
AcDbText
 10
31.92610871944448
 20
-10.75531827414788
 30
0.0
 40
0.2073034559556049
  1
CHECKED
 72
     1
 11
32.6171202392965
 21
-10.65166654617008
 31
0.0
100
AcDbText
 73
     2
  0
TEXT
  5
842
330
1F
100
AcDbEntity
  8
TEXT
100
AcDbText
 10
24.38644612998055
 20
-10.75531827414788
 30
0.0
 40
0.2073034559556049
  1
DESCRIPTION
 72
     1
 11
25.42296340975858
 21
-10.65166654617008
 31
0.0
100
AcDbText
 73
     2
  0
LINE
  5
843
330
1F
100
AcDbEntity
  8
BORDER
100
AcDbLine
 10
21.0877298870869
 20
-10.85897000212568
 30
0.0
 11
21.0877298870869
 21
-10.44436309021447
 31
0.0
  0
TEXT
  5
844
330
1F
100
AcDbEntity
  8
TEXT
100
AcDbText
 10
20.32329839325051
 20
-10.75531827414788
 30
0.0
 40
0.2073034559556049
  1
REV
 72
     1
 11
20.63425357718392
 21
-10.65166654617008
 31
0.0
100
AcDbText
 73
     2
  0
LINE
  5
845
330
1F
100
AcDbEntity
  8
BORDER
100
AcDbLine
 10
33.65177313375374
 20
-10.44436309021447
 30
0.0
 11
20.18077726728104
 21
-10.44436309021447
 31
0.0
  0
LINE
  5
846
330
1F
100
AcDbEntity
  8
BORDER
100
AcDbLine
 10
33.65177313375374
 20
-10.85897000212568
 30
0.0
 11
20.18077726728104
 21
-10.85897000212568
 31
0.0
  0
LINE
  5
847
330
1F
100
AcDbEntity
  8
BORDER
100
AcDbLine
 10
29.75819693243007
 20
-10.44436309021447
 30
0.0
 11
29.75819693243007
 21
-10.0297561783032
 31
0.0
  0
TEXT
  5
848
330
1F
100
AcDbEntity
  8
TEXT
100
AcDbText
 10
29.97932061878273
 20
-10.34071136223667
 30
0.0
 40
0.2073034559556049
  1
12-22-11
 72
     1
 11
30.67033213863475
 21
-10.23705963425887
 31
0.0
100
AcDbText
 73
     2
  0
LINE
  5
849
330
1F
100
AcDbEntity
  8
BORDER
100
AcDbLine
 10
31.5824673448393
 20
-10.44436309021447
 30
0.0
 11
31.5824673448393
 21
-10.0297561783032
 31
0.0
  0
TEXT
  5
84A
330
1F
100
AcDbEntity
  8
TEXT
100
AcDbText
 10
32.34071563135569
 20
-10.34071136223667
 30
0.0
 40
0.2073034559556049
  1
JMH
 72
     1
 11
32.6171202392965
 21
-10.23705963425887
 31
0.0
100
AcDbText
 73
     2
  0
TEXT
  5
84B
330
1F
100
AcDbEntity
  8
TEXT
100
AcDbText
 10
24.00638979406194
 20
-10.34071136223667
 30
0.0
 40
0.2073034559556049
  1
INITIAL RELEASE
 72
     1
 11
25.42296340975858
 21
-10.23705963425887
 31
0.0
100
AcDbText
 73
     2
  0
LINE
  5
84C
330
1F
100
AcDbEntity
  8
BORDER
100
AcDbLine
 10
21.0877298870869
 20
-10.44436309021447
 30
0.0
 11
21.0877298870869
 21
-10.0297561783032
 31
0.0
  0
TEXT
  5
84D
330
1F
100
AcDbEntity
  8
TEXT
100
AcDbText
 10
20.58242771319502
 20
-10.34071136223667
 30
0.0
 40
0.2073034559556049
  1
0
 72
     1
 11
20.63425357718392
 21
-10.23705963425887
 31
0.0
100
AcDbText
 73
     2
  0
LINE
  5
84E
330
1F
100
AcDbEntity
  8
BORDER
100
AcDbLine
 10
33.65177313375374
 20
-10.0297561783032
 30
0.0
 11
20.18077726728104
 21
-10.0297561783032
 31
0.0
  0
LINE
  5
84F
330
1F
100
AcDbEntity
  8
BORDER
100
AcDbLine
 10
20.18077726728104
 20
-11.2735769140369
 30
0.0
 11
20.18077726728104
 21
-8.785935442569492
 31
0.0
  0
TEXT
  5
850
330
1F
100
AcDbEntity
  8
TEXT
100
AcDbText
 10
54.28394391972116
 20
-9.563889221161485
 30
0.0
 40
0.2591293199445061
  1
IQ1800HE-CF WITH
 72
     1
 11
56.1842255993142
 21
-9.434324561189232
 31
0.0
100
AcDbText
 73
     2
  0
TEXT
  5
851
330
1F
100
AcDbEntity
  8
TEXT
100
AcDbText
 10
53.63612061985989
 20
-10.08214786105049
 30
0.0
 40
0.2591293199445061
  1
FAN SPEED CONTROLLER
 72
     1
 11
56.1842255993142
 21
-9.952583201078235
 31
0.0
100
AcDbText
 73
     2
  0
ENDSEC
  0
SECTION
  2
OBJECTS
  0
DICTIONARY
  5
C
330
0
100
AcDbDictionary
281
     1
  3
ACAD_COLOR
350
73
  3
ACAD_GROUP
350
D
  3
ACAD_LAYOUT
350
1A
  3
ACAD_MATERIAL
350
72
  3
ACAD_MLINESTYLE
350
17
  3
ACAD_PLOTSETTINGS
350
19
  3
ACAD_PLOTSTYLENAME
350
E
  3
ACDBHEADERROUNDTRIPXREC
350
856
  3
AcDbVariableDictionary
350
66
  0
DICTIONARY
  5
8C
330
2
100
AcDbDictionary
280
     1
281
     1
  3
ACAD_LAYERSTATES
360
8D
  0
DICTIONARY
  5
436
330
435
100
AcDbDictionary
280
     1
281
     1
  3
ACAD_DIMASSOC
360
437
  0
DICTIONARY
  5
439
330
438
100
AcDbDictionary
280
     1
281
     1
  3
ACAD_DIMASSOC
360
43A
  0
DICTIONARY
  5
43F
330
43E
100
AcDbDictionary
280
     1
281
     1
  3
ACAD_DIMASSOC
360
440
  0
DICTIONARY
  5
445
330
444
100
AcDbDictionary
280
     1
281
     1
  3
ACAD_DIMASSOC
360
446
  0
DICTIONARY
  5
448
330
447
100
AcDbDictionary
280
     1
281
     1
  3
ACAD_DIMASSOC
360
449
  0
DICTIONARY
  5
453
330
452
100
AcDbDictionary
280
     1
281
     1
  3
ACAD_DIMASSOC
360
454
  0
DICTIONARY
  5
456
330
455
100
AcDbDictionary
280
     1
281
     1
  3
ACAD_DIMASSOC
360
457
  0
DICTIONARY
  5
45B
330
45A
100
AcDbDictionary
280
     1
281
     1
  3
ACAD_DIMASSOC
360
45C
  0
DICTIONARY
  5
45E
330
45D
100
AcDbDictionary
280
     1
281
     1
  3
ACAD_DIMASSOC
360
45F
  0
DICTIONARY
  5
463
330
462
100
AcDbDictionary
280
     1
281
     1
  3
ACAD_DIMASSOC
360
464
  0
DICTIONARY
  5
466
330
465
100
AcDbDictionary
280
     1
281
     1
  3
ACAD_DIMASSOC
360
467
  0
DICTIONARY
  5
469
330
468
100
AcDbDictionary
280
     1
281
     1
  3
ACAD_DIMASSOC
360
46A
  0
DICTIONARY
  5
46D
330
46C
100
AcDbDictionary
280
     1
281
     1
  3
ACAD_DIMASSOC
360
46E
  0
DICTIONARY
  5
473
330
472
100
AcDbDictionary
280
     1
281
     1
  3
ACAD_DIMASSOC
360
474
  0
DICTIONARY
  5
73
102
{ACAD_REACTORS
330
C
102
}
330
C
100
AcDbDictionary
281
     1
  0
DICTIONARY
  5
D
102
{ACAD_REACTORS
330
C
102
}
330
C
100
AcDbDictionary
281
     1
  0
DICTIONARY
  5
1A
102
{ACAD_REACTORS
330
C
102
}
330
C
100
AcDbDictionary
281
     1
  3
Layout1
350
59
  3
Layout2
350
5E
  3
Model
350
22
  0
DICTIONARY
  5
72
102
{ACAD_REACTORS
330
C
102
}
330
C
100
AcDbDictionary
281
     1
  0
DICTIONARY
  5
17
102
{ACAD_REACTORS
330
C
102
}
330
C
100
AcDbDictionary
281
     1
  3
Standard
350
18
  0
DICTIONARY
  5
19
102
{ACAD_REACTORS
330
C
102
}
330
C
100
AcDbDictionary
281
     1
  0
ACDBDICTIONARYWDFLT
  5
E
102
{ACAD_REACTORS
330
C
102
}
330
C
100
AcDbDictionary
281
     1
  3
Normal
350
F
100
AcDbDictionaryWithDefault
340
F
  0
DICTIONARY
  5
856
102
{ACAD_REACTORS
330
C
102
}
330
C
100
AcDbDictionary
281
     1
  3
COLORDICT
350
858
  3
MATERIALDICT
350
857
  0
DICTIONARY
  5
66
102
{ACAD_REACTORS
330
C
102
}
330
C
100
AcDbDictionary
281
     1
  3
DIMASSOC
350
67
  3
HIDETEXT
350
6B
  3
PROJECTNAME
350
854
  0
DICTIONARY
  5
8D
102
{ACAD_REACTORS
330
8C
102
}
330
8C
100
AcDbDictionary
281
     1
  0
DIMASSOC
  5
437
102
{ACAD_REACTORS
330
436
102
}
330
436
100
AcDbDimAssoc
330
435
 90
        2
 70
     0
 71
     0
  1
AcDbOsnapPointRef
 72
    13
331
44E
 73
     2
 91
        0
 40
0.0
 10
0.0
 20
0.0
 30
2.000000000000000E+50
 75
     0
  0
DIMASSOC
  5
43A
102
{ACAD_REACTORS
330
439
102
}
330
439
100
AcDbDimAssoc
330
438
 90
        2
 70
     0
 71
     0
  1
AcDbOsnapPointRef
 72
    11
331
44B
 73
     2
 91
        0
 40
-0.0000000000000095
 10
0.0
 20
0.0
 30
0.0
332
450
 74
     2
 92
        0
 75
     0
  0
DIMASSOC
  5
440
102
{ACAD_REACTORS
330
43F
102
}
330
43F
100
AcDbDimAssoc
330
43E
 90
        2
 70
     0
 71
     0
  1
AcDbOsnapPointRef
 72
    13
331
44F
 73
     2
 91
        0
 40
0.0
 10
0.0
 20
0.0
 30
2.000000000000000E+50
 75
     0
  0
DIMASSOC
  5
446
102
{ACAD_REACTORS
330
445
102
}
330
445
100
AcDbDimAssoc
330
444
 90
        2
 70
     0
 71
     0
  1
AcDbOsnapPointRef
 72
     1
331
44D
 73
     2
 91
        0
 40
0.9999999999999998
 10
0.0
 20
0.0
 30
2.000000000000000E+50
 75
     0
  0
DIMASSOC
  5
449
102
{ACAD_REACTORS
330
448
102
}
330
448
100
AcDbDimAssoc
330
447
 90
        2
 70
     0
 71
     0
  1
AcDbOsnapPointRef
 72
     3
331
451
 73
     2
 91
        0
 40
0.0
 10
0.0
 20
0.0
 30
0.0
 75
     0
  0
DIMASSOC
  5
454
102
{ACAD_REACTORS
330
453
102
}
330
453
100
AcDbDimAssoc
330
452
 90
        2
 70
     0
 71
     0
  1
AcDbOsnapPointRef
 72
     3
331
477
 73
     2
 91
        0
 40
0.0
 10
0.0
 20
0.0
 30
0.0
 75
     0
  0
DIMASSOC
  5
457
102
{ACAD_REACTORS
330
456
102
}
330
456
100
AcDbDimAssoc
330
455
 90
        2
 70
     0
 71
     0
  1
AcDbOsnapPointRef
 72
     1
331
47F
 73
     2
 91
        0
 40
1.0
 10
0.0
 20
0.0
 30
2.000000000000000E+50
 75
     0
  0
DIMASSOC
  5
45C
102
{ACAD_REACTORS
330
45B
102
}
330
45B
100
AcDbDimAssoc
330
45A
 90
        2
 70
     0
 71
     0
  1
AcDbOsnapPointRef
 72
    13
331
481
 73
     2
 91
        0
 40
0.0
 10
0.0
 20
0.0
 30
2.000000000000000E+50
 75
     0
  0
DIMASSOC
  5
45F
102
{ACAD_REACTORS
330
45E
102
}
330
45E
100
AcDbDimAssoc
330
45D
 90
        2
 70
     0
 71
     0
  1
AcDbOsnapPointRef
 72
     3
331
476
 73
     2
 91
        0
 40
0.0
 10
0.0
 20
0.0
 30
0.0
 75
     0
  0
DIMASSOC
  5
464
102
{ACAD_REACTORS
330
463
102
}
330
463
100
AcDbDimAssoc
330
462
 90
        2
 70
     0
 71
     0
  1
AcDbOsnapPointRef
 72
     3
331
477
 73
     2
 91
        0
 40
0.0
 10
0.0
 20
0.0
 30
0.0
 75
     0
  0
DIMASSOC
  5
467
102
{ACAD_REACTORS
330
466
102
}
330
466
100
AcDbDimAssoc
330
465
 90
        2
 70
     0
 71
     0
  1
AcDbOsnapPointRef
 72
    13
331
47D
 73
     2
 91
        0
 40
0.0
 10
0.0
 20
0.0
 30
2.000000000000000E+50
 75
     0
  0
DIMASSOC
  5
46A
102
{ACAD_REACTORS
330
469
102
}
330
469
100
AcDbDimAssoc
330
468
 90
        2
 70
     0
 71
     0
  1
AcDbOsnapPointRef
 72
     1
331
47D
 73
     2
 91
        0
 40
1.0
 10
0.0
 20
0.0
 30
2.000000000000000E+50
 75
     0
  0
DIMASSOC
  5
46E
102
{ACAD_REACTORS
330
46D
102
}
330
46D
100
AcDbDimAssoc
330
46C
 90
        2
 70
     0
 71
     0
  1
AcDbOsnapPointRef
 72
     3
331
47B
 73
     2
 91
        0
 40
0.0
 10
0.0
 20
0.0
 30
0.0
 75
     0
  0
DIMASSOC
  5
474
102
{ACAD_REACTORS
330
473
102
}
330
473
100
AcDbDimAssoc
330
472
 90
        2
 70
     0
 71
     0
  1
AcDbOsnapPointRef
 72
    11
331
482
 73
     2
 91
        0
 40
-0.0000000000000008
 10
0.0
 20
0.0
 30
0.0
332
484
 74
     2
 92
        0
 75
     0
  0
LAYOUT
  5
59
102
{ACAD_XDICTIONARY
360
85B
102
}
102
{ACAD_REACTORS
330
1A
102
}
330
1A
100
AcDbPlotSettings
  1

  2
None
  4

  6

 40
0.0
 41
0.0
 42
0.0
 43
0.0
 44
0.0
 45
0.0
 46
0.0
 47
0.0
 48
0.0
 49
0.0
140
0.0
141
0.0
142
1.0
143
1.0
 70
   688
 72
     0
 73
     0
 74
     5
  7

 75
    16
147
1.0
148
0.0
149
0.0
100
AcDbLayout
  1
Layout1
 70
     1
 71
     1
 10
0.0
 20
0.0
 11
12.0
 21
9.0
 12
0.0
 22
0.0
 32
0.0
 14
0.0
 24
0.0
 34
0.0
 15
0.0
 25
0.0
 35
0.0
146
0.0
 13
0.0
 23
0.0
 33
0.0
 16
1.0
 26
0.0
 36
0.0
 17
0.0
 27
1.0
 37
0.0
 76
     0
330
58
  0
LAYOUT
  5
5E
102
{ACAD_XDICTIONARY
360
85D
102
}
102
{ACAD_REACTORS
330
1A
102
}
330
1A
100
AcDbPlotSettings
  1

  2
None
  4

  6

 40
0.0
 41
0.0
 42
0.0
 43
0.0
 44
0.0
 45
0.0
 46
0.0
 47
0.0
 48
0.0
 49
0.0
140
0.0
141
0.0
142
1.0
143
1.0
 70
   688
 72
     0
 73
     0
 74
     5
  7

 75
    16
147
1.0
148
0.0
149
0.0
100
AcDbLayout
  1
Layout2
 70
     1
 71
     2
 10
0.0
 20
0.0
 11
12.0
 21
9.0
 12
0.0
 22
0.0
 32
0.0
 14
0.0
 24
0.0
 34
0.0
 15
0.0
 25
0.0
 35
0.0
146
0.0
 13
0.0
 23
0.0
 33
0.0
 16
1.0
 26
0.0
 36
0.0
 17
0.0
 27
1.0
 37
0.0
 76
     0
330
5D
  0
LAYOUT
  5
22
102
{ACAD_XDICTIONARY
360
859
102
}
102
{ACAD_REACTORS
330
1A
102
}
330
1A
100
AcDbPlotSettings
  1

  2
none_device
  4
ANSI_A_(8.50_x_11.00_Inches)
  6

 40
6.349999904632568
 41
19.04999923706055
 42
6.350006103515625
 43
19.04998779296875
 44
215.8999938964844
 45
279.3999938964844
 46
0.0
 47
0.0
 48
0.0
 49
0.0
140
0.0
141
0.0
142
1.0
143
2.584895464708373
 70
 11952
 72
     0
 73
     1
 74
     0
  7

 75
     0
147
0.3868628397755418
148
0.0
149
0.0
100
AcDbLayout
  1
Model
 70
     1
 71
     0
 10
0.0
 20
0.0
 11
12.0
 21
9.0
 12
0.0
 22
0.0
 32
0.0
 14
0.0
 24
0.0
 34
0.0
 15
0.0
 25
0.0
 35
0.0
146
0.0
 13
0.0
 23
0.0
 33
0.0
 16
1.0
 26
0.0
 36
0.0
 17
0.0
 27
1.0
 37
0.0
 76
     0
330
1F
  0
MLINESTYLE
  5
18
102
{ACAD_REACTORS
330
17
102
}
330
17
100
AcDbMlineStyle
  2
STANDARD
 70
     0
  3

 62
   256
 51
90.0
 52
90.0
 71
     2
 49
0.5
 62
   256
  6
BYLAYER
 49
-0.5
 62
   256
  6
BYLAYER
  0
ACDBPLACEHOLDER
  5
F
102
{ACAD_REACTORS
330
E
102
}
330
E
  0
XRECORD
  5
858
102
{ACAD_REACTORS
330
856
102
}
330
856
100
AcDbXrecord
280
     1
340
73
  0
XRECORD
  5
857
102
{ACAD_REACTORS
330
856
102
}
330
856
100
AcDbXrecord
280
     1
340
72
  0
DICTIONARYVAR
  5
67
102
{ACAD_REACTORS
330
66
102
}
330
66
100
DictionaryVariables
280
     0
  1
2
  0
DICTIONARYVAR
  5
6B
102
{ACAD_REACTORS
330
66
102
}
330
66
100
DictionaryVariables
280
     0
  1
1
  0
DICTIONARYVAR
  5
854
102
{ACAD_REACTORS
330
66
102
}
330
66
100
DictionaryVariables
280
     0
  1

  0
DICTIONARY
  5
85B
330
59
100
AcDbDictionary
280
     1
281
     1
  3
ACAD_XREC_ROUNDTRIP
360
85C
  0
DICTIONARY
  5
85D
330
5E
100
AcDbDictionary
280
     1
281
     1
  3
ACAD_XREC_ROUNDTRIP
360
85E
  0
DICTIONARY
  5
859
330
22
100
AcDbDictionary
280
     1
281
     1
  3
ACAD_XREC_ROUNDTRIP
360
85A
  0
XRECORD
  5
85C
102
{ACAD_REACTORS
330
85B
102
}
330
85B
100
AcDbXrecord
280
     1
102
SHADEPLOT
 70
     0
102
SHADEPLOTRESLEVEL
 70
     2
102
SHADEPLOTCUSTOMDPI
 70
   300
  0
XRECORD
  5
85E
102
{ACAD_REACTORS
330
85D
102
}
330
85D
100
AcDbXrecord
280
     1
102
SHADEPLOT
 70
     0
102
SHADEPLOTRESLEVEL
 70
     2
102
SHADEPLOTCUSTOMDPI
 70
   300
  0
XRECORD
  5
85A
102
{ACAD_REACTORS
330
859
102
}
330
859
100
AcDbXrecord
280
     1
102
SHADEPLOT
 70
     0
102
SHADEPLOTRESLEVEL
 70
     2
102
SHADEPLOTCUSTOMDPI
 70
   300
  0
ENDSEC
  0
EOF
