  0
SECTION
  2
HEADER
  9
$ACADVER
  1
AC1027
  9
$ACADMAINTVER
 70
    55
  9
$DWGCODEPAGE
  3
ANSI_1252
  9
$LASTSAVEDBY
  1
Reid
  9
$REQUIREDVERSIONS
160
                 0
  9
$INSBASE
 10
0.0
 20
0.0
 30
0.0
  9
$EXTMIN
 10
-53.4734539955599
 20
-79.2588746849392
 30
0.0
  9
$EXTMAX
 10
-15.47483136720188
 20
-29.25887468493915
 30
0.0
  9
$LIMMIN
 10
0.0
 20
0.0
  9
$LIMMAX
 10
12.0
 20
9.0
  9
$ORTHOMODE
 70
     0
  9
$REGENMODE
 70
     1
  9
$FILLMODE
 70
     1
  9
$QTEXTMODE
 70
     0
  9
$MIRRTEXT
 70
     1
  9
$LTSCALE
 40
1.0
  9
$ATTMODE
 70
     1
  9
$TEXTSIZE
 40
1.0
  9
$TRACEWID
 40
0.05
  9
$TEXTSTYLE
  7
Standard
  9
$CLAYER
  8
TEXT
  9
$CELTYPE
  6
ByLayer
  9
$CECOLOR
 62
   256
  9
$CELTSCALE
 40
1.0
  9
$DISPSILH
 70
     0
  9
$DIMSCALE
 40
1.0
  9
$DIMASZ
 40
1.0
  9
$DIMEXO
 40
0.375
  9
$DIMDLI
 40
0.38
  9
$DIMRND
 40
0.0
  9
$DIMDLE
 40
0.0
  9
$DIMEXE
 40
0.18
  9
$DIMTP
 40
0.0
  9
$DIMTM
 40
0.0
  9
$DIMTXT
 40
1.0
  9
$DIMCEN
 40
0.09
  9
$DIMTSZ
 40
0.0
  9
$DIMTOL
 70
     0
  9
$DIMLIM
 70
     0
  9
$DIMTIH
 70
     1
  9
$DIMTOH
 70
     1
  9
$DIMSE1
 70
     0
  9
$DIMSE2
 70
     0
  9
$DIMTAD
 70
     0
  9
$DIMZIN
 70
     0
  9
$DIMBLK
  1

  9
$DIMASO
 70
     1
  9
$DIMSHO
 70
     1
  9
$DIMPOST
  1

  9
$DIMAPOST
  1

  9
$DIMALT
 70
     0
  9
$DIMALTD
 70
     2
  9
$DIMALTF
 40
25.4
  9
$DIMLFAC
 40
1.0
  9
$DIMTOFL
 70
     0
  9
$DIMTVP
 40
0.0
  9
$DIMTIX
 70
     0
  9
$DIMSOXD
 70
     0
  9
$DIMSAH
 70
     0
  9
$DIMBLK1
  1

  9
$DIMBLK2
  1

  9
$DIMSTYLE
  2
Standard
  9
$DIMCLRD
 70
     0
  9
$DIMCLRE
 70
     0
  9
$DIMCLRT
 70
     0
  9
$DIMTFAC
 40
1.0
  9
$DIMGAP
 40
0.375
  9
$DIMJUST
 70
     0
  9
$DIMSD1
 70
     0
  9
$DIMSD2
 70
     0
  9
$DIMTOLJ
 70
     1
  9
$DIMTZIN
 70
     0
  9
$DIMALTZ
 70
     0
  9
$DIMALTTZ
 70
     0
  9
$DIMUPT
 70
     1
  9
$DIMDEC
 70
     3
  9
$DIMTDEC
 70
     3
  9
$DIMALTU
 70
     2
  9
$DIMALTTD
 70
     2
  9
$DIMTXSTY
  7
Standard
  9
$DIMAUNIT
 70
     0
  9
$DIMADEC
 70
     0
  9
$DIMALTRND
 40
0.0
  9
$DIMAZIN
 70
     0
  9
$DIMDSEP
 70
    46
  9
$DIMATFIT
 70
     3
  9
$DIMFRAC
 70
     0
  9
$DIMLDRBLK
  1

  9
$DIMLUNIT
 70
     2
  9
$DIMLWD
 70
    -2
  9
$DIMLWE
 70
    -2
  9
$DIMTMOVE
 70
     0
  9
$DIMFXL
 40
1.0
  9
$DIMFXLON
 70
     0
  9
$DIMJOGANG
 40
0.7853981633974483
  9
$DIMTFILL
 70
     0
  9
$DIMTFILLCLR
 70
     0
  9
$DIMARCSYM
 70
     0
  9
$DIMLTYPE
  6

  9
$DIMLTEX1
  6

  9
$DIMLTEX2
  6

  9
$DIMTXTDIRECTION
 70
     0
  9
$LUNITS
 70
     2
  9
$LUPREC
 70
     4
  9
$SKETCHINC
 40
0.1
  9
$FILLETRAD
 40
0.0
  9
$AUNITS
 70
     0
  9
$AUPREC
 70
     0
  9
$MENU
  1
.
  9
$ELEVATION
 40
0.0
  9
$PELEVATION
 40
0.0
  9
$THICKNESS
 40
0.0
  9
$LIMCHECK
 70
     0
  9
$CHAMFERA
 40
0.5
  9
$CHAMFERB
 40
0.5
  9
$CHAMFERC
 40
1.0
  9
$CHAMFERD
 40
0.0
  9
$SKPOLY
 70
     0
  9
$TDCREATE
 40
2452348.657235764
  9
$TDUCREATE
 40
2452348.823902430
  9
$TDUPDATE
 40
2457697.527408206
  9
$TDUUPDATE
 40
2457697.694074873
  9
$TDINDWG
 40
3.9351322917
  9
$TDUSRTIMER
 40
3.9351319444
  9
$USRTIMER
 70
     1
  9
$ANGBASE
 50
0.0
  9
$ANGDIR
 70
     0
  9
$PDMODE
 70
     0
  9
$PDSIZE
 40
0.0
  9
$PLINEWID
 40
0.0
  9
$SPLFRAME
 70
     0
  9
$SPLINETYPE
 70
     6
  9
$SPLINESEGS
 70
     8
  9
$HANDSEED
  5
70E9
  9
$SURFTAB1
 70
     6
  9
$SURFTAB2
 70
     6
  9
$SURFTYPE
 70
     6
  9
$SURFU
 70
     6
  9
$SURFV
 70
     6
  9
$UCSBASE
  2

  9
$UCSNAME
  2

  9
$UCSORG
 10
-38.66164268138073
 20
-61.01387468493914
 30
0.0
  9
$UCSXDIR
 10
1.0
 20
0.0
 30
0.0
  9
$UCSYDIR
 10
0.0
 20
1.0
 30
0.0
  9
$UCSORTHOREF
  2

  9
$UCSORTHOVIEW
 70
     0
  9
$UCSORGTOP
 10
0.0
 20
0.0
 30
0.0
  9
$UCSORGBOTTOM
 10
0.0
 20
0.0
 30
0.0
  9
$UCSORGLEFT
 10
0.0
 20
0.0
 30
0.0
  9
$UCSORGRIGHT
 10
0.0
 20
0.0
 30
0.0
  9
$UCSORGFRONT
 10
0.0
 20
0.0
 30
0.0
  9
$UCSORGBACK
 10
0.0
 20
0.0
 30
0.0
  9
$PUCSBASE
  2

  9
$PUCSNAME
  2

  9
$PUCSORG
 10
0.0
 20
0.0
 30
0.0
  9
$PUCSXDIR
 10
1.0
 20
0.0
 30
0.0
  9
$PUCSYDIR
 10
0.0
 20
1.0
 30
0.0
  9
$PUCSORTHOREF
  2

  9
$PUCSORTHOVIEW
 70
     0
  9
$PUCSORGTOP
 10
0.0
 20
0.0
 30
0.0
  9
$PUCSORGBOTTOM
 10
0.0
 20
0.0
 30
0.0
  9
$PUCSORGLEFT
 10
0.0
 20
0.0
 30
0.0
  9
$PUCSORGRIGHT
 10
0.0
 20
0.0
 30
0.0
  9
$PUCSORGFRONT
 10
0.0
 20
0.0
 30
0.0
  9
$PUCSORGBACK
 10
0.0
 20
0.0
 30
0.0
  9
$USERI1
 70
     0
  9
$USERI2
 70
     0
  9
$USERI3
 70
     0
  9
$USERI4
 70
     0
  9
$USERI5
 70
     0
  9
$USERR1
 40
0.0
  9
$USERR2
 40
0.0
  9
$USERR3
 40
0.0
  9
$USERR4
 40
0.0
  9
$USERR5
 40
0.0
  9
$WORLDVIEW
 70
     1
  9
$SHADEDGE
 70
     3
  9
$SHADEDIF
 70
    70
  9
$TILEMODE
 70
     1
  9
$MAXACTVP
 70
    64
  9
$PINSBASE
 10
0.0
 20
0.0
 30
0.0
  9
$PLIMCHECK
 70
     0
  9
$PEXTMIN
 10
1.000000000000000E+20
 20
1.000000000000000E+20
 30
1.000000000000000E+20
  9
$PEXTMAX
 10
-1.000000000000000E+20
 20
-1.000000000000000E+20
 30
-1.000000000000000E+20
  9
$PLIMMIN
 10
0.0
 20
0.0
  9
$PLIMMAX
 10
12.0
 20
9.0
  9
$UNITMODE
 70
     0
  9
$VISRETAIN
 70
     1
  9
$PLINEGEN
 70
     0
  9
$PSLTSCALE
 70
     1
  9
$TREEDEPTH
 70
  3020
  9
$CMLSTYLE
  2
Standard
  9
$CMLJUST
 70
     0
  9
$CMLSCALE
 40
1.0
  9
$PROXYGRAPHICS
 70
     1
  9
$MEASUREMENT
 70
     0
  9
$CELWEIGHT
370
    -1
  9
$ENDCAPS
280
     0
  9
$JOINSTYLE
280
     0
  9
$LWDISPLAY
290
     0
  9
$INSUNITS
 70
     1
  9
$HYPERLINKBASE
  1

  9
$STYLESHEET
  1
MONOCHROME.CTB
  9
$XEDIT
290
     1
  9
$CEPSNTYPE
380
     0
  9
$PSTYLEMODE
290
     1
  9
$FINGERPRINTGUID
  2
{E4D5E2A6-75E4-45C2-8025-AC62D2A2D29D}
  9
$VERSIONGUID
  2
{6060A96E-1AE8-42CF-A196-5E196D5445F1}
  9
$EXTNAMES
290
     1
  9
$PSVPSCALE
 40
0.0
  9
$OLESTARTUP
290
     0
  9
$SORTENTS
280
   127
  9
$INDEXCTL
280
     0
  9
$HIDETEXT
280
     0
  9
$XCLIPFRAME
280
     2
  9
$HALOGAP
280
     0
  9
$OBSCOLOR
 70
   257
  9
$OBSLTYPE
280
     0
  9
$INTERSECTIONDISPLAY
280
     0
  9
$INTERSECTIONCOLOR
 70
   257
  9
$DIMASSOC
280
     1
  9
$PROJECTNAME
  1

  9
$CAMERADISPLAY
290
     0
  9
$LENSLENGTH
 40
50.0
  9
$CAMERAHEIGHT
 40
0.0
  9
$STEPSPERSEC
 40
2.0
  9
$STEPSIZE
 40
6.0
  9
$3DDWFPREC
 40
2.0
  9
$PSOLWIDTH
 40
0.25
  9
$PSOLHEIGHT
 40
4.0
  9
$LOFTANG1
 40
1.570796326794896
  9
$LOFTANG2
 40
1.570796326794896
  9
$LOFTMAG1
 40
0.0
  9
$LOFTMAG2
 40
0.0
  9
$LOFTPARAM
 70
     7
  9
$LOFTNORMALS
280
     1
  9
$LATITUDE
 40
37.795
  9
$LONGITUDE
 40
-122.394
  9
$NORTHDIRECTION
 40
0.0
  9
$TIMEZONE
 70
 -8000
  9
$LIGHTGLYPHDISPLAY
280
     1
  9
$TILEMODELIGHTSYNCH
280
     1
  9
$CMATERIAL
347
6678
  9
$SOLIDHIST
280
     0
  9
$SHOWHIST
280
     1
  9
$DWFFRAME
280
     2
  9
$DGNFRAME
280
     0
  9
$REALWORLDSCALE
290
     1
  9
$INTERFERECOLOR
 62
     1
  9
$INTERFEREOBJVS
345
669A
  9
$INTERFEREVPVS
346
6697
  9
$CSHADOW
280
     0
  9
$SHADOWPLANELOCATION
 40
0.0
  0
ENDSEC
  0
SECTION
  2
CLASSES
  0
CLASS
  1
ACDBDICTIONARYWDFLT
  2
AcDbDictionaryWithDefault
  3
ObjectDBX Classes
 90
        0
 91
        1
280
     0
281
     0
  0
CLASS
  1
DICTIONARYVAR
  2
AcDbDictionaryVar
  3
ObjectDBX Classes
 90
        0
 91
       14
280
     0
281
     0
  0
CLASS
  1
MATERIAL
  2
AcDbMaterial
  3
ObjectDBX Classes
 90
     1153
 91
        3
280
     0
281
     0
  0
CLASS
  1
VISUALSTYLE
  2
AcDbVisualStyle
  3
ObjectDBX Classes
 90
     4095
 91
       24
280
     0
281
     0
  0
CLASS
  1
TABLESTYLE
  2
AcDbTableStyle
  3
ObjectDBX Classes
 90
     4095
 91
        1
280
     0
281
     0
  0
CLASS
  1
SCALE
  2
AcDbScale
  3
ObjectDBX Classes
 90
     1153
 91
       17
280
     0
281
     0
  0
CLASS
  1
MLEADERSTYLE
  2
AcDbMLeaderStyle
  3
ACDB_MLEADERSTYLE_CLASS
 90
     4095
 91
        1
280
     0
281
     0
  0
CLASS
  1
ACDBSECTIONVIEWSTYLE
  2
AcDbSectionViewStyle
  3
ObjectDBX Classes
 90
     1025
 91
        1
280
     0
281
     0
  0
CLASS
  1
ACDBDETAILVIEWSTYLE
  2
AcDbDetailViewStyle
  3
ObjectDBX Classes
 90
     1025
 91
        1
280
     0
281
     0
  0
CLASS
  1
EXACXREFPANELOBJECT
  2
ExAcXREFPanelObject
  3
EXAC_ESW
 90
     1025
 91
        2
280
     0
281
     0
  0
CLASS
  1
NPOCOLLECTION
  2
AcDbImpNonPersistentObjectsCollection
  3
ObjectDBX Classes
 90
     1153
 91
        1
280
     0
281
     0
  0
CLASS
  1
CELLSTYLEMAP
  2
AcDbCellStyleMap
  3
ObjectDBX Classes
 90
     1152
 91
        2
280
     0
281
     0
  0
CLASS
  1
SORTENTSTABLE
  2
AcDbSortentsTable
  3
ObjectDBX Classes
 90
        0
 91
        0
280
     0
281
     0
  0
ENDSEC
  0
SECTION
  2
TABLES
  0
TABLE
  2
VPORT
  5
8
102
{ACAD_XDICTIONARY
360
7094
102
}
330
0
100
AcDbSymbolTable
 70
     1
  0
VPORT
  5
666A
330
8
100
AcDbSymbolTableRecord
100
AcDbViewportTableRecord
  2
*Active
 70
     0
 10
0.0
 20
0.0
 11
1.0
 21
1.0
 12
-20.31030618950787
 22
-58.40923549332057
 13
0.0
 23
0.0
 14
0.5
 24
0.5
 15
0.5
 25
0.5
 16
0.0
 26
0.0
 36
1.0
 17
0.0
 27
0.0
 37
0.0
 40
81.24352708487711
 41
2.032008830022074
 42
50.0
 43
0.0
 44
0.0
 50
0.0
 51
0.0
 71
     0
 72
   100
 73
     1
 74
     2
 75
     0
 76
     0
 77
     0
 78
     0
281
     0
 65
     1
110
-38.66164268138073
120
-61.01387468493914
130
0.0
111
1.0
121
0.0
131
0.0
112
0.0
122
1.0
132
0.0
 79
     0
146
0.0
348
6696
 60
     3
 61
     5
292
     1
282
     1
141
0.0
142
0.0
 63
   250
421
  3355443
1001
ACAD_NAV_VCDISPLAY
1070
     3
  0
ENDTAB
  0
TABLE
  2
LTYPE
  5
5
330
0
100
AcDbSymbolTable
 70
     4
  0
LTYPE
  5
14
330
5
100
AcDbSymbolTableRecord
100
AcDbLinetypeTableRecord
  2
ByBlock
 70
     0
  3

 72
    65
 73
     0
 40
0.0
  0
LTYPE
  5
15
330
5
100
AcDbSymbolTableRecord
100
AcDbLinetypeTableRecord
  2
ByLayer
 70
     0
  3

 72
    65
 73
     0
 40
0.0
  0
LTYPE
  5
16
330
5
100
AcDbSymbolTableRecord
100
AcDbLinetypeTableRecord
  2
Continuous
 70
     0
  3
Solid line
 72
    65
 73
     0
 40
0.0
  0
LTYPE
  5
33EB
330
5
100
AcDbSymbolTableRecord
100
AcDbLinetypeTableRecord
  2
DASHDOT
 70
     0
  3
Dash dot __ . __ . __ . __ . __ . __ . __ . __
 72
    65
 73
     4
 40
1.0
 49
0.5
 74
     0
 49
-0.25
 74
     0
 49
0.0
 74
     0
 49
-0.25
 74
     0
  0
LTYPE
  5
348A
330
5
100
AcDbSymbolTableRecord
100
AcDbLinetypeTableRecord
  2
HIDDEN
 70
     0
  3
Hidden __ __ __ __ __ __ __ __ __ __ __ __ __ _
 72
    65
 73
     2
 40
0.375
 49
0.25
 74
     0
 49
-0.125
 74
     0
  0
LTYPE
  5
4865
330
5
100
AcDbSymbolTableRecord
100
AcDbLinetypeTableRecord
  2
DASHED
 70
     0
  3
Dashed __ __ __ __ __ __ __ __ __ __ __ __ __ _
 72
    65
 73
     2
 40
0.75
 49
0.5
 74
     0
 49
-0.25
 74
     0
  0
ENDTAB
  0
TABLE
  2
LAYER
  5
2
102
{ACAD_XDICTIONARY
360
4997
102
}
330
0
100
AcDbSymbolTable
 70
    10
  0
LAYER
  5
10
102
{ACAD_XDICTIONARY
360
66C7
102
}
330
2
100
AcDbSymbolTableRecord
100
AcDbLayerTableRecord
  2
0
 70
     0
 62
     7
  6
Continuous
370
    -3
390
F
347
6688
348
0
  0
LAYER
  5
284
330
2
100
AcDbSymbolTableRecord
100
AcDbLayerTableRecord
  2
Defpoints
 70
     0
 62
     7
  6
Continuous
290
     0
370
    -3
390
F
347
6688
348
0
  0
LAYER
  5
2794
102
{ACAD_XDICTIONARY
360
66C9
102
}
330
2
100
AcDbSymbolTableRecord
100
AcDbLayerTableRecord
  2
DIM
 70
     0
 62
     7
  6
Continuous
370
    -3
390
F
347
6688
348
0
  0
LAYER
  5
2796
102
{ACAD_XDICTIONARY
360
66CB
102
}
330
2
100
AcDbSymbolTableRecord
100
AcDbLayerTableRecord
  2
TEMPLATE
 70
     0
 62
     7
  6
Continuous
370
    -3
390
F
347
6688
348
0
  0
LAYER
  5
2797
102
{ACAD_XDICTIONARY
360
66CD
102
}
330
2
100
AcDbSymbolTableRecord
100
AcDbLayerTableRecord
  2
OBJ
 70
     0
 62
     7
  6
Continuous
370
    -3
390
F
347
6688
348
0
  0
LAYER
  5
44AB
102
{ACAD_XDICTIONARY
360
66CF
102
}
330
2
100
AcDbSymbolTableRecord
100
AcDbLayerTableRecord
  2
TEXT
 70
     0
 62
     7
  6
Continuous
370
    -3
390
F
347
6688
348
0
  0
LAYER
  5
4994
102
{ACAD_XDICTIONARY
360
66D1
102
}
330
2
100
AcDbSymbolTableRecord
100
AcDbLayerTableRecord
  2
DIMENSION
 70
     0
 62
     7
  6
Continuous
370
    -3
390
F
347
6688
348
0
  0
LAYER
  5
4995
102
{ACAD_XDICTIONARY
360
66D3
102
}
330
2
100
AcDbSymbolTableRecord
100
AcDbLayerTableRecord
  2
THERMOSTATCVR
 70
     0
 62
     7
  6
Continuous
370
    -3
390
F
347
6688
348
0
  0
LAYER
  5
4996
102
{ACAD_XDICTIONARY
360
66D5
102
}
330
2
100
AcDbSymbolTableRecord
100
AcDbLayerTableRecord
  2
BORDER
 70
     0
 62
     7
  6
Continuous
370
    -3
390
F
347
6688
348
0
  0
LAYER
  5
69A9
102
{ACAD_XDICTIONARY
360
69AA
102
}
330
2
100
AcDbSymbolTableRecord
100
AcDbLayerTableRecord
  2
150FPWINTBS
 70
     0
 62
     7
  6
Continuous
370
    -3
390
F
347
6688
348
0
  0
ENDTAB
  0
TABLE
  2
STYLE
  5
3
330
0
100
AcDbSymbolTable
 70
     1
  0
STYLE
  5
11
330
3
100
AcDbSymbolTableRecord
100
AcDbTextStyleTableRecord
  2
Standard
 70
     0
 40
0.0
 41
1.0
 50
0.0
 71
     0
 42
1.0
  3
txt
  4

  0
ENDTAB
  0
TABLE
  2
VIEW
  5
6
330
0
100
AcDbSymbolTable
 70
     0
  0
ENDTAB
  0
TABLE
  2
UCS
  5
7
330
0
100
AcDbSymbolTable
 70
     0
  0
ENDTAB
  0
TABLE
  2
APPID
  5
9
330
0
100
AcDbSymbolTable
 70
     8
  0
APPID
  5
12
330
9
100
AcDbSymbolTableRecord
100
AcDbRegAppTableRecord
  2
ACAD
 70
     0
  0
APPID
  5
537B
330
9
100
AcDbSymbolTableRecord
100
AcDbRegAppTableRecord
  2
DCO15
 70
     0
  0
APPID
  5
66FF
330
9
100
AcDbSymbolTableRecord
100
AcDbRegAppTableRecord
  2
ACAD_NAV_VCDISPLAY
 70
     0
  0
APPID
  5
6796
330
9
100
AcDbSymbolTableRecord
100
AcDbRegAppTableRecord
  2
ACAD_MLEADERVER
 70
     0
  0
APPID
  5
67DA
330
9
100
AcDbSymbolTableRecord
100
AcDbRegAppTableRecord
  2
AcadAnnoMonitorAlertIconDisabled
 70
     0
  0
APPID
  5
67DB
330
9
100
AcDbSymbolTableRecord
100
AcDbRegAppTableRecord
  2
ACAD_EXEMPT_FROM_CAD_STANDARDS
 70
     0
  0
APPID
  5
680D
330
9
100
AcDbSymbolTableRecord
100
AcDbRegAppTableRecord
  2
ACAD_DSTYLE_DIMRADIAL_EXTENSION
 70
     0
  0
APPID
  5
69AB
330
9
100
AcDbSymbolTableRecord
100
AcDbRegAppTableRecord
  2
ACAD_PSEXT
 70
     0
  0
ENDTAB
  0
TABLE
  2
DIMSTYLE
  5
A
330
0
100
AcDbSymbolTable
 70
     1
100
AcDbDimStyleTable
 71
     1
340
27
  0
DIMSTYLE
105
27
102
{ACAD_REACTORS
330
3F30
330
3F29
330
4096
330
4094
330
4093
330
4092
330
409B
330
412E
330
4140
330
4149
330
4137
330
409E
330
67BB
330
680E
102
}
330
A
100
AcDbSymbolTableRecord
100
AcDbDimStyleTableRecord
  2
Standard
 70
     0
 41
1.0
 42
0.375
140
1.0
147
0.375
271
     3
272
     3
288
     1
340
11
  0
ENDTAB
  0
TABLE
  2
BLOCK_RECORD
  5
1
330
0
100
AcDbSymbolTable
 70
   142
  0
BLOCK_RECORD
  5
1F
330
1
100
AcDbSymbolTableRecord
100
AcDbBlockTableRecord
  2
*Model_Space
340
22
 70
     0
280
     1
281
     0
  0
BLOCK_RECORD
  5
1B
330
1
100
AcDbSymbolTableRecord
100
AcDbBlockTableRecord
  2
*Paper_Space
340
1E
 70
     0
280
     1
281
     0
  0
BLOCK_RECORD
  5
23
330
1
100
AcDbSymbolTableRecord
100
AcDbBlockTableRecord
  2
*Paper_Space0
340
26
 70
     0
280
     1
281
     0
  0
BLOCK_RECORD
  5
2E3
330
1
100
AcDbSymbolTableRecord
100
AcDbBlockTableRecord
  2
A$CE1F0
340
0
 70
     0
280
     1
281
     0
  0
BLOCK_RECORD
  5
3F39
330
1
100
AcDbSymbolTableRecord
100
AcDbBlockTableRecord
  2
*D12
340
0
 70
     0
280
     1
281
     0
  0
BLOCK_RECORD
  5
3F41
330
1
100
AcDbSymbolTableRecord
100
AcDbBlockTableRecord
  2
*D13
340
0
 70
     0
280
     1
281
     0
  0
BLOCK_RECORD
  5
409F
330
1
100
AcDbSymbolTableRecord
100
AcDbBlockTableRecord
  2
*D26
340
0
 70
     0
280
     1
281
     0
  0
BLOCK_RECORD
  5
40A7
330
1
100
AcDbSymbolTableRecord
100
AcDbBlockTableRecord
  2
*D27
340
0
 70
     0
280
     1
281
     0
  0
BLOCK_RECORD
  5
40B7
330
1
100
AcDbSymbolTableRecord
100
AcDbBlockTableRecord
  2
*D28
340
0
 70
     0
280
     1
281
     0
  0
BLOCK_RECORD
  5
40BF
330
1
100
AcDbSymbolTableRecord
100
AcDbBlockTableRecord
  2
*D29
340
0
 70
     0
280
     1
281
     0
  0
BLOCK_RECORD
  5
40C7
330
1
100
AcDbSymbolTableRecord
100
AcDbBlockTableRecord
  2
*D30
340
0
 70
     0
280
     1
281
     0
  0
BLOCK_RECORD
  5
40CF
330
1
100
AcDbSymbolTableRecord
100
AcDbBlockTableRecord
  2
*D31
340
0
 70
     0
280
     1
281
     0
  0
BLOCK_RECORD
  5
412F
330
1
100
AcDbSymbolTableRecord
100
AcDbBlockTableRecord
  2
*D32
340
0
 70
     0
280
     1
281
     0
  0
BLOCK_RECORD
  5
4138
330
1
100
AcDbSymbolTableRecord
100
AcDbBlockTableRecord
  2
*D33
340
0
 70
     0
280
     1
281
     0
  0
BLOCK_RECORD
  5
4141
330
1
100
AcDbSymbolTableRecord
100
AcDbBlockTableRecord
  2
*D34
340
0
 70
     0
280
     1
281
     0
  0
BLOCK_RECORD
  5
414A
330
1
100
AcDbSymbolTableRecord
100
AcDbBlockTableRecord
  2
*D35
340
0
 70
     0
280
     1
281
     0
  0
BLOCK_RECORD
  5
6465
330
1
100
AcDbSymbolTableRecord
100
AcDbBlockTableRecord
  2
A$C1C486BFB
340
0
 70
     0
280
     1
281
     0
  0
BLOCK_RECORD
  5
67BC
330
1
100
AcDbSymbolTableRecord
100
AcDbBlockTableRecord
  2
*D38
340
0
 70
     0
280
     1
281
     0
  0
BLOCK_RECORD
  5
680F
330
1
100
AcDbSymbolTableRecord
100
AcDbBlockTableRecord
  2
*D39
340
0
 70
     0
280
     1
281
     0
  0
BLOCK_RECORD
  5
6855
330
1
100
AcDbSymbolTableRecord
100
AcDbBlockTableRecord
  2
*D40
340
0
 70
     0
280
     1
281
     0
  0
BLOCK_RECORD
  5
685D
330
1
100
AcDbSymbolTableRecord
100
AcDbBlockTableRecord
  2
*D41
340
0
 70
     0
280
     1
281
     0
  0
BLOCK_RECORD
  5
6865
330
1
100
AcDbSymbolTableRecord
100
AcDbBlockTableRecord
  2
*D42
340
0
 70
     0
280
     1
281
     0
  0
BLOCK_RECORD
  5
686D
330
1
100
AcDbSymbolTableRecord
100
AcDbBlockTableRecord
  2
*D43
340
0
 70
     0
280
     1
281
     0
  0
BLOCK_RECORD
  5
6875
330
1
100
AcDbSymbolTableRecord
100
AcDbBlockTableRecord
  2
*D44
340
0
 70
     0
280
     1
281
     0
  0
BLOCK_RECORD
  5
687D
330
1
100
AcDbSymbolTableRecord
100
AcDbBlockTableRecord
  2
*D45
340
0
 70
     0
280
     1
281
     0
  0
BLOCK_RECORD
  5
6885
330
1
100
AcDbSymbolTableRecord
100
AcDbBlockTableRecord
  2
*D46
340
0
 70
     0
280
     1
281
     0
  0
BLOCK_RECORD
  5
688D
330
1
100
AcDbSymbolTableRecord
100
AcDbBlockTableRecord
  2
*D47
340
0
 70
     0
280
     1
281
     0
  0
BLOCK_RECORD
  5
6895
330
1
100
AcDbSymbolTableRecord
100
AcDbBlockTableRecord
  2
*D48
340
0
 70
     0
280
     1
281
     0
  0
BLOCK_RECORD
  5
689D
330
1
100
AcDbSymbolTableRecord
100
AcDbBlockTableRecord
  2
*D49
340
0
 70
     0
280
     1
281
     0
  0
BLOCK_RECORD
  5
68A5
330
1
100
AcDbSymbolTableRecord
100
AcDbBlockTableRecord
  2
*D50
340
0
 70
     0
280
     1
281
     0
  0
BLOCK_RECORD
  5
68AD
330
1
100
AcDbSymbolTableRecord
100
AcDbBlockTableRecord
  2
*D51
340
0
 70
     0
280
     1
281
     0
  0
BLOCK_RECORD
  5
68B5
330
1
100
AcDbSymbolTableRecord
100
AcDbBlockTableRecord
  2
*D52
340
0
 70
     0
280
     1
281
     0
  0
BLOCK_RECORD
  5
68BF
330
1
100
AcDbSymbolTableRecord
100
AcDbBlockTableRecord
  2
*D53
340
0
 70
     0
280
     1
281
     0
  0
BLOCK_RECORD
  5
68CA
330
1
100
AcDbSymbolTableRecord
100
AcDbBlockTableRecord
  2
A$C525F4A44
340
0
 70
     1
280
     1
281
     0
  0
BLOCK_RECORD
  5
6CD7
330
1
100
AcDbSymbolTableRecord
100
AcDbBlockTableRecord
  2
METAL
340
0
310
2800000020000000200000000100080000000000000400000000000000000000000000000000000000000000000080000080000000808000800000008000800080800000C0C0C000C0DCC000F0CAA6000020400000206000002080000020A0000020C0000020E00000400000004020000040400000406000004080000040A0
310
000040C0000040E00000600000006020000060400000606000006080000060A0000060C0000060E00000800000008020000080400000806000008080000080A0000080C0000080E00000A0000000A0200000A0400000A0600000A0800000A0A00000A0C00000A0E00000C0000000C0200000C0400000C0600000C0800000C0
310
A00000C0C00000C0E00000E0000000E0200000E0400000E0600000E0800000E0A00000E0C00000E0E00040000000400020004000400040006000400080004000A0004000C0004000E00040200000402020004020400040206000402080004020A0004020C0004020E000404000004040200040404000404060004040800040
310
40A0004040C0004040E00040600000406020004060400040606000406080004060A0004060C0004060E00040800000408020004080400040806000408080004080A0004080C0004080E00040A0000040A0200040A0400040A0600040A0800040A0A00040A0C00040A0E00040C0000040C0200040C0400040C0600040C08000
310
40C0A00040C0C00040C0E00040E0000040E0200040E0400040E0600040E0800040E0A00040E0C00040E0E00080000000800020008000400080006000800080008000A0008000C0008000E00080200000802020008020400080206000802080008020A0008020C0008020E00080400000804020008040400080406000804080
310
008040A0008040C0008040E00080600000806020008060400080606000806080008060A0008060C0008060E00080800000808020008080400080806000808080008080A0008080C0008080E00080A0000080A0200080A0400080A0600080A0800080A0A00080A0C00080A0E00080C0000080C0200080C0400080C0600080C0
310
800080C0A00080C0C00080C0E00080E0000080E0200080E0400080E0600080E0800080E0A00080E0C00080E0E000C0000000C0002000C0004000C0006000C0008000C000A000C000C000C000E000C0200000C0202000C0204000C0206000C0208000C020A000C020C000C020E000C0400000C0402000C0404000C0406000C0
310
408000C040A000C040C000C040E000C0600000C0602000C0604000C0606000C0608000C060A000C060C000C060E000C0800000C0802000C0804000C0806000C0808000C080A000C080C000C080E000C0A00000C0A02000C0A04000C0A06000C0A08000C0A0A000C0A0C000C0A0E000C0C00000C0C02000C0C04000C0C06000
310
C0C08000C0C0A000F0FBFF00A4A0A000808080000000FF0000FF000000FFFF00FF000000FF00FF00FFFF0000FFFFFF00000000000000000000000000000000000000000000000000000000000000000000000000000000FFFFFFFFFFFFFFFFFFFFFFFFFFFFFFFFFFFF0000000000000000000000000000FFFFFFFFFFFFFFFF
310
FFFFFFFFFFFFFFFFFFFF0000000000000000000000000000FF00000000000000000000000000000000FF0000000000000000000000000000FFFF0000000000000000000000000000FFFF0000000000000000000000000000FF00FF000000000000000000000000FF00FF0000000000000000000000000000FF000000000000
310
00000000000000000000FF0000000000000000000000000000FF00000000000000000000000000000000FF0000000000000000000000000000FF00000000000000000000000000000000FF0000000000000000000000000000FF00000000000000000000000000000000FF0000000000000000000000000000FF0000000000
310
0000000000000000000000FF0000000000000000000000000000FF00000000000000000000000000000000FF0000000000000000000000000000FF00000000000000000000000000000000FF0000000000000000000000000000FF00000000000000000000000000000000FF0000000000000000000000000000FF00FF0000
310
00000000000000000000FF00FF0000000000000000000000000000FFFF0000000000000000000000000000FFFF0000000000000000000000000000FFFF0000000000000000000000000000FFFF0000000000000000000000000000FF00000000000000000000000000000000FF0000000000000000000000000000FF000000
310
00000000000000000000000000FF0000000000000000000000000000FF00000000000000000000000000000000FF0000000000000000000000000000FF00000000000000000000000000000000FF0000000000000000000000000000FF00000000000000000000000000000000FF0000000000000000000000000000FF0000
310
000000000000000000000000FFFFFF0000000000000000000000000000FF0000000000FF00000000000000FFFFFFFF0000000000000000000000000000FF000000000000FFFFFFFFFFFFFF00FF00FF0000000000000000000000000000FF000000000000FFFFFFFFFFFFFF00FF00FF0000000000000000000000000000FF00
310
FF00000000FFFFFFFFFFFFFF00FF00FF0000000000000000000000000000FFFF0000000000FFFFFFFFFFFFFF0000FFFF0000000000000000000000000000FFFF0000000000FFFFFFFFFFFFFF0000FFFF0000000000000000000000000000FFFFFFFFFFFFFFFFFFFFFFFFFFFFFFFFFFFF0000000000000000000000000000FF
310
FFFFFFFFFFFFFFFFFFFFFFFFFFFFFFFFFF000000000000000000000000000000000000000000000000000000000000000000000000000000
102
{BLKREFS
331
6E6B
102
}
 70
     1
280
     1
281
     0
  0
BLOCK_RECORD
  5
6DB7
330
1
100
AcDbSymbolTableRecord
100
AcDbBlockTableRecord
  2
*D98
340
0
 70
     0
280
     1
281
     0
  0
BLOCK_RECORD
  5
6DBF
330
1
100
AcDbSymbolTableRecord
100
AcDbBlockTableRecord
  2
*D99
340
0
 70
     0
280
     1
281
     0
  0
BLOCK_RECORD
  5
6DC7
330
1
100
AcDbSymbolTableRecord
100
AcDbBlockTableRecord
  2
*D100
340
0
 70
     0
280
     1
281
     0
  0
BLOCK_RECORD
  5
6DCF
330
1
100
AcDbSymbolTableRecord
100
AcDbBlockTableRecord
  2
*D101
340
0
 70
     0
280
     1
281
     0
  0
BLOCK_RECORD
  5
6DD7
330
1
100
AcDbSymbolTableRecord
100
AcDbBlockTableRecord
  2
*D102
340
0
 70
     0
280
     1
281
     0
  0
BLOCK_RECORD
  5
6DDF
330
1
100
AcDbSymbolTableRecord
100
AcDbBlockTableRecord
  2
*D103
340
0
 70
     0
280
     1
281
     0
  0
BLOCK_RECORD
  5
6DE7
330
1
100
AcDbSymbolTableRecord
100
AcDbBlockTableRecord
  2
*D104
340
0
 70
     0
280
     1
281
     0
  0
BLOCK_RECORD
  5
6DEF
330
1
100
AcDbSymbolTableRecord
100
AcDbBlockTableRecord
  2
*D105
340
0
 70
     0
280
     1
281
     0
  0
BLOCK_RECORD
  5
6DF7
330
1
100
AcDbSymbolTableRecord
100
AcDbBlockTableRecord
  2
*D106
340
0
 70
     0
280
     1
281
     0
  0
BLOCK_RECORD
  5
6DFF
330
1
100
AcDbSymbolTableRecord
100
AcDbBlockTableRecord
  2
*D107
340
0
 70
     0
280
     1
281
     0
  0
BLOCK_RECORD
  5
6E07
330
1
100
AcDbSymbolTableRecord
100
AcDbBlockTableRecord
  2
*D108
340
0
 70
     0
280
     1
281
     0
  0
BLOCK_RECORD
  5
6E0F
330
1
100
AcDbSymbolTableRecord
100
AcDbBlockTableRecord
  2
*D109
340
0
 70
     0
280
     1
281
     0
  0
BLOCK_RECORD
  5
6E17
330
1
100
AcDbSymbolTableRecord
100
AcDbBlockTableRecord
  2
*D110
340
0
 70
     0
280
     1
281
     0
  0
BLOCK_RECORD
  5
6E21
330
1
100
AcDbSymbolTableRecord
100
AcDbBlockTableRecord
  2
*D111
340
0
 70
     0
280
     1
281
     0
  0
BLOCK_RECORD
  5
6E2C
330
1
100
AcDbSymbolTableRecord
100
AcDbBlockTableRecord
  2
A$C3FAD2947
340
0
 70
     1
280
     1
281
     0
  0
BLOCK_RECORD
  5
6E6A
330
1
100
AcDbSymbolTableRecord
100
AcDbBlockTableRecord
  2
A$C5DC71409
340
0
 70
     1
280
     1
281
     0
  0
ENDTAB
  0
ENDSEC
  0
SECTION
  2
BLOCKS
  0
BLOCK
  5
20
330
1F
100
AcDbEntity
  8
0
100
AcDbBlockBegin
  2
*Model_Space
 70
     0
 10
0.0
 20
0.0
 30
0.0
  3
*Model_Space
  1

  0
ENDBLK
  5
21
330
1F
100
AcDbEntity
  8
0
100
AcDbBlockEnd
  0
BLOCK
  5
1C
330
1B
100
AcDbEntity
 67
     1
  8
0
100
AcDbBlockBegin
  2
*Paper_Space
 70
     0
 10
0.0
 20
0.0
 30
0.0
  3
*Paper_Space
  1

  0
ENDBLK
  5
1D
330
1B
100
AcDbEntity
 67
     1
  8
0
100
AcDbBlockEnd
  0
BLOCK
  5
24
330
23
100
AcDbEntity
 67
     1
  8
0
100
AcDbBlockBegin
  2
*Paper_Space0
 70
     0
 10
0.0
 20
0.0
 30
0.0
  3
*Paper_Space0
  1

  0
ENDBLK
  5
25
330
23
100
AcDbEntity
 67
     1
  8
0
100
AcDbBlockEnd
  0
BLOCK
  5
2E9
330
2E3
100
AcDbEntity
  8
0
100
AcDbBlockBegin
  2
A$CE1F0
 70
     0
 10
0.0
 20
0.0
 30
0.0
  3
A$CE1F0
  1

  0
TEXT
  5
2E4
330
2E3
100
AcDbEntity
  8
0
100
AcDbText
 10
0.0228718607682481
 20
1.690877156304511
 30
0.0
 40
0.5
  1
PROPRIETARY DRAWING
100
AcDbText
  0
TEXT
  5
2E5
330
2E3
100
AcDbEntity
  8
0
100
AcDbText
 10
0.0292002150773101
 20
1.311193744568821
 30
0.0
 40
0.25
  1
THIS DRAWING IS THE PROPERTY OF ICE
100
AcDbText
  0
TEXT
  5
2E6
330
2E3
100
AcDbEntity
  8
0
100
AcDbText
 10
0.0292002150773101
 20
0.8945270779021575
 30
0.0
 40
0.25
  1
QUBE, INC. AND IS NOT TO BE DUPLICATED
100
AcDbText
  0
TEXT
  5
2E7
330
2E3
100
AcDbEntity
  8
0
100
AcDbText
 10
0.0292002150773101
 20
0.4778604112354916
 30
0.0
 40
0.25
  1
OR ALTERED WITHOUT AUTHORIZATION OF
100
AcDbText
  0
TEXT
  5
2E8
330
2E3
100
AcDbEntity
  8
0
100
AcDbText
 10
0.0292002150773101
 20
0.0611937445688255
 30
0.0
 40
0.25
  1
ICE QUBE, INC.
100
AcDbText
  0
ENDBLK
  5
2EA
330
2E3
100
AcDbEntity
  8
0
100
AcDbBlockEnd
  0
BLOCK
  5
3F3F
330
3F39
100
AcDbEntity
  8
0
100
AcDbBlockBegin
  2
*D12
 70
     1
 10
0.0
 20
0.0
 30
0.0
  3
*D12
  1

  0
LINE
  5
664B
330
3F39
100
AcDbEntity
  8
DIM
 62
     0
440
 16777216
370
    -2
100
AcDbLine
 10
-40.11414268138081
 20
-63.26387468493916
 30
0.0
 11
-40.73914268138081
 21
-63.26387468493916
 31
0.0
  0
MTEXT
  5
664C
330
3F39
100
AcDbEntity
  8
DIM
 62
     0
440
 16777216
100
AcDbMText
 10
-42.78080934804749
 20
-63.26387468493916
 30
0.0
 40
1.0
 41
0.0
 46
0.0
 71
     5
 72
     1
  1
\A1;0.000
 73
     1
 44
1.0
  0
POINT
  5
664D
330
3F39
100
AcDbEntity
  8
Defpoints
 62
     0
440
 16777216
100
AcDbPoint
 10
-39.73914268138083
 20
-63.26387468493916
 30
0.0
  0
POINT
  5
664E
330
3F39
100
AcDbEntity
  8
Defpoints
 62
     0
440
 16777216
100
AcDbPoint
 10
-40.73914268138081
 20
-63.26387468493916
 30
0.0
  0
POINT
  5
664F
330
3F39
100
AcDbEntity
  8
Defpoints
 62
     0
440
 16777216
100
AcDbPoint
 10
-39.73914013594782
 20
-63.26387974896217
 30
0.0
  0
ENDBLK
  5
3F40
330
3F39
100
AcDbEntity
  8
0
100
AcDbBlockEnd
  0
BLOCK
  5
3F47
330
3F41
100
AcDbEntity
  8
0
100
AcDbBlockBegin
  2
*D13
 70
     1
 10
0.0
 20
0.0
 30
0.0
  3
*D13
  1

  0
LINE
  5
6650
330
3F41
100
AcDbEntity
  8
DIM
 62
     0
440
 16777216
370
    -2
100
AcDbLine
 10
-39.73914268138083
 20
-63.63887468493913
 30
0.0
 11
-39.73914268138083
 21
-64.26387468493913
 31
0.0
  0
MTEXT
  5
6651
330
3F41
100
AcDbEntity
  8
DIM
 62
     0
440
 16777216
100
AcDbMText
 10
-39.73914268138082
 20
-66.30554135160584
 30
0.0
 40
1.0
 41
0.0
 46
0.0
 71
     5
 72
     1
  1
\A1;0.000
 11
0.0000000000000001
 21
1.0
 31
0.0
 73
     1
 44
1.0
  0
POINT
  5
6652
330
3F41
100
AcDbEntity
  8
Defpoints
 62
     0
440
 16777216
100
AcDbPoint
 10
-39.73914268138083
 20
-63.26387468493916
 30
0.0
  0
POINT
  5
6653
330
3F41
100
AcDbEntity
  8
Defpoints
 62
     0
440
 16777216
100
AcDbPoint
 10
-39.73914268138083
 20
-64.26387468493913
 30
0.0
  0
POINT
  5
6654
330
3F41
100
AcDbEntity
  8
Defpoints
 62
     0
440
 16777216
100
AcDbPoint
 10
-39.73914013594782
 20
-63.26387974896217
 30
0.0
  0
ENDBLK
  5
3F48
330
3F41
100
AcDbEntity
  8
0
100
AcDbBlockEnd
  0
BLOCK
  5
40A5
330
409F
100
AcDbEntity
  8
0
100
AcDbBlockBegin
  2
*D26
 70
     1
 10
0.0
 20
0.0
 30
0.0
  3
*D26
  1

  0
LINE
  5
6637
330
409F
100
AcDbEntity
  8
DIM
 62
     0
440
 16777216
370
    -2
100
AcDbLine
 10
-40.11414268138081
 20
-45.25387468493915
 30
0.0
 11
-40.73914268138081
 21
-45.25387468493915
 31
0.0
  0
MTEXT
  5
6638
330
409F
100
AcDbEntity
  8
DIM
 62
     0
440
 16777216
100
AcDbMText
 10
-43.11414268138082
 20
-45.25387468493915
 30
0.0
 40
1.0
 41
0.0
 46
0.0
 71
     5
 72
     1
  1
\A1;18.010
 73
     1
 44
1.0
  0
POINT
  5
6639
330
409F
100
AcDbEntity
  8
Defpoints
 62
     0
440
 16777216
100
AcDbPoint
 10
-39.73914268138083
 20
-45.25387468493915
 30
0.0
  0
POINT
  5
663A
330
409F
100
AcDbEntity
  8
Defpoints
 62
     0
440
 16777216
100
AcDbPoint
 10
-40.73914268138081
 20
-45.25387468493915
 30
0.0
  0
POINT
  5
663B
330
409F
100
AcDbEntity
  8
Defpoints
 62
     0
440
 16777216
100
AcDbPoint
 10
-39.73917362090072
 20
-63.26387733938673
 30
0.0
  0
ENDBLK
  5
40A6
330
409F
100
AcDbEntity
  8
0
100
AcDbBlockEnd
  0
BLOCK
  5
40AD
330
40A7
100
AcDbEntity
  8
0
100
AcDbBlockBegin
  2
*D27
 70
     1
 10
0.0
 20
0.0
 30
0.0
  3
*D27
  1

  0
LINE
  5
665A
330
40A7
100
AcDbEntity
  8
DIM
 62
     0
440
 16777216
370
    -2
100
AcDbLine
 10
-29.20914268138086
 20
-44.87887468493915
 30
0.0
 11
-29.20914268138086
 21
-44.25387468493915
 31
0.0
  0
MTEXT
  5
665B
330
40A7
100
AcDbEntity
  8
DIM
 62
     0
440
 16777216
100
AcDbMText
 10
-29.20914268138086
 20
-41.71220801827248
 30
0.0
 40
1.0
 41
0.0
 46
0.0
 71
     5
 72
     1
  1
\A1;10.530
 11
0.0000000000000001
 21
1.0
 31
0.0
 73
     1
 44
1.0
  0
POINT
  5
665C
330
40A7
100
AcDbEntity
  8
Defpoints
 62
     0
440
 16777216
100
AcDbPoint
 10
-29.20914268138086
 20
-45.25387468493915
 30
0.0
  0
POINT
  5
665D
330
40A7
100
AcDbEntity
  8
Defpoints
 62
     0
440
 16777216
100
AcDbPoint
 10
-29.20914268138086
 20
-44.25387468493915
 30
0.0
  0
POINT
  5
665E
330
40A7
100
AcDbEntity
  8
Defpoints
 62
     0
440
 16777216
100
AcDbPoint
 10
-39.73917362090072
 20
-63.26387733938673
 30
0.0
  0
ENDBLK
  5
40AE
330
40A7
100
AcDbEntity
  8
0
100
AcDbBlockEnd
  0
BLOCK
  5
40BD
330
40B7
100
AcDbEntity
  8
0
100
AcDbBlockBegin
  2
*D28
 70
     1
 10
0.0
 20
0.0
 30
0.0
  3
*D28
  1

  0
LINE
  5
6846
330
40B7
100
AcDbEntity
  8
DIM
 62
     0
440
 16777216
370
    -2
100
AcDbLine
 10
-39.03664268138073
 20
-55.26387468493915
 30
0.0
 11
-40.73914268138081
 21
-55.26387468493915
 31
0.0
  0
MTEXT
  5
6847
330
40B7
100
AcDbEntity
  8
DIM
 62
     0
440
 16777216
100
AcDbMText
 10
-44.53080934804748
 20
-55.26387468493915
 30
0.0
 40
1.0
 41
0.0
 46
0.0
 71
     5
 72
     1
  1
\A1;(2) 8.000
 73
     1
 44
1.0
  0
POINT
  5
6848
330
40B7
100
AcDbEntity
  8
Defpoints
 62
     0
440
 16777216
100
AcDbPoint
 10
-38.66164268138073
 20
-55.26387468493915
 30
0.0
  0
POINT
  5
6849
330
40B7
100
AcDbEntity
  8
Defpoints
 62
     0
440
 16777216
100
AcDbPoint
 10
-40.73914268138081
 20
-55.26387468493915
 30
0.0
  0
POINT
  5
684A
330
40B7
100
AcDbEntity
  8
Defpoints
 62
     0
440
 16777216
100
AcDbPoint
 10
-39.73917362090072
 20
-63.26387733938673
 30
0.0
  0
ENDBLK
  5
40BE
330
40B7
100
AcDbEntity
  8
0
100
AcDbBlockEnd
  0
BLOCK
  5
40C5
330
40BF
100
AcDbEntity
  8
0
100
AcDbBlockBegin
  2
*D29
 70
     1
 10
0.0
 20
0.0
 30
0.0
  3
*D29
  1

  0
LINE
  5
683C
330
40BF
100
AcDbEntity
  8
DIM
 62
     0
440
 16777216
370
    -2
100
AcDbLine
 10
-39.03664268138073
 20
-61.01387468493914
 30
0.0
 11
-40.73914268138081
 21
-61.01387468493914
 31
0.0
  0
MTEXT
  5
683D
330
40BF
100
AcDbEntity
  8
DIM
 62
     0
440
 16777216
100
AcDbMText
 10
-44.69747601471414
 20
-61.01387468493914
 30
0.0
 40
1.0
 41
0.0
 46
0.0
 71
     5
 72
     1
  1
\A1;(2) 2.250
 73
     1
 44
1.0
  0
POINT
  5
683E
330
40BF
100
AcDbEntity
  8
Defpoints
 62
     0
440
 16777216
100
AcDbPoint
 10
-38.66164268138073
 20
-61.01387468493914
 30
0.0
  0
POINT
  5
683F
330
40BF
100
AcDbEntity
  8
Defpoints
 62
     0
440
 16777216
100
AcDbPoint
 10
-40.73914268138081
 20
-61.01387468493914
 30
0.0
  0
POINT
  5
6840
330
40BF
100
AcDbEntity
  8
Defpoints
 62
     0
440
 16777216
100
AcDbPoint
 10
-39.73917362090072
 20
-63.26387733938673
 30
0.0
  0
ENDBLK
  5
40C6
330
40BF
100
AcDbEntity
  8
0
100
AcDbBlockEnd
  0
BLOCK
  5
40CD
330
40C7
100
AcDbEntity
  8
0
100
AcDbBlockBegin
  2
*D30
 70
     1
 10
0.0
 20
0.0
 30
0.0
  3
*D30
  1

  0
LINE
  5
6850
330
40C7
100
AcDbEntity
  8
DIM
 62
     0
440
 16777216
370
    -2
100
AcDbLine
 10
-39.03664268138073
 20
-47.57687468493903
 30
0.0
 11
-40.73914268138081
 21
-47.57687468493903
 31
0.0
  0
MTEXT
  5
6851
330
40C7
100
AcDbEntity
  8
DIM
 62
     0
440
 16777216
100
AcDbMText
 10
-45.11414268138081
 20
-47.57687468493903
 30
0.0
 40
1.0
 41
0.0
 46
0.0
 71
     5
 72
     1
  1
\A1;(2) 15.687
 73
     1
 44
1.0
  0
POINT
  5
6852
330
40C7
100
AcDbEntity
  8
Defpoints
 62
     0
440
 16777216
100
AcDbPoint
 10
-38.66164268138073
 20
-47.57687468493903
 30
0.0
  0
POINT
  5
6853
330
40C7
100
AcDbEntity
  8
Defpoints
 62
     0
440
 16777216
100
AcDbPoint
 10
-40.73914268138081
 20
-47.57687468493903
 30
0.0
  0
POINT
  5
6854
330
40C7
100
AcDbEntity
  8
Defpoints
 62
     0
440
 16777216
100
AcDbPoint
 10
-39.73917362090072
 20
-63.26387733938673
 30
0.0
  0
ENDBLK
  5
40CE
330
40C7
100
AcDbEntity
  8
0
100
AcDbBlockEnd
  0
BLOCK
  5
40D5
330
40CF
100
AcDbEntity
  8
0
100
AcDbBlockBegin
  2
*D31
 70
     1
 10
0.0
 20
0.0
 30
0.0
  3
*D31
  1

  0
LINE
  5
7010
330
40CF
100
AcDbEntity
  8
DIM
 62
     0
440
 16777216
370
    -2
100
AcDbLine
 10
-30.28664268138073
 20
-61.38887468493914
 30
0.0
 11
-30.28664268138073
 21
-64.26387468493913
 31
0.0
  0
MTEXT
  5
7011
330
40CF
100
AcDbEntity
  8
DIM
 62
     0
440
 16777216
100
AcDbMText
 10
-30.28664268138072
 20
-68.30554135160581
 30
0.0
 40
1.0
 41
0.0
 46
0.0
 71
     5
 72
     1
  1
\A1;(4) 9.453
 11
0.0000000000000001
 21
1.0
 31
0.0
 73
     1
 44
1.0
  0
POINT
  5
7012
330
40CF
100
AcDbEntity
  8
Defpoints
 62
     0
440
 16777216
100
AcDbPoint
 10
-30.28664268138073
 20
-61.01387468493914
 30
0.0
  0
POINT
  5
7013
330
40CF
100
AcDbEntity
  8
Defpoints
 62
     0
440
 16777216
100
AcDbPoint
 10
-30.28664268138073
 20
-64.26387468493913
 30
0.0
  0
POINT
  5
7014
330
40CF
100
AcDbEntity
  8
Defpoints
 62
     0
440
 16777216
100
AcDbPoint
 10
-39.73917362090072
 20
-63.26387733938673
 30
0.0
  0
ENDBLK
  5
40D6
330
40CF
100
AcDbEntity
  8
0
100
AcDbBlockEnd
  0
BLOCK
  5
4135
330
412F
100
AcDbEntity
  8
0
100
AcDbBlockBegin
  2
*D32
 70
     1
 10
0.0
 20
0.0
 30
0.0
  3
*D32
  1

  0
LINE
  5
6628
330
412F
100
AcDbEntity
  8
DIM
 62
     0
440
 16777216
370
    -2
100
AcDbLine
 10
-37.77414268138083
 20
-45.59562468493907
 30
0.0
 11
-37.77414268138083
 21
-44.25387468493915
 31
0.0
  0
MTEXT
  5
6629
330
412F
100
AcDbEntity
  8
DIM
 62
     0
440
 16777216
100
AcDbMText
 10
-37.77414268138083
 20
-42.04554135160582
 30
0.0
 40
1.0
 41
0.0
 46
0.0
 71
     5
 72
     1
  1
\A1;1.965
 11
0.0000000000000001
 21
1.0
 31
0.0
 73
     1
 44
1.0
  0
POINT
  5
662A
330
412F
100
AcDbEntity
  8
Defpoints
 62
     0
440
 16777216
100
AcDbPoint
 10
-37.77414268138083
 20
-45.97062468493906
 30
0.0
  0
POINT
  5
662B
330
412F
100
AcDbEntity
  8
Defpoints
 62
     0
440
 16777216
100
AcDbPoint
 10
-37.77414268138083
 20
-44.25387468493915
 30
0.0
  0
POINT
  5
662C
330
412F
100
AcDbEntity
  8
Defpoints
 62
     0
440
 16777216
100
AcDbPoint
 10
-39.73917362090072
 20
-63.26387733938673
 30
0.0
  0
ENDBLK
  5
4136
330
412F
100
AcDbEntity
  8
0
100
AcDbBlockEnd
  0
BLOCK
  5
413E
330
4138
100
AcDbEntity
  8
0
100
AcDbBlockBegin
  2
*D33
 70
     1
 10
0.0
 20
0.0
 30
0.0
  3
*D33
  1

  0
LINE
  5
6655
330
4138
100
AcDbEntity
  8
DIM
 62
     0
440
 16777216
370
    -2
100
AcDbLine
 10
-31.1741426813809
 20
-45.59562468493908
 30
0.0
 11
-31.1741426813809
 21
-44.25387468493915
 31
0.0
  0
MTEXT
  5
6656
330
4138
100
AcDbEntity
  8
DIM
 62
     0
440
 16777216
100
AcDbMText
 10
-31.17414268138088
 20
-41.87887468493914
 30
0.0
 40
1.0
 41
0.0
 46
0.0
 71
     5
 72
     1
  1
\A1;8.565
 11
0.0000000000000001
 21
1.0
 31
0.0
 73
     1
 44
1.0
  0
POINT
  5
6657
330
4138
100
AcDbEntity
  8
Defpoints
 62
     0
440
 16777216
100
AcDbPoint
 10
-31.1741426813809
 20
-45.97062468493908
 30
0.0
  0
POINT
  5
6658
330
4138
100
AcDbEntity
  8
Defpoints
 62
     0
440
 16777216
100
AcDbPoint
 10
-31.1741426813809
 20
-44.25387468493915
 30
0.0
  0
POINT
  5
6659
330
4138
100
AcDbEntity
  8
Defpoints
 62
     0
440
 16777216
100
AcDbPoint
 10
-39.73917362090072
 20
-63.26387733938673
 30
0.0
  0
ENDBLK
  5
413F
330
4138
100
AcDbEntity
  8
0
100
AcDbBlockEnd
  0
BLOCK
  5
4147
330
4141
100
AcDbEntity
  8
0
100
AcDbBlockBegin
  2
*D34
 70
     1
 10
0.0
 20
0.0
 30
0.0
  3
*D34
  1

  0
LINE
  5
661E
330
4141
100
AcDbEntity
  8
DIM
 62
     0
440
 16777216
370
    -2
100
AcDbLine
 10
-30.79914268138089
 20
-45.97062468493908
 30
0.0
 11
-28.20914268138086
 21
-45.97062468493908
 31
0.0
  0
MTEXT
  5
661F
330
4141
100
AcDbEntity
  8
DIM
 62
     0
440
 16777216
100
AcDbMText
 10
-25.50080934804752
 20
-45.97062468493908
 30
0.0
 40
1.0
 41
0.0
 46
0.0
 71
     5
 72
     1
  1
\A1;17.293
 73
     1
 44
1.0
  0
POINT
  5
6620
330
4141
100
AcDbEntity
  8
Defpoints
 62
     0
440
 16777216
100
AcDbPoint
 10
-31.1741426813809
 20
-45.97062468493908
 30
0.0
  0
POINT
  5
6621
330
4141
100
AcDbEntity
  8
Defpoints
 62
     0
440
 16777216
100
AcDbPoint
 10
-28.20914268138086
 20
-45.97062468493908
 30
0.0
  0
POINT
  5
6622
330
4141
100
AcDbEntity
  8
Defpoints
 62
     0
440
 16777216
100
AcDbPoint
 10
-39.73917362090072
 20
-63.26387733938673
 30
0.0
  0
ENDBLK
  5
4148
330
4141
100
AcDbEntity
  8
0
100
AcDbBlockEnd
  0
BLOCK
  5
4150
330
414A
100
AcDbEntity
  8
0
100
AcDbBlockBegin
  2
*D35
 70
     1
 10
0.0
 20
0.0
 30
0.0
  3
*D35
  1

  0
LINE
  5
6619
330
414A
100
AcDbEntity
  8
DIM
 62
     0
440
 16777216
370
    -2
100
AcDbLine
 10
-30.79914268138089
 20
-48.80812468493918
 30
0.0
 11
-28.20914268138086
 21
-48.80812468493918
 31
0.0
  0
MTEXT
  5
661A
330
414A
100
AcDbEntity
  8
DIM
 62
     0
440
 16777216
100
AcDbMText
 10
-25.50080934804752
 20
-48.80812468493918
 30
0.0
 40
1.0
 41
0.0
 46
0.0
 71
     5
 72
     1
  1
\A1;14.456
 73
     1
 44
1.0
  0
POINT
  5
661B
330
414A
100
AcDbEntity
  8
Defpoints
 62
     0
440
 16777216
100
AcDbPoint
 10
-31.1741426813809
 20
-48.80812468493918
 30
0.0
  0
POINT
  5
661C
330
414A
100
AcDbEntity
  8
Defpoints
 62
     0
440
 16777216
100
AcDbPoint
 10
-28.20914268138086
 20
-48.80812468493918
 30
0.0
  0
POINT
  5
661D
330
414A
100
AcDbEntity
  8
Defpoints
 62
     0
440
 16777216
100
AcDbPoint
 10
-39.73917362090072
 20
-63.26387733938673
 30
0.0
  0
ENDBLK
  5
4151
330
414A
100
AcDbEntity
  8
0
100
AcDbBlockEnd
  0
BLOCK
  5
64C0
330
6465
100
AcDbEntity
  8
0
 62
     1
100
AcDbBlockBegin
  2
A$C1C486BFB
 70
     0
 10
0.0
 20
0.0
 30
0.0
  3
A$C1C486BFB
  1

  0
LINE
  5
6466
330
6465
100
AcDbEntity
  8
TEXT
100
AcDbLine
 10
3.358399951127225
 20
-2.234124479010884
 30
0.0
 11
3.568698014491686
 21
-2.234124479010884
 31
0.0
  0
ARC
  5
6467
330
6465
100
AcDbEntity
  8
TEXT
100
AcDbCircle
 10
5.943452799490941
 20
-1.592377844785403
 30
0.0
 40
0.2950014499973363
100
AcDbArc
 50
180.0
 51
0.0
  0
ARC
  5
6468
330
6465
100
AcDbEntity
  8
TEXT
100
AcDbCircle
 10
5.943452799490941
 20
-1.121830148764785
 30
0.0
 40
0.2950014499973363
100
AcDbArc
 50
357.1912576066922
 51
182.8087423933078
  0
LINE
  5
6469
330
6465
100
AcDbEntity
  8
TEXT
100
AcDbLine
 10
6.238245460325784
 20
-1.522684305559636
 30
0.0
 11
6.238245460325784
 21
-1.603474809165135
 31
0.0
  0
LINE
  5
646A
330
6465
100
AcDbEntity
  8
TEXT
100
AcDbLine
 10
5.858749412858017
 20
-1.428721319365305
 30
0.0
 11
5.858749412858101
 21
-1.669690477398773
 31
0.0
  0
LINE
  5
646B
330
6465
100
AcDbEntity
  8
TEXT
100
AcDbLine
 10
6.027947396961321
 20
-1.522684305559636
 30
0.0
 11
6.027947396961321
 21
-1.675634104691511
 31
0.0
  0
LINE
  5
646C
330
6465
100
AcDbEntity
  8
TEXT
100
AcDbLine
 10
5.858749412858017
 20
-1.291391199021319
 30
0.0
 11
6.027947396961321
 21
-1.291391199021319
 31
0.0
  0
LINE
  5
646D
330
6465
100
AcDbEntity
  8
TEXT
100
AcDbLine
 10
6.027947396961321
 20
-1.522684305559636
 30
0.0
 11
6.238245460325784
 21
-1.522684305559636
 31
0.0
  0
LINE
  5
646E
330
6465
100
AcDbEntity
  8
TEXT
100
AcDbLine
 10
5.858749412858017
 20
-1.428721319365279
 30
0.0
 11
6.238245460325784
 21
-1.428721319365279
 31
0.0
  0
ARC
  5
646F
330
6465
100
AcDbEntity
  8
TEXT
100
AcDbCircle
 10
5.943452799490941
 20
-1.669690477398773
 30
0.0
 40
0.0847033866328986
100
AcDbArc
 50
179.9999999999984
 51
4.023745172363636
  0
ARC
  5
6470
330
6465
100
AcDbEntity
  8
TEXT
100
AcDbCircle
 10
5.943452799490941
 20
-1.047987196525582
 30
0.0
 40
0.0847033866328986
100
AcDbArc
 50
355.9762548273996
 51
180.0
  0
LINE
  5
6471
330
6465
100
AcDbEntity
  8
TEXT
100
AcDbLine
 10
4.245223414138607
 20
-1.820175440125183
 30
0.0
 11
4.245223414138607
 21
-1.88737929478273
 31
0.0
  0
LINE
  5
6472
330
6465
100
AcDbEntity
  8
TEXT
100
AcDbLine
 10
4.102197679725363
 20
-0.8412844101505354
 30
0.0
 11
4.102197679725363
 21
-1.68312618700261
 31
0.0
  0
LINE
  5
6473
330
6465
100
AcDbEntity
  8
TEXT
100
AcDbLine
 10
3.894926350654926
 20
-0.8412844101505354
 30
0.0
 11
4.102197679725363
 21
-0.8412844101505354
 31
0.0
  0
LINE
  5
6474
330
6465
100
AcDbEntity
  8
TEXT
100
AcDbLine
 10
4.245223414138607
 20
-1.88737929478273
 30
0.0
 11
4.455521477503011
 21
-1.88737929478273
 31
0.0
  0
LINE
  5
6475
330
6465
100
AcDbEntity
  8
TEXT
100
AcDbLine
 10
3.894926350654926
 20
-0.8412844101505354
 30
0.0
 11
3.89492635065487
 21
-1.743501361157425
 31
0.0
  0
LINE
  5
6476
330
6465
100
AcDbEntity
  8
TEXT
100
AcDbLine
 10
4.102197679725363
 20
-1.034551486921742
 30
0.0
 11
4.102197679725363
 21
-1.68312618700261
 31
0.0
  0
LINE
  5
6477
330
6465
100
AcDbEntity
  8
TEXT
100
AcDbLine
 10
4.245223414138521
 20
-0.8412844101505354
 30
0.0
 11
4.245223414138521
 21
-1.68312618700261
 31
0.0
  0
LINE
  5
6478
330
6465
100
AcDbEntity
  8
TEXT
100
AcDbLine
 10
4.455521477503011
 20
-0.8412844101505354
 30
0.0
 11
4.455521477503011
 21
-1.88737929478273
 31
0.0
  0
LINE
  5
6479
330
6465
100
AcDbEntity
  8
TEXT
100
AcDbLine
 10
4.068316325072188
 20
-1.88737929478273
 30
0.0
 11
4.106675921840928
 21
-1.88737929478273
 31
0.0
  0
LINE
  5
647A
330
6465
100
AcDbEntity
  8
TEXT
100
AcDbLine
 10
4.245223414138521
 20
-0.8412844101505354
 30
0.0
 11
4.455521477503011
 21
-0.8412844101505354
 31
0.0
  0
ARC
  5
647B
330
6465
100
AcDbEntity
  8
TEXT
100
AcDbCircle
 10
4.173465356754363
 20
-1.68312618700261
 30
0.0
 40
0.0712676770290595
100
AcDbArc
 50
180.0000000000016
 51
359.9999999999984
  0
ARC
  5
647C
330
6465
100
AcDbEntity
  8
TEXT
100
AcDbCircle
 10
4.068316325072188
 20
-1.710962586071474
 30
0.0
 40
0.1764167087112784
100
AcDbArc
 50
190.6286426681376
 51
270.0
  0
ARC
  5
647D
330
6465
100
AcDbEntity
  8
TEXT
100
AcDbCircle
 10
4.106675921840928
 20
-1.710962586071474
 30
0.0
 40
0.1764167087112784
100
AcDbArc
 50
270.0
 51
321.7523418942993
  0
LINE
  5
647E
330
6465
100
AcDbEntity
  8
TEXT
100
AcDbLine
 10
5.33833587246967
 20
-1.70952962847545
 30
0.0
 11
5.33833587246967
 21
-1.006715087852882
 31
0.0
  0
LINE
  5
647F
330
6465
100
AcDbEntity
  8
TEXT
100
AcDbLine
 10
5.128037809105236
 20
-1.68312618700261
 30
0.0
 11
5.128037809105236
 21
-1.034551486921742
 31
0.0
  0
LINE
  5
6480
330
6465
100
AcDbEntity
  8
TEXT
100
AcDbLine
 10
4.985012074691994
 20
-1.68312618700261
 30
0.0
 11
4.985012074691994
 21
-1.034551486921742
 31
0.0
  0
LINE
  5
6481
330
6465
100
AcDbEntity
  8
TEXT
100
AcDbLine
 10
4.774714011327532
 20
-1.87639326377382
 30
0.0
 11
4.774714011327532
 21
-0.3880012313658767
 31
0.0
  0
LINE
  5
6482
330
6465
100
AcDbEntity
  8
TEXT
100
AcDbLine
 10
4.958839825001929
 20
-1.87639326377382
 30
0.0
 11
4.958839825001929
 21
-1.782561201950159
 31
0.0
  0
LINE
  5
6483
330
6465
100
AcDbEntity
  8
TEXT
100
AcDbLine
 10
5.161919163758355
 20
-0.830298379141567
 30
0.0
 11
5.123559566989584
 21
-0.830298379141567
 31
0.0
  0
LINE
  5
6484
330
6465
100
AcDbEntity
  8
TEXT
100
AcDbLine
 10
4.958839825001929
 20
-1.87639326377382
 30
0.0
 11
4.774714011327532
 21
-1.87639326377382
 31
0.0
  0
ARC
  5
6485
330
6465
100
AcDbEntity
  8
TEXT
100
AcDbCircle
 10
5.056770132076152
 20
-1.68312618700261
 30
0.0
 40
0.0712676770290595
100
AcDbArc
 50
180.0
 51
0.0
  0
ARC
  5
6486
330
6465
100
AcDbEntity
  8
TEXT
100
AcDbCircle
 10
5.056770132076152
 20
-1.034551486921684
 30
0.0
 40
0.0712676770290595
100
AcDbArc
 50
0.0000000000016284
 51
179.9999999999984
  0
ARC
  5
6487
330
6465
100
AcDbEntity
  8
TEXT
100
AcDbCircle
 10
5.148483454154572
 20
-1.70952962847545
 30
0.0
 40
0.1898524183151175
100
AcDbArc
 50
202.6235962336636
 51
0.0
  0
LINE
  5
6488
330
6465
100
AcDbEntity
  8
TEXT
100
AcDbLine
 10
4.985012074691994
 20
-0.8975022337991447
 30
0.0
 11
4.985012074691994
 21
-0.3880012313658199
 31
0.0
  0
LINE
  5
6489
330
6465
100
AcDbEntity
  8
TEXT
100
AcDbLine
 10
4.973239823697028
 20
-1.782561201950159
 30
0.0
 11
4.958839825001929
 21
-1.782561201950159
 31
0.0
  0
ARC
  5
648A
330
6465
100
AcDbEntity
  8
TEXT
100
AcDbCircle
 10
5.161919163758355
 20
-1.006715087852823
 30
0.0
 40
0.1764167087112784
100
AcDbArc
 50
0.0
 51
90.0
  0
ARC
  5
648B
330
6465
100
AcDbEntity
  8
TEXT
100
AcDbCircle
 10
5.123559566989584
 20
-1.006715087852823
 30
0.0
 40
0.1764167087112784
100
AcDbArc
 50
90.0
 51
141.7523418942993
  0
LINE
  5
648C
330
6465
100
AcDbEntity
  8
TEXT
100
AcDbLine
 10
1.887142769699053
 20
-1.439696168045514
 30
0.0
 11
1.887142769699053
 21
-1.588288715775544
 31
0.0
  0
LINE
  5
648D
330
6465
100
AcDbEntity
  8
TEXT
100
AcDbLine
 10
1.67684470633462
 20
-1.439696168045514
 30
0.0
 11
1.67684470633462
 21
-1.588288715775544
 31
0.0
  0
LINE
  5
648E
330
6465
100
AcDbEntity
  8
TEXT
100
AcDbLine
 10
1.887142769699053
 20
-1.439696168045514
 30
0.0
 11
1.67684470633462
 21
-1.439696168045514
 31
0.0
  0
LINE
  5
648F
330
6465
100
AcDbEntity
  8
TEXT
100
AcDbLine
 10
1.887142769699053
 20
-0.8095400035934119
 30
0.0
 11
1.67684470633462
 21
-0.8095400035934119
 31
0.0
  0
ARC
  5
6490
330
6465
100
AcDbEntity
  8
TEXT
100
AcDbCircle
 10
3.219852458829548
 20
-1.710962586071474
 30
0.0
 40
0.1764167087112784
100
AcDbArc
 50
270.0
 51
321.7523418942993
  0
ARC
  5
6491
330
6465
100
AcDbEntity
  8
TEXT
100
AcDbCircle
 10
3.181492862060864
 20
-1.710962586071474
 30
0.0
 40
0.1764167087112784
100
AcDbArc
 50
180.0
 51
270.0
  0
LINE
  5
6492
330
6465
100
AcDbEntity
  8
TEXT
100
AcDbLine
 10
3.370172202122076
 20
-0.9351164719741687
 30
0.0
 11
3.384572200817288
 21
-0.9351164719741687
 31
0.0
  0
LINE
  5
6493
330
6465
100
AcDbEntity
  8
TEXT
100
AcDbLine
 10
3.358399951127225
 20
-1.820175440125183
 30
0.0
 11
3.358399951127225
 21
-2.234124479010884
 31
0.0
  0
ARC
  5
6494
330
6465
100
AcDbEntity
  8
TEXT
100
AcDbCircle
 10
3.194928571664646
 20
-1.008148045448905
 30
0.0
 40
0.1898524183151175
100
AcDbArc
 50
22.62359623366362
 51
180.0
  0
LINE
  5
6495
330
6465
100
AcDbEntity
  8
TEXT
100
AcDbLine
 10
4.774714011327532
 20
-0.3880012313658199
 30
0.0
 11
4.985012074691994
 21
-0.3880012313658199
 31
0.0
  0
ARC
  5
6496
330
6465
100
AcDbEntity
  8
TEXT
100
AcDbCircle
 10
3.286641893743066
 20
-1.68312618700261
 30
0.0
 40
0.0712676770290595
100
AcDbArc
 50
180.0000000000016
 51
359.9999999999984
  0
ARC
  5
6497
330
6465
100
AcDbEntity
  8
TEXT
100
AcDbCircle
 10
3.286641893743066
 20
-1.034551486921684
 30
0.0
 40
0.0712676770290595
100
AcDbArc
 50
0.0
 51
180.0
  0
LINE
  5
6498
330
6465
100
AcDbEntity
  8
TEXT
100
AcDbLine
 10
3.384572200817288
 20
-0.8412844101505354
 30
0.0
 11
3.568698014491686
 21
-0.8412844101505354
 31
0.0
  0
LINE
  5
6499
330
6465
100
AcDbEntity
  8
TEXT
100
AcDbLine
 10
2.736812953585753
 20
-0.5666837699718883
 30
0.0
 11
2.736812953585753
 21
-0.3880012313658199
 31
0.0
  0
LINE
  5
649A
330
6465
100
AcDbEntity
  8
TEXT
100
AcDbLine
 10
2.384412367732394
 20
-1.2008794189542
 30
0.0
 11
2.384412367732394
 21
-1.708625940922956
 31
0.0
  0
LINE
  5
649B
330
6465
100
AcDbEntity
  8
TEXT
100
AcDbLine
 10
2.711109856952262
 20
-1.200879418954114
 30
0.0
 11
2.711109856952262
 21
-1.022196880348102
 31
0.0
  0
LINE
  5
649C
330
6465
100
AcDbEntity
  8
TEXT
100
AcDbLine
 10
2.736812953585753
 20
-1.88737929478273
 30
0.0
 11
2.736812953585753
 21
-1.708625940922956
 31
0.0
  0
LINE
  5
649D
330
6465
100
AcDbEntity
  8
TEXT
100
AcDbLine
 10
2.384412367732394
 20
-1.200879418954114
 30
0.0
 11
2.711109856952262
 21
-1.200879418954114
 31
0.0
  0
LINE
  5
649E
330
6465
100
AcDbEntity
  8
TEXT
100
AcDbLine
 10
2.384412367732423
 20
-1.022196880348102
 30
0.0
 11
2.711109856952262
 21
-1.022196880348102
 31
0.0
  0
ARC
  5
649F
330
6465
100
AcDbEntity
  8
TEXT
100
AcDbCircle
 10
1.556014193332698
 20
-1.588288715775544
 30
0.0
 40
0.3306352885118662
100
AcDbArc
 50
180.0
 51
0.0
  0
ARC
  5
64A0
330
6465
100
AcDbEntity
  8
TEXT
100
AcDbCircle
 10
1.556014193332698
 20
-0.6870209951192692
 30
0.0
 40
0.3306352885118662
100
AcDbArc
 50
0.0
 51
180.0
  0
LINE
  5
64A1
330
6465
100
AcDbEntity
  8
TEXT
100
AcDbLine
 10
3.181492862060864
 20
-1.88737929478273
 30
0.0
 11
3.219852458829548
 21
-1.88737929478273
 31
0.0
  0
LINE
  5
64A2
330
6465
100
AcDbEntity
  8
TEXT
100
AcDbLine
 10
2.174114304367904
 20
-0.3880012313658199
 30
0.0
 11
2.736812953585753
 21
-0.3880012313658199
 31
0.0
  0
LINE
  5
64A3
330
6465
100
AcDbEntity
  8
TEXT
100
AcDbLine
 10
2.384412367732394
 20
-0.5666837699718883
 30
0.0
 11
2.736812953585753
 21
-0.5666837699718883
 31
0.0
  0
LINE
  5
64A4
330
6465
100
AcDbEntity
  8
TEXT
100
AcDbLine
 10
2.384412367732394
 20
-1.708625940922956
 30
0.0
 11
2.736812953585753
 21
-1.708625940922956
 31
0.0
  0
LINE
  5
64A5
330
6465
100
AcDbEntity
  8
TEXT
100
AcDbLine
 10
2.174114304367904
 20
-1.88737929478273
 30
0.0
 11
2.736812953585753
 21
-1.88737929478273
 31
0.0
  0
ARC
  5
64A6
330
6465
100
AcDbEntity
  8
TEXT
100
AcDbCircle
 10
1.556014193332698
 20
-1.588288715775544
 30
0.0
 40
0.1203372251474283
100
AcDbArc
 50
180.0
 51
0.0
  0
ARC
  5
64A7
330
6465
100
AcDbEntity
  8
TEXT
100
AcDbCircle
 10
1.556014193332698
 20
-0.6870209951192692
 30
0.0
 40
0.1203372251474283
100
AcDbArc
 50
0.0
 51
180.0
  0
LINE
  5
64A8
330
6465
100
AcDbEntity
  8
TEXT
100
AcDbLine
 10
6.238245460325784
 20
-1.110733184384883
 30
0.0
 11
6.238245460325784
 21
-1.428721319365279
 31
0.0
  0
LINE
  5
64A9
330
6465
100
AcDbEntity
  8
TEXT
100
AcDbLine
 10
6.027947396961321
 20
-1.042043569232419
 30
0.0
 11
6.027947396961321
 21
-1.291391199021319
 31
0.0
  0
LINE
  5
64AA
330
6465
100
AcDbEntity
  8
TEXT
100
AcDbLine
 10
5.858749412858017
 20
-1.047987196525582
 30
0.0
 11
5.858749412858017
 21
-1.291391199021319
 31
0.0
  0
LINE
  5
64AB
330
6465
100
AcDbEntity
  8
TEXT
100
AcDbLine
 10
5.648451349493669
 20
-1.121830148764813
 30
0.0
 11
5.648451349493669
 21
-1.592377844785403
 31
0.0
  0
LINE
  5
64AC
330
6465
100
AcDbEntity
  8
TEXT
100
AcDbLine
 10
3.384572200817288
 20
-0.8412844101505354
 30
0.0
 11
3.384572200817288
 21
-0.9351164719741687
 31
0.0
  0
LINE
  5
64AD
330
6465
100
AcDbEntity
  8
TEXT
100
AcDbLine
 10
3.568698014491686
 20
-0.8412844101505354
 30
0.0
 11
3.568698014491686
 21
-2.234124479010884
 31
0.0
  0
LINE
  5
64AE
330
6465
100
AcDbEntity
  8
TEXT
100
AcDbLine
 10
3.358399951127225
 20
-1.034551486921742
 30
0.0
 11
3.358399951127225
 21
-1.68312618700261
 31
0.0
  0
LINE
  5
64AF
330
6465
100
AcDbEntity
  8
TEXT
100
AcDbLine
 10
3.215374216713982
 20
-1.034551486921742
 30
0.0
 11
3.215374216713982
 21
-1.68312618700261
 31
0.0
  0
LINE
  5
64B0
330
6465
100
AcDbEntity
  8
TEXT
100
AcDbLine
 10
3.005076153349548
 20
-1.008148045448905
 30
0.0
 11
3.005076153349548
 21
-1.710962586071474
 31
0.0
  0
LINE
  5
64B1
330
6465
100
AcDbEntity
  8
TEXT
100
AcDbLine
 10
2.384412367732394
 20
-0.5666837699718883
 30
0.0
 11
2.384412367732423
 21
-1.022196880348102
 31
0.0
  0
LINE
  5
64B2
330
6465
100
AcDbEntity
  8
TEXT
100
AcDbLine
 10
2.174114304367904
 20
-0.3880012313658767
 30
0.0
 11
2.174114304367904
 21
-1.88737929478273
 31
0.0
  0
LINE
  5
64B3
330
6465
100
AcDbEntity
  8
TEXT
100
AcDbLine
 10
1.67684470633462
 20
-0.6870209951192692
 30
0.0
 11
1.67684470633462
 21
-0.8095400035934119
 31
0.0
  0
LINE
  5
64B4
330
6465
100
AcDbEntity
  8
TEXT
100
AcDbLine
 10
1.887142769699053
 20
-0.6870209951192692
 30
0.0
 11
1.887142769699053
 21
-0.8095400035934119
 31
0.0
  0
LINE
  5
64B5
330
6465
100
AcDbEntity
  8
TEXT
100
AcDbLine
 10
1.435676968185262
 20
-0.6870209951192976
 30
0.0
 11
1.435676968185262
 21
-1.588288715775544
 31
0.0
  0
LINE
  5
64B6
330
6465
100
AcDbEntity
  8
TEXT
100
AcDbLine
 10
1.225378904820829
 20
-0.6870209951192976
 30
0.0
 11
1.225378904820829
 21
-1.588288715775544
 31
0.0
  0
LINE
  5
64B7
330
6465
100
AcDbEntity
  8
TEXT
100
AcDbLine
 10
0.9056912715187051
 20
-0.3880012313658767
 30
0.0
 11
0.9056912715187051
 21
-1.88737929478273
 31
0.0
  0
LINE
  5
64B8
330
6465
100
AcDbEntity
  8
TEXT
100
AcDbLine
 10
0.6953932081542435
 20
-0.3880012313658767
 30
0.0
 11
0.6953932081542435
 21
-1.88737929478273
 31
0.0
  0
LINE
  5
64B9
330
6465
100
AcDbEntity
  8
TEXT
100
AcDbLine
 10
0.6953932081542435
 20
-1.88737929478273
 30
0.0
 11
0.9056912715187051
 21
-1.88737929478273
 31
0.0
  0
LINE
  5
64BA
330
6465
100
AcDbEntity
  8
TEXT
100
AcDbLine
 10
0.6953932081542435
 20
-0.3880012313658199
 30
0.0
 11
0.9056912715187051
 21
-0.3880012313658199
 31
0.0
  0
TEXT
  5
64BB
330
6465
100
AcDbEntity
  8
TEXT
100
AcDbText
 10
8.245080991442204
 20
-2.340034265477263
 30
0.0
 40
0.1874844048396501
  1
FAX  724-837-3386
 72
     1
 11
9.807451031772622
 21
-2.246292063057438
 31
0.0
100
AcDbText
 73
     2
  0
TEXT
  5
64BC
330
6465
100
AcDbEntity
  8
TEXT
100
AcDbText
 10
8.276328392248812
 20
-0.840159026759998
 30
0.0
 40
0.1874844048396501
  1
141 WILSON AVENUE
 72
     1
 11
9.807451031772622
 21
-0.746416824340173
 31
0.0
100
AcDbText
 73
     2
  0
TEXT
  5
64BD
330
6465
100
AcDbEntity
  8
TEXT
100
AcDbText
 10
7.995101784989337
 20
-1.340117439665753
 30
0.0
 40
0.1874844048396501
  1
GREENSBURG, PA  15601
 72
     1
 11
9.807451031772622
 21
-1.246375237245928
 31
0.0
100
AcDbText
 73
     2
  0
TEXT
  5
64BE
330
6465
100
AcDbEntity
  8
TEXT
100
AcDbText
 10
7.338906368050561
 20
-0.3651985344996186
 30
0.0
 40
0.1874844048396501
  1
INDUSTRIAL COOLING EQUIPMENT
 72
     1
 11
9.807451031772622
 21
-0.2714563320797936
 31
0.0
100
AcDbText
 73
     2
  0
TEXT
  5
64BF
330
6465
100
AcDbEntity
  8
TEXT
100
AcDbText
 10
6.979561258774566
 20
-1.840075852571508
 30
0.0
 40
0.1874844048396501
  1
724-837-2204  *  1-888-867-8234
 72
     1
 11
9.807451031772622
 21
-1.746333650151683
 31
0.0
100
AcDbText
 73
     2
  0
ENDBLK
  5
64C1
330
6465
100
AcDbEntity
  8
0
 62
     1
100
AcDbBlockEnd
  0
BLOCK
  5
67BD
330
67BC
100
AcDbEntity
  8
0
100
AcDbBlockBegin
  2
*D38
 70
     1
 10
0.0
 20
0.0
 30
0.0
  3
*D38
  1

  0
LINE
  5
6806
330
67BC
100
AcDbEntity
  8
DIM
 62
     0
440
 16777216
370
    -2
100
AcDbLine
 10
-30.66114013594782
 20
-49.57687974896217
 30
0.0
 11
-36.95614980824533
 21
-49.57687974896217
 31
0.0
  0
LINE
  5
6807
330
67BC
100
AcDbEntity
  8
DIM
 62
     0
440
 16777216
370
    -2
100
AcDbLine
 10
-36.95614980824533
 20
-49.57687974896217
 30
0.0
 11
-38.95614980824534
 21
-49.57487579271344
 31
0.0
  0
LINE
  5
6808
330
67BC
100
AcDbEntity
  8
DIM
 62
     0
440
 16777216
370
    -2
100
AcDbLine
 10
-38.95614980824534
 20
-49.57487579271344
 30
0.0
 11
-40.95614980824533
 21
-49.57487579271344
 31
0.0
  0
MTEXT
  5
6809
330
67BC
100
AcDbEntity
  8
DIM
 62
     0
440
 16777216
100
AcDbMText
 10
-43.66448314157866
 20
-49.57487579271344
 30
0.0
 40
1.0
 41
0.0
 46
0.0
 71
     5
 72
     1
  1
\A1;13.687
 73
     1
 44
1.0
  0
POINT
  5
680A
330
67BC
100
AcDbEntity
  8
Defpoints
 62
     0
440
 16777216
100
AcDbPoint
 10
-30.28614013594782
 20
-49.57687974896217
 30
0.0
  0
POINT
  5
680B
330
67BC
100
AcDbEntity
  8
Defpoints
 62
     0
440
 16777216
100
AcDbPoint
 10
-40.95614980824533
 20
-49.57487579271344
 30
0.0
  0
POINT
  5
680C
330
67BC
100
AcDbEntity
  8
Defpoints
 62
     0
440
 16777216
100
AcDbPoint
 10
-39.73914013594782
 20
-63.26387974896217
 30
0.0
  0
ENDBLK
  5
67BE
330
67BC
100
AcDbEntity
  8
0
100
AcDbBlockEnd
  0
BLOCK
  5
6810
330
680F
100
AcDbEntity
  8
0
100
AcDbBlockBegin
  2
*D39
 70
     1
 10
0.0
 20
0.0
 30
0.0
  3
*D39
  1

  0
LINE
  5
7046
330
680F
100
AcDbEntity
  8
DIM
 62
     0
440
 16777216
370
    -2
100
AcDbLine
 10
-26.08756286961208
 20
-53.7978407885931
 30
0.0
 11
-27.08756286961209
 21
-53.7978407885931
 31
0.0
  0
LINE
  5
7047
330
680F
100
AcDbEntity
  8
DIM
 62
     0
440
 16777216
370
    -2
100
AcDbLine
 10
-27.08756286961209
 20
-53.7978407885931
 30
0.0
 11
-29.30469994094268
 21
-50.87202458396261
 31
0.0
  0
MTEXT
  5
7048
102
{ACAD_XDICTIONARY
360
70D5
102
}
330
680F
100
AcDbEntity
  8
DIM
 62
     0
440
 16777216
100
AcDbMText
 10
-22.04589620294542
 20
-53.7978407885931
 30
0.0
 40
1.0
 41
0.0
 46
0.0
 71
     5
 72
     1
  1
\A1;∅1.250\POMIT FOR \PIQ150FPW \PEXHAUST
 73
     1
 44
1.0
  0
SOLID
  5
7049
330
680F
100
AcDbEntity
  8
DIM
 62
     0
440
 16777216
100
AcDbTrace
 10
-29.17186457325033
 20
-50.77136405114157
 30
0.0
 11
-29.43753530863502
 21
-50.97268511678365
 31
0.0
 12
-29.90866313786892
 22
-50.07501237780851
 32
0.0
 13
-29.90866313786892
 23
-50.07501237780851
 33
0.0
  0
LINE
  5
704A
330
680F
100
AcDbEntity
  8
DIM
 62
     0
440
 16777216
370
    -2
100
AcDbLine
 10
-30.37614013594782
 20
-49.57687974896218
 30
0.0
 11
-30.19614013594782
 21
-49.5768797489622
 31
0.0
  0
LINE
  5
704B
330
680F
100
AcDbEntity
  8
DIM
 62
     0
440
 16777216
370
    -2
100
AcDbLine
 10
-30.28614013594782
 20
-49.66687974896219
 30
0.0
 11
-30.28614013594782
 21
-49.48687974896218
 31
0.0
  0
POINT
  5
704C
330
680F
100
AcDbEntity
  8
Defpoints
 62
     0
440
 16777216
100
AcDbPoint
 10
-29.90866313786892
 20
-50.07501237780851
 30
0.0
  0
POINT
  5
704D
330
680F
100
AcDbEntity
  8
Defpoints
 62
     0
440
 16777216
100
AcDbPoint
 10
-30.66361713402673
 20
-49.07874712011588
 30
0.0
  0
ENDBLK
  5
6811
330
680F
100
AcDbEntity
  8
0
100
AcDbBlockEnd
  0
BLOCK
  5
6856
330
6855
100
AcDbEntity
  8
0
100
AcDbBlockBegin
  2
*D40
 70
     1
 10
0.0
 20
0.0
 30
0.0
  3
*D40
  1

  0
LINE
  5
6857
330
6855
100
AcDbEntity
  8
DIM
 62
     0
440
 16777216
370
    -2
100
AcDbLine
 10
-40.11414268138081
 20
-63.26387468493916
 30
0.0
 11
-40.73914268138081
 21
-63.26387468493916
 31
0.0
  0
MTEXT
  5
6858
330
6855
100
AcDbEntity
  8
DIM
 62
     0
440
 16777216
100
AcDbMText
 10
-42.78080934804749
 20
-63.26387468493916
 30
0.0
 40
1.0
 41
0.0
 46
0.0
 71
     5
 72
     1
  1
\A1;0.000
 73
     1
 44
1.0
  0
POINT
  5
6859
330
6855
100
AcDbEntity
  8
Defpoints
 62
     0
440
 16777216
100
AcDbPoint
 10
-39.73914268138083
 20
-63.26387468493916
 30
0.0
  0
POINT
  5
685A
330
6855
100
AcDbEntity
  8
Defpoints
 62
     0
440
 16777216
100
AcDbPoint
 10
-40.73914268138081
 20
-63.26387468493916
 30
0.0
  0
POINT
  5
685B
330
6855
100
AcDbEntity
  8
Defpoints
 62
     0
440
 16777216
100
AcDbPoint
 10
-39.73914013594782
 20
-63.26387974896217
 30
0.0
  0
ENDBLK
  5
685C
330
6855
100
AcDbEntity
  8
0
100
AcDbBlockEnd
  0
BLOCK
  5
685E
330
685D
100
AcDbEntity
  8
0
100
AcDbBlockBegin
  2
*D41
 70
     1
 10
0.0
 20
0.0
 30
0.0
  3
*D41
  1

  0
LINE
  5
685F
330
685D
100
AcDbEntity
  8
DIM
 62
     0
440
 16777216
370
    -2
100
AcDbLine
 10
-39.73914268138083
 20
-63.63887468493913
 30
0.0
 11
-39.73914268138083
 21
-64.26387468493913
 31
0.0
  0
MTEXT
  5
6860
330
685D
100
AcDbEntity
  8
DIM
 62
     0
440
 16777216
100
AcDbMText
 10
-39.73914268138082
 20
-66.30554135160584
 30
0.0
 40
1.0
 41
0.0
 46
0.0
 71
     5
 72
     1
  1
\A1;0.000
 11
0.0000000000000001
 21
1.0
 31
0.0
 73
     1
 44
1.0
  0
POINT
  5
6861
330
685D
100
AcDbEntity
  8
Defpoints
 62
     0
440
 16777216
100
AcDbPoint
 10
-39.73914268138083
 20
-63.26387468493916
 30
0.0
  0
POINT
  5
6862
330
685D
100
AcDbEntity
  8
Defpoints
 62
     0
440
 16777216
100
AcDbPoint
 10
-39.73914268138083
 20
-64.26387468493913
 30
0.0
  0
POINT
  5
6863
330
685D
100
AcDbEntity
  8
Defpoints
 62
     0
440
 16777216
100
AcDbPoint
 10
-39.73914013594782
 20
-63.26387974896217
 30
0.0
  0
ENDBLK
  5
6864
330
685D
100
AcDbEntity
  8
0
100
AcDbBlockEnd
  0
BLOCK
  5
6866
330
6865
100
AcDbEntity
  8
0
100
AcDbBlockBegin
  2
*D42
 70
     1
 10
0.0
 20
0.0
 30
0.0
  3
*D42
  1

  0
LINE
  5
6867
330
6865
100
AcDbEntity
  8
DIM
 62
     0
440
 16777216
370
    -2
100
AcDbLine
 10
-40.11414268138081
 20
-45.25387468493915
 30
0.0
 11
-40.73914268138081
 21
-45.25387468493915
 31
0.0
  0
MTEXT
  5
6868
330
6865
100
AcDbEntity
  8
DIM
 62
     0
440
 16777216
100
AcDbMText
 10
-43.11414268138082
 20
-45.25387468493915
 30
0.0
 40
1.0
 41
0.0
 46
0.0
 71
     5
 72
     1
  1
\A1;18.010
 73
     1
 44
1.0
  0
POINT
  5
6869
330
6865
100
AcDbEntity
  8
Defpoints
 62
     0
440
 16777216
100
AcDbPoint
 10
-39.73914268138083
 20
-45.25387468493915
 30
0.0
  0
POINT
  5
686A
330
6865
100
AcDbEntity
  8
Defpoints
 62
     0
440
 16777216
100
AcDbPoint
 10
-40.73914268138081
 20
-45.25387468493915
 30
0.0
  0
POINT
  5
686B
330
6865
100
AcDbEntity
  8
Defpoints
 62
     0
440
 16777216
100
AcDbPoint
 10
-39.73917362090072
 20
-63.26387733938673
 30
0.0
  0
ENDBLK
  5
686C
330
6865
100
AcDbEntity
  8
0
100
AcDbBlockEnd
  0
BLOCK
  5
686E
330
686D
100
AcDbEntity
  8
0
100
AcDbBlockBegin
  2
*D43
 70
     1
 10
0.0
 20
0.0
 30
0.0
  3
*D43
  1

  0
LINE
  5
686F
330
686D
100
AcDbEntity
  8
DIM
 62
     0
440
 16777216
370
    -2
100
AcDbLine
 10
-29.20914268138086
 20
-44.87887468493915
 30
0.0
 11
-29.20914268138086
 21
-44.25387468493915
 31
0.0
  0
MTEXT
  5
6870
330
686D
100
AcDbEntity
  8
DIM
 62
     0
440
 16777216
100
AcDbMText
 10
-29.20914268138086
 20
-41.71220801827248
 30
0.0
 40
1.0
 41
0.0
 46
0.0
 71
     5
 72
     1
  1
\A1;10.530
 11
0.0000000000000001
 21
1.0
 31
0.0
 73
     1
 44
1.0
  0
POINT
  5
6871
330
686D
100
AcDbEntity
  8
Defpoints
 62
     0
440
 16777216
100
AcDbPoint
 10
-29.20914268138086
 20
-45.25387468493915
 30
0.0
  0
POINT
  5
6872
330
686D
100
AcDbEntity
  8
Defpoints
 62
     0
440
 16777216
100
AcDbPoint
 10
-29.20914268138086
 20
-44.25387468493915
 30
0.0
  0
POINT
  5
6873
330
686D
100
AcDbEntity
  8
Defpoints
 62
     0
440
 16777216
100
AcDbPoint
 10
-39.73917362090072
 20
-63.26387733938673
 30
0.0
  0
ENDBLK
  5
6874
330
686D
100
AcDbEntity
  8
0
100
AcDbBlockEnd
  0
BLOCK
  5
6876
330
6875
100
AcDbEntity
  8
0
100
AcDbBlockBegin
  2
*D44
 70
     1
 10
0.0
 20
0.0
 30
0.0
  3
*D44
  1

  0
LINE
  5
6877
330
6875
100
AcDbEntity
  8
DIM
 62
     0
440
 16777216
370
    -2
100
AcDbLine
 10
-39.03664268138073
 20
-55.26387468493915
 30
0.0
 11
-40.73914268138081
 21
-55.26387468493915
 31
0.0
  0
MTEXT
  5
6878
330
6875
100
AcDbEntity
  8
DIM
 62
     0
440
 16777216
100
AcDbMText
 10
-44.53080934804748
 20
-55.26387468493915
 30
0.0
 40
1.0
 41
0.0
 46
0.0
 71
     5
 72
     1
  1
\A1;(2) 8.000
 73
     1
 44
1.0
  0
POINT
  5
6879
330
6875
100
AcDbEntity
  8
Defpoints
 62
     0
440
 16777216
100
AcDbPoint
 10
-38.66164268138073
 20
-55.26387468493915
 30
0.0
  0
POINT
  5
687A
330
6875
100
AcDbEntity
  8
Defpoints
 62
     0
440
 16777216
100
AcDbPoint
 10
-40.73914268138081
 20
-55.26387468493915
 30
0.0
  0
POINT
  5
687B
330
6875
100
AcDbEntity
  8
Defpoints
 62
     0
440
 16777216
100
AcDbPoint
 10
-39.73917362090072
 20
-63.26387733938673
 30
0.0
  0
ENDBLK
  5
687C
330
6875
100
AcDbEntity
  8
0
100
AcDbBlockEnd
  0
BLOCK
  5
687E
330
687D
100
AcDbEntity
  8
0
100
AcDbBlockBegin
  2
*D45
 70
     1
 10
0.0
 20
0.0
 30
0.0
  3
*D45
  1

  0
LINE
  5
687F
330
687D
100
AcDbEntity
  8
DIM
 62
     0
440
 16777216
370
    -2
100
AcDbLine
 10
-39.03664268138073
 20
-61.01387468493914
 30
0.0
 11
-40.73914268138081
 21
-61.01387468493914
 31
0.0
  0
MTEXT
  5
6880
330
687D
100
AcDbEntity
  8
DIM
 62
     0
440
 16777216
100
AcDbMText
 10
-44.69747601471414
 20
-61.01387468493914
 30
0.0
 40
1.0
 41
0.0
 46
0.0
 71
     5
 72
     1
  1
\A1;(2) 2.250
 73
     1
 44
1.0
  0
POINT
  5
6881
330
687D
100
AcDbEntity
  8
Defpoints
 62
     0
440
 16777216
100
AcDbPoint
 10
-38.66164268138073
 20
-61.01387468493914
 30
0.0
  0
POINT
  5
6882
330
687D
100
AcDbEntity
  8
Defpoints
 62
     0
440
 16777216
100
AcDbPoint
 10
-40.73914268138081
 20
-61.01387468493914
 30
0.0
  0
POINT
  5
6883
330
687D
100
AcDbEntity
  8
Defpoints
 62
     0
440
 16777216
100
AcDbPoint
 10
-39.73917362090072
 20
-63.26387733938673
 30
0.0
  0
ENDBLK
  5
6884
330
687D
100
AcDbEntity
  8
0
100
AcDbBlockEnd
  0
BLOCK
  5
6886
330
6885
100
AcDbEntity
  8
0
100
AcDbBlockBegin
  2
*D46
 70
     1
 10
0.0
 20
0.0
 30
0.0
  3
*D46
  1

  0
LINE
  5
6887
330
6885
100
AcDbEntity
  8
DIM
 62
     0
440
 16777216
370
    -2
100
AcDbLine
 10
-39.03664268138073
 20
-47.57687468493903
 30
0.0
 11
-40.73914268138081
 21
-47.57687468493903
 31
0.0
  0
MTEXT
  5
6888
330
6885
100
AcDbEntity
  8
DIM
 62
     0
440
 16777216
100
AcDbMText
 10
-45.11414268138081
 20
-47.57687468493903
 30
0.0
 40
1.0
 41
0.0
 46
0.0
 71
     5
 72
     1
  1
\A1;(2) 15.687
 73
     1
 44
1.0
  0
POINT
  5
6889
330
6885
100
AcDbEntity
  8
Defpoints
 62
     0
440
 16777216
100
AcDbPoint
 10
-38.66164268138073
 20
-47.57687468493903
 30
0.0
  0
POINT
  5
688A
330
6885
100
AcDbEntity
  8
Defpoints
 62
     0
440
 16777216
100
AcDbPoint
 10
-40.73914268138081
 20
-47.57687468493903
 30
0.0
  0
POINT
  5
688B
330
6885
100
AcDbEntity
  8
Defpoints
 62
     0
440
 16777216
100
AcDbPoint
 10
-39.73917362090072
 20
-63.26387733938673
 30
0.0
  0
ENDBLK
  5
688C
330
6885
100
AcDbEntity
  8
0
100
AcDbBlockEnd
  0
BLOCK
  5
688E
330
688D
100
AcDbEntity
  8
0
100
AcDbBlockBegin
  2
*D47
 70
     1
 10
0.0
 20
0.0
 30
0.0
  3
*D47
  1

  0
LINE
  5
688F
330
688D
100
AcDbEntity
  8
DIM
 62
     0
440
 16777216
370
    -2
100
AcDbLine
 10
-30.28664268138073
 20
-61.38887468493914
 30
0.0
 11
-30.28664268138073
 21
-64.26387468493913
 31
0.0
  0
MTEXT
  5
6890
330
688D
100
AcDbEntity
  8
DIM
 62
     0
440
 16777216
100
AcDbMText
 10
-30.28664268138072
 20
-67.80554135160581
 30
0.0
 40
1.0
 41
0.0
 46
0.0
 71
     5
 72
     1
  1
\A1;(4)9.453
 11
0.0000000000000001
 21
1.0
 31
0.0
 73
     1
 44
1.0
  0
POINT
  5
6891
330
688D
100
AcDbEntity
  8
Defpoints
 62
     0
440
 16777216
100
AcDbPoint
 10
-30.28664268138073
 20
-61.01387468493914
 30
0.0
  0
POINT
  5
6892
330
688D
100
AcDbEntity
  8
Defpoints
 62
     0
440
 16777216
100
AcDbPoint
 10
-30.28664268138073
 20
-64.26387468493913
 30
0.0
  0
POINT
  5
6893
330
688D
100
AcDbEntity
  8
Defpoints
 62
     0
440
 16777216
100
AcDbPoint
 10
-39.73917362090072
 20
-63.26387733938673
 30
0.0
  0
ENDBLK
  5
6894
330
688D
100
AcDbEntity
  8
0
100
AcDbBlockEnd
  0
BLOCK
  5
6896
330
6895
100
AcDbEntity
  8
0
100
AcDbBlockBegin
  2
*D48
 70
     1
 10
0.0
 20
0.0
 30
0.0
  3
*D48
  1

  0
LINE
  5
6897
330
6895
100
AcDbEntity
  8
DIM
 62
     0
440
 16777216
370
    -2
100
AcDbLine
 10
-37.77414268138083
 20
-45.59562468493907
 30
0.0
 11
-37.77414268138083
 21
-44.25387468493915
 31
0.0
  0
MTEXT
  5
6898
330
6895
100
AcDbEntity
  8
DIM
 62
     0
440
 16777216
100
AcDbMText
 10
-37.77414268138083
 20
-42.04554135160582
 30
0.0
 40
1.0
 41
0.0
 46
0.0
 71
     5
 72
     1
  1
\A1;1.965
 11
0.0000000000000001
 21
1.0
 31
0.0
 73
     1
 44
1.0
  0
POINT
  5
6899
330
6895
100
AcDbEntity
  8
Defpoints
 62
     0
440
 16777216
100
AcDbPoint
 10
-37.77414268138083
 20
-45.97062468493906
 30
0.0
  0
POINT
  5
689A
330
6895
100
AcDbEntity
  8
Defpoints
 62
     0
440
 16777216
100
AcDbPoint
 10
-37.77414268138083
 20
-44.25387468493915
 30
0.0
  0
POINT
  5
689B
330
6895
100
AcDbEntity
  8
Defpoints
 62
     0
440
 16777216
100
AcDbPoint
 10
-39.73917362090072
 20
-63.26387733938673
 30
0.0
  0
ENDBLK
  5
689C
330
6895
100
AcDbEntity
  8
0
100
AcDbBlockEnd
  0
BLOCK
  5
689E
330
689D
100
AcDbEntity
  8
0
100
AcDbBlockBegin
  2
*D49
 70
     1
 10
0.0
 20
0.0
 30
0.0
  3
*D49
  1

  0
LINE
  5
689F
330
689D
100
AcDbEntity
  8
DIM
 62
     0
440
 16777216
370
    -2
100
AcDbLine
 10
-31.1741426813809
 20
-45.59562468493908
 30
0.0
 11
-31.1741426813809
 21
-44.25387468493915
 31
0.0
  0
MTEXT
  5
68A0
330
689D
100
AcDbEntity
  8
DIM
 62
     0
440
 16777216
100
AcDbMText
 10
-31.17414268138088
 20
-41.87887468493914
 30
0.0
 40
1.0
 41
0.0
 46
0.0
 71
     5
 72
     1
  1
\A1;8.565
 11
0.0000000000000001
 21
1.0
 31
0.0
 73
     1
 44
1.0
  0
POINT
  5
68A1
330
689D
100
AcDbEntity
  8
Defpoints
 62
     0
440
 16777216
100
AcDbPoint
 10
-31.1741426813809
 20
-45.97062468493908
 30
0.0
  0
POINT
  5
68A2
330
689D
100
AcDbEntity
  8
Defpoints
 62
     0
440
 16777216
100
AcDbPoint
 10
-31.1741426813809
 20
-44.25387468493915
 30
0.0
  0
POINT
  5
68A3
330
689D
100
AcDbEntity
  8
Defpoints
 62
     0
440
 16777216
100
AcDbPoint
 10
-39.73917362090072
 20
-63.26387733938673
 30
0.0
  0
ENDBLK
  5
68A4
330
689D
100
AcDbEntity
  8
0
100
AcDbBlockEnd
  0
BLOCK
  5
68A6
330
68A5
100
AcDbEntity
  8
0
100
AcDbBlockBegin
  2
*D50
 70
     1
 10
0.0
 20
0.0
 30
0.0
  3
*D50
  1

  0
LINE
  5
68A7
330
68A5
100
AcDbEntity
  8
DIM
 62
     0
440
 16777216
370
    -2
100
AcDbLine
 10
-30.79914268138089
 20
-45.97062468493908
 30
0.0
 11
-28.20914268138086
 21
-45.97062468493908
 31
0.0
  0
MTEXT
  5
68A8
330
68A5
100
AcDbEntity
  8
DIM
 62
     0
440
 16777216
100
AcDbMText
 10
-25.50080934804752
 20
-45.97062468493908
 30
0.0
 40
1.0
 41
0.0
 46
0.0
 71
     5
 72
     1
  1
\A1;17.293
 73
     1
 44
1.0
  0
POINT
  5
68A9
330
68A5
100
AcDbEntity
  8
Defpoints
 62
     0
440
 16777216
100
AcDbPoint
 10
-31.1741426813809
 20
-45.97062468493908
 30
0.0
  0
POINT
  5
68AA
330
68A5
100
AcDbEntity
  8
Defpoints
 62
     0
440
 16777216
100
AcDbPoint
 10
-28.20914268138086
 20
-45.97062468493908
 30
0.0
  0
POINT
  5
68AB
330
68A5
100
AcDbEntity
  8
Defpoints
 62
     0
440
 16777216
100
AcDbPoint
 10
-39.73917362090072
 20
-63.26387733938673
 30
0.0
  0
ENDBLK
  5
68AC
330
68A5
100
AcDbEntity
  8
0
100
AcDbBlockEnd
  0
BLOCK
  5
68AE
330
68AD
100
AcDbEntity
  8
0
100
AcDbBlockBegin
  2
*D51
 70
     1
 10
0.0
 20
0.0
 30
0.0
  3
*D51
  1

  0
LINE
  5
68AF
330
68AD
100
AcDbEntity
  8
DIM
 62
     0
440
 16777216
370
    -2
100
AcDbLine
 10
-30.79914268138089
 20
-48.80812468493918
 30
0.0
 11
-28.20914268138086
 21
-48.80812468493918
 31
0.0
  0
MTEXT
  5
68B0
330
68AD
100
AcDbEntity
  8
DIM
 62
     0
440
 16777216
100
AcDbMText
 10
-25.50080934804752
 20
-48.80812468493918
 30
0.0
 40
1.0
 41
0.0
 46
0.0
 71
     5
 72
     1
  1
\A1;14.456
 73
     1
 44
1.0
  0
POINT
  5
68B1
330
68AD
100
AcDbEntity
  8
Defpoints
 62
     0
440
 16777216
100
AcDbPoint
 10
-31.1741426813809
 20
-48.80812468493918
 30
0.0
  0
POINT
  5
68B2
330
68AD
100
AcDbEntity
  8
Defpoints
 62
     0
440
 16777216
100
AcDbPoint
 10
-28.20914268138086
 20
-48.80812468493918
 30
0.0
  0
POINT
  5
68B3
330
68AD
100
AcDbEntity
  8
Defpoints
 62
     0
440
 16777216
100
AcDbPoint
 10
-39.73917362090072
 20
-63.26387733938673
 30
0.0
  0
ENDBLK
  5
68B4
330
68AD
100
AcDbEntity
  8
0
100
AcDbBlockEnd
  0
BLOCK
  5
68B6
330
68B5
100
AcDbEntity
  8
0
100
AcDbBlockBegin
  2
*D52
 70
     1
 10
0.0
 20
0.0
 30
0.0
  3
*D52
  1

  0
LINE
  5
68B7
330
68B5
100
AcDbEntity
  8
DIM
 62
     0
440
 16777216
370
    -2
100
AcDbLine
 10
-30.66114013594782
 20
-49.57687974896217
 30
0.0
 11
-36.95614980824533
 21
-49.57687974896217
 31
0.0
  0
LINE
  5
68B8
330
68B5
100
AcDbEntity
  8
DIM
 62
     0
440
 16777216
370
    -2
100
AcDbLine
 10
-36.95614980824533
 20
-49.57687974896217
 30
0.0
 11
-38.95614980824534
 21
-49.57487579271344
 31
0.0
  0
LINE
  5
68B9
330
68B5
100
AcDbEntity
  8
DIM
 62
     0
440
 16777216
370
    -2
100
AcDbLine
 10
-38.95614980824534
 20
-49.57487579271344
 30
0.0
 11
-40.95614980824533
 21
-49.57487579271344
 31
0.0
  0
MTEXT
  5
68BA
330
68B5
100
AcDbEntity
  8
DIM
 62
     0
440
 16777216
100
AcDbMText
 10
-43.66448314157866
 20
-49.57487579271344
 30
0.0
 40
1.0
 41
0.0
 46
0.0
 71
     5
 72
     1
  1
\A1;13.687
 73
     1
 44
1.0
  0
POINT
  5
68BB
330
68B5
100
AcDbEntity
  8
Defpoints
 62
     0
440
 16777216
100
AcDbPoint
 10
-30.28614013594782
 20
-49.57687974896217
 30
0.0
  0
POINT
  5
68BC
330
68B5
100
AcDbEntity
  8
Defpoints
 62
     0
440
 16777216
100
AcDbPoint
 10
-40.95614980824533
 20
-49.57487579271344
 30
0.0
  0
POINT
  5
68BD
330
68B5
100
AcDbEntity
  8
Defpoints
 62
     0
440
 16777216
100
AcDbPoint
 10
-39.73914013594782
 20
-63.26387974896217
 30
0.0
  0
ENDBLK
  5
68BE
330
68B5
100
AcDbEntity
  8
0
100
AcDbBlockEnd
  0
BLOCK
  5
68C0
330
68BF
100
AcDbEntity
  8
0
100
AcDbBlockBegin
  2
*D53
 70
     1
 10
0.0
 20
0.0
 30
0.0
  3
*D53
  1

  0
LINE
  5
68C1
330
68BF
100
AcDbEntity
  8
DIM
 62
     0
440
 16777216
370
    -2
100
AcDbLine
 10
-33.87431038145097
 20
-50.98467387197246
 30
0.0
 11
-32.87431038145097
 21
-50.98467387197246
 31
0.0
  0
LINE
  5
68C2
330
68BF
100
AcDbEntity
  8
DIM
 62
     0
440
 16777216
370
    -2
100
AcDbLine
 10
-32.87431038145097
 20
-50.98467387197246
 30
0.0
 11
-31.7136318523151
 21
-50.35334120950146
 31
0.0
  0
MTEXT
  5
68C3
102
{ACAD_XDICTIONARY
360
70CD
102
}
330
68BF
100
AcDbEntity
  8
DIM
 62
     0
440
 16777216
100
AcDbMText
 10
-36.49931038145097
 20
-50.98467387197246
 30
0.0
 40
1.0
 41
0.0
 46
0.0
 71
     5
 72
     1
  1
\A1;∅1.250
 73
     1
 44
1.0
  0
SOLID
  5
68C4
330
68BF
100
AcDbEntity
  8
DIM
 62
     0
440
 16777216
100
AcDbTrace
 10
-31.79326892519092
 20
-50.20693180269457
 30
0.0
 11
-31.63399477943927
 21
-50.49975061630837
 31
0.0
 12
-30.83517541147369
 22
-49.87551877224652
 32
0.0
 13
-30.83517541147369
 23
-49.87551877224652
 33
0.0
  0
LINE
  5
68C5
330
68BF
100
AcDbEntity
  8
DIM
 62
     0
440
 16777216
370
    -2
100
AcDbLine
 10
-30.37614013594782
 20
-49.57687974896217
 30
0.0
 11
-30.19614013594781
 21
-49.57687974896217
 31
0.0
  0
LINE
  5
68C6
330
68BF
100
AcDbEntity
  8
DIM
 62
     0
440
 16777216
370
    -2
100
AcDbLine
 10
-30.28614013594782
 20
-49.66687974896217
 30
0.0
 11
-30.28614013594781
 21
-49.48687974896216
 31
0.0
  0
POINT
  5
68C7
330
68BF
100
AcDbEntity
  8
Defpoints
 62
     0
440
 16777216
100
AcDbPoint
 10
-30.83517541147369
 20
-49.87551877224652
 30
0.0
  0
POINT
  5
68C8
330
68BF
100
AcDbEntity
  8
Defpoints
 62
     0
440
 16777216
100
AcDbPoint
 10
-29.73710486042195
 20
-49.27824072567783
 30
0.0
  0
ENDBLK
  5
68C9
330
68BF
100
AcDbEntity
  8
0
100
AcDbBlockEnd
  0
BLOCK
  5
68FE
330
68CA
100
AcDbEntity
  8
0
100
AcDbBlockBegin
  2
A$C525F4A44
 70
     0
 10
0.0
 20
0.0
 30
0.0
  3
A$C525F4A44
  1

  0
LINE
  5
68CB
330
68CA
100
AcDbEntity
  8
TEMPLATE
  6
DASHED
100
AcDbLine
 10
19.90499981112731
 20
8.137390557452405
 30
0.0
 11
19.90499981112719
 21
26.14739055745241
 31
0.0
  0
LINE
  5
68CC
330
68CA
100
AcDbEntity
  8
TEMPLATE
  6
DASHED
100
AcDbLine
 10
9.374999811127338
 20
8.137390557452405
 30
0.0
 11
9.374999811127338
 21
26.14739055745241
 31
0.0
  0
LINE
  5
68CD
330
68CA
100
AcDbEntity
  8
TEMPLATE
  6
DASHED
100
AcDbLine
 10
19.90499981112719
 20
26.14739055745241
 30
0.0
 11
9.374999811127338
 21
26.14739055745241
 31
0.0
  0
LINE
  5
68CE
330
68CA
100
AcDbEntity
  8
TEMPLATE
  6
DASHED
100
AcDbLine
 10
19.90499981112731
 20
8.137390557452405
 30
0.0
 11
9.374999811127338
 21
8.137390557452405
 31
0.0
  0
DIMENSION
  5
68CF
330
68CA
100
AcDbEntity
  8
DIM
100
AcDbDimension
280
     0
  2
*D41
 10
9.375002356560344
 20
8.137385493429384
 30
0.0
 11
9.374999811127345
 21
5.09572389078572
 31
0.0
 12
49.11414249250817
 22
71.40126524239156
 32
0.0
 70
    70
 71
     5
 42
0.0000025454330057
 73
     0
 74
     0
 75
     0
  3
Standard
100
AcDbOrdinateDimension
 13
9.374999811127338
 23
8.137390557452405
 33
0.0
 14
9.374999811127338
 24
7.13739055745242
 34
0.0
  0
TEXT
  5
68D0
330
68CA
100
AcDbEntity
  8
DIM
100
AcDbText
 10
7.791666477794002
 20
32.63739055745242
 30
0.0
 40
1.0
  1
CUTOUT DRAWING
 72
     1
 11
14.62499981112734
 21
33.13739055745242
 31
0.0
100
AcDbText
 73
     2
  0
TEXT
  5
68D1
330
68CA
100
AcDbEntity
  8
DIM
100
AcDbText
 10
7.041666477794004
 20
34.38739055745242
 30
0.0
 40
1.0
  1
IQ150FPW EXHAUST
 72
     1
 11
14.62499981112734
 21
34.88739055745242
 31
0.0
100
AcDbText
 73
     2
  0
DIMENSION
  5
68D2
330
68CA
100
AcDbEntity
  8
DIM
100
AcDbDimension
280
     0
  2
*D40
 10
9.375002356560344
 20
8.137385493429384
 30
0.0
 11
6.333333144460674
 21
8.137390557452405
 31
0.0
 12
49.11414249250817
 22
71.40126524239156
 32
0.0
 70
     6
 71
     5
 42
0.0000050640230143
 73
     0
 74
     0
 75
     0
  3
Standard
100
AcDbOrdinateDimension
 13
9.374999811127338
 23
8.137390557452405
 33
0.0
 14
8.374999811127352
 24
8.137390557452405
 34
0.0
  0
DIMENSION
  5
68D3
330
68CA
100
AcDbEntity
  8
DIM
100
AcDbDimension
280
     0
  2
*D46
 10
9.37496887160745
 20
8.137387903004828
 30
0.0
 11
3.999999811127352
 21
23.82439055745253
 31
0.0
 12
49.11414249250817
 22
71.40126524239156
 32
0.0
 70
     6
  1
(2) <>
 71
     5
 42
15.6870026544477
 73
     0
 74
     0
 75
     0
  3
Standard
100
AcDbOrdinateDimension
 13
10.45249981112744
 23
23.82439055745253
 33
0.0
 14
8.374999811127352
 24
23.82439055745253
 34
0.0
  0
DIMENSION
  5
68D4
330
68CA
100
AcDbEntity
  8
DIM
100
AcDbDimension
280
     0
  2
*D45
 10
9.37496887160745
 20
8.137387903004828
 30
0.0
 11
4.416666477794016
 21
10.38739055745242
 31
0.0
 12
49.11414249250817
 22
71.40126524239156
 32
0.0
 70
     6
  1
(2) <>
 71
     5
 42
2.250002654447591
 73
     0
 74
     0
 75
     0
  3
Standard
100
AcDbOrdinateDimension
 13
10.45249981112744
 23
10.38739055745242
 33
0.0
 14
8.374999811127352
 24
10.38739055745242
 34
0.0
  0
DIMENSION
  5
68D5
330
68CA
100
AcDbEntity
  8
DIM
100
AcDbDimension
280
     0
  2
*D44
 10
9.37496887160745
 20
8.137387903004828
 30
0.0
 11
4.583333144460688
 21
16.13739055745241
 31
0.0
 12
49.11414249250817
 22
71.40126524239156
 32
0.0
 70
     6
  1
(2) <>
 71
     5
 42
8.000002654447584
 73
     0
 74
     0
 75
     0
  3
Standard
100
AcDbOrdinateDimension
 13
10.45249981112744
 23
16.13739055745241
 33
0.0
 14
8.374999811127352
 24
16.13739055745241
 34
0.0
  0
DIMENSION
  5
68D6
330
68CA
100
AcDbEntity
  8
DIM
100
AcDbDimension
280
     0
  2
*D42
 10
9.37496887160745
 20
8.137387903004828
 30
0.0
 11
5.999999811127338
 21
26.14739055745241
 31
0.0
 12
49.11414249250817
 22
71.40126524239156
 32
0.0
 70
     6
 71
     5
 42
18.01000265444759
 73
     0
 74
     0
 75
     0
  3
Standard
100
AcDbOrdinateDimension
 13
9.374999811127338
 23
26.14739055745241
 33
0.0
 14
8.374999811127352
 24
26.14739055745241
 34
0.0
  0
MTEXT
  5
68D7
330
68CA
100
AcDbEntity
  8
DIM
100
AcDbMText
 10
10.8712403085878
 20
3.416666729346417
 30
0.0
 40
1.0
 41
0.0
 46
0.0
 71
     5
 72
     1
  1
\A1;(3) 1.078
 11
0.0000000000000001
 21
1.0
 31
0.0
 73
     1
 44
1.0
  0
LINE
  5
68D8
330
68CA
100
AcDbEntity
  8
DIM
100
AcDbLine
 10
10.87499981112734
 20
8.637390557452413
 30
0.0
 11
10.87499981112734
 21
7.13739055745242
 31
0.0
  0
LINE
  5
68D9
330
68CA
100
AcDbEntity
  8
DIM
100
AcDbLine
 10
10.45249981112744
 20
9.512390557452413
 30
0.0
 11
10.87499981112734
 21
8.637390557452413
 31
0.0
  0
LINE
  5
68DA
330
68CA
100
AcDbEntity
  8
DIM
100
AcDbLine
 10
10.45249981112744
 20
10.0123905574524
 30
0.0
 11
10.45249981112744
 21
9.512390557452413
 31
0.0
  0
DIMENSION
  5
68DB
330
68CA
100
AcDbEntity
  8
DIM
100
AcDbDimension
280
     0
  2
*D47
 10
9.37496887160745
 20
8.137387903004828
 30
0.0
 11
18.82749981112744
 21
3.595723890785748
 31
0.0
 12
49.11414249250817
 22
71.40126524239156
 32
0.0
 70
    70
  1
(4)<>
 71
     5
 42
9.452530939519984
 73
     0
 74
     0
 75
     0
  3
Standard
100
AcDbOrdinateDimension
 13
18.82749981112743
 23
10.38739055745242
 33
0.0
 14
18.82749981112743
 24
7.13739055745242
 34
0.0
  0
DIMENSION
  5
68DC
330
68CA
100
AcDbEntity
  8
DIM
100
AcDbDimension
280
     0
  2
*D43
 10
9.37496887160745
 20
8.137387903004828
 30
0.0
 11
19.90499981112731
 21
29.68905722411908
 31
0.0
 12
49.11414249250817
 22
71.40126524239156
 32
0.0
 70
    70
 71
     5
 42
10.53003093951986
 73
     0
 74
     0
 75
     0
  3
Standard
100
AcDbOrdinateDimension
 13
19.90499981112731
 23
26.14739055745241
 33
0.0
 14
19.90499981112731
 24
27.14739055745241
 34
0.0
  0
CIRCLE
  5
68DD
330
68CA
100
AcDbEntity
  8
TEMPLATE
100
AcDbCircle
 10
18.82749981112743
 20
10.38739055745242
 30
0.0
 40
0.1875
  0
CIRCLE
  5
68DE
330
68CA
100
AcDbEntity
  8
TEMPLATE
100
AcDbCircle
 10
10.45249981112744
 20
10.38739055745242
 30
0.0
 40
0.1875
  0
CIRCLE
  5
68DF
330
68CA
100
AcDbEntity
  8
TEMPLATE
100
AcDbCircle
 10
18.82749981112743
 20
16.13739055745241
 30
0.0
 40
0.1875
  0
CIRCLE
  5
68E0
330
68CA
100
AcDbEntity
  8
TEMPLATE
100
AcDbCircle
 10
10.45249981112744
 20
16.13739055745241
 30
0.0
 40
0.1875
  0
CIRCLE
  5
68E1
330
68CA
100
AcDbEntity
  8
TEMPLATE
100
AcDbCircle
 10
10.45249981112744
 20
23.82439055745255
 30
0.0
 40
0.1875
  0
CIRCLE
  5
68E2
330
68CA
100
AcDbEntity
  8
TEMPLATE
100
AcDbCircle
 10
18.82749981112743
 20
23.82439055745255
 30
0.0
 40
0.1875
  0
LINE
  5
68E3
330
68CA
100
AcDbEntity
  8
TEMPLATE
100
AcDbLine
 10
11.33999981112733
 20
25.4306405574525
 30
0.0
 11
11.33999981112737
 21
22.59314055745237
 31
0.0
  0
LINE
  5
68E4
330
68CA
100
AcDbEntity
  8
TEMPLATE
100
AcDbLine
 10
11.33999981112733
 20
25.4306405574525
 30
0.0
 11
17.93999981112727
 21
25.4306405574525
 31
0.0
  0
LINE
  5
68E5
330
68CA
100
AcDbEntity
  8
TEMPLATE
100
AcDbLine
 10
11.33999981112737
 20
22.59314055745237
 30
0.0
 11
17.93999981112727
 21
22.59314055745237
 31
0.0
  0
LINE
  5
68E6
330
68CA
100
AcDbEntity
  8
TEMPLATE
100
AcDbLine
 10
17.93999981112727
 20
25.4306405574525
 30
0.0
 11
17.93999981112727
 21
22.59314055745237
 31
0.0
  0
DIMENSION
  5
68E7
330
68CA
100
AcDbEntity
  8
DIM
100
AcDbDimension
280
     0
  2
*D48
 10
9.37496887160745
 20
8.137387903004828
 30
0.0
 11
11.33999981112733
 21
29.35572389078574
 31
0.0
 12
49.11414249250817
 22
71.40126524239156
 32
0.0
 70
    70
 71
     5
 42
1.965030939519883
 73
     0
 74
     0
 75
     0
  3
Standard
100
AcDbOrdinateDimension
 13
11.33999981112733
 23
25.4306405574525
 33
0.0
 14
11.33999981112733
 24
27.14739055745241
 34
0.0
  0
DIMENSION
  5
68E8
330
68CA
100
AcDbEntity
  8
DIM
100
AcDbDimension
280
     0
  2
*D49
 10
9.37496887160745
 20
8.137387903004828
 30
0.0
 11
17.93999981112729
 21
29.52239055745242
 31
0.0
 12
49.11414249250817
 22
71.40126524239156
 32
0.0
 70
    70
 71
     5
 42
8.565030939519825
 73
     0
 74
     0
 75
     0
  3
Standard
100
AcDbOrdinateDimension
 13
17.93999981112727
 23
25.43064055745248
 33
0.0
 14
17.93999981112727
 24
27.14739055745241
 34
0.0
  0
DIMENSION
  5
68E9
330
68CA
100
AcDbEntity
  8
DIM
100
AcDbDimension
280
     0
  2
*D50
 10
9.37496887160745
 20
8.137387903004828
 30
0.0
 11
23.61333314446065
 21
25.43064055745248
 31
0.0
 12
49.11414249250817
 22
71.40126524239156
 32
0.0
 70
     6
 71
     5
 42
17.29325265444765
 73
     0
 74
     0
 75
     0
  3
Standard
100
AcDbOrdinateDimension
 13
17.93999981112727
 23
25.43064055745248
 33
0.0
 14
20.90499981112731
 24
25.43064055745248
 34
0.0
  0
DIMENSION
  5
68EA
330
68CA
100
AcDbEntity
  8
DIM
100
AcDbDimension
280
     0
  2
*D51
 10
9.37496887160745
 20
8.137387903004828
 30
0.0
 11
23.61333314446065
 21
22.59314055745237
 31
0.0
 12
49.11414249250817
 22
71.40126524239156
 32
0.0
 70
     6
 71
     5
 42
14.45575265444756
 73
     0
 74
     0
 75
     0
  3
Standard
100
AcDbOrdinateDimension
 13
17.93999981112727
 23
22.59314055745237
 33
0.0
 14
20.90499981112731
 24
22.59314055745237
 34
0.0
  0
LINE
  5
68EB
330
68CA
100
AcDbEntity
  8
DIM
100
AcDbLine
 10
19.47131752975047
 20
13.55297811075155
 30
0.0
 11
19.0641686278671
 21
11.55106754063246
 31
0.0
  0
SOLID
  5
68EC
330
68CA
100
AcDbEntity
  8
DIM
100
AcDbTrace
 10
18.90084554250847
 20
11.5842842166661
 30
0.0
 11
19.22749171322567
 21
11.51785086459884
 31
0.0
 12
18.86486857166525
 22
10.57112902848084
 32
0.0
 13
18.86486857166525
 23
10.57112902848084
 33
0.0
  0
LINE
  5
68ED
330
68CA
100
AcDbEntity
  8
DIM
100
AcDbLine
 10
18.7374998111274
 20
10.38739055745238
 30
0.0
 11
18.91749981112742
 21
10.38739055745238
 31
0.0
  0
LINE
  5
68EE
330
68CA
100
AcDbEntity
  8
DIM
100
AcDbLine
 10
18.82749981112738
 20
10.29739055745239
 30
0.0
 11
18.82749981112738
 21
10.4773905574524
 31
0.0
  0
LINE
  5
68EF
330
68CA
100
AcDbEntity
  8
DIM
100
AcDbLine
 10
19.47131752975047
 20
13.55297811075155
 30
0.0
 11
18.49156825722679
 21
13.55297811075155
 31
0.0
  0
TEXT
  5
68F0
330
68CA
100
AcDbEntity
  8
DIM
100
AcDbText
 10
9.949901590560122
 20
13.05297811075155
 30
0.0
 40
1.0
  1
%%C0.375 (6)
 72
     2
 11
18.11656825722679
 21
13.55297811075155
 31
0.0
100
AcDbText
 73
     2
  0
LINE
  5
68F1
330
68CA
100
AcDbEntity
  8
DIM
100
AcDbLine
 10
10.36249981112744
 20
10.38739055745242
 30
0.0
 11
10.54249981112744
 21
10.38739055745242
 31
0.0
  0
LINE
  5
68F2
330
68CA
100
AcDbEntity
  8
DIM
100
AcDbLine
 10
10.45249981112744
 20
10.29739055745241
 30
0.0
 11
10.45249981112744
 21
10.47739055745242
 31
0.0
  0
LINE
  5
68F3
330
68CA
100
AcDbEntity
  8
DIM
100
AcDbLine
 10
18.73749981112743
 20
16.13739055745241
 30
0.0
 11
18.91749981112743
 21
16.13739055745241
 31
0.0
  0
LINE
  5
68F4
330
68CA
100
AcDbEntity
  8
DIM
100
AcDbLine
 10
18.82749981112743
 20
16.04739055745241
 30
0.0
 11
18.82749981112743
 21
16.22739055745241
 31
0.0
  0
LINE
  5
68F5
330
68CA
100
AcDbEntity
  8
DIM
100
AcDbLine
 10
10.36249981112744
 20
16.13739055745241
 30
0.0
 11
10.54249981112744
 21
16.13739055745241
 31
0.0
  0
LINE
  5
68F6
330
68CA
100
AcDbEntity
  8
DIM
100
AcDbLine
 10
10.45249981112744
 20
16.04739055745241
 30
0.0
 11
10.45249981112744
 21
16.22739055745241
 31
0.0
  0
LINE
  5
68F7
330
68CA
100
AcDbEntity
  8
DIM
100
AcDbLine
 10
10.36249981112744
 20
23.82439055745255
 30
0.0
 11
10.54249981112744
 21
23.82439055745255
 31
0.0
  0
LINE
  5
68F8
330
68CA
100
AcDbEntity
  8
DIM
100
AcDbLine
 10
10.45249981112744
 20
23.73439055745255
 30
0.0
 11
10.45249981112744
 21
23.91439055745256
 31
0.0
  0
LINE
  5
68F9
330
68CA
100
AcDbEntity
  8
DIM
100
AcDbLine
 10
18.73749981112743
 20
23.82439055745255
 30
0.0
 11
18.91749981112743
 21
23.82439055745255
 31
0.0
  0
LINE
  5
68FA
330
68CA
100
AcDbEntity
  8
DIM
100
AcDbLine
 10
18.82749981112743
 20
23.73439055745255
 30
0.0
 11
18.82749981112743
 21
23.91439055745256
 31
0.0
  0
CIRCLE
  5
68FB
330
68CA
100
AcDbEntity
  8
TEMPLATE
100
AcDbCircle
 10
18.82800235656034
 20
21.82438549342939
 30
0.0
 40
0.625
  0
DIMENSION
  5
68FC
330
68CA
100
AcDbEntity
  8
DIM
100
AcDbDimension
280
     0
  2
*D52
 10
9.375002356560344
 20
8.137385493429384
 30
0.0
 11
5.449659350929493
 21
21.82638944967812
 31
0.0
 12
49.11414249250817
 22
71.40126524239156
 32
0.0
 70
     6
 71
     5
 42
13.687
 73
     0
 74
     0
 75
     0
  3
Standard
100
AcDbOrdinateDimension
 13
18.82800235656034
 23
21.82438549342939
 33
0.0
 14
8.157992684262829
 24
21.82638944967812
 34
0.0
  0
DIMENSION
  5
68FD
330
68CA
100
AcDbEntity
  8
DIM
100
AcDbDimension
280
     0
  2
*D53
 10
19.37703763208622
 20
22.12302451671373
 30
0.0
 11
12.61483211105719
 21
20.4165913704191
 31
0.0
 12
49.11414249250817
 22
71.40126524239156
 32
0.0
 70
   131
 71
     5
 42
1.25
 73
     0
 74
     0
 75
     0
  3
Standard
100
AcDbDiametricDimension
 15
18.27896708103447
 25
21.52574647014504
 35
0.0
 40
0.0
1001
ACAD_DSTYLE_DIMRADIAL_EXTENSION
1070
   387
1070
     1
1070
   388
1040
0.0
1070
   390
1040
0.0
  0
ENDBLK
  5
68FF
330
68CA
100
AcDbEntity
  8
0
100
AcDbBlockEnd
  0
BLOCK
  5
6CD8
330
6CD7
100
AcDbEntity
  8
0
100
AcDbBlockBegin
  2
METAL
 70
     0
 10
0.0
 20
0.0
 30
0.0
  3
METAL
  1

  0
LINE
  5
6CDA
330
6CD7
100
AcDbEntity
  8
150FPWINTBS
100
AcDbLine
 10
59.05579393641329
 20
15.15605374196547
 30
0.0
 11
59.05579393641329
 21
14.71855374196547
 31
0.0
  0
CIRCLE
  5
6CDB
330
6CD7
100
AcDbEntity
  8
150FPWINTBS
100
AcDbCircle
 10
60.12129393641345
 20
14.35480374196549
 30
0.0
 40
0.069
  0
LINE
  5
6CDC
330
6CD7
100
AcDbEntity
  8
150FPWINTBS
100
AcDbLine
 10
60.50629393641322
 20
13.56260472848861
 30
0.0
 11
60.50629393641322
 21
13.14700275544214
 31
0.0
  0
LINE
  5
6CDD
330
6CD7
100
AcDbEntity
  8
150FPWINTBS
100
AcDbLine
 10
59.73629393641323
 20
13.56260472848861
 30
0.0
 11
59.73629393641323
 21
13.14700275544236
 31
0.0
  0
ARC
  5
6CDE
330
6CD7
100
AcDbEntity
  8
150FPWINTBS
100
AcDbCircle
 10
60.12129393641345
 20
13.35480374196549
 30
0.0
 40
0.4375
100
AcDbArc
 50
28.35763657634132
 51
151.6423634236587
  0
ARC
  5
6CDF
330
6CD7
100
AcDbEntity
  8
150FPWINTBS
100
AcDbCircle
 10
60.12129393641345
 20
13.35480374196549
 30
0.0
 40
0.4375
100
AcDbArc
 50
208.3576365763413
 51
331.6423634236587
  0
LINE
  5
6CE0
330
6CD7
100
AcDbEntity
  8
150FPWINTBS
100
AcDbLine
 10
59.05579393641329
 20
14.61855374196533
 30
0.0
 11
59.05579393641329
 21
14.18105374196533
 31
0.0
  0
CIRCLE
  5
6CE1
330
6CD7
100
AcDbEntity
  8
150FPWINTBS
100
AcDbCircle
 10
59.3732939364134
 20
13.53980374196543
 30
0.0
 40
0.095
  0
CIRCLE
  5
6CE2
330
6CD7
100
AcDbEntity
  8
150FPWINTBS
  6
HIDDEN
100
AcDbCircle
 10
60.12129393641345
 20
15.35480374196549
 30
0.0
 40
0.125
  0
LINE
  5
6CE3
330
6CD7
100
AcDbEntity
  8
150FPWINTBS
100
AcDbLine
 10
59.05579393641329
 20
15.69355374196538
 30
0.0
 11
59.05579393641329
 21
15.25605374196538
 31
0.0
  0
LINE
  5
6CE4
330
6CD7
100
AcDbEntity
  8
150FPWINTBS
100
AcDbLine
 10
59.05579393641329
 20
16.23105374196529
 30
0.0
 11
59.05579393641329
 21
15.79355374196529
 31
0.0
  0
LINE
  5
6CE5
330
6CD7
100
AcDbEntity
  8
150FPWINTBS
100
AcDbLine
 10
59.05579393641329
 20
16.7685537419652
 30
0.0
 11
59.05579393641329
 21
16.3310537419652
 31
0.0
  0
CIRCLE
  5
6CE6
330
6CD7
100
AcDbEntity
  8
150FPWINTBS
100
AcDbCircle
 10
59.3732939364134
 20
17.02980374196522
 30
0.0
 40
0.095
  0
LINE
  5
6CE7
330
6CD7
100
AcDbEntity
  8
150FPWINTBS
100
AcDbLine
 10
54.85579393641348
 20
15.15605374196547
 30
0.0
 11
54.85579393641348
 21
14.71855374196547
 31
0.0
  0
LINE
  5
6CE8
330
6CD7
100
AcDbEntity
  8
150FPWINTBS
100
AcDbLine
 10
55.29329393641347
 20
15.15605374196547
 30
0.0
 11
55.29329393641347
 21
14.71855374196547
 31
0.0
  0
LINE
  5
6CE9
330
6CD7
100
AcDbEntity
  8
150FPWINTBS
100
AcDbLine
 10
55.39329393641338
 20
15.15605374196547
 30
0.0
 11
55.39329393641338
 21
14.71855374196547
 31
0.0
  0
LINE
  5
6CEA
330
6CD7
100
AcDbEntity
  8
150FPWINTBS
100
AcDbLine
 10
57.98079393641348
 20
15.15605374196547
 30
0.0
 11
57.98079393641348
 21
14.71855374196547
 31
0.0
  0
LINE
  5
6CEB
330
6CD7
100
AcDbEntity
  8
150FPWINTBS
100
AcDbLine
 10
58.08079393641339
 20
15.15605374196547
 30
0.0
 11
58.08079393641339
 21
14.71855374196547
 31
0.0
  0
LINE
  5
6CEC
330
6CD7
100
AcDbEntity
  8
150FPWINTBS
100
AcDbLine
 10
58.51829393641338
 20
15.15605374196547
 30
0.0
 11
58.51829393641338
 21
14.71855374196547
 31
0.0
  0
LINE
  5
6CED
330
6CD7
100
AcDbEntity
  8
150FPWINTBS
100
AcDbLine
 10
58.61829393641329
 20
15.15605374196547
 30
0.0
 11
58.61829393641329
 21
14.71855374196547
 31
0.0
  0
LINE
  5
6CEE
330
6CD7
100
AcDbEntity
  8
150FPWINTBS
100
AcDbLine
 10
55.93079393641329
 20
15.15605374196547
 30
0.0
 11
55.93079393641329
 21
14.71855374196547
 31
0.0
  0
LINE
  5
6CEF
330
6CD7
100
AcDbEntity
  8
150FPWINTBS
100
AcDbLine
 10
56.36829393641329
 20
15.15605374196547
 30
0.0
 11
56.36829393641329
 21
14.71855374196547
 31
0.0
  0
LINE
  5
6CF0
330
6CD7
100
AcDbEntity
  8
150FPWINTBS
100
AcDbLine
 10
56.46829393641343
 20
15.15605374196547
 30
0.0
 11
56.4682939364132
 21
14.71855374196547
 31
0.0
  0
LINE
  5
6CF1
330
6CD7
100
AcDbEntity
  8
150FPWINTBS
100
AcDbLine
 10
56.9057939364132
 20
15.15605374196547
 30
0.0
 11
56.9057939364132
 21
14.71855374196547
 31
0.0
  0
LINE
  5
6CF2
330
6CD7
100
AcDbEntity
  8
150FPWINTBS
100
AcDbLine
 10
57.00579393641334
 20
15.15605374196547
 30
0.0
 11
57.00579393641334
 21
14.71855374196547
 31
0.0
  0
LINE
  5
6CF3
330
6CD7
100
AcDbEntity
  8
150FPWINTBS
100
AcDbLine
 10
57.44329393641334
 20
15.15605374196547
 30
0.0
 11
57.44329393641334
 21
14.71855374196547
 31
0.0
  0
LINE
  5
6CF4
330
6CD7
100
AcDbEntity
  8
150FPWINTBS
100
AcDbLine
 10
57.54329393641348
 20
15.15605374196547
 30
0.0
 11
57.54329393641348
 21
14.71855374196547
 31
0.0
  0
LINE
  5
6CF5
330
6CD7
100
AcDbEntity
  8
150FPWINTBS
100
AcDbLine
 10
55.83079393641338
 20
15.15605374196547
 30
0.0
 11
55.83079393641338
 21
14.71855374196547
 31
0.0
  0
LINE
  5
6CF6
330
6CD7
100
AcDbEntity
  8
150FPWINTBS
100
AcDbLine
 10
55.83079393641338
 20
14.18105374196533
 30
0.0
 11
55.39329393641338
 21
14.18105374196533
 31
0.0
  0
LINE
  5
6CF7
330
6CD7
100
AcDbEntity
  8
150FPWINTBS
100
AcDbLine
 10
55.83079393641338
 20
14.61855374196533
 30
0.0
 11
55.39329393641338
 21
14.61855374196533
 31
0.0
  0
LINE
  5
6CF8
330
6CD7
100
AcDbEntity
  8
150FPWINTBS
100
AcDbLine
 10
55.83079393641338
 20
14.71855374196547
 30
0.0
 11
55.39329393641338
 21
14.71855374196547
 31
0.0
  0
LINE
  5
6CF9
330
6CD7
100
AcDbEntity
  8
150FPWINTBS
100
AcDbLine
 10
54.85579393641348
 20
14.61855374196533
 30
0.0
 11
54.85579393641348
 21
14.18105374196533
 31
0.0
  0
LINE
  5
6CFA
330
6CD7
100
AcDbEntity
  8
150FPWINTBS
100
AcDbLine
 10
55.29329393641347
 20
14.61855374196533
 30
0.0
 11
55.29329393641347
 21
14.18105374196533
 31
0.0
  0
LINE
  5
6CFB
330
6CD7
100
AcDbEntity
  8
150FPWINTBS
100
AcDbLine
 10
55.39329393641338
 20
14.61855374196533
 30
0.0
 11
55.39329393641338
 21
14.18105374196533
 31
0.0
  0
LINE
  5
6CFC
330
6CD7
100
AcDbEntity
  8
150FPWINTBS
100
AcDbLine
 10
55.29329393641347
 20
14.18105374196533
 30
0.0
 11
54.85579393641348
 21
14.18105374196533
 31
0.0
  0
CIRCLE
  5
6CFD
330
6CD7
100
AcDbEntity
  8
150FPWINTBS
100
AcDbCircle
 10
54.3732939364134
 20
13.53980374196543
 30
0.0
 40
0.095
  0
LINE
  5
6CFE
330
6CD7
100
AcDbEntity
  8
150FPWINTBS
100
AcDbLine
 10
55.29329393641347
 20
14.61855374196533
 30
0.0
 11
54.85579393641348
 21
14.61855374196533
 31
0.0
  0
LINE
  5
6CFF
330
6CD7
100
AcDbEntity
  8
150FPWINTBS
100
AcDbLine
 10
55.29329393641347
 20
14.71855374196547
 30
0.0
 11
54.85579393641348
 21
14.71855374196547
 31
0.0
  0
LINE
  5
6D00
330
6CD7
100
AcDbEntity
  8
150FPWINTBS
100
AcDbLine
 10
57.98079393641348
 20
14.61855374196533
 30
0.0
 11
57.98079393641348
 21
14.18105374196533
 31
0.0
  0
LINE
  5
6D01
330
6CD7
100
AcDbEntity
  8
150FPWINTBS
100
AcDbLine
 10
58.08079393641339
 20
14.61855374196533
 30
0.0
 11
58.08079393641339
 21
14.18105374196533
 31
0.0
  0
LINE
  5
6D02
330
6CD7
100
AcDbEntity
  8
150FPWINTBS
100
AcDbLine
 10
58.51829393641338
 20
14.61855374196533
 30
0.0
 11
58.51829393641338
 21
14.18105374196533
 31
0.0
  0
LINE
  5
6D03
330
6CD7
100
AcDbEntity
  8
150FPWINTBS
100
AcDbLine
 10
58.61829393641329
 20
14.61855374196533
 30
0.0
 11
58.61829393641329
 21
14.18105374196533
 31
0.0
  0
LINE
  5
6D04
330
6CD7
100
AcDbEntity
  8
150FPWINTBS
100
AcDbLine
 10
58.51829393641338
 20
14.18105374196533
 30
0.0
 11
58.08079393641339
 21
14.18105374196533
 31
0.0
  0
LINE
  5
6D05
330
6CD7
100
AcDbEntity
  8
150FPWINTBS
100
AcDbLine
 10
58.51829393641338
 20
14.61855374196533
 30
0.0
 11
58.08079393641339
 21
14.61855374196533
 31
0.0
  0
LINE
  5
6D06
330
6CD7
100
AcDbEntity
  8
150FPWINTBS
100
AcDbLine
 10
58.51829393641338
 20
14.71855374196547
 30
0.0
 11
58.08079393641339
 21
14.71855374196547
 31
0.0
  0
LINE
  5
6D07
330
6CD7
100
AcDbEntity
  8
150FPWINTBS
100
AcDbLine
 10
55.83079393641338
 20
14.61855374196533
 30
0.0
 11
55.83079393641338
 21
14.18105374196533
 31
0.0
  0
LINE
  5
6D08
330
6CD7
100
AcDbEntity
  8
150FPWINTBS
100
AcDbLine
 10
55.93079393641329
 20
14.61855374196533
 30
0.0
 11
55.93079393641329
 21
14.18105374196533
 31
0.0
  0
LINE
  5
6D09
330
6CD7
100
AcDbEntity
  8
150FPWINTBS
100
AcDbLine
 10
56.36829393641329
 20
14.61855374196533
 30
0.0
 11
56.36829393641329
 21
14.18105374196533
 31
0.0
  0
LINE
  5
6D0A
330
6CD7
100
AcDbEntity
  8
150FPWINTBS
100
AcDbLine
 10
56.46829393641343
 20
14.61855374196533
 30
0.0
 11
56.4682939364132
 21
14.18105374196533
 31
0.0
  0
LINE
  5
6D0B
330
6CD7
100
AcDbEntity
  8
150FPWINTBS
100
AcDbLine
 10
56.9057939364132
 20
14.61855374196533
 30
0.0
 11
56.9057939364132
 21
14.18105374196533
 31
0.0
  0
LINE
  5
6D0C
330
6CD7
100
AcDbEntity
  8
150FPWINTBS
100
AcDbLine
 10
57.00579393641334
 20
14.61855374196533
 30
0.0
 11
57.00579393641334
 21
14.18105374196533
 31
0.0
  0
LINE
  5
6D0D
330
6CD7
100
AcDbEntity
  8
150FPWINTBS
100
AcDbLine
 10
57.44329393641334
 20
14.61855374196533
 30
0.0
 11
57.44329393641334
 21
14.18105374196533
 31
0.0
  0
LINE
  5
6D0E
330
6CD7
100
AcDbEntity
  8
150FPWINTBS
100
AcDbLine
 10
57.54329393641348
 20
14.61855374196533
 30
0.0
 11
57.54329393641348
 21
14.18105374196533
 31
0.0
  0
LINE
  5
6D0F
330
6CD7
100
AcDbEntity
  8
150FPWINTBS
100
AcDbLine
 10
56.36829393641329
 20
14.18105374196533
 30
0.0
 11
55.93079393641329
 21
14.18105374196533
 31
0.0
  0
LINE
  5
6D10
330
6CD7
100
AcDbEntity
  8
150FPWINTBS
100
AcDbLine
 10
56.9057939364132
 20
14.18105374196533
 30
0.0
 11
56.4682939364132
 21
14.18105374196533
 31
0.0
  0
LINE
  5
6D11
330
6CD7
100
AcDbEntity
  8
150FPWINTBS
100
AcDbLine
 10
57.44329393641334
 20
14.18105374196533
 30
0.0
 11
57.00579393641334
 21
14.18105374196533
 31
0.0
  0
LINE
  5
6D12
330
6CD7
100
AcDbEntity
  8
150FPWINTBS
100
AcDbLine
 10
56.36829393641329
 20
14.61855374196533
 30
0.0
 11
55.93079393641329
 21
14.61855374196533
 31
0.0
  0
LINE
  5
6D13
330
6CD7
100
AcDbEntity
  8
150FPWINTBS
100
AcDbLine
 10
56.36829393641329
 20
14.71855374196547
 30
0.0
 11
55.93079393641329
 21
14.71855374196547
 31
0.0
  0
LINE
  5
6D14
330
6CD7
100
AcDbEntity
  8
150FPWINTBS
100
AcDbLine
 10
56.9057939364132
 20
14.61855374196533
 30
0.0
 11
56.46829393641343
 21
14.61855374196533
 31
0.0
  0
LINE
  5
6D15
330
6CD7
100
AcDbEntity
  8
150FPWINTBS
100
AcDbLine
 10
56.9057939364132
 20
14.71855374196547
 30
0.0
 11
56.4682939364132
 21
14.71855374196547
 31
0.0
  0
LINE
  5
6D16
330
6CD7
100
AcDbEntity
  8
150FPWINTBS
100
AcDbLine
 10
57.44329393641334
 20
14.61855374196533
 30
0.0
 11
57.00579393641334
 21
14.61855374196533
 31
0.0
  0
LINE
  5
6D17
330
6CD7
100
AcDbEntity
  8
150FPWINTBS
100
AcDbLine
 10
57.44329393641334
 20
14.71855374196547
 30
0.0
 11
57.00579393641334
 21
14.71855374196547
 31
0.0
  0
LINE
  5
6D18
330
6CD7
100
AcDbEntity
  8
150FPWINTBS
100
AcDbLine
 10
57.98079393641348
 20
14.18105374196533
 30
0.0
 11
57.54329393641348
 21
14.18105374196533
 31
0.0
  0
LINE
  5
6D19
330
6CD7
100
AcDbEntity
  8
150FPWINTBS
100
AcDbLine
 10
57.98079393641348
 20
14.61855374196533
 30
0.0
 11
57.54329393641348
 21
14.61855374196533
 31
0.0
  0
LINE
  5
6D1A
330
6CD7
100
AcDbEntity
  8
150FPWINTBS
100
AcDbLine
 10
57.98079393641348
 20
14.71855374196547
 30
0.0
 11
57.54329393641348
 21
14.71855374196547
 31
0.0
  0
LINE
  5
6D1B
330
6CD7
100
AcDbEntity
  8
150FPWINTBS
100
AcDbLine
 10
55.83079393641338
 20
15.15605374196547
 30
0.0
 11
55.39329393641338
 21
15.15605374196547
 31
0.0
  0
LINE
  5
6D1C
330
6CD7
100
AcDbEntity
  8
150FPWINTBS
100
AcDbLine
 10
55.83079393641338
 20
15.25605374196538
 30
0.0
 11
55.39329393641338
 21
15.25605374196538
 31
0.0
  0
LINE
  5
6D1D
330
6CD7
100
AcDbEntity
  8
150FPWINTBS
100
AcDbLine
 10
55.83079393641338
 20
15.69355374196538
 30
0.0
 11
55.39329393641338
 21
15.69355374196538
 31
0.0
  0
LINE
  5
6D1E
330
6CD7
100
AcDbEntity
  8
150FPWINTBS
100
AcDbLine
 10
55.83079393641338
 20
15.79355374196529
 30
0.0
 11
55.39329393641338
 21
15.79355374196529
 31
0.0
  0
LINE
  5
6D1F
330
6CD7
100
AcDbEntity
  8
150FPWINTBS
100
AcDbLine
 10
55.83079393641338
 20
16.23105374196529
 30
0.0
 11
55.39329393641338
 21
16.23105374196529
 31
0.0
  0
LINE
  5
6D20
330
6CD7
100
AcDbEntity
  8
150FPWINTBS
100
AcDbLine
 10
55.83079393641338
 20
16.3310537419652
 30
0.0
 11
55.39329393641338
 21
16.3310537419652
 31
0.0
  0
LINE
  5
6D21
330
6CD7
100
AcDbEntity
  8
150FPWINTBS
100
AcDbLine
 10
55.83079393641338
 20
16.7685537419652
 30
0.0
 11
55.39329393641338
 21
16.7685537419652
 31
0.0
  0
LINE
  5
6D22
330
6CD7
100
AcDbEntity
  8
150FPWINTBS
100
AcDbLine
 10
55.29329393641347
 20
15.15605374196547
 30
0.0
 11
54.85579393641348
 21
15.15605374196547
 31
0.0
  0
CIRCLE
  5
6D23
330
6CD7
100
AcDbEntity
  8
150FPWINTBS
100
AcDbCircle
 10
52.18329393641335
 20
17.02980374196522
 30
0.0
 40
0.095
  0
LINE
  5
6D24
330
6CD7
100
AcDbEntity
  8
150FPWINTBS
100
AcDbLine
 10
54.85579393641348
 20
15.69355374196538
 30
0.0
 11
54.85579393641348
 21
15.25605374196538
 31
0.0
  0
LINE
  5
6D25
330
6CD7
100
AcDbEntity
  8
150FPWINTBS
100
AcDbLine
 10
55.29329393641347
 20
15.69355374196538
 30
0.0
 11
55.29329393641347
 21
15.25605374196538
 31
0.0
  0
LINE
  5
6D26
330
6CD7
100
AcDbEntity
  8
150FPWINTBS
100
AcDbLine
 10
55.29329393641347
 20
15.25605374196538
 30
0.0
 11
54.85579393641348
 21
15.25605374196538
 31
0.0
  0
LINE
  5
6D27
330
6CD7
100
AcDbEntity
  8
150FPWINTBS
100
AcDbLine
 10
55.29329393641347
 20
15.69355374196538
 30
0.0
 11
54.85579393641348
 21
15.69355374196538
 31
0.0
  0
LINE
  5
6D28
330
6CD7
100
AcDbEntity
  8
150FPWINTBS
100
AcDbLine
 10
54.85579393641348
 20
16.23105374196529
 30
0.0
 11
54.85579393641348
 21
15.79355374196529
 31
0.0
  0
LINE
  5
6D29
330
6CD7
100
AcDbEntity
  8
150FPWINTBS
100
AcDbLine
 10
55.29329393641347
 20
16.23105374196529
 30
0.0
 11
55.29329393641347
 21
15.79355374196529
 31
0.0
  0
LINE
  5
6D2A
330
6CD7
100
AcDbEntity
  8
150FPWINTBS
100
AcDbLine
 10
55.29329393641347
 20
15.79355374196529
 30
0.0
 11
54.85579393641348
 21
15.79355374196529
 31
0.0
  0
LINE
  5
6D2B
330
6CD7
100
AcDbEntity
  8
150FPWINTBS
100
AcDbLine
 10
55.29329393641347
 20
16.23105374196529
 30
0.0
 11
54.85579393641348
 21
16.23105374196529
 31
0.0
  0
LINE
  5
6D2C
330
6CD7
100
AcDbEntity
  8
150FPWINTBS
100
AcDbLine
 10
54.85579393641348
 20
16.7685537419652
 30
0.0
 11
54.85579393641348
 21
16.3310537419652
 31
0.0
  0
LINE
  5
6D2D
330
6CD7
100
AcDbEntity
  8
150FPWINTBS
100
AcDbLine
 10
55.29329393641347
 20
16.7685537419652
 30
0.0
 11
55.29329393641347
 21
16.3310537419652
 31
0.0
  0
LINE
  5
6D2E
330
6CD7
100
AcDbEntity
  8
150FPWINTBS
100
AcDbLine
 10
55.29329393641347
 20
16.3310537419652
 30
0.0
 11
54.85579393641348
 21
16.3310537419652
 31
0.0
  0
LINE
  5
6D2F
330
6CD7
100
AcDbEntity
  8
150FPWINTBS
100
AcDbLine
 10
55.29329393641347
 20
16.7685537419652
 30
0.0
 11
54.85579393641348
 21
16.7685537419652
 31
0.0
  0
LINE
  5
6D30
330
6CD7
100
AcDbEntity
  8
150FPWINTBS
100
AcDbLine
 10
55.39329393641338
 20
15.69355374196538
 30
0.0
 11
55.39329393641338
 21
15.25605374196538
 31
0.0
  0
LINE
  5
6D31
330
6CD7
100
AcDbEntity
  8
150FPWINTBS
100
AcDbLine
 10
55.39329393641338
 20
16.23105374196529
 30
0.0
 11
55.39329393641338
 21
15.79355374196529
 31
0.0
  0
LINE
  5
6D32
330
6CD7
100
AcDbEntity
  8
150FPWINTBS
100
AcDbLine
 10
55.39329393641338
 20
16.7685537419652
 30
0.0
 11
55.39329393641338
 21
16.3310537419652
 31
0.0
  0
CIRCLE
  5
6D33
330
6CD7
100
AcDbEntity
  8
150FPWINTBS
100
AcDbCircle
 10
54.3732939364134
 20
17.02980374196522
 30
0.0
 40
0.095
  0
LINE
  5
6D34
330
6CD7
100
AcDbEntity
  8
150FPWINTBS
100
AcDbLine
 10
58.51829393641338
 20
15.15605374196547
 30
0.0
 11
58.08079393641339
 21
15.15605374196547
 31
0.0
  0
LINE
  5
6D35
330
6CD7
100
AcDbEntity
  8
150FPWINTBS
100
AcDbLine
 10
57.98079393641348
 20
15.69355374196538
 30
0.0
 11
57.98079393641348
 21
15.25605374196538
 31
0.0
  0
LINE
  5
6D36
330
6CD7
100
AcDbEntity
  8
150FPWINTBS
100
AcDbLine
 10
57.98079393641348
 20
16.23105374196529
 30
0.0
 11
57.98079393641348
 21
15.79355374196529
 31
0.0
  0
LINE
  5
6D37
330
6CD7
100
AcDbEntity
  8
150FPWINTBS
100
AcDbLine
 10
57.98079393641348
 20
16.7685537419652
 30
0.0
 11
57.98079393641348
 21
16.3310537419652
 31
0.0
  0
LINE
  5
6D38
330
6CD7
100
AcDbEntity
  8
150FPWINTBS
100
AcDbLine
 10
58.08079393641339
 20
15.69355374196538
 30
0.0
 11
58.08079393641339
 21
15.25605374196538
 31
0.0
  0
LINE
  5
6D39
330
6CD7
100
AcDbEntity
  8
150FPWINTBS
100
AcDbLine
 10
58.51829393641338
 20
15.69355374196538
 30
0.0
 11
58.51829393641338
 21
15.25605374196538
 31
0.0
  0
LINE
  5
6D3A
330
6CD7
100
AcDbEntity
  8
150FPWINTBS
100
AcDbLine
 10
58.51829393641338
 20
15.25605374196538
 30
0.0
 11
58.08079393641339
 21
15.25605374196538
 31
0.0
  0
LINE
  5
6D3B
330
6CD7
100
AcDbEntity
  8
150FPWINTBS
100
AcDbLine
 10
58.51829393641338
 20
15.69355374196538
 30
0.0
 11
58.08079393641339
 21
15.69355374196538
 31
0.0
  0
LINE
  5
6D3C
330
6CD7
100
AcDbEntity
  8
150FPWINTBS
100
AcDbLine
 10
58.08079393641339
 20
16.23105374196529
 30
0.0
 11
58.08079393641339
 21
15.79355374196529
 31
0.0
  0
LINE
  5
6D3D
330
6CD7
100
AcDbEntity
  8
150FPWINTBS
100
AcDbLine
 10
58.51829393641338
 20
16.23105374196529
 30
0.0
 11
58.51829393641338
 21
15.79355374196529
 31
0.0
  0
LINE
  5
6D3E
330
6CD7
100
AcDbEntity
  8
150FPWINTBS
100
AcDbLine
 10
58.51829393641338
 20
15.79355374196529
 30
0.0
 11
58.08079393641339
 21
15.79355374196529
 31
0.0
  0
LINE
  5
6D3F
330
6CD7
100
AcDbEntity
  8
150FPWINTBS
100
AcDbLine
 10
58.51829393641338
 20
16.23105374196529
 30
0.0
 11
58.08079393641339
 21
16.23105374196529
 31
0.0
  0
LINE
  5
6D40
330
6CD7
100
AcDbEntity
  8
150FPWINTBS
100
AcDbLine
 10
58.08079393641339
 20
16.7685537419652
 30
0.0
 11
58.08079393641339
 21
16.3310537419652
 31
0.0
  0
LINE
  5
6D41
330
6CD7
100
AcDbEntity
  8
150FPWINTBS
100
AcDbLine
 10
58.51829393641338
 20
16.7685537419652
 30
0.0
 11
58.51829393641338
 21
16.3310537419652
 31
0.0
  0
LINE
  5
6D42
330
6CD7
100
AcDbEntity
  8
150FPWINTBS
100
AcDbLine
 10
58.51829393641338
 20
16.3310537419652
 30
0.0
 11
58.08079393641339
 21
16.3310537419652
 31
0.0
  0
LINE
  5
6D43
330
6CD7
100
AcDbEntity
  8
150FPWINTBS
100
AcDbLine
 10
58.51829393641338
 20
16.7685537419652
 30
0.0
 11
58.08079393641339
 21
16.7685537419652
 31
0.0
  0
LINE
  5
6D44
330
6CD7
100
AcDbEntity
  8
150FPWINTBS
100
AcDbLine
 10
58.61829393641329
 20
15.69355374196538
 30
0.0
 11
58.61829393641329
 21
15.25605374196538
 31
0.0
  0
LINE
  5
6D45
330
6CD7
100
AcDbEntity
  8
150FPWINTBS
100
AcDbLine
 10
58.61829393641329
 20
16.23105374196529
 30
0.0
 11
58.61829393641329
 21
15.79355374196529
 31
0.0
  0
LINE
  5
6D46
330
6CD7
100
AcDbEntity
  8
150FPWINTBS
100
AcDbLine
 10
58.61829393641329
 20
16.7685537419652
 30
0.0
 11
58.61829393641329
 21
16.3310537419652
 31
0.0
  0
LINE
  5
6D47
330
6CD7
100
AcDbEntity
  8
150FPWINTBS
100
AcDbLine
 10
56.36829393641329
 20
15.15605374196547
 30
0.0
 11
55.93079393641329
 21
15.15605374196547
 31
0.0
  0
LINE
  5
6D48
330
6CD7
100
AcDbEntity
  8
150FPWINTBS
100
AcDbLine
 10
56.9057939364132
 20
15.15605374196547
 30
0.0
 11
56.46829393641343
 21
15.15605374196547
 31
0.0
  0
LINE
  5
6D49
330
6CD7
100
AcDbEntity
  8
150FPWINTBS
100
AcDbLine
 10
57.44329393641334
 20
15.15605374196547
 30
0.0
 11
57.00579393641334
 21
15.15605374196547
 31
0.0
  0
LINE
  5
6D4A
330
6CD7
100
AcDbEntity
  8
150FPWINTBS
100
AcDbLine
 10
55.93079393641329
 20
15.69355374196538
 30
0.0
 11
55.93079393641329
 21
15.25605374196538
 31
0.0
  0
LINE
  5
6D4B
330
6CD7
100
AcDbEntity
  8
150FPWINTBS
100
AcDbLine
 10
56.36829393641329
 20
15.69355374196538
 30
0.0
 11
56.36829393641329
 21
15.25605374196538
 31
0.0
  0
LINE
  5
6D4C
330
6CD7
100
AcDbEntity
  8
150FPWINTBS
100
AcDbLine
 10
56.36829393641329
 20
15.25605374196538
 30
0.0
 11
55.93079393641329
 21
15.25605374196538
 31
0.0
  0
LINE
  5
6D4D
330
6CD7
100
AcDbEntity
  8
150FPWINTBS
100
AcDbLine
 10
56.36829393641329
 20
15.69355374196538
 30
0.0
 11
55.93079393641329
 21
15.69355374196538
 31
0.0
  0
LINE
  5
6D4E
330
6CD7
100
AcDbEntity
  8
150FPWINTBS
100
AcDbLine
 10
55.93079393641329
 20
16.23105374196529
 30
0.0
 11
55.93079393641329
 21
15.79355374196529
 31
0.0
  0
LINE
  5
6D4F
330
6CD7
100
AcDbEntity
  8
150FPWINTBS
100
AcDbLine
 10
56.36829393641329
 20
16.23105374196529
 30
0.0
 11
56.36829393641329
 21
15.79355374196529
 31
0.0
  0
LINE
  5
6D50
330
6CD7
100
AcDbEntity
  8
150FPWINTBS
100
AcDbLine
 10
56.36829393641329
 20
15.79355374196529
 30
0.0
 11
55.93079393641329
 21
15.79355374196529
 31
0.0
  0
LINE
  5
6D51
330
6CD7
100
AcDbEntity
  8
150FPWINTBS
100
AcDbLine
 10
56.36829393641329
 20
16.23105374196529
 30
0.0
 11
55.93079393641329
 21
16.23105374196529
 31
0.0
  0
LINE
  5
6D52
330
6CD7
100
AcDbEntity
  8
150FPWINTBS
100
AcDbLine
 10
55.93079393641329
 20
16.7685537419652
 30
0.0
 11
55.93079393641329
 21
16.3310537419652
 31
0.0
  0
LINE
  5
6D53
330
6CD7
100
AcDbEntity
  8
150FPWINTBS
100
AcDbLine
 10
56.36829393641329
 20
16.7685537419652
 30
0.0
 11
56.36829393641329
 21
16.3310537419652
 31
0.0
  0
LINE
  5
6D54
330
6CD7
100
AcDbEntity
  8
150FPWINTBS
100
AcDbLine
 10
56.36829393641329
 20
16.3310537419652
 30
0.0
 11
55.93079393641329
 21
16.3310537419652
 31
0.0
  0
LINE
  5
6D55
330
6CD7
100
AcDbEntity
  8
150FPWINTBS
100
AcDbLine
 10
56.36829393641329
 20
16.7685537419652
 30
0.0
 11
55.93079393641329
 21
16.7685537419652
 31
0.0
  0
LINE
  5
6D56
330
6CD7
100
AcDbEntity
  8
150FPWINTBS
100
AcDbLine
 10
56.46829393641343
 20
15.69355374196538
 30
0.0
 11
56.4682939364132
 21
15.25605374196538
 31
0.0
  0
LINE
  5
6D57
330
6CD7
100
AcDbEntity
  8
150FPWINTBS
100
AcDbLine
 10
56.9057939364132
 20
15.69355374196538
 30
0.0
 11
56.9057939364132
 21
15.25605374196538
 31
0.0
  0
LINE
  5
6D58
330
6CD7
100
AcDbEntity
  8
150FPWINTBS
100
AcDbLine
 10
56.9057939364132
 20
15.25605374196538
 30
0.0
 11
56.4682939364132
 21
15.25605374196538
 31
0.0
  0
LINE
  5
6D59
330
6CD7
100
AcDbEntity
  8
150FPWINTBS
100
AcDbLine
 10
56.9057939364132
 20
15.69355374196538
 30
0.0
 11
56.46829393641343
 21
15.69355374196538
 31
0.0
  0
LINE
  5
6D5A
330
6CD7
100
AcDbEntity
  8
150FPWINTBS
100
AcDbLine
 10
56.46829393641343
 20
16.23105374196529
 30
0.0
 11
56.4682939364132
 21
15.79355374196529
 31
0.0
  0
LINE
  5
6D5B
330
6CD7
100
AcDbEntity
  8
150FPWINTBS
100
AcDbLine
 10
56.9057939364132
 20
16.23105374196529
 30
0.0
 11
56.9057939364132
 21
15.79355374196529
 31
0.0
  0
LINE
  5
6D5C
330
6CD7
100
AcDbEntity
  8
150FPWINTBS
100
AcDbLine
 10
56.9057939364132
 20
15.79355374196529
 30
0.0
 11
56.4682939364132
 21
15.79355374196529
 31
0.0
  0
LINE
  5
6D5D
330
6CD7
100
AcDbEntity
  8
150FPWINTBS
100
AcDbLine
 10
56.9057939364132
 20
16.23105374196529
 30
0.0
 11
56.46829393641343
 21
16.23105374196529
 31
0.0
  0
LINE
  5
6D5E
330
6CD7
100
AcDbEntity
  8
150FPWINTBS
100
AcDbLine
 10
56.46829393641343
 20
16.7685537419652
 30
0.0
 11
56.4682939364132
 21
16.3310537419652
 31
0.0
  0
LINE
  5
6D5F
330
6CD7
100
AcDbEntity
  8
150FPWINTBS
100
AcDbLine
 10
56.9057939364132
 20
16.7685537419652
 30
0.0
 11
56.9057939364132
 21
16.3310537419652
 31
0.0
  0
LINE
  5
6D60
330
6CD7
100
AcDbEntity
  8
150FPWINTBS
100
AcDbLine
 10
56.9057939364132
 20
16.3310537419652
 30
0.0
 11
56.4682939364132
 21
16.3310537419652
 31
0.0
  0
LINE
  5
6D61
330
6CD7
100
AcDbEntity
  8
150FPWINTBS
100
AcDbLine
 10
56.9057939364132
 20
16.7685537419652
 30
0.0
 11
56.46829393641343
 21
16.7685537419652
 31
0.0
  0
LINE
  5
6D62
330
6CD7
100
AcDbEntity
  8
150FPWINTBS
100
AcDbLine
 10
57.00579393641334
 20
15.69355374196538
 30
0.0
 11
57.00579393641334
 21
15.25605374196538
 31
0.0
  0
LINE
  5
6D63
330
6CD7
100
AcDbEntity
  8
150FPWINTBS
100
AcDbLine
 10
57.44329393641334
 20
15.69355374196538
 30
0.0
 11
57.44329393641334
 21
15.25605374196538
 31
0.0
  0
LINE
  5
6D64
330
6CD7
100
AcDbEntity
  8
150FPWINTBS
100
AcDbLine
 10
57.44329393641334
 20
15.25605374196538
 30
0.0
 11
57.00579393641334
 21
15.25605374196538
 31
0.0
  0
LINE
  5
6D65
330
6CD7
100
AcDbEntity
  8
150FPWINTBS
100
AcDbLine
 10
57.44329393641334
 20
15.69355374196538
 30
0.0
 11
57.00579393641334
 21
15.69355374196538
 31
0.0
  0
LINE
  5
6D66
330
6CD7
100
AcDbEntity
  8
150FPWINTBS
100
AcDbLine
 10
57.00579393641334
 20
16.23105374196529
 30
0.0
 11
57.00579393641334
 21
15.79355374196529
 31
0.0
  0
LINE
  5
6D67
330
6CD7
100
AcDbEntity
  8
150FPWINTBS
100
AcDbLine
 10
57.44329393641334
 20
16.23105374196529
 30
0.0
 11
57.44329393641334
 21
15.79355374196529
 31
0.0
  0
LINE
  5
6D68
330
6CD7
100
AcDbEntity
  8
150FPWINTBS
100
AcDbLine
 10
57.44329393641334
 20
15.79355374196529
 30
0.0
 11
57.00579393641334
 21
15.79355374196529
 31
0.0
  0
LINE
  5
6D69
330
6CD7
100
AcDbEntity
  8
150FPWINTBS
100
AcDbLine
 10
57.44329393641334
 20
16.23105374196529
 30
0.0
 11
57.00579393641334
 21
16.23105374196529
 31
0.0
  0
LINE
  5
6D6A
330
6CD7
100
AcDbEntity
  8
150FPWINTBS
100
AcDbLine
 10
57.00579393641334
 20
16.7685537419652
 30
0.0
 11
57.00579393641334
 21
16.3310537419652
 31
0.0
  0
LINE
  5
6D6B
330
6CD7
100
AcDbEntity
  8
150FPWINTBS
100
AcDbLine
 10
57.44329393641334
 20
16.7685537419652
 30
0.0
 11
57.44329393641334
 21
16.3310537419652
 31
0.0
  0
LINE
  5
6D6C
330
6CD7
100
AcDbEntity
  8
150FPWINTBS
100
AcDbLine
 10
57.44329393641334
 20
16.3310537419652
 30
0.0
 11
57.00579393641334
 21
16.3310537419652
 31
0.0
  0
LINE
  5
6D6D
330
6CD7
100
AcDbEntity
  8
150FPWINTBS
100
AcDbLine
 10
57.44329393641334
 20
16.7685537419652
 30
0.0
 11
57.00579393641334
 21
16.7685537419652
 31
0.0
  0
LINE
  5
6D6E
330
6CD7
100
AcDbEntity
  8
150FPWINTBS
100
AcDbLine
 10
57.54329393641348
 20
15.69355374196538
 30
0.0
 11
57.54329393641348
 21
15.25605374196538
 31
0.0
  0
LINE
  5
6D6F
330
6CD7
100
AcDbEntity
  8
150FPWINTBS
100
AcDbLine
 10
57.54329393641348
 20
16.23105374196529
 30
0.0
 11
57.54329393641348
 21
15.79355374196529
 31
0.0
  0
LINE
  5
6D70
330
6CD7
100
AcDbEntity
  8
150FPWINTBS
100
AcDbLine
 10
57.54329393641348
 20
16.7685537419652
 30
0.0
 11
57.54329393641348
 21
16.3310537419652
 31
0.0
  0
LINE
  5
6D71
330
6CD7
100
AcDbEntity
  8
150FPWINTBS
100
AcDbLine
 10
55.83079393641338
 20
15.69355374196538
 30
0.0
 11
55.83079393641338
 21
15.25605374196538
 31
0.0
  0
LINE
  5
6D72
330
6CD7
100
AcDbEntity
  8
150FPWINTBS
100
AcDbLine
 10
55.83079393641338
 20
16.23105374196529
 30
0.0
 11
55.83079393641338
 21
15.79355374196529
 31
0.0
  0
LINE
  5
6D73
330
6CD7
100
AcDbEntity
  8
150FPWINTBS
100
AcDbLine
 10
55.83079393641338
 20
16.7685537419652
 30
0.0
 11
55.83079393641338
 21
16.3310537419652
 31
0.0
  0
LINE
  5
6D74
330
6CD7
100
AcDbEntity
  8
150FPWINTBS
100
AcDbLine
 10
57.98079393641348
 20
15.15605374196547
 30
0.0
 11
57.54329393641348
 21
15.15605374196547
 31
0.0
  0
LINE
  5
6D75
330
6CD7
100
AcDbEntity
  8
150FPWINTBS
100
AcDbLine
 10
57.98079393641348
 20
15.25605374196538
 30
0.0
 11
57.54329393641348
 21
15.25605374196538
 31
0.0
  0
LINE
  5
6D76
330
6CD7
100
AcDbEntity
  8
150FPWINTBS
100
AcDbLine
 10
57.98079393641348
 20
15.69355374196538
 30
0.0
 11
57.54329393641348
 21
15.69355374196538
 31
0.0
  0
LINE
  5
6D77
330
6CD7
100
AcDbEntity
  8
150FPWINTBS
100
AcDbLine
 10
57.98079393641348
 20
15.79355374196529
 30
0.0
 11
57.54329393641348
 21
15.79355374196529
 31
0.0
  0
LINE
  5
6D78
330
6CD7
100
AcDbEntity
  8
150FPWINTBS
100
AcDbLine
 10
57.98079393641348
 20
16.23105374196529
 30
0.0
 11
57.54329393641348
 21
16.23105374196529
 31
0.0
  0
LINE
  5
6D79
330
6CD7
100
AcDbEntity
  8
150FPWINTBS
100
AcDbLine
 10
57.98079393641348
 20
16.3310537419652
 30
0.0
 11
57.54329393641348
 21
16.3310537419652
 31
0.0
  0
LINE
  5
6D7A
330
6CD7
100
AcDbEntity
  8
150FPWINTBS
100
AcDbLine
 10
57.98079393641348
 20
16.7685537419652
 30
0.0
 11
57.54329393641348
 21
16.7685537419652
 31
0.0
  0
CIRCLE
  5
6D7B
330
6CD7
100
AcDbEntity
  8
150FPWINTBS
  6
HIDDEN
100
AcDbCircle
 10
51.74629393641345
 20
15.35480374196549
 30
0.0
 40
0.125
  0
LINE
  5
6D7C
330
6CD7
100
AcDbEntity
  8
150FPWINTBS
100
AcDbLine
 10
59.05579393641329
 20
14.18105374196533
 30
0.0
 11
58.61829393641329
 21
14.18105374196533
 31
0.0
  0
LINE
  5
6D7D
330
6CD7
100
AcDbEntity
  8
150FPWINTBS
100
AcDbLine
 10
59.05579393641329
 20
14.61855374196533
 30
0.0
 11
58.61829393641329
 21
14.61855374196533
 31
0.0
  0
LINE
  5
6D7E
330
6CD7
100
AcDbEntity
  8
150FPWINTBS
100
AcDbLine
 10
59.05579393641329
 20
14.71855374196547
 30
0.0
 11
58.61829393641329
 21
14.71855374196547
 31
0.0
  0
LINE
  5
6D7F
330
6CD7
100
AcDbEntity
  8
150FPWINTBS
100
AcDbLine
 10
59.05579393641329
 20
15.15605374196547
 30
0.0
 11
58.61829393641329
 21
15.15605374196547
 31
0.0
  0
LINE
  5
6D80
330
6CD7
100
AcDbEntity
  8
150FPWINTBS
100
AcDbLine
 10
59.05579393641329
 20
15.25605374196538
 30
0.0
 11
58.61829393641329
 21
15.25605374196538
 31
0.0
  0
LINE
  5
6D81
330
6CD7
100
AcDbEntity
  8
150FPWINTBS
100
AcDbLine
 10
59.05579393641329
 20
15.69355374196538
 30
0.0
 11
58.61829393641329
 21
15.69355374196538
 31
0.0
  0
LINE
  5
6D82
330
6CD7
100
AcDbEntity
  8
150FPWINTBS
100
AcDbLine
 10
59.05579393641329
 20
15.79355374196529
 30
0.0
 11
58.61829393641329
 21
15.79355374196529
 31
0.0
  0
LINE
  5
6D83
330
6CD7
100
AcDbEntity
  8
150FPWINTBS
100
AcDbLine
 10
59.05579393641329
 20
16.23105374196529
 30
0.0
 11
58.61829393641329
 21
16.23105374196529
 31
0.0
  0
LINE
  5
6D84
330
6CD7
100
AcDbEntity
  8
150FPWINTBS
100
AcDbLine
 10
59.05579393641329
 20
16.3310537419652
 30
0.0
 11
58.61829393641329
 21
16.3310537419652
 31
0.0
  0
LINE
  5
6D85
330
6CD7
100
AcDbEntity
  8
150FPWINTBS
100
AcDbLine
 10
59.05579393641329
 20
16.7685537419652
 30
0.0
 11
58.61829393641329
 21
16.7685537419652
 31
0.0
  0
LINE
  5
6D86
330
6CD7
100
AcDbEntity
  8
150FPWINTBS
100
AcDbLine
 10
59.04329393641325
 20
17.54480374196532
 30
0.0
 11
59.04329393641325
 21
17.47480374196538
 31
0.0
  0
LINE
  5
6D87
330
6CD7
100
AcDbEntity
  8
150FPWINTBS
100
AcDbLine
 10
59.04329393641325
 20
17.47480374196538
 30
0.0
 11
59.32329393641322
 21
17.47480374196538
 31
0.0
  0
LINE
  5
6D88
330
6CD7
100
AcDbEntity
  8
150FPWINTBS
100
AcDbLine
 10
59.32329393641322
 20
17.54480374196532
 30
0.0
 11
59.32329393641322
 21
17.47480374196538
 31
0.0
  0
LINE
  5
6D89
330
6CD7
100
AcDbEntity
  8
150FPWINTBS
100
AcDbLine
 10
52.54329393641325
 20
17.54480374196532
 30
0.0
 11
52.54329393641325
 21
17.47480374196538
 31
0.0
  0
LINE
  5
6D8A
330
6CD7
100
AcDbEntity
  8
150FPWINTBS
100
AcDbLine
 10
52.54329393641325
 20
17.47480374196538
 30
0.0
 11
52.82329393641322
 21
17.47480374196538
 31
0.0
  0
LINE
  5
6D8B
330
6CD7
100
AcDbEntity
  8
150FPWINTBS
100
AcDbLine
 10
52.82329393641322
 20
17.54480374196532
 30
0.0
 11
52.82329393641322
 21
17.47480374196538
 31
0.0
  0
LINE
  5
6D8C
330
6CD7
100
AcDbEntity
  8
150FPWINTBS
100
AcDbLine
 10
50.8062939364134
 20
17.54480374196532
 30
0.0
 11
61.06129393641328
 21
17.54480374196532
 31
0.0
  0
LINE
  5
6D8D
330
6CD7
100
AcDbEntity
  8
150FPWINTBS
100
AcDbLine
 10
50.74629393641322
 20
17.60480374196526
 30
0.0
 11
61.12129393641322
 21
17.60480374196526
 31
0.0
  0
LINE
  5
6D8E
330
6CD7
100
AcDbEntity
  8
150FPWINTBS
100
AcDbLine
 10
60.99129393641334
 20
16.30780374196524
 30
0.0
 11
61.06129393641328
 21
16.30780374196524
 31
0.0
  0
LINE
  5
6D8F
330
6CD7
100
AcDbEntity
  8
150FPWINTBS
100
AcDbLine
 10
60.99129393641334
 20
16.30780374196524
 30
0.0
 11
60.99129393641334
 21
16.02780374196549
 31
0.0
  0
LINE
  5
6D90
330
6CD7
100
AcDbEntity
  8
150FPWINTBS
100
AcDbLine
 10
60.99129393641334
 20
16.02780374196549
 30
0.0
 11
61.06129393641328
 21
16.02780374196549
 31
0.0
  0
LINE
  5
6D91
330
6CD7
100
AcDbEntity
  8
150FPWINTBS
100
AcDbLine
 10
60.99129393641334
 20
8.807803741965237
 30
0.0
 11
61.06129393641328
 21
8.807803741965237
 31
0.0
  0
LINE
  5
6D92
330
6CD7
100
AcDbEntity
  8
150FPWINTBS
100
AcDbLine
 10
60.99129393641334
 20
8.807803741965237
 30
0.0
 11
60.99129393641334
 21
8.527803741965492
 31
0.0
  0
LINE
  5
6D93
330
6CD7
100
AcDbEntity
  8
150FPWINTBS
100
AcDbLine
 10
60.99129393641334
 20
8.527803741965492
 30
0.0
 11
61.06129393641328
 21
8.527803741965492
 31
0.0
  0
CIRCLE
  5
6D94
330
6CD7
100
AcDbEntity
  8
150FPWINTBS
100
AcDbCircle
 10
60.12129393641322
 20
7.667803741965364
 30
0.0
 40
0.125
  0
CIRCLE
  5
6D95
330
6CD7
100
AcDbEntity
  8
150FPWINTBS
100
AcDbCircle
 10
60.12129393641322
 20
7.667803741965364
 30
0.0
 40
0.22
  0
LINE
  5
6D96
330
6CD7
100
AcDbEntity
  8
150FPWINTBS
100
AcDbLine
 10
50.8062939364134
 20
16.02780374196549
 30
0.0
 11
50.87629393641333
 21
16.02780374196549
 31
0.0
  0
LINE
  5
6D97
330
6CD7
100
AcDbEntity
  8
150FPWINTBS
100
AcDbLine
 10
50.87629393641333
 20
16.30780374196524
 30
0.0
 11
50.87629393641333
 21
16.02780374196549
 31
0.0
  0
LINE
  5
6D98
330
6CD7
100
AcDbEntity
  8
150FPWINTBS
100
AcDbLine
 10
50.8062939364134
 20
16.30780374196524
 30
0.0
 11
50.87629393641333
 21
16.30780374196524
 31
0.0
  0
LINE
  5
6D99
330
6CD7
100
AcDbEntity
  8
150FPWINTBS
100
AcDbLine
 10
50.8062939364134
 20
8.527803741965492
 30
0.0
 11
50.87629393641333
 21
8.527803741965264
 31
0.0
  0
LINE
  5
6D9A
330
6CD7
100
AcDbEntity
  8
150FPWINTBS
100
AcDbLine
 10
50.87629393641333
 20
8.807803741965237
 30
0.0
 11
50.87629393641333
 21
8.527803741965264
 31
0.0
  0
LINE
  5
6D9B
330
6CD7
100
AcDbEntity
  8
150FPWINTBS
100
AcDbLine
 10
50.8062939364134
 20
8.807803741965237
 30
0.0
 11
50.87629393641333
 21
8.807803741965237
 31
0.0
  0
CIRCLE
  5
6D9C
330
6CD7
100
AcDbEntity
  8
150FPWINTBS
100
AcDbCircle
 10
51.74629393641322
 20
7.667803741965364
 30
0.0
 40
0.125
  0
CIRCLE
  5
6D9D
330
6CD7
100
AcDbEntity
  8
150FPWINTBS
100
AcDbCircle
 10
51.74629393641322
 20
7.667803741965364
 30
0.0
 40
0.22
  0
LINE
  5
6D9E
330
6CD7
100
AcDbEntity
  8
150FPWINTBS
100
AcDbLine
 10
60.99129393641334
 20
1.307803741965237
 30
0.0
 11
61.06129393641328
 21
1.307803741965237
 31
0.0
  0
LINE
  5
6D9F
330
6CD7
100
AcDbEntity
  8
150FPWINTBS
100
AcDbLine
 10
60.99129393641334
 20
1.307803741965237
 30
0.0
 11
60.99129393641334
 21
1.027803741965492
 31
0.0
  0
LINE
  5
6DA0
330
6CD7
100
AcDbEntity
  8
150FPWINTBS
100
AcDbLine
 10
60.99129393641334
 20
1.027803741965492
 30
0.0
 11
61.06129393641328
 21
1.027803741965492
 31
0.0
  0
LINE
  5
6DA1
330
6CD7
100
AcDbEntity
  8
150FPWINTBS
100
AcDbLine
 10
60.99129393641334
 20
0.0578037419652375
 30
0.0
 11
61.06129393641328
 21
0.0578037419652375
 31
0.0
  0
LINE
  5
6DA2
330
6CD7
100
AcDbEntity
  8
150FPWINTBS
100
AcDbLine
 10
60.99129393641334
 20
0.0578037419652375
 30
0.0
 11
60.99129393641334
 21
-0.2221962580345078
 31
0.0
  0
LINE
  5
6DA3
330
6CD7
100
AcDbEntity
  8
150FPWINTBS
100
AcDbLine
 10
60.99129393641334
 20
-0.2221962580345078
 30
0.0
 11
61.06129393641328
 21
-0.2221962580345078
 31
0.0
  0
LINE
  5
6DA4
330
6CD7
100
AcDbEntity
  8
150FPWINTBS
100
AcDbLine
 10
61.06129393641328
 20
0.1678037419653648
 30
0.0
 11
61.12129393641322
 21
0.1678037419653648
 31
0.0
  0
CIRCLE
  5
6DA5
330
6CD7
100
AcDbEntity
  8
150FPWINTBS
100
AcDbCircle
 10
60.12129393641322
 20
1.917803741965364
 30
0.0
 40
0.125
  0
CIRCLE
  5
6DA6
330
6CD7
100
AcDbEntity
  8
150FPWINTBS
100
AcDbCircle
 10
60.12129393641322
 20
1.917803741965364
 30
0.0
 40
0.22
  0
LINE
  5
6DA7
330
6CD7
100
AcDbEntity
  8
150FPWINTBS
100
AcDbLine
 10
50.8062939364134
 20
-0.2221962580345078
 30
0.0
 11
50.87629393641333
 21
-0.2221962580345078
 31
0.0
  0
LINE
  5
6DA8
330
6CD7
100
AcDbEntity
  8
150FPWINTBS
100
AcDbLine
 10
50.87629393641333
 20
0.0578037419652375
 30
0.0
 11
50.87629393641333
 21
-0.2221962580345078
 31
0.0
  0
LINE
  5
6DA9
330
6CD7
100
AcDbEntity
  8
150FPWINTBS
100
AcDbLine
 10
50.8062939364134
 20
0.0578037419652375
 30
0.0
 11
50.87629393641333
 21
0.0578037419652375
 31
0.0
  0
LINE
  5
6DAA
330
6CD7
100
AcDbEntity
  8
150FPWINTBS
100
AcDbLine
 10
50.8062939364134
 20
1.027803741965264
 30
0.0
 11
50.87629393641333
 21
1.027803741965264
 31
0.0
  0
LINE
  5
6DAB
330
6CD7
100
AcDbEntity
  8
150FPWINTBS
100
AcDbLine
 10
50.87629393641333
 20
1.307803741965237
 30
0.0
 11
50.87629393641333
 21
1.027803741965264
 31
0.0
  0
LINE
  5
6DAC
330
6CD7
100
AcDbEntity
  8
150FPWINTBS
100
AcDbLine
 10
50.8062939364134
 20
1.307803741965237
 30
0.0
 11
50.87629393641333
 21
1.307803741965237
 31
0.0
  0
LINE
  5
6DAD
330
6CD7
100
AcDbEntity
  8
150FPWINTBS
100
AcDbLine
 10
50.74629393641322
 20
0.1678037419653648
 30
0.0
 11
50.8062939364134
 21
0.1678037419653648
 31
0.0
  0
CIRCLE
  5
6DAE
330
6CD7
100
AcDbEntity
  8
150FPWINTBS
100
AcDbCircle
 10
51.74629393641322
 20
1.917803741965364
 30
0.0
 40
0.125
  0
CIRCLE
  5
6DAF
330
6CD7
100
AcDbEntity
  8
150FPWINTBS
100
AcDbCircle
 10
51.74629393641322
 20
1.917803741965364
 30
0.0
 40
0.22
  0
LINE
  5
6DB0
330
6CD7
100
AcDbEntity
  8
150FPWINTBS
100
AcDbLine
 10
61.06129393641328
 20
-0.2721962580346897
 30
0.0
 11
50.8062939364134
 21
-0.2721962580346897
 31
0.0
  0
LINE
  5
6DB1
330
6CD7
100
AcDbEntity
  8
150FPWINTBS
100
AcDbLine
 10
50.74629393641322
 20
-0.3321962580346351
 30
0.0
 11
61.12129393641322
 21
-0.3321962580346351
 31
0.0
  0
LINE
  5
6DB2
330
6CD7
100
AcDbEntity
  8
150FPWINTBS
100
AcDbLine
 10
50.8062939364134
 20
17.54480374196532
 30
0.0
 11
50.8062939364134
 21
-0.2721962580346897
 31
0.0
  0
LINE
  5
6DB3
330
6CD7
100
AcDbEntity
  8
150FPWINTBS
100
AcDbLine
 10
50.74629393641322
 20
17.60480374196526
 30
0.0
 11
50.74629393641322
 21
-0.3321962580346351
 31
0.0
  0
LINE
  5
6DB4
330
6CD7
100
AcDbEntity
  8
150FPWINTBS
100
AcDbLine
 10
61.06129393641328
 20
17.54480374196532
 30
0.0
 11
61.06129393641328
 21
-0.2721962580346897
 31
0.0
  0
LINE
  5
6DB5
330
6CD7
100
AcDbEntity
  8
150FPWINTBS
100
AcDbLine
 10
61.12129393641322
 20
17.60480374196526
 30
0.0
 11
61.12129393641322
 21
-0.3321962580346351
 31
0.0
  0
ENDBLK
  5
6CD9
330
6CD7
100
AcDbEntity
  8
0
100
AcDbBlockEnd
  0
BLOCK
  5
6DB8
330
6DB7
100
AcDbEntity
  8
0
100
AcDbBlockBegin
  2
*D98
 70
     1
 10
0.0
 20
0.0
 30
0.0
  3
*D98
  1

  0
LINE
  5
6DB9
330
6DB7
100
AcDbEntity
  8
DIM
 62
     0
440
 16777216
370
    -2
100
AcDbLine
 10
-40.11414268138081
 20
-63.26387468493916
 30
0.0
 11
-40.73914268138081
 21
-63.26387468493916
 31
0.0
  0
MTEXT
  5
6DBA
330
6DB7
100
AcDbEntity
  8
DIM
 62
     0
440
 16777216
100
AcDbMText
 10
-42.78080934804749
 20
-63.26387468493916
 30
0.0
 40
1.0
 41
0.0
 46
0.0
 71
     5
 72
     1
  1
\A1;0.000
 73
     1
 44
1.0
  0
POINT
  5
6DBB
330
6DB7
100
AcDbEntity
  8
Defpoints
 62
     0
440
 16777216
100
AcDbPoint
 10
-39.73914268138083
 20
-63.26387468493916
 30
0.0
  0
POINT
  5
6DBC
330
6DB7
100
AcDbEntity
  8
Defpoints
 62
     0
440
 16777216
100
AcDbPoint
 10
-40.73914268138081
 20
-63.26387468493916
 30
0.0
  0
POINT
  5
6DBD
330
6DB7
100
AcDbEntity
  8
Defpoints
 62
     0
440
 16777216
100
AcDbPoint
 10
-39.73914013594782
 20
-63.26387974896217
 30
0.0
  0
ENDBLK
  5
6DBE
330
6DB7
100
AcDbEntity
  8
0
100
AcDbBlockEnd
  0
BLOCK
  5
6DC0
330
6DBF
100
AcDbEntity
  8
0
100
AcDbBlockBegin
  2
*D99
 70
     1
 10
0.0
 20
0.0
 30
0.0
  3
*D99
  1

  0
LINE
  5
6DC1
330
6DBF
100
AcDbEntity
  8
DIM
 62
     0
440
 16777216
370
    -2
100
AcDbLine
 10
-39.73914268138083
 20
-63.63887468493913
 30
0.0
 11
-39.73914268138083
 21
-64.26387468493913
 31
0.0
  0
MTEXT
  5
6DC2
330
6DBF
100
AcDbEntity
  8
DIM
 62
     0
440
 16777216
100
AcDbMText
 10
-39.73914268138082
 20
-66.30554135160584
 30
0.0
 40
1.0
 41
0.0
 46
0.0
 71
     5
 72
     1
  1
\A1;0.000
 11
0.0000000000000001
 21
1.0
 31
0.0
 73
     1
 44
1.0
  0
POINT
  5
6DC3
330
6DBF
100
AcDbEntity
  8
Defpoints
 62
     0
440
 16777216
100
AcDbPoint
 10
-39.73914268138083
 20
-63.26387468493916
 30
0.0
  0
POINT
  5
6DC4
330
6DBF
100
AcDbEntity
  8
Defpoints
 62
     0
440
 16777216
100
AcDbPoint
 10
-39.73914268138083
 20
-64.26387468493913
 30
0.0
  0
POINT
  5
6DC5
330
6DBF
100
AcDbEntity
  8
Defpoints
 62
     0
440
 16777216
100
AcDbPoint
 10
-39.73914013594782
 20
-63.26387974896217
 30
0.0
  0
ENDBLK
  5
6DC6
330
6DBF
100
AcDbEntity
  8
0
100
AcDbBlockEnd
  0
BLOCK
  5
6DC8
330
6DC7
100
AcDbEntity
  8
0
100
AcDbBlockBegin
  2
*D100
 70
     1
 10
0.0
 20
0.0
 30
0.0
  3
*D100
  1

  0
LINE
  5
6DC9
330
6DC7
100
AcDbEntity
  8
DIM
 62
     0
440
 16777216
370
    -2
100
AcDbLine
 10
-40.11414268138081
 20
-45.25387468493915
 30
0.0
 11
-40.73914268138081
 21
-45.25387468493915
 31
0.0
  0
MTEXT
  5
6DCA
330
6DC7
100
AcDbEntity
  8
DIM
 62
     0
440
 16777216
100
AcDbMText
 10
-43.11414268138082
 20
-45.25387468493915
 30
0.0
 40
1.0
 41
0.0
 46
0.0
 71
     5
 72
     1
  1
\A1;18.010
 73
     1
 44
1.0
  0
POINT
  5
6DCB
330
6DC7
100
AcDbEntity
  8
Defpoints
 62
     0
440
 16777216
100
AcDbPoint
 10
-39.73914268138083
 20
-45.25387468493915
 30
0.0
  0
POINT
  5
6DCC
330
6DC7
100
AcDbEntity
  8
Defpoints
 62
     0
440
 16777216
100
AcDbPoint
 10
-40.73914268138081
 20
-45.25387468493915
 30
0.0
  0
POINT
  5
6DCD
330
6DC7
100
AcDbEntity
  8
Defpoints
 62
     0
440
 16777216
100
AcDbPoint
 10
-39.73917362090072
 20
-63.26387733938673
 30
0.0
  0
ENDBLK
  5
6DCE
330
6DC7
100
AcDbEntity
  8
0
100
AcDbBlockEnd
  0
BLOCK
  5
6DD0
330
6DCF
100
AcDbEntity
  8
0
100
AcDbBlockBegin
  2
*D101
 70
     1
 10
0.0
 20
0.0
 30
0.0
  3
*D101
  1

  0
LINE
  5
6DD1
330
6DCF
100
AcDbEntity
  8
DIM
 62
     0
440
 16777216
370
    -2
100
AcDbLine
 10
-29.20914268138086
 20
-44.87887468493915
 30
0.0
 11
-29.20914268138086
 21
-44.25387468493915
 31
0.0
  0
MTEXT
  5
6DD2
330
6DCF
100
AcDbEntity
  8
DIM
 62
     0
440
 16777216
100
AcDbMText
 10
-29.20914268138086
 20
-41.71220801827248
 30
0.0
 40
1.0
 41
0.0
 46
0.0
 71
     5
 72
     1
  1
\A1;10.530
 11
0.0000000000000001
 21
1.0
 31
0.0
 73
     1
 44
1.0
  0
POINT
  5
6DD3
330
6DCF
100
AcDbEntity
  8
Defpoints
 62
     0
440
 16777216
100
AcDbPoint
 10
-29.20914268138086
 20
-45.25387468493915
 30
0.0
  0
POINT
  5
6DD4
330
6DCF
100
AcDbEntity
  8
Defpoints
 62
     0
440
 16777216
100
AcDbPoint
 10
-29.20914268138086
 20
-44.25387468493915
 30
0.0
  0
POINT
  5
6DD5
330
6DCF
100
AcDbEntity
  8
Defpoints
 62
     0
440
 16777216
100
AcDbPoint
 10
-39.73917362090072
 20
-63.26387733938673
 30
0.0
  0
ENDBLK
  5
6DD6
330
6DCF
100
AcDbEntity
  8
0
100
AcDbBlockEnd
  0
BLOCK
  5
6DD8
330
6DD7
100
AcDbEntity
  8
0
100
AcDbBlockBegin
  2
*D102
 70
     1
 10
0.0
 20
0.0
 30
0.0
  3
*D102
  1

  0
LINE
  5
6DD9
330
6DD7
100
AcDbEntity
  8
DIM
 62
     0
440
 16777216
370
    -2
100
AcDbLine
 10
-39.03664268138073
 20
-55.26387468493915
 30
0.0
 11
-40.73914268138081
 21
-55.26387468493915
 31
0.0
  0
MTEXT
  5
6DDA
330
6DD7
100
AcDbEntity
  8
DIM
 62
     0
440
 16777216
100
AcDbMText
 10
-44.53080934804748
 20
-55.26387468493915
 30
0.0
 40
1.0
 41
0.0
 46
0.0
 71
     5
 72
     1
  1
\A1;(2) 8.000
 73
     1
 44
1.0
  0
POINT
  5
6DDB
330
6DD7
100
AcDbEntity
  8
Defpoints
 62
     0
440
 16777216
100
AcDbPoint
 10
-38.66164268138073
 20
-55.26387468493915
 30
0.0
  0
POINT
  5
6DDC
330
6DD7
100
AcDbEntity
  8
Defpoints
 62
     0
440
 16777216
100
AcDbPoint
 10
-40.73914268138081
 20
-55.26387468493915
 30
0.0
  0
POINT
  5
6DDD
330
6DD7
100
AcDbEntity
  8
Defpoints
 62
     0
440
 16777216
100
AcDbPoint
 10
-39.73917362090072
 20
-63.26387733938673
 30
0.0
  0
ENDBLK
  5
6DDE
330
6DD7
100
AcDbEntity
  8
0
100
AcDbBlockEnd
  0
BLOCK
  5
6DE0
330
6DDF
100
AcDbEntity
  8
0
100
AcDbBlockBegin
  2
*D103
 70
     1
 10
0.0
 20
0.0
 30
0.0
  3
*D103
  1

  0
LINE
  5
6DE1
330
6DDF
100
AcDbEntity
  8
DIM
 62
     0
440
 16777216
370
    -2
100
AcDbLine
 10
-39.03664268138073
 20
-61.01387468493914
 30
0.0
 11
-40.73914268138081
 21
-61.01387468493914
 31
0.0
  0
MTEXT
  5
6DE2
330
6DDF
100
AcDbEntity
  8
DIM
 62
     0
440
 16777216
100
AcDbMText
 10
-44.69747601471414
 20
-61.01387468493914
 30
0.0
 40
1.0
 41
0.0
 46
0.0
 71
     5
 72
     1
  1
\A1;(2) 2.250
 73
     1
 44
1.0
  0
POINT
  5
6DE3
330
6DDF
100
AcDbEntity
  8
Defpoints
 62
     0
440
 16777216
100
AcDbPoint
 10
-38.66164268138073
 20
-61.01387468493914
 30
0.0
  0
POINT
  5
6DE4
330
6DDF
100
AcDbEntity
  8
Defpoints
 62
     0
440
 16777216
100
AcDbPoint
 10
-40.73914268138081
 20
-61.01387468493914
 30
0.0
  0
POINT
  5
6DE5
330
6DDF
100
AcDbEntity
  8
Defpoints
 62
     0
440
 16777216
100
AcDbPoint
 10
-39.73917362090072
 20
-63.26387733938673
 30
0.0
  0
ENDBLK
  5
6DE6
330
6DDF
100
AcDbEntity
  8
0
100
AcDbBlockEnd
  0
BLOCK
  5
6DE8
330
6DE7
100
AcDbEntity
  8
0
100
AcDbBlockBegin
  2
*D104
 70
     1
 10
0.0
 20
0.0
 30
0.0
  3
*D104
  1

  0
LINE
  5
6DE9
330
6DE7
100
AcDbEntity
  8
DIM
 62
     0
440
 16777216
370
    -2
100
AcDbLine
 10
-39.03664268138073
 20
-47.57687468493903
 30
0.0
 11
-40.73914268138081
 21
-47.57687468493903
 31
0.0
  0
MTEXT
  5
6DEA
330
6DE7
100
AcDbEntity
  8
DIM
 62
     0
440
 16777216
100
AcDbMText
 10
-45.11414268138081
 20
-47.57687468493903
 30
0.0
 40
1.0
 41
0.0
 46
0.0
 71
     5
 72
     1
  1
\A1;(2) 15.687
 73
     1
 44
1.0
  0
POINT
  5
6DEB
330
6DE7
100
AcDbEntity
  8
Defpoints
 62
     0
440
 16777216
100
AcDbPoint
 10
-38.66164268138073
 20
-47.57687468493903
 30
0.0
  0
POINT
  5
6DEC
330
6DE7
100
AcDbEntity
  8
Defpoints
 62
     0
440
 16777216
100
AcDbPoint
 10
-40.73914268138081
 20
-47.57687468493903
 30
0.0
  0
POINT
  5
6DED
330
6DE7
100
AcDbEntity
  8
Defpoints
 62
     0
440
 16777216
100
AcDbPoint
 10
-39.73917362090072
 20
-63.26387733938673
 30
0.0
  0
ENDBLK
  5
6DEE
330
6DE7
100
AcDbEntity
  8
0
100
AcDbBlockEnd
  0
BLOCK
  5
6DF0
330
6DEF
100
AcDbEntity
  8
0
100
AcDbBlockBegin
  2
*D105
 70
     1
 10
0.0
 20
0.0
 30
0.0
  3
*D105
  1

  0
LINE
  5
6DF1
330
6DEF
100
AcDbEntity
  8
DIM
 62
     0
440
 16777216
370
    -2
100
AcDbLine
 10
-30.28664268138073
 20
-61.38887468493914
 30
0.0
 11
-30.28664268138073
 21
-64.26387468493913
 31
0.0
  0
MTEXT
  5
6DF2
330
6DEF
100
AcDbEntity
  8
DIM
 62
     0
440
 16777216
100
AcDbMText
 10
-30.28664268138072
 20
-67.80554135160581
 30
0.0
 40
1.0
 41
0.0
 46
0.0
 71
     5
 72
     1
  1
\A1;(4)9.453
 11
0.0000000000000001
 21
1.0
 31
0.0
 73
     1
 44
1.0
  0
POINT
  5
6DF3
330
6DEF
100
AcDbEntity
  8
Defpoints
 62
     0
440
 16777216
100
AcDbPoint
 10
-30.28664268138073
 20
-61.01387468493914
 30
0.0
  0
POINT
  5
6DF4
330
6DEF
100
AcDbEntity
  8
Defpoints
 62
     0
440
 16777216
100
AcDbPoint
 10
-30.28664268138073
 20
-64.26387468493913
 30
0.0
  0
POINT
  5
6DF5
330
6DEF
100
AcDbEntity
  8
Defpoints
 62
     0
440
 16777216
100
AcDbPoint
 10
-39.73917362090072
 20
-63.26387733938673
 30
0.0
  0
ENDBLK
  5
6DF6
330
6DEF
100
AcDbEntity
  8
0
100
AcDbBlockEnd
  0
BLOCK
  5
6DF8
330
6DF7
100
AcDbEntity
  8
0
100
AcDbBlockBegin
  2
*D106
 70
     1
 10
0.0
 20
0.0
 30
0.0
  3
*D106
  1

  0
LINE
  5
6DF9
330
6DF7
100
AcDbEntity
  8
DIM
 62
     0
440
 16777216
370
    -2
100
AcDbLine
 10
-37.77414268138083
 20
-45.59562468493907
 30
0.0
 11
-37.77414268138083
 21
-44.25387468493915
 31
0.0
  0
MTEXT
  5
6DFA
330
6DF7
100
AcDbEntity
  8
DIM
 62
     0
440
 16777216
100
AcDbMText
 10
-37.77414268138083
 20
-42.04554135160582
 30
0.0
 40
1.0
 41
0.0
 46
0.0
 71
     5
 72
     1
  1
\A1;1.965
 11
0.0000000000000001
 21
1.0
 31
0.0
 73
     1
 44
1.0
  0
POINT
  5
6DFB
330
6DF7
100
AcDbEntity
  8
Defpoints
 62
     0
440
 16777216
100
AcDbPoint
 10
-37.77414268138083
 20
-45.97062468493906
 30
0.0
  0
POINT
  5
6DFC
330
6DF7
100
AcDbEntity
  8
Defpoints
 62
     0
440
 16777216
100
AcDbPoint
 10
-37.77414268138083
 20
-44.25387468493915
 30
0.0
  0
POINT
  5
6DFD
330
6DF7
100
AcDbEntity
  8
Defpoints
 62
     0
440
 16777216
100
AcDbPoint
 10
-39.73917362090072
 20
-63.26387733938673
 30
0.0
  0
ENDBLK
  5
6DFE
330
6DF7
100
AcDbEntity
  8
0
100
AcDbBlockEnd
  0
BLOCK
  5
6E00
330
6DFF
100
AcDbEntity
  8
0
100
AcDbBlockBegin
  2
*D107
 70
     1
 10
0.0
 20
0.0
 30
0.0
  3
*D107
  1

  0
LINE
  5
6E01
330
6DFF
100
AcDbEntity
  8
DIM
 62
     0
440
 16777216
370
    -2
100
AcDbLine
 10
-31.1741426813809
 20
-45.59562468493908
 30
0.0
 11
-31.1741426813809
 21
-44.25387468493915
 31
0.0
  0
MTEXT
  5
6E02
330
6DFF
100
AcDbEntity
  8
DIM
 62
     0
440
 16777216
100
AcDbMText
 10
-31.17414268138088
 20
-41.87887468493914
 30
0.0
 40
1.0
 41
0.0
 46
0.0
 71
     5
 72
     1
  1
\A1;8.565
 11
0.0000000000000001
 21
1.0
 31
0.0
 73
     1
 44
1.0
  0
POINT
  5
6E03
330
6DFF
100
AcDbEntity
  8
Defpoints
 62
     0
440
 16777216
100
AcDbPoint
 10
-31.1741426813809
 20
-45.97062468493908
 30
0.0
  0
POINT
  5
6E04
330
6DFF
100
AcDbEntity
  8
Defpoints
 62
     0
440
 16777216
100
AcDbPoint
 10
-31.1741426813809
 20
-44.25387468493915
 30
0.0
  0
POINT
  5
6E05
330
6DFF
100
AcDbEntity
  8
Defpoints
 62
     0
440
 16777216
100
AcDbPoint
 10
-39.73917362090072
 20
-63.26387733938673
 30
0.0
  0
ENDBLK
  5
6E06
330
6DFF
100
AcDbEntity
  8
0
100
AcDbBlockEnd
  0
BLOCK
  5
6E08
330
6E07
100
AcDbEntity
  8
0
100
AcDbBlockBegin
  2
*D108
 70
     1
 10
0.0
 20
0.0
 30
0.0
  3
*D108
  1

  0
LINE
  5
6E09
330
6E07
100
AcDbEntity
  8
DIM
 62
     0
440
 16777216
370
    -2
100
AcDbLine
 10
-30.79914268138089
 20
-45.97062468493908
 30
0.0
 11
-28.20914268138086
 21
-45.97062468493908
 31
0.0
  0
MTEXT
  5
6E0A
330
6E07
100
AcDbEntity
  8
DIM
 62
     0
440
 16777216
100
AcDbMText
 10
-25.50080934804752
 20
-45.97062468493908
 30
0.0
 40
1.0
 41
0.0
 46
0.0
 71
     5
 72
     1
  1
\A1;17.293
 73
     1
 44
1.0
  0
POINT
  5
6E0B
330
6E07
100
AcDbEntity
  8
Defpoints
 62
     0
440
 16777216
100
AcDbPoint
 10
-31.1741426813809
 20
-45.97062468493908
 30
0.0
  0
POINT
  5
6E0C
330
6E07
100
AcDbEntity
  8
Defpoints
 62
     0
440
 16777216
100
AcDbPoint
 10
-28.20914268138086
 20
-45.97062468493908
 30
0.0
  0
POINT
  5
6E0D
330
6E07
100
AcDbEntity
  8
Defpoints
 62
     0
440
 16777216
100
AcDbPoint
 10
-39.73917362090072
 20
-63.26387733938673
 30
0.0
  0
ENDBLK
  5
6E0E
330
6E07
100
AcDbEntity
  8
0
100
AcDbBlockEnd
  0
BLOCK
  5
6E10
330
6E0F
100
AcDbEntity
  8
0
100
AcDbBlockBegin
  2
*D109
 70
     1
 10
0.0
 20
0.0
 30
0.0
  3
*D109
  1

  0
LINE
  5
6E11
330
6E0F
100
AcDbEntity
  8
DIM
 62
     0
440
 16777216
370
    -2
100
AcDbLine
 10
-30.79914268138089
 20
-48.80812468493918
 30
0.0
 11
-28.20914268138086
 21
-48.80812468493918
 31
0.0
  0
MTEXT
  5
6E12
330
6E0F
100
AcDbEntity
  8
DIM
 62
     0
440
 16777216
100
AcDbMText
 10
-25.50080934804752
 20
-48.80812468493918
 30
0.0
 40
1.0
 41
0.0
 46
0.0
 71
     5
 72
     1
  1
\A1;14.456
 73
     1
 44
1.0
  0
POINT
  5
6E13
330
6E0F
100
AcDbEntity
  8
Defpoints
 62
     0
440
 16777216
100
AcDbPoint
 10
-31.1741426813809
 20
-48.80812468493918
 30
0.0
  0
POINT
  5
6E14
330
6E0F
100
AcDbEntity
  8
Defpoints
 62
     0
440
 16777216
100
AcDbPoint
 10
-28.20914268138086
 20
-48.80812468493918
 30
0.0
  0
POINT
  5
6E15
330
6E0F
100
AcDbEntity
  8
Defpoints
 62
     0
440
 16777216
100
AcDbPoint
 10
-39.73917362090072
 20
-63.26387733938673
 30
0.0
  0
ENDBLK
  5
6E16
330
6E0F
100
AcDbEntity
  8
0
100
AcDbBlockEnd
  0
BLOCK
  5
6E18
330
6E17
100
AcDbEntity
  8
0
100
AcDbBlockBegin
  2
*D110
 70
     1
 10
0.0
 20
0.0
 30
0.0
  3
*D110
  1

  0
LINE
  5
6E19
330
6E17
100
AcDbEntity
  8
DIM
 62
     0
440
 16777216
370
    -2
100
AcDbLine
 10
-30.66114013594782
 20
-49.57687974896217
 30
0.0
 11
-36.95614980824533
 21
-49.57687974896217
 31
0.0
  0
LINE
  5
6E1A
330
6E17
100
AcDbEntity
  8
DIM
 62
     0
440
 16777216
370
    -2
100
AcDbLine
 10
-36.95614980824533
 20
-49.57687974896217
 30
0.0
 11
-38.95614980824534
 21
-49.57487579271344
 31
0.0
  0
LINE
  5
6E1B
330
6E17
100
AcDbEntity
  8
DIM
 62
     0
440
 16777216
370
    -2
100
AcDbLine
 10
-38.95614980824534
 20
-49.57487579271344
 30
0.0
 11
-40.95614980824533
 21
-49.57487579271344
 31
0.0
  0
MTEXT
  5
6E1C
330
6E17
100
AcDbEntity
  8
DIM
 62
     0
440
 16777216
100
AcDbMText
 10
-43.66448314157866
 20
-49.57487579271344
 30
0.0
 40
1.0
 41
0.0
 46
0.0
 71
     5
 72
     1
  1
\A1;13.687
 73
     1
 44
1.0
  0
POINT
  5
6E1D
330
6E17
100
AcDbEntity
  8
Defpoints
 62
     0
440
 16777216
100
AcDbPoint
 10
-30.28614013594782
 20
-49.57687974896217
 30
0.0
  0
POINT
  5
6E1E
330
6E17
100
AcDbEntity
  8
Defpoints
 62
     0
440
 16777216
100
AcDbPoint
 10
-40.95614980824533
 20
-49.57487579271344
 30
0.0
  0
POINT
  5
6E1F
330
6E17
100
AcDbEntity
  8
Defpoints
 62
     0
440
 16777216
100
AcDbPoint
 10
-39.73914013594782
 20
-63.26387974896217
 30
0.0
  0
ENDBLK
  5
6E20
330
6E17
100
AcDbEntity
  8
0
100
AcDbBlockEnd
  0
BLOCK
  5
6E22
330
6E21
100
AcDbEntity
  8
0
100
AcDbBlockBegin
  2
*D111
 70
     1
 10
0.0
 20
0.0
 30
0.0
  3
*D111
  1

  0
LINE
  5
6E23
330
6E21
100
AcDbEntity
  8
DIM
 62
     0
440
 16777216
370
    -2
100
AcDbLine
 10
-33.87431038145097
 20
-50.98467387197246
 30
0.0
 11
-32.87431038145097
 21
-50.98467387197246
 31
0.0
  0
LINE
  5
6E24
330
6E21
100
AcDbEntity
  8
DIM
 62
     0
440
 16777216
370
    -2
100
AcDbLine
 10
-32.87431038145097
 20
-50.98467387197246
 30
0.0
 11
-31.7136318523151
 21
-50.35334120950146
 31
0.0
  0
MTEXT
  5
6E25
102
{ACAD_XDICTIONARY
360
70CF
102
}
330
6E21
100
AcDbEntity
  8
DIM
 62
     0
440
 16777216
100
AcDbMText
 10
-36.49931038145097
 20
-50.98467387197246
 30
0.0
 40
1.0
 41
0.0
 46
0.0
 71
     5
 72
     1
  1
\A1;∅1.250
 73
     1
 44
1.0
  0
SOLID
  5
6E26
330
6E21
100
AcDbEntity
  8
DIM
 62
     0
440
 16777216
100
AcDbTrace
 10
-31.79326892519092
 20
-50.20693180269457
 30
0.0
 11
-31.63399477943927
 21
-50.49975061630837
 31
0.0
 12
-30.83517541147369
 22
-49.87551877224652
 32
0.0
 13
-30.83517541147369
 23
-49.87551877224652
 33
0.0
  0
LINE
  5
6E27
330
6E21
100
AcDbEntity
  8
DIM
 62
     0
440
 16777216
370
    -2
100
AcDbLine
 10
-30.37614013594782
 20
-49.57687974896217
 30
0.0
 11
-30.19614013594781
 21
-49.57687974896217
 31
0.0
  0
LINE
  5
6E28
330
6E21
100
AcDbEntity
  8
DIM
 62
     0
440
 16777216
370
    -2
100
AcDbLine
 10
-30.28614013594782
 20
-49.66687974896217
 30
0.0
 11
-30.28614013594781
 21
-49.48687974896216
 31
0.0
  0
POINT
  5
6E29
330
6E21
100
AcDbEntity
  8
Defpoints
 62
     0
440
 16777216
100
AcDbPoint
 10
-30.83517541147369
 20
-49.87551877224652
 30
0.0
  0
POINT
  5
6E2A
330
6E21
100
AcDbEntity
  8
Defpoints
 62
     0
440
 16777216
100
AcDbPoint
 10
-29.73710486042195
 20
-49.27824072567783
 30
0.0
  0
ENDBLK
  5
6E2B
330
6E21
100
AcDbEntity
  8
0
100
AcDbBlockEnd
  0
BLOCK
  5
6E5F
330
6E2C
100
AcDbEntity
  8
0
100
AcDbBlockBegin
  2
A$C3FAD2947
 70
     0
 10
0.0
 20
0.0
 30
0.0
  3
A$C3FAD2947
  1

  0
LINE
  5
6E2D
330
6E2C
100
AcDbEntity
  8
TEMPLATE
  6
DASHED
100
AcDbLine
 10
19.90499981112731
 20
8.137390557452405
 30
0.0
 11
19.90499981112719
 21
26.14739055745241
 31
0.0
  0
LINE
  5
6E2E
330
6E2C
100
AcDbEntity
  8
TEMPLATE
  6
DASHED
100
AcDbLine
 10
9.374999811127338
 20
8.137390557452405
 30
0.0
 11
9.374999811127338
 21
26.14739055745241
 31
0.0
  0
LINE
  5
6E2F
330
6E2C
100
AcDbEntity
  8
TEMPLATE
  6
DASHED
100
AcDbLine
 10
19.90499981112719
 20
26.14739055745241
 30
0.0
 11
9.374999811127338
 21
26.14739055745241
 31
0.0
  0
LINE
  5
6E30
330
6E2C
100
AcDbEntity
  8
TEMPLATE
  6
DASHED
100
AcDbLine
 10
19.90499981112731
 20
8.137390557452405
 30
0.0
 11
9.374999811127338
 21
8.137390557452405
 31
0.0
  0
DIMENSION
  5
6E31
330
6E2C
100
AcDbEntity
  8
DIM
100
AcDbDimension
280
     0
  2
*D99
 10
9.375002356560344
 20
8.137385493429384
 30
0.0
 11
9.374999811127345
 21
5.09572389078572
 31
0.0
 12
49.11414249250817
 22
71.40126524239156
 32
0.0
 70
    70
 71
     5
 42
0.0000025454330057
 73
     0
 74
     0
 75
     0
  3
Standard
100
AcDbOrdinateDimension
 13
9.374999811127338
 23
8.137390557452405
 33
0.0
 14
9.374999811127338
 24
7.13739055745242
 34
0.0
  0
DIMENSION
  5
6E32
330
6E2C
100
AcDbEntity
  8
DIM
100
AcDbDimension
280
     0
  2
*D98
 10
9.375002356560344
 20
8.137385493429384
 30
0.0
 11
6.333333144460674
 21
8.137390557452405
 31
0.0
 12
49.11414249250817
 22
71.40126524239156
 32
0.0
 70
     6
 71
     5
 42
0.0000050640230143
 73
     0
 74
     0
 75
     0
  3
Standard
100
AcDbOrdinateDimension
 13
9.374999811127338
 23
8.137390557452405
 33
0.0
 14
8.374999811127352
 24
8.137390557452405
 34
0.0
  0
DIMENSION
  5
6E33
330
6E2C
100
AcDbEntity
  8
DIM
100
AcDbDimension
280
     0
  2
*D104
 10
9.37496887160745
 20
8.137387903004828
 30
0.0
 11
3.999999811127352
 21
23.82439055745253
 31
0.0
 12
49.11414249250817
 22
71.40126524239156
 32
0.0
 70
     6
  1
(2) <>
 71
     5
 42
15.6870026544477
 73
     0
 74
     0
 75
     0
  3
Standard
100
AcDbOrdinateDimension
 13
10.45249981112744
 23
23.82439055745253
 33
0.0
 14
8.374999811127352
 24
23.82439055745253
 34
0.0
  0
DIMENSION
  5
6E34
330
6E2C
100
AcDbEntity
  8
DIM
100
AcDbDimension
280
     0
  2
*D103
 10
9.37496887160745
 20
8.137387903004828
 30
0.0
 11
4.416666477794016
 21
10.38739055745242
 31
0.0
 12
49.11414249250817
 22
71.40126524239156
 32
0.0
 70
     6
  1
(2) <>
 71
     5
 42
2.250002654447591
 73
     0
 74
     0
 75
     0
  3
Standard
100
AcDbOrdinateDimension
 13
10.45249981112744
 23
10.38739055745242
 33
0.0
 14
8.374999811127352
 24
10.38739055745242
 34
0.0
  0
DIMENSION
  5
6E35
330
6E2C
100
AcDbEntity
  8
DIM
100
AcDbDimension
280
     0
  2
*D102
 10
9.37496887160745
 20
8.137387903004828
 30
0.0
 11
4.583333144460688
 21
16.13739055745241
 31
0.0
 12
49.11414249250817
 22
71.40126524239156
 32
0.0
 70
     6
  1
(2) <>
 71
     5
 42
8.000002654447584
 73
     0
 74
     0
 75
     0
  3
Standard
100
AcDbOrdinateDimension
 13
10.45249981112744
 23
16.13739055745241
 33
0.0
 14
8.374999811127352
 24
16.13739055745241
 34
0.0
  0
DIMENSION
  5
6E36
330
6E2C
100
AcDbEntity
  8
DIM
100
AcDbDimension
280
     0
  2
*D100
 10
9.37496887160745
 20
8.137387903004828
 30
0.0
 11
5.999999811127338
 21
26.14739055745241
 31
0.0
 12
49.11414249250817
 22
71.40126524239156
 32
0.0
 70
     6
 71
     5
 42
18.01000265444759
 73
     0
 74
     0
 75
     0
  3
Standard
100
AcDbOrdinateDimension
 13
9.374999811127338
 23
26.14739055745241
 33
0.0
 14
8.374999811127352
 24
26.14739055745241
 34
0.0
  0
MTEXT
  5
6E37
330
6E2C
100
AcDbEntity
  8
DIM
100
AcDbMText
 10
10.8712403085878
 20
3.416666729346417
 30
0.0
 40
1.0
 41
0.0
 46
0.0
 71
     5
 72
     1
  1
\A1;(3) 1.078
 11
0.0000000000000001
 21
1.0
 31
0.0
 73
     1
 44
1.0
  0
LINE
  5
6E38
330
6E2C
100
AcDbEntity
  8
DIM
100
AcDbLine
 10
10.87499981112734
 20
8.637390557452413
 30
0.0
 11
10.87499981112734
 21
7.13739055745242
 31
0.0
  0
LINE
  5
6E39
330
6E2C
100
AcDbEntity
  8
DIM
100
AcDbLine
 10
10.45249981112744
 20
9.512390557452413
 30
0.0
 11
10.87499981112734
 21
8.637390557452413
 31
0.0
  0
LINE
  5
6E3A
330
6E2C
100
AcDbEntity
  8
DIM
100
AcDbLine
 10
10.45249981112744
 20
10.0123905574524
 30
0.0
 11
10.45249981112744
 21
9.512390557452413
 31
0.0
  0
DIMENSION
  5
6E3B
330
6E2C
100
AcDbEntity
  8
DIM
100
AcDbDimension
280
     0
  2
*D105
 10
9.37496887160745
 20
8.137387903004828
 30
0.0
 11
18.82749981112744
 21
3.595723890785748
 31
0.0
 12
49.11414249250817
 22
71.40126524239156
 32
0.0
 70
    70
  1
(4)<>
 71
     5
 42
9.452530939519984
 73
     0
 74
     0
 75
     0
  3
Standard
100
AcDbOrdinateDimension
 13
18.82749981112743
 23
10.38739055745242
 33
0.0
 14
18.82749981112743
 24
7.13739055745242
 34
0.0
  0
DIMENSION
  5
6E3C
330
6E2C
100
AcDbEntity
  8
DIM
100
AcDbDimension
280
     0
  2
*D101
 10
9.37496887160745
 20
8.137387903004828
 30
0.0
 11
19.90499981112731
 21
29.68905722411908
 31
0.0
 12
49.11414249250817
 22
71.40126524239156
 32
0.0
 70
    70
 71
     5
 42
10.53003093951986
 73
     0
 74
     0
 75
     0
  3
Standard
100
AcDbOrdinateDimension
 13
19.90499981112731
 23
26.14739055745241
 33
0.0
 14
19.90499981112731
 24
27.14739055745241
 34
0.0
  0
CIRCLE
  5
6E3D
330
6E2C
100
AcDbEntity
  8
TEMPLATE
100
AcDbCircle
 10
18.82749981112743
 20
10.38739055745242
 30
0.0
 40
0.1875
  0
CIRCLE
  5
6E3E
330
6E2C
100
AcDbEntity
  8
TEMPLATE
100
AcDbCircle
 10
10.45249981112744
 20
10.38739055745242
 30
0.0
 40
0.1875
  0
CIRCLE
  5
6E3F
330
6E2C
100
AcDbEntity
  8
TEMPLATE
100
AcDbCircle
 10
18.82749981112743
 20
16.13739055745241
 30
0.0
 40
0.1875
  0
CIRCLE
  5
6E40
330
6E2C
100
AcDbEntity
  8
TEMPLATE
100
AcDbCircle
 10
10.45249981112744
 20
16.13739055745241
 30
0.0
 40
0.1875
  0
CIRCLE
  5
6E41
330
6E2C
100
AcDbEntity
  8
TEMPLATE
100
AcDbCircle
 10
10.45249981112744
 20
23.82439055745255
 30
0.0
 40
0.1875
  0
CIRCLE
  5
6E42
330
6E2C
100
AcDbEntity
  8
TEMPLATE
100
AcDbCircle
 10
18.82749981112743
 20
23.82439055745255
 30
0.0
 40
0.1875
  0
LINE
  5
6E43
330
6E2C
100
AcDbEntity
  8
TEMPLATE
100
AcDbLine
 10
11.33999981112733
 20
25.4306405574525
 30
0.0
 11
11.33999981112737
 21
22.59314055745237
 31
0.0
  0
LINE
  5
6E44
330
6E2C
100
AcDbEntity
  8
TEMPLATE
100
AcDbLine
 10
11.33999981112733
 20
25.4306405574525
 30
0.0
 11
17.93999981112727
 21
25.4306405574525
 31
0.0
  0
LINE
  5
6E45
330
6E2C
100
AcDbEntity
  8
TEMPLATE
100
AcDbLine
 10
11.33999981112737
 20
22.59314055745237
 30
0.0
 11
17.93999981112727
 21
22.59314055745237
 31
0.0
  0
LINE
  5
6E46
330
6E2C
100
AcDbEntity
  8
TEMPLATE
100
AcDbLine
 10
17.93999981112727
 20
25.4306405574525
 30
0.0
 11
17.93999981112727
 21
22.59314055745237
 31
0.0
  0
DIMENSION
  5
6E47
330
6E2C
100
AcDbEntity
  8
DIM
100
AcDbDimension
280
     0
  2
*D106
 10
9.37496887160745
 20
8.137387903004828
 30
0.0
 11
11.33999981112733
 21
29.35572389078574
 31
0.0
 12
49.11414249250817
 22
71.40126524239156
 32
0.0
 70
    70
 71
     5
 42
1.965030939519883
 73
     0
 74
     0
 75
     0
  3
Standard
100
AcDbOrdinateDimension
 13
11.33999981112733
 23
25.4306405574525
 33
0.0
 14
11.33999981112733
 24
27.14739055745241
 34
0.0
  0
DIMENSION
  5
6E48
330
6E2C
100
AcDbEntity
  8
DIM
100
AcDbDimension
280
     0
  2
*D107
 10
9.37496887160745
 20
8.137387903004828
 30
0.0
 11
17.93999981112729
 21
29.52239055745242
 31
0.0
 12
49.11414249250817
 22
71.40126524239156
 32
0.0
 70
    70
 71
     5
 42
8.565030939519825
 73
     0
 74
     0
 75
     0
  3
Standard
100
AcDbOrdinateDimension
 13
17.93999981112727
 23
25.43064055745248
 33
0.0
 14
17.93999981112727
 24
27.14739055745241
 34
0.0
  0
DIMENSION
  5
6E49
330
6E2C
100
AcDbEntity
  8
DIM
100
AcDbDimension
280
     0
  2
*D108
 10
9.37496887160745
 20
8.137387903004828
 30
0.0
 11
23.61333314446065
 21
25.43064055745248
 31
0.0
 12
49.11414249250817
 22
71.40126524239156
 32
0.0
 70
     6
 71
     5
 42
17.29325265444765
 73
     0
 74
     0
 75
     0
  3
Standard
100
AcDbOrdinateDimension
 13
17.93999981112727
 23
25.43064055745248
 33
0.0
 14
20.90499981112731
 24
25.43064055745248
 34
0.0
  0
DIMENSION
  5
6E4A
330
6E2C
100
AcDbEntity
  8
DIM
100
AcDbDimension
280
     0
  2
*D109
 10
9.37496887160745
 20
8.137387903004828
 30
0.0
 11
23.61333314446065
 21
22.59314055745237
 31
0.0
 12
49.11414249250817
 22
71.40126524239156
 32
0.0
 70
     6
 71
     5
 42
14.45575265444756
 73
     0
 74
     0
 75
     0
  3
Standard
100
AcDbOrdinateDimension
 13
17.93999981112727
 23
22.59314055745237
 33
0.0
 14
20.90499981112731
 24
22.59314055745237
 34
0.0
  0
LINE
  5
6E4B
330
6E2C
100
AcDbEntity
  8
DIM
100
AcDbLine
 10
19.47131752975047
 20
13.55297811075155
 30
0.0
 11
19.0641686278671
 21
11.55106754063246
 31
0.0
  0
SOLID
  5
6E4C
330
6E2C
100
AcDbEntity
  8
DIM
100
AcDbTrace
 10
18.90084554250847
 20
11.5842842166661
 30
0.0
 11
19.22749171322567
 21
11.51785086459884
 31
0.0
 12
18.86486857166525
 22
10.57112902848084
 32
0.0
 13
18.86486857166525
 23
10.57112902848084
 33
0.0
  0
LINE
  5
6E4D
330
6E2C
100
AcDbEntity
  8
DIM
100
AcDbLine
 10
18.7374998111274
 20
10.38739055745238
 30
0.0
 11
18.91749981112742
 21
10.38739055745238
 31
0.0
  0
LINE
  5
6E4E
330
6E2C
100
AcDbEntity
  8
DIM
100
AcDbLine
 10
18.82749981112738
 20
10.29739055745239
 30
0.0
 11
18.82749981112738
 21
10.4773905574524
 31
0.0
  0
LINE
  5
6E4F
330
6E2C
100
AcDbEntity
  8
DIM
100
AcDbLine
 10
19.47131752975047
 20
13.55297811075155
 30
0.0
 11
18.49156825722679
 21
13.55297811075155
 31
0.0
  0
TEXT
  5
6E50
330
6E2C
100
AcDbEntity
  8
DIM
100
AcDbText
 10
9.949901590560122
 20
13.05297811075155
 30
0.0
 40
1.0
  1
%%C0.375 (6)
 72
     2
 11
18.11656825722679
 21
13.55297811075155
 31
0.0
100
AcDbText
 73
     2
  0
LINE
  5
6E51
330
6E2C
100
AcDbEntity
  8
DIM
100
AcDbLine
 10
10.36249981112744
 20
10.38739055745242
 30
0.0
 11
10.54249981112744
 21
10.38739055745242
 31
0.0
  0
LINE
  5
6E52
330
6E2C
100
AcDbEntity
  8
DIM
100
AcDbLine
 10
10.45249981112744
 20
10.29739055745241
 30
0.0
 11
10.45249981112744
 21
10.47739055745242
 31
0.0
  0
LINE
  5
6E53
330
6E2C
100
AcDbEntity
  8
DIM
100
AcDbLine
 10
18.73749981112743
 20
16.13739055745241
 30
0.0
 11
18.91749981112743
 21
16.13739055745241
 31
0.0
  0
LINE
  5
6E54
330
6E2C
100
AcDbEntity
  8
DIM
100
AcDbLine
 10
18.82749981112743
 20
16.04739055745241
 30
0.0
 11
18.82749981112743
 21
16.22739055745241
 31
0.0
  0
LINE
  5
6E55
330
6E2C
100
AcDbEntity
  8
DIM
100
AcDbLine
 10
10.36249981112744
 20
16.13739055745241
 30
0.0
 11
10.54249981112744
 21
16.13739055745241
 31
0.0
  0
LINE
  5
6E56
330
6E2C
100
AcDbEntity
  8
DIM
100
AcDbLine
 10
10.45249981112744
 20
16.04739055745241
 30
0.0
 11
10.45249981112744
 21
16.22739055745241
 31
0.0
  0
LINE
  5
6E57
330
6E2C
100
AcDbEntity
  8
DIM
100
AcDbLine
 10
10.36249981112744
 20
23.82439055745255
 30
0.0
 11
10.54249981112744
 21
23.82439055745255
 31
0.0
  0
LINE
  5
6E58
330
6E2C
100
AcDbEntity
  8
DIM
100
AcDbLine
 10
10.45249981112744
 20
23.73439055745255
 30
0.0
 11
10.45249981112744
 21
23.91439055745256
 31
0.0
  0
LINE
  5
6E59
330
6E2C
100
AcDbEntity
  8
DIM
100
AcDbLine
 10
18.73749981112743
 20
23.82439055745255
 30
0.0
 11
18.91749981112743
 21
23.82439055745255
 31
0.0
  0
LINE
  5
6E5A
330
6E2C
100
AcDbEntity
  8
DIM
100
AcDbLine
 10
18.82749981112743
 20
23.73439055745255
 30
0.0
 11
18.82749981112743
 21
23.91439055745256
 31
0.0
  0
CIRCLE
  5
6E5B
330
6E2C
100
AcDbEntity
  8
TEMPLATE
100
AcDbCircle
 10
18.82800235656034
 20
21.82438549342939
 30
0.0
 40
0.625
  0
DIMENSION
  5
6E5C
330
6E2C
100
AcDbEntity
  8
DIM
100
AcDbDimension
280
     0
  2
*D110
 10
9.375002356560344
 20
8.137385493429384
 30
0.0
 11
5.449659350929493
 21
21.82638944967812
 31
0.0
 12
49.11414249250817
 22
71.40126524239156
 32
0.0
 70
     6
 71
     5
 42
13.687
 73
     0
 74
     0
 75
     0
  3
Standard
100
AcDbOrdinateDimension
 13
18.82800235656034
 23
21.82438549342939
 33
0.0
 14
8.157992684262829
 24
21.82638944967812
 34
0.0
  0
DIMENSION
  5
6E5D
330
6E2C
100
AcDbEntity
  8
DIM
100
AcDbDimension
280
     0
  2
*D111
 10
19.37703763208622
 20
22.12302451671373
 30
0.0
 11
12.61483211105719
 21
20.4165913704191
 31
0.0
 12
49.11414249250817
 22
71.40126524239156
 32
0.0
 70
   131
 71
     5
 42
1.25
 73
     0
 74
     0
 75
     0
  3
Standard
100
AcDbDiametricDimension
 15
18.27896708103447
 25
21.52574647014504
 35
0.0
 40
0.0
1001
ACAD_DSTYLE_DIMRADIAL_EXTENSION
1070
   387
1070
     1
1070
   388
1040
0.0
1070
   390
1040
0.0
  0
MTEXT
  5
6E5E
330
6E2C
100
AcDbEntity
  8
DIM
100
AcDbMText
 10
22.16972053788913
 20
19.84706275631723
 30
0.0
 40
1.0
 41
12.35869104283506
 46
0.0
 71
     1
 72
     5
  1
OMIT
 73
     1
 44
1.0
1001
ACAD
1000
ACAD_MTEXT_COLUMN_INFO_BEGIN
1070
    75
1070
     2
1070
    79
1070
     0
1070
    76
1070
     1
1070
    78
1070
     0
1070
    48
1040
12.35869104283506
1070
    49
1040
5.0
1070
    50
1070
     1
1040
0.0
1000
ACAD_MTEXT_COLUMN_INFO_END
  0
ENDBLK
  5
6E60
330
6E2C
100
AcDbEntity
  8
0
100
AcDbBlockEnd
  0
BLOCK
  5
6E6C
330
6E6A
100
AcDbEntity
  8
0
100
AcDbBlockBegin
  2
A$C5DC71409
 70
     0
 10
0.0
 20
0.0
 30
0.0
  3
A$C5DC71409
  1

  0
INSERT
  5
6E6B
330
6E6A
100
AcDbEntity
  8
DIM
100
AcDbBlockReference
  2
METAL
 10
-50.74629383805421
 20
0.3321963469236451
 30
0.0
  0
ENDBLK
  5
6E6D
330
6E6A
100
AcDbEntity
  8
0
100
AcDbBlockEnd
  0
ENDSEC
  0
SECTION
  2
ENTITIES
  0
MTEXT
  5
345F
330
1F
100
AcDbEntity
  8
DIM
100
AcDbMText
 10
-134.1023087045014
 20
2.448045944351804
 30
0.0
 40
1.0
 41
1.313624512581952
 46
0.0
 71
     1
 72
     1
  1
\A1;
 73
     1
 44
1.0
  0
LINE
  5
3F04
330
1F
100
AcDbEntity
  8
TEMPLATE
  6
DASHED
100
AcDbLine
 10
-29.20914268138086
 20
-63.26387468493916
 30
0.0
 11
-29.20914268138097
 21
-45.25387468493915
 31
0.0
  0
LINE
  5
3F09
330
1F
100
AcDbEntity
  8
TEMPLATE
  6
DASHED
100
AcDbLine
 10
-39.73914268138083
 20
-63.26387468493916
 30
0.0
 11
-39.73914268138083
 21
-45.25387468493915
 31
0.0
  0
LINE
  5
3F0A
330
1F
100
AcDbEntity
  8
TEMPLATE
  6
DASHED
100
AcDbLine
 10
-29.20914268138097
 20
-45.25387468493915
 30
0.0
 11
-39.73914268138083
 21
-45.25387468493915
 31
0.0
  0
LINE
  5
3F0B
330
1F
100
AcDbEntity
  8
TEMPLATE
  6
DASHED
100
AcDbLine
 10
-29.20914268138086
 20
-63.26387468493916
 30
0.0
 11
-39.73914268138083
 21
-63.26387468493916
 31
0.0
  0
DIMENSION
  5
3F29
330
1F
100
AcDbEntity
  8
DIM
100
AcDbDimension
280
     0
  2
*D13
 10
-39.73914013594782
 20
-63.26387974896217
 30
0.0
 11
-39.73914268138082
 21
-66.30554135160584
 31
0.0
 70
   102
 71
     5
 42
0.0000025454330057
 73
     0
 74
     0
 75
     0
  3
Standard
100
AcDbOrdinateDimension
 13
-39.73914268138083
 23
-63.26387468493916
 33
0.0
 14
-39.73914268138083
 24
-64.26387468493913
 34
0.0
  0
TEXT
  5
3F2E
330
1F
100
AcDbEntity
  8
DIM
100
AcDbText
 10
-41.32247601471416
 20
-38.76387468493914
 30
0.0
 40
1.0
  1
CUTOUT DRAWING
 72
     1
 11
-34.48914268138083
 21
-38.26387468493914
 31
0.0
100
AcDbText
 73
     2
  0
TEXT
  5
3F2F
330
1F
100
AcDbEntity
  8
DIM
100
AcDbText
 10
-48.07247601471416
 20
-37.01387468493914
 30
0.0
 40
1.0
  1
IQ150-IQ300FPW INTAKE/EXHAUST
 72
     1
 11
-34.48914268138083
 21
-36.51387468493914
 31
0.0
100
AcDbText
 73
     2
  0
DIMENSION
  5
3F30
330
1F
100
AcDbEntity
  8
DIM
100
AcDbDimension
280
     0
  2
*D12
 10
-39.73914013594782
 20
-63.26387974896217
 30
0.0
 11
-42.78080934804749
 21
-63.26387468493916
 31
0.0
 70
    38
 71
     5
 42
0.0000050640230143
 73
     0
 74
     0
 75
     0
  3
Standard
100
AcDbOrdinateDimension
 13
-39.73914268138083
 23
-63.26387468493916
 33
0.0
 14
-40.73914268138081
 24
-63.26387468493916
 34
0.0
  0
DIMENSION
  5
4092
330
1F
100
AcDbEntity
  8
DIM
100
AcDbDimension
280
     0
  2
*D30
 10
-39.73917362090072
 20
-63.26387733938673
 30
0.0
 11
-45.11414268138081
 21
-47.57687468493903
 31
0.0
 70
    38
  1
(2) <>
 71
     5
 42
15.6870026544477
 73
     0
 74
     0
 75
     0
  3
Standard
100
AcDbOrdinateDimension
 13
-38.66164268138073
 23
-47.57687468493903
 33
0.0
 14
-40.73914268138081
 24
-47.57687468493903
 34
0.0
  0
DIMENSION
  5
4093
330
1F
100
AcDbEntity
  8
DIM
100
AcDbDimension
280
     0
  2
*D29
 10
-39.73917362090072
 20
-63.26387733938673
 30
0.0
 11
-44.69747601471414
 21
-61.01387468493914
 31
0.0
 70
    38
  1
(2) <>
 71
     5
 42
2.250002654447591
 73
     0
 74
     0
 75
     0
  3
Standard
100
AcDbOrdinateDimension
 13
-38.66164268138073
 23
-61.01387468493914
 33
0.0
 14
-40.73914268138081
 24
-61.01387468493914
 34
0.0
  0
DIMENSION
  5
4094
330
1F
100
AcDbEntity
  8
DIM
100
AcDbDimension
280
     0
  2
*D28
 10
-39.73917362090072
 20
-63.26387733938673
 30
0.0
 11
-44.53080934804748
 21
-55.26387468493915
 31
0.0
 70
    38
  1
(2) <>
 71
     5
 42
8.000002654447584
 73
     0
 74
     0
 75
     0
  3
Standard
100
AcDbOrdinateDimension
 13
-38.66164268138073
 23
-55.26387468493915
 33
0.0
 14
-40.73914268138081
 24
-55.26387468493915
 34
0.0
  0
DIMENSION
  5
4096
330
1F
100
AcDbEntity
  8
DIM
100
AcDbDimension
280
     0
  2
*D26
 10
-39.73917362090072
 20
-63.26387733938673
 30
0.0
 11
-43.11414268138082
 21
-45.25387468493915
 31
0.0
 70
    38
 71
     5
 42
18.01000265444759
 73
     0
 74
     0
 75
     0
  3
Standard
100
AcDbOrdinateDimension
 13
-39.73914268138083
 23
-45.25387468493915
 33
0.0
 14
-40.73914268138081
 24
-45.25387468493915
 34
0.0
  0
MTEXT
  5
4097
330
1F
100
AcDbEntity
  8
DIM
100
AcDbMText
 10
-38.24290218392036
 20
-67.98459851304514
 30
0.0
 40
1.0
 41
0.0
 46
0.0
 71
     5
 72
     1
  1
\A1;(3) 1.078
 11
0.0000000000000001
 21
1.0
 31
0.0
 73
     1
 44
1.0
  0
LINE
  5
4098
330
1F
100
AcDbEntity
  8
DIM
100
AcDbLine
 10
-38.23914268138083
 20
-62.76387468493915
 30
0.0
 11
-38.23914268138083
 21
-64.26387468493913
 31
0.0
  0
LINE
  5
4099
330
1F
100
AcDbEntity
  8
DIM
100
AcDbLine
 10
-38.66164268138073
 20
-61.88887468493915
 30
0.0
 11
-38.23914268138083
 21
-62.76387468493915
 31
0.0
  0
LINE
  5
409A
330
1F
100
AcDbEntity
  8
DIM
100
AcDbLine
 10
-38.66164268138073
 20
-61.38887468493916
 30
0.0
 11
-38.66164268138073
 21
-61.88887468493915
 31
0.0
  0
DIMENSION
  5
409B
330
1F
100
AcDbEntity
  8
DIM
100
AcDbDimension
280
     0
  2
*D31
 10
-39.73917362090072
 20
-63.26387733938673
 30
0.0
 11
-30.28664268138072
 21
-68.30554135160581
 31
0.0
 70
   102
  1
(4) <>
 71
     5
 42
9.452530939519984
 73
     0
 74
     0
 75
     0
  3
Standard
100
AcDbOrdinateDimension
 13
-30.28664268138073
 23
-61.01387468493914
 33
0.0
 14
-30.28664268138073
 24
-64.26387468493913
 34
0.0
  0
DIMENSION
  5
409E
330
1F
100
AcDbEntity
  8
DIM
100
AcDbDimension
280
     0
  2
*D27
 10
-39.73917362090072
 20
-63.26387733938673
 30
0.0
 11
-29.20914268138086
 21
-41.71220801827248
 31
0.0
 70
   102
 71
     5
 42
10.53003093951986
 73
     0
 74
     0
 75
     0
  3
Standard
100
AcDbOrdinateDimension
 13
-29.20914268138086
 23
-45.25387468493915
 33
0.0
 14
-29.20914268138086
 24
-44.25387468493915
 34
0.0
  0
CIRCLE
  5
4120
330
1F
100
AcDbEntity
  8
TEMPLATE
100
AcDbCircle
 10
-30.28664268138073
 20
-61.01387468493914
 30
0.0
 40
0.1875
  0
CIRCLE
  5
4121
330
1F
100
AcDbEntity
  8
TEMPLATE
100
AcDbCircle
 10
-38.66164268138073
 20
-61.01387468493914
 30
0.0
 40
0.1875
  0
CIRCLE
  5
4122
330
1F
100
AcDbEntity
  8
TEMPLATE
100
AcDbCircle
 10
-30.28664268138073
 20
-55.26387468493915
 30
0.0
 40
0.1875
  0
CIRCLE
  5
4123
330
1F
100
AcDbEntity
  8
TEMPLATE
100
AcDbCircle
 10
-38.66164268138073
 20
-55.26387468493915
 30
0.0
 40
0.1875
  0
CIRCLE
  5
4124
330
1F
100
AcDbEntity
  8
TEMPLATE
100
AcDbCircle
 10
-38.66164268138073
 20
-47.57687468493901
 30
0.0
 40
0.1875
  0
CIRCLE
  5
4125
330
1F
100
AcDbEntity
  8
TEMPLATE
100
AcDbCircle
 10
-30.28664268138073
 20
-47.57687468493901
 30
0.0
 40
0.1875
  0
LINE
  5
4126
330
1F
100
AcDbEntity
  8
TEMPLATE
100
AcDbLine
 10
-37.77414268138083
 20
-45.97062468493906
 30
0.0
 11
-37.7741426813808
 21
-48.80812468493918
 31
0.0
  0
LINE
  5
4127
330
1F
100
AcDbEntity
  8
TEMPLATE
100
AcDbLine
 10
-37.77414268138083
 20
-45.97062468493906
 30
0.0
 11
-31.1741426813809
 21
-45.97062468493906
 31
0.0
  0
LINE
  5
4128
330
1F
100
AcDbEntity
  8
TEMPLATE
100
AcDbLine
 10
-37.7741426813808
 20
-48.80812468493918
 30
0.0
 11
-31.1741426813809
 21
-48.80812468493918
 31
0.0
  0
LINE
  5
4129
330
1F
100
AcDbEntity
  8
TEMPLATE
100
AcDbLine
 10
-31.1741426813809
 20
-45.97062468493906
 30
0.0
 11
-31.1741426813809
 21
-48.80812468493918
 31
0.0
  0
DIMENSION
  5
412E
330
1F
100
AcDbEntity
  8
DIM
100
AcDbDimension
280
     0
  2
*D32
 10
-39.73917362090072
 20
-63.26387733938673
 30
0.0
 11
-37.77414268138083
 21
-42.04554135160582
 31
0.0
 70
   102
 71
     5
 42
1.965030939519883
 73
     0
 74
     0
 75
     0
  3
Standard
100
AcDbOrdinateDimension
 13
-37.77414268138083
 23
-45.97062468493906
 33
0.0
 14
-37.77414268138083
 24
-44.25387468493915
 34
0.0
  0
DIMENSION
  5
4137
330
1F
100
AcDbEntity
  8
DIM
100
AcDbDimension
280
     0
  2
*D33
 10
-39.73917362090072
 20
-63.26387733938673
 30
0.0
 11
-31.17414268138088
 21
-41.87887468493914
 31
0.0
 70
   102
 71
     5
 42
8.565030939519825
 73
     0
 74
     0
 75
     0
  3
Standard
100
AcDbOrdinateDimension
 13
-31.1741426813809
 23
-45.97062468493908
 33
0.0
 14
-31.1741426813809
 24
-44.25387468493915
 34
0.0
  0
DIMENSION
  5
4140
330
1F
100
AcDbEntity
  8
DIM
100
AcDbDimension
280
     0
  2
*D34
 10
-39.73917362090072
 20
-63.26387733938673
 30
0.0
 11
-25.50080934804752
 21
-45.97062468493908
 31
0.0
 70
    38
 71
     5
 42
17.29325265444765
 73
     0
 74
     0
 75
     0
  3
Standard
100
AcDbOrdinateDimension
 13
-31.1741426813809
 23
-45.97062468493908
 33
0.0
 14
-28.20914268138086
 24
-45.97062468493908
 34
0.0
  0
DIMENSION
  5
4149
330
1F
100
AcDbEntity
  8
DIM
100
AcDbDimension
280
     0
  2
*D35
 10
-39.73917362090072
 20
-63.26387733938673
 30
0.0
 11
-25.50080934804752
 21
-48.80812468493918
 31
0.0
 70
    38
 71
     5
 42
14.45575265444756
 73
     0
 74
     0
 75
     0
  3
Standard
100
AcDbOrdinateDimension
 13
-31.1741426813809
 23
-48.80812468493918
 33
0.0
 14
-28.20914268138086
 24
-48.80812468493918
 34
0.0
  0
LINE
  5
44DC
330
1F
100
AcDbEntity
  8
DIM
100
AcDbLine
 10
-29.6428249627577
 20
-57.84828713164
 30
0.0
 11
-30.04997386464106
 21
-59.8501977017591
 31
0.0
  0
SOLID
  5
44DE
330
1F
100
AcDbEntity
  8
DIM
100
AcDbTrace
 10
-30.21329694999969
 20
-59.81698102572545
 30
0.0
 11
-29.88665077928249
 21
-59.88341437779272
 31
0.0
 12
-30.24927392084291
 22
-60.83013621391072
 32
0.0
 13
-30.24927392084291
 23
-60.83013621391072
 33
0.0
  0
LINE
  5
44DF
330
1F
100
AcDbEntity
  8
DIM
100
AcDbLine
 10
-30.37664268138076
 20
-61.01387468493918
 30
0.0
 11
-30.19664268138075
 21
-61.01387468493918
 31
0.0
  0
LINE
  5
44E0
330
1F
100
AcDbEntity
  8
DIM
100
AcDbLine
 10
-30.28664268138078
 20
-61.10387468493917
 30
0.0
 11
-30.28664268138078
 21
-60.92387468493916
 31
0.0
  0
LINE
  5
44E1
330
1F
100
AcDbEntity
  8
DIM
100
AcDbLine
 10
-29.6428249627577
 20
-57.84828713164
 30
0.0
 11
-30.62257423528138
 21
-57.84828713164
 31
0.0
  0
TEXT
  5
44E4
330
1F
100
AcDbEntity
  8
DIM
100
AcDbText
 10
-39.16424090194804
 20
-58.34828713164
 30
0.0
 40
1.0
  1
%%C0.375 (6)
 72
     2
 11
-30.99757423528138
 21
-57.84828713164
 31
0.0
100
AcDbText
 73
     2
  0
LINE
  5
4EFA
330
1F
100
AcDbEntity
  8
BORDER
100
AcDbLine
 10
-25.4470352185856
 20
-79.25887468493916
 30
0.0
 11
-25.4470352185856
 21
-77.71396492625619
 31
0.0
  0
LINE
  5
4EFB
330
1F
100
AcDbEntity
  8
BORDER
100
AcDbLine
 10
-30.47713546090984
 20
-77.71396492625619
 30
0.0
 11
-30.47713546090984
 21
-79.25887468493916
 31
0.0
  0
LINE
  5
4EFC
330
1F
100
AcDbEntity
  8
BORDER
100
AcDbLine
 10
-25.4470352185856
 20
-77.71396492625619
 30
0.0
 11
-30.47713546090984
 21
-77.71396492625619
 31
0.0
  0
LINE
  5
4EFD
330
1F
100
AcDbEntity
  8
BORDER
100
AcDbLine
 10
-25.4470352185856
 20
-79.25887468493916
 30
0.0
 11
-30.5246296504838
 21
-79.25887468493916
 31
0.0
  0
TEXT
  5
4EFE
330
1F
100
AcDbEntity
  8
TEXT
100
AcDbText
 10
-30.27749910120137
 20
-78.25887468493913
 30
0.0
 40
0.25
  1
PROPRIETARY DRAWING
 72
     1
 11
-27.9858324345347
 21
-78.13387468493913
 31
0.0
100
AcDbText
 73
     2
  0
TEXT
  5
4EFF
330
1F
100
AcDbEntity
  8
TEXT
100
AcDbText
 10
-30.08999910120137
 20
-78.50887468493913
 30
0.0
 40
0.125
  1
THIS DRAWING IS THE PROPERTY OF ICE
 72
     1
 11
-27.9858324345347
 21
-78.44637468493913
 31
0.0
100
AcDbText
 73
     2
  0
TEXT
  5
4F00
330
1F
100
AcDbEntity
  8
TEXT
100
AcDbText
 10
-30.2045824345347
 20
-78.69637468493916
 30
0.0
 40
0.125
  1
QUBE, INC. AND IS NOT TO BE DUPLICATED
 72
     1
 11
-27.9858324345347
 21
-78.63387468493916
 31
0.0
100
AcDbText
 73
     2
  0
TEXT
  5
4F01
330
1F
100
AcDbEntity
  8
TEXT
100
AcDbText
 10
-30.1108324345347
 20
-78.88387468493913
 30
0.0
 40
0.125
  1
OR ALTERED WITHOUT AUTHORIZATION OF
 72
     1
 11
-27.9858324345347
 21
-78.82137468493913
 31
0.0
100
AcDbText
 73
     2
  0
TEXT
  5
4F02
330
1F
100
AcDbEntity
  8
TEXT
100
AcDbText
 10
-28.72541576786803
 20
-79.07137468493913
 30
0.0
 40
0.125
  1
ICE QUBE, INC.
 72
     1
 11
-27.9858324345347
 21
-79.00887468493912
 31
0.0
100
AcDbText
 73
     2
  0
LWPOLYLINE
  5
4F03
330
1F
100
AcDbEntity
  8
BORDER
100
AcDbPolyline
 90
        4
 70
     1
 43
0.0
 10
-53.4734539955599
 20
-29.25887468493915
 10
-15.47483136720188
 20
-29.25887468493915
 10
-15.47483136720188
 20
-79.25887468493916
 10
-53.4734539955599
 20
-79.25887468493916
  0
LINE
  5
5005
330
1F
100
AcDbEntity
  8
BORDER
100
AcDbLine
 10
-21.94703521858559
 20
-79.2588746849392
 30
0.0
 11
-21.94703521858559
 21
-75.96396492625619
 31
0.0
  0
LINE
  5
5006
330
1F
100
AcDbEntity
  8
BORDER
100
AcDbLine
 10
-25.4470352185856
 20
-78.2139649262562
 30
0.0
 11
-21.94703521858559
 21
-78.2139649262562
 31
0.0
  0
LINE
  5
5007
330
1F
100
AcDbEntity
  8
BORDER
100
AcDbLine
 10
-25.4470352185856
 20
-77.71396492625619
 30
0.0
 11
-21.94703521858559
 21
-77.71396492625619
 31
0.0
  0
TEXT
  5
5008
330
1F
100
AcDbEntity
  8
TEXT
100
AcDbText
 10
-23.13953521858559
 20
-78.16946492625624
 30
0.0
 40
0.1875
  1
NONE
 72
     1
 11
-22.79578521858559
 21
-78.07571492625624
 31
0.0
100
AcDbText
 73
     2
  0
TEXT
  5
5009
330
1F
100
AcDbEntity
  8
TEXT
100
AcDbText
 10
-23.57203521858559
 20
-77.9014649262562
 30
0.0
 40
0.125
  1
SCALE
100
AcDbText
  0
TEXT
  5
500A
330
1F
100
AcDbEntity
  8
TEXT
100
AcDbText
 10
-25.37453521858561
 20
-77.9014649262562
 30
0.0
 40
0.125
  1
DRAWN
100
AcDbText
  0
TEXT
  5
500B
330
1F
100
AcDbEntity
  8
TEXT
100
AcDbText
 10
-24.8482852185856
 20
-78.16946492625624
 30
0.0
 40
0.1875
  1
JJH
 72
     1
 11
-24.5982852185856
 21
-78.07571492625624
 31
0.0
100
AcDbText
 73
     2
  0
TEXT
  5
500C
330
1F
100
AcDbEntity
  8
TEXT
100
AcDbText
 10
-25.3220352185856
 20
-78.4014649262562
 30
0.0
 40
0.125
  1
DATE
100
AcDbText
  0
TEXT
  5
500D
330
1F
100
AcDbEntity
  8
TEXT
100
AcDbText
 10
-24.50953521858559
 20
-78.58493689689812
 30
0.0
 40
0.25
  1
9-22-09
 72
     1
 11
-23.69703521858559
 21
-78.45993689689811
 31
0.0
100
AcDbText
 73
     2
  0
LINE
  5
500E
330
1F
100
AcDbEntity
  8
BORDER
100
AcDbLine
 10
-25.4470352185856
 20
-78.7139649262562
 30
0.0
 11
-21.94703521858559
 21
-78.7139649262562
 31
0.0
  0
TEXT
  5
500F
330
1F
100
AcDbEntity
  8
TEXT
100
AcDbText
 10
-25.14252729462119
 20
-79.10942056947902
 30
0.0
 40
0.25
  1
SHEET 2 OF 2
 72
     1
 11
-23.68419396128786
 21
-78.98442056947903
 31
0.0
100
AcDbText
 73
     2
  0
LINE
  5
5010
330
1F
100
AcDbEntity
  8
BORDER
100
AcDbLine
 10
-16.84563306223901
 20
-78.2139649262562
 30
0.0
 11
-16.84563306223901
 21
-79.25887468493916
 31
0.0
  0
LINE
  5
5011
330
1F
100
AcDbEntity
  8
BORDER
100
AcDbLine
 10
-21.94703521858559
 20
-78.2139649262562
 30
0.0
 11
-15.47483136720188
 21
-78.2139649262562
 31
0.0
  0
LINE
  5
5012
330
1F
100
AcDbEntity
  8
BORDER
100
AcDbLine
 10
-21.94703521858559
 20
-77.21396492625619
 30
0.0
 11
-15.47483136720188
 21
-77.21396492625619
 31
0.0
  0
LINE
  5
5013
330
1F
100
AcDbEntity
  8
BORDER
100
AcDbLine
 10
-21.94703521858559
 20
-75.96396492625619
 30
0.0
 11
-15.47483136720188
 21
-75.96396492625619
 31
0.0
  0
TEXT
  5
5019
330
1F
100
AcDbEntity
  8
TEXT
100
AcDbText
 10
-20.50288032464975
 20
-78.06396492625623
 30
0.0
 40
0.5
  1
IQ150FPW
 72
     1
 11
-18.71121365798308
 21
-77.81396492625623
 31
0.0
100
AcDbText
 73
     2
  0
TEXT
  5
501A
330
1F
100
AcDbEntity
  8
TEXT
100
AcDbText
 10
-21.06300080707892
 20
-79.08016980559769
 30
0.0
 40
0.5
  1
IQ351155
 72
     1
 11
-19.39633414041225
 21
-78.83016980559769
 31
0.0
100
AcDbText
 73
     2
  0
TEXT
  5
501B
330
1F
100
AcDbEntity
  8
TEXT
100
AcDbText
 10
-16.28523221472039
 20
-79.08016980559769
 30
0.0
 40
0.5
  1
0
 72
     1
 11
-16.16023221472039
 21
-78.83016980559769
 31
0.0
100
AcDbText
 73
     2
  0
LINE
  5
501D
330
1F
100
AcDbEntity
  8
BORDER
100
AcDbLine
 10
-40.47705139882021
 20
-79.25887468493916
 30
0.0
 11
-53.4734539955599
 21
-79.25887468493916
 31
0.0
  0
LINE
  5
5026
330
1F
100
AcDbEntity
  8
BORDER
100
AcDbLine
 10
-53.4734539955599
 20
-79.25887468493916
 30
0.0
 11
-53.4734539955599
 21
-76.85887468493897
 31
0.0
  0
LINE
  5
64C3
330
1F
100
AcDbEntity
  8
TEXT
100
AcDbLine
 10
-20.26783524302198
 20
-77.08102716576163
 30
0.0
 11
-20.16268621133975
 21
-77.08102716576163
 31
0.0
  0
ARC
  5
64C4
330
1F
100
AcDbEntity
  8
TEXT
100
AcDbCircle
 10
-18.97530881884012
 20
-76.76015384864887
 30
0.0
 40
0.1475007249986681
100
AcDbArc
 50
180.0
 51
0.0
  0
ARC
  5
64C5
330
1F
100
AcDbEntity
  8
TEXT
100
AcDbCircle
 10
-18.97530881884012
 20
-76.52488000063858
 30
0.0
 40
0.1475007249986681
100
AcDbArc
 50
357.1912576066922
 51
182.8087423933078
  0
LINE
  5
64C6
330
1F
100
AcDbEntity
  8
TEXT
100
AcDbLine
 10
-18.8279124884227
 20
-76.72530707903598
 30
0.0
 11
-18.8279124884227
 21
-76.76570233083873
 31
0.0
  0
LINE
  5
64C7
330
1F
100
AcDbEntity
  8
TEXT
100
AcDbLine
 10
-19.01766051215657
 20
-76.67832558593882
 30
0.0
 11
-19.01766051215654
 21
-76.79881016495555
 31
0.0
  0
LINE
  5
64C8
330
1F
100
AcDbEntity
  8
TEXT
100
AcDbLine
 10
-18.93306152010493
 20
-76.72530707903598
 30
0.0
 11
-18.93306152010493
 21
-76.80178197860193
 31
0.0
  0
LINE
  5
64C9
330
1F
100
AcDbEntity
  8
TEXT
100
AcDbLine
 10
-19.01766051215657
 20
-76.60966052576684
 30
0.0
 11
-18.93306152010493
 21
-76.60966052576684
 31
0.0
  0
LINE
  5
64CA
330
1F
100
AcDbEntity
  8
TEXT
100
AcDbLine
 10
-18.93306152010493
 20
-76.72530707903598
 30
0.0
 11
-18.8279124884227
 21
-76.72530707903598
 31
0.0
  0
LINE
  5
64CB
330
1F
100
AcDbEntity
  8
TEXT
100
AcDbLine
 10
-19.01766051215657
 20
-76.67832558593882
 30
0.0
 11
-18.8279124884227
 21
-76.67832558593882
 31
0.0
  0
ARC
  5
64CC
330
1F
100
AcDbEntity
  8
TEXT
100
AcDbCircle
 10
-18.97530881884012
 20
-76.79881016495555
 30
0.0
 40
0.0423516933164493
100
AcDbArc
 50
179.9999999999984
 51
4.023745172363636
  0
ARC
  5
64CD
330
1F
100
AcDbEntity
  8
TEXT
100
AcDbCircle
 10
-18.97530881884012
 20
-76.48795852451897
 30
0.0
 40
0.0423516933164493
100
AcDbArc
 50
355.9762548273996
 51
180.0
  0
LINE
  5
64CE
330
1F
100
AcDbEntity
  8
TEXT
100
AcDbLine
 10
-19.82442351151629
 20
-76.87405264631877
 30
0.0
 11
-19.82442351151629
 21
-76.90765457364754
 31
0.0
  0
LINE
  5
64CF
330
1F
100
AcDbEntity
  8
TEXT
100
AcDbLine
 10
-19.89593637872291
 20
-76.38460713133145
 30
0.0
 11
-19.89593637872291
 21
-76.80552801975747
 31
0.0
  0
LINE
  5
64D0
330
1F
100
AcDbEntity
  8
TEXT
100
AcDbLine
 10
-19.99957204325813
 20
-76.38460713133145
 30
0.0
 11
-19.89593637872291
 21
-76.38460713133145
 31
0.0
  0
LINE
  5
64D1
330
1F
100
AcDbEntity
  8
TEXT
100
AcDbLine
 10
-19.82442351151629
 20
-76.90765457364754
 30
0.0
 11
-19.71927447983409
 21
-76.90765457364754
 31
0.0
  0
LINE
  5
64D2
330
1F
100
AcDbEntity
  8
TEXT
100
AcDbLine
 10
-19.99957204325813
 20
-76.38460713133145
 30
0.0
 11
-19.99957204325816
 21
-76.83571560683488
 31
0.0
  0
LINE
  5
64D3
330
1F
100
AcDbEntity
  8
TEXT
100
AcDbLine
 10
-19.89593637872291
 20
-76.48124066971703
 30
0.0
 11
-19.89593637872291
 21
-76.80552801975747
 31
0.0
  0
LINE
  5
64D4
330
1F
100
AcDbEntity
  8
TEXT
100
AcDbLine
 10
-19.82442351151633
 20
-76.38460713133145
 30
0.0
 11
-19.82442351151633
 21
-76.80552801975747
 31
0.0
  0
LINE
  5
64D5
330
1F
100
AcDbEntity
  8
TEXT
100
AcDbLine
 10
-19.71927447983409
 20
-76.38460713133145
 30
0.0
 11
-19.71927447983409
 21
-76.90765457364754
 31
0.0
  0
LINE
  5
64D6
330
1F
100
AcDbEntity
  8
TEXT
100
AcDbLine
 10
-19.9128770560495
 20
-76.90765457364754
 30
0.0
 11
-19.89369725766513
 21
-76.90765457364754
 31
0.0
  0
LINE
  5
64D7
330
1F
100
AcDbEntity
  8
TEXT
100
AcDbLine
 10
-19.82442351151633
 20
-76.38460713133145
 30
0.0
 11
-19.71927447983409
 21
-76.38460713133145
 31
0.0
  0
ARC
  5
64D8
330
1F
100
AcDbEntity
  8
TEXT
100
AcDbCircle
 10
-19.86030254020841
 20
-76.80552801975747
 30
0.0
 40
0.0356338385145298
100
AcDbArc
 50
180.0000000000016
 51
359.9999999999984
  0
ARC
  5
64D9
330
1F
100
AcDbEntity
  8
TEXT
100
AcDbCircle
 10
-19.9128770560495
 20
-76.81944621929192
 30
0.0
 40
0.0882083543556392
100
AcDbArc
 50
190.6286426681376
 51
270.0
  0
ARC
  5
64DA
330
1F
100
AcDbEntity
  8
TEXT
100
AcDbCircle
 10
-19.89369725766513
 20
-76.81944621929192
 30
0.0
 40
0.0882083543556392
100
AcDbArc
 50
270.0
 51
321.7523418942993
  0
LINE
  5
64DB
330
1F
100
AcDbEntity
  8
TEXT
100
AcDbLine
 10
-19.27786728235076
 20
-76.8187297404939
 30
0.0
 11
-19.27786728235076
 21
-76.46732247018262
 31
0.0
  0
LINE
  5
64DC
330
1F
100
AcDbEntity
  8
TEXT
100
AcDbLine
 10
-19.38301631403296
 20
-76.80552801975747
 30
0.0
 11
-19.38301631403296
 21
-76.48124066971703
 31
0.0
  0
LINE
  5
64DD
330
1F
100
AcDbEntity
  8
TEXT
100
AcDbLine
 10
-19.4545291812396
 20
-76.80552801975747
 30
0.0
 11
-19.4545291812396
 21
-76.48124066971703
 31
0.0
  0
LINE
  5
64DE
330
1F
100
AcDbEntity
  8
TEXT
100
AcDbLine
 10
-19.55967821292183
 20
-76.90216155814309
 30
0.0
 11
-19.55967821292183
 21
-76.15796554193912
 31
0.0
  0
LINE
  5
64DF
330
1F
100
AcDbEntity
  8
TEXT
100
AcDbLine
 10
-19.46761530608463
 20
-76.90216155814309
 30
0.0
 11
-19.46761530608463
 21
-76.85524552723126
 31
0.0
  0
LINE
  5
64E0
330
1F
100
AcDbEntity
  8
TEXT
100
AcDbLine
 10
-19.36607563670642
 20
-76.37911411582695
 30
0.0
 11
-19.3852554350908
 21
-76.37911411582695
 31
0.0
  0
LINE
  5
64E1
330
1F
100
AcDbEntity
  8
TEXT
100
AcDbLine
 10
-19.46761530608463
 20
-76.90216155814309
 30
0.0
 11
-19.55967821292183
 21
-76.90216155814309
 31
0.0
  0
ARC
  5
64E2
330
1F
100
AcDbEntity
  8
TEXT
100
AcDbCircle
 10
-19.41865015254752
 20
-76.80552801975747
 30
0.0
 40
0.0356338385145298
100
AcDbArc
 50
180.0
 51
0.0
  0
ARC
  5
64E3
330
1F
100
AcDbEntity
  8
TEXT
100
AcDbCircle
 10
-19.41865015254752
 20
-76.48124066971701
 30
0.0
 40
0.0356338385145298
100
AcDbArc
 50
0.0000000000016284
 51
179.9999999999984
  0
ARC
  5
64E4
330
1F
100
AcDbEntity
  8
TEXT
100
AcDbCircle
 10
-19.3727934915083
 20
-76.8187297404939
 30
0.0
 40
0.0949262091575588
100
AcDbArc
 50
202.6235962336635
 51
0.0
  0
LINE
  5
64E5
330
1F
100
AcDbEntity
  8
TEXT
100
AcDbLine
 10
-19.4545291812396
 20
-76.41271604315574
 30
0.0
 11
-19.4545291812396
 21
-76.15796554193909
 31
0.0
  0
LINE
  5
64E6
330
1F
100
AcDbEntity
  8
TEXT
100
AcDbLine
 10
-19.46041530673707
 20
-76.85524552723126
 30
0.0
 11
-19.46761530608463
 21
-76.85524552723126
 31
0.0
  0
ARC
  5
64E7
330
1F
100
AcDbEntity
  8
TEXT
100
AcDbCircle
 10
-19.36607563670642
 20
-76.46732247018258
 30
0.0
 40
0.0882083543556392
100
AcDbArc
 50
0.0
 51
90.0
  0
ARC
  5
64E8
330
1F
100
AcDbEntity
  8
TEXT
100
AcDbCircle
 10
-19.3852554350908
 20
-76.46732247018258
 30
0.0
 40
0.0882083543556392
100
AcDbArc
 50
90.0
 51
141.7523418942993
  0
LINE
  5
64E9
330
1F
100
AcDbEntity
  8
TEXT
100
AcDbLine
 10
-21.00346383373606
 20
-76.68381301027894
 30
0.0
 11
-21.00346383373606
 21
-76.75810928414396
 31
0.0
  0
LINE
  5
64EA
330
1F
100
AcDbEntity
  8
TEXT
100
AcDbLine
 10
-21.10861286541829
 20
-76.68381301027894
 30
0.0
 11
-21.10861286541829
 21
-76.75810928414396
 31
0.0
  0
LINE
  5
64EB
330
1F
100
AcDbEntity
  8
TEXT
100
AcDbLine
 10
-21.00346383373606
 20
-76.68381301027894
 30
0.0
 11
-21.10861286541829
 21
-76.68381301027894
 31
0.0
  0
LINE
  5
64EC
330
1F
100
AcDbEntity
  8
TEXT
100
AcDbLine
 10
-21.00346383373606
 20
-76.36873492805289
 30
0.0
 11
-21.10861286541829
 21
-76.36873492805289
 31
0.0
  0
ARC
  5
64ED
330
1F
100
AcDbEntity
  8
TEXT
100
AcDbCircle
 10
-20.33710898917082
 20
-76.81944621929192
 30
0.0
 40
0.0882083543556392
100
AcDbArc
 50
270.0
 51
321.7523418942993
  0
ARC
  5
64EE
330
1F
100
AcDbEntity
  8
TEXT
100
AcDbCircle
 10
-20.35628878755517
 20
-76.81944621929192
 30
0.0
 40
0.0882083543556392
100
AcDbArc
 50
180.0
 51
270.0
  0
LINE
  5
64EF
330
1F
100
AcDbEntity
  8
TEXT
100
AcDbLine
 10
-20.26194911752456
 20
-76.43152316224327
 30
0.0
 11
-20.25474911817696
 21
-76.43152316224327
 31
0.0
  0
LINE
  5
64F0
330
1F
100
AcDbEntity
  8
TEXT
100
AcDbLine
 10
-20.26783524302198
 20
-76.87405264631877
 30
0.0
 11
-20.26783524302198
 21
-77.08102716576163
 31
0.0
  0
ARC
  5
64F1
330
1F
100
AcDbEntity
  8
TEXT
100
AcDbCircle
 10
-20.34957093275327
 20
-76.46803894898065
 30
0.0
 40
0.0949262091575588
100
AcDbArc
 50
22.62359623366362
 51
180.0
  0
LINE
  5
64F2
330
1F
100
AcDbEntity
  8
TEXT
100
AcDbLine
 10
-19.55967821292183
 20
-76.15796554193909
 30
0.0
 11
-19.4545291812396
 21
-76.15796554193909
 31
0.0
  0
ARC
  5
64F3
330
1F
100
AcDbEntity
  8
TEXT
100
AcDbCircle
 10
-20.30371427171406
 20
-76.80552801975747
 30
0.0
 40
0.0356338385145298
100
AcDbArc
 50
180.0000000000016
 51
359.9999999999984
  0
ARC
  5
64F4
330
1F
100
AcDbEntity
  8
TEXT
100
AcDbCircle
 10
-20.30371427171406
 20
-76.48124066971701
 30
0.0
 40
0.0356338385145298
100
AcDbArc
 50
0.0
 51
180.0
  0
LINE
  5
64F5
330
1F
100
AcDbEntity
  8
TEXT
100
AcDbLine
 10
-20.25474911817696
 20
-76.38460713133145
 30
0.0
 11
-20.16268621133975
 21
-76.38460713133145
 31
0.0
  0
LINE
  5
64F6
330
1F
100
AcDbEntity
  8
TEXT
100
AcDbLine
 10
-20.57862874179272
 20
-76.24730681124214
 30
0.0
 11
-20.57862874179272
 21
-76.15796554193909
 31
0.0
  0
LINE
  5
64F7
330
1F
100
AcDbEntity
  8
TEXT
100
AcDbLine
 10
-20.7548290347194
 20
-76.56440463573329
 30
0.0
 11
-20.7548290347194
 21
-76.81827789671766
 31
0.0
  0
LINE
  5
64F8
330
1F
100
AcDbEntity
  8
TEXT
100
AcDbLine
 10
-20.59148029010946
 20
-76.56440463573322
 30
0.0
 11
-20.59148029010946
 21
-76.47506336643023
 31
0.0
  0
LINE
  5
64F9
330
1F
100
AcDbEntity
  8
TEXT
100
AcDbLine
 10
-20.57862874179272
 20
-76.90765457364754
 30
0.0
 11
-20.57862874179272
 21
-76.81827789671766
 31
0.0
  0
LINE
  5
64FA
330
1F
100
AcDbEntity
  8
TEXT
100
AcDbLine
 10
-20.7548290347194
 20
-76.56440463573322
 30
0.0
 11
-20.59148029010946
 21
-76.56440463573322
 31
0.0
  0
LINE
  5
64FB
330
1F
100
AcDbEntity
  8
TEXT
100
AcDbLine
 10
-20.75482903471939
 20
-76.47506336643023
 30
0.0
 11
-20.59148029010946
 21
-76.47506336643023
 31
0.0
  0
ARC
  5
64FC
330
1F
100
AcDbEntity
  8
TEXT
100
AcDbCircle
 10
-21.16902812191924
 20
-76.75810928414396
 30
0.0
 40
0.1653176442559331
100
AcDbArc
 50
180.0
 51
0.0
  0
ARC
  5
64FD
330
1F
100
AcDbEntity
  8
TEXT
100
AcDbCircle
 10
-21.16902812191924
 20
-76.30747542381581
 30
0.0
 40
0.1653176442559331
100
AcDbArc
 50
0.0
 51
180.0
  0
LINE
  5
64FE
330
1F
100
AcDbEntity
  8
TEXT
100
AcDbLine
 10
-20.35628878755517
 20
-76.90765457364754
 30
0.0
 11
-20.33710898917082
 21
-76.90765457364754
 31
0.0
  0
LINE
  5
64FF
330
1F
100
AcDbEntity
  8
TEXT
100
AcDbLine
 10
-20.85997806640165
 20
-76.15796554193909
 30
0.0
 11
-20.57862874179272
 21
-76.15796554193909
 31
0.0
  0
LINE
  5
6500
330
1F
100
AcDbEntity
  8
TEXT
100
AcDbLine
 10
-20.7548290347194
 20
-76.24730681124214
 30
0.0
 11
-20.57862874179272
 21
-76.24730681124214
 31
0.0
  0
LINE
  5
6501
330
1F
100
AcDbEntity
  8
TEXT
100
AcDbLine
 10
-20.7548290347194
 20
-76.81827789671766
 30
0.0
 11
-20.57862874179272
 21
-76.81827789671766
 31
0.0
  0
LINE
  5
6502
330
1F
100
AcDbEntity
  8
TEXT
100
AcDbLine
 10
-20.85997806640165
 20
-76.90765457364754
 30
0.0
 11
-20.57862874179272
 21
-76.90765457364754
 31
0.0
  0
ARC
  5
6503
330
1F
100
AcDbEntity
  8
TEXT
100
AcDbCircle
 10
-21.16902812191924
 20
-76.75810928414396
 30
0.0
 40
0.0601686125737142
100
AcDbArc
 50
180.0
 51
0.0
  0
ARC
  5
6504
330
1F
100
AcDbEntity
  8
TEXT
100
AcDbCircle
 10
-21.16902812191924
 20
-76.30747542381581
 30
0.0
 40
0.0601686125737142
100
AcDbArc
 50
0.0
 51
180.0
  0
LINE
  5
6505
330
1F
100
AcDbEntity
  8
TEXT
100
AcDbLine
 10
-18.8279124884227
 20
-76.51933151844862
 30
0.0
 11
-18.8279124884227
 21
-76.67832558593882
 31
0.0
  0
LINE
  5
6506
330
1F
100
AcDbEntity
  8
TEXT
100
AcDbLine
 10
-18.93306152010493
 20
-76.48498671087239
 30
0.0
 11
-18.93306152010493
 21
-76.60966052576684
 31
0.0
  0
LINE
  5
6507
330
1F
100
AcDbEntity
  8
TEXT
100
AcDbLine
 10
-19.01766051215657
 20
-76.48795852451897
 30
0.0
 11
-19.01766051215657
 21
-76.60966052576684
 31
0.0
  0
LINE
  5
6508
330
1F
100
AcDbEntity
  8
TEXT
100
AcDbLine
 10
-19.12280954383876
 20
-76.52488000063859
 30
0.0
 11
-19.12280954383876
 21
-76.76015384864887
 31
0.0
  0
LINE
  5
6509
330
1F
100
AcDbEntity
  8
TEXT
100
AcDbLine
 10
-20.25474911817696
 20
-76.38460713133145
 30
0.0
 11
-20.25474911817696
 21
-76.43152316224327
 31
0.0
  0
LINE
  5
650A
330
1F
100
AcDbEntity
  8
TEXT
100
AcDbLine
 10
-20.16268621133975
 20
-76.38460713133145
 30
0.0
 11
-20.16268621133975
 21
-77.08102716576163
 31
0.0
  0
LINE
  5
650B
330
1F
100
AcDbEntity
  8
TEXT
100
AcDbLine
 10
-20.26783524302198
 20
-76.48124066971703
 30
0.0
 11
-20.26783524302198
 21
-76.80552801975747
 31
0.0
  0
LINE
  5
650C
330
1F
100
AcDbEntity
  8
TEXT
100
AcDbLine
 10
-20.33934811022861
 20
-76.48124066971703
 30
0.0
 11
-20.33934811022861
 21
-76.80552801975747
 31
0.0
  0
LINE
  5
650D
330
1F
100
AcDbEntity
  8
TEXT
100
AcDbLine
 10
-20.44449714191082
 20
-76.46803894898065
 30
0.0
 11
-20.44449714191082
 21
-76.81944621929192
 31
0.0
  0
LINE
  5
650E
330
1F
100
AcDbEntity
  8
TEXT
100
AcDbLine
 10
-20.7548290347194
 20
-76.24730681124214
 30
0.0
 11
-20.75482903471939
 21
-76.47506336643023
 31
0.0
  0
LINE
  5
650F
330
1F
100
AcDbEntity
  8
TEXT
100
AcDbLine
 10
-20.85997806640165
 20
-76.15796554193912
 30
0.0
 11
-20.85997806640165
 21
-76.90765457364754
 31
0.0
  0
LINE
  5
6510
330
1F
100
AcDbEntity
  8
TEXT
100
AcDbLine
 10
-21.10861286541829
 20
-76.30747542381581
 30
0.0
 11
-21.10861286541829
 21
-76.36873492805289
 31
0.0
  0
LINE
  5
6511
330
1F
100
AcDbEntity
  8
TEXT
100
AcDbLine
 10
-21.00346383373606
 20
-76.30747542381581
 30
0.0
 11
-21.00346383373606
 21
-76.36873492805289
 31
0.0
  0
LINE
  5
6512
330
1F
100
AcDbEntity
  8
TEXT
100
AcDbLine
 10
-21.22919673449297
 20
-76.30747542381584
 30
0.0
 11
-21.22919673449297
 21
-76.75810928414396
 31
0.0
  0
LINE
  5
6513
330
1F
100
AcDbEntity
  8
TEXT
100
AcDbLine
 10
-21.33434576617518
 20
-76.30747542381584
 30
0.0
 11
-21.33434576617518
 21
-76.75810928414396
 31
0.0
  0
LINE
  5
6514
330
1F
100
AcDbEntity
  8
TEXT
100
AcDbLine
 10
-21.49418958282624
 20
-76.15796554193912
 30
0.0
 11
-21.49418958282624
 21
-76.90765457364754
 31
0.0
  0
LINE
  5
6515
330
1F
100
AcDbEntity
  8
TEXT
100
AcDbLine
 10
-21.59933861450848
 20
-76.15796554193912
 30
0.0
 11
-21.59933861450848
 21
-76.90765457364754
 31
0.0
  0
LINE
  5
6516
330
1F
100
AcDbEntity
  8
TEXT
100
AcDbLine
 10
-21.59933861450848
 20
-76.90765457364754
 30
0.0
 11
-21.49418958282624
 21
-76.90765457364754
 31
0.0
  0
LINE
  5
6517
330
1F
100
AcDbEntity
  8
TEXT
100
AcDbLine
 10
-21.59933861450848
 20
-76.15796554193909
 30
0.0
 11
-21.49418958282624
 21
-76.15796554193909
 31
0.0
  0
TEXT
  5
6518
330
1F
100
AcDbEntity
  8
TEXT
100
AcDbText
 10
-17.82449472286449
 20
-77.13398205899483
 30
0.0
 40
0.0937422024198251
  1
FAX  724-837-3386
 72
     1
 11
-17.04330970269928
 21
-77.08711095778491
 31
0.0
100
AcDbText
 73
     2
  0
TEXT
  5
6519
330
1F
100
AcDbEntity
  8
TEXT
100
AcDbText
 10
-17.80887102246118
 20
-76.38404443963619
 30
0.0
 40
0.0937422024198251
  1
141 WILSON AVENUE
 72
     1
 11
-17.04330970269928
 21
-76.33717333842627
 31
0.0
100
AcDbText
 73
     2
  0
TEXT
  5
651A
330
1F
100
AcDbEntity
  8
TEXT
100
AcDbText
 10
-17.94948432609092
 20
-76.63402364608908
 30
0.0
 40
0.0937422024198251
  1
GREENSBURG, PA  15601
 72
     1
 11
-17.04330970269928
 21
-76.58715254487916
 31
0.0
100
AcDbText
 73
     2
  0
TEXT
  5
651B
330
1F
100
AcDbEntity
  8
TEXT
100
AcDbText
 10
-18.27758203456031
 20
-76.14656419350601
 30
0.0
 40
0.0937422024198251
  1
INDUSTRIAL COOLING EQUIPMENT
 72
     1
 11
-17.04330970269928
 21
-76.09969309229609
 31
0.0
100
AcDbText
 73
     2
  0
TEXT
  5
651C
330
1F
100
AcDbEntity
  8
TEXT
100
AcDbText
 10
-18.45725458919831
 20
-76.88400285254193
 30
0.0
 40
0.0937422024198251
  1
724-837-2204  *  1-888-867-8234
 72
     1
 11
-17.04330970269928
 21
-76.83713175133201
 31
0.0
100
AcDbText
 73
     2
  0
LINE
  5
66ED
330
1F
100
AcDbEntity
  8
DIM
100
AcDbLine
 10
-38.75164268138072
 20
-61.01387468493914
 30
0.0
 11
-38.57164268138073
 21
-61.01387468493914
 31
0.0
  0
LINE
  5
66EE
330
1F
100
AcDbEntity
  8
DIM
100
AcDbLine
 10
-38.66164268138073
 20
-61.10387468493915
 30
0.0
 11
-38.66164268138073
 21
-60.92387468493914
 31
0.0
  0
LINE
  5
66EF
330
1F
100
AcDbEntity
  8
DIM
100
AcDbLine
 10
-30.37664268138073
 20
-55.26387468493915
 30
0.0
 11
-30.19664268138073
 21
-55.26387468493915
 31
0.0
  0
LINE
  5
66F0
330
1F
100
AcDbEntity
  8
DIM
100
AcDbLine
 10
-30.28664268138073
 20
-55.35387468493914
 30
0.0
 11
-30.28664268138073
 21
-55.17387468493915
 31
0.0
  0
LINE
  5
66F1
330
1F
100
AcDbEntity
  8
DIM
100
AcDbLine
 10
-38.75164268138072
 20
-55.26387468493915
 30
0.0
 11
-38.57164268138073
 21
-55.26387468493915
 31
0.0
  0
LINE
  5
66F2
330
1F
100
AcDbEntity
  8
DIM
100
AcDbLine
 10
-38.66164268138073
 20
-55.35387468493914
 30
0.0
 11
-38.66164268138073
 21
-55.17387468493915
 31
0.0
  0
LINE
  5
66F3
330
1F
100
AcDbEntity
  8
DIM
100
AcDbLine
 10
-38.75164268138072
 20
-47.57687468493901
 30
0.0
 11
-38.57164268138073
 21
-47.57687468493901
 31
0.0
  0
LINE
  5
66F4
330
1F
100
AcDbEntity
  8
DIM
100
AcDbLine
 10
-38.66164268138073
 20
-47.66687468493901
 30
0.0
 11
-38.66164268138073
 21
-47.486874684939
 31
0.0
  0
LINE
  5
66F5
330
1F
100
AcDbEntity
  8
DIM
100
AcDbLine
 10
-30.37664268138073
 20
-47.57687468493901
 30
0.0
 11
-30.19664268138073
 21
-47.57687468493901
 31
0.0
  0
LINE
  5
66F6
330
1F
100
AcDbEntity
  8
DIM
100
AcDbLine
 10
-30.28664268138073
 20
-47.66687468493901
 30
0.0
 11
-30.28664268138073
 21
-47.486874684939
 31
0.0
  0
CIRCLE
  5
67B4
330
1F
100
AcDbEntity
  8
TEMPLATE
100
AcDbCircle
 10
-30.28614013594782
 20
-49.57687974896217
 30
0.0
 40
0.625
  0
DIMENSION
  5
67BB
330
1F
100
AcDbEntity
  8
DIM
100
AcDbDimension
280
     0
  2
*D38
 10
-39.73914013594782
 20
-63.26387974896217
 30
0.0
 11
-43.66448314157866
 21
-49.57487579271344
 31
0.0
 70
    38
 71
     5
 42
13.687
 73
     0
 74
     0
 75
     0
  3
Standard
100
AcDbOrdinateDimension
 13
-30.28614013594782
 23
-49.57687974896217
 33
0.0
 14
-40.95614980824533
 24
-49.57487579271344
 34
0.0
  0
DIMENSION
  5
680E
330
1F
100
AcDbEntity
  8
DIM
100
AcDbDimension
280
     0
  2
*D39
 10
-30.66361713402673
 20
-49.07874712011588
 30
0.0
 11
-22.04589620294542
 21
-53.7978407885931
 31
0.0
 70
   163
  1
<>\POMIT FOR \PIQ150FPW \PEXHAUST
 71
     5
 42
1.249999999999996
 73
     0
 74
     0
 75
     0
  3
Standard
100
AcDbDiametricDimension
 15
-29.90866313786892
 25
-50.07501237780851
 35
0.0
 40
0.0
1001
ACAD_DSTYLE_DIMRADIAL_EXTENSION
1070
   387
1070
     1
1070
   388
1040
0.0
1070
   390
1040
0.0
  0
ENDSEC
  0
SECTION
  2
OBJECTS
  0
DICTIONARY
  5
C
330
0
100
AcDbDictionary
281
     1
  3
ACAD_CIP_PREVIOUS_PRODUCT_INFO
350
66C4
  3
ACAD_COLOR
350
1EFD
  3
ACAD_DETAILVIEWSTYLE
350
66C1
  3
ACAD_GROUP
350
D
  3
ACAD_LAYOUT
350
1A
  3
ACAD_MATERIAL
350
1EFC
  3
ACAD_MLEADERSTYLE
350
66BD
  3
ACAD_MLINESTYLE
350
17
  3
ACAD_PLOTSETTINGS
350
19
  3
ACAD_PLOTSTYLENAME
350
E
  3
ACAD_SCALELIST
350
66AB
  3
ACAD_SECTIONVIEWSTYLE
350
66BF
  3
ACAD_TABLESTYLE
350
66A9
  3
ACAD_VISUALSTYLE
350
6690
  3
AcadDim
350
3FE9
  3
ACDB_RECOMPOSE_DATA
350
70E8
  3
AcDbVariableDictionary
350
652A
  3
ASE_INDEX_DICTIONARY
350
537A
  0
DICTIONARY
  5
7094
330
8
100
AcDbDictionary
280
     1
281
     1
  0
DICTIONARY
  5
4997
330
2
100
AcDbDictionary
280
     1
281
     1
  3
ACAD_LAYERSTATES
360
4998
  0
DICTIONARY
  5
66C7
330
10
100
AcDbDictionary
280
     1
281
     1
  3
ADSK_XREC_LAYER_RECONCILED
360
66C8
  0
DICTIONARY
  5
66C9
330
2794
100
AcDbDictionary
280
     1
281
     1
  3
ADSK_XREC_LAYER_RECONCILED
360
66CA
  0
DICTIONARY
  5
66CB
330
2796
100
AcDbDictionary
280
     1
281
     1
  3
ADSK_XREC_LAYER_RECONCILED
360
66CC
  0
DICTIONARY
  5
66CD
330
2797
100
AcDbDictionary
280
     1
281
     1
  3
ADSK_XREC_LAYER_RECONCILED
360
66CE
  0
DICTIONARY
  5
66CF
330
44AB
100
AcDbDictionary
280
     1
281
     1
  3
ADSK_XREC_LAYER_RECONCILED
360
66D0
  0
DICTIONARY
  5
66D1
330
4994
100
AcDbDictionary
280
     1
281
     1
  3
ADSK_XREC_LAYER_RECONCILED
360
66D2
  0
DICTIONARY
  5
66D3
330
4995
100
AcDbDictionary
280
     1
281
     1
  3
ADSK_XREC_LAYER_RECONCILED
360
66D4
  0
DICTIONARY
  5
66D5
330
4996
100
AcDbDictionary
280
     1
281
     1
  3
ADSK_XREC_LAYER_RECONCILED
360
66D6
  0
DICTIONARY
  5
69AA
330
69A9
100
AcDbDictionary
280
     1
281
     1
  0
DICTIONARY
  5
70D5
330
7048
100
AcDbDictionary
280
     1
281
     1
  0
DICTIONARY
  5
70CD
330
68C3
100
AcDbDictionary
280
     1
281
     1
  0
DICTIONARY
  5
70CF
330
6E25
100
AcDbDictionary
280
     1
281
     1
  0
XRECORD
  5
66C4
102
{ACAD_REACTORS
330
C
102
}
330
C
100
AcDbXrecord
280
     1
300
AMECH_PP
300
2014
300
PDSP_F_S
  0
DICTIONARY
  5
1EFD
102
{ACAD_REACTORS
330
C
102
}
330
C
100
AcDbDictionary
281
     1
  0
DICTIONARY
  5
66C1
102
{ACAD_REACTORS
330
C
102
}
330
C
100
AcDbDictionary
281
     1
  3
Imperial24
350
66C2
  0
DICTIONARY
  5
D
102
{ACAD_REACTORS
330
C
102
}
330
C
100
AcDbDictionary
281
     1
  0
DICTIONARY
  5
1A
102
{ACAD_REACTORS
330
C
102
}
330
C
100
AcDbDictionary
281
     1
  3
Layout1
350
1E
  3
Layout2
350
26
  3
Model
350
22
  0
DICTIONARY
  5
1EFC
102
{ACAD_REACTORS
330
C
102
}
330
C
100
AcDbDictionary
281
     1
  3
ByBlock
350
6680
  3
ByLayer
350
6678
  3
Global
350
6688
  0
DICTIONARY
  5
66BD
102
{ACAD_REACTORS
330
C
102
}
330
C
100
AcDbDictionary
281
     1
  3
Standard
350
66BE
  0
DICTIONARY
  5
17
102
{ACAD_REACTORS
330
C
102
}
330
C
100
AcDbDictionary
281
     1
  3
Standard
350
18
  0
DICTIONARY
  5
19
102
{ACAD_REACTORS
330
C
102
}
330
C
100
AcDbDictionary
281
     1
  0
ACDBDICTIONARYWDFLT
  5
E
102
{ACAD_REACTORS
330
C
102
}
330
C
100
AcDbDictionary
281
     1
  3
Normal
350
F
100
AcDbDictionaryWithDefault
340
F
  0
DICTIONARY
  5
66AB
102
{ACAD_REACTORS
330
C
102
}
330
C
100
AcDbDictionary
281
     1
  3
A0
350
66AC
  3
A1
350
66AD
  3
A2
350
66AE
  3
A3
350
66AF
  3
A4
350
66B0
  3
A5
350
66B1
  3
A6
350
66B2
  3
A7
350
66B3
  3
A8
350
66B4
  3
A9
350
66B5
  3
B0
350
66B6
  3
B1
350
66B7
  3
B2
350
66B8
  3
B3
350
66B9
  3
B4
350
66BA
  3
B5
350
66BB
  3
B6
350
66BC
  0
DICTIONARY
  5
66BF
102
{ACAD_REACTORS
330
C
102
}
330
C
100
AcDbDictionary
281
     1
  3
Imperial24
350
66C0
  0
DICTIONARY
  5
66A9
102
{ACAD_REACTORS
330
C
102
}
330
C
100
AcDbDictionary
281
     1
  3
Standard
350
66AA
  0
DICTIONARY
  5
6690
102
{ACAD_REACTORS
330
C
102
}
330
C
100
AcDbDictionary
281
     1
  3
2dWireframe
350
6696
  3
Basic
350
6695
  3
Brighten
350
669C
  3
ColorChange
350
66A0
  3
Conceptual
350
6699
  3
Dim
350
669B
  3
EdgeColorOff
350
66A8
  3
Facepattern
350
669F
  3
Flat
350
6691
  3
FlatWithEdges
350
6692
  3
Gouraud
350
6693
  3
GouraudWithEdges
350
6694
  3
Hidden
350
6698
  3
JitterOff
350
66A6
  3
Linepattern
350
669E
  3
OverhangOff
350
66A7
  3
Realistic
350
669A
  3
Shaded
350
66A5
  3
Shaded with edges
350
66A4
  3
Shades of Gray
350
66A1
  3
Sketchy
350
66A2
  3
Thicken
350
669D
  3
Wireframe
350
6697
  3
X-Ray
350
66A3
  0
XRECORD
  5
3FE9
102
{ACAD_REACTORS
330
C
102
}
330
C
100
AcDbXrecord
280
     1
 90
   990106
  3

 60
     0
 61
     0
 62
     1
 63
     3
 64
     0
 65
     0
 66
     0
 67
     3
 68
     1
 69
     0
 70
     0
 71
     0
 72
     0
 40
1.313624512581952
170
     0
340
0
  0
XRECORD
  5
70E8
102
{ACAD_REACTORS
330
C
102
}
330
C
100
AcDbXrecord
280
     1
 90
        1
330
66AA
330
66C0
330
66C2
330
6E5E
  0
DICTIONARY
  5
652A
102
{ACAD_REACTORS
330
C
102
}
330
C
100
AcDbDictionary
281
     1
  3
CANNOSCALE
350
66FB
  3
CMLEADERSTYLE
350
66F8
  3
CTABLESTYLE
350
66F7
  3
CVIEWDETAILSTYLE
350
66F9
  3
CVIEWSECTIONSTYLE
350
66FA
  3
DIMASSOC
350
652B
  3
INDEXCTL
350
66FD
  3
LAYEREVAL
350
70E1
  3
LAYERNOTIFY
350
70E2
  3
LIGHTINGUNITS
350
70E0
  3
MSLTSCALE
350
70DF
  3
PROJECTNAME
350
652C
  3
SORTENTS
350
66FC
  0
DICTIONARY
  5
537A
102
{ACAD_REACTORS
330
C
102
}
330
C
100
AcDbDictionary
281
     1
  3
ASEBlockHierarchyIndexRecord
350
537C
1001
DCO15
1040
1629697652.915
  0
DICTIONARY
  5
4998
102
{ACAD_REACTORS
330
4997
102
}
330
4997
100
AcDbDictionary
281
     1
  0
XRECORD
  5
66C8
102
{ACAD_REACTORS
330
66C7
102
}
330
66C7
100
AcDbXrecord
280
     1
290
     1
  0
XRECORD
  5
66CA
102
{ACAD_REACTORS
330
66C9
102
}
330
66C9
100
AcDbXrecord
280
     1
290
     1
  0
XRECORD
  5
66CC
102
{ACAD_REACTORS
330
66CB
102
}
330
66CB
100
AcDbXrecord
280
     1
290
     1
  0
XRECORD
  5
66CE
102
{ACAD_REACTORS
330
66CD
102
}
330
66CD
100
AcDbXrecord
280
     1
290
     1
  0
XRECORD
  5
66D0
102
{ACAD_REACTORS
330
66CF
102
}
330
66CF
100
AcDbXrecord
280
     1
290
     1
  0
XRECORD
  5
66D2
102
{ACAD_REACTORS
330
66D1
102
}
330
66D1
100
AcDbXrecord
280
     1
290
     1
  0
XRECORD
  5
66D4
102
{ACAD_REACTORS
330
66D3
102
}
330
66D3
100
AcDbXrecord
280
     1
290
     1
  0
XRECORD
  5
66D6
102
{ACAD_REACTORS
330
66D5
102
}
330
66D5
100
AcDbXrecord
280
     1
290
     1
  0
ACDBDETAILVIEWSTYLE
  5
66C2
102
{ACAD_XDICTIONARY
360
70E6
102
}
102
{ACAD_REACTORS
330
66C1
102
}
330
66C1
100
AcDbModelDocViewStyle
 70
     0
  3
Imperial24
290
     0
100
AcDbDetailViewStyle
 70
     0
 71
     0
 90
        3
 71
     1
340
11
 62
   256
 40
0.24
340
0
 62
   256
 40
0.24
300

 40
0.36
280
     3
 71
     2
340
16
 90
       25
 62
   256
 71
     3
340
11
 62
   256
 40
0.24
 90
        1
 40
0.75
 90
        1
300
%<\AcVar ViewType \f "%tc1">% %<\AcVar ViewDetailId>%\PSCALE %<\AcVar ViewScale \f "%sn">%
 71
     4
340
16
 90
       25
 62
   256
340
16
 90
       25
 62
   256
280
     0
  0
LAYOUT
  5
1E
102
{ACAD_REACTORS
330
1A
102
}
330
1A
100
AcDbPlotSettings
  1

  2
Lexmark Z22-Z32 Series
  4

  6

 40
0.0
 41
0.0
 42
0.0
 43
0.0
 44
0.0
 45
0.0
 46
0.0
 47
0.0
 48
0.0
 49
0.0
140
0.0
141
0.0
142
1.0
143
1.0
 70
   688
 72
     0
 73
     0
 74
     5
  7
monochrome.ctb
 75
    16
147
1.0
 76
     0
 77
     2
 78
   300
148
0.0
149
0.0
100
AcDbLayout
  1
Layout1
 70
     1
 71
     1
 10
0.0
 20
0.0
 11
12.0
 21
9.0
 12
0.0
 22
0.0
 32
0.0
 14
1.000000000000000E+20
 24
1.000000000000000E+20
 34
1.000000000000000E+20
 15
-1.000000000000000E+20
 25
-1.000000000000000E+20
 35
-1.000000000000000E+20
146
0.0
 13
0.0
 23
0.0
 33
0.0
 16
1.0
 26
0.0
 36
0.0
 17
0.0
 27
1.0
 37
0.0
 76
     0
330
1B
  0
LAYOUT
  5
26
102
{ACAD_REACTORS
330
1A
102
}
330
1A
100
AcDbPlotSettings
  1

  2
Lexmark Z22-Z32 Series
  4

  6

 40
0.0
 41
0.0
 42
0.0
 43
0.0
 44
0.0
 45
0.0
 46
0.0
 47
0.0
 48
0.0
 49
0.0
140
0.0
141
0.0
142
1.0
143
1.0
 70
   688
 72
     0
 73
     0
 74
     5
  7
monochrome.ctb
 75
    16
147
1.0
 76
     0
 77
     2
 78
   300
148
0.0
149
0.0
100
AcDbLayout
  1
Layout2
 70
     1
 71
     2
 10
0.0
 20
0.0
 11
12.0
 21
9.0
 12
0.0
 22
0.0
 32
0.0
 14
0.0
 24
0.0
 34
0.0
 15
0.0
 25
0.0
 35
0.0
146
0.0
 13
0.0
 23
0.0
 33
0.0
 16
1.0
 26
0.0
 36
0.0
 17
0.0
 27
1.0
 37
0.0
 76
     0
330
23
  0
LAYOUT
  5
22
102
{ACAD_REACTORS
330
1A
102
}
330
1A
100
AcDbPlotSettings
  1

  2
HP Deskjet 6500 Series
  4
Letter
  6

 40
3.96875
 41
3.799404859542846
 42
3.96875
 43
3.17498779296875
 44
215.8999938964844
 45
279.3999938964844
 46
18.034
 47
0.0
 48
-78.76407490650773
 49
-63.38184234223342
140
-58.7725939341405
141
-31.65775618331691
142
1.0
143
2.957841644680252
 70
 11956
 72
     0
 73
     0
 74
     4
  7
monochrome.ctb
 75
     0
147
0.3380843601950505
 76
     0
 77
     2
 78
   300
148
2000.607502625296
149
1609.898795492729
100
AcDbLayout
  1
Model
 70
     1
 71
     0
 10
0.0
 20
0.0
 11
12.0
 21
9.0
 12
0.0
 22
0.0
 32
0.0
 14
0.0
 24
0.0
 34
0.0
 15
0.0
 25
0.0
 35
0.0
146
0.0
 13
0.0
 23
0.0
 33
0.0
 16
1.0
 26
0.0
 36
0.0
 17
0.0
 27
1.0
 37
0.0
 76
     0
330
1F
331
666A
  0
MATERIAL
  5
6680
102
{ACAD_XDICTIONARY
360
6681
102
}
102
{ACAD_REACTORS
330
1EFC
102
}
330
1EFC
100
AcDbMaterial
  1
ByBlock
 72
     0
 43
0.0208333333333333
 43
0.0
 43
0.0
 43
0.0
 43
0.0
 43
0.0208333333333333
 43
0.0
 43
0.0
 43
0.0
 43
0.0
 43
1.0
 43
0.0
 43
0.0
 43
0.0
 43
0.0
 43
1.0
 77
     0
 47
0.0208333333333333
 47
0.0
 47
0.0
 47
0.0
 47
0.0
 47
0.0208333333333333
 47
0.0
 47
0.0
 47
0.0
 47
0.0
 47
1.0
 47
0.0
 47
0.0
 47
0.0
 47
0.0
 47
1.0
171
     0
 49
0.0208333333333333
 49
0.0
 49
0.0
 49
0.0
 49
0.0
 49
0.0208333333333333
 49
0.0
 49
0.0
 49
0.0
 49
0.0
 49
1.0
 49
0.0
 49
0.0
 49
0.0
 49
0.0
 49
1.0
175
     0
142
0.0208333333333333
142
0.0
142
0.0
142
0.0
142
0.0
142
0.0208333333333333
142
0.0
142
0.0
142
0.0
142
0.0
142
1.0
142
0.0
142
0.0
142
0.0
142
0.0
142
1.0
179
     0
144
0.0208333333333333
144
0.0
144
0.0
144
0.0
144
0.0
144
0.0208333333333333
144
0.0
144
0.0
144
0.0
144
0.0
144
1.0
144
0.0
144
0.0
144
0.0
144
0.0
144
1.0
147
0.0208333333333333
147
0.0
147
0.0
147
0.0
147
0.0
147
0.0208333333333333
147
0.0
147
0.0
147
0.0
147
0.0
147
1.0
147
0.0
147
0.0
147
0.0
147
0.0
147
1.0
  0
MATERIAL
  5
6678
102
{ACAD_XDICTIONARY
360
6679
102
}
102
{ACAD_REACTORS
330
1EFC
102
}
330
1EFC
100
AcDbMaterial
  1
ByLayer
 72
     0
 43
0.0208333333333333
 43
0.0
 43
0.0
 43
0.0
 43
0.0
 43
0.0208333333333333
 43
0.0
 43
0.0
 43
0.0
 43
0.0
 43
1.0
 43
0.0
 43
0.0
 43
0.0
 43
0.0
 43
1.0
 77
     0
 47
0.0208333333333333
 47
0.0
 47
0.0
 47
0.0
 47
0.0
 47
0.0208333333333333
 47
0.0
 47
0.0
 47
0.0
 47
0.0
 47
1.0
 47
0.0
 47
0.0
 47
0.0
 47
0.0
 47
1.0
171
     0
 49
0.0208333333333333
 49
0.0
 49
0.0
 49
0.0
 49
0.0
 49
0.0208333333333333
 49
0.0
 49
0.0
 49
0.0
 49
0.0
 49
1.0
 49
0.0
 49
0.0
 49
0.0
 49
0.0
 49
1.0
175
     0
142
0.0208333333333333
142
0.0
142
0.0
142
0.0
142
0.0
142
0.0208333333333333
142
0.0
142
0.0
142
0.0
142
0.0
142
1.0
142
0.0
142
0.0
142
0.0
142
0.0
142
1.0
179
     0
144
0.0208333333333333
144
0.0
144
0.0
144
0.0
144
0.0
144
0.0208333333333333
144
0.0
144
0.0
144
0.0
144
0.0
144
1.0
144
0.0
144
0.0
144
0.0
144
0.0
144
1.0
147
0.0208333333333333
147
0.0
147
0.0
147
0.0
147
0.0
147
0.0208333333333333
147
0.0
147
0.0
147
0.0
147
0.0
147
1.0
147
0.0
147
0.0
147
0.0
147
0.0
147
1.0
  0
MATERIAL
  5
6688
102
{ACAD_XDICTIONARY
360
6689
102
}
102
{ACAD_REACTORS
330
1EFC
102
}
330
1EFC
100
AcDbMaterial
  1
Global
 72
     0
 43
0.0208333333333333
 43
0.0
 43
0.0
 43
0.0
 43
0.0
 43
0.0208333333333333
 43
0.0
 43
0.0
 43
0.0
 43
0.0
 43
1.0
 43
0.0
 43
0.0
 43
0.0
 43
0.0
 43
1.0
 77
     0
 47
0.0208333333333333
 47
0.0
 47
0.0
 47
0.0
 47
0.0
 47
0.0208333333333333
 47
0.0
 47
0.0
 47
0.0
 47
0.0
 47
1.0
 47
0.0
 47
0.0
 47
0.0
 47
0.0
 47
1.0
171
     0
 49
0.0208333333333333
 49
0.0
 49
0.0
 49
0.0
 49
0.0
 49
0.0208333333333333
 49
0.0
 49
0.0
 49
0.0
 49
0.0
 49
1.0
 49
0.0
 49
0.0
 49
0.0
 49
0.0
 49
1.0
175
     0
142
0.0208333333333333
142
0.0
142
0.0
142
0.0
142
0.0
142
0.0208333333333333
142
0.0
142
0.0
142
0.0
142
0.0
142
1.0
142
0.0
142
0.0
142
0.0
142
0.0
142
1.0
179
     0
144
0.0208333333333333
144
0.0
144
0.0
144
0.0
144
0.0
144
0.0208333333333333
144
0.0
144
0.0
144
0.0
144
0.0
144
1.0
144
0.0
144
0.0
144
0.0
144
0.0
144
1.0
147
0.0208333333333333
147
0.0
147
0.0
147
0.0
147
0.0
147
0.0208333333333333
147
0.0
147
0.0
147
0.0
147
0.0
147
1.0
147
0.0
147
0.0
147
0.0
147
0.0
147
1.0
  0
MLEADERSTYLE
  5
66BE
102
{ACAD_REACTORS
330
66BD
102
}
330
66BD
100
AcDbMLeaderStyle
179
     2
170
     2
171
     1
172
     0
 90
        2
 40
0.0
 41
0.0
173
     1
 91
-1056964608
340
14
 92
       -2
290
     1
 42
0.09
291
     1
 43
0.36
  3
Standard
 44
0.18
300

342
11
174
     1
178
     6
175
     1
176
     0
 93
-1056964608
 45
0.18
292
     0
297
     0
 46
0.18
 94
-1056964608
 47
1.0
 49
1.0
140
1.0
293
     1
141
0.0
294
     1
177
     0
142
1.0
295
     0
296
     0
143
0.125
271
     0
272
     9
273
     9
298
     0
  0
MLINESTYLE
  5
18
102
{ACAD_REACTORS
330
17
102
}
330
17
100
AcDbMlineStyle
  2
STANDARD
 70
     0
  3

 62
   256
 51
90.0
 52
90.0
 71
     2
 49
0.5
 62
   256
  6
BYLAYER
 49
-0.5
 62
   256
  6
BYLAYER
  0
ACDBPLACEHOLDER
  5
F
102
{ACAD_REACTORS
330
E
102
}
330
E
  0
SCALE
  5
66AC
102
{ACAD_REACTORS
330
66AB
102
}
330
66AB
100
AcDbScale
 70
     0
300
1:1
140
1.0
141
1.0
290
     1
  0
SCALE
  5
66AD
102
{ACAD_REACTORS
330
66AB
102
}
330
66AB
100
AcDbScale
 70
     0
300
1/128" = 1'-0"
140
0.0078125
141
12.0
290
     0
  0
SCALE
  5
66AE
102
{ACAD_REACTORS
330
66AB
102
}
330
66AB
100
AcDbScale
 70
     0
300
1/64" = 1'-0"
140
0.015625
141
12.0
290
     0
  0
SCALE
  5
66AF
102
{ACAD_REACTORS
330
66AB
102
}
330
66AB
100
AcDbScale
 70
     0
300
1/32" = 1'-0"
140
0.03125
141
12.0
290
     0
  0
SCALE
  5
66B0
102
{ACAD_REACTORS
330
66AB
102
}
330
66AB
100
AcDbScale
 70
     0
300
1/16" = 1'-0"
140
0.0625
141
12.0
290
     0
  0
SCALE
  5
66B1
102
{ACAD_REACTORS
330
66AB
102
}
330
66AB
100
AcDbScale
 70
     0
300
3/32" = 1'-0"
140
0.09375
141
12.0
290
     0
  0
SCALE
  5
66B2
102
{ACAD_REACTORS
330
66AB
102
}
330
66AB
100
AcDbScale
 70
     0
300
1/8" = 1'-0"
140
0.125
141
12.0
290
     0
  0
SCALE
  5
66B3
102
{ACAD_REACTORS
330
66AB
102
}
330
66AB
100
AcDbScale
 70
     0
300
3/16" = 1'-0"
140
0.1875
141
12.0
290
     0
  0
SCALE
  5
66B4
102
{ACAD_REACTORS
330
66AB
102
}
330
66AB
100
AcDbScale
 70
     0
300
1/4" = 1'-0"
140
0.25
141
12.0
290
     0
  0
SCALE
  5
66B5
102
{ACAD_REACTORS
330
66AB
102
}
330
66AB
100
AcDbScale
 70
     0
300
3/8" = 1'-0"
140
0.375
141
12.0
290
     0
  0
SCALE
  5
66B6
102
{ACAD_REACTORS
330
66AB
102
}
330
66AB
100
AcDbScale
 70
     0
300
1/2" = 1'-0"
140
0.5
141
12.0
290
     0
  0
SCALE
  5
66B7
102
{ACAD_REACTORS
330
66AB
102
}
330
66AB
100
AcDbScale
 70
     0
300
3/4" = 1'-0"
140
0.75
141
12.0
290
     0
  0
SCALE
  5
66B8
102
{ACAD_REACTORS
330
66AB
102
}
330
66AB
100
AcDbScale
 70
     0
300
1" = 1'-0"
140
1.0
141
12.0
290
     0
  0
SCALE
  5
66B9
102
{ACAD_REACTORS
330
66AB
102
}
330
66AB
100
AcDbScale
 70
     0
300
1-1/2" = 1'-0"
140
1.5
141
12.0
290
     0
  0
SCALE
  5
66BA
102
{ACAD_REACTORS
330
66AB
102
}
330
66AB
100
AcDbScale
 70
     0
300
3" = 1'-0"
140
3.0
141
12.0
290
     0
  0
SCALE
  5
66BB
102
{ACAD_REACTORS
330
66AB
102
}
330
66AB
100
AcDbScale
 70
     0
300
6" = 1'-0"
140
6.0
141
12.0
290
     0
  0
SCALE
  5
66BC
102
{ACAD_REACTORS
330
66AB
102
}
330
66AB
100
AcDbScale
 70
     0
300
1'-0" = 1'-0"
140
12.0
141
12.0
290
     0
  0
ACDBSECTIONVIEWSTYLE
  5
66C0
102
{ACAD_XDICTIONARY
360
70E4
102
}
102
{ACAD_REACTORS
330
66BF
102
}
330
66BF
100
AcDbModelDocViewStyle
 70
     0
  3
Imperial24
290
     0
100
AcDbSectionViewStyle
 70
     0
 71
     0
 90
       78
 71
     1
340
11
 62
   256
 40
0.24
340
0
340
0
 62
   256
 40
0.24
300
I, O, Q, S, X, Z
 40
0.48
 90
        3
 40
0.18
 90
        1
 71
     2
340
16
 90
       25
 62
   256
340
16
 90
       50
 62
   256
 40
0.24
 40
0.0
 40
0.24
 71
     3
340
11
 62
   256
 40
0.24
 90
        1
 40
0.75
 90
        1
300
%<\AcVar ViewType \f "%tc1">% %<\AcVar ViewSectionStartId>%-%<\AcVar ViewSectionEndId>%\PSCALE %<\AcVar ViewScale \f "%sn">%
 71
     4
 62
   256
 62
   257
300
ANSI31
 40
1.0
 90
        0
290
     0
290
     0
 90
        6
 40
0.0
 40
1.570796326794896
 40
0.2617993877991494
 40
1.308996938995747
 40
-0.2617993877991494
 40
1.832595714594045
  0
TABLESTYLE
  5
66AA
102
{ACAD_XDICTIONARY
360
6756
102
}
102
{ACAD_REACTORS
330
66A9
102
}
330
66A9
100
AcDbTableStyle
280
     0
  3
Standard
 70
     0
 71
     0
 40
0.06
 41
0.06
280
     0
281
     0
  7
Standard
140
0.18
170
     2
 62
     0
 63
     7
283
     0
 90
      512
 91
        0
  1

274
    -2
284
     1
 64
     0
275
    -2
285
     1
 65
     0
276
    -2
286
     1
 66
     0
277
    -2
287
     1
 67
     0
278
    -2
288
     1
 68
     0
279
    -2
289
     1
 69
     0
  7
Standard
140
0.25
170
     5
 62
     0
 63
     7
283
     0
 90
      512
 91
        0
  1

274
    -2
284
     1
 64
     0
275
    -2
285
     1
 65
     0
276
    -2
286
     1
 66
     0
277
    -2
287
     1
 67
     0
278
    -2
288
     1
 68
     0
279
    -2
289
     1
 69
     0
  7
Standard
140
0.18
170
     5
 62
     0
 63
     7
283
     0
 90
      512
 91
        0
  1

274
    -2
284
     1
 64
     0
275
    -2
285
     1
 65
     0
276
    -2
286
     1
 66
     0
277
    -2
287
     1
 67
     0
278
    -2
288
     1
 68
     0
279
    -2
289
     1
 69
     0
  0
VISUALSTYLE
  5
6696
102
{ACAD_REACTORS
330
6690
102
}
330
6690
100
AcDbVisualStyle
  2

 70
     4
177
     3
291
     0
 70
    58
 90
        0
176
     1
 90
        2
176
     1
 90
        0
176
     1
 90
        0
176
     1
 40
0.6
176
     1
 40
30.0
176
     1
 62
     7
176
     1
 90
        1
176
     1
 90
        4
176
     1
 62
     7
176
     1
 62
   257
176
     1
 90
        1
176
     1
 90
        1
176
     1
 40
1.0
176
     1
 90
        0
176
     1
 62
   257
176
     1
 40
1.0
176
     1
 90
        1
176
     1
 90
        6
176
     1
 90
        2
176
     1
 62
     7
176
     1
 90
        5
176
     1
 90
        0
176
     1
 90
        0
176
     1
290
     0
176
     1
 90
        1
176
     1
 40
0.0
176
     1
 90
        0
176
     1
290
     1
176
     1
290
     1
176
     1
290
     0
176
     1
290
     0
176
     1
290
     0
176
     1
290
     0
176
     1
290
     0
176
     1
290
     0
176
     1
290
     0
176
     1
 90
       50
176
     1
 40
0.0
176
     1
 40
1.0
176
     1
 90
        0
176
     1
 62
    18
420
        0
176
     1
 90
       50
176
     1
 90
        3
176
     1
 62
     5
420
      255
176
     1
290
     0
176
     1
 90
       50
176
     1
 90
       50
176
     1
 90
       50
176
     1
290
     0
176
     1
 90
       50
176
     1
 62
   256
176
     0
 40
1.0
176
     0
 90
        2
176
     1
  1
strokes_ogs.tif
176
     1
290
     0
176
     1
 40
1.0
176
     1
 40
1.0
176
     1
  0
VISUALSTYLE
  5
6695
102
{ACAD_REACTORS
330
6690
102
}
330
6690
100
AcDbVisualStyle
  2

 70
     7
177
     3
291
     1
 70
    58
 90
        1
176
     1
 90
        0
176
     1
 90
        1
176
     1
 90
        0
176
     1
 40
0.6
176
     1
 40
30.0
176
     1
 62
     7
176
     1
 90
        0
176
     1
 90
        4
176
     1
 62
     7
176
     1
 62
   257
176
     1
 90
        1
176
     1
 90
        1
176
     1
 40
1.0
176
     1
 90
        8
176
     1
 62
     7
176
     1
 40
1.0
176
     1
 90
        1
176
     1
 90
        6
176
     1
 90
        2
176
     1
 62
     7
176
     1
 90
        5
176
     1
 90
        0
176
     1
 90
        0
176
     1
290
     0
176
     1
 90
        1
176
     1
 40
0.0
176
     1
 90
        0
176
     1
290
     0
176
     1
290
     1
176
     1
290
     1
176
     1
290
     0
176
     1
290
     0
176
     1
290
     0
176
     1
290
     0
176
     1
290
     0
176
     1
290
     0
176
     1
 90
       50
176
     1
 40
0.0
176
     1
 40
1.0
176
     1
 90
        0
176
     1
 62
    18
420
        0
176
     1
 90
       50
176
     1
 90
        3
176
     1
 62
     5
420
      255
176
     1
290
     0
176
     1
 90
       50
176
     1
 90
       50
176
     1
 90
       50
176
     1
290
     0
176
     1
 90
       50
176
     1
 62
   256
176
     0
 40
1.0
176
     0
 90
        2
176
     1
  1
strokes_ogs.tif
176
     1
290
     0
176
     1
 40
1.0
176
     1
 40
1.0
176
     1
  0
VISUALSTYLE
  5
669C
102
{ACAD_REACTORS
330
6690
102
}
330
6690
100
AcDbVisualStyle
  2

 70
    12
177
     3
291
     1
 70
    58
 90
        2
176
     1
 90
        2
176
     1
 90
        0
176
     1
 90
        0
176
     1
 40
0.6
176
     1
 40
30.0
176
     1
 62
     7
176
     1
 90
        1
176
     1
 90
        4
176
     1
 62
     7
176
     1
 62
   257
176
     1
 90
        1
176
     1
 90
        1
176
     1
 40
1.0
176
     1
 90
        8
176
     1
 62
     7
176
     1
 40
1.0
176
     1
 90
        1
176
     1
 90
        6
176
     1
 90
        2
176
     1
 62
     7
176
     1
 90
        5
176
     1
 90
        0
176
     1
 90
        0
176
     1
290
     0
176
     1
 90
        1
176
     1
 40
50.0
176
     1
 90
        0
176
     1
290
     0
176
     1
290
     1
176
     1
290
     1
176
     1
290
     0
176
     1
290
     0
176
     1
290
     0
176
     1
290
     0
176
     1
290
     0
176
     1
290
     0
176
     1
 90
       50
176
     1
 40
0.0
176
     1
 40
1.0
176
     1
 90
        0
176
     1
 62
    18
420
        0
176
     1
 90
       50
176
     1
 90
        3
176
     1
 62
     5
420
      255
176
     1
290
     0
176
     1
 90
       50
176
     1
 90
       50
176
     1
 90
       50
176
     1
290
     0
176
     1
 90
       50
176
     1
 62
   256
176
     0
 40
1.0
176
     0
 90
        2
176
     1
  1
strokes_ogs.tif
176
     1
290
     0
176
     1
 40
1.0
176
     1
 40
1.0
176
     1
  0
VISUALSTYLE
  5
66A0
102
{ACAD_REACTORS
330
6690
102
}
330
6690
100
AcDbVisualStyle
  2

 70
    16
177
     3
291
     1
 70
    58
 90
        2
176
     1
 90
        2
176
     1
 90
        3
176
     1
 90
        0
176
     1
 40
0.6
176
     1
 40
30.0
176
     1
 62
     8
176
     1
 90
        1
176
     1
 90
        4
176
     1
 62
     7
176
     1
 62
   257
176
     1
 90
        1
176
     1
 90
        1
176
     1
 40
1.0
176
     1
 90
        8
176
     1
 62
     8
176
     1
 40
1.0
176
     1
 90
        1
176
     1
 90
        6
176
     1
 90
        2
176
     1
 62
     7
176
     1
 90
        5
176
     1
 90
        0
176
     1
 90
        0
176
     1
290
     0
176
     1
 90
        1
176
     1
 40
0.0
176
     1
 90
        0
176
     1
290
     0
176
     1
290
     1
176
     1
290
     1
176
     1
290
     0
176
     1
290
     0
176
     1
290
     0
176
     1
290
     0
176
     1
290
     0
176
     1
290
     0
176
     1
 90
       50
176
     1
 40
0.0
176
     1
 40
1.0
176
     1
 90
        0
176
     1
 62
    18
420
        0
176
     1
 90
       50
176
     1
 90
        3
176
     1
 62
     5
420
      255
176
     1
290
     0
176
     1
 90
       50
176
     1
 90
       50
176
     1
 90
       50
176
     1
290
     0
176
     1
 90
       50
176
     1
 62
   256
176
     0
 40
1.0
176
     0
 90
        2
176
     1
  1
strokes_ogs.tif
176
     1
290
     0
176
     1
 40
1.0
176
     1
 40
1.0
176
     1
  0
VISUALSTYLE
  5
6699
102
{ACAD_REACTORS
330
6690
102
}
330
6690
100
AcDbVisualStyle
  2

 70
     9
177
     3
291
     0
 70
    58
 90
        3
176
     1
 90
        2
176
     1
 90
        0
176
     1
 90
        0
176
     1
 40
0.6
176
     1
 40
30.0
176
     1
 62
     7
176
     1
 90
        2
176
     1
 90
        2
176
     1
 62
     7
176
     1
 62
   257
176
     1
 90
        1
176
     1
 90
        1
176
     1
 40
179.0
176
     1
 90
        8
176
     1
 62
     7
176
     1
 40
1.0
176
     1
 90
        1
176
     1
 90
        6
176
     1
 90
        2
176
     1
 62
     7
176
     1
 90
        3
176
     1
 90
        0
176
     1
 90
        0
176
     1
290
     0
176
     1
 90
        1
176
     1
 40
0.0
176
     1
 90
        0
176
     1
290
     0
176
     1
290
     1
176
     1
290
     1
176
     1
290
     0
176
     1
290
     0
176
     1
290
     0
176
     1
290
     0
176
     1
290
     0
176
     1
290
     0
176
     1
 90
       50
176
     1
 40
0.0
176
     1
 40
1.0
176
     1
 90
        0
176
     1
 62
    18
420
        0
176
     1
 90
       50
176
     1
 90
        3
176
     1
 62
     5
420
      255
176
     1
290
     0
176
     1
 90
       50
176
     1
 90
       50
176
     1
 90
       50
176
     1
290
     0
176
     1
 90
       50
176
     1
 62
   256
176
     0
 40
1.0
176
     0
 90
        2
176
     1
  1
strokes_ogs.tif
176
     1
290
     0
176
     1
 40
1.0
176
     1
 40
1.0
176
     1
  0
VISUALSTYLE
  5
669B
102
{ACAD_REACTORS
330
6690
102
}
330
6690
100
AcDbVisualStyle
  2

 70
    11
177
     3
291
     1
 70
    58
 90
        2
176
     1
 90
        2
176
     1
 90
        0
176
     1
 90
        0
176
     1
 40
0.6
176
     1
 40
30.0
176
     1
 62
     7
176
     1
 90
        1
176
     1
 90
        4
176
     1
 62
     7
176
     1
 62
   257
176
     1
 90
        1
176
     1
 90
        1
176
     1
 40
1.0
176
     1
 90
        8
176
     1
 62
     7
176
     1
 40
1.0
176
     1
 90
        1
176
     1
 90
        6
176
     1
 90
        2
176
     1
 62
     7
176
     1
 90
        5
176
     1
 90
        0
176
     1
 90
        0
176
     1
290
     0
176
     1
 90
        1
176
     1
 40
-50.0
176
     1
 90
        0
176
     1
290
     0
176
     1
290
     1
176
     1
290
     1
176
     1
290
     0
176
     1
290
     0
176
     1
290
     0
176
     1
290
     0
176
     1
290
     0
176
     1
290
     0
176
     1
 90
       50
176
     1
 40
0.0
176
     1
 40
1.0
176
     1
 90
        0
176
     1
 62
    18
420
        0
176
     1
 90
       50
176
     1
 90
        3
176
     1
 62
     5
420
      255
176
     1
290
     0
176
     1
 90
       50
176
     1
 90
       50
176
     1
 90
       50
176
     1
290
     0
176
     1
 90
       50
176
     1
 62
   256
176
     0
 40
1.0
176
     0
 90
        2
176
     1
  1
strokes_ogs.tif
176
     1
290
     0
176
     1
 40
1.0
176
     1
 40
1.0
176
     1
  0
VISUALSTYLE
  5
66A8
102
{ACAD_REACTORS
330
6690
102
}
330
6690
100
AcDbVisualStyle
  2

 70
    22
177
     3
291
     1
 70
    58
 90
        2
176
     0
 90
        2
176
     0
 90
        0
176
     0
 90
        0
176
     0
 40
0.6
176
     0
 40
30.0
176
     0
 62
     7
176
     0
 90
        1
176
     0
 90
        4
176
     0
 62
     7
176
     0
 62
   257
176
     0
 90
        1
176
     0
 90
        1
176
     0
 40
1.0
176
     0
 90
        8
176
     2
 62
     7
176
     0
 40
1.0
176
     0
 90
        1
176
     0
 90
        6
176
     0
 90
        2
176
     0
 62
     7
176
     0
 90
        5
176
     0
 90
        0
176
     0
 90
        0
176
     0
290
     0
176
     0
 90
        1
176
     0
 40
0.0
176
     0
 90
        0
176
     0
290
     0
176
     1
290
     1
176
     1
290
     1
176
     1
290
     0
176
     1
290
     0
176
     1
290
     0
176
     1
290
     0
176
     1
290
     0
176
     1
290
     0
176
     1
 90
       50
176
     0
 40
0.0
176
     0
 40
1.0
176
     0
 90
        0
176
     0
 62
    18
420
        0
176
     0
 90
       50
176
     0
 90
        3
176
     0
 62
     5
420
      255
176
     0
290
     0
176
     1
 90
       50
176
     0
 90
       50
176
     0
 90
       50
176
     0
290
     0
176
     1
 90
       50
176
     0
 62
   256
176
     0
 40
1.0
176
     0
 90
        2
176
     0
  1
strokes_ogs.tif
176
     0
290
     0
176
     1
 40
1.0
176
     0
 40
1.0
176
     0
  0
VISUALSTYLE
  5
669F
102
{ACAD_REACTORS
330
6690
102
}
330
6690
100
AcDbVisualStyle
  2

 70
    15
177
     3
291
     1
 70
    58
 90
        2
176
     1
 90
        2
176
     1
 90
        0
176
     1
 90
        0
176
     1
 40
0.6
176
     1
 40
30.0
176
     1
 62
     7
176
     1
 90
        1
176
     1
 90
        4
176
     1
 62
     7
176
     1
 62
   257
176
     1
 90
        1
176
     1
 90
        1
176
     1
 40
1.0
176
     1
 90
        8
176
     1
 62
     7
176
     1
 40
1.0
176
     1
 90
        1
176
     1
 90
        6
176
     1
 90
        2
176
     1
 62
     7
176
     1
 90
        5
176
     1
 90
        0
176
     1
 90
        0
176
     1
290
     0
176
     1
 90
        1
176
     1
 40
0.0
176
     1
 90
        0
176
     1
290
     0
176
     1
290
     1
176
     1
290
     1
176
     1
290
     0
176
     1
290
     0
176
     1
290
     0
176
     1
290
     0
176
     1
290
     0
176
     1
290
     0
176
     1
 90
       50
176
     1
 40
0.0
176
     1
 40
1.0
176
     1
 90
        0
176
     1
 62
    18
420
        0
176
     1
 90
       50
176
     1
 90
        3
176
     1
 62
     5
420
      255
176
     1
290
     0
176
     1
 90
       50
176
     1
 90
       50
176
     1
 90
       50
176
     1
290
     0
176
     1
 90
       50
176
     1
 62
   256
176
     0
 40
1.0
176
     0
 90
        2
176
     1
  1
strokes_ogs.tif
176
     1
290
     0
176
     1
 40
1.0
176
     1
 40
1.0
176
     1
  0
VISUALSTYLE
  5
6691
102
{ACAD_REACTORS
330
6690
102
}
330
6690
100
AcDbVisualStyle
  2

 70
     0
177
     3
291
     1
 70
    58
 90
        2
176
     1
 90
        1
176
     1
 90
        1
176
     1
 90
        2
176
     1
 40
0.6
176
     1
 40
30.0
176
     1
 62
     7
176
     1
 90
        0
176
     1
 90
        0
176
     1
 62
     7
176
     1
 62
   257
176
     1
 90
        1
176
     1
 90
        1
176
     1
 40
1.0
176
     1
 90
        8
176
     1
 62
     7
176
     1
 40
1.0
176
     1
 90
        1
176
     1
 90
        6
176
     1
 90
        2
176
     1
 62
     7
176
     1
 90
        5
176
     1
 90
        0
176
     1
 90
        0
176
     1
290
     0
176
     1
 90
       13
176
     1
 40
0.0
176
     1
 90
        0
176
     1
290
     0
176
     1
290
     1
176
     1
290
     1
176
     1
290
     0
176
     1
290
     0
176
     1
290
     0
176
     1
290
     0
176
     1
290
     0
176
     1
290
     0
176
     1
 90
       50
176
     1
 40
0.0
176
     1
 40
1.0
176
     1
 90
        0
176
     1
 62
    18
420
        0
176
     1
 90
       50
176
     1
 90
        3
176
     1
 62
     5
420
      255
176
     1
290
     0
176
     1
 90
       50
176
     1
 90
       50
176
     1
 90
       50
176
     1
290
     0
176
     1
 90
       50
176
     1
 62
   256
176
     0
 40
1.0
176
     0
 90
        2
176
     1
  1
strokes_ogs.tif
176
     1
290
     0
176
     1
 40
1.0
176
     1
 40
1.0
176
     1
  0
VISUALSTYLE
  5
6692
102
{ACAD_REACTORS
330
6690
102
}
330
6690
100
AcDbVisualStyle
  2

 70
     1
177
     3
291
     1
 70
    58
 90
        2
176
     1
 90
        1
176
     1
 90
        1
176
     1
 90
        2
176
     1
 40
0.6
176
     1
 40
30.0
176
     1
 62
     7
176
     1
 90
        1
176
     1
 90
        0
176
     1
 62
     7
176
     1
 62
   257
176
     1
 90
        1
176
     1
 90
        1
176
     1
 40
1.0
176
     1
 90
        0
176
     1
 62
   257
176
     1
 40
1.0
176
     1
 90
        1
176
     1
 90
        6
176
     1
 90
        2
176
     1
 62
     7
176
     1
 90
        5
176
     1
 90
        0
176
     1
 90
        0
176
     1
290
     0
176
     1
 90
       13
176
     1
 40
0.0
176
     1
 90
        0
176
     1
290
     0
176
     1
290
     1
176
     1
290
     1
176
     1
290
     0
176
     1
290
     0
176
     1
290
     0
176
     1
290
     0
176
     1
290
     0
176
     1
290
     0
176
     1
 90
       50
176
     1
 40
0.0
176
     1
 40
1.0
176
     1
 90
        0
176
     1
 62
    18
420
        0
176
     1
 90
       50
176
     1
 90
        3
176
     1
 62
     5
420
      255
176
     1
290
     0
176
     1
 90
       50
176
     1
 90
       50
176
     1
 90
       50
176
     1
290
     0
176
     1
 90
       50
176
     1
 62
   256
176
     0
 40
1.0
176
     0
 90
        2
176
     1
  1
strokes_ogs.tif
176
     1
290
     0
176
     1
 40
1.0
176
     1
 40
1.0
176
     1
  0
VISUALSTYLE
  5
6693
102
{ACAD_REACTORS
330
6690
102
}
330
6690
100
AcDbVisualStyle
  2

 70
     2
177
     3
291
     1
 70
    58
 90
        2
176
     1
 90
        2
176
     1
 90
        1
176
     1
 90
        2
176
     1
 40
0.6
176
     1
 40
30.0
176
     1
 62
     7
176
     1
 90
        0
176
     1
 90
        0
176
     1
 62
     7
176
     1
 62
   257
176
     1
 90
        1
176
     1
 90
        1
176
     1
 40
1.0
176
     1
 90
        0
176
     1
 62
     7
176
     1
 40
1.0
176
     1
 90
        1
176
     1
 90
        6
176
     1
 90
        2
176
     1
 62
     7
176
     1
 90
        5
176
     1
 90
        0
176
     1
 90
        0
176
     1
290
     0
176
     1
 90
       13
176
     1
 40
0.0
176
     1
 90
        0
176
     1
290
     0
176
     1
290
     1
176
     1
290
     1
176
     1
290
     0
176
     1
290
     0
176
     1
290
     0
176
     1
290
     0
176
     1
290
     0
176
     1
290
     0
176
     1
 90
       50
176
     1
 40
0.0
176
     1
 40
1.0
176
     1
 90
        0
176
     1
 62
    18
420
        0
176
     1
 90
       50
176
     1
 90
        3
176
     1
 62
     5
420
      255
176
     1
290
     0
176
     1
 90
       50
176
     1
 90
       50
176
     1
 90
       50
176
     1
290
     0
176
     1
 90
       50
176
     1
 62
   256
176
     0
 40
1.0
176
     0
 90
        2
176
     1
  1
strokes_ogs.tif
176
     1
290
     0
176
     1
 40
1.0
176
     1
 40
1.0
176
     1
  0
VISUALSTYLE
  5
6694
102
{ACAD_REACTORS
330
6690
102
}
330
6690
100
AcDbVisualStyle
  2

 70
     3
177
     3
291
     1
 70
    58
 90
        2
176
     1
 90
        2
176
     1
 90
        1
176
     1
 90
        2
176
     1
 40
0.6
176
     1
 40
30.0
176
     1
 62
     7
176
     1
 90
        1
176
     1
 90
        0
176
     1
 62
     7
176
     1
 62
   257
176
     1
 90
        1
176
     1
 90
        1
176
     1
 40
1.0
176
     1
 90
        0
176
     1
 62
   257
176
     1
 40
1.0
176
     1
 90
        1
176
     1
 90
        6
176
     1
 90
        2
176
     1
 62
     7
176
     1
 90
        5
176
     1
 90
        0
176
     1
 90
        0
176
     1
290
     0
176
     1
 90
       13
176
     1
 40
0.0
176
     1
 90
        0
176
     1
290
     0
176
     1
290
     1
176
     1
290
     1
176
     1
290
     0
176
     1
290
     0
176
     1
290
     0
176
     1
290
     0
176
     1
290
     0
176
     1
290
     0
176
     1
 90
       50
176
     1
 40
0.0
176
     1
 40
1.0
176
     1
 90
        0
176
     1
 62
    18
420
        0
176
     1
 90
       50
176
     1
 90
        3
176
     1
 62
     5
420
      255
176
     1
290
     0
176
     1
 90
       50
176
     1
 90
       50
176
     1
 90
       50
176
     1
290
     0
176
     1
 90
       50
176
     1
 62
   256
176
     0
 40
1.0
176
     0
 90
        2
176
     1
  1
strokes_ogs.tif
176
     1
290
     0
176
     1
 40
1.0
176
     1
 40
1.0
176
     1
  0
VISUALSTYLE
  5
6698
102
{ACAD_REACTORS
330
6690
102
}
330
6690
100
AcDbVisualStyle
  2

 70
     6
177
     3
291
     0
 70
    58
 90
        1
176
     1
 90
        2
176
     1
 90
        2
176
     1
 90
        0
176
     1
 40
0.6
176
     1
 40
30.0
176
     1
 62
     7
176
     1
 90
        2
176
     1
 90
        2
176
     1
 62
     7
176
     1
 62
   257
176
     1
 90
        2
176
     1
 90
        1
176
     1
 40
40.0
176
     1
 90
        0
176
     1
 62
   257
176
     1
 40
1.0
176
     1
 90
        1
176
     1
 90
        6
176
     1
 90
        2
176
     1
 62
     7
176
     1
 90
        3
176
     1
 90
        0
176
     1
 90
        0
176
     1
290
     0
176
     1
 90
        1
176
     1
 40
0.0
176
     1
 90
        0
176
     1
290
     0
176
     1
290
     1
176
     1
290
     1
176
     1
290
     0
176
     1
290
     0
176
     1
290
     0
176
     1
290
     0
176
     1
290
     0
176
     1
290
     0
176
     1
 90
       50
176
     1
 40
0.0
176
     1
 40
1.0
176
     1
 90
        0
176
     1
 62
    18
420
        0
176
     1
 90
       50
176
     1
 90
        3
176
     1
 62
     5
420
      255
176
     1
290
     0
176
     1
 90
       50
176
     1
 90
       50
176
     1
 90
       50
176
     1
290
     0
176
     1
 90
       50
176
     1
 62
   256
176
     0
 40
1.0
176
     0
 90
        2
176
     1
  1
strokes_ogs.tif
176
     1
290
     0
176
     1
 40
1.0
176
     1
 40
1.0
176
     1
  0
VISUALSTYLE
  5
66A6
102
{ACAD_REACTORS
330
6690
102
}
330
6690
100
AcDbVisualStyle
  2

 70
    20
177
     3
291
     1
 70
    58
 90
        2
176
     0
 90
        2
176
     0
 90
        0
176
     0
 90
        0
176
     0
 40
0.6
176
     0
 40
30.0
176
     0
 62
     7
176
     0
 90
        1
176
     0
 90
        4
176
     0
 62
     7
176
     0
 62
   257
176
     0
 90
        1
176
     0
 90
        1
176
     0
 40
1.0
176
     0
 90
       10
176
     2
 62
     7
176
     0
 40
1.0
176
     0
 90
        1
176
     0
 90
        6
176
     0
 90
        2
176
     0
 62
     7
176
     0
 90
        5
176
     0
 90
        0
176
     0
 90
        0
176
     0
290
     0
176
     0
 90
        1
176
     0
 40
0.0
176
     0
 90
        0
176
     0
290
     0
176
     1
290
     1
176
     1
290
     1
176
     1
290
     0
176
     1
290
     0
176
     1
290
     0
176
     1
290
     0
176
     1
290
     0
176
     1
290
     0
176
     1
 90
       50
176
     0
 40
0.0
176
     0
 40
1.0
176
     0
 90
        0
176
     0
 62
    18
420
        0
176
     0
 90
       50
176
     0
 90
        3
176
     0
 62
     5
420
      255
176
     0
290
     0
176
     1
 90
       50
176
     0
 90
       50
176
     0
 90
       50
176
     0
290
     0
176
     1
 90
       50
176
     0
 62
   256
176
     0
 40
1.0
176
     0
 90
        2
176
     0
  1
strokes_ogs.tif
176
     0
290
     0
176
     1
 40
1.0
176
     0
 40
1.0
176
     0
  0
VISUALSTYLE
  5
669E
102
{ACAD_REACTORS
330
6690
102
}
330
6690
100
AcDbVisualStyle
  2

 70
    14
177
     3
291
     1
 70
    58
 90
        2
176
     1
 90
        2
176
     1
 90
        0
176
     1
 90
        0
176
     1
 40
0.6
176
     1
 40
30.0
176
     1
 62
     7
176
     1
 90
        1
176
     1
 90
        4
176
     1
 62
     7
176
     1
 62
   257
176
     1
 90
        7
176
     1
 90
        7
176
     1
 40
1.0
176
     1
 90
        8
176
     1
 62
     7
176
     1
 40
1.0
176
     1
 90
        1
176
     1
 90
        6
176
     1
 90
        2
176
     1
 62
     7
176
     1
 90
        5
176
     1
 90
        0
176
     1
 90
        0
176
     1
290
     0
176
     1
 90
        1
176
     1
 40
0.0
176
     1
 90
        0
176
     1
290
     0
176
     1
290
     1
176
     1
290
     1
176
     1
290
     0
176
     1
290
     0
176
     1
290
     0
176
     1
290
     0
176
     1
290
     0
176
     1
290
     0
176
     1
 90
       50
176
     1
 40
0.0
176
     1
 40
1.0
176
     1
 90
        0
176
     1
 62
    18
420
        0
176
     1
 90
       50
176
     1
 90
        3
176
     1
 62
     5
420
      255
176
     1
290
     0
176
     1
 90
       50
176
     1
 90
       50
176
     1
 90
       50
176
     1
290
     0
176
     1
 90
       50
176
     1
 62
   256
176
     0
 40
1.0
176
     0
 90
        2
176
     1
  1
strokes_ogs.tif
176
     1
290
     0
176
     1
 40
1.0
176
     1
 40
1.0
176
     1
  0
VISUALSTYLE
  5
66A7
102
{ACAD_REACTORS
330
6690
102
}
330
6690
100
AcDbVisualStyle
  2

 70
    21
177
     3
291
     1
 70
    58
 90
        2
176
     0
 90
        2
176
     0
 90
        0
176
     0
 90
        0
176
     0
 40
0.6
176
     0
 40
30.0
176
     0
 62
     7
176
     0
 90
        1
176
     0
 90
        4
176
     0
 62
     7
176
     0
 62
   257
176
     0
 90
        1
176
     0
 90
        1
176
     0
 40
1.0
176
     0
 90
        9
176
     2
 62
     7
176
     0
 40
1.0
176
     0
 90
        1
176
     0
 90
        6
176
     0
 90
        2
176
     0
 62
     7
176
     0
 90
        5
176
     0
 90
        0
176
     0
 90
        0
176
     0
290
     0
176
     0
 90
        1
176
     0
 40
0.0
176
     0
 90
        0
176
     0
290
     0
176
     1
290
     1
176
     1
290
     1
176
     1
290
     0
176
     1
290
     0
176
     1
290
     0
176
     1
290
     0
176
     1
290
     0
176
     1
290
     0
176
     1
 90
       50
176
     0
 40
0.0
176
     0
 40
1.0
176
     0
 90
        0
176
     0
 62
    18
420
        0
176
     0
 90
       50
176
     0
 90
        3
176
     0
 62
     5
420
      255
176
     0
290
     0
176
     1
 90
       50
176
     0
 90
       50
176
     0
 90
       50
176
     0
290
     0
176
     1
 90
       50
176
     0
 62
   256
176
     0
 40
1.0
176
     0
 90
        2
176
     0
  1
strokes_ogs.tif
176
     0
290
     0
176
     1
 40
1.0
176
     0
 40
1.0
176
     0
  0
VISUALSTYLE
  5
669A
102
{ACAD_REACTORS
330
6690
102
}
330
6690
100
AcDbVisualStyle
  2

 70
     8
177
     3
291
     0
 70
    58
 90
        2
176
     1
 90
        2
176
     1
 90
        0
176
     1
 90
        2
176
     1
 40
0.6
176
     1
 40
30.0
176
     1
 62
     7
176
     1
 90
        0
176
     1
 90
        0
176
     1
 62
     7
176
     1
 62
   257
176
     1
 90
        1
176
     1
 90
        1
176
     1
 40
1.0
176
     1
 90
        8
176
     1
 62
   257
176
     1
 40
1.0
176
     1
 90
        1
176
     1
 90
        6
176
     1
 90
        2
176
     1
 62
     7
176
     1
 90
        3
176
     1
 90
        0
176
     1
 90
        0
176
     1
290
     0
176
     1
 90
       13
176
     1
 40
0.0
176
     1
 90
        0
176
     1
290
     0
176
     1
290
     1
176
     1
290
     1
176
     1
290
     0
176
     1
290
     0
176
     1
290
     0
176
     1
290
     0
176
     1
290
     0
176
     1
290
     0
176
     1
 90
       50
176
     1
 40
0.0
176
     1
 40
1.0
176
     1
 90
        0
176
     1
 62
    18
420
        0
176
     1
 90
       50
176
     1
 90
        3
176
     1
 62
     5
420
      255
176
     1
290
     0
176
     1
 90
       50
176
     1
 90
       50
176
     1
 90
       50
176
     1
290
     0
176
     1
 90
       50
176
     1
 62
   256
176
     0
 40
1.0
176
     0
 90
        2
176
     1
  1
strokes_ogs.tif
176
     1
290
     0
176
     1
 40
1.0
176
     1
 40
1.0
176
     1
  0
VISUALSTYLE
  5
66A5
102
{ACAD_REACTORS
330
6690
102
}
330
6690
100
AcDbVisualStyle
  2

 70
    27
177
     3
291
     0
 70
    58
 90
        2
176
     1
 90
        2
176
     1
 90
        1
176
     1
 90
        2
176
     1
 40
0.6
176
     1
 40
30.0
176
     1
 62
     7
176
     1
 90
        0
176
     1
 90
        4
176
     1
 62
     7
176
     1
 62
   257
176
     1
 90
        1
176
     1
 90
        1
176
     1
 40
1.0
176
     1
 90
        8
176
     1
 62
   257
176
     1
 40
1.0
176
     1
 90
        1
176
     1
 90
        6
176
     1
 90
        2
176
     1
 62
     8
176
     1
 90
        3
176
     1
 90
        0
176
     1
 90
        0
176
     1
290
     0
176
     1
 90
        5
176
     1
 40
0.0
176
     1
 90
        0
176
     1
290
     0
176
     1
290
     1
176
     1
290
     1
176
     1
290
     0
176
     1
290
     0
176
     1
290
     0
176
     1
290
     0
176
     1
290
     0
176
     1
290
     0
176
     1
 90
       50
176
     1
 40
0.0
176
     1
 40
1.0
176
     1
 90
        0
176
     1
 62
    18
420
        0
176
     1
 90
       50
176
     1
 90
        3
176
     1
 62
     5
420
      255
176
     1
290
     0
176
     1
 90
       50
176
     1
 90
       50
176
     1
 90
       50
176
     1
290
     0
176
     1
 90
       50
176
     1
 62
   256
176
     0
 40
1.0
176
     0
 90
        2
176
     1
  1
strokes_ogs.tif
176
     1
290
     0
176
     1
 40
1.0
176
     1
 40
1.0
176
     1
  0
VISUALSTYLE
  5
66A4
102
{ACAD_REACTORS
330
6690
102
}
330
6690
100
AcDbVisualStyle
  2

 70
    26
177
     3
291
     0
 70
    58
 90
        2
176
     1
 90
        2
176
     1
 90
        1
176
     1
 90
        2
176
     1
 40
0.6
176
     1
 40
30.0
176
     1
 62
     7
176
     1
 90
        1
176
     1
 90
       10
176
     1
 62
     7
176
     1
 62
   257
176
     1
 90
        2
176
     1
 90
        1
176
     1
 40
1.0
176
     1
 90
        8
176
     1
 62
   257
176
     1
 40
1.0
176
     1
 90
        1
176
     1
 90
        6
176
     1
 90
        2
176
     1
 62
     7
176
     1
 90
        3
176
     1
 90
        0
176
     1
 90
        0
176
     1
290
     0
176
     1
 90
        5
176
     1
 40
0.0
176
     1
 90
        0
176
     1
290
     0
176
     1
290
     1
176
     1
290
     1
176
     1
290
     0
176
     1
290
     0
176
     1
290
     0
176
     1
290
     0
176
     1
290
     0
176
     1
290
     0
176
     1
 90
       50
176
     1
 40
0.0
176
     1
 40
1.0
176
     1
 90
        0
176
     1
 62
    18
420
        0
176
     1
 90
       50
176
     1
 90
        3
176
     1
 62
     5
420
      255
176
     1
290
     0
176
     1
 90
       50
176
     1
 90
       50
176
     1
 90
       50
176
     1
290
     0
176
     1
 90
       50
176
     1
 62
   256
176
     0
 40
1.0
176
     0
 90
        2
176
     1
  1
strokes_ogs.tif
176
     1
290
     0
176
     1
 40
1.0
176
     1
 40
1.0
176
     1
  0
VISUALSTYLE
  5
66A1
102
{ACAD_REACTORS
330
6690
102
}
330
6690
100
AcDbVisualStyle
  2

 70
    23
177
     3
291
     0
 70
    58
 90
        2
176
     1
 90
        2
176
     1
 90
        3
176
     1
 90
        0
176
     1
 40
0.6
176
     1
 40
30.0
176
     1
 62
     7
176
     1
 90
        2
176
     1
 90
        2
176
     1
 62
     7
176
     1
 62
     7
176
     1
 90
        1
176
     1
 90
        1
176
     1
 40
40.0
176
     1
 90
        8
176
     1
 62
     7
176
     1
 40
1.0
176
     1
 90
        1
176
     1
 90
        6
176
     1
 90
        2
176
     1
 62
     7
176
     1
 90
        3
176
     1
 90
        0
176
     1
 90
        0
176
     1
290
     0
176
     1
 90
        1
176
     1
 40
0.0
176
     1
 90
        0
176
     1
290
     0
176
     1
290
     1
176
     1
290
     1
176
     1
290
     0
176
     1
290
     0
176
     1
290
     0
176
     1
290
     0
176
     1
290
     0
176
     1
290
     0
176
     1
 90
       50
176
     1
 40
0.0
176
     1
 40
1.0
176
     1
 90
        0
176
     1
 62
    18
420
        0
176
     1
 90
       50
176
     1
 90
        3
176
     1
 62
     5
420
      255
176
     1
290
     0
176
     1
 90
       50
176
     1
 90
       50
176
     1
 90
       50
176
     1
290
     0
176
     1
 90
       50
176
     1
 62
   256
176
     0
 40
1.0
176
     0
 90
        2
176
     1
  1
strokes_ogs.tif
176
     1
290
     0
176
     1
 40
1.0
176
     1
 40
1.0
176
     1
  0
VISUALSTYLE
  5
66A2
102
{ACAD_REACTORS
330
6690
102
}
330
6690
100
AcDbVisualStyle
  2

 70
    24
177
     3
291
     0
 70
    58
 90
        1
176
     1
 90
        2
176
     1
 90
        2
176
     1
 90
        0
176
     1
 40
0.6
176
     1
 40
30.0
176
     1
 62
     7
176
     1
 90
        2
176
     1
 90
        2
176
     1
 62
     7
176
     1
 62
     7
176
     1
 90
        1
176
     1
 90
        1
176
     1
 40
40.0
176
     1
 90
       11
176
     1
 62
     7
176
     1
 40
1.0
176
     1
 90
        1
176
     1
 90
        6
176
     1
 90
        2
176
     1
 62
     7
176
     1
 90
        6
176
     1
 90
        0
176
     1
 90
        0
176
     1
290
     0
176
     1
 90
        1
176
     1
 40
0.0
176
     1
 90
        0
176
     1
290
     0
176
     1
290
     1
176
     1
290
     1
176
     1
290
     0
176
     1
290
     0
176
     1
290
     0
176
     1
290
     0
176
     1
290
     0
176
     1
290
     0
176
     1
 90
       50
176
     1
 40
0.0
176
     1
 40
1.0
176
     1
 90
        0
176
     1
 62
    18
420
        0
176
     1
 90
       50
176
     1
 90
        3
176
     1
 62
     5
420
      255
176
     1
290
     0
176
     1
 90
       50
176
     1
 90
       50
176
     1
 90
       50
176
     1
290
     0
176
     1
 90
       50
176
     1
 62
   256
176
     0
 40
1.0
176
     0
 90
        2
176
     1
  1
strokes_ogs.tif
176
     1
290
     0
176
     1
 40
1.0
176
     1
 40
1.0
176
     1
  0
VISUALSTYLE
  5
669D
102
{ACAD_REACTORS
330
6690
102
}
330
6690
100
AcDbVisualStyle
  2

 70
    13
177
     3
291
     1
 70
    58
 90
        2
176
     1
 90
        2
176
     1
 90
        0
176
     1
 90
        0
176
     1
 40
0.6
176
     1
 40
30.0
176
     1
 62
     7
176
     1
 90
        1
176
     1
 90
        4
176
     1
 62
     7
176
     1
 62
   257
176
     1
 90
        1
176
     1
 90
        1
176
     1
 40
1.0
176
     1
 90
       12
176
     1
 62
     7
176
     1
 40
1.0
176
     1
 90
        1
176
     1
 90
        6
176
     1
 90
        2
176
     1
 62
     7
176
     1
 90
        5
176
     1
 90
        0
176
     1
 90
        0
176
     1
290
     0
176
     1
 90
        1
176
     1
 40
0.0
176
     1
 90
        0
176
     1
290
     0
176
     1
290
     1
176
     1
290
     1
176
     1
290
     0
176
     1
290
     0
176
     1
290
     0
176
     1
290
     0
176
     1
290
     0
176
     1
290
     0
176
     1
 90
       50
176
     1
 40
0.0
176
     1
 40
1.0
176
     1
 90
        0
176
     1
 62
    18
420
        0
176
     1
 90
       50
176
     1
 90
        3
176
     1
 62
     5
420
      255
176
     1
290
     0
176
     1
 90
       50
176
     1
 90
       50
176
     1
 90
       50
176
     1
290
     0
176
     1
 90
       50
176
     1
 62
   256
176
     0
 40
1.0
176
     0
 90
        2
176
     1
  1
strokes_ogs.tif
176
     1
290
     0
176
     1
 40
1.0
176
     1
 40
1.0
176
     1
  0
VISUALSTYLE
  5
6697
102
{ACAD_REACTORS
330
6690
102
}
330
6690
100
AcDbVisualStyle
  2

 70
     5
177
     3
291
     0
 70
    58
 90
        0
176
     1
 90
        2
176
     1
 90
        0
176
     1
 90
        0
176
     1
 40
0.6
176
     1
 40
30.0
176
     1
 62
     7
176
     1
 90
        1
176
     1
 90
        4
176
     1
 62
     7
176
     1
 62
   257
176
     1
 90
        1
176
     1
 90
        1
176
     1
 40
1.0
176
     1
 90
        0
176
     1
 62
   257
176
     1
 40
1.0
176
     1
 90
        1
176
     1
 90
        6
176
     1
 90
        2
176
     1
 62
     7
176
     1
 90
        3
176
     1
 90
        0
176
     1
 90
        0
176
     1
290
     0
176
     1
 90
        1
176
     1
 40
0.0
176
     1
 90
        0
176
     1
290
     0
176
     1
290
     1
176
     1
290
     1
176
     1
290
     0
176
     1
290
     0
176
     1
290
     0
176
     1
290
     0
176
     1
290
     0
176
     1
290
     0
176
     1
 90
       50
176
     1
 40
0.0
176
     1
 40
1.0
176
     1
 90
        0
176
     1
 62
    18
420
        0
176
     1
 90
       50
176
     1
 90
        3
176
     1
 62
     5
420
      255
176
     1
290
     0
176
     1
 90
       50
176
     1
 90
       50
176
     1
 90
       50
176
     1
290
     0
176
     1
 90
       50
176
     1
 62
   256
176
     0
 40
1.0
176
     0
 90
        2
176
     1
  1
strokes_ogs.tif
176
     1
290
     0
176
     1
 40
1.0
176
     1
 40
1.0
176
     1
  0
VISUALSTYLE
  5
66A3
102
{ACAD_REACTORS
330
6690
102
}
330
6690
100
AcDbVisualStyle
  2

 70
    25
177
     3
291
     0
 70
    58
 90
        2
176
     1
 90
        2
176
     1
 90
        1
176
     1
 90
        1
176
     1
 40
0.5
176
     1
 40
30.0
176
     1
 62
     7
176
     1
 90
        1
176
     1
 90
        0
176
     1
 62
     7
176
     1
 62
   257
176
     1
 90
        1
176
     1
 90
        1
176
     1
 40
1.0
176
     1
 90
        8
176
     1
 62
     7
176
     1
 40
1.0
176
     1
 90
        1
176
     1
 90
        6
176
     1
 90
        2
176
     1
 62
     7
176
     1
 90
        3
176
     1
 90
        0
176
     1
 90
        0
176
     1
290
     0
176
     1
 90
       13
176
     1
 40
0.0
176
     1
 90
        0
176
     1
290
     0
176
     1
290
     1
176
     1
290
     1
176
     1
290
     0
176
     1
290
     0
176
     1
290
     0
176
     1
290
     0
176
     1
290
     0
176
     1
290
     0
176
     1
 90
       50
176
     1
 40
0.0
176
     1
 40
1.0
176
     1
 90
        0
176
     1
 62
    18
420
        0
176
     1
 90
       50
176
     1
 90
        3
176
     1
 62
     5
420
      255
176
     1
290
     0
176
     1
 90
       50
176
     1
 90
       50
176
     1
 90
       50
176
     1
290
     0
176
     1
 90
       50
176
     1
 62
   256
176
     0
 40
1.0
176
     0
 90
        2
176
     1
  1
strokes_ogs.tif
176
     1
290
     0
176
     1
 40
1.0
176
     1
 40
1.0
176
     1
  0
DICTIONARYVAR
  5
66FB
102
{ACAD_REACTORS
330
652A
102
}
330
652A
100
DictionaryVariables
280
     0
  1
1:1
  0
DICTIONARYVAR
  5
66F8
102
{ACAD_REACTORS
330
652A
102
}
330
652A
100
DictionaryVariables
280
     0
  1
STANDARD
  0
DICTIONARYVAR
  5
66F7
102
{ACAD_REACTORS
330
652A
102
}
330
652A
100
DictionaryVariables
280
     0
  1
STANDARD
  0
DICTIONARYVAR
  5
66F9
102
{ACAD_REACTORS
330
652A
102
}
330
652A
100
DictionaryVariables
280
     0
  1
Imperial24
  0
DICTIONARYVAR
  5
66FA
102
{ACAD_REACTORS
330
652A
102
}
330
652A
100
DictionaryVariables
280
     0
  1
Imperial24
  0
DICTIONARYVAR
  5
652B
102
{ACAD_REACTORS
330
652A
102
}
330
652A
100
DictionaryVariables
280
     0
  1
1
  0
DICTIONARYVAR
  5
66FD
102
{ACAD_REACTORS
330
652A
102
}
330
652A
100
DictionaryVariables
280
     0
  1
0
  0
DICTIONARYVAR
  5
70E1
102
{ACAD_REACTORS
330
652A
102
}
330
652A
100
DictionaryVariables
280
     0
  1
1
  0
DICTIONARYVAR
  5
70E2
102
{ACAD_REACTORS
330
652A
102
}
330
652A
100
DictionaryVariables
280
     0
  1
15
  0
DICTIONARYVAR
  5
70E0
102
{ACAD_REACTORS
330
652A
102
}
330
652A
100
DictionaryVariables
280
     0
  1
0
  0
DICTIONARYVAR
  5
70DF
102
{ACAD_REACTORS
330
652A
102
}
330
652A
100
DictionaryVariables
280
     0
  1
0
  0
DICTIONARYVAR
  5
652C
102
{ACAD_REACTORS
330
652A
102
}
330
652A
100
DictionaryVariables
280
     0
  1

  0
DICTIONARYVAR
  5
66FC
102
{ACAD_REACTORS
330
652A
102
}
330
652A
100
DictionaryVariables
280
     0
  1
127
  0
XRECORD
  5
537C
102
{ACAD_REACTORS
330
537A
102
}
330
537A
100
AcDbXrecord
280
     1
  0
DICTIONARY
  5
70E6
330
66C2
100
AcDbDictionary
280
     1
281
     1
  3
ACAD_XREC_ROUNDTRIP
360
70E7
  0
DICTIONARY
  5
6681
330
6680
100
AcDbDictionary
280
     1
281
     1
  3
BUMPTILE
360
6683
  3
DIFFUSETILE
360
6682
  3
OPACITYTILE
360
6686
  3
REFLECTIONTILE
360
6685
  3
REFRACTIONTILE
360
6687
  3
SPECULARTILE
360
6684
  0
DICTIONARY
  5
6679
330
6678
100
AcDbDictionary
280
     1
281
     1
  3
BUMPTILE
360
667B
  3
DIFFUSETILE
360
667A
  3
OPACITYTILE
360
667E
  3
REFLECTIONTILE
360
667D
  3
REFRACTIONTILE
360
667F
  3
SPECULARTILE
360
667C
  0
DICTIONARY
  5
6689
330
6688
100
AcDbDictionary
280
     1
281
     1
  3
BUMPTILE
360
668B
  3
DIFFUSETILE
360
668A
  3
OPACITYTILE
360
668E
  3
REFLECTIONTILE
360
668D
  3
REFRACTIONTILE
360
668F
  3
SPECULARTILE
360
668C
  0
DICTIONARY
  5
70E4
330
66C0
100
AcDbDictionary
280
     1
281
     1
  3
ACAD_XREC_ROUNDTRIP
360
70E5
  0
DICTIONARY
  5
6756
330
66AA
100
AcDbDictionary
280
     1
281
     1
  3
ACAD_ROUNDTRIP_2008_TABLESTYLE_CELLSTYLEMAP
360
70E3
  0
XRECORD
  5
70E7
102
{ACAD_REACTORS
330
70E6
102
}
330
70E6
100
AcDbXrecord
280
     1
102
DISPLAYNAME
  1
Imperial24
102
FLAGS
 90
        0
  0
XRECORD
  5
6683
102
{ACAD_REACTORS
330
6681
102
}
330
6681
100
AcDbXrecord
280
     1
270
     1
271
     1
  0
XRECORD
  5
6682
102
{ACAD_REACTORS
330
6681
102
}
330
6681
100
AcDbXrecord
280
     1
270
     1
271
     1
  0
XRECORD
  5
6686
102
{ACAD_REACTORS
330
6681
102
}
330
6681
100
AcDbXrecord
280
     1
270
     1
271
     1
  0
XRECORD
  5
6685
102
{ACAD_REACTORS
330
6681
102
}
330
6681
100
AcDbXrecord
280
     1
270
     1
271
     1
  0
XRECORD
  5
6687
102
{ACAD_REACTORS
330
6681
102
}
330
6681
100
AcDbXrecord
280
     1
270
     1
271
     1
  0
XRECORD
  5
6684
102
{ACAD_REACTORS
330
6681
102
}
330
6681
100
AcDbXrecord
280
     1
270
     1
271
     1
  0
XRECORD
  5
667B
102
{ACAD_REACTORS
330
6679
102
}
330
6679
100
AcDbXrecord
280
     1
270
     1
271
     1
  0
XRECORD
  5
667A
102
{ACAD_REACTORS
330
6679
102
}
330
6679
100
AcDbXrecord
280
     1
270
     1
271
     1
  0
XRECORD
  5
667E
102
{ACAD_REACTORS
330
6679
102
}
330
6679
100
AcDbXrecord
280
     1
270
     1
271
     1
  0
XRECORD
  5
667D
102
{ACAD_REACTORS
330
6679
102
}
330
6679
100
AcDbXrecord
280
     1
270
     1
271
     1
  0
XRECORD
  5
667F
102
{ACAD_REACTORS
330
6679
102
}
330
6679
100
AcDbXrecord
280
     1
270
     1
271
     1
  0
XRECORD
  5
667C
102
{ACAD_REACTORS
330
6679
102
}
330
6679
100
AcDbXrecord
280
     1
270
     1
271
     1
  0
XRECORD
  5
668B
102
{ACAD_REACTORS
330
6689
102
}
330
6689
100
AcDbXrecord
280
     1
270
     1
271
     1
  0
XRECORD
  5
668A
102
{ACAD_REACTORS
330
6689
102
}
330
6689
100
AcDbXrecord
280
     1
270
     1
271
     1
  0
XRECORD
  5
668E
102
{ACAD_REACTORS
330
6689
102
}
330
6689
100
AcDbXrecord
280
     1
270
     1
271
     1
  0
XRECORD
  5
668D
102
{ACAD_REACTORS
330
6689
102
}
330
6689
100
AcDbXrecord
280
     1
270
     1
271
     1
  0
XRECORD
  5
668F
102
{ACAD_REACTORS
330
6689
102
}
330
6689
100
AcDbXrecord
280
     1
270
     1
271
     1
  0
XRECORD
  5
668C
102
{ACAD_REACTORS
330
6689
102
}
330
6689
100
AcDbXrecord
280
     1
270
     1
271
     1
  0
XRECORD
  5
70E5
102
{ACAD_REACTORS
330
70E4
102
}
330
70E4
100
AcDbXrecord
280
     1
102
DISPLAYNAME
  1
Imperial24
102
FLAGS
 90
        0
  0
CELLSTYLEMAP
  5
70E3
102
{ACAD_REACTORS
330
6756
102
}
330
6756
100
AcDbCellStyleMap
 90
        3
300
CELLSTYLE
  1
TABLEFORMAT_BEGIN
 90
        5
170
     1
 91
        0
 92
    32768
 62
   257
 93
        1
300
CONTENTFORMAT
  1
CONTENTFORMAT_BEGIN
 90
        0
 91
        0
 92
      512
 93
        0
300

 40
0.0
140
1.0
 94
        5
 62
     0
340
11
144
0.25
309
CONTENTFORMAT_END
171
     1
301
MARGIN
  1
CELLMARGIN_BEGIN
 40
0.06
 40
0.06
 40
0.06
 40
0.06
 40
0.18
 40
0.18
309
CELLMARGIN_END
 94
        6
 95
        1
302
GRIDFORMAT
  1
GRIDFORMAT_BEGIN
 90
        0
 91
        1
 62
     0
 92
       -2
340
0
 93
        0
 40
0.045
309
GRIDFORMAT_END
 95
        2
302
GRIDFORMAT
  1
GRIDFORMAT_BEGIN
 90
        0
 91
        1
 62
     0
 92
       -2
340
0
 93
        0
 40
0.045
309
GRIDFORMAT_END
 95
        4
302
GRIDFORMAT
  1
GRIDFORMAT_BEGIN
 90
        0
 91
        1
 62
     0
 92
       -2
340
0
 93
        0
 40
0.045
309
GRIDFORMAT_END
 95
        8
302
GRIDFORMAT
  1
GRIDFORMAT_BEGIN
 90
        0
 91
        1
 62
     0
 92
       -2
340
0
 93
        0
 40
0.045
309
GRIDFORMAT_END
 95
       16
302
GRIDFORMAT
  1
GRIDFORMAT_BEGIN
 90
        0
 91
        1
 62
     0
 92
       -2
340
0
 93
        0
 40
0.045
309
GRIDFORMAT_END
 95
       32
302
GRIDFORMAT
  1
GRIDFORMAT_BEGIN
 90
        0
 91
        1
 62
     0
 92
       -2
340
0
 93
        0
 40
0.045
309
GRIDFORMAT_END
309
TABLEFORMAT_END
  1
CELLSTYLE_BEGIN
 90
        1
 91
        1
300
_TITLE
309
CELLSTYLE_END
300
CELLSTYLE
  1
TABLEFORMAT_BEGIN
 90
        5
170
     1
 91
        0
 92
        0
 62
   257
 93
        1
300
CONTENTFORMAT
  1
CONTENTFORMAT_BEGIN
 90
        0
 91
        0
 92
      512
 93
        0
300

 40
0.0
140
1.0
 94
        5
 62
     0
340
11
144
0.18
309
CONTENTFORMAT_END
171
     1
301
MARGIN
  1
CELLMARGIN_BEGIN
 40
0.06
 40
0.06
 40
0.06
 40
0.06
 40
0.18
 40
0.18
309
CELLMARGIN_END
 94
        6
 95
        1
302
GRIDFORMAT
  1
GRIDFORMAT_BEGIN
 90
        0
 91
        1
 62
     0
 92
       -2
340
0
 93
        0
 40
0.045
309
GRIDFORMAT_END
 95
        2
302
GRIDFORMAT
  1
GRIDFORMAT_BEGIN
 90
        0
 91
        1
 62
     0
 92
       -2
340
0
 93
        0
 40
0.045
309
GRIDFORMAT_END
 95
        4
302
GRIDFORMAT
  1
GRIDFORMAT_BEGIN
 90
        0
 91
        1
 62
     0
 92
       -2
340
0
 93
        0
 40
0.045
309
GRIDFORMAT_END
 95
        8
302
GRIDFORMAT
  1
GRIDFORMAT_BEGIN
 90
        0
 91
        1
 62
     0
 92
       -2
340
0
 93
        0
 40
0.045
309
GRIDFORMAT_END
 95
       16
302
GRIDFORMAT
  1
GRIDFORMAT_BEGIN
 90
        0
 91
        1
 62
     0
 92
       -2
340
0
 93
        0
 40
0.045
309
GRIDFORMAT_END
 95
       32
302
GRIDFORMAT
  1
GRIDFORMAT_BEGIN
 90
        0
 91
        1
 62
     0
 92
       -2
340
0
 93
        0
 40
0.045
309
GRIDFORMAT_END
309
TABLEFORMAT_END
  1
CELLSTYLE_BEGIN
 90
        2
 91
        1
300
_HEADER
309
CELLSTYLE_END
300
CELLSTYLE
  1
TABLEFORMAT_BEGIN
 90
        5
170
     1
 91
        0
 92
        0
 62
   257
 93
        1
300
CONTENTFORMAT
  1
CONTENTFORMAT_BEGIN
 90
        0
 91
        0
 92
      512
 93
        0
300

 40
0.0
140
1.0
 94
        2
 62
     0
340
11
144
0.18
309
CONTENTFORMAT_END
171
     1
301
MARGIN
  1
CELLMARGIN_BEGIN
 40
0.06
 40
0.06
 40
0.06
 40
0.06
 40
0.18
 40
0.18
309
CELLMARGIN_END
 94
        6
 95
        1
302
GRIDFORMAT
  1
GRIDFORMAT_BEGIN
 90
        0
 91
        1
 62
     0
 92
       -2
340
0
 93
        0
 40
0.045
309
GRIDFORMAT_END
 95
        2
302
GRIDFORMAT
  1
GRIDFORMAT_BEGIN
 90
        0
 91
        1
 62
     0
 92
       -2
340
0
 93
        0
 40
0.045
309
GRIDFORMAT_END
 95
        4
302
GRIDFORMAT
  1
GRIDFORMAT_BEGIN
 90
        0
 91
        1
 62
     0
 92
       -2
340
0
 93
        0
 40
0.045
309
GRIDFORMAT_END
 95
        8
302
GRIDFORMAT
  1
GRIDFORMAT_BEGIN
 90
        0
 91
        1
 62
     0
 92
       -2
340
0
 93
        0
 40
0.045
309
GRIDFORMAT_END
 95
       16
302
GRIDFORMAT
  1
GRIDFORMAT_BEGIN
 90
        0
 91
        1
 62
     0
 92
       -2
340
0
 93
        0
 40
0.045
309
GRIDFORMAT_END
 95
       32
302
GRIDFORMAT
  1
GRIDFORMAT_BEGIN
 90
        0
 91
        1
 62
     0
 92
       -2
340
0
 93
        0
 40
0.045
309
GRIDFORMAT_END
309
TABLEFORMAT_END
  1
CELLSTYLE_BEGIN
 90
        3
 91
        2
300
_DATA
309
CELLSTYLE_END
  0
ENDSEC
  0
EOF
