  0
SECTION
  2
HEADER
  9
$ACADVER
  1
AC1027
  9
$ACADMAINTVER
 70
    55
  9
$DWGCODEPAGE
  3
ANSI_1252
  9
$LASTSAVEDBY
  1
Reid
  9
$REQUIREDVERSIONS
160
                 0
  9
$INSBASE
 10
0.0
 20
0.0
 30
0.0
  9
$EXTMIN
 10
14.24493078444539
 20
1.913968388554415
 30
0.0
  9
$EXTMAX
 10
35.0554233955494
 20
29.27159712983972
 30
0.0
  9
$LIMMIN
 10
0.0
 20
0.0
  9
$LIMMAX
 10
12.0
 20
9.0
  9
$ORTHOMODE
 70
     1
  9
$REGENMODE
 70
     1
  9
$FILLMODE
 70
     1
  9
$QTEXTMODE
 70
     0
  9
$MIRRTEXT
 70
     0
  9
$LTSCALE
 40
1.0
  9
$ATTMODE
 70
     1
  9
$TEXTSIZE
 40
0.2
  9
$TRACEWID
 40
0.05
  9
$TEXTSTYLE
  7
Standard
  9
$CLAYER
  8
0
  9
$CELTYPE
  6
ByLayer
  9
$CECOLOR
 62
   256
  9
$CELTSCALE
 40
1.0
  9
$DISPSILH
 70
     0
  9
$DIMSCALE
 40
1.0
  9
$DIMASZ
 40
0.433
  9
$DIMEXO
 40
0.25
  9
$DIMDLI
 40
0.38
  9
$DIMRND
 40
0.0
  9
$DIMDLE
 40
0.0
  9
$DIMEXE
 40
0.18
  9
$DIMTP
 40
0.0
  9
$DIMTM
 40
0.0
  9
$DIMTXT
 40
0.433
  9
$DIMCEN
 40
0.09
  9
$DIMTSZ
 40
0.0
  9
$DIMTOL
 70
     0
  9
$DIMLIM
 70
     0
  9
$DIMTIH
 70
     1
  9
$DIMTOH
 70
     1
  9
$DIMSE1
 70
     0
  9
$DIMSE2
 70
     0
  9
$DIMTAD
 70
     0
  9
$DIMZIN
 70
     0
  9
$DIMBLK
  1

  9
$DIMASO
 70
     1
  9
$DIMSHO
 70
     1
  9
$DIMPOST
  1

  9
$DIMAPOST
  1

  9
$DIMALT
 70
     0
  9
$DIMALTD
 70
     2
  9
$DIMALTF
 40
25.4
  9
$DIMLFAC
 40
1.0
  9
$DIMTOFL
 70
     0
  9
$DIMTVP
 40
0.0
  9
$DIMTIX
 70
     0
  9
$DIMSOXD
 70
     0
  9
$DIMSAH
 70
     0
  9
$DIMBLK1
  1

  9
$DIMBLK2
  1

  9
$DIMSTYLE
  2
Standard
  9
$DIMCLRD
 70
     0
  9
$DIMCLRE
 70
     0
  9
$DIMCLRT
 70
     0
  9
$DIMTFAC
 40
1.0
  9
$DIMGAP
 40
0.09
  9
$DIMJUST
 70
     0
  9
$DIMSD1
 70
     0
  9
$DIMSD2
 70
     0
  9
$DIMTOLJ
 70
     1
  9
$DIMTZIN
 70
     0
  9
$DIMALTZ
 70
     0
  9
$DIMALTTZ
 70
     0
  9
$DIMUPT
 70
     0
  9
$DIMDEC
 70
     3
  9
$DIMTDEC
 70
     3
  9
$DIMALTU
 70
     2
  9
$DIMALTTD
 70
     2
  9
$DIMTXSTY
  7
Standard
  9
$DIMAUNIT
 70
     0
  9
$DIMADEC
 70
     0
  9
$DIMALTRND
 40
0.0
  9
$DIMAZIN
 70
     0
  9
$DIMDSEP
 70
    46
  9
$DIMATFIT
 70
     3
  9
$DIMFRAC
 70
     0
  9
$DIMLDRBLK
  1

  9
$DIMLUNIT
 70
     2
  9
$DIMLWD
 70
    -2
  9
$DIMLWE
 70
    -2
  9
$DIMTMOVE
 70
     0
  9
$DIMFXL
 40
1.0
  9
$DIMFXLON
 70
     0
  9
$DIMJOGANG
 40
0.7853981633974483
  9
$DIMTFILL
 70
     0
  9
$DIMTFILLCLR
 70
     0
  9
$DIMARCSYM
 70
     0
  9
$DIMLTYPE
  6

  9
$DIMLTEX1
  6

  9
$DIMLTEX2
  6

  9
$DIMTXTDIRECTION
 70
     0
  9
$LUNITS
 70
     2
  9
$LUPREC
 70
     4
  9
$SKETCHINC
 40
0.1
  9
$FILLETRAD
 40
0.0
  9
$AUNITS
 70
     0
  9
$AUPREC
 70
     0
  9
$MENU
  1
.
  9
$ELEVATION
 40
0.0
  9
$PELEVATION
 40
0.0
  9
$THICKNESS
 40
0.0
  9
$LIMCHECK
 70
     0
  9
$CHAMFERA
 40
0.0
  9
$CHAMFERB
 40
0.0
  9
$CHAMFERC
 40
0.0
  9
$CHAMFERD
 40
0.0
  9
$SKPOLY
 70
     0
  9
$TDCREATE
 40
2455096.490597951
  9
$TDUCREATE
 40
2455096.698931285
  9
$TDUPDATE
 40
2457708.596733623
  9
$TDUUPDATE
 40
2457708.805066956
  9
$TDINDWG
 40
0.0282634375
  9
$TDUSRTIMER
 40
0.0282631597
  9
$USRTIMER
 70
     1
  9
$ANGBASE
 50
0.0
  9
$ANGDIR
 70
     0
  9
$PDMODE
 70
     0
  9
$PDSIZE
 40
0.0
  9
$PLINEWID
 40
0.0
  9
$SPLFRAME
 70
     0
  9
$SPLINETYPE
 70
     6
  9
$SPLINESEGS
 70
     8
  9
$HANDSEED
  5
8ED
  9
$SURFTAB1
 70
     6
  9
$SURFTAB2
 70
     6
  9
$SURFTYPE
 70
     6
  9
$SURFU
 70
     6
  9
$SURFV
 70
     6
  9
$UCSBASE
  2

  9
$UCSNAME
  2

  9
$UCSORG
 10
21.53980561780855
 20
8.024921918678856
 30
0.0
  9
$UCSXDIR
 10
1.0
 20
0.0
 30
0.0
  9
$UCSYDIR
 10
0.0
 20
1.0
 30
0.0
  9
$UCSORTHOREF
  2

  9
$UCSORTHOVIEW
 70
     0
  9
$UCSORGTOP
 10
0.0
 20
0.0
 30
0.0
  9
$UCSORGBOTTOM
 10
0.0
 20
0.0
 30
0.0
  9
$UCSORGLEFT
 10
0.0
 20
0.0
 30
0.0
  9
$UCSORGRIGHT
 10
0.0
 20
0.0
 30
0.0
  9
$UCSORGFRONT
 10
0.0
 20
0.0
 30
0.0
  9
$UCSORGBACK
 10
0.0
 20
0.0
 30
0.0
  9
$PUCSBASE
  2

  9
$PUCSNAME
  2

  9
$PUCSORG
 10
0.0
 20
0.0
 30
0.0
  9
$PUCSXDIR
 10
1.0
 20
0.0
 30
0.0
  9
$PUCSYDIR
 10
0.0
 20
1.0
 30
0.0
  9
$PUCSORTHOREF
  2

  9
$PUCSORTHOVIEW
 70
     0
  9
$PUCSORGTOP
 10
0.0
 20
0.0
 30
0.0
  9
$PUCSORGBOTTOM
 10
0.0
 20
0.0
 30
0.0
  9
$PUCSORGLEFT
 10
0.0
 20
0.0
 30
0.0
  9
$PUCSORGRIGHT
 10
0.0
 20
0.0
 30
0.0
  9
$PUCSORGFRONT
 10
0.0
 20
0.0
 30
0.0
  9
$PUCSORGBACK
 10
0.0
 20
0.0
 30
0.0
  9
$USERI1
 70
     0
  9
$USERI2
 70
     0
  9
$USERI3
 70
     0
  9
$USERI4
 70
     0
  9
$USERI5
 70
     0
  9
$USERR1
 40
0.0
  9
$USERR2
 40
0.0
  9
$USERR3
 40
0.0
  9
$USERR4
 40
0.0
  9
$USERR5
 40
0.0
  9
$WORLDVIEW
 70
     1
  9
$SHADEDGE
 70
     3
  9
$SHADEDIF
 70
    70
  9
$TILEMODE
 70
     1
  9
$MAXACTVP
 70
    64
  9
$PINSBASE
 10
0.0
 20
0.0
 30
0.0
  9
$PLIMCHECK
 70
     0
  9
$PEXTMIN
 10
0.0
 20
0.0
 30
0.0
  9
$PEXTMAX
 10
0.0
 20
0.0
 30
0.0
  9
$PLIMMIN
 10
0.0
 20
0.0
  9
$PLIMMAX
 10
12.0
 20
9.0
  9
$UNITMODE
 70
     0
  9
$VISRETAIN
 70
     1
  9
$PLINEGEN
 70
     0
  9
$PSLTSCALE
 70
     1
  9
$TREEDEPTH
 70
  3020
  9
$CMLSTYLE
  2
Standard
  9
$CMLJUST
 70
     0
  9
$CMLSCALE
 40
1.0
  9
$PROXYGRAPHICS
 70
     1
  9
$MEASUREMENT
 70
     0
  9
$CELWEIGHT
370
    -1
  9
$ENDCAPS
280
     0
  9
$JOINSTYLE
280
     0
  9
$LWDISPLAY
290
     0
  9
$INSUNITS
 70
     1
  9
$HYPERLINKBASE
  1

  9
$STYLESHEET
  1

  9
$XEDIT
290
     1
  9
$CEPSNTYPE
380
     0
  9
$PSTYLEMODE
290
     1
  9
$FINGERPRINTGUID
  2
{FDEAD576-A652-11D2-9A35-0060089B3A3F}
  9
$VERSIONGUID
  2
{8B415CA5-A82D-4C7A-8B37-D98EE302CFF3}
  9
$EXTNAMES
290
     1
  9
$PSVPSCALE
 40
0.0
  9
$OLESTARTUP
290
     0
  9
$SORTENTS
280
   127
  9
$INDEXCTL
280
     0
  9
$HIDETEXT
280
     1
  9
$XCLIPFRAME
280
     2
  9
$HALOGAP
280
     0
  9
$OBSCOLOR
 70
   257
  9
$OBSLTYPE
280
     0
  9
$INTERSECTIONDISPLAY
280
     0
  9
$INTERSECTIONCOLOR
 70
   257
  9
$DIMASSOC
280
     2
  9
$PROJECTNAME
  1

  9
$CAMERADISPLAY
290
     0
  9
$LENSLENGTH
 40
50.0
  9
$CAMERAHEIGHT
 40
0.0
  9
$STEPSPERSEC
 40
2.0
  9
$STEPSIZE
 40
6.0
  9
$3DDWFPREC
 40
2.0
  9
$PSOLWIDTH
 40
0.25
  9
$PSOLHEIGHT
 40
4.0
  9
$LOFTANG1
 40
1.570796326794896
  9
$LOFTANG2
 40
1.570796326794896
  9
$LOFTMAG1
 40
0.0
  9
$LOFTMAG2
 40
0.0
  9
$LOFTPARAM
 70
     7
  9
$LOFTNORMALS
280
     1
  9
$LATITUDE
 40
37.795
  9
$LONGITUDE
 40
-122.394
  9
$NORTHDIRECTION
 40
0.0
  9
$TIMEZONE
 70
 -8000
  9
$LIGHTGLYPHDISPLAY
280
     1
  9
$TILEMODELIGHTSYNCH
280
     1
  9
$CMATERIAL
347
55B
  9
$SOLIDHIST
280
     0
  9
$SHOWHIST
280
     1
  9
$DWFFRAME
280
     2
  9
$DGNFRAME
280
     0
  9
$REALWORLDSCALE
290
     1
  9
$INTERFERECOLOR
 62
     1
  9
$INTERFEREOBJVS
345
57D
  9
$INTERFEREVPVS
346
57A
  9
$CSHADOW
280
     0
  9
$SHADOWPLANELOCATION
 40
0.0
  0
ENDSEC
  0
SECTION
  2
CLASSES
  0
CLASS
  1
ACDBDICTIONARYWDFLT
  2
AcDbDictionaryWithDefault
  3
ObjectDBX Classes
 90
        0
 91
        1
280
     0
281
     0
  0
CLASS
  1
DICTIONARYVAR
  2
AcDbDictionaryVar
  3
ObjectDBX Classes
 90
        0
 91
       14
280
     0
281
     0
  0
CLASS
  1
MATERIAL
  2
AcDbMaterial
  3
ObjectDBX Classes
 90
     1153
 91
        3
280
     0
281
     0
  0
CLASS
  1
VISUALSTYLE
  2
AcDbVisualStyle
  3
ObjectDBX Classes
 90
     4095
 91
       24
280
     0
281
     0
  0
CLASS
  1
TABLESTYLE
  2
AcDbTableStyle
  3
ObjectDBX Classes
 90
     4095
 91
        1
280
     0
281
     0
  0
CLASS
  1
SCALE
  2
AcDbScale
  3
ObjectDBX Classes
 90
     1153
 91
       17
280
     0
281
     0
  0
CLASS
  1
MLEADERSTYLE
  2
AcDbMLeaderStyle
  3
ACDB_MLEADERSTYLE_CLASS
 90
     4095
 91
        1
280
     0
281
     0
  0
CLASS
  1
ACDBSECTIONVIEWSTYLE
  2
AcDbSectionViewStyle
  3
ObjectDBX Classes
 90
     1025
 91
        1
280
     0
281
     0
  0
CLASS
  1
ACDBDETAILVIEWSTYLE
  2
AcDbDetailViewStyle
  3
ObjectDBX Classes
 90
     1025
 91
        1
280
     0
281
     0
  0
CLASS
  1
EXACXREFPANELOBJECT
  2
ExAcXREFPanelObject
  3
EXAC_ESW
 90
     1025
 91
        2
280
     0
281
     0
  0
CLASS
  1
NPOCOLLECTION
  2
AcDbImpNonPersistentObjectsCollection
  3
ObjectDBX Classes
 90
     1153
 91
        1
280
     0
281
     0
  0
CLASS
  1
DIMASSOC
  2
AcDbDimAssoc
  3
"AcDbDimAssoc|Product Desc:     AcDim ARX App For Dimension|Company:          Autodesk, Inc.|WEB Address:      www.autodesk.com"
 90
        0
 91
        4
280
     0
281
     0
  0
CLASS
  1
SORTENTSTABLE
  2
AcDbSortentsTable
  3
ObjectDBX Classes
 90
        0
 91
        0
280
     0
281
     0
  0
CLASS
  1
CELLSTYLEMAP
  2
AcDbCellStyleMap
  3
ObjectDBX Classes
 90
     1152
 91
        3
280
     0
281
     0
  0
ENDSEC
  0
SECTION
  2
TABLES
  0
TABLE
  2
VPORT
  5
8
102
{ACAD_XDICTIONARY
360
7F2
102
}
330
0
100
AcDbSymbolTable
 70
     1
  0
VPORT
  5
54E
330
8
100
AcDbSymbolTableRecord
100
AcDbViewportTableRecord
  2
*Active
 70
     0
 10
0.0
 20
0.0
 11
1.0
 21
1.0
 12
41.8670938070705
 22
16.43946281970201
 13
0.0
 23
0.0
 14
0.5
 24
0.5
 15
0.5
 25
0.5
 16
0.0
 26
0.0
 36
1.0
 17
0.0
 27
0.0
 37
0.0
 40
42.36947034018164
 41
2.032008830022074
 42
50.0
 43
0.0
 44
0.0
 50
0.0
 51
0.0
 71
     0
 72
  1000
 73
     1
 74
     3
 75
     0
 76
     0
 77
     0
 78
     0
281
     0
 65
     1
110
21.53980561780855
120
8.024921918678856
130
0.0
111
1.0
121
0.0
131
0.0
112
0.0
122
1.0
132
0.0
 79
     0
146
0.0
348
579
 60
     3
 61
     5
292
     1
282
     1
141
0.0
142
0.0
 63
   250
421
  3355443
1001
ACAD_NAV_VCDISPLAY
1070
     3
  0
ENDTAB
  0
TABLE
  2
LTYPE
  5
5
330
0
100
AcDbSymbolTable
 70
     3
  0
LTYPE
  5
14
330
5
100
AcDbSymbolTableRecord
100
AcDbLinetypeTableRecord
  2
ByBlock
 70
     0
  3

 72
    65
 73
     0
 40
0.0
  0
LTYPE
  5
15
330
5
100
AcDbSymbolTableRecord
100
AcDbLinetypeTableRecord
  2
ByLayer
 70
     0
  3

 72
    65
 73
     0
 40
0.0
  0
LTYPE
  5
16
330
5
100
AcDbSymbolTableRecord
100
AcDbLinetypeTableRecord
  2
Continuous
 70
     0
  3
Solid line
 72
    65
 73
     0
 40
0.0
  0
LTYPE
  5
11E
330
5
100
AcDbSymbolTableRecord
100
AcDbLinetypeTableRecord
  2
ACAD_ISO02W100
 70
     0
  3
ISO dash __ __ __ __ __ __ __ __ __ __ __ __ __
 72
    65
 73
     2
 40
15.0
 49
12.0
 74
     0
 49
-3.0
 74
     0
  0
LTYPE
  5
7E4
330
5
100
AcDbSymbolTableRecord
100
AcDbLinetypeTableRecord
  2
HIDDEN
 70
     0
  3
Hidden __ __ __ __ __ __ __ __ __ __ __ __ __ _
 72
    65
 73
     2
 40
0.375
 49
0.25
 74
     0
 49
-0.125
 74
     0
  0
ENDTAB
  0
TABLE
  2
LAYER
  5
2
102
{ACAD_XDICTIONARY
360
124
102
}
330
0
100
AcDbSymbolTable
 70
     6
  0
LAYER
  5
10
102
{ACAD_XDICTIONARY
360
7E5
102
}
330
2
100
AcDbSymbolTableRecord
100
AcDbLayerTableRecord
  2
0
 70
     0
 62
     7
  6
Continuous
370
    -3
390
F
347
56B
348
0
  0
LAYER
  5
11F
102
{ACAD_XDICTIONARY
360
7E7
102
}
330
2
100
AcDbSymbolTableRecord
100
AcDbLayerTableRecord
  2
BORDER
 70
     0
 62
     7
  6
Continuous
370
    -3
390
F
347
56B
348
0
  0
LAYER
  5
120
102
{ACAD_XDICTIONARY
360
7E9
102
}
330
2
100
AcDbSymbolTableRecord
100
AcDbLayerTableRecord
  2
TEXT
 70
     0
 62
     7
  6
Continuous
370
    -3
390
F
347
56B
348
0
  0
LAYER
  5
121
330
2
100
AcDbSymbolTableRecord
100
AcDbLayerTableRecord
  2
Defpoints
 70
     0
 62
     7
  6
Continuous
290
     0
370
    -3
390
F
347
56B
348
0
  0
LAYER
  5
122
102
{ACAD_XDICTIONARY
360
7EB
102
}
330
2
100
AcDbSymbolTableRecord
100
AcDbLayerTableRecord
  2
DIMENSION
 70
     0
 62
     7
  6
Continuous
370
    -3
390
F
347
56B
348
0
  0
LAYER
  5
123
102
{ACAD_XDICTIONARY
360
7ED
102
}
330
2
100
AcDbSymbolTableRecord
100
AcDbLayerTableRecord
  2
THERMOSTATCVR
 70
     0
 62
     7
  6
Continuous
370
    -3
390
F
347
56B
348
0
  0
ENDTAB
  0
TABLE
  2
STYLE
  5
3
330
0
100
AcDbSymbolTable
 70
     2
  0
STYLE
  5
11
330
3
100
AcDbSymbolTableRecord
100
AcDbTextStyleTableRecord
  2
Standard
 70
     0
 40
0.0
 41
1.0
 50
0.0
 71
     0
 42
0.2
  3
txt
  4

  0
STYLE
  5
7E3
330
3
100
AcDbSymbolTableRecord
100
AcDbTextStyleTableRecord
  2

 70
     1
 40
0.0
 41
1.0
 50
0.0
 71
     0
 42
0.2
  3
ltypeshp.shx
  4

  0
ENDTAB
  0
TABLE
  2
VIEW
  5
6
330
0
100
AcDbSymbolTable
 70
     1
  0
ENDTAB
  0
TABLE
  2
UCS
  5
7
330
0
100
AcDbSymbolTable
 70
     0
  0
ENDTAB
  0
TABLE
  2
APPID
  5
9
330
0
100
AcDbSymbolTable
 70
     4
  0
APPID
  5
12
330
9
100
AcDbSymbolTableRecord
100
AcDbRegAppTableRecord
  2
ACAD
 70
     0
  0
APPID
  5
649
330
9
100
AcDbSymbolTableRecord
100
AcDbRegAppTableRecord
  2
ACAD_NAV_VCDISPLAY
 70
     0
  0
APPID
  5
7C4
330
9
100
AcDbSymbolTableRecord
100
AcDbRegAppTableRecord
  2
ACAD_EXEMPT_FROM_CAD_STANDARDS
 70
     0
  0
APPID
  5
830
330
9
100
AcDbSymbolTableRecord
100
AcDbRegAppTableRecord
  2
ACAD_MLEADERVER
 70
     0
  0
ENDTAB
  0
TABLE
  2
DIMSTYLE
  5
A
330
0
100
AcDbSymbolTable
 70
     1
100
AcDbDimStyleTable
 71
     1
340
27
  0
DIMSTYLE
105
27
102
{ACAD_REACTORS
330
699
330
6A1
330
67A
330
67B
330
67C
330
67D
330
67E
330
67F
330
680
330
681
330
682
330
683
330
684
330
685
330
686
330
687
330
688
330
689
330
68A
330
84A
330
85A
330
86A
102
}
330
A
100
AcDbSymbolTableRecord
100
AcDbDimStyleTableRecord
  2
Standard
 70
     0
 41
0.433
 42
0.25
140
0.433
271
     3
272
     3
340
11
  0
ENDTAB
  0
TABLE
  2
BLOCK_RECORD
  5
1
330
0
100
AcDbSymbolTable
 70
    78
  0
BLOCK_RECORD
  5
1F
330
1
100
AcDbSymbolTableRecord
100
AcDbBlockTableRecord
  2
*Model_Space
340
22
 70
     0
280
     1
281
     0
  0
BLOCK_RECORD
  5
58
330
1
100
AcDbSymbolTableRecord
100
AcDbBlockTableRecord
  2
*Paper_Space
340
59
 70
     0
280
     1
281
     0
  0
BLOCK_RECORD
  5
5D
330
1
100
AcDbSymbolTableRecord
100
AcDbBlockTableRecord
  2
*Paper_Space0
340
5E
 70
     0
280
     1
281
     0
  0
BLOCK_RECORD
  5
6A4
330
1
100
AcDbSymbolTableRecord
100
AcDbBlockTableRecord
  2
*D56
340
0
 70
     0
280
     1
281
     0
  0
BLOCK_RECORD
  5
6AC
330
1
100
AcDbSymbolTableRecord
100
AcDbBlockTableRecord
  2
*D57
340
0
 70
     0
280
     1
281
     0
  0
BLOCK_RECORD
  5
6B6
330
1
100
AcDbSymbolTableRecord
100
AcDbBlockTableRecord
  2
*D58
340
0
 70
     0
280
     1
281
     0
  0
BLOCK_RECORD
  5
6BE
330
1
100
AcDbSymbolTableRecord
100
AcDbBlockTableRecord
  2
*D59
340
0
 70
     0
280
     1
281
     0
  0
BLOCK_RECORD
  5
6C6
330
1
100
AcDbSymbolTableRecord
100
AcDbBlockTableRecord
  2
*D60
340
0
 70
     0
280
     1
281
     0
  0
BLOCK_RECORD
  5
6CE
330
1
100
AcDbSymbolTableRecord
100
AcDbBlockTableRecord
  2
*D61
340
0
 70
     0
280
     1
281
     0
  0
BLOCK_RECORD
  5
6D6
330
1
100
AcDbSymbolTableRecord
100
AcDbBlockTableRecord
  2
*D62
340
0
 70
     0
280
     1
281
     0
  0
BLOCK_RECORD
  5
6DE
330
1
100
AcDbSymbolTableRecord
100
AcDbBlockTableRecord
  2
*D63
340
0
 70
     0
280
     1
281
     0
  0
BLOCK_RECORD
  5
6E6
330
1
100
AcDbSymbolTableRecord
100
AcDbBlockTableRecord
  2
*D64
340
0
 70
     0
280
     1
281
     0
  0
BLOCK_RECORD
  5
6EE
330
1
100
AcDbSymbolTableRecord
100
AcDbBlockTableRecord
  2
*D65
340
0
 70
     0
280
     1
281
     0
  0
BLOCK_RECORD
  5
6F6
330
1
100
AcDbSymbolTableRecord
100
AcDbBlockTableRecord
  2
*D66
340
0
 70
     0
280
     1
281
     0
  0
BLOCK_RECORD
  5
6FE
330
1
100
AcDbSymbolTableRecord
100
AcDbBlockTableRecord
  2
*D67
340
0
 70
     0
280
     1
281
     0
  0
BLOCK_RECORD
  5
706
330
1
100
AcDbSymbolTableRecord
100
AcDbBlockTableRecord
  2
*D68
340
0
 70
     0
280
     1
281
     0
  0
BLOCK_RECORD
  5
70E
330
1
100
AcDbSymbolTableRecord
100
AcDbBlockTableRecord
  2
*D69
340
0
 70
     0
280
     1
281
     0
  0
BLOCK_RECORD
  5
716
330
1
100
AcDbSymbolTableRecord
100
AcDbBlockTableRecord
  2
*D70
340
0
 70
     0
280
     1
281
     0
  0
BLOCK_RECORD
  5
71E
330
1
100
AcDbSymbolTableRecord
100
AcDbBlockTableRecord
  2
*D71
340
0
 70
     0
280
     1
281
     0
  0
BLOCK_RECORD
  5
726
330
1
100
AcDbSymbolTableRecord
100
AcDbBlockTableRecord
  2
*D72
340
0
 70
     0
280
     1
281
     0
  0
BLOCK_RECORD
  5
72E
330
1
100
AcDbSymbolTableRecord
100
AcDbBlockTableRecord
  2
*D73
340
0
 70
     0
280
     1
281
     0
  0
BLOCK_RECORD
  5
73E
330
1
100
AcDbSymbolTableRecord
100
AcDbBlockTableRecord
  2
*D74
340
0
 70
     0
280
     1
281
     0
  0
BLOCK_RECORD
  5
84B
330
1
100
AcDbSymbolTableRecord
100
AcDbBlockTableRecord
  2
*D75
340
0
 70
     0
280
     1
281
     0
  0
BLOCK_RECORD
  5
85B
330
1
100
AcDbSymbolTableRecord
100
AcDbBlockTableRecord
  2
*D76
340
0
 70
     0
280
     1
281
     0
  0
BLOCK_RECORD
  5
86B
330
1
100
AcDbSymbolTableRecord
100
AcDbBlockTableRecord
  2
*D77
340
0
 70
     0
280
     1
281
     0
  0
ENDTAB
  0
ENDSEC
  0
SECTION
  2
BLOCKS
  0
BLOCK
  5
20
330
1F
100
AcDbEntity
  8
0
100
AcDbBlockBegin
  2
*Model_Space
 70
     0
 10
0.0
 20
0.0
 30
0.0
  3
*Model_Space
  1

  0
ENDBLK
  5
21
330
1F
100
AcDbEntity
  8
0
100
AcDbBlockEnd
  0
BLOCK
  5
5A
330
58
100
AcDbEntity
 67
     1
  8
0
100
AcDbBlockBegin
  2
*Paper_Space
 70
     0
 10
0.0
 20
0.0
 30
0.0
  3
*Paper_Space
  1

  0
ENDBLK
  5
5B
330
58
100
AcDbEntity
 67
     1
  8
0
100
AcDbBlockEnd
  0
BLOCK
  5
5F
330
5D
100
AcDbEntity
 67
     1
  8
0
100
AcDbBlockBegin
  2
*Paper_Space0
 70
     0
 10
0.0
 20
0.0
 30
0.0
  3
*Paper_Space0
  1

  0
ENDBLK
  5
60
330
5D
100
AcDbEntity
 67
     1
  8
0
100
AcDbBlockEnd
  0
BLOCK
  5
6A5
330
6A4
100
AcDbEntity
  8
0
100
AcDbBlockBegin
  2
*D56
 70
     1
 10
0.0
 20
0.0
 30
0.0
  3
*D56
  1

  0
LINE
  5
739
330
6A4
100
AcDbEntity
  8
0
 62
     0
440
 16777216
370
    -2
100
AcDbLine
 10
27.52405849711731
 20
23.27492083872711
 30
0.0
 11
27.52405849711731
 21
24.01311054030144
 31
0.0
  0
MTEXT
  5
73A
330
6A4
100
AcDbEntity
  8
0
 62
     0
440
 16777216
100
AcDbMText
 10
27.5240584971173
 20
24.96911054030145
 30
0.0
 40
0.433
 41
0.0
 46
0.0
 71
     5
 72
     1
  1
\A1;5.984
 11
0.0000000000000001
 21
1.0
 31
0.0
 73
     1
 44
1.0
  0
POINT
  5
73B
330
6A4
100
AcDbEntity
  8
Defpoints
 62
     0
440
 16777216
100
AcDbPoint
 10
27.52405849711731
 20
23.02492083872711
 30
0.0
  0
POINT
  5
73C
330
6A4
100
AcDbEntity
  8
Defpoints
 62
     0
440
 16777216
100
AcDbPoint
 10
27.52405849711731
 20
24.01311054030144
 30
0.0
  0
POINT
  5
73D
330
6A4
100
AcDbEntity
  8
Defpoints
 62
     0
440
 16777216
100
AcDbPoint
 10
21.53980561780855
 20
8.024921918678856
 30
0.0
  0
ENDBLK
  5
6A6
330
6A4
100
AcDbEntity
  8
0
100
AcDbBlockEnd
  0
BLOCK
  5
6AD
330
6AC
100
AcDbEntity
  8
0
100
AcDbBlockBegin
  2
*D57
 70
     1
 10
0.0
 20
0.0
 30
0.0
  3
*D57
  1

  0
LINE
  5
746
330
6AC
100
AcDbEntity
  8
0
 62
     0
440
 16777216
370
    -2
100
AcDbLine
 10
20.69614369222212
 20
13.48212215258116
 30
0.0
 11
24.64952728397157
 21
14.30216309893661
 31
0.0
  0
MTEXT
  5
747
102
{ACAD_XDICTIONARY
360
838
102
}
330
6AC
100
AcDbEntity
  8
0
 62
     0
440
 16777216
100
AcDbMText
 10
19.63189369222212
 20
13.48212215258116
 30
0.0
 40
0.433
 41
0.0
 46
0.0
 71
     5
 72
     1
  1
\A1;∅1.250
 73
     1
 44
1.0
  0
SOLID
  5
748
330
6AC
100
AcDbEntity
  8
0
 62
     0
440
 16777216
100
AcDbTrace
 10
24.63486992864397
 20
14.3728256046421
 30
0.0
 11
24.66418463929917
 21
14.23150059323112
 31
0.0
 12
25.0735023182045
 22
14.39010723090222
 32
0.0
 13
25.0735023182045
 23
14.39010723090222
 33
0.0
  0
LINE
  5
749
330
6AC
100
AcDbEntity
  8
0
 62
     0
440
 16777216
370
    -2
100
AcDbLine
 10
25.59547552004187
 20
14.51704737519436
 30
0.0
 11
25.77547552004187
 21
14.51704737519436
 31
0.0
  0
LINE
  5
74A
330
6AC
100
AcDbEntity
  8
0
 62
     0
440
 16777216
370
    -2
100
AcDbLine
 10
25.68547552004187
 20
14.42704737519436
 30
0.0
 11
25.68547552004187
 21
14.60704737519436
 31
0.0
  0
POINT
  5
74B
330
6AC
100
AcDbEntity
  8
Defpoints
 62
     0
440
 16777216
100
AcDbPoint
 10
25.0735023182045
 20
14.39010723090222
 30
0.0
  0
POINT
  5
74C
330
6AC
100
AcDbEntity
  8
Defpoints
 62
     0
440
 16777216
100
AcDbPoint
 10
26.29744872187923
 20
14.64398751948651
 30
0.0
  0
ENDBLK
  5
6AE
330
6AC
100
AcDbEntity
  8
0
100
AcDbBlockEnd
  0
BLOCK
  5
6B7
330
6B6
100
AcDbEntity
  8
0
100
AcDbBlockBegin
  2
*D58
 70
     1
 10
0.0
 20
0.0
 30
0.0
  3
*D58
  1

  0
LINE
  5
74D
330
6B6
100
AcDbEntity
  8
0
 62
     0
440
 16777216
370
    -2
100
AcDbLine
 10
21.28980561780855
 20
8.024921918678856
 30
0.0
 11
20.55850712574632
 21
8.02492191867887
 31
0.0
  0
MTEXT
  5
74E
330
6B6
100
AcDbEntity
  8
0
 62
     0
440
 16777216
100
AcDbMText
 10
19.74684045907965
 20
8.02492191867887
 30
0.0
 40
0.433
 41
0.0
 46
0.0
 71
     5
 72
     1
  1
\A1;0.000
 73
     1
 44
1.0
  0
POINT
  5
74F
330
6B6
100
AcDbEntity
  8
Defpoints
 62
     0
440
 16777216
100
AcDbPoint
 10
21.53980561780855
 20
8.024921918678856
 30
0.0
  0
POINT
  5
750
330
6B6
100
AcDbEntity
  8
Defpoints
 62
     0
440
 16777216
100
AcDbPoint
 10
20.55850712574632
 20
8.02492191867887
 30
0.0
  0
POINT
  5
751
330
6B6
100
AcDbEntity
  8
Defpoints
 62
     0
440
 16777216
100
AcDbPoint
 10
21.53980561780855
 20
8.024921918678856
 30
0.0
  0
ENDBLK
  5
6B8
330
6B6
100
AcDbEntity
  8
0
100
AcDbBlockEnd
  0
BLOCK
  5
6BF
330
6BE
100
AcDbEntity
  8
0
100
AcDbBlockBegin
  2
*D59
 70
     1
 10
0.0
 20
0.0
 30
0.0
  3
*D59
  1

  0
LINE
  5
752
330
6BE
100
AcDbEntity
  8
0
 62
     0
440
 16777216
370
    -2
100
AcDbLine
 10
21.53980561780855
 20
7.774921918678857
 30
0.0
 11
21.53980561780855
 21
7.01311054030144
 31
0.0
  0
MTEXT
  5
753
330
6BE
100
AcDbEntity
  8
0
 62
     0
440
 16777216
100
AcDbMText
 10
21.53980561780855
 20
6.201443873634777
 30
0.0
 40
0.433
 41
0.0
 46
0.0
 71
     5
 72
     1
  1
\A1;0.000
 11
0.0000000000000001
 21
1.0
 31
0.0
 73
     1
 44
1.0
  0
POINT
  5
754
330
6BE
100
AcDbEntity
  8
Defpoints
 62
     0
440
 16777216
100
AcDbPoint
 10
21.53980561780855
 20
8.024921918678856
 30
0.0
  0
POINT
  5
755
330
6BE
100
AcDbEntity
  8
Defpoints
 62
     0
440
 16777216
100
AcDbPoint
 10
21.53980561780855
 20
7.01311054030144
 30
0.0
  0
POINT
  5
756
330
6BE
100
AcDbEntity
  8
Defpoints
 62
     0
440
 16777216
100
AcDbPoint
 10
21.53980561780855
 20
8.024921918678856
 30
0.0
  0
ENDBLK
  5
6C0
330
6BE
100
AcDbEntity
  8
0
100
AcDbBlockEnd
  0
BLOCK
  5
6C7
330
6C6
100
AcDbEntity
  8
0
100
AcDbBlockBegin
  2
*D60
 70
     1
 10
0.0
 20
0.0
 30
0.0
  3
*D60
  1

  0
LINE
  5
757
330
6C6
100
AcDbEntity
  8
0
 62
     0
440
 16777216
370
    -2
100
AcDbLine
 10
26.31736486008849
 20
13.68572566588423
 30
0.0
 11
28.12973903164087
 21
13.68572566588423
 31
0.0
  0
MTEXT
  5
758
330
6C6
100
AcDbEntity
  8
0
 62
     0
440
 16777216
100
AcDbMText
 10
29.73523903164087
 20
13.68572566588423
 30
0.0
 40
0.433
 41
0.0
 46
0.0
 71
     5
 72
     1
  1
\A1;5.661 (2) 
 73
     1
 44
1.0
  0
POINT
  5
759
330
6C6
100
AcDbEntity
  8
Defpoints
 62
     0
440
 16777216
100
AcDbPoint
 10
26.06736486008849
 20
13.68572566588423
 30
0.0
  0
POINT
  5
75A
330
6C6
100
AcDbEntity
  8
Defpoints
 62
     0
440
 16777216
100
AcDbPoint
 10
28.12973903164087
 20
13.68572566588423
 30
0.0
  0
POINT
  5
75B
330
6C6
100
AcDbEntity
  8
Defpoints
 62
     0
440
 16777216
100
AcDbPoint
 10
21.53980561780855
 20
8.024921918678856
 30
0.0
  0
ENDBLK
  5
6C8
330
6C6
100
AcDbEntity
  8
0
100
AcDbBlockEnd
  0
BLOCK
  5
6CF
330
6CE
100
AcDbEntity
  8
0
100
AcDbBlockBegin
  2
*D61
 70
     1
 10
0.0
 20
0.0
 30
0.0
  3
*D61
  1

  0
LINE
  5
75C
330
6CE
100
AcDbEntity
  8
0
 62
     0
440
 16777216
370
    -2
100
AcDbLine
 10
25.93547552004185
 20
14.51704737519436
 30
0.0
 11
28.55850712574625
 21
14.51704737519436
 31
0.0
  0
MTEXT
  5
75D
330
6CE
100
AcDbEntity
  8
0
 62
     0
440
 16777216
100
AcDbMText
 10
29.51450712574624
 20
14.51704737519436
 30
0.0
 40
0.433
 41
0.0
 46
0.0
 71
     5
 72
     1
  1
\A1;6.492
 73
     1
 44
1.0
  0
POINT
  5
75E
330
6CE
100
AcDbEntity
  8
Defpoints
 62
     0
440
 16777216
100
AcDbPoint
 10
25.68547552004185
 20
14.51704737519436
 30
0.0
  0
POINT
  5
75F
330
6CE
100
AcDbEntity
  8
Defpoints
 62
     0
440
 16777216
100
AcDbPoint
 10
28.55850712574625
 20
14.51704737519436
 30
0.0
  0
POINT
  5
760
330
6CE
100
AcDbEntity
  8
Defpoints
 62
     0
440
 16777216
100
AcDbPoint
 10
21.53980561780855
 20
8.024921918678856
 30
0.0
  0
ENDBLK
  5
6D0
330
6CE
100
AcDbEntity
  8
0
100
AcDbBlockEnd
  0
BLOCK
  5
6D7
330
6D6
100
AcDbEntity
  8
0
100
AcDbBlockBegin
  2
*D62
 70
     1
 10
0.0
 20
0.0
 30
0.0
  3
*D62
  1

  0
LINE
  5
761
330
6D6
100
AcDbEntity
  8
0
 62
     0
440
 16777216
370
    -2
100
AcDbLine
 10
26.06736486008849
 20
8.908725665884233
 30
0.0
 11
26.06736486008856
 21
7.01311054030144
 31
0.0
  0
MTEXT
  5
762
330
6D6
100
AcDbEntity
  8
0
 62
     0
440
 16777216
100
AcDbMText
 10
26.06736486008856
 20
5.335443873634778
 30
0.0
 40
0.433
 41
0.0
 46
0.0
 71
     5
 72
     1
  1
\A1;(2) 4.528
 11
0.0000000000000001
 21
1.0
 31
0.0
 73
     1
 44
1.0
  0
POINT
  5
763
330
6D6
100
AcDbEntity
  8
Defpoints
 62
     0
440
 16777216
100
AcDbPoint
 10
26.06736486008849
 20
9.158725665884233
 30
0.0
  0
POINT
  5
764
330
6D6
100
AcDbEntity
  8
Defpoints
 62
     0
440
 16777216
100
AcDbPoint
 10
26.06736486008856
 20
7.01311054030144
 30
0.0
  0
POINT
  5
765
330
6D6
100
AcDbEntity
  8
Defpoints
 62
     0
440
 16777216
100
AcDbPoint
 10
21.53980561780855
 20
8.024921918678856
 30
0.0
  0
ENDBLK
  5
6D8
330
6D6
100
AcDbEntity
  8
0
100
AcDbBlockEnd
  0
BLOCK
  5
6DF
330
6DE
100
AcDbEntity
  8
0
100
AcDbBlockBegin
  2
*D63
 70
     1
 10
0.0
 20
0.0
 30
0.0
  3
*D63
  1

  0
LINE
  5
766
330
6DE
100
AcDbEntity
  8
0
 62
     0
440
 16777216
370
    -2
100
AcDbLine
 10
23.50830955326299
 20
8.908725665884233
 30
0.0
 11
23.50830955326305
 21
7.01311054030144
 31
0.0
  0
MTEXT
  5
767
330
6DE
100
AcDbEntity
  8
0
 62
     0
440
 16777216
100
AcDbMText
 10
23.50830955326305
 20
5.407610540301443
 30
0.0
 40
0.433
 41
0.0
 46
0.0
 71
     5
 72
     1
  1
\A1;(2) 1.969
 11
0.0000000000000001
 21
1.0
 31
0.0
 73
     1
 44
1.0
  0
POINT
  5
768
330
6DE
100
AcDbEntity
  8
Defpoints
 62
     0
440
 16777216
100
AcDbPoint
 10
23.50830955326299
 20
9.158725665884233
 30
0.0
  0
POINT
  5
769
330
6DE
100
AcDbEntity
  8
Defpoints
 62
     0
440
 16777216
100
AcDbPoint
 10
23.50830955326305
 20
7.01311054030144
 30
0.0
  0
POINT
  5
76A
330
6DE
100
AcDbEntity
  8
Defpoints
 62
     0
440
 16777216
100
AcDbPoint
 10
21.53980561780855
 20
8.024921918678856
 30
0.0
  0
ENDBLK
  5
6E0
330
6DE
100
AcDbEntity
  8
0
100
AcDbBlockEnd
  0
BLOCK
  5
6E7
330
6E6
100
AcDbEntity
  8
0
100
AcDbBlockBegin
  2
*D64
 70
     1
 10
0.0
 20
0.0
 30
0.0
  3
*D64
  1

  0
LINE
  5
76B
330
6E6
100
AcDbEntity
  8
0
 62
     0
440
 16777216
370
    -2
100
AcDbLine
 10
25.68547552004185
 20
14.76704737519436
 30
0.0
 11
25.68547552004185
 21
15.87535201860054
 31
0.0
  0
MTEXT
  5
76C
330
6E6
100
AcDbEntity
  8
0
 62
     0
440
 16777216
100
AcDbMText
 10
25.68547552004185
 20
16.75918535193387
 30
0.0
 40
0.433
 41
0.0
 46
0.0
 71
     5
 72
     1
  1
\A1;4.146
 11
0.0000000000000001
 21
1.0
 31
0.0
 73
     1
 44
1.0
  0
POINT
  5
76D
330
6E6
100
AcDbEntity
  8
Defpoints
 62
     0
440
 16777216
100
AcDbPoint
 10
25.68547552004185
 20
14.51704737519436
 30
0.0
  0
POINT
  5
76E
330
6E6
100
AcDbEntity
  8
Defpoints
 62
     0
440
 16777216
100
AcDbPoint
 10
25.68547552004185
 20
15.87535201860054
 30
0.0
  0
POINT
  5
76F
330
6E6
100
AcDbEntity
  8
Defpoints
 62
     0
440
 16777216
100
AcDbPoint
 10
21.53980561780855
 20
8.024921918678856
 30
0.0
  0
ENDBLK
  5
6E8
330
6E6
100
AcDbEntity
  8
0
100
AcDbBlockEnd
  0
BLOCK
  5
6EF
330
6EE
100
AcDbEntity
  8
0
100
AcDbBlockBegin
  2
*D65
 70
     1
 10
0.0
 20
0.0
 30
0.0
  3
*D65
  1

  0
LINE
  5
770
330
6EE
100
AcDbEntity
  8
0
 62
     0
440
 16777216
370
    -2
100
AcDbLine
 10
27.13035694708725
 20
18.64992083872711
 30
0.0
 11
27.13035694708725
 21
18.03352083872711
 31
0.0
  0
MTEXT
  5
771
330
6EE
100
AcDbEntity
  8
0
 62
     0
440
 16777216
100
AcDbMText
 10
27.13035694708725
 20
17.14968750539379
 30
0.0
 40
0.433
 41
0.0
 46
0.0
 71
     5
 72
     1
  1
\A1;5.591
 11
0.0000000000000001
 21
1.0
 31
0.0
 73
     1
 44
1.0
  0
POINT
  5
772
330
6EE
100
AcDbEntity
  8
Defpoints
 62
     0
440
 16777216
100
AcDbPoint
 10
27.13035694708725
 20
18.89992083872711
 30
0.0
  0
POINT
  5
773
330
6EE
100
AcDbEntity
  8
Defpoints
 62
     0
440
 16777216
100
AcDbPoint
 10
27.13035694708725
 20
18.03352083872711
 30
0.0
  0
POINT
  5
774
330
6EE
100
AcDbEntity
  8
Defpoints
 62
     0
440
 16777216
100
AcDbPoint
 10
21.53980561780855
 20
8.024921918678856
 30
0.0
  0
ENDBLK
  5
6F0
330
6EE
100
AcDbEntity
  8
0
100
AcDbBlockEnd
  0
BLOCK
  5
6F7
330
6F6
100
AcDbEntity
  8
0
100
AcDbBlockBegin
  2
*D66
 70
     1
 10
0.0
 20
0.0
 30
0.0
  3
*D66
  1

  0
LINE
  5
775
330
6F6
100
AcDbEntity
  8
0
 62
     0
440
 16777216
370
    -2
100
AcDbLine
 10
21.93350716783863
 20
18.64992083872711
 30
0.0
 11
21.93350716783863
 21
18.03352083872711
 31
0.0
  0
MTEXT
  5
776
330
6F6
100
AcDbEntity
  8
0
 62
     0
440
 16777216
100
AcDbMText
 10
21.93350716783863
 20
17.11360417206045
 30
0.0
 40
0.433
 41
0.0
 46
0.0
 71
     5
 72
     1
  1
\A1;0.394
 11
0.0000000000000001
 21
1.0
 31
0.0
 73
     1
 44
1.0
  0
POINT
  5
777
330
6F6
100
AcDbEntity
  8
Defpoints
 62
     0
440
 16777216
100
AcDbPoint
 10
21.93350716783863
 20
18.89992083872711
 30
0.0
  0
POINT
  5
778
330
6F6
100
AcDbEntity
  8
Defpoints
 62
     0
440
 16777216
100
AcDbPoint
 10
21.93350716783863
 20
18.03352083872711
 30
0.0
  0
POINT
  5
779
330
6F6
100
AcDbEntity
  8
Defpoints
 62
     0
440
 16777216
100
AcDbPoint
 10
21.53980561780855
 20
8.024921918678856
 30
0.0
  0
ENDBLK
  5
6F8
330
6F6
100
AcDbEntity
  8
0
100
AcDbBlockEnd
  0
BLOCK
  5
6FF
330
6FE
100
AcDbEntity
  8
0
100
AcDbBlockBegin
  2
*D67
 70
     1
 10
0.0
 20
0.0
 30
0.0
  3
*D67
  1

  0
LINE
  5
77A
330
6FE
100
AcDbEntity
  8
0
 62
     0
440
 16777216
370
    -2
100
AcDbLine
 10
27.18350712574632
 20
22.51311054030141
 30
0.0
 11
28.55850712574632
 21
22.51311054030141
 31
0.0
  0
MTEXT
  5
77B
330
6FE
100
AcDbEntity
  8
0
 62
     0
440
 16777216
100
AcDbMText
 10
30.38050712574632
 20
22.51311054030141
 30
0.0
 40
0.433
 41
0.0
 46
0.0
 71
     5
 72
     1
  1
\A1;14.488 (2)
 73
     1
 44
1.0
  0
POINT
  5
77C
330
6FE
100
AcDbEntity
  8
Defpoints
 62
     0
440
 16777216
100
AcDbPoint
 10
26.93350712574632
 20
22.51311054030141
 30
0.0
  0
POINT
  5
77D
330
6FE
100
AcDbEntity
  8
Defpoints
 62
     0
440
 16777216
100
AcDbPoint
 10
28.55850712574632
 20
22.51311054030141
 30
0.0
  0
POINT
  5
77E
330
6FE
100
AcDbEntity
  8
Defpoints
 62
     0
440
 16777216
100
AcDbPoint
 10
21.53980561780855
 20
8.024921918678856
 30
0.0
  0
ENDBLK
  5
700
330
6FE
100
AcDbEntity
  8
0
100
AcDbBlockEnd
  0
BLOCK
  5
707
330
706
100
AcDbEntity
  8
0
100
AcDbBlockBegin
  2
*D68
 70
     1
 10
0.0
 20
0.0
 30
0.0
  3
*D68
  1

  0
LINE
  5
886
330
706
100
AcDbEntity
  8
0
 62
     0
440
 16777216
370
    -2
100
AcDbLine
 10
21.68350716783861
 20
22.02492083872709
 30
0.0
 11
21.06750716783861
 21
22.02492083872709
 31
0.0
  0
LINE
  5
887
330
706
100
AcDbEntity
  8
0
 62
     0
440
 16777216
370
    -2
100
AcDbLine
 10
21.06750716783861
 20
22.02492083872709
 30
0.0
 11
21.42450712574629
 21
21.69854427155482
 31
0.0
  0
LINE
  5
888
330
706
100
AcDbEntity
  8
0
 62
     0
440
 16777216
370
    -2
100
AcDbLine
 10
21.42450712574629
 20
21.69854427155482
 30
0.0
 11
20.55850712574629
 21
21.69854427155482
 31
0.0
  0
MTEXT
  5
889
330
706
100
AcDbEntity
  8
0
 62
     0
440
 16777216
100
AcDbMText
 10
19.56642379241295
 20
21.69854427155482
 30
0.0
 40
0.433
 41
0.0
 46
0.0
 71
     5
 72
     1
  1
\A1;14.000
 73
     1
 44
1.0
  0
POINT
  5
88A
330
706
100
AcDbEntity
  8
Defpoints
 62
     0
440
 16777216
100
AcDbPoint
 10
21.93350716783861
 20
22.02492083872709
 30
0.0
  0
POINT
  5
88B
330
706
100
AcDbEntity
  8
Defpoints
 62
     0
440
 16777216
100
AcDbPoint
 10
20.55850712574629
 20
21.69854427155482
 30
0.0
  0
POINT
  5
88C
330
706
100
AcDbEntity
  8
Defpoints
 62
     0
440
 16777216
100
AcDbPoint
 10
21.53980561780855
 20
8.024921918678856
 30
0.0
  0
ENDBLK
  5
708
330
706
100
AcDbEntity
  8
0
100
AcDbBlockEnd
  0
BLOCK
  5
70F
330
70E
100
AcDbEntity
  8
0
100
AcDbBlockBegin
  2
*D69
 70
     1
 10
0.0
 20
0.0
 30
0.0
  3
*D69
  1

  0
LINE
  5
784
330
70E
100
AcDbEntity
  8
0
 62
     0
440
 16777216
370
    -2
100
AcDbLine
 10
21.68350716783863
 20
18.89992083872711
 30
0.0
 11
20.55850712574632
 21
18.89992083872711
 31
0.0
  0
MTEXT
  5
785
330
70E
100
AcDbEntity
  8
0
 62
     0
440
 16777216
100
AcDbMText
 10
19.49425712574631
 20
18.89992083872711
 30
0.0
 40
0.433
 41
0.0
 46
0.0
 71
     5
 72
     1
  1
\A1;10.875
 73
     1
 44
1.0
  0
POINT
  5
786
330
70E
100
AcDbEntity
  8
Defpoints
 62
     0
440
 16777216
100
AcDbPoint
 10
21.93350716783863
 20
18.89992083872711
 30
0.0
  0
POINT
  5
787
330
70E
100
AcDbEntity
  8
Defpoints
 62
     0
440
 16777216
100
AcDbPoint
 10
20.55850712574632
 20
18.89992083872711
 30
0.0
  0
POINT
  5
788
330
70E
100
AcDbEntity
  8
Defpoints
 62
     0
440
 16777216
100
AcDbPoint
 10
21.53980561780855
 20
8.024921918678856
 30
0.0
  0
ENDBLK
  5
710
330
70E
100
AcDbEntity
  8
0
100
AcDbBlockEnd
  0
BLOCK
  5
717
330
716
100
AcDbEntity
  8
0
100
AcDbBlockBegin
  2
*D70
 70
     1
 10
0.0
 20
0.0
 30
0.0
  3
*D70
  1

  0
LINE
  5
789
330
716
100
AcDbEntity
  8
0
 62
     0
440
 16777216
370
    -2
100
AcDbLine
 10
22.13035698917957
 20
22.76311054030141
 30
0.0
 11
22.13035698917957
 21
24.01311054030144
 31
0.0
  0
MTEXT
  5
78A
330
716
100
AcDbEntity
  8
0
 62
     0
440
 16777216
100
AcDbMText
 10
22.13035698917957
 20
24.86086054030145
 30
0.0
 40
0.433
 41
0.0
 46
0.0
 71
     5
 72
     1
  1
\A1;0.591
 11
0.0000000000000001
 21
1.0
 31
0.0
 73
     1
 44
1.0
  0
POINT
  5
78B
330
716
100
AcDbEntity
  8
Defpoints
 62
     0
440
 16777216
100
AcDbPoint
 10
22.13035698917957
 20
22.51311054030141
 30
0.0
  0
POINT
  5
78C
330
716
100
AcDbEntity
  8
Defpoints
 62
     0
440
 16777216
100
AcDbPoint
 10
22.13035698917957
 20
24.01311054030144
 30
0.0
  0
POINT
  5
78D
330
716
100
AcDbEntity
  8
Defpoints
 62
     0
440
 16777216
100
AcDbPoint
 10
21.53980561780855
 20
8.024921918678856
 30
0.0
  0
ENDBLK
  5
718
330
716
100
AcDbEntity
  8
0
100
AcDbBlockEnd
  0
BLOCK
  5
71F
330
71E
100
AcDbEntity
  8
0
100
AcDbBlockBegin
  2
*D71
 70
     1
 10
0.0
 20
0.0
 30
0.0
  3
*D71
  1

  0
LINE
  5
78E
330
71E
100
AcDbEntity
  8
0
 62
     0
440
 16777216
370
    -2
100
AcDbLine
 10
26.93350712574632
 20
22.76311054030141
 30
0.0
 11
26.93350712574632
 21
24.01311054030144
 31
0.0
  0
MTEXT
  5
78F
330
71E
100
AcDbEntity
  8
0
 62
     0
440
 16777216
100
AcDbMText
 10
26.93350712574631
 20
24.96911054030145
 30
0.0
 40
0.433
 41
0.0
 46
0.0
 71
     5
 72
     1
  1
\A1;5.394
 11
0.0000000000000001
 21
1.0
 31
0.0
 73
     1
 44
1.0
  0
POINT
  5
790
330
71E
100
AcDbEntity
  8
Defpoints
 62
     0
440
 16777216
100
AcDbPoint
 10
26.93350712574632
 20
22.51311054030141
 30
0.0
  0
POINT
  5
791
330
71E
100
AcDbEntity
  8
Defpoints
 62
     0
440
 16777216
100
AcDbPoint
 10
26.93350712574632
 20
24.01311054030144
 30
0.0
  0
POINT
  5
792
330
71E
100
AcDbEntity
  8
Defpoints
 62
     0
440
 16777216
100
AcDbPoint
 10
21.53980561780855
 20
8.024921918678856
 30
0.0
  0
ENDBLK
  5
720
330
71E
100
AcDbEntity
  8
0
100
AcDbBlockEnd
  0
BLOCK
  5
727
330
726
100
AcDbEntity
  8
0
100
AcDbBlockBegin
  2
*D72
 70
     1
 10
0.0
 20
0.0
 30
0.0
  3
*D72
  1

  0
LINE
  5
87F
330
726
100
AcDbEntity
  8
0
 62
     0
440
 16777216
370
    -2
100
AcDbLine
 10
21.28980561780855
 20
23.02492083872711
 30
0.0
 11
20.67380561780856
 21
23.02492083872711
 31
0.0
  0
LINE
  5
880
330
726
100
AcDbEntity
  8
0
 62
     0
440
 16777216
370
    -2
100
AcDbLine
 10
20.67380561780856
 20
23.02492083872711
 30
0.0
 11
21.42450712574632
 21
23.36071505731041
 31
0.0
  0
LINE
  5
881
330
726
100
AcDbEntity
  8
0
 62
     0
440
 16777216
370
    -2
100
AcDbLine
 10
21.42450712574632
 20
23.36071505731041
 30
0.0
 11
20.55850712574632
 21
23.36071505731041
 31
0.0
  0
MTEXT
  5
882
330
726
100
AcDbEntity
  8
0
 62
     0
440
 16777216
100
AcDbMText
 10
19.56642379241298
 20
23.36071505731041
 30
0.0
 40
0.433
 41
0.0
 46
0.0
 71
     5
 72
     1
  1
\A1;15.000
 73
     1
 44
1.0
  0
POINT
  5
883
330
726
100
AcDbEntity
  8
Defpoints
 62
     0
440
 16777216
100
AcDbPoint
 10
21.53980561780855
 20
23.02492083872711
 30
0.0
  0
POINT
  5
884
330
726
100
AcDbEntity
  8
Defpoints
 62
     0
440
 16777216
100
AcDbPoint
 10
20.55850712574632
 20
23.36071505731041
 30
0.0
  0
POINT
  5
885
330
726
100
AcDbEntity
  8
Defpoints
 62
     0
440
 16777216
100
AcDbPoint
 10
21.53980561780855
 20
8.024921918678856
 30
0.0
  0
ENDBLK
  5
728
330
726
100
AcDbEntity
  8
0
100
AcDbBlockEnd
  0
BLOCK
  5
72F
330
72E
100
AcDbEntity
  8
0
100
AcDbBlockBegin
  2
*D73
 70
     1
 10
0.0
 20
0.0
 30
0.0
  3
*D73
  1

  0
LINE
  5
798
330
72E
100
AcDbEntity
  8
0
 62
     0
440
 16777216
370
    -2
100
AcDbLine
 10
20.69532702555541
 20
12.23620061956519
 30
0.0
 11
21.12934369222216
 21
12.23620061956519
 31
0.0
  0
LINE
  5
799
330
72E
100
AcDbEntity
  8
0
 62
     0
440
 16777216
370
    -2
100
AcDbLine
 10
21.12934369222216
 20
12.23620061956519
 30
0.0
 11
22.97842372321419
 21
13.36286151935577
 31
0.0
  0
MTEXT
  5
79A
102
{ACAD_XDICTIONARY
360
83A
102
}
330
72E
100
AcDbEntity
  8
0
 62
     0
440
 16777216
100
AcDbMText
 10
18.83724369222208
 20
12.2362006195652
 30
0.0
 40
0.433
 41
0.0
 46
0.0
 71
     5
 72
     1
  1
\A1;∅0.375 (6)
 73
     1
 44
1.0
  0
SOLID
  5
79B
330
72E
100
AcDbEntity
  8
0
 62
     0
440
 16777216
100
AcDbTrace
 10
22.94087331347828
 20
13.42448939053791
 30
0.0
 11
23.01597413295011
 21
13.30123364817363
 31
0.0
 12
23.34819095030704
 22
13.58816397777126
 32
0.0
 13
23.34819095030704
 23
13.58816397777126
 33
0.0
  0
LINE
  5
79C
330
72E
100
AcDbEntity
  8
0
 62
     0
440
 16777216
370
    -2
100
AcDbLine
 10
23.41830955326296
 20
13.68572566588421
 30
0.0
 11
23.59830955326296
 21
13.6857256658842
 31
0.0
  0
LINE
  5
79D
330
72E
100
AcDbEntity
  8
0
 62
     0
440
 16777216
370
    -2
100
AcDbLine
 10
23.50830955326296
 20
13.5957256658842
 30
0.0
 11
23.50830955326296
 21
13.7757256658842
 31
0.0
  0
POINT
  5
79E
330
72E
100
AcDbEntity
  8
Defpoints
 62
     0
440
 16777216
100
AcDbPoint
 10
23.34819095030704
 20
13.58816397777126
 30
0.0
  0
POINT
  5
79F
330
72E
100
AcDbEntity
  8
Defpoints
 62
     0
440
 16777216
100
AcDbPoint
 10
23.66842815621888
 20
13.78328735399715
 30
0.0
  0
ENDBLK
  5
730
330
72E
100
AcDbEntity
  8
0
100
AcDbBlockEnd
  0
BLOCK
  5
73F
330
73E
100
AcDbEntity
  8
0
100
AcDbBlockBegin
  2
*D74
 70
     1
 10
0.0
 20
0.0
 30
0.0
  3
*D74
  1

  0
LINE
  5
741
330
73E
100
AcDbEntity
  8
0
 62
     0
440
 16777216
370
    -2
100
AcDbLine
 10
26.31736486008849
 20
9.158725665884233
 30
0.0
 11
29.00154130401848
 21
9.158725665884233
 31
0.0
  0
MTEXT
  5
742
330
73E
100
AcDbEntity
  8
0
 62
     0
440
 16777216
100
AcDbMText
 10
30.53487463735181
 20
9.158725665884233
 30
0.0
 40
0.433
 41
0.0
 46
0.0
 71
     5
 72
     1
  1
\A1;1.134 (2)
 73
     1
 44
1.0
  0
POINT
  5
743
330
73E
100
AcDbEntity
  8
Defpoints
 62
     0
440
 16777216
100
AcDbPoint
 10
26.06736486008849
 20
9.158725665884233
 30
0.0
  0
POINT
  5
744
330
73E
100
AcDbEntity
  8
Defpoints
 62
     0
440
 16777216
100
AcDbPoint
 10
29.00154130401848
 20
9.158725665884233
 30
0.0
  0
POINT
  5
745
330
73E
100
AcDbEntity
  8
Defpoints
 62
     0
440
 16777216
100
AcDbPoint
 10
21.53980561780855
 20
8.024921918678856
 30
0.0
  0
ENDBLK
  5
740
330
73E
100
AcDbEntity
  8
0
100
AcDbBlockEnd
  0
BLOCK
  5
84C
330
84B
100
AcDbEntity
  8
0
100
AcDbBlockBegin
  2
*D75
 70
     1
 10
0.0
 20
0.0
 30
0.0
  3
*D75
  1

  0
LINE
  5
854
330
84B
100
AcDbEntity
  8
0
 62
     0
440
 16777216
370
    -2
100
AcDbLine
 10
22.68350716783863
 20
22.77492083872708
 30
0.0
 11
22.68350716783863
 21
24.09302619154507
 31
0.0
  0
MTEXT
  5
855
330
84B
100
AcDbEntity
  8
0
 62
     0
440
 16777216
100
AcDbMText
 10
22.68350716783862
 20
24.90469285821174
 30
0.0
 40
0.433
 41
0.0
 46
0.0
 71
     5
 72
     1
  1
\A1;1.144
 11
0.0000000000000001
 21
1.0
 31
0.0
 73
     1
 44
1.0
  0
POINT
  5
856
330
84B
100
AcDbEntity
  8
Defpoints
 62
     0
440
 16777216
100
AcDbPoint
 10
22.68350716783863
 20
22.52492083872708
 30
0.0
  0
POINT
  5
857
330
84B
100
AcDbEntity
  8
Defpoints
 62
     0
440
 16777216
100
AcDbPoint
 10
22.68350716783863
 20
24.09302619154507
 30
0.0
  0
POINT
  5
858
330
84B
100
AcDbEntity
  8
Defpoints
 62
     0
440
 16777216
100
AcDbPoint
 10
21.53980561780855
 20
8.024921918678856
 30
0.0
  0
ENDBLK
  5
84D
330
84B
100
AcDbEntity
  8
0
100
AcDbBlockEnd
  0
BLOCK
  5
85C
330
85B
100
AcDbEntity
  8
0
100
AcDbBlockBegin
  2
*D76
 70
     1
 10
0.0
 20
0.0
 30
0.0
  3
*D76
  1

  0
LINE
  5
864
330
85B
100
AcDbEntity
  8
0
 62
     0
440
 16777216
370
    -2
100
AcDbLine
 10
26.38035694708725
 20
22.77492083872708
 30
0.0
 11
26.38035694708725
 21
24.111124021455
 31
0.0
  0
MTEXT
  5
865
330
85B
100
AcDbEntity
  8
0
 62
     0
440
 16777216
100
AcDbMText
 10
26.38035694708725
 20
24.99495735478834
 30
0.0
 40
0.433
 41
0.0
 46
0.0
 71
     5
 72
     1
  1
\A1;4.841
 11
0.0000000000000001
 21
1.0
 31
0.0
 73
     1
 44
1.0
  0
POINT
  5
866
330
85B
100
AcDbEntity
  8
Defpoints
 62
     0
440
 16777216
100
AcDbPoint
 10
26.38035694708725
 20
22.52492083872708
 30
0.0
  0
POINT
  5
867
330
85B
100
AcDbEntity
  8
Defpoints
 62
     0
440
 16777216
100
AcDbPoint
 10
26.38035694708725
 20
24.111124021455
 30
0.0
  0
POINT
  5
868
330
85B
100
AcDbEntity
  8
Defpoints
 62
     0
440
 16777216
100
AcDbPoint
 10
21.53980561780855
 20
8.024921918678856
 30
0.0
  0
ENDBLK
  5
85D
330
85B
100
AcDbEntity
  8
0
100
AcDbBlockEnd
  0
BLOCK
  5
86C
330
86B
100
AcDbEntity
  8
0
100
AcDbBlockBegin
  2
*D77
 70
     1
 10
0.0
 20
0.0
 30
0.0
  3
*D77
  1

  0
LINE
  5
874
330
86B
100
AcDbEntity
  8
0
 62
     0
440
 16777216
370
    -2
100
AcDbLine
 10
24.28193205746294
 20
22.52492083872708
 30
0.0
 11
20.58011903819687
 21
22.52492083872708
 31
0.0
  0
MTEXT
  5
875
330
86B
100
AcDbEntity
  8
0
 62
     0
440
 16777216
100
AcDbMText
 10
19.5519523715302
 20
22.52492083872708
 30
0.0
 40
0.433
 41
0.0
 46
0.0
 71
     5
 72
     1
  1
\A1;14.500
 73
     1
 44
1.0
  0
POINT
  5
876
330
86B
100
AcDbEntity
  8
Defpoints
 62
     0
440
 16777216
100
AcDbPoint
 10
24.53193205746294
 20
22.52492083872708
 30
0.0
  0
POINT
  5
877
330
86B
100
AcDbEntity
  8
Defpoints
 62
     0
440
 16777216
100
AcDbPoint
 10
20.58011903819687
 20
22.52492083872708
 30
0.0
  0
POINT
  5
878
330
86B
100
AcDbEntity
  8
Defpoints
 62
     0
440
 16777216
100
AcDbPoint
 10
21.53980561780855
 20
8.024921918678856
 30
0.0
  0
ENDBLK
  5
86D
330
86B
100
AcDbEntity
  8
0
100
AcDbBlockEnd
  0
ENDSEC
  0
SECTION
  2
ENTITIES
  0
TEXT
  5
2A5
330
1F
100
AcDbEntity
  8
0
100
AcDbText
 10
21.66325995305239
 20
26.48307325188314
 30
0.0
 40
0.4332208025726851
  1
CUTOUT DRAWING
 72
     1
 11
24.62360210396574
 21
26.48307325188314
 31
0.0
100
AcDbText
  0
TEXT
  5
2A6
330
1F
100
AcDbEntity
  8
0
100
AcDbText
 10
22.7824136930319
 20
28.23307325188316
 30
0.0
 40
0.4332208025726851
  1
IQ1000MM-L
 72
     1
 11
24.62360210396581
 21
28.23307325188316
 31
0.0
100
AcDbText
  0
TEXT
  5
2A7
330
1F
100
AcDbEntity
  8
0
100
AcDbText
 10
22.74631195948417
 20
27.35807325188315
 30
0.0
 40
0.4332208025726851
  1
IQ1300MM-L
 72
     1
 11
24.62360210396581
 21
27.35807325188315
 31
0.0
100
AcDbText
  0
LINE
  5
2A9
330
1F
100
AcDbEntity
  8
0
100
AcDbLine
 10
35.0554233955494
 20
29.27159712983972
 30
0.0
 11
35.0554233955494
 21
1.913968388554454
 31
0.0
  0
LINE
  5
2AA
330
1F
100
AcDbEntity
  8
BORDER
100
AcDbLine
 10
19.13946731696671
 20
2.667182484553261
 30
0.0
 11
19.13946748147025
 21
1.913968388554437
 31
0.0
  0
LINE
  5
2AB
330
1F
100
AcDbEntity
  8
BORDER
100
AcDbLine
 10
19.13946748147025
 20
2.064611199011832
 30
0.0
 11
14.24493094894893
 21
2.064611199011832
 31
0.0
  0
TEXT
  5
2AC
330
1F
100
AcDbEntity
  8
TEXT
100
AcDbText
 10
14.29671441504367
 20
2.10227190162618
 30
0.0
 40
0.0753214052286923
  1
REV
 72
     1
 11
14.40969652288671
 21
2.139932604240526
 31
0.0
100
AcDbText
 73
     2
  0
TEXT
  5
2AD
330
1F
100
AcDbEntity
  8
TEXT
100
AcDbText
 10
14.39086617157945
 20
2.251284935546614
 30
0.0
 40
0.0753214052286923
  1
0
 72
     1
 11
14.40969652288662
 21
2.28894563816096
 31
0.0
100
AcDbText
 73
     2
  0
TEXT
  5
2AE
330
1F
100
AcDbEntity
  8
TEXT
100
AcDbText
 10
18.66310931869362
 20
2.252914712083569
 30
0.0
 40
0.0753214052286923
  1
JMH
 72
     1
 11
18.76353785899854
 21
2.290575414697915
 31
0.0
100
AcDbText
 73
     2
  0
TEXT
  5
2AF
330
1F
100
AcDbEntity
  8
TEXT
100
AcDbText
 10
18.51246650823623
 20
2.10227190162618
 30
0.0
 40
0.0753214052286923
  1
CHECKED
 72
     1
 11
18.76353785899854
 21
2.139932604240526
 31
0.0
100
AcDbText
 73
     2
  0
LINE
  5
2B0
330
1F
100
AcDbEntity
  8
BORDER
100
AcDbLine
 10
18.38760823652702
 20
2.064611199011832
 30
0.0
 11
18.38760823652702
 21
2.215254009469229
 31
0.0
  0
LINE
  5
2B1
330
1F
100
AcDbEntity
  8
BORDER
100
AcDbLine
 10
18.38760823652702
 20
2.215254009469229
 30
0.0
 11
18.38760823652702
 21
2.365896819926635
 31
0.0
  0
LINE
  5
2B2
330
1F
100
AcDbEntity
  8
BORDER
100
AcDbLine
 10
17.72477987051446
 20
2.215254009469229
 30
0.0
 11
17.72477987051446
 21
2.365896819926635
 31
0.0
  0
LINE
  5
2B3
330
1F
100
AcDbEntity
  8
BORDER
100
AcDbLine
 10
17.72477987051446
 20
2.064611199011832
 30
0.0
 11
17.72477987051446
 21
2.215254009469229
 31
0.0
  0
LINE
  5
2B4
330
1F
100
AcDbEntity
  8
BORDER
100
AcDbLine
 10
14.24493094894895
 20
1.913968388554437
 30
0.0
 11
19.13946748147025
 21
1.913968388554437
 31
0.0
  0
TEXT
  5
2B5
330
1F
100
AcDbEntity
  8
TEXT
100
AcDbText
 10
17.91810481060146
 20
2.10227190162618
 30
0.0
 40
0.0753214052286923
  1
DATE
 72
     1
 11
18.05619405352073
 21
2.139932604240526
 31
0.0
100
AcDbText
 73
     2
  0
TEXT
  5
2B6
330
1F
100
AcDbEntity
  8
TEXT
100
AcDbText
 10
17.82395305406559
 20
2.252914712083569
 30
0.0
 40
0.0753214052286923
  1
2-14-08
 72
     1
 11
18.05619405352073
 21
2.290575414697915
 31
0.0
100
AcDbText
 73
     2
  0
TEXT
  5
2B7
330
1F
100
AcDbEntity
  8
TEXT
100
AcDbText
 10
15.63492471460673
 20
2.252914712083569
 30
0.0
 40
0.0753214052286923
  1
INITIAL RELEASE
 72
     1
 11
16.14962098366946
 21
2.290575414697915
 31
0.0
100
AcDbText
 73
     2
  0
LINE
  5
2B8
330
1F
100
AcDbEntity
  8
BORDER
100
AcDbLine
 10
19.13946748147025
 20
2.365896819926635
 30
0.0
 11
14.24493094894893
 21
2.365896819926635
 31
0.0
  0
LINE
  5
2B9
330
1F
100
AcDbEntity
  8
BORDER
100
AcDbLine
 10
19.13946748147025
 20
2.215254009469229
 30
0.0
 11
14.24493094894893
 21
2.215254009469229
 31
0.0
  0
LINE
  5
2BA
330
1F
100
AcDbEntity
  8
BORDER
100
AcDbLine
 10
14.57446209682448
 20
2.215254009469229
 30
0.0
 11
14.57446209682448
 21
2.365896819926635
 31
0.0
  0
LINE
  5
2BB
330
1F
100
AcDbEntity
  8
BORDER
100
AcDbLine
 10
14.57446209682448
 20
2.064611199011832
 30
0.0
 11
14.57446209682448
 21
2.215254009469229
 31
0.0
  0
TEXT
  5
2BC
330
1F
100
AcDbEntity
  8
TEXT
100
AcDbText
 10
14.29671441504367
 20
2.10227190162618
 30
0.0
 40
0.0753214052286923
  1
REV
 72
     1
 11
14.40969652288671
 21
2.139932604240526
 31
0.0
100
AcDbText
 73
     2
  0
TEXT
  5
2BD
330
1F
100
AcDbEntity
  8
TEXT
100
AcDbText
 10
15.773013957526
 20
2.10227190162618
 30
0.0
 40
0.0753214052286923
  1
DESCRIPTION
 72
     1
 11
16.14962098366946
 21
2.139932604240526
 31
0.0
100
AcDbText
 73
     2
  0
TEXT
  5
2BE
330
1F
100
AcDbEntity
  8
TEXT
100
AcDbText
 10
15.83578179521657
 20
1.951629091168783
 30
0.0
 40
0.0753214052286923
  1
REVISIONS
 72
     1
 11
16.14962098366946
 21
1.989289793783129
 31
0.0
100
AcDbText
 73
     2
  0
LINE
  5
2BF
330
1F
100
AcDbEntity
  8
0
100
AcDbLine
 10
14.24493094894895
 20
29.27159712983971
 30
0.0
 11
14.24493094894895
 21
1.913968388554437
 31
0.0
  0
LINE
  5
2C0
330
1F
100
AcDbEntity
  8
0
100
AcDbLine
 10
35.0554233955494
 20
1.913968388554454
 30
0.0
 11
14.24493094894895
 21
1.913968388554437
 31
0.0
  0
POINT
  5
2C1
330
1F
100
AcDbEntity
  8
0
100
AcDbPoint
 10
34.11390583019077
 20
1.913968388554454
 30
0.0
  0
TEXT
  5
2C2
330
1F
100
AcDbEntity
  8
TEXT
100
AcDbText
 10
34.76591270180391
 20
1.981269901720572
 30
0.0
 40
0.1883035130717306
  1
1
 72
     1
 11
34.79729662064919
 21
2.075421658256438
 31
0.0
100
AcDbText
 73
     2
  0
TEXT
  5
2C3
330
1F
100
AcDbEntity
  8
TEXT
100
AcDbText
 10
32.90380364294354
 20
1.981269901720572
 30
0.0
 40
0.1883035130717306
  1
IQ290933
 72
     1
 11
33.57855789811724
 21
2.075421658256438
 31
0.0
100
AcDbText
 73
     2
  0
TEXT
  5
2C4
330
1F
100
AcDbEntity
  8
TEXT
100
AcDbText
 10
32.62829821001127
 20
2.363979799281824
 30
0.0
 40
0.1883035130717306
  1
IQ1000-1300MM-L
 72
     1
 11
33.83657908555488
 21
2.458131555817689
 31
0.0
100
AcDbText
 73
     2
  0
LINE
  5
2C5
330
1F
100
AcDbEntity
  8
BORDER
100
AcDbLine
 10
32.61794595048549
 20
2.307488745360313
 30
0.0
 11
35.0554233955494
 21
2.307488745360313
 31
0.0
  0
LINE
  5
2C6
330
1F
100
AcDbEntity
  8
BORDER
100
AcDbLine
 10
34.53916984574899
 20
2.307488745360313
 30
0.0
 11
34.53916984574899
 21
1.913968388554454
 31
0.0
  0
TEXT
  5
2C7
330
1F
100
AcDbEntity
  8
TEXT
100
AcDbText
 10
31.44588510150998
 20
1.970253858522777
 30
0.0
 40
0.0941517565358654
  1
SHEET 1 OF 1
 72
     1
 11
31.96371976245724
 21
2.017329736790709
 31
0.0
100
AcDbText
 73
     2
  0
LINE
  5
2C8
330
1F
100
AcDbEntity
  8
BORDER
100
AcDbLine
 10
31.2998213589834
 20
2.119185232288571
 30
0.0
 11
32.61794595048549
 21
2.119185232288571
 31
0.0
  0
TEXT
  5
2C9
330
1F
100
AcDbEntity
  8
TEXT
100
AcDbText
 10
31.66858240541552
 20
2.167778094714285
 30
0.0
 40
0.0941517565358654
  1
9-21-09
 72
     1
 11
31.95888365473444
 21
2.214853972982218
 31
0.0
100
AcDbText
 73
     2
  0
TEXT
  5
2CA
330
1F
100
AcDbEntity
  8
TEXT
100
AcDbText
 10
31.34689723725129
 20
2.236874927958403
 30
0.0
 40
0.0470758782679327
  1
DATE
100
AcDbText
  0
TEXT
  5
2CB
330
1F
100
AcDbEntity
  8
TEXT
100
AcDbText
 10
31.52531481588671
 20
2.32424775802368
 30
0.0
 40
0.070613817401899
  1
JMH
 72
     1
 11
31.61946657242257
 21
2.359554666724629
 31
0.0
100
AcDbText
 73
     2
  0
TEXT
  5
2CC
330
1F
100
AcDbEntity
  8
TEXT
100
AcDbText
 10
31.32712536837879
 20
2.425178441030144
 30
0.0
 40
0.0470758782679327
  1
DRAWN
100
AcDbText
  0
TEXT
  5
2CD
330
1F
100
AcDbEntity
  8
TEXT
100
AcDbText
 10
32.00595953300239
 20
2.425178441030144
 30
0.0
 40
0.0470758782679327
  1
SCALE
100
AcDbText
  0
TEXT
  5
2CE
330
1F
100
AcDbEntity
  8
TEXT
100
AcDbText
 10
32.16884207180938
 20
2.32424775802368
 30
0.0
 40
0.070613817401899
  1
NONE
 72
     1
 11
32.29830073704619
 21
2.359554666724629
 31
0.0
100
AcDbText
 73
     2
  0
LINE
  5
2CF
330
1F
100
AcDbEntity
  8
BORDER
100
AcDbLine
 10
31.2998213589834
 20
2.495792258432043
 30
0.0
 11
32.61794595048549
 21
2.495792258432043
 31
0.0
  0
LINE
  5
2D0
330
1F
100
AcDbEntity
  8
BORDER
100
AcDbLine
 10
31.2998213589834
 20
2.307488745360313
 30
0.0
 11
32.61794595048549
 21
2.307488745360313
 31
0.0
  0
LINE
  5
2D1
330
1F
100
AcDbEntity
  8
DIMENSION
100
AcDbLine
 10
31.2998213589834
 20
2.495792258432043
 30
0.0
 11
31.2998213589834
 21
1.913968388554454
 31
0.0
  0
TEXT
  5
2D2
330
1F
100
AcDbEntity
  8
TEXT
100
AcDbText
 10
30.04235471230021
 20
1.984582205956347
 30
0.0
 40
0.0470758782679327
  1
ICE QUBE, INC.
 72
     1
 11
30.32088699205214
 21
2.008120145090313
 31
0.0
100
AcDbText
 73
     2
  0
TEXT
  5
2D3
330
1F
100
AcDbEntity
  8
TEXT
100
AcDbText
 10
29.54340255894858
 20
2.055196023358255
 30
0.0
 40
0.0470758782679327
  1
OR ALTERED WITHOUT AUTHORIZATION OF
 72
     1
 11
30.34369248950344
 21
2.078733962492222
 31
0.0
100
AcDbText
 73
     2
  0
TEXT
  5
2D4
330
1F
100
AcDbEntity
  8
TEXT
100
AcDbText
 10
29.50809565024763
 20
2.125809840760133
 30
0.0
 40
0.0470758782679327
  1
QUBE, INC. AND IS NOT TO BE DUPLICATED
 72
     1
 11
30.34369248950344
 21
2.1493477798941
 31
0.0
100
AcDbText
 73
     2
  0
TEXT
  5
2D5
330
1F
100
AcDbEntity
  8
TEXT
100
AcDbText
 10
29.55124853865991
 20
2.196423658162042
 30
0.0
 40
0.0470758782679327
  1
THIS DRAWING IS THE PROPERTY OF ICE
 72
     1
 11
30.34369248950344
 21
2.219961597296009
 31
0.0
100
AcDbText
 73
     2
  0
TEXT
  5
2D6
330
1F
100
AcDbEntity
  8
TEXT
100
AcDbText
 10
29.48063472125801
 20
2.290575414697911
 30
0.0
 40
0.0941517565358654
  1
PROPRIETARY DRAWING
 72
     1
 11
30.34369248950344
 21
2.337651292965844
 31
0.0
100
AcDbText
 73
     2
  0
LINE
  5
2D7
330
1F
100
AcDbEntity
  8
BORDER
100
AcDbLine
 10
31.2998213589834
 20
1.913968388554454
 30
0.0
 11
31.2998213589834
 21
2.431803049501701
 31
0.0
  0
LINE
  5
2D8
330
1F
100
AcDbEntity
  8
THERMOSTATCVR
100
AcDbLine
 10
31.2998213589834
 20
2.495792258432043
 30
0.0
 11
29.4054502655181
 21
2.495792258432043
 31
0.0
  0
LINE
  5
2D9
330
1F
100
AcDbEntity
  8
THERMOSTATCVR
100
AcDbLine
 10
29.4054502655181
 20
2.495792258432043
 30
0.0
 11
29.4054502655181
 21
1.913968388554454
 31
0.0
  0
TEXT
  5
2DA
330
1F
100
AcDbEntity
  8
TEXT
100
AcDbText
 10
33.82883869330612
 20
2.888875841969272
 30
0.0
 40
0.0470758782679327
  1
GREENSBURG, PA  15601
 72
     1
 11
34.2839055165628
 21
2.912413781103238
 31
0.0
100
AcDbText
 73
     2
  0
TEXT
  5
2DB
330
1F
100
AcDbEntity
  8
TEXT
100
AcDbText
 10
33.89945251070802
 20
2.983027598505141
 30
0.0
 40
0.0470758782679327
  1
141 WILSON AVENUE
 72
     1
 11
34.2839055165628
 21
3.006565537639107
 31
0.0
100
AcDbText
 73
     2
  0
TEXT
  5
2DC
330
1F
100
AcDbEntity
  8
TEXT
100
AcDbText
 10
33.66407311936836
 20
3.072471767214213
 30
0.0
 40
0.0470758782679327
  1
INDUSTRIAL COOLING EQUIPMENT
 72
     1
 11
34.2839055165628
 21
3.096009706348179
 31
0.0
100
AcDbText
 73
     2
  0
LINE
  5
2DD
330
1F
100
AcDbEntity
  8
BORDER
100
AcDbLine
 10
32.61794595048549
 20
3.154854554183113
 30
0.0
 11
35.0554233955494
 21
3.154854554183098
 31
0.0
  0
LINE
  5
2DE
330
1F
100
AcDbEntity
  8
TEXT
100
AcDbLine
 10
32.99262444618044
 20
3.029318557210738
 30
0.0
 11
33.05528932699814
 21
3.029318557210738
 31
0.0
  0
ARC
  5
2DF
330
1F
100
AcDbEntity
  8
TEXT
100
AcDbCircle
 10
33.02682440267999
 20
3.03064219624704
 30
0.0
 40
0.028495682773577
100
AcDbArc
 50
357.3376237443689
 51
85.63084243886233
  0
ARC
  5
2E0
330
1F
100
AcDbEntity
  8
TEXT
100
AcDbCircle
 10
33.01794130147044
 20
3.006343970538828
 30
0.0
 40
0.0538576827343743
100
AcDbArc
 50
78.15621523986212
 51
106.612240852029
  0
LINE
  5
2E1
330
1F
100
AcDbEntity
  8
TEXT
100
AcDbLine
 10
32.99262444618044
 20
3.036084004967172
 30
0.0
 11
33.03371875431334
 21
3.036084004967172
 31
0.0
  0
ARC
  5
2E2
330
1F
100
AcDbEntity
  8
TEXT
100
AcDbCircle
 10
33.01264655223675
 20
3.032173461293254
 30
0.0
 40
0.0204004186907141
100
AcDbArc
 50
103.9179608006051
 51
168.948608895047
  0
ARC
  5
2E3
330
1F
100
AcDbEntity
  8
TEXT
100
AcDbCircle
 10
33.01734042979284
 20
3.036601323519807
 30
0.0
 40
0.0163864923818733
100
AcDbArc
 50
358.1908821763629
 51
69.74957583403455
  0
ARC
  5
2E4
330
1F
100
AcDbEntity
  8
TEXT
100
AcDbCircle
 10
33.01537589009984
 20
2.98978492145785
 30
0.0
 40
0.0626571008621197
100
AcDbArc
 50
82.99970676553448
 51
97.00029323449177
  0
ARC
  5
2E5
330
1F
100
AcDbEntity
  8
TEXT
100
AcDbCircle
 10
33.01492377035149
 20
3.021042983898883
 30
0.0
 40
0.038931564444201
100
AcDbArc
 50
108.5416613320868
 51
149.7652339536235
  0
ARC
  5
2E6
330
1F
100
AcDbEntity
  8
TEXT
100
AcDbCircle
 10
33.01517293918788
 20
3.019857024937365
 30
0.0
 40
0.039754191555894
100
AcDbArc
 50
148.4692011102813
 51
195.5802361373364
  0
ARC
  5
2E7
330
1F
100
AcDbEntity
  8
TEXT
100
AcDbCircle
 10
33.0144375512529
 20
3.018672546874185
 30
0.0
 40
0.0387391789400517
100
AcDbArc
 50
194.1847393568171
 51
248.658676732099
  0
ARC
  5
2E8
330
1F
100
AcDbEntity
  8
TEXT
100
AcDbCircle
 10
33.03034989245863
 20
3.028854977234576
 30
0.0
 40
0.0377282944655948
100
AcDbArc
 50
179.2959701761241
 51
227.5915484940839
  0
ARC
  5
2E9
330
1F
100
AcDbEntity
  8
TEXT
100
AcDbCircle
 10
33.02212203925039
 20
3.022138984679408
 30
0.0
 40
0.0272643975521846
100
AcDbArc
 50
230.8416488637783
 51
280.5326941523482
  0
ARC
  5
2EA
330
1F
100
AcDbEntity
  8
TEXT
100
AcDbCircle
 10
33.02568521989899
 20
3.029526367960314
 30
0.0
 40
0.0342218971314216
100
AcDbArc
 50
272.3792098458871
 51
327.3581874363298
  0
ARC
  5
2EB
330
1F
100
AcDbEntity
  8
TEXT
100
AcDbCircle
 10
33.0155681892356
 20
3.036712466565223
 30
0.0
 40
0.0562243907835031
100
AcDbArc
 50
254.2847830849329
 51
294.1819270465994
  0
ARC
  5
2EC
330
1F
100
AcDbEntity
  8
TEXT
100
AcDbCircle
 10
33.02013225984796
 20
3.022749420225331
 30
0.0
 40
0.0416460911605504
100
AcDbArc
 50
296.3233923707218
 51
339.8348331475747
  0
ARC
  5
2ED
330
1F
100
AcDbEntity
  8
TEXT
100
AcDbCircle
 10
33.05640812231106
 20
3.00892546910271
 30
0.0
 40
0.0028673384320092
100
AcDbArc
 50
349.2952029716974
 51
131.6626905469293
  0
ARC
  5
2EE
330
1F
100
AcDbEntity
  8
TEXT
100
AcDbCircle
 10
32.93480378194529
 20
2.940133243854712
 30
0.0
 40
0.12015236547112
100
AcDbArc
 50
84.62122141578795
 51
95.37877858421206
  0
ARC
  5
2EF
330
1F
100
AcDbEntity
  8
TEXT
100
AcDbCircle
 10
32.94200823065229
 20
3.032360035984883
 30
0.0
 40
0.0276955050161919
100
AcDbArc
 50
43.16761867319035
 51
81.57335966330681
  0
ARC
  5
2F0
330
1F
100
AcDbEntity
  8
TEXT
100
AcDbCircle
 10
32.95259362142274
 20
3.044077674607105
 30
0.0
 40
0.0120294852725347
100
AcDbArc
 50
321.1558234807406
 51
36.94217904228418
  0
ARC
  5
2F1
330
1F
100
AcDbEntity
  8
TEXT
100
AcDbCircle
 10
32.95487819923369
 20
3.045709780545571
 30
0.0
 40
0.0115935527068065
100
AcDbArc
 50
205.1359642898991
 51
307.6679722285628
  0
ARC
  5
2F2
330
1F
100
AcDbEntity
  8
TEXT
100
AcDbCircle
 10
32.95730011820956
 20
3.045958467980923
 30
0.0
 40
0.0139149805860695
100
AcDbArc
 50
180.010674400693
 51
201.8251852717941
  0
ARC
  5
2F3
330
1F
100
AcDbEntity
  8
TEXT
100
AcDbCircle
 10
32.92970261174465
 20
3.04184653603104
 30
0.0
 40
0.0142862938685054
100
AcDbArc
 50
16.71684440730688
 51
45.9771940039907
  0
ARC
  5
2F4
330
1F
100
AcDbEntity
  8
TEXT
100
AcDbCircle
 10
32.93216250085794
 20
2.936181099787471
 30
0.0
 40
0.1161784754847913
100
AcDbArc
 50
86.31431733543349
 51
93.90381943515908
  0
ARC
  5
2F5
330
1F
100
AcDbEntity
  8
TEXT
100
AcDbCircle
 10
32.92797504207995
 20
3.023981135000216
 30
0.0
 40
0.0360491769993699
100
AcDbArc
 50
97.06566064010193
 51
142.498633431232
  0
ARC
  5
2F6
330
1F
100
AcDbEntity
  8
TEXT
100
AcDbCircle
 10
32.92764880128299
 20
3.018345762197696
 30
0.0
 40
0.0394980340168089
100
AcDbArc
 50
135.7093780000566
 51
195.2317137751495
  0
ARC
  5
2F7
330
1F
100
AcDbEntity
  8
TEXT
100
AcDbCircle
 10
32.92391299319858
 20
3.017147951432074
 30
0.0
 40
0.0355791942216639
100
AcDbArc
 50
194.9511061487655
 51
259.610313586206
  0
ARC
  5
2F8
330
1F
100
AcDbEntity
  8
TEXT
100
AcDbCircle
 10
32.92959496932063
 20
3.018595079917925
 30
0.0
 40
0.0383987109161728
100
AcDbArc
 50
251.6347706403381
 51
316.4182924463553
  0
ARC
  5
2F9
330
1F
100
AcDbEntity
  8
TEXT
100
AcDbCircle
 10
32.9247684804232
 20
3.030729434883979
 30
0.0
 40
0.0505562578197014
100
AcDbArc
 50
310.2152586008289
 51
331.3072507285814
  0
ARC
  5
2FA
330
1F
100
AcDbEntity
  8
TEXT
100
AcDbCircle
 10
32.9393718444879
 20
3.022887968922534
 30
0.0
 40
0.0328837791276186
100
AcDbArc
 50
117.3722826858103
 51
160.0902491401915
  0
ARC
  5
2FB
330
1F
100
AcDbEntity
  8
TEXT
100
AcDbCircle
 10
32.94361938385634
 20
3.025995313526801
 30
0.0
 40
0.0360846252913658
100
AcDbArc
 50
167.0430028911436
 51
212.130937130944
  0
ARC
  5
2FC
330
1F
100
AcDbEntity
  8
TEXT
100
AcDbCircle
 10
32.93591097104809
 20
3.021725041575634
 30
0.0
 40
0.0272899875170828
100
AcDbArc
 50
213.1462108998183
 51
285.6537258536325
  0
ARC
  5
2FD
330
1F
100
AcDbEntity
  8
TEXT
100
AcDbCircle
 10
32.93615899664049
 20
3.028461078375918
 30
0.0
 40
0.0337719254156519
100
AcDbArc
 50
282.1628426667718
 51
326.5593609179388
  0
ARC
  5
2FE
330
1F
100
AcDbEntity
  8
TEXT
100
AcDbCircle
 10
32.96537008990159
 20
3.006241496820361
 30
0.0
 40
0.0037528680371889
100
AcDbArc
 50
3.288025410275707
 51
105.9275278804241
  0
LINE
  5
2FF
330
1F
100
AcDbEntity
  8
TEXT
100
AcDbLine
 10
32.78850513180335
 20
3.14058544290858
 30
0.0
 11
32.78973140724119
 21
3.040103279498778
 31
0.0
  0
LINE
  5
300
330
1F
100
AcDbEntity
  8
TEXT
100
AcDbLine
 10
32.7983153353065
 20
3.12833151815479
 30
0.0
 11
32.79892847302534
 21
3.040103279498778
 31
0.0
  0
ARC
  5
301
330
1F
100
AcDbEntity
  8
TEXT
100
AcDbCircle
 10
32.7943299401333
 20
3.039934617361068
 30
0.0
 40
0.0046016248952257
100
AcDbArc
 50
177.899482485688
 51
2.100517514311817
  0
LINE
  5
302
330
1F
100
AcDbEntity
  8
TEXT
100
AcDbLine
 10
32.81939595059235
 20
3.123900645736312
 30
0.0
 11
32.81939595059235
 21
2.970300408085008
 31
0.0
  0
LINE
  5
303
330
1F
100
AcDbEntity
  8
TEXT
100
AcDbLine
 10
32.86393719423738
 20
3.123900645736312
 30
0.0
 11
32.86393719423738
 21
2.970300408085008
 31
0.0
  0
ARC
  5
304
330
1F
100
AcDbEntity
  8
TEXT
100
AcDbCircle
 10
32.80278175592349
 20
3.128116983250836
 30
0.0
 40
0.0044715700098972
100
AcDbArc
 50
38.20381851858036
 51
177.2500340797979
  0
LINE
  5
305
330
1F
100
AcDbEntity
  8
TEXT
100
AcDbLine
 10
32.8062955857388
 20
3.130882473873238
 30
0.0
 11
32.81939595059235
 21
3.123900645736312
 31
0.0
  0
LINE
  5
306
330
1F
100
AcDbEntity
  8
TEXT
100
AcDbLine
 10
32.87703755909094
 20
3.130882473873238
 30
0.0
 11
32.86393719423738
 21
3.123900645736312
 31
0.0
  0
LINE
  5
307
330
1F
100
AcDbEntity
  8
TEXT
100
AcDbLine
 10
32.88501780952329
 20
3.12833151815479
 30
0.0
 11
32.88496729889684
 21
3.121063226752486
 31
0.0
  0
LINE
  5
308
330
1F
100
AcDbEntity
  8
TEXT
100
AcDbLine
 10
32.89482801302644
 20
3.14058544290858
 30
0.0
 11
32.89458976562655
 21
3.121063226752486
 31
0.0
  0
ARC
  5
309
330
1F
100
AcDbEntity
  8
TEXT
100
AcDbCircle
 10
32.8805513889063
 20
3.128116983250836
 30
0.0
 40
0.0044715700098972
100
AcDbArc
 50
2.749965920202106
 51
141.7961814814196
  0
ARC
  5
30A
330
1F
100
AcDbEntity
  8
TEXT
100
AcDbCircle
 10
32.8897785322617
 20
3.117884597851768
 30
0.0
 40
0.0057664242108932
100
AcDbArc
 50
146.548528575337
 51
33.45147142466299
  0
ARC
  5
30B
330
1F
100
AcDbEntity
  8
TEXT
100
AcDbCircle
 10
32.82272197507199
 20
2.960886094730955
 30
0.0
 40
0.0099845748415906
100
AcDbArc
 50
109.4580308571273
 51
191.0341765876991
  0
ARC
  5
30C
330
1F
100
AcDbEntity
  8
TEXT
100
AcDbCircle
 10
32.80996012552463
 20
2.958417328147468
 30
0.0
 40
0.0030139197563073
100
AcDbArc
 50
155.924904233813
 51
10.66497725508803
  0
ARC
  5
30D
330
1F
100
AcDbEntity
  8
TEXT
100
AcDbCircle
 10
32.80158456847579
 20
2.956066016797548
 30
0.0
 40
0.0066670337445945
100
AcDbArc
 50
32.48569494743503
 51
175.1979664789355
  0
ARC
  5
30E
330
1F
100
AcDbEntity
  8
TEXT
100
AcDbCircle
 10
32.79270854243085
 20
2.955560908298113
 30
0.0
 40
0.0024726578280916
100
AcDbArc
 50
158.7719549350953
 51
25.46716058583678
  0
ARC
  5
30F
330
1F
100
AcDbEntity
  8
TEXT
100
AcDbCircle
 10
32.7869235482262
 20
2.957188275620178
 30
0.0
 40
0.0035562783631831
100
AcDbArc
 50
348.1206509806773
 51
136.2651890953701
  0
ARC
  5
310
330
1F
100
AcDbEntity
  8
TEXT
100
AcDbCircle
 10
32.78649658108506
 20
2.955314449309621
 30
0.0
 40
0.0048332301011665
100
AcDbArc
 50
116.3151684036656
 51
258.4674100382152
  0
ARC
  5
311
330
1F
100
AcDbEntity
  8
TEXT
100
AcDbCircle
 10
32.78814721683823
 20
2.948096930824402
 30
0.0
 40
0.0036066509975435
100
AcDbArc
 50
356.7423630506751
 51
136.5172760689915
  0
ARC
  5
312
330
1F
100
AcDbEntity
  8
TEXT
100
AcDbCircle
 10
32.79303070508448
 20
2.946005783320845
 30
0.0
 40
0.0022810013385922
100
AcDbArc
 50
124.2167745950254
 51
319.7988197133883
  0
ARC
  5
313
330
1F
100
AcDbEntity
  8
TEXT
100
AcDbCircle
 10
32.80216552372154
 20
2.941881093598961
 30
0.0
 40
0.0078540436227
100
AcDbArc
 50
160.26277828196
 51
255.1333022011589
  0
ARC
  5
314
330
1F
100
AcDbEntity
  8
TEXT
100
AcDbCircle
 10
32.802111796533
 20
2.93506318612227
 30
0.0
 40
0.0021083025734577
100
AcDbArc
 50
201.5154657474048
 51
41.96660508020907
  0
ARC
  5
315
330
1F
100
AcDbEntity
  8
TEXT
100
AcDbCircle
 10
32.8094555461832
 20
2.940292276619529
 30
0.0
 40
0.006924651946487
100
AcDbArc
 50
121.2424246402128
 51
213.4732397083816
  0
ARC
  5
316
330
1F
100
AcDbEntity
  8
TEXT
100
AcDbCircle
 10
32.80778856500574
 20
2.942820450151276
 30
0.0
 40
0.0039001818197441
100
AcDbArc
 50
332.2921775479033
 51
119.5678571760053
  0
ARC
  5
317
330
1F
100
AcDbEntity
  8
TEXT
100
AcDbCircle
 10
32.80851952446049
 20
2.934597147991346
 30
0.0
 40
0.0069638752489777
100
AcDbArc
 50
312.9867785858928
 51
66.99118422928775
  0
ARC
  5
318
330
1F
100
AcDbEntity
  8
TEXT
100
AcDbCircle
 10
32.83850944916695
 20
2.880644500243863
 30
0.0
 40
0.0549936223840324
100
AcDbArc
 50
117.3222180892421
 51
179.3383492613259
  0
ARC
  5
319
330
1F
100
AcDbEntity
  8
TEXT
100
AcDbCircle
 10
33.00964778009465
 20
2.910873910917015
 30
0.0
 40
0.0133625184081101
100
AcDbArc
 50
51.01090143870322
 51
107.577946053111
  0
ARC
  5
31A
330
1F
100
AcDbEntity
  8
TEXT
100
AcDbCircle
 10
32.9867203969293
 20
2.924675613713571
 30
0.0
 40
0.0189217522752965
100
AcDbArc
 50
356.7791343814141
 51
50.82801334296444
  0
ARC
  5
31B
330
1F
100
AcDbEntity
  8
TEXT
100
AcDbCircle
 10
32.99147240122998
 20
2.903486226460611
 30
0.0
 40
0.0365742239306637
100
AcDbArc
 50
78.64671940114623
 51
92.8865786316482
  0
ARC
  5
31C
330
1F
100
AcDbEntity
  8
TEXT
100
AcDbCircle
 10
32.9873455530731
 20
2.944541624362376
 30
0.0
 40
0.0050715124531745
100
AcDbArc
 50
296.7794474250892
 51
150.4674482996524
  0
ARC
  5
31D
330
1F
100
AcDbEntity
  8
TEXT
100
AcDbCircle
 10
32.97921727632654
 20
2.951786470900688
 30
0.0
 40
0.0060267191065897
100
AcDbArc
 50
174.1982733486934
 51
308.0634596483696
  0
ARC
  5
31E
330
1F
100
AcDbEntity
  8
TEXT
100
AcDbCircle
 10
32.96203020270559
 20
2.942573283952658
 30
0.0
 40
0.0148903719514897
100
AcDbArc
 50
41.27304036067429
 51
94.61991284102541
  0
ARC
  5
31F
330
1F
100
AcDbEntity
  8
TEXT
100
AcDbCircle
 10
32.95606817654685
 20
2.956014650007825
 30
0.0
 40
0.0049643566344672
100
AcDbArc
 50
136.6395135700863
 51
16.38775991618308
  0
ARC
  5
320
330
1F
100
AcDbEntity
  8
TEXT
100
AcDbCircle
 10
32.94841245691499
 20
2.954989093667566
 30
0.0
 40
0.006002814691472
100
AcDbArc
 50
47.61705801860638
 51
152.6179806585846
  0
ARC
  5
321
330
1F
100
AcDbEntity
  8
TEXT
100
AcDbCircle
 10
32.9360709005277
 20
2.954516513716973
 30
0.0
 40
0.007720957893383
100
AcDbArc
 50
24.75773987532605
 51
121.5483884163316
  0
ARC
  5
322
330
1F
100
AcDbEntity
  8
TEXT
100
AcDbCircle
 10
32.92617074735395
 20
2.958859264616019
 30
0.0
 40
0.0062728536834813
100
AcDbArc
 50
20.89289471577905
 51
159.1071052842209
  0
ARC
  5
323
330
1F
100
AcDbEntity
  8
TEXT
100
AcDbCircle
 10
32.91718537150007
 20
2.961967053359511
 30
0.0
 40
0.0032440169560999
100
AcDbArc
 50
183.5606974541693
 51
344.4298925613363
  0
ARC
  5
324
330
1F
100
AcDbEntity
  8
TEXT
100
AcDbCircle
 10
32.90723224657781
 20
2.95470482825543
 30
0.0
 40
0.0097442508538777
100
AcDbArc
 50
46.43616582623518
 51
130.6283095026899
  0
ARC
  5
325
330
1F
100
AcDbEntity
  8
TEXT
100
AcDbCircle
 10
32.89737104365365
 20
2.961050360260518
 30
0.0
 40
0.0036696272941413
100
AcDbArc
 50
163.3756550464644
 51
16.62434495353224
  0
ARC
  5
326
330
1F
100
AcDbEntity
  8
TEXT
100
AcDbCircle
 10
32.88350195486169
 20
2.933571311044243
 30
0.0
 40
0.0303493055472228
100
AcDbArc
 50
70.05468846034901
 51
100.2232656721174
  0
ARC
  5
327
330
1F
100
AcDbEntity
  8
TEXT
100
AcDbCircle
 10
32.87560382569501
 20
2.947242688812846
 30
0.0
 40
0.01638967650168
100
AcDbArc
 50
81.18509483549035
 51
120.0392913824029
  0
ARC
  5
328
330
1F
100
AcDbEntity
  8
TEXT
100
AcDbCircle
 10
32.86341251905064
 20
2.964985194449464
 30
0.0
 40
0.0053410467179328
100
AcDbArc
 50
318.2823815987304
 51
84.36248438137992
  0
ARC
  5
329
330
1F
100
AcDbEntity
  8
TEXT
100
AcDbCircle
 10
32.8393820631152
 20
2.941239737193394
 30
0.0
 40
0.0076810515749842
100
AcDbArc
 50
35.60679995344256
 51
177.5845513854531
  0
LINE
  5
32A
330
1F
100
AcDbEntity
  8
TEXT
100
AcDbLine
 10
32.84562700128955
 20
2.945711794940756
 30
0.0
 11
32.84513861256229
 21
2.938635214450473
 31
0.0
  0
LINE
  5
32B
330
1F
100
AcDbEntity
  8
TEXT
100
AcDbLine
 10
32.83170783613234
 20
2.941563455456768
 30
0.0
 11
32.83146364176869
 21
2.923261954992191
 31
0.0
  0
ARC
  5
32C
330
1F
100
AcDbEntity
  8
TEXT
100
AcDbCircle
 10
32.86245754456198
 20
2.909460734127915
 30
0.0
 40
0.033927801398001
100
AcDbArc
 50
120.694762676349
 51
155.9971516553445
  0
ARC
  5
32D
330
1F
100
AcDbEntity
  8
TEXT
100
AcDbCircle
 10
32.84997473159883
 20
2.918868507637187
 30
0.0
 40
0.0063124611085434
100
AcDbArc
 50
218.6904014524285
 51
353.665941150076
  0
ARC
  5
32E
330
1F
100
AcDbEntity
  8
TEXT
100
AcDbCircle
 10
32.84648725998993
 20
2.909017959069839
 30
0.0
 40
0.0060775226063211
100
AcDbArc
 50
103.7022990326946
 51
207.01930656292
  0
ARC
  5
32F
330
1F
100
AcDbEntity
  8
TEXT
100
AcDbCircle
 10
32.99883670203956
 20
2.903929364069685
 30
0.0
 40
0.0172565616062193
100
AcDbArc
 50
155.9906329013374
 51
206.8057304576877
  0
ARC
  5
330
330
1F
100
AcDbEntity
  8
TEXT
100
AcDbCircle
 10
32.98051278343529
 20
2.910807949198542
 30
0.0
 40
0.0025643956741991
100
AcDbArc
 50
3.193725348484569
 51
193.0548754998683
  0
ARC
  5
331
330
1F
100
AcDbEntity
  8
TEXT
100
AcDbCircle
 10
32.97458209333789
 20
2.906351790515016
 30
0.0
 40
0.005178120454145
100
AcDbArc
 50
131.5213803610309
 51
48.47861963896903
  0
ARC
  5
332
330
1F
100
AcDbEntity
  8
TEXT
100
AcDbCircle
 10
32.95742098235165
 20
2.917564048583294
 30
0.0
 40
0.0155653522084734
100
AcDbArc
 50
331.8837666959979
 51
33.32508059323637
  0
ARC
  5
333
330
1F
100
AcDbEntity
  8
TEXT
100
AcDbCircle
 10
32.96696380919704
 20
2.925157379177188
 30
0.0
 40
0.0035931578394132
100
AcDbArc
 50
15.46471151433306
 51
237.0036058083627
  0
ARC
  5
334
330
1F
100
AcDbEntity
  8
TEXT
100
AcDbCircle
 10
32.96011851583664
 20
2.919873403828936
 30
0.0
 40
0.005390002736074
100
AcDbArc
 50
124.5991194751844
 51
24.9116295137931
  0
ARC
  5
335
330
1F
100
AcDbEntity
  8
TEXT
100
AcDbCircle
 10
32.94470314189414
 20
2.929945047720835
 30
0.0
 40
0.0135791068951365
100
AcDbArc
 50
335.4827230531713
 51
36.54383594003264
  0
ARC
  5
336
330
1F
100
AcDbEntity
  8
TEXT
100
AcDbCircle
 10
32.92748627729328
 20
2.887655823969988
 30
0.0
 40
0.0576949297740169
100
AcDbArc
 50
60.82353397560653
 51
101.6183182656789
  0
LINE
  5
337
330
1F
100
AcDbEntity
  8
TEXT
100
AcDbLine
 10
32.91586703221974
 20
2.944168637256452
 30
0.0
 11
32.91550571036234
 21
2.930448231811346
 31
0.0
  0
ARC
  5
338
330
1F
100
AcDbEntity
  8
TEXT
100
AcDbCircle
 10
32.91018358762679
 20
2.930187575402193
 30
0.0
 40
0.0053285018697211
100
AcDbArc
 50
165.3922446503752
 51
2.803879044206404
  0
LINE
  5
339
330
1F
100
AcDbEntity
  8
TEXT
100
AcDbLine
 10
32.90502732935404
 20
2.931531425393696
 30
0.0
 11
32.90430468563919
 21
2.942002254751552
 31
0.0
  0
ARC
  5
33A
330
1F
100
AcDbEntity
  8
TEXT
100
AcDbCircle
 10
32.89962687689173
 20
2.939658821497758
 30
0.0
 40
0.0052319761173963
100
AcDbArc
 50
26.60941129939514
 51
166.0619000058105
  0
LINE
  5
33B
330
1F
100
AcDbEntity
  8
TEXT
100
AcDbLine
 10
32.89454894834565
 20
2.940919065829
 30
0.0
 11
32.89454894834565
 21
2.936225245611346
 31
0.0
  0
ARC
  5
33C
330
1F
100
AcDbEntity
  8
TEXT
100
AcDbCircle
 10
32.89040710089738
 20
2.933622362030283
 30
0.0
 40
0.004891820031562
100
AcDbArc
 50
179.1163546128549
 51
32.14670843866527
  0
LINE
  5
33D
330
1F
100
AcDbEntity
  8
TEXT
100
AcDbLine
 10
32.88551586262423
 20
2.933697803238781
 30
0.0
 11
32.88551586262423
 21
2.916366766498541
 31
0.0
  0
ARC
  5
33E
330
1F
100
AcDbEntity
  8
TEXT
100
AcDbCircle
 10
32.87900934739575
 20
2.916283301965801
 30
0.0
 40
0.0065070505412499
100
AcDbArc
 50
182.4450201076249
 51
0.7349407504797698
  0
LINE
  5
33F
330
1F
100
AcDbEntity
  8
TEXT
100
AcDbLine
 10
32.8725082207568
 20
2.916005706630904
 30
0.0
 11
32.87539880347329
 21
2.937669499061346
 31
0.0
  0
ARC
  5
340
330
1F
100
AcDbEntity
  8
TEXT
100
AcDbCircle
 10
32.87202980292109
 20
2.937188660849819
 30
0.0
 40
0.0034031412115983
100
AcDbArc
 50
8.12264254087859
 51
202.9043136183389
  0
LINE
  5
341
330
1F
100
AcDbEntity
  8
TEXT
100
AcDbLine
 10
32.86889497861095
 20
2.935864181083888
 30
0.0
 11
32.86744969118124
 21
2.924671222671126
 31
0.0
  0
ARC
  5
342
330
1F
100
AcDbEntity
  8
TEXT
100
AcDbCircle
 10
32.86329447017799
 20
2.924890780176166
 30
0.0
 40
0.0041610175539679
100
AcDbArc
 50
183.0246359049376
 51
356.9753640950624
  0
LINE
  5
343
330
1F
100
AcDbEntity
  8
TEXT
100
AcDbLine
 10
32.85913924917459
 20
2.924671222671126
 30
0.0
 11
32.85624865860088
 21
2.918172084476001
 31
0.0
  0
ARC
  5
344
330
1F
100
AcDbEntity
  8
TEXT
100
AcDbCircle
 10
33.14706349433068
 20
2.998833981149765
 30
0.0
 40
0.1144738945523429
100
AcDbArc
 50
273.5403564160084
 51
289.0758016785472
  0
LINE
  5
345
330
1F
100
AcDbEntity
  8
TEXT
100
AcDbLine
 10
33.15413243623145
 20
2.884578554169759
 30
0.0
 11
33.15463820511681
 21
2.879019111046016
 31
0.0
  0
LINE
  5
346
330
1F
100
AcDbEntity
  8
TEXT
100
AcDbLine
 10
33.15463820511681
 20
2.879019111046016
 30
0.0
 11
33.16525934385204
 21
2.878261003682846
 31
0.0
  0
ARC
  5
347
330
1F
100
AcDbEntity
  8
TEXT
100
AcDbCircle
 10
32.79457865808804
 20
3.141606498317293
 30
0.0
 40
0.0061587560171835
100
AcDbArc
 50
32.9363546715885
 51
189.54308541652
  0
ARC
  5
348
330
1F
100
AcDbEntity
  8
TEXT
100
AcDbCircle
 10
32.8043021515645
 20
3.145108649958674
 30
0.0
 40
0.0045571922518075
100
AcDbArc
 50
181.931421762249
 51
21.08009584438615
  0
ARC
  5
349
330
1F
100
AcDbEntity
  8
TEXT
100
AcDbCircle
 10
32.8119474857013
 20
3.146058309829689
 30
0.0
 40
0.0034624499286263
100
AcDbArc
 50
3.320051391017451
 51
168.5145862198274
  0
ARC
  5
34A
330
1F
100
AcDbEntity
  8
TEXT
100
AcDbCircle
 10
32.81930905054213
 20
3.144148404241614
 30
0.0
 40
0.004438733465378
100
AcDbArc
 50
151.6108765070493
 51
6.217261201770565
  0
ARC
  5
34B
330
1F
100
AcDbEntity
  8
TEXT
100
AcDbCircle
 10
32.82724094196831
 20
3.144816868903248
 30
0.0
 40
0.0035242697540112
100
AcDbArc
 50
7.567610287756981
 51
183.0538693842452
  0
ARC
  5
34C
330
1F
100
AcDbEntity
  8
TEXT
100
AcDbCircle
 10
32.8335448882949
 20
3.146804073105438
 30
0.0
 40
0.0031965514544682
100
AcDbArc
 50
208.4553291170884
 51
16.75507449314888
  0
ARC
  5
34D
330
1F
100
AcDbEntity
  8
TEXT
100
AcDbCircle
 10
32.83839898750604
 20
3.144557445346791
 30
0.0
 40
0.0036404435723378
100
AcDbArc
 50
340.2175703033683
 51
119.5111127021391
  0
ARC
  5
34E
330
1F
100
AcDbEntity
  8
TEXT
100
AcDbCircle
 10
32.8470657399637
 20
3.143306012992968
 30
0.0
 40
0.005241186744423
100
AcDbArc
 50
179.7887253899368
 51
338.318548208448
  0
ARC
  5
34F
330
1F
100
AcDbEntity
  8
TEXT
100
AcDbCircle
 10
32.85908580254873
 20
3.137896284326306
 30
0.0
 40
0.0079487332247453
100
AcDbArc
 50
51.76909225767519
 51
154.0890012254448
  0
ARC
  5
350
330
1F
100
AcDbEntity
  8
TEXT
100
AcDbCircle
 10
32.86918231153315
 20
3.145218718385431
 30
0.0
 40
0.0052887149025149
100
AcDbArc
 50
191.7667831442109
 51
294.1224948725079
  0
ARC
  5
351
330
1F
100
AcDbEntity
  8
TEXT
100
AcDbCircle
 10
32.87537530241889
 20
3.141695917156584
 30
0.0
 40
0.0042372175777371
100
AcDbArc
 50
13.33841226381581
 51
197.9246330183021
  0
ARC
  5
352
330
1F
100
AcDbEntity
  8
TEXT
100
AcDbCircle
 10
32.88398932793106
 20
3.142914684561413
 30
0.0
 40
0.0044975833446793
100
AcDbArc
 50
183.0745908828774
 51
5.238726745824511
  0
ARC
  5
353
330
1F
100
AcDbEntity
  8
TEXT
100
AcDbCircle
 10
32.89249372427029
 20
3.143918339325256
 30
0.0
 40
0.0040690419660801
100
AcDbArc
 50
305.0065695459185
 51
188.3798152009964
  0
TEXT
  5
354
330
1F
100
AcDbEntity
  8
TEXT
100
AcDbText
 10
33.57384435268816
 20
2.794724085433414
 30
0.0
 40
0.0470758782679327
  1
724-837-2204  *  1-888-867-8234
 72
     1
 11
34.2839055165628
 21
2.818262024567381
 31
0.0
100
AcDbText
 73
     2
  0
TEXT
  5
355
330
1F
100
AcDbEntity
  8
TEXT
100
AcDbText
 10
33.8916065309967
 20
2.700572328897556
 30
0.0
 40
0.0470758782679327
  1
FAX  724-837-3386
 72
     1
 11
34.2839055165628
 21
2.724110268031523
 31
0.0
100
AcDbText
 73
     2
  0
LINE
  5
356
330
1F
100
AcDbEntity
  8
BORDER
100
AcDbLine
 10
32.61794595048549
 20
2.684095771503769
 30
0.0
 11
35.0554233955494
 21
2.684095771503769
 31
0.0
  0
LINE
  5
357
330
1F
100
AcDbEntity
  8
BORDER
100
AcDbLine
 10
32.61794595048549
 20
1.913968388554415
 30
0.0
 11
32.61794595048549
 21
3.154854554183098
 31
0.0
  0
LINE
  5
358
330
1F
100
AcDbEntity
  8
TEXT
100
AcDbLine
 10
32.88736142797984
 20
2.760818159699524
 30
0.0
 11
32.89541511979438
 21
2.755721164350603
 31
0.0
  0
ARC
  5
359
330
1F
100
AcDbEntity
  8
TEXT
100
AcDbCircle
 10
32.93993871791845
 20
2.814939184918131
 30
0.0
 40
0.0310245554295267
100
AcDbArc
 50
287.1920036507256
 51
335.8997504051577
  0
ARC
  5
35A
330
1F
100
AcDbEntity
  8
TEXT
100
AcDbCircle
 10
33.00200742882488
 20
2.773141871825718
 30
0.0
 40
0.0144323539151078
100
AcDbArc
 50
67.37252950710424
 51
112.6274704928676
  0
ARC
  5
35B
330
1F
100
AcDbEntity
  8
TEXT
100
AcDbCircle
 10
32.99746077155634
 20
2.798076374884935
 30
0.0
 40
0.0203850702949034
100
AcDbArc
 50
330.1916644163658
 51
19.91318758188431
  0
ARC
  5
35C
330
1F
100
AcDbEntity
  8
TEXT
100
AcDbCircle
 10
32.97033927654061
 20
2.809492053136544
 30
0.0
 40
0.0075149480978199
100
AcDbArc
 50
253.9290889125732
 51
38.65267477509575
  0
ARC
  5
35D
330
1F
100
AcDbEntity
  8
TEXT
100
AcDbCircle
 10
33.09806000432138
 20
2.801713593137598
 30
0.0
 40
0.0156144547574394
100
AcDbArc
 50
188.1927496775747
 51
244.8496170020292
  0
ARC
  5
35E
330
1F
100
AcDbEntity
  8
TEXT
100
AcDbCircle
 10
33.09786905509364
 20
2.816828069423009
 30
0.0
 40
0.029950305247923
100
AcDbArc
 50
257.5730930866257
 51
314.4273867462179
  0
LINE
  5
35F
330
1F
100
AcDbEntity
  8
TEXT
100
AcDbLine
 10
33.15005853346769
 20
2.783530392931196
 30
0.0
 11
33.15053523066005
 21
2.78900854120113
 31
0.0
  0
LINE
  5
360
330
1F
100
AcDbEntity
  8
TEXT
100
AcDbLine
 10
33.15053523066005
 20
2.78900854120113
 30
0.0
 11
33.14243126838834
 21
2.788532179266399
 31
0.0
  0
ARC
  5
361
330
1F
100
AcDbEntity
  8
TEXT
100
AcDbCircle
 10
33.14226739382958
 20
2.795134577675304
 30
0.0
 40
0.0066044318166531
100
AcDbArc
 50
155.9964711746263
 51
271.4218156194984
  0
ARC
  5
362
330
1F
100
AcDbEntity
  8
TEXT
100
AcDbCircle
 10
33.19963997817922
 20
2.79836396698868
 30
0.0
 40
0.0154786119857928
100
AcDbArc
 50
203.9135879631607
 51
286.1701931802611
  0
ARC
  5
363
330
1F
100
AcDbEntity
  8
TEXT
100
AcDbCircle
 10
33.20704597039749
 20
2.805131886137664
 30
0.0
 40
0.0218544889272147
100
AcDbArc
 50
261.8576121462839
 51
331.2394802847464
  0
ARC
  5
364
330
1F
100
AcDbEntity
  8
TEXT
100
AcDbCircle
 10
33.20611918618431
 20
2.808527466418101
 30
0.0
 40
0.0244321531616939
100
AcDbArc
 50
325.293903470716
 51
356.4132772462207
  0
ARC
  5
365
330
1F
100
AcDbEntity
  8
TEXT
100
AcDbCircle
 10
33.34298969786971
 20
2.803967205239814
 30
0.0
 40
0.0028673384320092
100
AcDbArc
 50
349.2952029716974
 51
131.6626905469293
  0
ARC
  5
366
330
1F
100
AcDbEntity
  8
TEXT
100
AcDbCircle
 10
33.30671383540674
 20
2.817791156362424
 30
0.0
 40
0.0416460911605504
100
AcDbArc
 50
296.3233923707218
 51
339.8348331475747
  0
ARC
  5
367
330
1F
100
AcDbEntity
  8
TEXT
100
AcDbCircle
 10
33.30214976479424
 20
2.831754202702319
 30
0.0
 40
0.0562243907835031
100
AcDbArc
 50
254.2847830849329
 51
294.1819270465994
  0
ARC
  5
368
330
1F
100
AcDbEntity
  8
TEXT
100
AcDbCircle
 10
33.3122667954577
 20
2.824568104097412
 30
0.0
 40
0.0342218971314216
100
AcDbArc
 50
272.3792098458871
 51
327.3581874363298
  0
ARC
  5
369
330
1F
100
AcDbEntity
  8
TEXT
100
AcDbCircle
 10
33.30870361480905
 20
2.817180720816533
 30
0.0
 40
0.0272643975521846
100
AcDbArc
 50
230.8416488637783
 51
280.5326941523482
  0
ARC
  5
36A
330
1F
100
AcDbEntity
  8
TEXT
100
AcDbCircle
 10
33.31693146801729
 20
2.823896713371676
 30
0.0
 40
0.0377282944655948
100
AcDbArc
 50
179.2959701761241
 51
227.5915484940839
  0
ARC
  5
36B
330
1F
100
AcDbEntity
  8
TEXT
100
AcDbCircle
 10
33.3010191268116
 20
2.813714283011278
 30
0.0
 40
0.0387391789400517
100
AcDbArc
 50
194.1847393568171
 51
248.658676732099
  0
ARC
  5
36C
330
1F
100
AcDbEntity
  8
TEXT
100
AcDbCircle
 10
33.30175451474659
 20
2.814898761074474
 30
0.0
 40
0.039754191555894
100
AcDbArc
 50
148.4692011102813
 51
195.5802361373364
  0
ARC
  5
36D
330
1F
100
AcDbEntity
  8
TEXT
100
AcDbCircle
 10
33.30150534591015
 20
2.816084720035995
 30
0.0
 40
0.038931564444201
100
AcDbArc
 50
108.5416613320868
 51
149.7652339536235
  0
ARC
  5
36E
330
1F
100
AcDbEntity
  8
TEXT
100
AcDbCircle
 10
33.30195746565849
 20
2.784826657594969
 30
0.0
 40
0.0626571008621197
100
AcDbArc
 50
82.99970676553448
 51
97.00029323449177
  0
ARC
  5
36F
330
1F
100
AcDbEntity
  8
TEXT
100
AcDbCircle
 10
33.30392200535154
 20
2.831643059656901
 30
0.0
 40
0.0163864923818733
100
AcDbArc
 50
358.1908821763629
 51
69.74957583403455
  0
ARC
  5
370
330
1F
100
AcDbEntity
  8
TEXT
100
AcDbCircle
 10
33.29922812779539
 20
2.827215197430358
 30
0.0
 40
0.0204004186907141
100
AcDbArc
 50
103.9179608006051
 51
168.948608895047
  0
LINE
  5
371
330
1F
100
AcDbEntity
  8
TEXT
100
AcDbLine
 10
33.2792060217391
 20
2.831125741104268
 30
0.0
 11
33.32030032987198
 21
2.831125741104268
 31
0.0
  0
ARC
  5
372
330
1F
100
AcDbEntity
  8
TEXT
100
AcDbCircle
 10
33.30452287702915
 20
2.801385706675918
 30
0.0
 40
0.0538576827343743
100
AcDbArc
 50
78.15621523986212
 51
106.612240852029
  0
ARC
  5
373
330
1F
100
AcDbEntity
  8
TEXT
100
AcDbCircle
 10
33.31340597823864
 20
2.825683932384151
 30
0.0
 40
0.028495682773577
100
AcDbArc
 50
357.3376237443689
 51
85.63084243886233
  0
LINE
  5
374
330
1F
100
AcDbEntity
  8
TEXT
100
AcDbLine
 10
33.2792060217391
 20
2.82436029334783
 30
0.0
 11
33.34187090255679
 21
2.82436029334783
 31
0.0
  0
ARC
  5
375
330
1F
100
AcDbEntity
  8
TEXT
100
AcDbCircle
 10
33.01598340827899
 20
2.862625488077781
 30
0.0
 40
0.2332111612063455
100
AcDbArc
 50
175.4121316267021
 51
191.7939289657005
  0
ARC
  5
376
330
1F
100
AcDbEntity
  8
TEXT
100
AcDbCircle
 10
32.78723991596085
 20
2.804313337236632
 30
0.0
 40
0.0106553245651547
100
AcDbArc
 50
15.17145974977854
 51
87.54918714298277
  0
ARC
  5
377
330
1F
100
AcDbEntity
  8
TEXT
100
AcDbCircle
 10
33.74922222542894
 20
2.774640052790129
 30
0.0
 40
0.95225182196824
100
AcDbArc
 50
178.0464319449979
 51
181.7502526685598
  0
LINE
  5
378
330
1F
100
AcDbEntity
  8
TEXT
100
AcDbLine
 10
32.80761524416873
 20
2.792684698590143
 30
0.0
 11
32.80723332069543
 21
2.746696196073418
 31
0.0
  0
ARC
  5
379
330
1F
100
AcDbEntity
  8
TEXT
100
AcDbCircle
 10
32.80920935665425
 20
2.793025639096675
 30
0.0
 40
0.0016301641160248
100
AcDbArc
 50
333.6879001367247
 51
192.0722457553464
  0
LINE
  5
37A
330
1F
100
AcDbEntity
  8
TEXT
100
AcDbLine
 10
32.81067062409834
 20
2.792303051730391
 30
0.0
 11
32.81067062409834
 21
2.785433398935405
 31
0.0
  0
ARC
  5
37B
330
1F
100
AcDbEntity
  8
TEXT
100
AcDbCircle
 10
32.81283017744599
 20
2.785931442738273
 30
0.0
 40
0.0022162396735848
100
AcDbArc
 50
192.9866902548889
 51
33.3806313974107
  0
ARC
  5
37C
330
1F
100
AcDbEntity
  8
TEXT
100
AcDbCircle
 10
32.81860977125069
 20
2.784580864401146
 30
0.0
 40
0.0046948225238345
100
AcDbArc
 50
17.66955929970839
 51
146.8111142491889
  0
ARC
  5
37D
330
1F
100
AcDbEntity
  8
TEXT
100
AcDbCircle
 10
32.83331824788874
 20
2.79176842223607
 30
0.0
 40
0.0117458569646464
100
AcDbArc
 50
209.3802246625992
 51
263.8421008682747
  0
LINE
  5
37E
330
1F
100
AcDbEntity
  8
TEXT
100
AcDbLine
 10
32.83205828360514
 20
2.780090338239207
 30
0.0
 11
32.83320404616798
 21
2.764061146830968
 31
0.0
  0
ARC
  5
37F
330
1F
100
AcDbEntity
  8
TEXT
100
AcDbCircle
 10
32.83803571730035
 20
2.76338602971839
 30
0.0
 40
0.0048786093353263
100
AcDbArc
 50
172.045705651638
 51
14.81661014794028
  0
LINE
  5
380
330
1F
100
AcDbEntity
  8
TEXT
100
AcDbLine
 10
32.84275210942998
 20
2.764633617120575
 30
0.0
 11
32.84351595637669
 21
2.771312446485698
 31
0.0
  0
ARC
  5
381
330
1F
100
AcDbEntity
  8
TEXT
100
AcDbCircle
 10
32.84525611301383
 20
2.771515772292559
 30
0.0
 40
0.001751995007331
100
AcDbArc
 50
318.6510821797523
 51
186.6644145786481
  0
LINE
  5
382
330
1F
100
AcDbEntity
  8
TEXT
100
AcDbLine
 10
32.84657133630624
 20
2.770358329336327
 30
0.0
 11
32.84752613713245
 21
2.761580442242618
 31
0.0
  0
ARC
  5
383
330
1F
100
AcDbEntity
  8
TEXT
100
AcDbCircle
 10
32.85079515010199
 20
2.76090447282459
 30
0.0
 40
0.0033381702247627
100
AcDbArc
 50
168.3169857564317
 51
15.04995211452768
  0
LINE
  5
384
330
1F
100
AcDbEntity
  8
TEXT
100
AcDbLine
 10
32.85401882046479
 20
2.761771265672489
 30
0.0
 11
32.85401882046479
 21
2.769022565327221
 31
0.0
  0
ARC
  5
385
330
1F
100
AcDbEntity
  8
TEXT
100
AcDbCircle
 10
32.85836816180494
 20
2.765248507045598
 30
0.0
 40
0.0057584968530113
100
AcDbArc
 50
65.19241843010194
 51
139.0508106988864
  0
ARC
  5
386
330
1F
100
AcDbEntity
  8
TEXT
100
AcDbCircle
 10
32.86207861828664
 20
2.76488757629104
 30
0.0
 40
0.0057359908020059
100
AcDbArc
 50
7.606980527162151
 51
103.0413594591755
  0
LINE
  5
387
330
1F
100
AcDbEntity
  8
TEXT
100
AcDbLine
 10
32.86776412904085
 20
2.765646890418551
 30
0.0
 11
32.87018023029944
 21
2.732382295325479
 31
0.0
  0
LINE
  5
388
330
1F
100
AcDbEntity
  8
TEXT
100
AcDbLine
 10
32.88065002337255
 20
2.733455344525349
 30
0.0
 11
32.88145539569689
 21
2.75974510583985
 31
0.0
  0
ARC
  5
389
330
1F
100
AcDbEntity
  8
TEXT
100
AcDbCircle
 10
32.88436198191889
 20
2.760537180616264
 30
0.0
 40
0.0030125779521125
100
AcDbArc
 50
5.35167838309098
 51
195.2435488026515
  0
LINE
  5
38A
330
1F
100
AcDbEntity
  8
TEXT
100
AcDbLine
 10
32.89541511979438
 20
2.755721164350603
 30
0.0
 11
32.89595203467724
 21
2.739088864474187
 31
0.0
  0
ARC
  5
38B
330
1F
100
AcDbEntity
  8
TEXT
100
AcDbCircle
 10
32.91060444576159
 20
2.751965482831469
 30
0.0
 40
0.0028100783115637
100
AcDbArc
 50
354.5219056877808
 51
214.9448543763661
  0
ARC
  5
38C
330
1F
100
AcDbEntity
  8
TEXT
100
AcDbCircle
 10
32.91838027121175
 20
2.751504896571364
 30
0.0
 40
0.0049822947013846
100
AcDbArc
 50
177.787775166229
 51
326.3805826419286
  0
ARC
  5
38D
330
1F
100
AcDbEntity
  8
TEXT
100
AcDbCircle
 10
32.96985861360623
 20
2.757448483065186
 30
0.0
 40
0.0027250281264738
100
AcDbArc
 50
144.5711585108383
 51
21.75301147888069
  0
LINE
  5
38E
330
1F
100
AcDbEntity
  8
TEXT
100
AcDbLine
 10
32.9723895926843
 20
2.758458395535079
 30
0.0
 11
32.9725796508413
 21
2.772892360664709
 31
0.0
  0
ARC
  5
38F
330
1F
100
AcDbEntity
  8
TEXT
100
AcDbCircle
 10
32.96986482035264
 20
2.771246192697411
 30
0.0
 40
0.0031749289060915
100
AcDbArc
 50
31.23099864076737
 51
160.1819529381847
  0
ARC
  5
390
330
1F
100
AcDbEntity
  8
TEXT
100
AcDbCircle
 10
32.98031282196735
 20
2.76642190782936
 30
0.0
 40
0.0146735996379612
100
AcDbArc
 50
156.2885975497961
 51
210.2571046136517
  0
ARC
  5
391
330
1F
100
AcDbEntity
  8
TEXT
100
AcDbCircle
 10
33.02182797393304
 20
2.743221275774781
 30
0.0
 40
0.0090596925497432
100
AcDbArc
 50
341.5477100758439
 51
84.99888070834812
  0
ARC
  5
392
330
1F
100
AcDbEntity
  8
TEXT
100
AcDbCircle
 10
33.02577236127834
 20
2.732707635934314
 30
0.0
 40
0.0197918643538598
100
AcDbArc
 50
99.17143729877864
 51
127.7955283290885
  0
ARC
  5
393
330
1F
100
AcDbEntity
  8
TEXT
100
AcDbCircle
 10
32.98737395543275
 20
2.750347221775181
 30
0.0
 40
0.0021943599626615
100
AcDbArc
 50
312.7998628402714
 51
120.0581864533223
  0
ARC
  5
394
330
1F
100
AcDbEntity
  8
TEXT
100
AcDbCircle
 10
32.98757674247769
 20
2.757067185026431
 30
0.0
 40
0.0049934106670864
100
AcDbArc
 50
129.1527393458192
 51
254.8870408388436
  0
ARC
  5
395
330
1F
100
AcDbEntity
  8
TEXT
100
AcDbCircle
 10
32.96851697244223
 20
2.773061342880295
 30
0.0
 40
0.0199993368492878
100
AcDbArc
 50
322.6907301981532
 51
8.220255073941011
  0
ARC
  5
396
330
1F
100
AcDbEntity
  8
TEXT
100
AcDbCircle
 10
32.99012046153733
 20
2.777663110073316
 30
0.0
 40
0.0025120352457516
100
AcDbArc
 50
89.05883162362073
 51
223.9137905963087
  0
ARC
  5
397
330
1F
100
AcDbEntity
  8
TEXT
100
AcDbCircle
 10
32.9399471719177
 20
2.836718565651143
 30
0.0
 40
0.0756220728932707
100
AcDbArc
 50
311.6071689301269
 51
318.3515702307968
  0
ARC
  5
398
330
1F
100
AcDbEntity
  8
TEXT
100
AcDbCircle
 10
32.9898296712518
 20
2.779065072948415
 30
0.0
 40
0.0192120293368977
100
AcDbArc
 50
337.3510782224699
 51
22.64892177753004
  0
ARC
  5
399
330
1F
100
AcDbEntity
  8
TEXT
100
AcDbCircle
 10
33.0211994278139
 20
2.769131178415868
 30
0.0
 40
0.0138730229023197
100
AcDbArc
 50
169.468486757319
 51
223.1418439421581
  0
ARC
  5
39A
330
1F
100
AcDbEntity
  8
TEXT
100
AcDbCircle
 10
33.00924178423664
 20
2.767611244273989
 30
0.0
 40
0.0081751407456322
100
AcDbArc
 50
282.9712622282971
 51
25.35441378640237
  0
ARC
  5
39B
330
1F
100
AcDbEntity
  8
TEXT
100
AcDbCircle
 10
33.1023157964483
 20
2.787130861978805
 30
0.0
 40
0.0871708220144838
100
AcDbArc
 50
179.466220207127
 51
190.5890997840366
  0
ARC
  5
39C
330
1F
100
AcDbEntity
  8
TEXT
100
AcDbCircle
 10
32.9512372047769
 20
2.86395192353844
 30
0.0
 40
0.0880276309955736
100
AcDbArc
 50
317.9732863042448
 51
40.61894937560984
  0
ARC
  5
39D
330
1F
100
AcDbEntity
  8
TEXT
100
AcDbCircle
 10
32.93667325465039
 20
2.858670532242622
 30
0.0
 40
0.1067888826413246
100
AcDbArc
 50
153.5374647244076
 51
193.3327646348718
  0
ARC
  5
39E
330
1F
100
AcDbEntity
  8
TEXT
100
AcDbCircle
 10
32.81216336773014
 20
2.82014341708804
 30
0.0
 40
0.0248508721443842
100
AcDbArc
 50
346.9852122362369
 51
34.01252680044434
  0
ARC
  5
39F
330
1F
100
AcDbEntity
  8
TEXT
100
AcDbCircle
 10
32.83294514664659
 20
2.803691308153823
 30
0.0
 40
0.0113848390243053
100
AcDbArc
 50
345.4259909574747
 51
72.46181126870695
  0
ARC
  5
3A0
330
1F
100
AcDbEntity
  8
TEXT
100
AcDbCircle
 10
32.84479109546895
 20
2.77926662292722
 30
0.0
 40
0.0215757861431104
100
AcDbArc
 50
18.24878221231889
 51
92.19784172829085
  0
ARC
  5
3A1
330
1F
100
AcDbEntity
  8
TEXT
100
AcDbCircle
 10
32.86788573969879
 20
2.784866797531939
 30
0.0
 40
0.0028491162904316
100
AcDbArc
 50
156.0593073728619
 51
8.762281217113391
  0
ARC
  5
3A2
330
1F
100
AcDbEntity
  8
TEXT
100
AcDbCircle
 10
32.8740325762452
 20
2.784115313917709
 30
0.0
 40
0.0035356469563608
100
AcDbArc
 50
1.658272028068491
 51
160.4091839300646
  0
ARC
  5
3A3
330
1F
100
AcDbEntity
  8
TEXT
100
AcDbCircle
 10
32.88733151856265
 20
2.791002670053863
 30
0.0
 40
0.0118906529916354
100
AcDbArc
 50
214.7934494581788
 51
299.0409507876052
  0
ARC
  5
3A4
330
1F
100
AcDbEntity
  8
TEXT
100
AcDbCircle
 10
32.90070259055124
 20
2.787700699247333
 30
0.0
 40
0.0103954082588083
100
AcDbArc
 50
223.0305625061276
 51
311.2487591160702
  0
ARC
  5
3A5
330
1F
100
AcDbEntity
  8
TEXT
100
AcDbCircle
 10
32.91345182682885
 20
2.781448471318306
 30
0.0
 40
0.0060990709763576
100
AcDbArc
 50
194.8546182240452
 51
330.4510994340958
  0
ARC
  5
3A6
330
1F
100
AcDbEntity
  8
TEXT
100
AcDbCircle
 10
32.92309350472559
 20
2.763875346738841
 30
0.0
 40
0.0151969381602386
100
AcDbArc
 50
33.6785164748939
 51
106.577550800992
  0
ARC
  5
3A7
330
1F
100
AcDbEntity
  8
TEXT
100
AcDbCircle
 10
32.94007570273898
 20
2.781217263351634
 30
0.0
 40
0.0099132300445648
100
AcDbArc
 50
244.0629515517926
 51
24.32612031265393
  0
ARC
  5
3A8
330
1F
100
AcDbEntity
  8
TEXT
100
AcDbCircle
 10
32.96305127980739
 20
2.836385212808393
 30
0.0
 40
0.0258052564868958
100
AcDbArc
 50
300.6537348898064
 51
16.682459163761
  0
ARC
  5
3A9
330
1F
100
AcDbEntity
  8
TEXT
100
AcDbCircle
 10
32.9130632570426
 20
2.863962565455455
 30
0.0
 40
0.0773819543511766
100
AcDbArc
 50
344.8914411173241
 51
24.57723374822268
  0
LINE
  5
3AA
330
1F
100
AcDbEntity
  8
TEXT
100
AcDbLine
 10
33.05161914108257
 20
2.850697257974711
 30
0.0
 11
33.08212820139973
 21
2.851888158151736
 31
0.0
  0
LINE
  5
3AB
330
1F
100
AcDbEntity
  8
TEXT
100
AcDbLine
 10
33.10524834523389
 20
2.850697257974711
 30
0.0
 11
33.13575740555105
 21
2.851888158151736
 31
0.0
  0
LINE
  5
3AC
330
1F
100
AcDbEntity
  8
TEXT
100
AcDbLine
 10
33.06401344094356
 20
2.841170042579193
 30
0.0
 11
33.06449014599313
 21
2.794963051405811
 31
0.0
  0
LINE
  5
3AD
330
1F
100
AcDbEntity
  8
TEXT
100
AcDbLine
 10
33.08212820139973
 20
2.851888158151736
 30
0.0
 11
33.08260490644946
 21
2.799488475806303
 31
0.0
  0
LINE
  5
3AE
330
1F
100
AcDbEntity
  8
TEXT
100
AcDbLine
 10
33.13575740555105
 20
2.851888158151736
 30
0.0
 11
33.13623411060074
 21
2.797821213694549
 31
0.0
  0
ARC
  5
3AF
330
1F
100
AcDbEntity
  8
TEXT
100
AcDbCircle
 10
33.05843795020513
 20
2.841298266086131
 30
0.0
 40
0.0055769649669123
100
AcDbArc
 50
358.6825606331185
 51
106.4049357729608
  0
LINE
  5
3B0
330
1F
100
AcDbEntity
  8
TEXT
100
AcDbLine
 10
33.05161914108257
 20
2.850697257974711
 30
0.0
 11
33.05185748967874
 21
2.847362729091431
 31
0.0
  0
LINE
  5
3B1
330
1F
100
AcDbEntity
  8
TEXT
100
AcDbLine
 10
33.05686288091378
 20
2.846648190849154
 30
0.0
 11
33.05185748967874
 21
2.847362729091431
 31
0.0
  0
LINE
  5
3B2
330
1F
100
AcDbEntity
  8
TEXT
100
AcDbLine
 10
33.10524834523389
 20
2.850697257974711
 30
0.0
 11
33.10500999663769
 21
2.846171828914428
 31
0.0
  0
LINE
  5
3B3
330
1F
100
AcDbEntity
  8
TEXT
100
AcDbLine
 10
33.10500999663769
 20
2.846171828914428
 30
0.0
 11
33.11359067181614
 21
2.845695466979701
 31
0.0
  0
LINE
  5
3B4
330
1F
100
AcDbEntity
  8
TEXT
100
AcDbLine
 10
33.11883441164744
 20
2.795439413340524
 30
0.0
 11
33.1185960630513
 21
2.840931861611846
 31
0.0
  0
ARC
  5
3B5
330
1F
100
AcDbEntity
  8
TEXT
100
AcDbCircle
 10
33.1151897221154
 20
2.842364152737417
 30
0.0
 40
0.003695215344201
100
AcDbArc
 50
337.1943218370192
 51
115.6412778855219
  0
ARC
  5
3B6
330
1F
100
AcDbEntity
  8
TEXT
100
AcDbCircle
 10
33.08283315704905
 20
2.795205961071427
 30
0.0
 40
0.0183446193664809
100
AcDbArc
 50
180.7587023263156
 51
270.031539090728
  0
ARC
  5
3B7
330
1F
100
AcDbEntity
  8
TEXT
100
AcDbCircle
 10
33.09008267277079
 20
2.818339313015228
 30
0.0
 40
0.0421050002073201
100
AcDbArc
 50
260.0995263030863
 51
313.0673878832376
  0
LINE
  5
3B8
330
1F
100
AcDbEntity
  8
TEXT
100
AcDbLine
 10
33.11883441164744
 20
2.78757946005675
 30
0.0
 11
33.11907276810085
 21
2.778528606595969
 31
0.0
  0
ARC
  5
3B9
330
1F
100
AcDbEntity
  8
TEXT
100
AcDbCircle
 10
33.12189124745085
 20
2.7796502501
 30
0.0
 40
0.0030334650148434
100
AcDbArc
 50
201.7006027724349
 51
343.067867706764
  0
ARC
  5
3BA
330
1F
100
AcDbEntity
  8
TEXT
100
AcDbCircle
 10
33.14818030815114
 20
2.724108969187639
 30
0.0
 40
0.0594511003266494
100
AcDbArc
 50
88.18956599986867
 51
113.1652090520277
  0
LINE
  5
3BB
330
1F
100
AcDbEntity
  8
TEXT
100
AcDbLine
 10
33.16525934385204
 20
2.878261003682846
 30
0.0
 11
33.16702953495069
 21
2.786530133893709
 31
0.0
  0
LINE
  5
3BC
330
1F
100
AcDbEntity
  8
TEXT
100
AcDbLine
 10
33.18447571285839
 20
2.890646188683057
 30
0.0
 11
33.18498432252359
 21
2.844904326301236
 31
0.0
  0
LINE
  5
3BD
330
1F
100
AcDbEntity
  8
TEXT
100
AcDbLine
 10
33.18523719910898
 20
2.835554346361636
 30
0.0
 11
33.18549008355174
 21
2.792089581677255
 31
0.0
  0
ARC
  5
3BE
330
1F
100
AcDbEntity
  8
TEXT
100
AcDbCircle
 10
33.21475694048833
 20
2.805555660537005
 30
0.0
 40
0.0493429455738176
100
AcDbArc
 50
71.07988584763332
 51
127.1124618564786
  0
ARC
  5
3BF
330
1F
100
AcDbEntity
  8
TEXT
100
AcDbCircle
 10
33.21479323047065
 20
2.821733922826139
 30
0.0
 40
0.0344237742955207
100
AcDbArc
 50
359.8698564192901
 51
62.3723149018686
  0
ARC
  5
3C0
330
1F
100
AcDbEntity
  8
TEXT
100
AcDbCircle
 10
33.20085286635765
 20
2.825322892458397
 30
0.0
 40
0.0186690040599928
100
AcDbArc
 50
78.8707586499092
 51
146.7670066549813
  0
ARC
  5
3C1
330
1F
100
AcDbEntity
  8
TEXT
100
AcDbCircle
 10
33.20649610693813
 20
2.821998394953619
 30
0.0
 40
0.0217383211016773
100
AcDbArc
 50
21.58325850317424
 51
95.38396011115386
  0
ARC
  5
3C2
330
1F
100
AcDbEntity
  8
TEXT
100
AcDbCircle
 10
33.20479204623364
 20
2.814568611569671
 30
0.0
 40
0.0268025531142399
100
AcDbArc
 50
343.5952529167642
 51
35.13836089168539
  0
ARC
  5
3C3
330
1F
100
AcDbEntity
  8
TEXT
100
AcDbCircle
 10
33.19613483311994
 20
2.823375331122238
 30
0.0
 40
0.0469540939677032
100
AcDbArc
 50
231.6935697703574
 51
269.6626044169057
  0
ARC
  5
3C4
330
1F
100
AcDbEntity
  8
TEXT
100
AcDbCircle
 10
33.20100254996834
 20
2.831524295132434
 30
0.0
 40
0.0553418485341479
100
AcDbArc
 50
264.6664639047714
 51
308.6423664458057
  0
ARC
  5
3C5
330
1F
100
AcDbEntity
  8
TEXT
100
AcDbCircle
 10
33.20746582103403
 20
2.819274453922506
 30
0.0
 40
0.041818947989626
100
AcDbArc
 50
312.2086974257942
 51
3.26433362995777
  0
ARC
  5
3C6
330
1F
100
AcDbEntity
  8
TEXT
100
AcDbCircle
 10
32.80185708785011
 20
2.750144804010634
 30
0.0
 40
0.0063872354201114
100
AcDbArc
 50
225.9317407160089
 51
327.3216812937306
  0
ARC
  5
3C7
330
1F
100
AcDbEntity
  8
TEXT
100
AcDbCircle
 10
32.87559083943854
 20
2.731204383543055
 30
0.0
 40
0.0055373429930368
100
AcDbArc
 50
167.7181143692788
 51
23.98551077366608
  0
ARC
  5
3C8
330
1F
100
AcDbEntity
  8
TEXT
100
AcDbCircle
 10
32.90257738800394
 20
2.738007160038218
 30
0.0
 40
0.006713076134731
100
AcDbArc
 50
170.7272794785954
 51
21.15794103947638
  0
LINE
  5
3C9
330
1F
100
AcDbEntity
  8
TEXT
100
AcDbLine
 10
32.90883792900894
 20
2.740430178303923
 30
0.0
 11
32.90830101412608
 21
2.750355904371868
 31
0.0
  0
LINE
  5
3CA
330
1F
100
AcDbEntity
  8
TEXT
100
AcDbLine
 10
32.92252919566499
 20
2.748746330572043
 30
0.0
 11
32.92521376222218
 21
2.734796658355103
 31
0.0
  0
ARC
  5
3CB
330
1F
100
AcDbEntity
  8
TEXT
100
AcDbCircle
 10
32.92851257952181
 20
2.73413612544256
 30
0.0
 40
0.003364297743111
100
AcDbArc
 50
168.6772178130367
 51
20.84321825743614
  0
LINE
  5
3CC
330
1F
100
AcDbEntity
  8
TEXT
100
AcDbLine
 10
32.93165670938804
 20
2.735333182955038
 30
0.0
 11
32.93165670938804
 21
2.744722384423019
 31
0.0
  0
ARC
  5
3CD
330
1F
100
AcDbEntity
  8
TEXT
100
AcDbCircle
 10
32.93595005988304
 20
2.744299186307205
 30
0.0
 40
0.0043141575212708
100
AcDbArc
 50
354.9255052590734
 51
174.3705062402905
  0
LINE
  5
3CE
330
1F
100
AcDbEntity
  8
TEXT
100
AcDbLine
 10
32.94024730822824
 20
2.743917595193223
 30
0.0
 11
32.94132113013684
 21
2.717627833878696
 31
0.0
  0
ARC
  5
3CF
330
1F
100
AcDbEntity
  8
TEXT
100
AcDbCircle
 10
32.94667917539009
 20
2.718178068268001
 30
0.0
 40
0.0053862237996347
100
AcDbArc
 50
185.8633287467241
 51
2.70882780951028
  0
LINE
  5
3D0
330
1F
100
AcDbEntity
  8
TEXT
100
AcDbLine
 10
32.95205938065139
 20
2.718432623108514
 30
0.0
 11
32.94991173683424
 21
2.740161918333864
 31
0.0
  0
LINE
  5
3D1
330
1F
100
AcDbEntity
  8
TEXT
100
AcDbLine
 10
32.94991173683424
 20
2.740161918333864
 30
0.0
 11
32.95232783809279
 21
2.734528398385013
 31
0.0
  0
ARC
  5
3D2
330
1F
100
AcDbEntity
  8
TEXT
100
AcDbCircle
 10
32.95586066503304
 20
2.736463111208681
 30
0.0
 40
0.0040279001849355
100
AcDbArc
 50
208.7068196476591
 51
351.5282258973482
  0
LINE
  5
3D3
330
1F
100
AcDbEntity
  8
TEXT
100
AcDbLine
 10
32.95984461502444
 20
2.735869712214764
 30
0.0
 11
32.95957615758293
 21
2.739893653703986
 31
0.0
  0
ARC
  5
3D4
330
1F
100
AcDbEntity
  8
TEXT
100
AcDbCircle
 10
32.96499651609548
 20
2.738356170775118
 30
0.0
 40
0.0056341938341729
100
AcDbArc
 50
7.472141028409422
 51
164.1640293291654
  0
LINE
  5
3D5
330
1F
100
AcDbEntity
  8
TEXT
100
AcDbLine
 10
32.97058286553899
 20
2.739088864474187
 30
0.0
 11
32.97326742423898
 21
2.716823049308699
 31
0.0
  0
ARC
  5
3D6
330
1F
100
AcDbEntity
  8
TEXT
100
AcDbCircle
 10
32.97850561925189
 20
2.715482166252526
 30
0.0
 40
0.0054070929679049
100
AcDbArc
 50
165.6416373021034
 51
23.37981978601165
  0
LINE
  5
3D7
330
1F
100
AcDbEntity
  8
TEXT
100
AcDbLine
 10
32.98346875987069
 20
2.717627833878696
 30
0.0
 11
32.98265270173484
 21
2.737567127885994
 31
0.0
  0
ARC
  5
3D8
330
1F
100
AcDbEntity
  8
TEXT
100
AcDbCircle
 10
32.98418632610735
 20
2.739221521677851
 30
0.0
 40
0.0022558861971484
100
AcDbArc
 50
60.02231951668161
 51
227.1694577924203
  0
LINE
  5
3D9
330
1F
100
AcDbEntity
  8
TEXT
100
AcDbLine
 10
32.98531350807606
 20
2.741175615673558
 30
0.0
 11
32.99452288611498
 21
2.73976885962629
 31
0.0
  0
ARC
  5
3DA
330
1F
100
AcDbEntity
  8
TEXT
100
AcDbCircle
 10
32.99382345771583
 20
2.735745303656595
 30
0.0
 40
0.0040838955333029
100
AcDbArc
 50
327.150434122171
 51
80.13862259361689
  0
LINE
  5
3DB
330
1F
100
AcDbEntity
  8
TEXT
100
AcDbLine
 10
32.99725432881279
 20
2.73353005508311
 30
0.0
 11
32.99862005409034
 21
2.694732461225771
 31
0.0
  0
LINE
  5
3DC
330
1F
100
AcDbEntity
  8
TEXT
100
AcDbLine
 10
33.01013114806205
 20
2.695512315870988
 30
0.0
 11
33.01032625055059
 21
2.734894793722574
 31
0.0
  0
ARC
  5
3DD
330
1F
100
AcDbEntity
  8
TEXT
100
AcDbCircle
 10
33.01339705879995
 20
2.735167851655897
 30
0.0
 40
0.0030829245756307
100
AcDbArc
 50
32.94435831944419
 51
185.0814072168599
  0
ARC
  5
3DE
330
1F
100
AcDbEntity
  8
TEXT
100
AcDbCircle
 10
33.02221734977495
 20
2.742654395605825
 30
0.0
 40
0.0085209966413739
100
AcDbArc
 50
222.9877626572478
 51
344.3358851615499
  0
ARC
  5
3DF
330
1F
100
AcDbEntity
  8
TEXT
100
AcDbCircle
 10
33.01037407560939
 20
2.750010110335448
 30
0.0
 40
0.003667576245984
100
AcDbArc
 50
193.9319034609807
 51
333.0378283509288
  0
ARC
  5
3E0
330
1F
100
AcDbEntity
  8
TEXT
100
AcDbCircle
 10
33.00366033882676
 20
2.74551457703401
 30
0.0
 40
0.004795640653703
100
AcDbArc
 50
48.87596376792747
 51
143.7953529790141
  0
ARC
  5
3E1
330
1F
100
AcDbEntity
  8
TEXT
100
AcDbCircle
 10
32.99449312266944
 20
2.753174996814415
 30
0.0
 40
0.0071673897835325
100
AcDbArc
 50
218.2556843178732
 51
317.6564247238754
  0
ARC
  5
3E2
330
1F
100
AcDbEntity
  8
TEXT
100
AcDbCircle
 10
33.00442110935929
 20
2.694450660648456
 30
0.0
 40
0.0058078958150246
100
AcDbArc
 50
177.2189023070876
 51
10.53261226457852
  0
LINE
  5
3E3
330
1F
100
AcDbEntity
  8
0
100
AcDbLine
 10
35.0554233955494
 20
29.27159712983971
 30
0.0
 11
14.24493094894895
 21
29.27159712983968
 31
0.0
  0
DIMENSION
  5
67A
330
1F
100
AcDbEntity
  8
0
100
AcDbDimension
280
     0
  2
*D57
 10
26.29744872187923
 20
14.64398751948651
 30
0.0
 11
20.69614369222212
 21
13.48212215258116
 31
0.0
 70
   163
 71
     5
 42
1.249999999999982
 73
     0
 74
     0
 75
     0
  3
Standard
100
AcDbDiametricDimension
 15
25.0735023182045
 25
14.39010723090222
 35
0.0
 40
0.0
  0
DIMENSION
  5
67B
330
1F
100
AcDbEntity
  8
0
100
AcDbDimension
280
     0
  2
*D58
 10
21.53980561780855
 20
8.024921918678856
 30
0.0
 11
19.74684045907965
 21
8.02492191867887
 31
0.0
 70
    38
 71
     5
 42
0.0
 73
     0
 74
     0
 75
     0
  3
Standard
100
AcDbOrdinateDimension
 13
21.53980561780855
 23
8.024921918678856
 33
0.0
 14
20.55850712574632
 24
8.02492191867887
 34
0.0
  0
DIMENSION
  5
67C
330
1F
100
AcDbEntity
  8
0
100
AcDbDimension
280
     0
  2
*D59
 10
21.53980561780855
 20
8.024921918678856
 30
0.0
 11
21.53980561780855
 21
6.201443873634777
 31
0.0
 70
   102
 71
     5
 42
0.0
 73
     0
 74
     0
 75
     0
  3
Standard
100
AcDbOrdinateDimension
 13
21.53980561780855
 23
8.024921918678856
 33
0.0
 14
21.53980561780855
 24
7.01311054030144
 34
0.0
  0
DIMENSION
  5
67D
330
1F
100
AcDbEntity
  8
0
100
AcDbDimension
280
     0
  2
*D60
 10
21.53980561780855
 20
8.024921918678856
 30
0.0
 11
29.73523903164087
 21
13.68572566588423
 31
0.0
 70
    38
  1
<> (2) 
 71
     5
 42
5.660803747205378
 73
     0
 74
     0
 75
     0
  3
Standard
100
AcDbOrdinateDimension
 13
26.06736486008849
 23
13.68572566588423
 33
0.0
 14
28.12973903164087
 24
13.68572566588423
 34
0.0
  0
DIMENSION
  5
67E
330
1F
100
AcDbEntity
  8
0
100
AcDbDimension
280
     0
  2
*D61
 10
21.53980561780855
 20
8.024921918678856
 30
0.0
 11
29.51450712574624
 21
14.51704737519436
 31
0.0
 70
    38
 71
     5
 42
6.492125456515509
 73
     0
 74
     0
 75
     0
  3
Standard
100
AcDbOrdinateDimension
 13
25.68547552004185
 23
14.51704737519436
 33
0.0
 14
28.55850712574625
 24
14.51704737519436
 34
0.0
  0
DIMENSION
  5
67F
330
1F
100
AcDbEntity
  8
0
100
AcDbDimension
280
     0
  2
*D62
 10
21.53980561780855
 20
8.024921918678856
 30
0.0
 11
26.06736486008856
 21
5.335443873634778
 31
0.0
 70
   102
  1
(2) <>
 71
     5
 42
4.527559242279934
 73
     0
 74
     0
 75
     0
  3
Standard
100
AcDbOrdinateDimension
 13
26.06736486008849
 23
9.158725665884233
 33
0.0
 14
26.06736486008856
 24
7.01311054030144
 34
0.0
  0
DIMENSION
  5
680
330
1F
100
AcDbEntity
  8
0
100
AcDbDimension
280
     0
  2
*D63
 10
21.53980561780855
 20
8.024921918678856
 30
0.0
 11
23.50830955326305
 21
5.407610540301443
 31
0.0
 70
   102
  1
(2) <>
 71
     5
 42
1.968503935454435
 73
     0
 74
     0
 75
     0
  3
Standard
100
AcDbOrdinateDimension
 13
23.50830955326299
 23
9.158725665884233
 33
0.0
 14
23.50830955326305
 24
7.01311054030144
 34
0.0
  0
DIMENSION
  5
681
330
1F
100
AcDbEntity
  8
0
100
AcDbDimension
280
     0
  2
*D64
 10
21.53980561780855
 20
8.024921918678856
 30
0.0
 11
25.68547552004185
 21
16.75918535193387
 31
0.0
 70
   102
 71
     5
 42
4.145669902233294
 73
     0
 74
     0
 75
     0
  3
Standard
100
AcDbOrdinateDimension
 13
25.68547552004185
 23
14.51704737519436
 33
0.0
 14
25.68547552004185
 24
15.87535201860054
 34
0.0
  0
DIMENSION
  5
682
330
1F
100
AcDbEntity
  8
0
100
AcDbDimension
280
     0
  2
*D65
 10
21.53980561780855
 20
8.024921918678856
 30
0.0
 11
27.13035694708725
 21
17.14968750539379
 31
0.0
 70
   102
 71
     5
 42
5.590551329278696
 73
     0
 74
     0
 75
     0
  3
Standard
100
AcDbOrdinateDimension
 13
27.13035694708725
 23
18.89992083872711
 33
0.0
 14
27.13035694708725
 24
18.03352083872711
 34
0.0
  0
DIMENSION
  5
683
330
1F
100
AcDbEntity
  8
0
100
AcDbDimension
280
     0
  2
*D66
 10
21.53980561780855
 20
8.024921918678856
 30
0.0
 11
21.93350716783863
 21
17.11360417206045
 31
0.0
 70
   102
 71
     5
 42
0.3937015500300731
 73
     0
 74
     0
 75
     0
  3
Standard
100
AcDbOrdinateDimension
 13
21.93350716783863
 23
18.89992083872711
 33
0.0
 14
21.93350716783863
 24
18.03352083872711
 34
0.0
  0
DIMENSION
  5
684
330
1F
100
AcDbEntity
  8
0
100
AcDbDimension
280
     0
  2
*D67
 10
21.53980561780855
 20
8.024921918678856
 30
0.0
 11
30.38050712574632
 21
22.51311054030141
 31
0.0
 70
    38
  1
<> (2)
 71
     5
 42
14.48818862162255
 73
     0
 74
     0
 75
     0
  3
Standard
100
AcDbOrdinateDimension
 13
26.93350712574632
 23
22.51311054030141
 33
0.0
 14
28.55850712574632
 24
22.51311054030141
 34
0.0
  0
DIMENSION
  5
685
330
1F
100
AcDbEntity
  8
0
100
AcDbDimension
280
     0
  2
*D68
 10
21.53980561780855
 20
8.024921918678856
 30
0.0
 11
19.56642379241295
 21
21.69854427155482
 31
0.0
 70
    38
 71
     5
 42
13.99999892004823
 73
     0
 74
     0
 75
     0
  3
Standard
100
AcDbOrdinateDimension
 13
21.93350716783861
 23
22.02492083872709
 33
0.0
 14
20.55850712574629
 24
21.69854427155482
 34
0.0
  0
DIMENSION
  5
686
330
1F
100
AcDbEntity
  8
0
100
AcDbDimension
280
     0
  2
*D69
 10
21.53980561780855
 20
8.024921918678856
 30
0.0
 11
19.49425712574631
 21
18.89992083872711
 31
0.0
 70
    38
 71
     5
 42
10.87499892004825
 73
     0
 74
     0
 75
     0
  3
Standard
100
AcDbOrdinateDimension
 13
21.93350716783863
 23
18.89992083872711
 33
0.0
 14
20.55850712574632
 24
18.89992083872711
 34
0.0
  0
DIMENSION
  5
687
330
1F
100
AcDbEntity
  8
0
100
AcDbDimension
280
     0
  2
*D70
 10
21.53980561780855
 20
8.024921918678856
 30
0.0
 11
22.13035698917957
 21
24.86086054030145
 31
0.0
 70
   102
 71
     5
 42
0.5905513713710207
 73
     0
 74
     0
 75
     0
  3
Standard
100
AcDbOrdinateDimension
 13
22.13035698917957
 23
22.51311054030141
 33
0.0
 14
22.13035698917957
 24
24.01311054030144
 34
0.0
  0
DIMENSION
  5
688
330
1F
100
AcDbEntity
  8
0
100
AcDbDimension
280
     0
  2
*D71
 10
21.53980561780855
 20
8.024921918678856
 30
0.0
 11
26.93350712574631
 21
24.96911054030145
 31
0.0
 70
   102
 71
     5
 42
5.393701507937763
 73
     0
 74
     0
 75
     0
  3
Standard
100
AcDbOrdinateDimension
 13
26.93350712574632
 23
22.51311054030141
 33
0.0
 14
26.93350712574632
 24
24.01311054030144
 34
0.0
  0
DIMENSION
  5
689
330
1F
100
AcDbEntity
  8
0
100
AcDbDimension
280
     0
  2
*D72
 10
21.53980561780855
 20
8.024921918678856
 30
0.0
 11
19.56642379241298
 21
23.36071505731041
 31
0.0
 70
    38
 71
     5
 42
14.99999892004825
 73
     0
 74
     0
 75
     0
  3
Standard
100
AcDbOrdinateDimension
 13
21.53980561780855
 23
23.02492083872711
 33
0.0
 14
20.55850712574632
 24
23.36071505731041
 34
0.0
  0
DIMENSION
  5
68A
330
1F
100
AcDbEntity
  8
0
100
AcDbDimension
280
     0
  2
*D73
 10
23.66842815621888
 20
13.78328735399715
 30
0.0
 11
18.83724369222208
 21
12.2362006195652
 31
0.0
 70
   163
  1
<> (6)
 71
     5
 42
0.3750000000000178
 73
     0
 74
     0
 75
     0
  3
Standard
100
AcDbDiametricDimension
 15
23.34819095030704
 25
13.58816397777126
 35
0.0
 40
0.0
  0
CIRCLE
  5
68B
330
1F
100
AcDbEntity
  8
0
100
AcDbCircle
 10
26.93350712574632
 20
22.51311054030141
 30
0.0
 40
0.1875
  0
LINE
  5
68C
330
1F
100
AcDbEntity
  8
0
100
AcDbLine
 10
27.13035694708725
 20
22.02492083872709
 30
0.0
 11
26.38035694708725
 21
22.02492083872709
 31
0.0
  0
LINE
  5
68D
330
1F
100
AcDbEntity
  8
0
100
AcDbLine
 10
22.68350716783863
 20
22.02492083872709
 30
0.0
 11
21.93350716783863
 21
22.02492083872709
 31
0.0
  0
LINE
  5
68E
330
1F
100
AcDbEntity
  8
0
100
AcDbLine
 10
21.93350716783863
 20
18.89992083872711
 30
0.0
 11
27.13035694708725
 21
18.89992083872711
 31
0.0
  0
LINE
  5
68F
330
1F
100
AcDbEntity
  8
0
  6
HIDDEN
100
AcDbLine
 10
27.52405849711731
 20
8.024921918678856
 30
0.0
 11
21.53980561780855
 21
8.024921918678856
 31
0.0
  0
LINE
  5
690
330
1F
100
AcDbEntity
  8
0
  6
HIDDEN
100
AcDbLine
 10
21.53980561780855
 20
23.02492083872711
 30
0.0
 11
21.53980561780855
 21
8.024921918678856
 31
0.0
  0
LINE
  5
691
330
1F
100
AcDbEntity
  8
0
  6
HIDDEN
100
AcDbLine
 10
27.52405849711731
 20
23.02492083872711
 30
0.0
 11
27.52405849711731
 21
8.024921918678856
 31
0.0
  0
LINE
  5
692
330
1F
100
AcDbEntity
  8
0
  6
HIDDEN
100
AcDbLine
 10
27.52405849711731
 20
23.02492083872711
 30
0.0
 11
21.53980561780855
 21
23.02492083872711
 31
0.0
  0
LINE
  5
693
330
1F
100
AcDbEntity
  8
0
100
AcDbLine
 10
21.93350716783863
 20
18.89992083872711
 30
0.0
 11
21.93350716783863
 21
22.02492083872709
 31
0.0
  0
LINE
  5
694
330
1F
100
AcDbEntity
  8
0
100
AcDbLine
 10
27.13035694708725
 20
18.89992083872711
 30
0.0
 11
27.13035694708725
 21
22.02492083872709
 31
0.0
  0
CIRCLE
  5
695
330
1F
100
AcDbEntity
  8
0
100
AcDbCircle
 10
25.68547552004185
 20
14.51704737519436
 30
0.0
 40
0.625
  0
CIRCLE
  5
696
330
1F
100
AcDbEntity
  8
0
100
AcDbCircle
 10
23.50830955326299
 20
13.68572566588423
 30
0.0
 40
0.1875
  0
CIRCLE
  5
697
330
1F
100
AcDbEntity
  8
0
100
AcDbCircle
 10
26.06736486008849
 20
13.68572566588423
 30
0.0
 40
0.1875
  0
CIRCLE
  5
698
330
1F
100
AcDbEntity
  8
0
100
AcDbCircle
 10
22.13035698917957
 20
22.51311054030141
 30
0.0
 40
0.1875
  0
DIMENSION
  5
699
330
1F
100
AcDbEntity
  8
0
100
AcDbDimension
280
     0
  2
*D56
 10
21.53980561780855
 20
8.024921918678856
 30
0.0
 11
27.5240584971173
 21
24.96911054030145
 31
0.0
 70
   102
 71
     5
 42
5.984252879308755
 73
     0
 74
     0
 75
     0
  3
Standard
100
AcDbOrdinateDimension
 13
27.52405849711731
 23
23.02492083872711
 33
0.0
 14
27.52405849711731
 24
24.01311054030144
 34
0.0
  0
CIRCLE
  5
69A
330
1F
100
AcDbEntity
  8
0
100
AcDbCircle
 10
23.50830955326299
 20
9.158725665884233
 30
0.0
 40
0.1875
  0
CIRCLE
  5
69B
102
{ACAD_REACTORS
330
6A3
102
}
330
1F
100
AcDbEntity
  8
0
100
AcDbCircle
 10
26.06736486008849
 20
9.158725665884233
 30
0.0
 40
0.1875
  0
LINE
  5
69C
330
1F
100
AcDbEntity
  8
0
 62
     7
100
AcDbLine
 10
21.93350716783863
 20
22.02492083872709
 30
0.0
 11
22.68350716783863
 21
22.02492083872709
 31
0.0
  0
LINE
  5
69D
330
1F
100
AcDbEntity
  8
0
 62
     7
100
AcDbLine
 10
22.68350716783863
 20
22.02492083872709
 30
0.0
 11
22.68350716783863
 21
22.52492083872708
 31
0.0
  0
LINE
  5
69E
330
1F
100
AcDbEntity
  8
0
 62
     7
100
AcDbLine
 10
27.13035694708725
 20
22.02492083872709
 30
0.0
 11
26.38035694708725
 21
22.02492083872709
 31
0.0
  0
LINE
  5
69F
330
1F
100
AcDbEntity
  8
0
 62
     7
100
AcDbLine
 10
26.38035694708725
 20
22.02492083872709
 30
0.0
 11
26.38035694708725
 21
22.52492083872708
 31
0.0
  0
LINE
  5
6A0
102
{ACAD_REACTORS
330
859
330
869
330
879
102
}
330
1F
100
AcDbEntity
  8
0
 62
     7
100
AcDbLine
 10
26.38035694708725
 20
22.52492083872708
 30
0.0
 11
22.68350716783863
 21
22.52492083872708
 31
0.0
  0
DIMENSION
  5
6A1
102
{ACAD_XDICTIONARY
360
6A2
102
}
102
{ACAD_REACTORS
330
6A3
102
}
330
1F
100
AcDbEntity
  8
0
 62
     7
100
AcDbDimension
280
     0
  2
*D74
 10
21.53980561780855
 20
8.024921918678856
 30
0.0
 11
30.53487463735181
 21
9.158725665884233
 31
0.0
 70
    38
  1
<> (2)
 71
     5
 42
1.133803747205377
 73
     0
 74
     0
 75
     0
  3
Standard
100
AcDbOrdinateDimension
 13
26.06736486008849
 23
9.158725665884233
 33
0.0
 14
29.00154130401848
 24
9.158725665884233
 34
0.0
  0
LINE
  5
7BD
330
1F
100
AcDbEntity
  8
BORDER
100
AcDbLine
 10
18.38760815427526
 20
2.365896841782542
 30
0.0
 11
18.38760815427526
 21
2.516539652239948
 31
0.0
  0
LINE
  5
7BE
330
1F
100
AcDbEntity
  8
BORDER
100
AcDbLine
 10
17.7247797882627
 20
2.365896841782542
 30
0.0
 11
17.7247797882627
 21
2.516539652239948
 31
0.0
  0
TEXT
  5
7C0
330
1F
100
AcDbEntity
  8
TEXT
100
AcDbText
 10
15.18299620098282
 20
2.403557544396881
 30
0.0
 40
0.0753214052286923
  1
 ADJUSTED AIR FLOW CUTOUT
 72
     1
 11
16.1496209014177
 21
2.441218247011228
 31
0.0
100
AcDbText
 73
     2
  0
LINE
  5
7C2
330
1F
100
AcDbEntity
  8
BORDER
100
AcDbLine
 10
19.13946739921849
 20
2.365896841782542
 30
0.0
 11
14.24493086669717
 21
2.365896841782542
 31
0.0
  0
LINE
  5
7C3
330
1F
100
AcDbEntity
  8
BORDER
100
AcDbLine
 10
14.57446201457272
 20
2.365896841782542
 30
0.0
 11
14.57446201457272
 21
2.516539652239948
 31
0.0
  0
TEXT
  5
7D3
330
1F
100
AcDbEntity
  8
TEXT
100
AcDbText
 10
14.39714279084497
 20
2.552570600173239
 30
0.0
 40
0.0753214052286923
  1
1
 72
     1
 11
14.40969635838308
 21
2.590231302787585
 31
0.0
100
AcDbText
 73
     2
  0
TEXT
  5
7D4
330
1F
100
AcDbEntity
  8
TEXT
100
AcDbText
 10
18.66310915419008
 20
2.554200376710194
 30
0.0
 40
0.0753214052286923
  1
RCC
 72
     1
 11
18.763537694495
 21
2.59186107932454
 31
0.0
100
AcDbText
 73
     2
  0
LINE
  5
7D5
330
1F
100
AcDbEntity
  8
BORDER
100
AcDbLine
 10
18.38760807202348
 20
2.516539674095854
 30
0.0
 11
18.38760807202348
 21
2.667182484553261
 31
0.0
  0
LINE
  5
7D6
330
1F
100
AcDbEntity
  8
BORDER
100
AcDbLine
 10
17.72477970601092
 20
2.516539674095854
 30
0.0
 11
17.72477970601092
 21
2.667182484553261
 31
0.0
  0
TEXT
  5
7D7
330
1F
100
AcDbEntity
  8
TEXT
100
AcDbText
 10
17.83650645710017
 20
2.554200376710194
 30
0.0
 40
0.0753214052286923
  1
10-6-16
 72
     1
 11
18.05619388901719
 21
2.59186107932454
 31
0.0
100
AcDbText
 73
     2
  0
TEXT
  5
7D8
330
1F
100
AcDbEntity
  8
TEXT
100
AcDbText
 10
15.38385319934089
 20
2.554200376710194
 30
0.0
 40
0.0753214052286923
  1
ADDED (2) 0.375" HOLES,
 72
     1
 11
16.14962081916592
 21
2.59186107932454
 31
0.0
100
AcDbText
 73
     2
  0
LINE
  5
7D9
330
1F
100
AcDbEntity
  8
BORDER
100
AcDbLine
 10
19.13946731696671
 20
2.667182484553261
 30
0.0
 11
14.24493078444539
 21
2.667182484553261
 31
0.0
  0
LINE
  5
7DB
330
1F
100
AcDbEntity
  8
BORDER
100
AcDbLine
 10
14.57446193232094
 20
2.516539674095854
 30
0.0
 11
14.57446193232094
 21
2.667182484553261
 31
0.0
  0
DIMENSION
  5
84A
102
{ACAD_XDICTIONARY
360
853
102
}
102
{ACAD_REACTORS
330
859
102
}
330
1F
100
AcDbEntity
  8
0
100
AcDbDimension
280
     0
  2
*D75
 10
21.53980561780855
 20
8.024921918678856
 30
0.0
 11
22.68350716783862
 21
24.90469285821174
 31
0.0
 70
   102
 71
     5
 42
1.143701550030073
 73
     0
 74
     0
 75
     0
  3
Standard
100
AcDbOrdinateDimension
 13
22.68350716783863
 23
22.52492083872708
 33
0.0
 14
22.68350716783863
 24
24.09302619154507
 34
0.0
  0
DIMENSION
  5
85A
102
{ACAD_XDICTIONARY
360
863
102
}
102
{ACAD_REACTORS
330
869
102
}
330
1F
100
AcDbEntity
  8
0
100
AcDbDimension
280
     0
  2
*D76
 10
21.53980561780855
 20
8.024921918678856
 30
0.0
 11
26.38035694708725
 21
24.99495735478834
 31
0.0
 70
   102
 71
     5
 42
4.840551329278696
 73
     0
 74
     0
 75
     0
  3
Standard
100
AcDbOrdinateDimension
 13
26.38035694708725
 23
22.52492083872708
 33
0.0
 14
26.38035694708725
 24
24.111124021455
 34
0.0
  0
DIMENSION
  5
86A
102
{ACAD_XDICTIONARY
360
873
102
}
102
{ACAD_REACTORS
330
879
102
}
330
1F
100
AcDbEntity
  8
0
100
AcDbDimension
280
     0
  2
*D77
 10
21.53980561780855
 20
8.024921918678856
 30
0.0
 11
19.5519523715302
 21
22.52492083872708
 31
0.0
 70
    38
 71
     5
 42
14.49999892004823
 73
     0
 74
     0
 75
     0
  3
Standard
100
AcDbOrdinateDimension
 13
24.53193205746294
 23
22.52492083872708
 33
0.0
 14
20.58011903819687
 24
22.52492083872708
 34
0.0
  0
ENDSEC
  0
SECTION
  2
OBJECTS
  0
DICTIONARY
  5
C
330
0
100
AcDbDictionary
281
     1
  3
ACAD_CIP_PREVIOUS_PRODUCT_INFO
350
5A7
  3
ACAD_COLOR
350
73
  3
ACAD_DETAILVIEWSTYLE
350
5A4
  3
ACAD_GROUP
350
D
  3
ACAD_LAYOUT
350
1A
  3
ACAD_MATERIAL
350
72
  3
ACAD_MLEADERSTYLE
350
5A0
  3
ACAD_MLINESTYLE
350
17
  3
ACAD_PLOTSETTINGS
350
19
  3
ACAD_PLOTSTYLENAME
350
E
  3
ACAD_SCALELIST
350
58E
  3
ACAD_SECTIONVIEWSTYLE
350
5A2
  3
ACAD_TABLESTYLE
350
58C
  3
ACAD_VISUALSTYLE
350
573
  3
ACDB_RECOMPOSE_DATA
350
8EC
  3
AcDbVariableDictionary
350
66
  0
DICTIONARY
  5
7F2
330
8
100
AcDbDictionary
280
     1
281
     1
  0
DICTIONARY
  5
124
330
2
100
AcDbDictionary
280
     1
281
     1
  3
ACAD_LAYERSTATES
360
125
  0
DICTIONARY
  5
7E5
330
10
100
AcDbDictionary
280
     1
281
     1
  3
ADSK_XREC_LAYER_RECONCILED
360
7E6
  0
DICTIONARY
  5
7E7
330
11F
100
AcDbDictionary
280
     1
281
     1
  3
ADSK_XREC_LAYER_RECONCILED
360
7E8
  0
DICTIONARY
  5
7E9
330
120
100
AcDbDictionary
280
     1
281
     1
  3
ADSK_XREC_LAYER_RECONCILED
360
7EA
  0
DICTIONARY
  5
7EB
330
122
100
AcDbDictionary
280
     1
281
     1
  3
ADSK_XREC_LAYER_RECONCILED
360
7EC
  0
DICTIONARY
  5
7ED
330
123
100
AcDbDictionary
280
     1
281
     1
  3
ADSK_XREC_LAYER_RECONCILED
360
7EE
  0
DICTIONARY
  5
838
330
747
100
AcDbDictionary
280
     1
281
     1
  0
DICTIONARY
  5
83A
330
79A
100
AcDbDictionary
280
     1
281
     1
  0
DICTIONARY
  5
6A2
330
6A1
100
AcDbDictionary
280
     1
281
     1
  3
ACAD_DIMASSOC
360
6A3
  0
DICTIONARY
  5
853
330
84A
100
AcDbDictionary
280
     1
281
     1
  3
ACAD_DIMASSOC
360
859
  0
DICTIONARY
  5
863
330
85A
100
AcDbDictionary
280
     1
281
     1
  3
ACAD_DIMASSOC
360
869
  0
DICTIONARY
  5
873
330
86A
100
AcDbDictionary
280
     1
281
     1
  3
ACAD_DIMASSOC
360
879
  0
XRECORD
  5
5A7
102
{ACAD_REACTORS
330
C
102
}
330
C
100
AcDbXrecord
280
     1
300
AMECH_PP
300
2014
300

  0
DICTIONARY
  5
73
102
{ACAD_REACTORS
330
C
102
}
330
C
100
AcDbDictionary
281
     1
  0
DICTIONARY
  5
5A4
102
{ACAD_REACTORS
330
C
102
}
330
C
100
AcDbDictionary
281
     1
  3
Imperial24
350
5A5
  0
DICTIONARY
  5
D
102
{ACAD_REACTORS
330
C
102
}
330
C
100
AcDbDictionary
281
     1
  0
DICTIONARY
  5
1A
102
{ACAD_REACTORS
330
C
102
}
330
C
100
AcDbDictionary
281
     1
  3
Layout1
350
59
  3
Layout2
350
5E
  3
Model
350
22
  0
DICTIONARY
  5
72
102
{ACAD_REACTORS
330
C
102
}
330
C
100
AcDbDictionary
281
     1
  3
ByBlock
350
563
  3
ByLayer
350
55B
  3
Global
350
56B
  0
DICTIONARY
  5
5A0
102
{ACAD_REACTORS
330
C
102
}
330
C
100
AcDbDictionary
281
     1
  3
Standard
350
5A1
  0
DICTIONARY
  5
17
102
{ACAD_REACTORS
330
C
102
}
330
C
100
AcDbDictionary
281
     1
  3
Standard
350
18
  0
DICTIONARY
  5
19
102
{ACAD_REACTORS
330
C
102
}
330
C
100
AcDbDictionary
281
     1
  0
ACDBDICTIONARYWDFLT
  5
E
102
{ACAD_REACTORS
330
C
102
}
330
C
100
AcDbDictionary
281
     1
  3
Normal
350
F
100
AcDbDictionaryWithDefault
340
F
  0
DICTIONARY
  5
58E
102
{ACAD_REACTORS
330
C
102
}
330
C
100
AcDbDictionary
281
     1
  3
A0
350
58F
  3
A1
350
590
  3
A2
350
591
  3
A3
350
592
  3
A4
350
593
  3
A5
350
594
  3
A6
350
595
  3
A7
350
596
  3
A8
350
597
  3
A9
350
598
  3
B0
350
599
  3
B1
350
59A
  3
B2
350
59B
  3
B3
350
59C
  3
B4
350
59D
  3
B5
350
59E
  3
B6
350
59F
  0
DICTIONARY
  5
5A2
102
{ACAD_REACTORS
330
C
102
}
330
C
100
AcDbDictionary
281
     1
  3
Imperial24
350
5A3
  0
DICTIONARY
  5
58C
102
{ACAD_REACTORS
330
C
102
}
330
C
100
AcDbDictionary
281
     1
  3
Standard
350
58D
  0
DICTIONARY
  5
573
102
{ACAD_REACTORS
330
C
102
}
330
C
100
AcDbDictionary
281
     1
  3
2dWireframe
350
579
  3
Basic
350
578
  3
Brighten
350
57F
  3
ColorChange
350
583
  3
Conceptual
350
57C
  3
Dim
350
57E
  3
EdgeColorOff
350
58B
  3
Facepattern
350
582
  3
Flat
350
574
  3
FlatWithEdges
350
575
  3
Gouraud
350
576
  3
GouraudWithEdges
350
577
  3
Hidden
350
57B
  3
JitterOff
350
589
  3
Linepattern
350
581
  3
OverhangOff
350
58A
  3
Realistic
350
57D
  3
Shaded
350
588
  3
Shaded with edges
350
587
  3
Shades of Gray
350
584
  3
Sketchy
350
585
  3
Thicken
350
580
  3
Wireframe
350
57A
  3
X-Ray
350
586
  0
XRECORD
  5
8EC
102
{ACAD_REACTORS
330
C
102
}
330
C
100
AcDbXrecord
280
     1
 90
        1
330
58D
330
5A3
330
5A5
  0
DICTIONARY
  5
66
102
{ACAD_REACTORS
330
C
102
}
330
C
100
AcDbDictionary
281
     1
  3
CANNOSCALE
350
840
  3
CMLEADERSTYLE
350
83D
  3
CTABLESTYLE
350
83C
  3
CVIEWDETAILSTYLE
350
83E
  3
CVIEWSECTIONSTYLE
350
83F
  3
DIMASSOC
350
67
  3
HIDETEXT
350
6B
  3
LAYEREVAL
350
8E5
  3
LAYERNOTIFY
350
8E6
  3
LIGHTINGUNITS
350
8E4
  3
MSLTSCALE
350
8E3
  3
PROJECTNAME
350
539
  0
DICTIONARY
  5
125
102
{ACAD_REACTORS
330
124
102
}
330
124
100
AcDbDictionary
281
     1
  0
XRECORD
  5
7E6
102
{ACAD_REACTORS
330
7E5
102
}
330
7E5
100
AcDbXrecord
280
     1
290
     1
  0
XRECORD
  5
7E8
102
{ACAD_REACTORS
330
7E7
102
}
330
7E7
100
AcDbXrecord
280
     1
290
     1
  0
XRECORD
  5
7EA
102
{ACAD_REACTORS
330
7E9
102
}
330
7E9
100
AcDbXrecord
280
     1
290
     1
  0
XRECORD
  5
7EC
102
{ACAD_REACTORS
330
7EB
102
}
330
7EB
100
AcDbXrecord
280
     1
290
     1
  0
XRECORD
  5
7EE
102
{ACAD_REACTORS
330
7ED
102
}
330
7ED
100
AcDbXrecord
280
     1
290
     1
  0
DIMASSOC
  5
6A3
102
{ACAD_REACTORS
330
6A2
102
}
330
6A2
100
AcDbDimAssoc
330
6A1
 90
        2
 70
     0
 71
     0
  1
AcDbOsnapPointRef
 72
     3
331
69B
 73
     2
 91
        0
 40
0.0
 10
0.0
 20
0.0
 30
0.0
 75
     0
  0
DIMASSOC
  5
859
102
{ACAD_REACTORS
330
853
102
}
330
853
100
AcDbDimAssoc
330
84A
 90
        2
 70
     0
 71
     0
  1
AcDbOsnapPointRef
 72
     1
331
6A0
 73
     2
 91
        0
 40
1.0
 10
0.0
 20
0.0
 30
2.000000000000000E+50
 75
     0
  0
DIMASSOC
  5
869
102
{ACAD_REACTORS
330
863
102
}
330
863
100
AcDbDimAssoc
330
85A
 90
        2
 70
     0
 71
     0
  1
AcDbOsnapPointRef
 72
    13
331
6A0
 73
     2
 91
        0
 40
0.0
 10
0.0
 20
0.0
 30
2.000000000000000E+50
 75
     0
  0
DIMASSOC
  5
879
102
{ACAD_REACTORS
330
873
102
}
330
873
100
AcDbDimAssoc
330
86A
 90
        2
 70
     0
 71
     0
  1
AcDbOsnapPointRef
 72
     2
331
6A0
 73
     2
 91
        0
 40
0.5
 10
0.0
 20
0.0
 30
0.0
 75
     0
  0
ACDBDETAILVIEWSTYLE
  5
5A5
102
{ACAD_XDICTIONARY
360
8EA
102
}
102
{ACAD_REACTORS
330
5A4
102
}
330
5A4
100
AcDbModelDocViewStyle
 70
     0
  3
Imperial24
290
     0
100
AcDbDetailViewStyle
 70
     0
 71
     0
 90
        3
 71
     1
340
11
 62
   256
 40
0.24
340
0
 62
   256
 40
0.24
300

 40
0.36
280
     3
 71
     2
340
16
 90
       25
 62
   256
 71
     3
340
11
 62
   256
 40
0.24
 90
        1
 40
0.75
 90
        1
300
%<\AcVar ViewType \f "%tc1">% %<\AcVar ViewDetailId>%\PSCALE %<\AcVar ViewScale \f "%sn">%
 71
     4
340
16
 90
       25
 62
   256
340
16
 90
       25
 62
   256
280
     0
  0
LAYOUT
  5
59
102
{ACAD_REACTORS
330
1A
102
}
330
1A
100
AcDbPlotSettings
  1

  2
None
  4

  6

 40
0.0
 41
0.0
 42
0.0
 43
0.0
 44
0.0
 45
0.0
 46
0.0
 47
0.0
 48
0.0
 49
0.0
140
0.0
141
0.0
142
1.0
143
1.0
 70
   688
 72
     0
 73
     0
 74
     5
  7

 75
    16
147
1.0
 76
     0
 77
     2
 78
   300
148
0.0
149
0.0
100
AcDbLayout
  1
Layout1
 70
     1
 71
     1
 10
0.0
 20
0.0
 11
12.0
 21
9.0
 12
0.0
 22
0.0
 32
0.0
 14
0.0
 24
0.0
 34
0.0
 15
0.0
 25
0.0
 35
0.0
146
0.0
 13
0.0
 23
0.0
 33
0.0
 16
1.0
 26
0.0
 36
0.0
 17
0.0
 27
1.0
 37
0.0
 76
     0
330
58
  0
LAYOUT
  5
5E
102
{ACAD_REACTORS
330
1A
102
}
330
1A
100
AcDbPlotSettings
  1

  2
None
  4

  6

 40
0.0
 41
0.0
 42
0.0
 43
0.0
 44
0.0
 45
0.0
 46
0.0
 47
0.0
 48
0.0
 49
0.0
140
0.0
141
0.0
142
1.0
143
1.0
 70
   688
 72
     0
 73
     0
 74
     5
  7

 75
    16
147
1.0
 76
     0
 77
     2
 78
   300
148
0.0
149
0.0
100
AcDbLayout
  1
Layout2
 70
     1
 71
     2
 10
0.0
 20
0.0
 11
12.0
 21
9.0
 12
0.0
 22
0.0
 32
0.0
 14
0.0
 24
0.0
 34
0.0
 15
0.0
 25
0.0
 35
0.0
146
0.0
 13
0.0
 23
0.0
 33
0.0
 16
1.0
 26
0.0
 36
0.0
 17
0.0
 27
1.0
 37
0.0
 76
     0
330
5D
  0
LAYOUT
  5
22
102
{ACAD_REACTORS
330
1A
102
}
330
1A
100
AcDbPlotSettings
  1

  2
none_device
  4
ANSI_A_(8.50_x_11.00_Inches)
  6

 40
6.349999904632567
 41
19.04999923706055
 42
6.350006103515625
 43
19.04998779296875
 44
215.8999938964844
 45
279.3999938964844
 46
0.0
 47
0.0
 48
0.0
 49
0.0
140
0.0
141
0.0
142
1.0
143
2.584895464708373
 70
 11952
 72
     0
 73
     1
 74
     0
  7

 75
     0
147
0.3868628397755418
 76
     0
 77
     2
 78
   300
148
0.0
149
0.0
100
AcDbLayout
  1
Model
 70
     1
 71
     0
 10
0.0
 20
0.0
 11
12.0
 21
9.0
 12
0.0
 22
0.0
 32
0.0
 14
0.0
 24
0.0
 34
0.0
 15
0.0
 25
0.0
 35
0.0
146
0.0
 13
0.0
 23
0.0
 33
0.0
 16
1.0
 26
0.0
 36
0.0
 17
0.0
 27
1.0
 37
0.0
 76
     0
330
1F
331
54E
  0
MATERIAL
  5
563
102
{ACAD_XDICTIONARY
360
564
102
}
102
{ACAD_REACTORS
330
72
102
}
330
72
100
AcDbMaterial
  1
ByBlock
 72
     0
 43
0.0208333333333333
 43
0.0
 43
0.0
 43
0.0
 43
0.0
 43
0.0208333333333333
 43
0.0
 43
0.0
 43
0.0
 43
0.0
 43
1.0
 43
0.0
 43
0.0
 43
0.0
 43
0.0
 43
1.0
 77
     0
 47
0.0208333333333333
 47
0.0
 47
0.0
 47
0.0
 47
0.0
 47
0.0208333333333333
 47
0.0
 47
0.0
 47
0.0
 47
0.0
 47
1.0
 47
0.0
 47
0.0
 47
0.0
 47
0.0
 47
1.0
171
     0
 49
0.0208333333333333
 49
0.0
 49
0.0
 49
0.0
 49
0.0
 49
0.0208333333333333
 49
0.0
 49
0.0
 49
0.0
 49
0.0
 49
1.0
 49
0.0
 49
0.0
 49
0.0
 49
0.0
 49
1.0
175
     0
142
0.0208333333333333
142
0.0
142
0.0
142
0.0
142
0.0
142
0.0208333333333333
142
0.0
142
0.0
142
0.0
142
0.0
142
1.0
142
0.0
142
0.0
142
0.0
142
0.0
142
1.0
179
     0
144
0.0208333333333333
144
0.0
144
0.0
144
0.0
144
0.0
144
0.0208333333333333
144
0.0
144
0.0
144
0.0
144
0.0
144
1.0
144
0.0
144
0.0
144
0.0
144
0.0
144
1.0
147
0.0208333333333333
147
0.0
147
0.0
147
0.0
147
0.0
147
0.0208333333333333
147
0.0
147
0.0
147
0.0
147
0.0
147
1.0
147
0.0
147
0.0
147
0.0
147
0.0
147
1.0
  0
MATERIAL
  5
55B
102
{ACAD_XDICTIONARY
360
55C
102
}
102
{ACAD_REACTORS
330
72
102
}
330
72
100
AcDbMaterial
  1
ByLayer
 72
     0
 43
0.0208333333333333
 43
0.0
 43
0.0
 43
0.0
 43
0.0
 43
0.0208333333333333
 43
0.0
 43
0.0
 43
0.0
 43
0.0
 43
1.0
 43
0.0
 43
0.0
 43
0.0
 43
0.0
 43
1.0
 77
     0
 47
0.0208333333333333
 47
0.0
 47
0.0
 47
0.0
 47
0.0
 47
0.0208333333333333
 47
0.0
 47
0.0
 47
0.0
 47
0.0
 47
1.0
 47
0.0
 47
0.0
 47
0.0
 47
0.0
 47
1.0
171
     0
 49
0.0208333333333333
 49
0.0
 49
0.0
 49
0.0
 49
0.0
 49
0.0208333333333333
 49
0.0
 49
0.0
 49
0.0
 49
0.0
 49
1.0
 49
0.0
 49
0.0
 49
0.0
 49
0.0
 49
1.0
175
     0
142
0.0208333333333333
142
0.0
142
0.0
142
0.0
142
0.0
142
0.0208333333333333
142
0.0
142
0.0
142
0.0
142
0.0
142
1.0
142
0.0
142
0.0
142
0.0
142
0.0
142
1.0
179
     0
144
0.0208333333333333
144
0.0
144
0.0
144
0.0
144
0.0
144
0.0208333333333333
144
0.0
144
0.0
144
0.0
144
0.0
144
1.0
144
0.0
144
0.0
144
0.0
144
0.0
144
1.0
147
0.0208333333333333
147
0.0
147
0.0
147
0.0
147
0.0
147
0.0208333333333333
147
0.0
147
0.0
147
0.0
147
0.0
147
1.0
147
0.0
147
0.0
147
0.0
147
0.0
147
1.0
  0
MATERIAL
  5
56B
102
{ACAD_XDICTIONARY
360
56C
102
}
102
{ACAD_REACTORS
330
72
102
}
330
72
100
AcDbMaterial
  1
Global
 72
     0
 43
0.0208333333333333
 43
0.0
 43
0.0
 43
0.0
 43
0.0
 43
0.0208333333333333
 43
0.0
 43
0.0
 43
0.0
 43
0.0
 43
1.0
 43
0.0
 43
0.0
 43
0.0
 43
0.0
 43
1.0
 77
     0
 47
0.0208333333333333
 47
0.0
 47
0.0
 47
0.0
 47
0.0
 47
0.0208333333333333
 47
0.0
 47
0.0
 47
0.0
 47
0.0
 47
1.0
 47
0.0
 47
0.0
 47
0.0
 47
0.0
 47
1.0
171
     0
 49
0.0208333333333333
 49
0.0
 49
0.0
 49
0.0
 49
0.0
 49
0.0208333333333333
 49
0.0
 49
0.0
 49
0.0
 49
0.0
 49
1.0
 49
0.0
 49
0.0
 49
0.0
 49
0.0
 49
1.0
175
     0
142
0.0208333333333333
142
0.0
142
0.0
142
0.0
142
0.0
142
0.0208333333333333
142
0.0
142
0.0
142
0.0
142
0.0
142
1.0
142
0.0
142
0.0
142
0.0
142
0.0
142
1.0
179
     0
144
0.0208333333333333
144
0.0
144
0.0
144
0.0
144
0.0
144
0.0208333333333333
144
0.0
144
0.0
144
0.0
144
0.0
144
1.0
144
0.0
144
0.0
144
0.0
144
0.0
144
1.0
147
0.0208333333333333
147
0.0
147
0.0
147
0.0
147
0.0
147
0.0208333333333333
147
0.0
147
0.0
147
0.0
147
0.0
147
1.0
147
0.0
147
0.0
147
0.0
147
0.0
147
1.0
  0
MLEADERSTYLE
  5
5A1
102
{ACAD_REACTORS
330
5A0
102
}
330
5A0
100
AcDbMLeaderStyle
179
     2
170
     2
171
     1
172
     0
 90
        2
 40
0.0
 41
0.0
173
     1
 91
-1056964608
340
14
 92
       -2
290
     1
 42
0.09
291
     1
 43
0.36
  3
Standard
 44
0.18
300

342
11
174
     1
178
     6
175
     1
176
     0
 93
-1056964608
 45
0.18
292
     0
297
     0
 46
0.18
 94
-1056964608
 47
1.0
 49
1.0
140
1.0
293
     1
141
0.0
294
     1
177
     0
142
1.0
295
     0
296
     0
143
0.125
271
     0
272
     9
273
     9
298
     0
  0
MLINESTYLE
  5
18
102
{ACAD_REACTORS
330
17
102
}
330
17
100
AcDbMlineStyle
  2
STANDARD
 70
     0
  3

 62
   256
 51
90.0
 52
90.0
 71
     2
 49
0.5
 62
   256
  6
BYLAYER
 49
-0.5
 62
   256
  6
BYLAYER
  0
ACDBPLACEHOLDER
  5
F
102
{ACAD_REACTORS
330
E
102
}
330
E
  0
SCALE
  5
58F
102
{ACAD_REACTORS
330
58E
102
}
330
58E
100
AcDbScale
 70
     0
300
1:1
140
1.0
141
1.0
290
     1
  0
SCALE
  5
590
102
{ACAD_REACTORS
330
58E
102
}
330
58E
100
AcDbScale
 70
     0
300
1/128" = 1'-0"
140
0.0078125
141
12.0
290
     0
  0
SCALE
  5
591
102
{ACAD_REACTORS
330
58E
102
}
330
58E
100
AcDbScale
 70
     0
300
1/64" = 1'-0"
140
0.015625
141
12.0
290
     0
  0
SCALE
  5
592
102
{ACAD_REACTORS
330
58E
102
}
330
58E
100
AcDbScale
 70
     0
300
1/32" = 1'-0"
140
0.03125
141
12.0
290
     0
  0
SCALE
  5
593
102
{ACAD_REACTORS
330
58E
102
}
330
58E
100
AcDbScale
 70
     0
300
1/16" = 1'-0"
140
0.0625
141
12.0
290
     0
  0
SCALE
  5
594
102
{ACAD_REACTORS
330
58E
102
}
330
58E
100
AcDbScale
 70
     0
300
3/32" = 1'-0"
140
0.09375
141
12.0
290
     0
  0
SCALE
  5
595
102
{ACAD_REACTORS
330
58E
102
}
330
58E
100
AcDbScale
 70
     0
300
1/8" = 1'-0"
140
0.125
141
12.0
290
     0
  0
SCALE
  5
596
102
{ACAD_REACTORS
330
58E
102
}
330
58E
100
AcDbScale
 70
     0
300
3/16" = 1'-0"
140
0.1875
141
12.0
290
     0
  0
SCALE
  5
597
102
{ACAD_REACTORS
330
58E
102
}
330
58E
100
AcDbScale
 70
     0
300
1/4" = 1'-0"
140
0.25
141
12.0
290
     0
  0
SCALE
  5
598
102
{ACAD_REACTORS
330
58E
102
}
330
58E
100
AcDbScale
 70
     0
300
3/8" = 1'-0"
140
0.375
141
12.0
290
     0
  0
SCALE
  5
599
102
{ACAD_REACTORS
330
58E
102
}
330
58E
100
AcDbScale
 70
     0
300
1/2" = 1'-0"
140
0.5
141
12.0
290
     0
  0
SCALE
  5
59A
102
{ACAD_REACTORS
330
58E
102
}
330
58E
100
AcDbScale
 70
     0
300
3/4" = 1'-0"
140
0.75
141
12.0
290
     0
  0
SCALE
  5
59B
102
{ACAD_REACTORS
330
58E
102
}
330
58E
100
AcDbScale
 70
     0
300
1" = 1'-0"
140
1.0
141
12.0
290
     0
  0
SCALE
  5
59C
102
{ACAD_REACTORS
330
58E
102
}
330
58E
100
AcDbScale
 70
     0
300
1-1/2" = 1'-0"
140
1.5
141
12.0
290
     0
  0
SCALE
  5
59D
102
{ACAD_REACTORS
330
58E
102
}
330
58E
100
AcDbScale
 70
     0
300
3" = 1'-0"
140
3.0
141
12.0
290
     0
  0
SCALE
  5
59E
102
{ACAD_REACTORS
330
58E
102
}
330
58E
100
AcDbScale
 70
     0
300
6" = 1'-0"
140
6.0
141
12.0
290
     0
  0
SCALE
  5
59F
102
{ACAD_REACTORS
330
58E
102
}
330
58E
100
AcDbScale
 70
     0
300
1'-0" = 1'-0"
140
12.0
141
12.0
290
     0
  0
ACDBSECTIONVIEWSTYLE
  5
5A3
102
{ACAD_XDICTIONARY
360
8E8
102
}
102
{ACAD_REACTORS
330
5A2
102
}
330
5A2
100
AcDbModelDocViewStyle
 70
     0
  3
Imperial24
290
     0
100
AcDbSectionViewStyle
 70
     0
 71
     0
 90
       78
 71
     1
340
11
 62
   256
 40
0.24
340
0
340
0
 62
   256
 40
0.24
300
I, O, Q, S, X, Z
 40
0.48
 90
        3
 40
0.18
 90
        1
 71
     2
340
16
 90
       25
 62
   256
340
16
 90
       50
 62
   256
 40
0.24
 40
0.0
 40
0.24
 71
     3
340
11
 62
   256
 40
0.24
 90
        1
 40
0.75
 90
        1
300
%<\AcVar ViewType \f "%tc1">% %<\AcVar ViewSectionStartId>%-%<\AcVar ViewSectionEndId>%\PSCALE %<\AcVar ViewScale \f "%sn">%
 71
     4
 62
   256
 62
   257
300
ANSI31
 40
1.0
 90
        0
290
     0
290
     0
 90
        6
 40
0.0
 40
1.570796326794896
 40
0.2617993877991494
 40
1.308996938995747
 40
-0.2617993877991494
 40
1.832595714594046
  0
TABLESTYLE
  5
58D
102
{ACAD_XDICTIONARY
360
7EF
102
}
102
{ACAD_REACTORS
330
58C
102
}
330
58C
100
AcDbTableStyle
280
     0
  3
Standard
 70
     0
 71
     0
 40
0.06
 41
0.06
280
     0
281
     0
  7
Standard
140
0.18
170
     2
 62
     0
 63
     7
283
     0
 90
      512
 91
        0
  1

274
    -2
284
     1
 64
     0
275
    -2
285
     1
 65
     0
276
    -2
286
     1
 66
     0
277
    -2
287
     1
 67
     0
278
    -2
288
     1
 68
     0
279
    -2
289
     1
 69
     0
  7
Standard
140
0.25
170
     5
 62
     0
 63
     7
283
     0
 90
      512
 91
        0
  1

274
    -2
284
     1
 64
     0
275
    -2
285
     1
 65
     0
276
    -2
286
     1
 66
     0
277
    -2
287
     1
 67
     0
278
    -2
288
     1
 68
     0
279
    -2
289
     1
 69
     0
  7
Standard
140
0.18
170
     5
 62
     0
 63
     7
283
     0
 90
      512
 91
        0
  1

274
    -2
284
     1
 64
     0
275
    -2
285
     1
 65
     0
276
    -2
286
     1
 66
     0
277
    -2
287
     1
 67
     0
278
    -2
288
     1
 68
     0
279
    -2
289
     1
 69
     0
  0
VISUALSTYLE
  5
579
102
{ACAD_REACTORS
330
573
102
}
330
573
100
AcDbVisualStyle
  2
2dWireframe
 70
     4
177
     3
291
     0
 70
    58
 90
        0
176
     1
 90
        2
176
     1
 90
        0
176
     1
 90
        0
176
     1
 40
0.6
176
     1
 40
30.0
176
     1
 62
     7
420
 16777215
176
     1
 90
        1
176
     1
 90
        4
176
     1
 62
     7
176
     1
 62
   257
176
     1
 90
        1
176
     1
 90
        1
176
     1
 40
1.0
176
     1
 90
        0
176
     1
 62
   257
176
     1
 40
1.0
176
     1
 90
        1
176
     1
 90
        6
176
     1
 90
        2
176
     1
 62
     7
176
     1
 90
        5
176
     1
 90
        0
176
     1
 90
        0
176
     1
290
     0
176
     1
 90
        1
176
     1
 40
0.0
176
     1
 90
        0
176
     1
290
     1
176
     1
290
     1
176
     1
290
     0
176
     1
290
     0
176
     1
290
     0
176
     1
290
     0
176
     1
290
     0
176
     1
290
     0
176
     1
290
     0
176
     1
 90
       50
176
     1
 40
0.0
176
     1
 40
1.0
176
     1
 90
        0
176
     1
 62
    18
420
        0
176
     1
 90
       50
176
     1
 90
        3
176
     1
 62
     5
420
      255
176
     1
290
     0
176
     1
 90
       50
176
     1
 90
       50
176
     1
 90
       50
176
     1
290
     0
176
     1
 90
       50
176
     1
 62
   256
176
     0
 40
1.0
176
     0
 90
        2
176
     1
  1
strokes_ogs.tif
176
     1
290
     0
176
     1
 40
1.0
176
     1
 40
1.0
176
     1
  0
VISUALSTYLE
  5
578
102
{ACAD_REACTORS
330
573
102
}
330
573
100
AcDbVisualStyle
  2
Basic
 70
     7
177
     3
291
     1
 70
    58
 90
        1
176
     1
 90
        0
176
     1
 90
        1
176
     1
 90
        0
176
     1
 40
0.6
176
     1
 40
30.0
176
     1
 62
     7
420
 16777215
176
     1
 90
        0
176
     1
 90
        4
176
     1
 62
     7
176
     1
 62
   257
176
     1
 90
        1
176
     1
 90
        1
176
     1
 40
1.0
176
     1
 90
        8
176
     1
 62
     7
176
     1
 40
1.0
176
     1
 90
        1
176
     1
 90
        6
176
     1
 90
        2
176
     1
 62
     7
176
     1
 90
        5
176
     1
 90
        0
176
     1
 90
        0
176
     1
290
     0
176
     1
 90
        1
176
     1
 40
0.0
176
     1
 90
        0
176
     1
290
     0
176
     1
290
     1
176
     1
290
     1
176
     1
290
     0
176
     1
290
     0
176
     1
290
     0
176
     1
290
     0
176
     1
290
     0
176
     1
290
     0
176
     1
 90
       50
176
     1
 40
0.0
176
     1
 40
1.0
176
     1
 90
        0
176
     1
 62
    18
420
        0
176
     1
 90
       50
176
     1
 90
        3
176
     1
 62
     5
420
      255
176
     1
290
     0
176
     1
 90
       50
176
     1
 90
       50
176
     1
 90
       50
176
     1
290
     0
176
     1
 90
       50
176
     1
 62
   256
176
     0
 40
1.0
176
     0
 90
        2
176
     1
  1
strokes_ogs.tif
176
     1
290
     0
176
     1
 40
1.0
176
     1
 40
1.0
176
     1
  0
VISUALSTYLE
  5
57F
102
{ACAD_REACTORS
330
573
102
}
330
573
100
AcDbVisualStyle
  2
Brighten
 70
    12
177
     3
291
     1
 70
    58
 90
        2
176
     1
 90
        2
176
     1
 90
        0
176
     1
 90
        0
176
     1
 40
0.6
176
     1
 40
30.0
176
     1
 62
     7
420
 16777215
176
     1
 90
        1
176
     1
 90
        4
176
     1
 62
     7
176
     1
 62
   257
176
     1
 90
        1
176
     1
 90
        1
176
     1
 40
1.0
176
     1
 90
        8
176
     1
 62
     7
176
     1
 40
1.0
176
     1
 90
        1
176
     1
 90
        6
176
     1
 90
        2
176
     1
 62
     7
176
     1
 90
        5
176
     1
 90
        0
176
     1
 90
        0
176
     1
290
     0
176
     1
 90
        1
176
     1
 40
50.0
176
     1
 90
        0
176
     1
290
     0
176
     1
290
     1
176
     1
290
     1
176
     1
290
     0
176
     1
290
     0
176
     1
290
     0
176
     1
290
     0
176
     1
290
     0
176
     1
290
     0
176
     1
 90
       50
176
     1
 40
0.0
176
     1
 40
1.0
176
     1
 90
        0
176
     1
 62
    18
420
        0
176
     1
 90
       50
176
     1
 90
        3
176
     1
 62
     5
420
      255
176
     1
290
     0
176
     1
 90
       50
176
     1
 90
       50
176
     1
 90
       50
176
     1
290
     0
176
     1
 90
       50
176
     1
 62
   256
176
     0
 40
1.0
176
     0
 90
        2
176
     1
  1
strokes_ogs.tif
176
     1
290
     0
176
     1
 40
1.0
176
     1
 40
1.0
176
     1
  0
VISUALSTYLE
  5
583
102
{ACAD_REACTORS
330
573
102
}
330
573
100
AcDbVisualStyle
  2
ColorChange
 70
    16
177
     3
291
     1
 70
    58
 90
        2
176
     1
 90
        2
176
     1
 90
        3
176
     1
 90
        0
176
     1
 40
0.6
176
     1
 40
30.0
176
     1
 62
     8
420
  8421504
176
     1
 90
        1
176
     1
 90
        4
176
     1
 62
     7
176
     1
 62
   257
176
     1
 90
        1
176
     1
 90
        1
176
     1
 40
1.0
176
     1
 90
        8
176
     1
 62
     8
420
  8421504
176
     1
 40
1.0
176
     1
 90
        1
176
     1
 90
        6
176
     1
 90
        2
176
     1
 62
     7
176
     1
 90
        5
176
     1
 90
        0
176
     1
 90
        0
176
     1
290
     0
176
     1
 90
        1
176
     1
 40
0.0
176
     1
 90
        0
176
     1
290
     0
176
     1
290
     1
176
     1
290
     1
176
     1
290
     0
176
     1
290
     0
176
     1
290
     0
176
     1
290
     0
176
     1
290
     0
176
     1
290
     0
176
     1
 90
       50
176
     1
 40
0.0
176
     1
 40
1.0
176
     1
 90
        0
176
     1
 62
    18
420
        0
176
     1
 90
       50
176
     1
 90
        3
176
     1
 62
     5
420
      255
176
     1
290
     0
176
     1
 90
       50
176
     1
 90
       50
176
     1
 90
       50
176
     1
290
     0
176
     1
 90
       50
176
     1
 62
   256
176
     0
 40
1.0
176
     0
 90
        2
176
     1
  1
strokes_ogs.tif
176
     1
290
     0
176
     1
 40
1.0
176
     1
 40
1.0
176
     1
  0
VISUALSTYLE
  5
57C
102
{ACAD_REACTORS
330
573
102
}
330
573
100
AcDbVisualStyle
  2
Conceptual
 70
     9
177
     3
291
     0
 70
    58
 90
        3
176
     1
 90
        2
176
     1
 90
        0
176
     1
 90
        0
176
     1
 40
0.6
176
     1
 40
30.0
176
     1
 62
     7
420
 16777215
176
     1
 90
        2
176
     1
 90
        2
176
     1
 62
     7
176
     1
 62
   257
176
     1
 90
        1
176
     1
 90
        1
176
     1
 40
179.0
176
     1
 90
        8
176
     1
 62
     7
176
     1
 40
1.0
176
     1
 90
        1
176
     1
 90
        6
176
     1
 90
        2
176
     1
 62
     7
176
     1
 90
        3
176
     1
 90
        0
176
     1
 90
        0
176
     1
290
     0
176
     1
 90
        1
176
     1
 40
0.0
176
     1
 90
        0
176
     1
290
     0
176
     1
290
     1
176
     1
290
     1
176
     1
290
     0
176
     1
290
     0
176
     1
290
     0
176
     1
290
     0
176
     1
290
     0
176
     1
290
     0
176
     1
 90
       50
176
     1
 40
0.0
176
     1
 40
1.0
176
     1
 90
        0
176
     1
 62
    18
420
        0
176
     1
 90
       50
176
     1
 90
        3
176
     1
 62
     5
420
      255
176
     1
290
     0
176
     1
 90
       50
176
     1
 90
       50
176
     1
 90
       50
176
     1
290
     0
176
     1
 90
       50
176
     1
 62
   256
176
     0
 40
1.0
176
     0
 90
        2
176
     1
  1
strokes_ogs.tif
176
     1
290
     0
176
     1
 40
1.0
176
     1
 40
1.0
176
     1
  0
VISUALSTYLE
  5
57E
102
{ACAD_REACTORS
330
573
102
}
330
573
100
AcDbVisualStyle
  2
Dim
 70
    11
177
     3
291
     1
 70
    58
 90
        2
176
     1
 90
        2
176
     1
 90
        0
176
     1
 90
        0
176
     1
 40
0.6
176
     1
 40
30.0
176
     1
 62
     7
420
 16777215
176
     1
 90
        1
176
     1
 90
        4
176
     1
 62
     7
176
     1
 62
   257
176
     1
 90
        1
176
     1
 90
        1
176
     1
 40
1.0
176
     1
 90
        8
176
     1
 62
     7
176
     1
 40
1.0
176
     1
 90
        1
176
     1
 90
        6
176
     1
 90
        2
176
     1
 62
     7
176
     1
 90
        5
176
     1
 90
        0
176
     1
 90
        0
176
     1
290
     0
176
     1
 90
        1
176
     1
 40
-50.0
176
     1
 90
        0
176
     1
290
     0
176
     1
290
     1
176
     1
290
     1
176
     1
290
     0
176
     1
290
     0
176
     1
290
     0
176
     1
290
     0
176
     1
290
     0
176
     1
290
     0
176
     1
 90
       50
176
     1
 40
0.0
176
     1
 40
1.0
176
     1
 90
        0
176
     1
 62
    18
420
        0
176
     1
 90
       50
176
     1
 90
        3
176
     1
 62
     5
420
      255
176
     1
290
     0
176
     1
 90
       50
176
     1
 90
       50
176
     1
 90
       50
176
     1
290
     0
176
     1
 90
       50
176
     1
 62
   256
176
     0
 40
1.0
176
     0
 90
        2
176
     1
  1
strokes_ogs.tif
176
     1
290
     0
176
     1
 40
1.0
176
     1
 40
1.0
176
     1
  0
VISUALSTYLE
  5
58B
102
{ACAD_REACTORS
330
573
102
}
330
573
100
AcDbVisualStyle
  2
EdgeColorOff
 70
    22
177
     3
291
     1
 70
    58
 90
        2
176
     0
 90
        2
176
     0
 90
        0
176
     0
 90
        0
176
     0
 40
0.6
176
     0
 40
30.0
176
     0
 62
     7
420
 16777215
176
     0
 90
        1
176
     0
 90
        4
176
     0
 62
     7
176
     0
 62
   257
176
     0
 90
        1
176
     0
 90
        1
176
     0
 40
1.0
176
     0
 90
        8
176
     2
 62
     7
176
     0
 40
1.0
176
     0
 90
        1
176
     0
 90
        6
176
     0
 90
        2
176
     0
 62
     7
176
     0
 90
        5
176
     0
 90
        0
176
     0
 90
        0
176
     0
290
     0
176
     0
 90
        1
176
     0
 40
0.0
176
     0
 90
        0
176
     0
290
     0
176
     1
290
     1
176
     1
290
     1
176
     1
290
     0
176
     1
290
     0
176
     1
290
     0
176
     1
290
     0
176
     1
290
     0
176
     1
290
     0
176
     1
 90
       50
176
     0
 40
0.0
176
     0
 40
1.0
176
     0
 90
        0
176
     0
 62
    18
420
        0
176
     0
 90
       50
176
     0
 90
        3
176
     0
 62
     5
420
      255
176
     0
290
     0
176
     1
 90
       50
176
     0
 90
       50
176
     0
 90
       50
176
     0
290
     0
176
     1
 90
       50
176
     0
 62
   256
176
     0
 40
1.0
176
     0
 90
        2
176
     0
  1
strokes_ogs.tif
176
     0
290
     0
176
     1
 40
1.0
176
     0
 40
1.0
176
     0
  0
VISUALSTYLE
  5
582
102
{ACAD_REACTORS
330
573
102
}
330
573
100
AcDbVisualStyle
  2
Facepattern
 70
    15
177
     3
291
     1
 70
    58
 90
        2
176
     1
 90
        2
176
     1
 90
        0
176
     1
 90
        0
176
     1
 40
0.6
176
     1
 40
30.0
176
     1
 62
     7
420
 16777215
176
     1
 90
        1
176
     1
 90
        4
176
     1
 62
     7
176
     1
 62
   257
176
     1
 90
        1
176
     1
 90
        1
176
     1
 40
1.0
176
     1
 90
        8
176
     1
 62
     7
176
     1
 40
1.0
176
     1
 90
        1
176
     1
 90
        6
176
     1
 90
        2
176
     1
 62
     7
176
     1
 90
        5
176
     1
 90
        0
176
     1
 90
        0
176
     1
290
     0
176
     1
 90
        1
176
     1
 40
0.0
176
     1
 90
        0
176
     1
290
     0
176
     1
290
     1
176
     1
290
     1
176
     1
290
     0
176
     1
290
     0
176
     1
290
     0
176
     1
290
     0
176
     1
290
     0
176
     1
290
     0
176
     1
 90
       50
176
     1
 40
0.0
176
     1
 40
1.0
176
     1
 90
        0
176
     1
 62
    18
420
        0
176
     1
 90
       50
176
     1
 90
        3
176
     1
 62
     5
420
      255
176
     1
290
     0
176
     1
 90
       50
176
     1
 90
       50
176
     1
 90
       50
176
     1
290
     0
176
     1
 90
       50
176
     1
 62
   256
176
     0
 40
1.0
176
     0
 90
        2
176
     1
  1
strokes_ogs.tif
176
     1
290
     0
176
     1
 40
1.0
176
     1
 40
1.0
176
     1
  0
VISUALSTYLE
  5
574
102
{ACAD_REACTORS
330
573
102
}
330
573
100
AcDbVisualStyle
  2
Flat
 70
     0
177
     3
291
     1
 70
    58
 90
        2
176
     1
 90
        1
176
     1
 90
        1
176
     1
 90
        2
176
     1
 40
0.6
176
     1
 40
30.0
176
     1
 62
     7
420
 16777215
176
     1
 90
        0
176
     1
 90
        0
176
     1
 62
     7
176
     1
 62
   257
176
     1
 90
        1
176
     1
 90
        1
176
     1
 40
1.0
176
     1
 90
        8
176
     1
 62
     7
176
     1
 40
1.0
176
     1
 90
        1
176
     1
 90
        6
176
     1
 90
        2
176
     1
 62
     7
176
     1
 90
        5
176
     1
 90
        0
176
     1
 90
        0
176
     1
290
     0
176
     1
 90
       13
176
     1
 40
0.0
176
     1
 90
        0
176
     1
290
     0
176
     1
290
     1
176
     1
290
     1
176
     1
290
     0
176
     1
290
     0
176
     1
290
     0
176
     1
290
     0
176
     1
290
     0
176
     1
290
     0
176
     1
 90
       50
176
     1
 40
0.0
176
     1
 40
1.0
176
     1
 90
        0
176
     1
 62
    18
420
        0
176
     1
 90
       50
176
     1
 90
        3
176
     1
 62
     5
420
      255
176
     1
290
     0
176
     1
 90
       50
176
     1
 90
       50
176
     1
 90
       50
176
     1
290
     0
176
     1
 90
       50
176
     1
 62
   256
176
     0
 40
1.0
176
     0
 90
        2
176
     1
  1
strokes_ogs.tif
176
     1
290
     0
176
     1
 40
1.0
176
     1
 40
1.0
176
     1
  0
VISUALSTYLE
  5
575
102
{ACAD_REACTORS
330
573
102
}
330
573
100
AcDbVisualStyle
  2
FlatWithEdges
 70
     1
177
     3
291
     1
 70
    58
 90
        2
176
     1
 90
        1
176
     1
 90
        1
176
     1
 90
        2
176
     1
 40
0.6
176
     1
 40
30.0
176
     1
 62
     7
420
 16777215
176
     1
 90
        1
176
     1
 90
        0
176
     1
 62
     7
176
     1
 62
   257
176
     1
 90
        1
176
     1
 90
        1
176
     1
 40
1.0
176
     1
 90
        0
176
     1
 62
   257
176
     1
 40
1.0
176
     1
 90
        1
176
     1
 90
        6
176
     1
 90
        2
176
     1
 62
     7
176
     1
 90
        5
176
     1
 90
        0
176
     1
 90
        0
176
     1
290
     0
176
     1
 90
       13
176
     1
 40
0.0
176
     1
 90
        0
176
     1
290
     0
176
     1
290
     1
176
     1
290
     1
176
     1
290
     0
176
     1
290
     0
176
     1
290
     0
176
     1
290
     0
176
     1
290
     0
176
     1
290
     0
176
     1
 90
       50
176
     1
 40
0.0
176
     1
 40
1.0
176
     1
 90
        0
176
     1
 62
    18
420
        0
176
     1
 90
       50
176
     1
 90
        3
176
     1
 62
     5
420
      255
176
     1
290
     0
176
     1
 90
       50
176
     1
 90
       50
176
     1
 90
       50
176
     1
290
     0
176
     1
 90
       50
176
     1
 62
   256
176
     0
 40
1.0
176
     0
 90
        2
176
     1
  1
strokes_ogs.tif
176
     1
290
     0
176
     1
 40
1.0
176
     1
 40
1.0
176
     1
  0
VISUALSTYLE
  5
576
102
{ACAD_REACTORS
330
573
102
}
330
573
100
AcDbVisualStyle
  2
Gouraud
 70
     2
177
     3
291
     1
 70
    58
 90
        2
176
     1
 90
        2
176
     1
 90
        1
176
     1
 90
        2
176
     1
 40
0.6
176
     1
 40
30.0
176
     1
 62
     7
420
 16777215
176
     1
 90
        0
176
     1
 90
        0
176
     1
 62
     7
176
     1
 62
   257
176
     1
 90
        1
176
     1
 90
        1
176
     1
 40
1.0
176
     1
 90
        0
176
     1
 62
     7
176
     1
 40
1.0
176
     1
 90
        1
176
     1
 90
        6
176
     1
 90
        2
176
     1
 62
     7
176
     1
 90
        5
176
     1
 90
        0
176
     1
 90
        0
176
     1
290
     0
176
     1
 90
       13
176
     1
 40
0.0
176
     1
 90
        0
176
     1
290
     0
176
     1
290
     1
176
     1
290
     1
176
     1
290
     0
176
     1
290
     0
176
     1
290
     0
176
     1
290
     0
176
     1
290
     0
176
     1
290
     0
176
     1
 90
       50
176
     1
 40
0.0
176
     1
 40
1.0
176
     1
 90
        0
176
     1
 62
    18
420
        0
176
     1
 90
       50
176
     1
 90
        3
176
     1
 62
     5
420
      255
176
     1
290
     0
176
     1
 90
       50
176
     1
 90
       50
176
     1
 90
       50
176
     1
290
     0
176
     1
 90
       50
176
     1
 62
   256
176
     0
 40
1.0
176
     0
 90
        2
176
     1
  1
strokes_ogs.tif
176
     1
290
     0
176
     1
 40
1.0
176
     1
 40
1.0
176
     1
  0
VISUALSTYLE
  5
577
102
{ACAD_REACTORS
330
573
102
}
330
573
100
AcDbVisualStyle
  2
GouraudWithEdges
 70
     3
177
     3
291
     1
 70
    58
 90
        2
176
     1
 90
        2
176
     1
 90
        1
176
     1
 90
        2
176
     1
 40
0.6
176
     1
 40
30.0
176
     1
 62
     7
420
 16777215
176
     1
 90
        1
176
     1
 90
        0
176
     1
 62
     7
176
     1
 62
   257
176
     1
 90
        1
176
     1
 90
        1
176
     1
 40
1.0
176
     1
 90
        0
176
     1
 62
   257
176
     1
 40
1.0
176
     1
 90
        1
176
     1
 90
        6
176
     1
 90
        2
176
     1
 62
     7
176
     1
 90
        5
176
     1
 90
        0
176
     1
 90
        0
176
     1
290
     0
176
     1
 90
       13
176
     1
 40
0.0
176
     1
 90
        0
176
     1
290
     0
176
     1
290
     1
176
     1
290
     1
176
     1
290
     0
176
     1
290
     0
176
     1
290
     0
176
     1
290
     0
176
     1
290
     0
176
     1
290
     0
176
     1
 90
       50
176
     1
 40
0.0
176
     1
 40
1.0
176
     1
 90
        0
176
     1
 62
    18
420
        0
176
     1
 90
       50
176
     1
 90
        3
176
     1
 62
     5
420
      255
176
     1
290
     0
176
     1
 90
       50
176
     1
 90
       50
176
     1
 90
       50
176
     1
290
     0
176
     1
 90
       50
176
     1
 62
   256
176
     0
 40
1.0
176
     0
 90
        2
176
     1
  1
strokes_ogs.tif
176
     1
290
     0
176
     1
 40
1.0
176
     1
 40
1.0
176
     1
  0
VISUALSTYLE
  5
57B
102
{ACAD_REACTORS
330
573
102
}
330
573
100
AcDbVisualStyle
  2
Hidden
 70
     6
177
     3
291
     0
 70
    58
 90
        1
176
     1
 90
        2
176
     1
 90
        2
176
     1
 90
        0
176
     1
 40
0.6
176
     1
 40
30.0
176
     1
 62
     7
420
 16777215
176
     1
 90
        2
176
     1
 90
        2
176
     1
 62
     7
176
     1
 62
   257
176
     1
 90
        2
176
     1
 90
        1
176
     1
 40
40.0
176
     1
 90
        0
176
     1
 62
   257
176
     1
 40
1.0
176
     1
 90
        1
176
     1
 90
        6
176
     1
 90
        2
176
     1
 62
     7
176
     1
 90
        3
176
     1
 90
        0
176
     1
 90
        0
176
     1
290
     0
176
     1
 90
        1
176
     1
 40
0.0
176
     1
 90
        0
176
     1
290
     0
176
     1
290
     1
176
     1
290
     1
176
     1
290
     0
176
     1
290
     0
176
     1
290
     0
176
     1
290
     0
176
     1
290
     0
176
     1
290
     0
176
     1
 90
       50
176
     1
 40
0.0
176
     1
 40
1.0
176
     1
 90
        0
176
     1
 62
    18
420
        0
176
     1
 90
       50
176
     1
 90
        3
176
     1
 62
     5
420
      255
176
     1
290
     0
176
     1
 90
       50
176
     1
 90
       50
176
     1
 90
       50
176
     1
290
     0
176
     1
 90
       50
176
     1
 62
   256
176
     0
 40
1.0
176
     0
 90
        2
176
     1
  1
strokes_ogs.tif
176
     1
290
     0
176
     1
 40
1.0
176
     1
 40
1.0
176
     1
  0
VISUALSTYLE
  5
589
102
{ACAD_REACTORS
330
573
102
}
330
573
100
AcDbVisualStyle
  2
JitterOff
 70
    20
177
     3
291
     1
 70
    58
 90
        2
176
     0
 90
        2
176
     0
 90
        0
176
     0
 90
        0
176
     0
 40
0.6
176
     0
 40
30.0
176
     0
 62
     7
420
 16777215
176
     0
 90
        1
176
     0
 90
        4
176
     0
 62
     7
176
     0
 62
   257
176
     0
 90
        1
176
     0
 90
        1
176
     0
 40
1.0
176
     0
 90
       10
176
     2
 62
     7
176
     0
 40
1.0
176
     0
 90
        1
176
     0
 90
        6
176
     0
 90
        2
176
     0
 62
     7
176
     0
 90
        5
176
     0
 90
        0
176
     0
 90
        0
176
     0
290
     0
176
     0
 90
        1
176
     0
 40
0.0
176
     0
 90
        0
176
     0
290
     0
176
     1
290
     1
176
     1
290
     1
176
     1
290
     0
176
     1
290
     0
176
     1
290
     0
176
     1
290
     0
176
     1
290
     0
176
     1
290
     0
176
     1
 90
       50
176
     0
 40
0.0
176
     0
 40
1.0
176
     0
 90
        0
176
     0
 62
    18
420
        0
176
     0
 90
       50
176
     0
 90
        3
176
     0
 62
     5
420
      255
176
     0
290
     0
176
     1
 90
       50
176
     0
 90
       50
176
     0
 90
       50
176
     0
290
     0
176
     1
 90
       50
176
     0
 62
   256
176
     0
 40
1.0
176
     0
 90
        2
176
     0
  1
strokes_ogs.tif
176
     0
290
     0
176
     1
 40
1.0
176
     0
 40
1.0
176
     0
  0
VISUALSTYLE
  5
581
102
{ACAD_REACTORS
330
573
102
}
330
573
100
AcDbVisualStyle
  2
Linepattern
 70
    14
177
     3
291
     1
 70
    58
 90
        2
176
     1
 90
        2
176
     1
 90
        0
176
     1
 90
        0
176
     1
 40
0.6
176
     1
 40
30.0
176
     1
 62
     7
420
 16777215
176
     1
 90
        1
176
     1
 90
        4
176
     1
 62
     7
176
     1
 62
   257
176
     1
 90
        7
176
     1
 90
        7
176
     1
 40
1.0
176
     1
 90
        8
176
     1
 62
     7
176
     1
 40
1.0
176
     1
 90
        1
176
     1
 90
        6
176
     1
 90
        2
176
     1
 62
     7
176
     1
 90
        5
176
     1
 90
        0
176
     1
 90
        0
176
     1
290
     0
176
     1
 90
        1
176
     1
 40
0.0
176
     1
 90
        0
176
     1
290
     0
176
     1
290
     1
176
     1
290
     1
176
     1
290
     0
176
     1
290
     0
176
     1
290
     0
176
     1
290
     0
176
     1
290
     0
176
     1
290
     0
176
     1
 90
       50
176
     1
 40
0.0
176
     1
 40
1.0
176
     1
 90
        0
176
     1
 62
    18
420
        0
176
     1
 90
       50
176
     1
 90
        3
176
     1
 62
     5
420
      255
176
     1
290
     0
176
     1
 90
       50
176
     1
 90
       50
176
     1
 90
       50
176
     1
290
     0
176
     1
 90
       50
176
     1
 62
   256
176
     0
 40
1.0
176
     0
 90
        2
176
     1
  1
strokes_ogs.tif
176
     1
290
     0
176
     1
 40
1.0
176
     1
 40
1.0
176
     1
  0
VISUALSTYLE
  5
58A
102
{ACAD_REACTORS
330
573
102
}
330
573
100
AcDbVisualStyle
  2
OverhangOff
 70
    21
177
     3
291
     1
 70
    58
 90
        2
176
     0
 90
        2
176
     0
 90
        0
176
     0
 90
        0
176
     0
 40
0.6
176
     0
 40
30.0
176
     0
 62
     7
420
 16777215
176
     0
 90
        1
176
     0
 90
        4
176
     0
 62
     7
176
     0
 62
   257
176
     0
 90
        1
176
     0
 90
        1
176
     0
 40
1.0
176
     0
 90
        9
176
     2
 62
     7
176
     0
 40
1.0
176
     0
 90
        1
176
     0
 90
        6
176
     0
 90
        2
176
     0
 62
     7
176
     0
 90
        5
176
     0
 90
        0
176
     0
 90
        0
176
     0
290
     0
176
     0
 90
        1
176
     0
 40
0.0
176
     0
 90
        0
176
     0
290
     0
176
     1
290
     1
176
     1
290
     1
176
     1
290
     0
176
     1
290
     0
176
     1
290
     0
176
     1
290
     0
176
     1
290
     0
176
     1
290
     0
176
     1
 90
       50
176
     0
 40
0.0
176
     0
 40
1.0
176
     0
 90
        0
176
     0
 62
    18
420
        0
176
     0
 90
       50
176
     0
 90
        3
176
     0
 62
     5
420
      255
176
     0
290
     0
176
     1
 90
       50
176
     0
 90
       50
176
     0
 90
       50
176
     0
290
     0
176
     1
 90
       50
176
     0
 62
   256
176
     0
 40
1.0
176
     0
 90
        2
176
     0
  1
strokes_ogs.tif
176
     0
290
     0
176
     1
 40
1.0
176
     0
 40
1.0
176
     0
  0
VISUALSTYLE
  5
57D
102
{ACAD_REACTORS
330
573
102
}
330
573
100
AcDbVisualStyle
  2
Realistic
 70
     8
177
     3
291
     0
 70
    58
 90
        2
176
     1
 90
        2
176
     1
 90
        0
176
     1
 90
        2
176
     1
 40
0.6
176
     1
 40
30.0
176
     1
 62
     7
420
 16777215
176
     1
 90
        0
176
     1
 90
        0
176
     1
 62
     7
176
     1
 62
   257
176
     1
 90
        1
176
     1
 90
        1
176
     1
 40
1.0
176
     1
 90
        8
176
     1
 62
   257
176
     1
 40
1.0
176
     1
 90
        1
176
     1
 90
        6
176
     1
 90
        2
176
     1
 62
     7
176
     1
 90
        3
176
     1
 90
        0
176
     1
 90
        0
176
     1
290
     0
176
     1
 90
       13
176
     1
 40
0.0
176
     1
 90
        0
176
     1
290
     0
176
     1
290
     1
176
     1
290
     1
176
     1
290
     0
176
     1
290
     0
176
     1
290
     0
176
     1
290
     0
176
     1
290
     0
176
     1
290
     0
176
     1
 90
       50
176
     1
 40
0.0
176
     1
 40
1.0
176
     1
 90
        0
176
     1
 62
    18
420
        0
176
     1
 90
       50
176
     1
 90
        3
176
     1
 62
     5
420
      255
176
     1
290
     0
176
     1
 90
       50
176
     1
 90
       50
176
     1
 90
       50
176
     1
290
     0
176
     1
 90
       50
176
     1
 62
   256
176
     0
 40
1.0
176
     0
 90
        2
176
     1
  1
strokes_ogs.tif
176
     1
290
     0
176
     1
 40
1.0
176
     1
 40
1.0
176
     1
  0
VISUALSTYLE
  5
588
102
{ACAD_REACTORS
330
573
102
}
330
573
100
AcDbVisualStyle
  2
Shaded
 70
    27
177
     3
291
     0
 70
    58
 90
        2
176
     1
 90
        2
176
     1
 90
        1
176
     1
 90
        2
176
     1
 40
0.6
176
     1
 40
30.0
176
     1
 62
     7
420
 16777215
176
     1
 90
        0
176
     1
 90
        4
176
     1
 62
     7
176
     1
 62
   257
176
     1
 90
        1
176
     1
 90
        1
176
     1
 40
1.0
176
     1
 90
        8
176
     1
 62
   257
176
     1
 40
1.0
176
     1
 90
        1
176
     1
 90
        6
176
     1
 90
        2
176
     1
 62
     8
420
  7895160
176
     1
 90
        3
176
     1
 90
        0
176
     1
 90
        0
176
     1
290
     0
176
     1
 90
        5
176
     1
 40
0.0
176
     1
 90
        0
176
     1
290
     0
176
     1
290
     1
176
     1
290
     1
176
     1
290
     0
176
     1
290
     0
176
     1
290
     0
176
     1
290
     0
176
     1
290
     0
176
     1
290
     0
176
     1
 90
       50
176
     1
 40
0.0
176
     1
 40
1.0
176
     1
 90
        0
176
     1
 62
    18
420
        0
176
     1
 90
       50
176
     1
 90
        3
176
     1
 62
     5
420
      255
176
     1
290
     0
176
     1
 90
       50
176
     1
 90
       50
176
     1
 90
       50
176
     1
290
     0
176
     1
 90
       50
176
     1
 62
   256
176
     0
 40
1.0
176
     0
 90
        2
176
     1
  1
strokes_ogs.tif
176
     1
290
     0
176
     1
 40
1.0
176
     1
 40
1.0
176
     1
  0
VISUALSTYLE
  5
587
102
{ACAD_REACTORS
330
573
102
}
330
573
100
AcDbVisualStyle
  2
Shaded with edges
 70
    26
177
     3
291
     0
 70
    58
 90
        2
176
     1
 90
        2
176
     1
 90
        1
176
     1
 90
        2
176
     1
 40
0.6
176
     1
 40
30.0
176
     1
 62
     7
420
 16777215
176
     1
 90
        1
176
     1
 90
       10
176
     1
 62
     7
176
     1
 62
   257
176
     1
 90
        2
176
     1
 90
        1
176
     1
 40
1.0
176
     1
 90
        8
176
     1
 62
   257
176
     1
 40
1.0
176
     1
 90
        1
176
     1
 90
        6
176
     1
 90
        2
176
     1
 62
     7
176
     1
 90
        3
176
     1
 90
        0
176
     1
 90
        0
176
     1
290
     0
176
     1
 90
        5
176
     1
 40
0.0
176
     1
 90
        0
176
     1
290
     0
176
     1
290
     1
176
     1
290
     1
176
     1
290
     0
176
     1
290
     0
176
     1
290
     0
176
     1
290
     0
176
     1
290
     0
176
     1
290
     0
176
     1
 90
       50
176
     1
 40
0.0
176
     1
 40
1.0
176
     1
 90
        0
176
     1
 62
    18
420
        0
176
     1
 90
       50
176
     1
 90
        3
176
     1
 62
     5
420
      255
176
     1
290
     0
176
     1
 90
       50
176
     1
 90
       50
176
     1
 90
       50
176
     1
290
     0
176
     1
 90
       50
176
     1
 62
   256
176
     0
 40
1.0
176
     0
 90
        2
176
     1
  1
strokes_ogs.tif
176
     1
290
     0
176
     1
 40
1.0
176
     1
 40
1.0
176
     1
  0
VISUALSTYLE
  5
584
102
{ACAD_REACTORS
330
573
102
}
330
573
100
AcDbVisualStyle
  2
Shades of Gray
 70
    23
177
     3
291
     0
 70
    58
 90
        2
176
     1
 90
        2
176
     1
 90
        3
176
     1
 90
        0
176
     1
 40
0.6
176
     1
 40
30.0
176
     1
 62
     7
420
 16777215
176
     1
 90
        2
176
     1
 90
        2
176
     1
 62
     7
176
     1
 62
     7
176
     1
 90
        1
176
     1
 90
        1
176
     1
 40
40.0
176
     1
 90
        8
176
     1
 62
     7
176
     1
 40
1.0
176
     1
 90
        1
176
     1
 90
        6
176
     1
 90
        2
176
     1
 62
     7
176
     1
 90
        3
176
     1
 90
        0
176
     1
 90
        0
176
     1
290
     0
176
     1
 90
        1
176
     1
 40
0.0
176
     1
 90
        0
176
     1
290
     0
176
     1
290
     1
176
     1
290
     1
176
     1
290
     0
176
     1
290
     0
176
     1
290
     0
176
     1
290
     0
176
     1
290
     0
176
     1
290
     0
176
     1
 90
       50
176
     1
 40
0.0
176
     1
 40
1.0
176
     1
 90
        0
176
     1
 62
    18
420
        0
176
     1
 90
       50
176
     1
 90
        3
176
     1
 62
     5
420
      255
176
     1
290
     0
176
     1
 90
       50
176
     1
 90
       50
176
     1
 90
       50
176
     1
290
     0
176
     1
 90
       50
176
     1
 62
   256
176
     0
 40
1.0
176
     0
 90
        2
176
     1
  1
strokes_ogs.tif
176
     1
290
     0
176
     1
 40
1.0
176
     1
 40
1.0
176
     1
  0
VISUALSTYLE
  5
585
102
{ACAD_REACTORS
330
573
102
}
330
573
100
AcDbVisualStyle
  2
Sketchy
 70
    24
177
     3
291
     0
 70
    58
 90
        1
176
     1
 90
        2
176
     1
 90
        2
176
     1
 90
        0
176
     1
 40
0.6
176
     1
 40
30.0
176
     1
 62
     7
420
 16777215
176
     1
 90
        2
176
     1
 90
        2
176
     1
 62
     7
176
     1
 62
     7
176
     1
 90
        1
176
     1
 90
        1
176
     1
 40
40.0
176
     1
 90
       11
176
     1
 62
     7
176
     1
 40
1.0
176
     1
 90
        1
176
     1
 90
        6
176
     1
 90
        2
176
     1
 62
     7
176
     1
 90
        6
176
     1
 90
        0
176
     1
 90
        0
176
     1
290
     0
176
     1
 90
        1
176
     1
 40
0.0
176
     1
 90
        0
176
     1
290
     0
176
     1
290
     1
176
     1
290
     1
176
     1
290
     0
176
     1
290
     0
176
     1
290
     0
176
     1
290
     0
176
     1
290
     0
176
     1
290
     0
176
     1
 90
       50
176
     1
 40
0.0
176
     1
 40
1.0
176
     1
 90
        0
176
     1
 62
    18
420
        0
176
     1
 90
       50
176
     1
 90
        3
176
     1
 62
     5
420
      255
176
     1
290
     0
176
     1
 90
       50
176
     1
 90
       50
176
     1
 90
       50
176
     1
290
     0
176
     1
 90
       50
176
     1
 62
   256
176
     0
 40
1.0
176
     0
 90
        2
176
     1
  1
strokes_ogs.tif
176
     1
290
     0
176
     1
 40
1.0
176
     1
 40
1.0
176
     1
  0
VISUALSTYLE
  5
580
102
{ACAD_REACTORS
330
573
102
}
330
573
100
AcDbVisualStyle
  2
Thicken
 70
    13
177
     3
291
     1
 70
    58
 90
        2
176
     1
 90
        2
176
     1
 90
        0
176
     1
 90
        0
176
     1
 40
0.6
176
     1
 40
30.0
176
     1
 62
     7
420
 16777215
176
     1
 90
        1
176
     1
 90
        4
176
     1
 62
     7
176
     1
 62
   257
176
     1
 90
        1
176
     1
 90
        1
176
     1
 40
1.0
176
     1
 90
       12
176
     1
 62
     7
176
     1
 40
1.0
176
     1
 90
        1
176
     1
 90
        6
176
     1
 90
        2
176
     1
 62
     7
176
     1
 90
        5
176
     1
 90
        0
176
     1
 90
        0
176
     1
290
     0
176
     1
 90
        1
176
     1
 40
0.0
176
     1
 90
        0
176
     1
290
     0
176
     1
290
     1
176
     1
290
     1
176
     1
290
     0
176
     1
290
     0
176
     1
290
     0
176
     1
290
     0
176
     1
290
     0
176
     1
290
     0
176
     1
 90
       50
176
     1
 40
0.0
176
     1
 40
1.0
176
     1
 90
        0
176
     1
 62
    18
420
        0
176
     1
 90
       50
176
     1
 90
        3
176
     1
 62
     5
420
      255
176
     1
290
     0
176
     1
 90
       50
176
     1
 90
       50
176
     1
 90
       50
176
     1
290
     0
176
     1
 90
       50
176
     1
 62
   256
176
     0
 40
1.0
176
     0
 90
        2
176
     1
  1
strokes_ogs.tif
176
     1
290
     0
176
     1
 40
1.0
176
     1
 40
1.0
176
     1
  0
VISUALSTYLE
  5
57A
102
{ACAD_REACTORS
330
573
102
}
330
573
100
AcDbVisualStyle
  2
Wireframe
 70
     5
177
     3
291
     0
 70
    58
 90
        0
176
     1
 90
        2
176
     1
 90
        0
176
     1
 90
        0
176
     1
 40
0.6
176
     1
 40
30.0
176
     1
 62
     7
420
 16777215
176
     1
 90
        1
176
     1
 90
        4
176
     1
 62
     7
176
     1
 62
   257
176
     1
 90
        1
176
     1
 90
        1
176
     1
 40
1.0
176
     1
 90
        0
176
     1
 62
   257
176
     1
 40
1.0
176
     1
 90
        1
176
     1
 90
        6
176
     1
 90
        2
176
     1
 62
     7
176
     1
 90
        3
176
     1
 90
        0
176
     1
 90
        0
176
     1
290
     0
176
     1
 90
        1
176
     1
 40
0.0
176
     1
 90
        0
176
     1
290
     0
176
     1
290
     1
176
     1
290
     1
176
     1
290
     0
176
     1
290
     0
176
     1
290
     0
176
     1
290
     0
176
     1
290
     0
176
     1
290
     0
176
     1
 90
       50
176
     1
 40
0.0
176
     1
 40
1.0
176
     1
 90
        0
176
     1
 62
    18
420
        0
176
     1
 90
       50
176
     1
 90
        3
176
     1
 62
     5
420
      255
176
     1
290
     0
176
     1
 90
       50
176
     1
 90
       50
176
     1
 90
       50
176
     1
290
     0
176
     1
 90
       50
176
     1
 62
   256
176
     0
 40
1.0
176
     0
 90
        2
176
     1
  1
strokes_ogs.tif
176
     1
290
     0
176
     1
 40
1.0
176
     1
 40
1.0
176
     1
  0
VISUALSTYLE
  5
586
102
{ACAD_REACTORS
330
573
102
}
330
573
100
AcDbVisualStyle
  2
X-Ray
 70
    25
177
     3
291
     0
 70
    58
 90
        2
176
     1
 90
        2
176
     1
 90
        1
176
     1
 90
        1
176
     1
 40
0.5
176
     1
 40
30.0
176
     1
 62
     7
420
 16777215
176
     1
 90
        1
176
     1
 90
        0
176
     1
 62
     7
176
     1
 62
   257
176
     1
 90
        1
176
     1
 90
        1
176
     1
 40
1.0
176
     1
 90
        8
176
     1
 62
     7
176
     1
 40
1.0
176
     1
 90
        1
176
     1
 90
        6
176
     1
 90
        2
176
     1
 62
     7
176
     1
 90
        3
176
     1
 90
        0
176
     1
 90
        0
176
     1
290
     0
176
     1
 90
       13
176
     1
 40
0.0
176
     1
 90
        0
176
     1
290
     0
176
     1
290
     1
176
     1
290
     1
176
     1
290
     0
176
     1
290
     0
176
     1
290
     0
176
     1
290
     0
176
     1
290
     0
176
     1
290
     0
176
     1
 90
       50
176
     1
 40
0.0
176
     1
 40
1.0
176
     1
 90
        0
176
     1
 62
    18
420
        0
176
     1
 90
       50
176
     1
 90
        3
176
     1
 62
     5
420
      255
176
     1
290
     0
176
     1
 90
       50
176
     1
 90
       50
176
     1
 90
       50
176
     1
290
     0
176
     1
 90
       50
176
     1
 62
   256
176
     0
 40
1.0
176
     0
 90
        2
176
     1
  1
strokes_ogs.tif
176
     1
290
     0
176
     1
 40
1.0
176
     1
 40
1.0
176
     1
  0
DICTIONARYVAR
  5
840
102
{ACAD_REACTORS
330
66
102
}
330
66
100
DictionaryVariables
280
     0
  1
1:1
  0
DICTIONARYVAR
  5
83D
102
{ACAD_REACTORS
330
66
102
}
330
66
100
DictionaryVariables
280
     0
  1
STANDARD
  0
DICTIONARYVAR
  5
83C
102
{ACAD_REACTORS
330
66
102
}
330
66
100
DictionaryVariables
280
     0
  1
STANDARD
  0
DICTIONARYVAR
  5
83E
102
{ACAD_REACTORS
330
66
102
}
330
66
100
DictionaryVariables
280
     0
  1
Imperial24
  0
DICTIONARYVAR
  5
83F
102
{ACAD_REACTORS
330
66
102
}
330
66
100
DictionaryVariables
280
     0
  1
Imperial24
  0
DICTIONARYVAR
  5
67
102
{ACAD_REACTORS
330
66
102
}
330
66
100
DictionaryVariables
280
     0
  1
2
  0
DICTIONARYVAR
  5
6B
102
{ACAD_REACTORS
330
66
102
}
330
66
100
DictionaryVariables
280
     0
  1
1
  0
DICTIONARYVAR
  5
8E5
102
{ACAD_REACTORS
330
66
102
}
330
66
100
DictionaryVariables
280
     0
  1
1
  0
DICTIONARYVAR
  5
8E6
102
{ACAD_REACTORS
330
66
102
}
330
66
100
DictionaryVariables
280
     0
  1
15
  0
DICTIONARYVAR
  5
8E4
102
{ACAD_REACTORS
330
66
102
}
330
66
100
DictionaryVariables
280
     0
  1
0
  0
DICTIONARYVAR
  5
8E3
102
{ACAD_REACTORS
330
66
102
}
330
66
100
DictionaryVariables
280
     0
  1
0
  0
DICTIONARYVAR
  5
539
102
{ACAD_REACTORS
330
66
102
}
330
66
100
DictionaryVariables
280
     0
  1

  0
DICTIONARY
  5
8EA
330
5A5
100
AcDbDictionary
280
     1
281
     1
  3
ACAD_XREC_ROUNDTRIP
360
8EB
  0
DICTIONARY
  5
564
330
563
100
AcDbDictionary
280
     1
281
     1
  3
BUMPTILE
360
566
  3
DIFFUSETILE
360
565
  3
OPACITYTILE
360
569
  3
REFLECTIONTILE
360
568
  3
REFRACTIONTILE
360
56A
  3
SPECULARTILE
360
567
  0
DICTIONARY
  5
55C
330
55B
100
AcDbDictionary
280
     1
281
     1
  3
BUMPTILE
360
55E
  3
DIFFUSETILE
360
55D
  3
OPACITYTILE
360
561
  3
REFLECTIONTILE
360
560
  3
REFRACTIONTILE
360
562
  3
SPECULARTILE
360
55F
  0
DICTIONARY
  5
56C
330
56B
100
AcDbDictionary
280
     1
281
     1
  3
BUMPTILE
360
56E
  3
DIFFUSETILE
360
56D
  3
OPACITYTILE
360
571
  3
REFLECTIONTILE
360
570
  3
REFRACTIONTILE
360
572
  3
SPECULARTILE
360
56F
  0
DICTIONARY
  5
8E8
330
5A3
100
AcDbDictionary
280
     1
281
     1
  3
ACAD_XREC_ROUNDTRIP
360
8E9
  0
DICTIONARY
  5
7EF
330
58D
100
AcDbDictionary
280
     1
281
     1
  3
ACAD_ROUNDTRIP_2008_TABLESTYLE_CELLSTYLEMAP
360
8E7
  0
XRECORD
  5
8EB
102
{ACAD_REACTORS
330
8EA
102
}
330
8EA
100
AcDbXrecord
280
     1
102
DISPLAYNAME
  1
Imperial24
102
FLAGS
 90
        0
  0
XRECORD
  5
566
102
{ACAD_REACTORS
330
564
102
}
330
564
100
AcDbXrecord
280
     1
270
     1
271
     1
  0
XRECORD
  5
565
102
{ACAD_REACTORS
330
564
102
}
330
564
100
AcDbXrecord
280
     1
270
     1
271
     1
  0
XRECORD
  5
569
102
{ACAD_REACTORS
330
564
102
}
330
564
100
AcDbXrecord
280
     1
270
     1
271
     1
  0
XRECORD
  5
568
102
{ACAD_REACTORS
330
564
102
}
330
564
100
AcDbXrecord
280
     1
270
     1
271
     1
  0
XRECORD
  5
56A
102
{ACAD_REACTORS
330
564
102
}
330
564
100
AcDbXrecord
280
     1
270
     1
271
     1
  0
XRECORD
  5
567
102
{ACAD_REACTORS
330
564
102
}
330
564
100
AcDbXrecord
280
     1
270
     1
271
     1
  0
XRECORD
  5
55E
102
{ACAD_REACTORS
330
55C
102
}
330
55C
100
AcDbXrecord
280
     1
270
     1
271
     1
  0
XRECORD
  5
55D
102
{ACAD_REACTORS
330
55C
102
}
330
55C
100
AcDbXrecord
280
     1
270
     1
271
     1
  0
XRECORD
  5
561
102
{ACAD_REACTORS
330
55C
102
}
330
55C
100
AcDbXrecord
280
     1
270
     1
271
     1
  0
XRECORD
  5
560
102
{ACAD_REACTORS
330
55C
102
}
330
55C
100
AcDbXrecord
280
     1
270
     1
271
     1
  0
XRECORD
  5
562
102
{ACAD_REACTORS
330
55C
102
}
330
55C
100
AcDbXrecord
280
     1
270
     1
271
     1
  0
XRECORD
  5
55F
102
{ACAD_REACTORS
330
55C
102
}
330
55C
100
AcDbXrecord
280
     1
270
     1
271
     1
  0
XRECORD
  5
56E
102
{ACAD_REACTORS
330
56C
102
}
330
56C
100
AcDbXrecord
280
     1
270
     1
271
     1
  0
XRECORD
  5
56D
102
{ACAD_REACTORS
330
56C
102
}
330
56C
100
AcDbXrecord
280
     1
270
     1
271
     1
  0
XRECORD
  5
571
102
{ACAD_REACTORS
330
56C
102
}
330
56C
100
AcDbXrecord
280
     1
270
     1
271
     1
  0
XRECORD
  5
570
102
{ACAD_REACTORS
330
56C
102
}
330
56C
100
AcDbXrecord
280
     1
270
     1
271
     1
  0
XRECORD
  5
572
102
{ACAD_REACTORS
330
56C
102
}
330
56C
100
AcDbXrecord
280
     1
270
     1
271
     1
  0
XRECORD
  5
56F
102
{ACAD_REACTORS
330
56C
102
}
330
56C
100
AcDbXrecord
280
     1
270
     1
271
     1
  0
XRECORD
  5
8E9
102
{ACAD_REACTORS
330
8E8
102
}
330
8E8
100
AcDbXrecord
280
     1
102
DISPLAYNAME
  1
Imperial24
102
FLAGS
 90
        0
  0
CELLSTYLEMAP
  5
8E7
102
{ACAD_REACTORS
330
7EF
102
}
330
7EF
100
AcDbCellStyleMap
 90
        3
300
CELLSTYLE
  1
TABLEFORMAT_BEGIN
 90
        5
170
     1
 91
        0
 92
    32768
 62
   257
 93
        1
300
CONTENTFORMAT
  1
CONTENTFORMAT_BEGIN
 90
        0
 91
        0
 92
      512
 93
        0
300

 40
0.0
140
1.0
 94
        5
 62
     0
340
11
144
0.25
309
CONTENTFORMAT_END
171
     0
 94
        0
309
TABLEFORMAT_END
  1
CELLSTYLE_BEGIN
 90
        1
 91
        1
300
_TITLE
309
CELLSTYLE_END
300
CELLSTYLE
  1
TABLEFORMAT_BEGIN
 90
        5
170
     1
 91
        0
 92
        0
 62
   257
 93
        1
300
CONTENTFORMAT
  1
CONTENTFORMAT_BEGIN
 90
        0
 91
        0
 92
      512
 93
        0
300

 40
0.0
140
1.0
 94
        5
 62
     0
340
11
144
0.18
309
CONTENTFORMAT_END
171
     0
 94
        0
309
TABLEFORMAT_END
  1
CELLSTYLE_BEGIN
 90
        2
 91
        1
300
_HEADER
309
CELLSTYLE_END
300
CELLSTYLE
  1
TABLEFORMAT_BEGIN
 90
        5
170
     1
 91
        0
 92
        0
 62
   257
 93
        1
300
CONTENTFORMAT
  1
CONTENTFORMAT_BEGIN
 90
        0
 91
        0
 92
      512
 93
        0
300

 40
0.0
140
1.0
 94
        2
 62
     0
340
11
144
0.18
309
CONTENTFORMAT_END
171
     0
 94
        0
309
TABLEFORMAT_END
  1
CELLSTYLE_BEGIN
 90
        3
 91
        2
300
_DATA
309
CELLSTYLE_END
  0
ENDSEC
  0
SECTION
  2
ACDSDATA
 70
     2
 71
     6
  0
ACDSSCHEMA
 90
        0
  1
AcDb_Thumbnail_Schema
  2
AcDbDs::ID
280
    10
 91
        8
  2
Thumbnail_Data
280
    15
 91
        0
101
ACDSRECORD
 95
        0
 90
        1
  2
AcDbDs::TreatedAsObjectData
280
     1
291
     1
101
ACDSRECORD
 95
        0
 90
        2
  2
AcDbDs::Legacy
280
     1
291
     1
101
ACDSRECORD
  1
AcDbDs::ID
 90
        3
  2
AcDs:Indexable
280
     1
291
     1
101
ACDSRECORD
  1
AcDbDs::ID
 90
        4
  2
AcDbDs::HandleAttribute
280
     7
282
     1
  0
ACDSSCHEMA
 90
        1
  1
AcDbDs::TreatedAsObjectDataSchema
  2
AcDbDs::TreatedAsObjectData
280
     1
 91
        0
  0
ACDSSCHEMA
 90
        2
  1
AcDbDs::LegacySchema
  2
AcDbDs::Legacy
280
     1
 91
        0
  0
ACDSSCHEMA
 90
        3
  1
AcDbDs::IndexedPropertySchema
  2
AcDs:Indexable
280
     1
 91
        0
  0
ACDSSCHEMA
 90
        4
  1
AcDbDs::HandleAttributeSchema
  2
AcDbDs::HandleAttribute
280
     7
 91
        1
284
     1
  0
ACDSRECORD
 90
        0
  2
AcDbDs::ID
280
    10
320
22
  2
Thumbnail_Data
280
    15
 94
     1216
310
89504E470D0A1A0A0000000D49484452000001000000007E0803000000FCF33F5100000300504C5445000000000000FFFFFF0000000000000000000000000000000000000000000000000000330000660000990000CC0000FF0033000033330033660033990033CC0033FF0066000066330066660066990066CC0066FF0099
310
000099330099660099990099CC0099FF00CC0000CC3300CC6600CC9900CCCC00CCFF00FF0000FF3300FF6600FF9900FFCC00FFFF3300003300333300663300993300CC3300FF3333003333333333663333993333CC3333FF3366003366333366663366993366CC3366FF3399003399333399663399993399CC3399FF33CC00
310
33CC3333CC6633CC9933CCCC33CCFF33FF0033FF3333FF6633FF9933FFCC33FFFF6600006600336600666600996600CC6600FF6633006633336633666633996633CC6633FF6666006666336666666666996666CC6666FF6699006699336699666699996699CC6699FF66CC0066CC3366CC6666CC9966CCCC66CCFF66FF0066
310
FF3366FF6666FF9966FFCC66FFFF9900009900339900669900999900CC9900FF9933009933339933669933999933CC9933FF9966009966339966669966999966CC9966FF9999009999339999669999999999CC9999FF99CC0099CC3399CC6699CC9999CCCC99CCFF99FF0099FF3399FF6699FF9999FFCC99FFFFCC0000CC00
310
33CC0066CC0099CC00CCCC00FFCC3300CC3333CC3366CC3399CC33CCCC33FFCC6600CC6633CC6666CC6699CC66CCCC66FFCC9900CC9933CC9966CC9999CC99CCCC99FFCCCC00CCCC33CCCC66CCCC99CCCCCCCCCCFFCCFF00CCFF33CCFF66CCFF99CCFFCCCCFFFFFF0000FF0033FF0066FF0099FF00CCFF00FFFF3300FF3333
310
FF3366FF3399FF33CCFF33FFFF6600FF6633FF6666FF6699FF66CCFF66FFFF9900FF9933FF9966FF9999FF99CCFF99FFFFCC00FFCC33FFCC66FFCC99FFCCCCFFCCFFFFFF00FFFF33FFFF66FFFF99FFFFCCFFFFFF0000000D0D0D1A1A1A2828283535354343435050505D5D5D6B6B6B787878868686939393A1A1A1AEAEAEBB
310
BBBBC9C9C9D6D6D6E4E4E4F1F1F1FFFFFF000000000000000000000000000000000000000000000000000000000000C11FEF660000017B4944415478DAEDDCDB8A83401045D1FEFFFFEDF70135A675BC840C81499DB5C180621EDC56957DA35B030000000000000000C011FD4F5410706BE6FC969621A0A70B68E706A44048
310
0A6446C0C7FFFCAF050CF97F1504044881BA0286777E1E02B55380000208206030102160FEF0CF97FBF6720B11F0EC00650B7871ECA7A8802901F63560FA7D1C3D3002FAA67B50BC08EE833E2D050E9E37AE06A40A387D5E020820800002EA0BE8E97D81AE1DA006ACA170791E25E0D1132680000208C811F0EB84805C013D
310
5CC0D20FC81670DA29AA2E609D26998E2801CFD7BDA6C05110149E1C1D66432E8606AA0A9883BEDF077BE11AB06FFAD517304C7D1E8D7F4409386AF9070868CBC290C7872F4DC0CD45020820800002D2048C6BC1FAD256D8AEA0AB2EE0B0339424203E02F602026A40FA5AE171106C1B012D44C0690A1010266019141CBF86
310
041040000131025EBDA5B680F8082020BE06F4A6087EF2CF5F2DA0D2666A6F6D0F972AA0E4767AE9FB0902000000000000F8727E00971CF1D934C94FDA0000000049454E44AE426082
  0
ENDSEC
  0
EOF
