  0
SECTION
  2
HEADER
  9
$ACADVER
  1
AC1027
  9
$ACADMAINTVER
 70
    55
  9
$DWGCODEPAGE
  3
ANSI_1252
  9
$LASTSAVEDBY
  1
Reid
  9
$REQUIREDVERSIONS
160
                 0
  9
$INSBASE
 10
0.0
 20
0.0
 30
0.0
  9
$EXTMIN
 10
10.12413091599183
 20
7.00307300957254
 30
0.0
  9
$EXTMAX
 10
30.93462336259229
 20
34.36070175085784
 30
0.0
  9
$LIMMIN
 10
0.0
 20
0.0
  9
$LIMMAX
 10
12.0
 20
9.0
  9
$ORTHOMODE
 70
     1
  9
$REGENMODE
 70
     1
  9
$FILLMODE
 70
     1
  9
$QTEXTMODE
 70
     0
  9
$MIRRTEXT
 70
     0
  9
$LTSCALE
 40
1.0
  9
$ATTMODE
 70
     1
  9
$TEXTSIZE
 40
0.2
  9
$TRACEWID
 40
0.05
  9
$TEXTSTYLE
  7
Standard
  9
$CLAYER
  8
0
  9
$CELTYPE
  6
ByLayer
  9
$CECOLOR
 62
   256
  9
$CELTSCALE
 40
1.0
  9
$DISPSILH
 70
     0
  9
$DIMSCALE
 40
1.0
  9
$DIMASZ
 40
0.433
  9
$DIMEXO
 40
0.25
  9
$DIMDLI
 40
0.38
  9
$DIMRND
 40
0.0
  9
$DIMDLE
 40
0.0
  9
$DIMEXE
 40
0.18
  9
$DIMTP
 40
0.0
  9
$DIMTM
 40
0.0
  9
$DIMTXT
 40
0.433
  9
$DIMCEN
 40
0.09
  9
$DIMTSZ
 40
0.0
  9
$DIMTOL
 70
     0
  9
$DIMLIM
 70
     0
  9
$DIMTIH
 70
     1
  9
$DIMTOH
 70
     1
  9
$DIMSE1
 70
     0
  9
$DIMSE2
 70
     0
  9
$DIMTAD
 70
     0
  9
$DIMZIN
 70
     0
  9
$DIMBLK
  1

  9
$DIMASO
 70
     1
  9
$DIMSHO
 70
     1
  9
$DIMPOST
  1

  9
$DIMAPOST
  1

  9
$DIMALT
 70
     0
  9
$DIMALTD
 70
     2
  9
$DIMALTF
 40
25.4
  9
$DIMLFAC
 40
1.0
  9
$DIMTOFL
 70
     0
  9
$DIMTVP
 40
0.0
  9
$DIMTIX
 70
     0
  9
$DIMSOXD
 70
     0
  9
$DIMSAH
 70
     0
  9
$DIMBLK1
  1

  9
$DIMBLK2
  1

  9
$DIMSTYLE
  2
Standard
  9
$DIMCLRD
 70
     0
  9
$DIMCLRE
 70
     0
  9
$DIMCLRT
 70
     0
  9
$DIMTFAC
 40
1.0
  9
$DIMGAP
 40
0.09
  9
$DIMJUST
 70
     0
  9
$DIMSD1
 70
     0
  9
$DIMSD2
 70
     0
  9
$DIMTOLJ
 70
     1
  9
$DIMTZIN
 70
     0
  9
$DIMALTZ
 70
     0
  9
$DIMALTTZ
 70
     0
  9
$DIMUPT
 70
     0
  9
$DIMDEC
 70
     3
  9
$DIMTDEC
 70
     3
  9
$DIMALTU
 70
     2
  9
$DIMALTTD
 70
     2
  9
$DIMTXSTY
  7
Standard
  9
$DIMAUNIT
 70
     0
  9
$DIMADEC
 70
     0
  9
$DIMALTRND
 40
0.0
  9
$DIMAZIN
 70
     0
  9
$DIMDSEP
 70
    46
  9
$DIMATFIT
 70
     3
  9
$DIMFRAC
 70
     0
  9
$DIMLDRBLK
  1

  9
$DIMLUNIT
 70
     2
  9
$DIMLWD
 70
    -2
  9
$DIMLWE
 70
    -2
  9
$DIMTMOVE
 70
     0
  9
$DIMFXL
 40
1.0
  9
$DIMFXLON
 70
     0
  9
$DIMJOGANG
 40
0.7853981633974483
  9
$DIMTFILL
 70
     0
  9
$DIMTFILLCLR
 70
     0
  9
$DIMARCSYM
 70
     0
  9
$DIMLTYPE
  6

  9
$DIMLTEX1
  6

  9
$DIMLTEX2
  6

  9
$DIMTXTDIRECTION
 70
     0
  9
$LUNITS
 70
     2
  9
$LUPREC
 70
     4
  9
$SKETCHINC
 40
0.1
  9
$FILLETRAD
 40
0.0
  9
$AUNITS
 70
     0
  9
$AUPREC
 70
     0
  9
$MENU
  1
.
  9
$ELEVATION
 40
0.0
  9
$PELEVATION
 40
0.0
  9
$THICKNESS
 40
0.0
  9
$LIMCHECK
 70
     0
  9
$CHAMFERA
 40
0.0
  9
$CHAMFERB
 40
0.0
  9
$CHAMFERC
 40
0.0
  9
$CHAMFERD
 40
0.0
  9
$SKPOLY
 70
     0
  9
$TDCREATE
 40
2455096.495672037
  9
$TDUCREATE
 40
2455096.704005371
  9
$TDUPDATE
 40
2457708.599284109
  9
$TDUUPDATE
 40
2457708.807617442
  9
$TDINDWG
 40
0.0110062153
  9
$TDUSRTIMER
 40
0.0110061227
  9
$USRTIMER
 70
     1
  9
$ANGBASE
 50
0.0
  9
$ANGDIR
 70
     0
  9
$PDMODE
 70
     0
  9
$PDSIZE
 40
0.0
  9
$PLINEWID
 40
0.0
  9
$SPLFRAME
 70
     0
  9
$SPLINETYPE
 70
     6
  9
$SPLINESEGS
 70
     8
  9
$HANDSEED
  5
87F
  9
$SURFTAB1
 70
     6
  9
$SURFTAB2
 70
     6
  9
$SURFTYPE
 70
     6
  9
$SURFU
 70
     6
  9
$SURFV
 70
     6
  9
$UCSBASE
  2

  9
$UCSNAME
  2

  9
$UCSORG
 10
17.51030352581443
 20
12.80958987294264
 30
0.0
  9
$UCSXDIR
 10
1.0
 20
0.0
 30
0.0
  9
$UCSYDIR
 10
0.0
 20
1.0
 30
0.0
  9
$UCSORTHOREF
  2

  9
$UCSORTHOVIEW
 70
     0
  9
$UCSORGTOP
 10
0.0
 20
0.0
 30
0.0
  9
$UCSORGBOTTOM
 10
0.0
 20
0.0
 30
0.0
  9
$UCSORGLEFT
 10
0.0
 20
0.0
 30
0.0
  9
$UCSORGRIGHT
 10
0.0
 20
0.0
 30
0.0
  9
$UCSORGFRONT
 10
0.0
 20
0.0
 30
0.0
  9
$UCSORGBACK
 10
0.0
 20
0.0
 30
0.0
  9
$PUCSBASE
  2

  9
$PUCSNAME
  2

  9
$PUCSORG
 10
0.0
 20
0.0
 30
0.0
  9
$PUCSXDIR
 10
1.0
 20
0.0
 30
0.0
  9
$PUCSYDIR
 10
0.0
 20
1.0
 30
0.0
  9
$PUCSORTHOREF
  2

  9
$PUCSORTHOVIEW
 70
     0
  9
$PUCSORGTOP
 10
0.0
 20
0.0
 30
0.0
  9
$PUCSORGBOTTOM
 10
0.0
 20
0.0
 30
0.0
  9
$PUCSORGLEFT
 10
0.0
 20
0.0
 30
0.0
  9
$PUCSORGRIGHT
 10
0.0
 20
0.0
 30
0.0
  9
$PUCSORGFRONT
 10
0.0
 20
0.0
 30
0.0
  9
$PUCSORGBACK
 10
0.0
 20
0.0
 30
0.0
  9
$USERI1
 70
     0
  9
$USERI2
 70
     0
  9
$USERI3
 70
     0
  9
$USERI4
 70
     0
  9
$USERI5
 70
     0
  9
$USERR1
 40
0.0
  9
$USERR2
 40
0.0
  9
$USERR3
 40
0.0
  9
$USERR4
 40
0.0
  9
$USERR5
 40
0.0
  9
$WORLDVIEW
 70
     1
  9
$SHADEDGE
 70
     3
  9
$SHADEDIF
 70
    70
  9
$TILEMODE
 70
     1
  9
$MAXACTVP
 70
    64
  9
$PINSBASE
 10
0.0
 20
0.0
 30
0.0
  9
$PLIMCHECK
 70
     0
  9
$PEXTMIN
 10
0.0
 20
0.0
 30
0.0
  9
$PEXTMAX
 10
0.0
 20
0.0
 30
0.0
  9
$PLIMMIN
 10
0.0
 20
0.0
  9
$PLIMMAX
 10
12.0
 20
9.0
  9
$UNITMODE
 70
     0
  9
$VISRETAIN
 70
     1
  9
$PLINEGEN
 70
     0
  9
$PSLTSCALE
 70
     1
  9
$TREEDEPTH
 70
  3020
  9
$CMLSTYLE
  2
Standard
  9
$CMLJUST
 70
     0
  9
$CMLSCALE
 40
1.0
  9
$PROXYGRAPHICS
 70
     1
  9
$MEASUREMENT
 70
     0
  9
$CELWEIGHT
370
    -1
  9
$ENDCAPS
280
     0
  9
$JOINSTYLE
280
     0
  9
$LWDISPLAY
290
     0
  9
$INSUNITS
 70
     1
  9
$HYPERLINKBASE
  1

  9
$STYLESHEET
  1

  9
$XEDIT
290
     1
  9
$CEPSNTYPE
380
     0
  9
$PSTYLEMODE
290
     1
  9
$FINGERPRINTGUID
  2
{FDEAD576-A652-11D2-9A35-0060089B3A3F}
  9
$VERSIONGUID
  2
{65794EB2-3579-4D1B-9B0B-4B595E6141C0}
  9
$EXTNAMES
290
     1
  9
$PSVPSCALE
 40
0.0
  9
$OLESTARTUP
290
     0
  9
$SORTENTS
280
   127
  9
$INDEXCTL
280
     0
  9
$HIDETEXT
280
     1
  9
$XCLIPFRAME
280
     2
  9
$HALOGAP
280
     0
  9
$OBSCOLOR
 70
   257
  9
$OBSLTYPE
280
     0
  9
$INTERSECTIONDISPLAY
280
     0
  9
$INTERSECTIONCOLOR
 70
   257
  9
$DIMASSOC
280
     2
  9
$PROJECTNAME
  1

  9
$CAMERADISPLAY
290
     0
  9
$LENSLENGTH
 40
50.0
  9
$CAMERAHEIGHT
 40
0.0
  9
$STEPSPERSEC
 40
2.0
  9
$STEPSIZE
 40
6.0
  9
$3DDWFPREC
 40
2.0
  9
$PSOLWIDTH
 40
0.25
  9
$PSOLHEIGHT
 40
4.0
  9
$LOFTANG1
 40
1.570796326794896
  9
$LOFTANG2
 40
1.570796326794896
  9
$LOFTMAG1
 40
0.0
  9
$LOFTMAG2
 40
0.0
  9
$LOFTPARAM
 70
     7
  9
$LOFTNORMALS
280
     1
  9
$LATITUDE
 40
37.795
  9
$LONGITUDE
 40
-122.394
  9
$NORTHDIRECTION
 40
0.0
  9
$TIMEZONE
 70
 -8000
  9
$LIGHTGLYPHDISPLAY
280
     1
  9
$TILEMODELIGHTSYNCH
280
     1
  9
$CMATERIAL
347
4F2
  9
$SOLIDHIST
280
     0
  9
$SHOWHIST
280
     1
  9
$DWFFRAME
280
     2
  9
$DGNFRAME
280
     0
  9
$REALWORLDSCALE
290
     1
  9
$INTERFERECOLOR
 62
     1
  9
$INTERFEREOBJVS
345
514
  9
$INTERFEREVPVS
346
511
  9
$CSHADOW
280
     0
  9
$SHADOWPLANELOCATION
 40
0.0
  0
ENDSEC
  0
SECTION
  2
CLASSES
  0
CLASS
  1
ACDBDICTIONARYWDFLT
  2
AcDbDictionaryWithDefault
  3
ObjectDBX Classes
 90
        0
 91
        1
280
     0
281
     0
  0
CLASS
  1
DICTIONARYVAR
  2
AcDbDictionaryVar
  3
ObjectDBX Classes
 90
        0
 91
       14
280
     0
281
     0
  0
CLASS
  1
MATERIAL
  2
AcDbMaterial
  3
ObjectDBX Classes
 90
     1153
 91
        3
280
     0
281
     0
  0
CLASS
  1
VISUALSTYLE
  2
AcDbVisualStyle
  3
ObjectDBX Classes
 90
     4095
 91
       24
280
     0
281
     0
  0
CLASS
  1
TABLESTYLE
  2
AcDbTableStyle
  3
ObjectDBX Classes
 90
     4095
 91
        1
280
     0
281
     0
  0
CLASS
  1
SCALE
  2
AcDbScale
  3
ObjectDBX Classes
 90
     1153
 91
       17
280
     0
281
     0
  0
CLASS
  1
MLEADERSTYLE
  2
AcDbMLeaderStyle
  3
ACDB_MLEADERSTYLE_CLASS
 90
     4095
 91
        1
280
     0
281
     0
  0
CLASS
  1
ACDBSECTIONVIEWSTYLE
  2
AcDbSectionViewStyle
  3
ObjectDBX Classes
 90
     1025
 91
        1
280
     0
281
     0
  0
CLASS
  1
ACDBDETAILVIEWSTYLE
  2
AcDbDetailViewStyle
  3
ObjectDBX Classes
 90
     1025
 91
        1
280
     0
281
     0
  0
CLASS
  1
EXACXREFPANELOBJECT
  2
ExAcXREFPanelObject
  3
EXAC_ESW
 90
     1025
 91
        2
280
     0
281
     0
  0
CLASS
  1
NPOCOLLECTION
  2
AcDbImpNonPersistentObjectsCollection
  3
ObjectDBX Classes
 90
     1153
 91
        1
280
     0
281
     0
  0
CLASS
  1
DIMASSOC
  2
AcDbDimAssoc
  3
"AcDbDimAssoc|Product Desc:     AcDim ARX App For Dimension|Company:          Autodesk, Inc.|WEB Address:      www.autodesk.com"
 90
        0
 91
        4
280
     0
281
     0
  0
CLASS
  1
SORTENTSTABLE
  2
AcDbSortentsTable
  3
ObjectDBX Classes
 90
        0
 91
        0
280
     0
281
     0
  0
CLASS
  1
CELLSTYLEMAP
  2
AcDbCellStyleMap
  3
ObjectDBX Classes
 90
     1152
 91
        3
280
     0
281
     0
  0
ENDSEC
  0
SECTION
  2
TABLES
  0
TABLE
  2
VPORT
  5
8
102
{ACAD_XDICTIONARY
360
775
102
}
330
0
100
AcDbSymbolTable
 70
     1
  0
VPORT
  5
4E5
330
8
100
AcDbSymbolTableRecord
100
AcDbViewportTableRecord
  2
*Active
 70
     0
 10
0.0
 20
0.0
 11
1.0
 21
1.0
 12
20.42280309354472
 22
19.40537521006207
 13
0.0
 23
0.0
 14
0.5
 24
0.5
 15
0.5
 25
0.5
 16
0.0
 26
0.0
 36
1.0
 17
0.0
 27
0.0
 37
0.0
 40
32.54316365089099
 41
2.032008830022074
 42
50.0
 43
0.0
 44
0.0
 50
0.0
 51
0.0
 71
     0
 72
  1000
 73
     1
 74
     3
 75
     0
 76
     0
 77
     0
 78
     0
281
     0
 65
     1
110
17.51030352581443
120
12.80958987294264
130
0.0
111
1.0
121
0.0
131
0.0
112
0.0
122
1.0
132
0.0
 79
     0
146
0.0
348
510
 60
     3
 61
     5
292
     1
282
     1
141
0.0
142
0.0
 63
   250
421
  3355443
1001
ACAD_NAV_VCDISPLAY
1070
     3
  0
ENDTAB
  0
TABLE
  2
LTYPE
  5
5
330
0
100
AcDbSymbolTable
 70
     4
  0
LTYPE
  5
14
330
5
100
AcDbSymbolTableRecord
100
AcDbLinetypeTableRecord
  2
ByBlock
 70
     0
  3

 72
    65
 73
     0
 40
0.0
  0
LTYPE
  5
15
330
5
100
AcDbSymbolTableRecord
100
AcDbLinetypeTableRecord
  2
ByLayer
 70
     0
  3

 72
    65
 73
     0
 40
0.0
  0
LTYPE
  5
16
330
5
100
AcDbSymbolTableRecord
100
AcDbLinetypeTableRecord
  2
Continuous
 70
     0
  3
Solid line
 72
    65
 73
     0
 40
0.0
  0
LTYPE
  5
11E
330
5
100
AcDbSymbolTableRecord
100
AcDbLinetypeTableRecord
  2
ACAD_ISO02W100
 70
     0
  3
ISO dash __ __ __ __ __ __ __ __ __ __ __ __ __
 72
    65
 73
     2
 40
15.0
 49
12.0
 74
     0
 49
-3.0
 74
     0
  0
LTYPE
  5
5E0
330
5
100
AcDbSymbolTableRecord
100
AcDbLinetypeTableRecord
  2
HIDDEN
 70
     0
  3
Hidden __ __ __ __ __ __ __ __ __ __ __ __ __ _
 72
    65
 73
     2
 40
0.375
 49
0.25
 74
     0
 49
-0.125
 74
     0
  0
ENDTAB
  0
TABLE
  2
LAYER
  5
2
102
{ACAD_XDICTIONARY
360
124
102
}
330
0
100
AcDbSymbolTable
 70
     6
  0
LAYER
  5
10
102
{ACAD_XDICTIONARY
360
768
102
}
330
2
100
AcDbSymbolTableRecord
100
AcDbLayerTableRecord
  2
0
 70
     0
 62
     7
  6
Continuous
370
    -3
390
F
347
502
348
0
  0
LAYER
  5
11F
102
{ACAD_XDICTIONARY
360
76A
102
}
330
2
100
AcDbSymbolTableRecord
100
AcDbLayerTableRecord
  2
BORDER
 70
     0
 62
     7
  6
Continuous
370
    -3
390
F
347
502
348
0
  0
LAYER
  5
120
102
{ACAD_XDICTIONARY
360
76C
102
}
330
2
100
AcDbSymbolTableRecord
100
AcDbLayerTableRecord
  2
TEXT
 70
     0
 62
     7
  6
Continuous
370
    -3
390
F
347
502
348
0
  0
LAYER
  5
121
330
2
100
AcDbSymbolTableRecord
100
AcDbLayerTableRecord
  2
Defpoints
 70
     0
 62
     7
  6
Continuous
290
     0
370
    -3
390
F
347
502
348
0
  0
LAYER
  5
122
102
{ACAD_XDICTIONARY
360
76E
102
}
330
2
100
AcDbSymbolTableRecord
100
AcDbLayerTableRecord
  2
DIMENSION
 70
     0
 62
     7
  6
Continuous
370
    -3
390
F
347
502
348
0
  0
LAYER
  5
123
102
{ACAD_XDICTIONARY
360
770
102
}
330
2
100
AcDbSymbolTableRecord
100
AcDbLayerTableRecord
  2
THERMOSTATCVR
 70
     0
 62
     7
  6
Continuous
370
    -3
390
F
347
502
348
0
  0
ENDTAB
  0
TABLE
  2
STYLE
  5
3
330
0
100
AcDbSymbolTable
 70
     1
  0
STYLE
  5
11
330
3
100
AcDbSymbolTableRecord
100
AcDbTextStyleTableRecord
  2
Standard
 70
     0
 40
0.0
 41
1.0
 50
0.0
 71
     0
 42
0.2
  3
txt
  4

  0
ENDTAB
  0
TABLE
  2
VIEW
  5
6
330
0
100
AcDbSymbolTable
 70
     1
  0
ENDTAB
  0
TABLE
  2
UCS
  5
7
330
0
100
AcDbSymbolTable
 70
     0
  0
ENDTAB
  0
TABLE
  2
APPID
  5
9
330
0
100
AcDbSymbolTable
 70
     5
  0
APPID
  5
12
330
9
100
AcDbSymbolTableRecord
100
AcDbRegAppTableRecord
  2
ACAD
 70
     0
  0
APPID
  5
5E1
330
9
100
AcDbSymbolTableRecord
100
AcDbRegAppTableRecord
  2
ACAD_NAV_VCDISPLAY
 70
     0
  0
APPID
  5
760
330
9
100
AcDbSymbolTableRecord
100
AcDbRegAppTableRecord
  2
ACAD_EXEMPT_FROM_CAD_STANDARDS
 70
     0
  0
APPID
  5
7B3
330
9
100
AcDbSymbolTableRecord
100
AcDbRegAppTableRecord
  2
ACAD_MLEADERVER
 70
     0
  0
APPID
  5
808
330
9
100
AcDbSymbolTableRecord
100
AcDbRegAppTableRecord
  2
AcadAnnoMonitorAlertIconDisabled
 70
     0
  0
ENDTAB
  0
TABLE
  2
DIMSTYLE
  5
A
330
0
100
AcDbSymbolTable
 70
     1
100
AcDbDimStyleTable
 71
     1
340
27
  0
DIMSTYLE
105
27
102
{ACAD_REACTORS
330
62E
330
62F
330
632
330
610
330
611
330
612
330
613
330
614
330
615
330
616
330
617
330
618
330
619
330
61A
330
61B
330
61C
330
61D
330
61E
330
61F
330
7CC
330
7DC
330
7EC
102
}
330
A
100
AcDbSymbolTableRecord
100
AcDbDimStyleTableRecord
  2
Standard
 70
     0
 41
0.433
 42
0.25
140
0.433
271
     3
272
     3
340
11
  0
ENDTAB
  0
TABLE
  2
BLOCK_RECORD
  5
1
330
0
100
AcDbSymbolTable
 70
    78
  0
BLOCK_RECORD
  5
1F
330
1
100
AcDbSymbolTableRecord
100
AcDbBlockTableRecord
  2
*Model_Space
340
22
 70
     0
280
     1
281
     0
  0
BLOCK_RECORD
  5
58
330
1
100
AcDbSymbolTableRecord
100
AcDbBlockTableRecord
  2
*Paper_Space
340
59
 70
     0
280
     1
281
     0
  0
BLOCK_RECORD
  5
5D
330
1
100
AcDbSymbolTableRecord
100
AcDbBlockTableRecord
  2
*Paper_Space0
340
5E
 70
     0
280
     1
281
     0
  0
BLOCK_RECORD
  5
638
330
1
100
AcDbSymbolTableRecord
100
AcDbBlockTableRecord
  2
*D56
340
0
 70
     0
280
     1
281
     0
  0
BLOCK_RECORD
  5
640
330
1
100
AcDbSymbolTableRecord
100
AcDbBlockTableRecord
  2
*D57
340
0
 70
     0
280
     1
281
     0
  0
BLOCK_RECORD
  5
648
330
1
100
AcDbSymbolTableRecord
100
AcDbBlockTableRecord
  2
*D58
340
0
 70
     0
280
     1
281
     0
  0
BLOCK_RECORD
  5
652
330
1
100
AcDbSymbolTableRecord
100
AcDbBlockTableRecord
  2
*D59
340
0
 70
     0
280
     1
281
     0
  0
BLOCK_RECORD
  5
65A
330
1
100
AcDbSymbolTableRecord
100
AcDbBlockTableRecord
  2
*D60
340
0
 70
     0
280
     1
281
     0
  0
BLOCK_RECORD
  5
662
330
1
100
AcDbSymbolTableRecord
100
AcDbBlockTableRecord
  2
*D61
340
0
 70
     0
280
     1
281
     0
  0
BLOCK_RECORD
  5
66A
330
1
100
AcDbSymbolTableRecord
100
AcDbBlockTableRecord
  2
*D62
340
0
 70
     0
280
     1
281
     0
  0
BLOCK_RECORD
  5
672
330
1
100
AcDbSymbolTableRecord
100
AcDbBlockTableRecord
  2
*D63
340
0
 70
     0
280
     1
281
     0
  0
BLOCK_RECORD
  5
67A
330
1
100
AcDbSymbolTableRecord
100
AcDbBlockTableRecord
  2
*D64
340
0
 70
     0
280
     1
281
     0
  0
BLOCK_RECORD
  5
682
330
1
100
AcDbSymbolTableRecord
100
AcDbBlockTableRecord
  2
*D65
340
0
 70
     0
280
     1
281
     0
  0
BLOCK_RECORD
  5
68A
330
1
100
AcDbSymbolTableRecord
100
AcDbBlockTableRecord
  2
*D66
340
0
 70
     0
280
     1
281
     0
  0
BLOCK_RECORD
  5
692
330
1
100
AcDbSymbolTableRecord
100
AcDbBlockTableRecord
  2
*D67
340
0
 70
     0
280
     1
281
     0
  0
BLOCK_RECORD
  5
69A
330
1
100
AcDbSymbolTableRecord
100
AcDbBlockTableRecord
  2
*D68
340
0
 70
     0
280
     1
281
     0
  0
BLOCK_RECORD
  5
6A2
330
1
100
AcDbSymbolTableRecord
100
AcDbBlockTableRecord
  2
*D69
340
0
 70
     0
280
     1
281
     0
  0
BLOCK_RECORD
  5
6AA
330
1
100
AcDbSymbolTableRecord
100
AcDbBlockTableRecord
  2
*D70
340
0
 70
     0
280
     1
281
     0
  0
BLOCK_RECORD
  5
6B2
330
1
100
AcDbSymbolTableRecord
100
AcDbBlockTableRecord
  2
*D71
340
0
 70
     0
280
     1
281
     0
  0
BLOCK_RECORD
  5
6BA
330
1
100
AcDbSymbolTableRecord
100
AcDbBlockTableRecord
  2
*D72
340
0
 70
     0
280
     1
281
     0
  0
BLOCK_RECORD
  5
6C2
330
1
100
AcDbSymbolTableRecord
100
AcDbBlockTableRecord
  2
*D73
340
0
 70
     0
280
     1
281
     0
  0
BLOCK_RECORD
  5
6D7
330
1
100
AcDbSymbolTableRecord
100
AcDbBlockTableRecord
  2
*D74
340
0
 70
     0
280
     1
281
     0
  0
BLOCK_RECORD
  5
7CD
330
1
100
AcDbSymbolTableRecord
100
AcDbBlockTableRecord
  2
*D75
340
0
 70
     0
280
     1
281
     0
  0
BLOCK_RECORD
  5
7DD
330
1
100
AcDbSymbolTableRecord
100
AcDbBlockTableRecord
  2
*D76
340
0
 70
     0
280
     1
281
     0
  0
BLOCK_RECORD
  5
7ED
330
1
100
AcDbSymbolTableRecord
100
AcDbBlockTableRecord
  2
*D77
340
0
 70
     0
280
     1
281
     0
  0
ENDTAB
  0
ENDSEC
  0
SECTION
  2
BLOCKS
  0
BLOCK
  5
20
330
1F
100
AcDbEntity
  8
0
100
AcDbBlockBegin
  2
*Model_Space
 70
     0
 10
0.0
 20
0.0
 30
0.0
  3
*Model_Space
  1

  0
ENDBLK
  5
21
330
1F
100
AcDbEntity
  8
0
100
AcDbBlockEnd
  0
BLOCK
  5
5A
330
58
100
AcDbEntity
 67
     1
  8
0
100
AcDbBlockBegin
  2
*Paper_Space
 70
     0
 10
0.0
 20
0.0
 30
0.0
  3
*Paper_Space
  1

  0
ENDBLK
  5
5B
330
58
100
AcDbEntity
 67
     1
  8
0
100
AcDbBlockEnd
  0
BLOCK
  5
5F
330
5D
100
AcDbEntity
 67
     1
  8
0
100
AcDbBlockBegin
  2
*Paper_Space0
 70
     0
 10
0.0
 20
0.0
 30
0.0
  3
*Paper_Space0
  1

  0
ENDBLK
  5
60
330
5D
100
AcDbEntity
 67
     1
  8
0
100
AcDbBlockEnd
  0
BLOCK
  5
639
330
638
100
AcDbEntity
  8
0
100
AcDbBlockBegin
  2
*D56
 70
     1
 10
0.0
 20
0.0
 30
0.0
  3
*D56
  1

  0
LINE
  5
6CD
330
638
100
AcDbEntity
  8
0
 62
     0
440
 16777216
370
    -2
100
AcDbLine
 10
18.96699716284325
 20
13.69339362014801
 30
0.0
 11
18.96699716284326
 21
12.62334790024308
 31
0.0
  0
MTEXT
  5
6CE
330
638
100
AcDbEntity
  8
0
 62
     0
440
 16777216
100
AcDbMText
 10
18.96699716284325
 20
11.01784790024308
 30
0.0
 40
0.433
 41
0.0
 46
0.0
 71
     5
 72
     1
  1
\A1;(2) 1.457
 11
0.0000000000000001
 21
1.0
 31
0.0
 73
     1
 44
1.0
  0
POINT
  5
6CF
330
638
100
AcDbEntity
  8
Defpoints
 62
     0
440
 16777216
100
AcDbPoint
 10
18.96699716284325
 20
13.94339362014801
 30
0.0
  0
POINT
  5
6D0
330
638
100
AcDbEntity
  8
Defpoints
 62
     0
440
 16777216
100
AcDbPoint
 10
18.96699716284326
 20
12.62334790024308
 30
0.0
  0
POINT
  5
6D1
330
638
100
AcDbEntity
  8
Defpoints
 62
     0
440
 16777216
100
AcDbPoint
 10
17.51030352581443
 20
8.28258987294264
 30
0.0
  0
ENDBLK
  5
63A
330
638
100
AcDbEntity
  8
0
100
AcDbBlockEnd
  0
BLOCK
  5
641
330
640
100
AcDbEntity
  8
0
100
AcDbBlockBegin
  2
*D57
 70
     1
 10
0.0
 20
0.0
 30
0.0
  3
*D57
  1

  0
LINE
  5
6D2
330
640
100
AcDbEntity
  8
0
 62
     0
440
 16777216
370
    -2
100
AcDbLine
 10
21.52605246966874
 20
13.69339362014801
 30
0.0
 11
21.52605246966874
 21
12.51759345571797
 31
0.0
  0
MTEXT
  5
6D3
330
640
100
AcDbEntity
  8
0
 62
     0
440
 16777216
100
AcDbMText
 10
21.52605246966874
 20
10.9481767890513
 30
0.0
 40
0.433
 41
0.0
 46
0.0
 71
     5
 72
     1
  1
\A1;(2) 4.016
 11
0.0000000000000001
 21
1.0
 31
0.0
 73
     1
 44
1.0
  0
POINT
  5
6D4
330
640
100
AcDbEntity
  8
Defpoints
 62
     0
440
 16777216
100
AcDbPoint
 10
21.52605246966874
 20
13.94339362014801
 30
0.0
  0
POINT
  5
6D5
330
640
100
AcDbEntity
  8
Defpoints
 62
     0
440
 16777216
100
AcDbPoint
 10
21.52605246966874
 20
12.51759345571797
 30
0.0
  0
POINT
  5
6D6
330
640
100
AcDbEntity
  8
Defpoints
 62
     0
440
 16777216
100
AcDbPoint
 10
17.51030352581443
 20
8.28258987294264
 30
0.0
  0
ENDBLK
  5
642
330
640
100
AcDbEntity
  8
0
100
AcDbBlockEnd
  0
BLOCK
  5
649
330
648
100
AcDbEntity
  8
0
100
AcDbBlockBegin
  2
*D58
 70
     1
 10
0.0
 20
0.0
 30
0.0
  3
*D58
  1

  0
LINE
  5
6DF
330
648
100
AcDbEntity
  8
0
 62
     0
440
 16777216
370
    -2
100
AcDbLine
 10
24.33821833070965
 20
18.26679010684511
 30
0.0
 11
20.3848347389602
 21
19.08683105320043
 31
0.0
  0
MTEXT
  5
6E0
102
{ACAD_XDICTIONARY
360
7BB
102
}
330
648
100
AcDbEntity
  8
0
 62
     0
440
 16777216
100
AcDbMText
 10
25.40246833070965
 20
18.26679010684511
 30
0.0
 40
0.433
 41
0.0
 46
0.0
 71
     5
 72
     1
  1
\A1;∅1.250
 73
     1
 44
1.0
  0
SOLID
  5
6E1
330
648
100
AcDbEntity
  8
0
 62
     0
440
 16777216
100
AcDbTrace
 10
20.3994920942878
 20
19.15749355890591
 30
0.0
 11
20.37017738363261
 21
19.01616854749493
 31
0.0
 12
19.96085970472727
 22
19.17477518516601
 32
0.0
 13
19.96085970472727
 23
19.17477518516601
 33
0.0
  0
LINE
  5
6E2
330
648
100
AcDbEntity
  8
0
 62
     0
440
 16777216
370
    -2
100
AcDbLine
 10
19.25888650288989
 20
19.30171532945814
 30
0.0
 11
19.43888650288989
 21
19.30171532945814
 31
0.0
  0
LINE
  5
6E3
330
648
100
AcDbEntity
  8
0
 62
     0
440
 16777216
370
    -2
100
AcDbLine
 10
19.34888650288989
 20
19.21171532945814
 30
0.0
 11
19.34888650288989
 21
19.39171532945815
 31
0.0
  0
POINT
  5
6E4
330
648
100
AcDbEntity
  8
Defpoints
 62
     0
440
 16777216
100
AcDbPoint
 10
19.96085970472727
 20
19.17477518516601
 30
0.0
  0
POINT
  5
6E5
330
648
100
AcDbEntity
  8
Defpoints
 62
     0
440
 16777216
100
AcDbPoint
 10
18.73691330105251
 20
19.42865547375028
 30
0.0
  0
ENDBLK
  5
64A
330
648
100
AcDbEntity
  8
0
100
AcDbBlockEnd
  0
BLOCK
  5
653
330
652
100
AcDbEntity
  8
0
100
AcDbBlockBegin
  2
*D59
 70
     1
 10
0.0
 20
0.0
 30
0.0
  3
*D59
  1

  0
LINE
  5
6E6
330
652
100
AcDbEntity
  8
0
 62
     0
440
 16777216
370
    -2
100
AcDbLine
 10
17.26030352581443
 20
12.80958987294264
 30
0.0
 11
16.47585489718546
 21
12.80958987294264
 31
0.0
  0
MTEXT
  5
6E7
330
652
100
AcDbEntity
  8
0
 62
     0
440
 16777216
100
AcDbMText
 10
15.66418823051879
 20
12.80958987294264
 30
0.0
 40
0.433
 41
0.0
 46
0.0
 71
     5
 72
     1
  1
\A1;0.000
 73
     1
 44
1.0
  0
POINT
  5
6E8
330
652
100
AcDbEntity
  8
Defpoints
 62
     0
440
 16777216
100
AcDbPoint
 10
17.51030352581443
 20
12.80958987294264
 30
0.0
  0
POINT
  5
6E9
330
652
100
AcDbEntity
  8
Defpoints
 62
     0
440
 16777216
100
AcDbPoint
 10
16.47585489718546
 20
12.80958987294264
 30
0.0
  0
POINT
  5
6EA
330
652
100
AcDbEntity
  8
Defpoints
 62
     0
440
 16777216
100
AcDbPoint
 10
17.51030352581443
 20
12.80958987294264
 30
0.0
  0
ENDBLK
  5
654
330
652
100
AcDbEntity
  8
0
100
AcDbBlockEnd
  0
BLOCK
  5
65B
330
65A
100
AcDbEntity
  8
0
100
AcDbBlockBegin
  2
*D60
 70
     1
 10
0.0
 20
0.0
 30
0.0
  3
*D60
  1

  0
LINE
  5
6EB
330
65A
100
AcDbEntity
  8
0
 62
     0
440
 16777216
370
    -2
100
AcDbLine
 10
17.51030352581443
 20
12.55958987294264
 30
0.0
 11
17.51030352581443
 21
11.79777849456521
 31
0.0
  0
MTEXT
  5
6EC
330
65A
100
AcDbEntity
  8
0
 62
     0
440
 16777216
100
AcDbMText
 10
17.51030352581443
 20
10.98611182789855
 30
0.0
 40
0.433
 41
0.0
 46
0.0
 71
     5
 72
     1
  1
\A1;0.000
 11
0.0000000000000001
 21
1.0
 31
0.0
 73
     1
 44
1.0
  0
POINT
  5
6ED
330
65A
100
AcDbEntity
  8
Defpoints
 62
     0
440
 16777216
100
AcDbPoint
 10
17.51030352581443
 20
12.80958987294264
 30
0.0
  0
POINT
  5
6EE
330
65A
100
AcDbEntity
  8
Defpoints
 62
     0
440
 16777216
100
AcDbPoint
 10
17.51030352581443
 20
11.79777849456521
 30
0.0
  0
POINT
  5
6EF
330
65A
100
AcDbEntity
  8
Defpoints
 62
     0
440
 16777216
100
AcDbPoint
 10
17.51030352581443
 20
12.80958987294264
 30
0.0
  0
ENDBLK
  5
65C
330
65A
100
AcDbEntity
  8
0
100
AcDbBlockEnd
  0
BLOCK
  5
663
330
662
100
AcDbEntity
  8
0
100
AcDbBlockBegin
  2
*D61
 70
     1
 10
0.0
 20
0.0
 30
0.0
  3
*D61
  1

  0
LINE
  5
6F0
330
662
100
AcDbEntity
  8
0
 62
     0
440
 16777216
370
    -2
100
AcDbLine
 10
18.71699716284325
 20
18.47039362014801
 30
0.0
 11
16.47585489718544
 21
18.47039362014801
 31
0.0
  0
MTEXT
  5
6F1
330
662
100
AcDbEntity
  8
0
 62
     0
440
 16777216
100
AcDbMText
 10
14.87035489718544
 20
18.47039362014801
 30
0.0
 40
0.433
 41
0.0
 46
0.0
 71
     5
 72
     1
  1
\A1;(2) 5.661
 73
     1
 44
1.0
  0
POINT
  5
6F2
330
662
100
AcDbEntity
  8
Defpoints
 62
     0
440
 16777216
100
AcDbPoint
 10
18.96699716284325
 20
18.47039362014801
 30
0.0
  0
POINT
  5
6F3
330
662
100
AcDbEntity
  8
Defpoints
 62
     0
440
 16777216
100
AcDbPoint
 10
16.47585489718544
 20
18.47039362014801
 30
0.0
  0
POINT
  5
6F4
330
662
100
AcDbEntity
  8
Defpoints
 62
     0
440
 16777216
100
AcDbPoint
 10
17.51030352581443
 20
12.80958987294264
 30
0.0
  0
ENDBLK
  5
664
330
662
100
AcDbEntity
  8
0
100
AcDbBlockEnd
  0
BLOCK
  5
66B
330
66A
100
AcDbEntity
  8
0
100
AcDbBlockBegin
  2
*D62
 70
     1
 10
0.0
 20
0.0
 30
0.0
  3
*D62
  1

  0
LINE
  5
6F5
330
66A
100
AcDbEntity
  8
0
 62
     0
440
 16777216
370
    -2
100
AcDbLine
 10
19.09888650288991
 20
19.30171532945815
 30
0.0
 11
16.47585489718551
 21
19.30171532945815
 31
0.0
  0
MTEXT
  5
6F6
330
66A
100
AcDbEntity
  8
0
 62
     0
440
 16777216
100
AcDbMText
 10
15.51985489718551
 20
19.30171532945815
 30
0.0
 40
0.433
 41
0.0
 46
0.0
 71
     5
 72
     1
  1
\A1;6.492
 73
     1
 44
1.0
  0
POINT
  5
6F7
330
66A
100
AcDbEntity
  8
Defpoints
 62
     0
440
 16777216
100
AcDbPoint
 10
19.34888650288991
 20
19.30171532945815
 30
0.0
  0
POINT
  5
6F8
330
66A
100
AcDbEntity
  8
Defpoints
 62
     0
440
 16777216
100
AcDbPoint
 10
16.47585489718551
 20
19.30171532945815
 30
0.0
  0
POINT
  5
6F9
330
66A
100
AcDbEntity
  8
Defpoints
 62
     0
440
 16777216
100
AcDbPoint
 10
17.51030352581443
 20
12.80958987294264
 30
0.0
  0
ENDBLK
  5
66C
330
66A
100
AcDbEntity
  8
0
100
AcDbBlockEnd
  0
BLOCK
  5
673
330
672
100
AcDbEntity
  8
0
100
AcDbBlockBegin
  2
*D63
 70
     1
 10
0.0
 20
0.0
 30
0.0
  3
*D63
  1

  0
LINE
  5
6FA
330
672
100
AcDbEntity
  8
0
 62
     0
440
 16777216
370
    -2
100
AcDbLine
 10
19.34888650288991
 20
19.55171532945815
 30
0.0
 11
19.34888650288991
 21
20.66001997286431
 31
0.0
  0
MTEXT
  5
6FB
330
672
100
AcDbEntity
  8
0
 62
     0
440
 16777216
100
AcDbMText
 10
19.34888650288991
 20
21.54385330619764
 30
0.0
 40
0.433
 41
0.0
 46
0.0
 71
     5
 72
     1
  1
\A1;1.839
 11
0.0000000000000001
 21
1.0
 31
0.0
 73
     1
 44
1.0
  0
POINT
  5
6FC
330
672
100
AcDbEntity
  8
Defpoints
 62
     0
440
 16777216
100
AcDbPoint
 10
19.34888650288991
 20
19.30171532945815
 30
0.0
  0
POINT
  5
6FD
330
672
100
AcDbEntity
  8
Defpoints
 62
     0
440
 16777216
100
AcDbPoint
 10
19.34888650288991
 20
20.66001997286431
 30
0.0
  0
POINT
  5
6FE
330
672
100
AcDbEntity
  8
Defpoints
 62
     0
440
 16777216
100
AcDbPoint
 10
17.51030352581443
 20
12.80958987294264
 30
0.0
  0
ENDBLK
  5
674
330
672
100
AcDbEntity
  8
0
100
AcDbBlockEnd
  0
BLOCK
  5
67B
330
67A
100
AcDbEntity
  8
0
100
AcDbBlockBegin
  2
*D64
 70
     1
 10
0.0
 20
0.0
 30
0.0
  3
*D64
  1

  0
LINE
  5
6FF
330
67A
100
AcDbEntity
  8
0
 62
     0
440
 16777216
370
    -2
100
AcDbLine
 10
17.90400507584451
 20
23.4345887929909
 30
0.0
 11
17.90400507584451
 21
22.8181887929909
 31
0.0
  0
MTEXT
  5
700
330
67A
100
AcDbEntity
  8
0
 62
     0
440
 16777216
100
AcDbMText
 10
17.9040050758445
 20
21.89827212632424
 30
0.0
 40
0.433
 41
0.0
 46
0.0
 71
     5
 72
     1
  1
\A1;0.394
 11
0.0000000000000001
 21
1.0
 31
0.0
 73
     1
 44
1.0
  0
POINT
  5
701
330
67A
100
AcDbEntity
  8
Defpoints
 62
     0
440
 16777216
100
AcDbPoint
 10
17.90400507584451
 20
23.6845887929909
 30
0.0
  0
POINT
  5
702
330
67A
100
AcDbEntity
  8
Defpoints
 62
     0
440
 16777216
100
AcDbPoint
 10
17.90400507584451
 20
22.8181887929909
 30
0.0
  0
POINT
  5
703
330
67A
100
AcDbEntity
  8
Defpoints
 62
     0
440
 16777216
100
AcDbPoint
 10
17.51030352581443
 20
12.80958987294264
 30
0.0
  0
ENDBLK
  5
67C
330
67A
100
AcDbEntity
  8
0
100
AcDbBlockEnd
  0
BLOCK
  5
683
330
682
100
AcDbEntity
  8
0
100
AcDbBlockBegin
  2
*D65
 70
     1
 10
0.0
 20
0.0
 30
0.0
  3
*D65
  1

  0
LINE
  5
704
330
682
100
AcDbEntity
  8
0
 62
     0
440
 16777216
370
    -2
100
AcDbLine
 10
23.10085485509313
 20
23.4345887929909
 30
0.0
 11
23.10085485509313
 21
22.8181887929909
 31
0.0
  0
MTEXT
  5
705
330
682
100
AcDbEntity
  8
0
 62
     0
440
 16777216
100
AcDbMText
 10
23.10085485509313
 20
21.93435545965757
 30
0.0
 40
0.433
 41
0.0
 46
0.0
 71
     5
 72
     1
  1
\A1;5.591
 11
0.0000000000000001
 21
1.0
 31
0.0
 73
     1
 44
1.0
  0
POINT
  5
706
330
682
100
AcDbEntity
  8
Defpoints
 62
     0
440
 16777216
100
AcDbPoint
 10
23.10085485509313
 20
23.6845887929909
 30
0.0
  0
POINT
  5
707
330
682
100
AcDbEntity
  8
Defpoints
 62
     0
440
 16777216
100
AcDbPoint
 10
23.10085485509313
 20
22.8181887929909
 30
0.0
  0
POINT
  5
708
330
682
100
AcDbEntity
  8
Defpoints
 62
     0
440
 16777216
100
AcDbPoint
 10
17.51030352581443
 20
12.80958987294264
 30
0.0
  0
ENDBLK
  5
684
330
682
100
AcDbEntity
  8
0
100
AcDbBlockEnd
  0
BLOCK
  5
68B
330
68A
100
AcDbEntity
  8
0
100
AcDbBlockBegin
  2
*D66
 70
     1
 10
0.0
 20
0.0
 30
0.0
  3
*D66
  1

  0
LINE
  5
709
330
68A
100
AcDbEntity
  8
0
 62
     0
440
 16777216
370
    -2
100
AcDbLine
 10
17.85085489718546
 20
27.2977784945652
 30
0.0
 11
16.47585489718546
 21
27.2977784945652
 31
0.0
  0
MTEXT
  5
70A
330
68A
100
AcDbEntity
  8
0
 62
     0
440
 16777216
100
AcDbMText
 10
14.65385489718546
 20
27.2977784945652
 30
0.0
 40
0.433
 41
0.0
 46
0.0
 71
     5
 72
     1
  1
\A1;(2) 14.488
 73
     1
 44
1.0
  0
POINT
  5
70B
330
68A
100
AcDbEntity
  8
Defpoints
 62
     0
440
 16777216
100
AcDbPoint
 10
18.10085489718545
 20
27.2977784945652
 30
0.0
  0
POINT
  5
70C
330
68A
100
AcDbEntity
  8
Defpoints
 62
     0
440
 16777216
100
AcDbPoint
 10
16.47585489718546
 20
27.2977784945652
 30
0.0
  0
POINT
  5
70D
330
68A
100
AcDbEntity
  8
Defpoints
 62
     0
440
 16777216
100
AcDbPoint
 10
17.51030352581443
 20
12.80958987294264
 30
0.0
  0
ENDBLK
  5
68C
330
68A
100
AcDbEntity
  8
0
100
AcDbBlockEnd
  0
BLOCK
  5
693
330
692
100
AcDbEntity
  8
0
100
AcDbBlockBegin
  2
*D67
 70
     1
 10
0.0
 20
0.0
 30
0.0
  3
*D67
  1

  0
LINE
  5
811
330
692
100
AcDbEntity
  8
0
 62
     0
440
 16777216
370
    -2
100
AcDbLine
 10
23.35085485509313
 20
26.80958879299086
 30
0.0
 11
23.96685485509313
 21
26.80958879299086
 31
0.0
  0
LINE
  5
812
330
692
100
AcDbEntity
  8
0
 62
     0
440
 16777216
370
    -2
100
AcDbLine
 10
23.96685485509313
 20
26.80958879299086
 30
0.0
 11
23.60985489718547
 21
26.61940570369413
 31
0.0
  0
LINE
  5
813
330
692
100
AcDbEntity
  8
0
 62
     0
440
 16777216
370
    -2
100
AcDbLine
 10
23.60985489718547
 20
26.61940570369413
 30
0.0
 11
24.47585489718547
 21
26.61940570369413
 31
0.0
  0
MTEXT
  5
814
330
692
100
AcDbEntity
  8
0
 62
     0
440
 16777216
100
AcDbMText
 10
25.4679382305188
 20
26.61940570369413
 30
0.0
 40
0.433
 41
0.0
 46
0.0
 71
     5
 72
     1
  1
\A1;14.000
 73
     1
 44
1.0
  0
POINT
  5
815
330
692
100
AcDbEntity
  8
Defpoints
 62
     0
440
 16777216
100
AcDbPoint
 10
23.10085485509313
 20
26.80958879299086
 30
0.0
  0
POINT
  5
816
330
692
100
AcDbEntity
  8
Defpoints
 62
     0
440
 16777216
100
AcDbPoint
 10
24.47585489718547
 20
26.61940570369413
 30
0.0
  0
POINT
  5
817
330
692
100
AcDbEntity
  8
Defpoints
 62
     0
440
 16777216
100
AcDbPoint
 10
17.51030352581443
 20
12.80958987294264
 30
0.0
  0
ENDBLK
  5
694
330
692
100
AcDbEntity
  8
0
100
AcDbBlockEnd
  0
BLOCK
  5
69B
330
69A
100
AcDbEntity
  8
0
100
AcDbBlockBegin
  2
*D68
 70
     1
 10
0.0
 20
0.0
 30
0.0
  3
*D68
  1

  0
LINE
  5
713
330
69A
100
AcDbEntity
  8
0
 62
     0
440
 16777216
370
    -2
100
AcDbLine
 10
23.35085485509313
 20
23.6845887929909
 30
0.0
 11
24.47585489718546
 21
23.6845887929909
 31
0.0
  0
MTEXT
  5
714
330
69A
100
AcDbEntity
  8
0
 62
     0
440
 16777216
100
AcDbMText
 10
25.54010489718546
 20
23.6845887929909
 30
0.0
 40
0.433
 41
0.0
 46
0.0
 71
     5
 72
     1
  1
\A1;10.875
 73
     1
 44
1.0
  0
POINT
  5
715
330
69A
100
AcDbEntity
  8
Defpoints
 62
     0
440
 16777216
100
AcDbPoint
 10
23.10085485509313
 20
23.6845887929909
 30
0.0
  0
POINT
  5
716
330
69A
100
AcDbEntity
  8
Defpoints
 62
     0
440
 16777216
100
AcDbPoint
 10
24.47585489718546
 20
23.6845887929909
 30
0.0
  0
POINT
  5
717
330
69A
100
AcDbEntity
  8
Defpoints
 62
     0
440
 16777216
100
AcDbPoint
 10
17.51030352581443
 20
12.80958987294264
 30
0.0
  0
ENDBLK
  5
69C
330
69A
100
AcDbEntity
  8
0
100
AcDbBlockEnd
  0
BLOCK
  5
6A3
330
6A2
100
AcDbEntity
  8
0
100
AcDbBlockBegin
  2
*D69
 70
     1
 10
0.0
 20
0.0
 30
0.0
  3
*D69
  1

  0
LINE
  5
718
330
6A2
100
AcDbEntity
  8
0
 62
     0
440
 16777216
370
    -2
100
AcDbLine
 10
22.9040050337522
 20
27.5477784945652
 30
0.0
 11
22.9040050337522
 21
28.79777849456522
 31
0.0
  0
MTEXT
  5
719
330
6A2
100
AcDbEntity
  8
0
 62
     0
440
 16777216
100
AcDbMText
 10
22.9040050337522
 20
29.75377849456522
 30
0.0
 40
0.433
 41
0.0
 46
0.0
 71
     5
 72
     1
  1
\A1;5.394
 11
0.0000000000000001
 21
1.0
 31
0.0
 73
     1
 44
1.0
  0
POINT
  5
71A
330
6A2
100
AcDbEntity
  8
Defpoints
 62
     0
440
 16777216
100
AcDbPoint
 10
22.9040050337522
 20
27.2977784945652
 30
0.0
  0
POINT
  5
71B
330
6A2
100
AcDbEntity
  8
Defpoints
 62
     0
440
 16777216
100
AcDbPoint
 10
22.9040050337522
 20
28.79777849456522
 30
0.0
  0
POINT
  5
71C
330
6A2
100
AcDbEntity
  8
Defpoints
 62
     0
440
 16777216
100
AcDbPoint
 10
17.51030352581443
 20
12.80958987294264
 30
0.0
  0
ENDBLK
  5
6A4
330
6A2
100
AcDbEntity
  8
0
100
AcDbBlockEnd
  0
BLOCK
  5
6AB
330
6AA
100
AcDbEntity
  8
0
100
AcDbBlockBegin
  2
*D70
 70
     1
 10
0.0
 20
0.0
 30
0.0
  3
*D70
  1

  0
LINE
  5
71D
330
6AA
100
AcDbEntity
  8
0
 62
     0
440
 16777216
370
    -2
100
AcDbLine
 10
18.10085489718545
 20
27.5477784945652
 30
0.0
 11
18.10085489718545
 21
28.79777849456521
 31
0.0
  0
MTEXT
  5
71E
330
6AA
100
AcDbEntity
  8
0
 62
     0
440
 16777216
100
AcDbMText
 10
18.10085489718545
 20
29.64552849456521
 30
0.0
 40
0.433
 41
0.0
 46
0.0
 71
     5
 72
     1
  1
\A1;0.591
 11
0.0000000000000001
 21
1.0
 31
0.0
 73
     1
 44
1.0
  0
POINT
  5
71F
330
6AA
100
AcDbEntity
  8
Defpoints
 62
     0
440
 16777216
100
AcDbPoint
 10
18.10085489718545
 20
27.2977784945652
 30
0.0
  0
POINT
  5
720
330
6AA
100
AcDbEntity
  8
Defpoints
 62
     0
440
 16777216
100
AcDbPoint
 10
18.10085489718545
 20
28.79777849456521
 30
0.0
  0
POINT
  5
721
330
6AA
100
AcDbEntity
  8
Defpoints
 62
     0
440
 16777216
100
AcDbPoint
 10
17.51030352581443
 20
12.80958987294264
 30
0.0
  0
ENDBLK
  5
6AC
330
6AA
100
AcDbEntity
  8
0
100
AcDbBlockEnd
  0
BLOCK
  5
6B3
330
6B2
100
AcDbEntity
  8
0
100
AcDbBlockBegin
  2
*D71
 70
     1
 10
0.0
 20
0.0
 30
0.0
  3
*D71
  1

  0
LINE
  5
722
330
6B2
100
AcDbEntity
  8
0
 62
     0
440
 16777216
370
    -2
100
AcDbLine
 10
23.49455640512319
 20
28.0595887929909
 30
0.0
 11
23.49455640512319
 21
28.79763778677753
 31
0.0
  0
MTEXT
  5
723
330
6B2
100
AcDbEntity
  8
0
 62
     0
440
 16777216
100
AcDbMText
 10
23.49455640512319
 20
29.75363778677753
 30
0.0
 40
0.433
 41
0.0
 46
0.0
 71
     5
 72
     1
  1
\A1;5.984
 11
0.0000000000000001
 21
1.0
 31
0.0
 73
     1
 44
1.0
  0
POINT
  5
724
330
6B2
100
AcDbEntity
  8
Defpoints
 62
     0
440
 16777216
100
AcDbPoint
 10
23.49455640512319
 20
27.8095887929909
 30
0.0
  0
POINT
  5
725
330
6B2
100
AcDbEntity
  8
Defpoints
 62
     0
440
 16777216
100
AcDbPoint
 10
23.49455640512319
 20
28.79763778677753
 30
0.0
  0
POINT
  5
726
330
6B2
100
AcDbEntity
  8
Defpoints
 62
     0
440
 16777216
100
AcDbPoint
 10
17.51030352581443
 20
12.80958987294264
 30
0.0
  0
ENDBLK
  5
6B4
330
6B2
100
AcDbEntity
  8
0
100
AcDbBlockEnd
  0
BLOCK
  5
6BB
330
6BA
100
AcDbEntity
  8
0
100
AcDbBlockBegin
  2
*D72
 70
     1
 10
0.0
 20
0.0
 30
0.0
  3
*D72
  1

  0
LINE
  5
818
330
6BA
100
AcDbEntity
  8
0
 62
     0
440
 16777216
370
    -2
100
AcDbLine
 10
23.74455640512319
 20
27.8095887929909
 30
0.0
 11
24.36055640512319
 21
27.8095887929909
 31
0.0
  0
LINE
  5
819
330
6BA
100
AcDbEntity
  8
0
 62
     0
440
 16777216
370
    -2
100
AcDbLine
 10
24.36055640512319
 20
27.8095887929909
 30
0.0
 11
23.60985489718546
 21
28.06605330938113
 31
0.0
  0
LINE
  5
81A
330
6BA
100
AcDbEntity
  8
0
 62
     0
440
 16777216
370
    -2
100
AcDbLine
 10
23.60985489718546
 20
28.06605330938113
 30
0.0
 11
24.47585489718546
 21
28.06605330938113
 31
0.0
  0
MTEXT
  5
81B
330
6BA
100
AcDbEntity
  8
0
 62
     0
440
 16777216
100
AcDbMText
 10
25.46793823051879
 20
28.06605330938113
 30
0.0
 40
0.433
 41
0.0
 46
0.0
 71
     5
 72
     1
  1
\A1;15.000
 73
     1
 44
1.0
  0
POINT
  5
81C
330
6BA
100
AcDbEntity
  8
Defpoints
 62
     0
440
 16777216
100
AcDbPoint
 10
23.49455640512319
 20
27.8095887929909
 30
0.0
  0
POINT
  5
81D
330
6BA
100
AcDbEntity
  8
Defpoints
 62
     0
440
 16777216
100
AcDbPoint
 10
24.47585489718546
 20
28.06605330938113
 30
0.0
  0
POINT
  5
81E
330
6BA
100
AcDbEntity
  8
Defpoints
 62
     0
440
 16777216
100
AcDbPoint
 10
17.51030352581443
 20
12.80958987294264
 30
0.0
  0
ENDBLK
  5
6BC
330
6BA
100
AcDbEntity
  8
0
100
AcDbBlockEnd
  0
BLOCK
  5
6C3
330
6C2
100
AcDbEntity
  8
0
100
AcDbBlockBegin
  2
*D73
 70
     1
 10
0.0
 20
0.0
 30
0.0
  3
*D73
  1

  0
LINE
  5
72C
330
6C2
100
AcDbEntity
  8
0
 62
     0
440
 16777216
370
    -2
100
AcDbLine
 10
24.33903499737634
 20
17.02086857382896
 30
0.0
 11
23.90501833070967
 21
17.02086857382897
 31
0.0
  0
LINE
  5
72D
330
6C2
100
AcDbEntity
  8
0
 62
     0
440
 16777216
370
    -2
100
AcDbLine
 10
23.90501833070967
 20
17.02086857382897
 30
0.0
 11
22.05593829971757
 21
18.14752947361955
 31
0.0
  0
MTEXT
  5
72E
102
{ACAD_XDICTIONARY
360
7BD
102
}
330
6C2
100
AcDbEntity
  8
0
 62
     0
440
 16777216
100
AcDbMText
 10
26.19711833070967
 20
17.02086857382897
 30
0.0
 40
0.433
 41
0.0
 46
0.0
 71
     5
 72
     1
  1
\A1;∅0.375 (6)
 73
     1
 44
1.0
  0
SOLID
  5
72F
330
6C2
100
AcDbEntity
  8
0
 62
     0
440
 16777216
100
AcDbTrace
 10
22.09348870945349
 20
18.20915734480169
 30
0.0
 11
22.01838788998166
 21
18.0859016024374
 31
0.0
 12
21.68617107262472
 22
18.37283193203503
 32
0.0
 13
21.68617107262472
 23
18.37283193203503
 33
0.0
  0
LINE
  5
730
330
6C2
100
AcDbEntity
  8
0
 62
     0
440
 16777216
370
    -2
100
AcDbLine
 10
21.4360524696688
 20
18.47039362014798
 30
0.0
 11
21.6160524696688
 21
18.47039362014798
 31
0.0
  0
LINE
  5
731
330
6C2
100
AcDbEntity
  8
0
 62
     0
440
 16777216
370
    -2
100
AcDbLine
 10
21.5260524696688
 20
18.38039362014798
 30
0.0
 11
21.5260524696688
 21
18.56039362014798
 31
0.0
  0
POINT
  5
732
330
6C2
100
AcDbEntity
  8
Defpoints
 62
     0
440
 16777216
100
AcDbPoint
 10
21.68617107262472
 20
18.37283193203503
 30
0.0
  0
POINT
  5
733
330
6C2
100
AcDbEntity
  8
Defpoints
 62
     0
440
 16777216
100
AcDbPoint
 10
21.36593386671288
 20
18.56795530826093
 30
0.0
  0
ENDBLK
  5
6C4
330
6C2
100
AcDbEntity
  8
0
100
AcDbBlockEnd
  0
BLOCK
  5
6D8
330
6D7
100
AcDbEntity
  8
0
100
AcDbBlockBegin
  2
*D74
 70
     1
 10
0.0
 20
0.0
 30
0.0
  3
*D74
  1

  0
LINE
  5
6DA
330
6D7
100
AcDbEntity
  8
0
 62
     0
440
 16777216
370
    -2
100
AcDbLine
 10
18.71699716284325
 20
13.94339362014801
 30
0.0
 11
16.49869390367621
 21
13.94339362014801
 31
0.0
  0
MTEXT
  5
6DB
330
6D7
100
AcDbEntity
  8
0
 62
     0
440
 16777216
100
AcDbMText
 10
14.96536057034288
 20
13.94339362014801
 30
0.0
 40
0.433
 41
0.0
 46
0.0
 71
     5
 72
     1
  1
\A1;(2) 1.134
 73
     1
 44
1.0
  0
POINT
  5
6DC
330
6D7
100
AcDbEntity
  8
Defpoints
 62
     0
440
 16777216
100
AcDbPoint
 10
18.96699716284325
 20
13.94339362014801
 30
0.0
  0
POINT
  5
6DD
330
6D7
100
AcDbEntity
  8
Defpoints
 62
     0
440
 16777216
100
AcDbPoint
 10
16.49869390367621
 20
13.94339362014801
 30
0.0
  0
POINT
  5
6DE
330
6D7
100
AcDbEntity
  8
Defpoints
 62
     0
440
 16777216
100
AcDbPoint
 10
17.51030352581443
 20
12.80958987294264
 30
0.0
  0
ENDBLK
  5
6D9
330
6D7
100
AcDbEntity
  8
0
100
AcDbBlockEnd
  0
BLOCK
  5
7CE
330
7CD
100
AcDbEntity
  8
0
100
AcDbBlockBegin
  2
*D75
 70
     1
 10
0.0
 20
0.0
 30
0.0
  3
*D75
  1

  0
LINE
  5
7D6
330
7CD
100
AcDbEntity
  8
0
 62
     0
440
 16777216
370
    -2
100
AcDbLine
 10
18.65400507584451
 20
27.55958879299087
 30
0.0
 11
18.65400507584451
 21
28.87652456377529
 31
0.0
  0
MTEXT
  5
7D7
330
7CD
100
AcDbEntity
  8
0
 62
     0
440
 16777216
100
AcDbMText
 10
18.6540050758445
 20
29.68819123044196
 30
0.0
 40
0.433
 41
0.0
 46
0.0
 71
     5
 72
     1
  1
\A1;1.144
 11
0.0000000000000001
 21
1.0
 31
0.0
 73
     1
 44
1.0
  0
POINT
  5
7D8
330
7CD
100
AcDbEntity
  8
Defpoints
 62
     0
440
 16777216
100
AcDbPoint
 10
18.65400507584451
 20
27.30958879299087
 30
0.0
  0
POINT
  5
7D9
330
7CD
100
AcDbEntity
  8
Defpoints
 62
     0
440
 16777216
100
AcDbPoint
 10
18.65400507584451
 20
28.87652456377529
 30
0.0
  0
POINT
  5
7DA
330
7CD
100
AcDbEntity
  8
Defpoints
 62
     0
440
 16777216
100
AcDbPoint
 10
17.51030352581443
 20
12.80958987294264
 30
0.0
  0
ENDBLK
  5
7CF
330
7CD
100
AcDbEntity
  8
0
100
AcDbBlockEnd
  0
BLOCK
  5
7DE
330
7DD
100
AcDbEntity
  8
0
100
AcDbBlockBegin
  2
*D76
 70
     1
 10
0.0
 20
0.0
 30
0.0
  3
*D76
  1

  0
LINE
  5
7E6
330
7DD
100
AcDbEntity
  8
0
 62
     0
440
 16777216
370
    -2
100
AcDbLine
 10
22.35085485509313
 20
27.30958879299087
 30
0.0
 11
22.35085485509313
 21
28.78937711222464
 31
0.0
  0
MTEXT
  5
7E7
330
7DD
100
AcDbEntity
  8
0
 62
     0
440
 16777216
100
AcDbMText
 10
22.35085485509313
 20
29.67321044555798
 30
0.0
 40
0.433
 41
0.0
 46
0.0
 71
     5
 72
     1
  1
\A1;4.841
 11
0.0000000000000001
 21
1.0
 31
0.0
 73
     1
 44
1.0
  0
POINT
  5
7E8
330
7DD
100
AcDbEntity
  8
Defpoints
 62
     0
440
 16777216
100
AcDbPoint
 10
22.35085485509313
 20
27.05958879299088
 30
0.0
  0
POINT
  5
7E9
330
7DD
100
AcDbEntity
  8
Defpoints
 62
     0
440
 16777216
100
AcDbPoint
 10
22.35085485509313
 20
28.78937711222464
 30
0.0
  0
POINT
  5
7EA
330
7DD
100
AcDbEntity
  8
Defpoints
 62
     0
440
 16777216
100
AcDbPoint
 10
17.51030352581443
 20
12.80958987294264
 30
0.0
  0
ENDBLK
  5
7DF
330
7DD
100
AcDbEntity
  8
0
100
AcDbBlockEnd
  0
BLOCK
  5
7EE
330
7ED
100
AcDbEntity
  8
0
100
AcDbBlockBegin
  2
*D77
 70
     1
 10
0.0
 20
0.0
 30
0.0
  3
*D77
  1

  0
LINE
  5
7F6
330
7ED
100
AcDbEntity
  8
0
 62
     0
440
 16777216
370
    -2
100
AcDbLine
 10
22.60085485509313
 20
27.30958879299087
 30
0.0
 11
24.48516392099583
 21
27.30958879299087
 31
0.0
  0
MTEXT
  5
7F7
330
7ED
100
AcDbEntity
  8
0
 62
     0
440
 16777216
100
AcDbMText
 10
25.5133305876625
 20
27.30958879299087
 30
0.0
 40
0.433
 41
0.0
 46
0.0
 71
     5
 72
     1
  1
\A1;14.500
 73
     1
 44
1.0
  0
POINT
  5
7F8
330
7ED
100
AcDbEntity
  8
Defpoints
 62
     0
440
 16777216
100
AcDbPoint
 10
22.35085485509313
 20
27.30958879299087
 30
0.0
  0
POINT
  5
7F9
330
7ED
100
AcDbEntity
  8
Defpoints
 62
     0
440
 16777216
100
AcDbPoint
 10
24.48516392099583
 20
27.30958879299087
 30
0.0
  0
POINT
  5
7FA
330
7ED
100
AcDbEntity
  8
Defpoints
 62
     0
440
 16777216
100
AcDbPoint
 10
17.51030352581443
 20
12.80958987294264
 30
0.0
  0
ENDBLK
  5
7EF
330
7ED
100
AcDbEntity
  8
0
100
AcDbBlockEnd
  0
ENDSEC
  0
SECTION
  2
ENTITIES
  0
TEXT
  5
2A5
330
1F
100
AcDbEntity
  8
0
100
AcDbText
 10
17.54245992009527
 20
31.48629514454718
 30
0.0
 40
0.4332208025726851
  1
CUTOUT DRAWING
 72
     1
 11
20.50280207100862
 21
31.48629514454718
 31
0.0
100
AcDbText
  0
TEXT
  5
2A6
330
1F
100
AcDbEntity
  8
0
100
AcDbText
 10
18.66161366007478
 20
33.23629514454721
 30
0.0
 40
0.4332208025726851
  1
IQ1000MM-R
 72
     1
 11
20.50280207100869
 21
33.23629514454721
 31
0.0
100
AcDbText
  0
TEXT
  5
2A7
330
1F
100
AcDbEntity
  8
0
100
AcDbText
 10
18.62551192652706
 20
32.36129514454719
 30
0.0
 40
0.4332208025726851
  1
IQ1300MM-R
 72
     1
 11
20.50280207100869
 21
32.36129514454719
 31
0.0
100
AcDbText
  0
LINE
  5
2A9
330
1F
100
AcDbEntity
  8
0
100
AcDbLine
 10
30.93462336259229
 20
34.36070175085784
 30
0.0
 11
30.93462336259229
 21
7.003073009572578
 31
0.0
  0
LINE
  5
2AA
330
1F
100
AcDbEntity
  8
BORDER
100
AcDbLine
 10
15.0186675644
 20
7.756287226828461
 30
0.0
 11
15.01866744851315
 21
7.003073009572561
 31
0.0
  0
LINE
  5
2AB
330
1F
100
AcDbEntity
  8
BORDER
100
AcDbLine
 10
15.01866744851315
 20
7.153715820029955
 30
0.0
 11
10.12413091599183
 21
7.153715820029955
 31
0.0
  0
TEXT
  5
2AC
330
1F
100
AcDbEntity
  8
TEXT
100
AcDbText
 10
10.17591438208656
 20
7.191376522644305
 30
0.0
 40
0.0753214052286923
  1
REV
 72
     1
 11
10.2888964899296
 21
7.229037225258651
 31
0.0
100
AcDbText
 73
     2
  0
TEXT
  5
2AD
330
1F
100
AcDbEntity
  8
TEXT
100
AcDbText
 10
10.27006613862234
 20
7.340389556564739
 30
0.0
 40
0.0753214052286923
  1
0
 72
     1
 11
10.28889648992952
 21
7.378050259179085
 31
0.0
100
AcDbText
 73
     2
  0
TEXT
  5
2AE
330
1F
100
AcDbEntity
  8
TEXT
100
AcDbText
 10
14.54230928573651
 20
7.342019333101694
 30
0.0
 40
0.0753214052286923
  1
JMH
 72
     1
 11
14.64273782604144
 21
7.37968003571604
 31
0.0
100
AcDbText
 73
     2
  0
TEXT
  5
2AF
330
1F
100
AcDbEntity
  8
TEXT
100
AcDbText
 10
14.39166647527913
 20
7.191376522644305
 30
0.0
 40
0.0753214052286923
  1
CHECKED
 72
     1
 11
14.64273782604144
 21
7.229037225258651
 31
0.0
100
AcDbText
 73
     2
  0
LINE
  5
2B0
330
1F
100
AcDbEntity
  8
BORDER
100
AcDbLine
 10
14.26680820356991
 20
7.153715820029955
 30
0.0
 11
14.26680820356991
 21
7.304358630487355
 31
0.0
  0
LINE
  5
2B1
330
1F
100
AcDbEntity
  8
BORDER
100
AcDbLine
 10
14.26680820356991
 20
7.304358630487355
 30
0.0
 11
14.26680820356991
 21
7.45500144094476
 31
0.0
  0
LINE
  5
2B2
330
1F
100
AcDbEntity
  8
BORDER
100
AcDbLine
 10
13.60397983755735
 20
7.304358630487355
 30
0.0
 11
13.60397983755735
 21
7.45500144094476
 31
0.0
  0
LINE
  5
2B3
330
1F
100
AcDbEntity
  8
BORDER
100
AcDbLine
 10
13.60397983755735
 20
7.153715820029955
 30
0.0
 11
13.60397983755735
 21
7.304358630487355
 31
0.0
  0
LINE
  5
2B4
330
1F
100
AcDbEntity
  8
BORDER
100
AcDbLine
 10
10.12413091599185
 20
7.003073009572561
 30
0.0
 11
15.01866744851315
 21
7.003073009572561
 31
0.0
  0
TEXT
  5
2B5
330
1F
100
AcDbEntity
  8
TEXT
100
AcDbText
 10
13.79730477764436
 20
7.191376522644305
 30
0.0
 40
0.0753214052286923
  1
DATE
 72
     1
 11
13.93539402056363
 21
7.229037225258651
 31
0.0
100
AcDbText
 73
     2
  0
TEXT
  5
2B6
330
1F
100
AcDbEntity
  8
TEXT
100
AcDbText
 10
13.7031530211085
 20
7.342019333101694
 30
0.0
 40
0.0753214052286923
  1
2-14-08
 72
     1
 11
13.93539402056363
 21
7.37968003571604
 31
0.0
100
AcDbText
 73
     2
  0
TEXT
  5
2B7
330
1F
100
AcDbEntity
  8
TEXT
100
AcDbText
 10
11.51412468164963
 20
7.342019333101694
 30
0.0
 40
0.0753214052286923
  1
INITIAL RELEASE
 72
     1
 11
12.02882095071236
 21
7.37968003571604
 31
0.0
100
AcDbText
 73
     2
  0
LINE
  5
2B8
330
1F
100
AcDbEntity
  8
BORDER
100
AcDbLine
 10
15.01866744851315
 20
7.45500144094476
 30
0.0
 11
10.12413091599183
 21
7.45500144094476
 31
0.0
  0
LINE
  5
2B9
330
1F
100
AcDbEntity
  8
BORDER
100
AcDbLine
 10
15.01866744851315
 20
7.304358630487355
 30
0.0
 11
10.12413091599183
 21
7.304358630487355
 31
0.0
  0
LINE
  5
2BA
330
1F
100
AcDbEntity
  8
BORDER
100
AcDbLine
 10
10.45366206386737
 20
7.304358630487355
 30
0.0
 11
10.45366206386737
 21
7.45500144094476
 31
0.0
  0
LINE
  5
2BB
330
1F
100
AcDbEntity
  8
BORDER
100
AcDbLine
 10
10.45366206386737
 20
7.153715820029955
 30
0.0
 11
10.45366206386737
 21
7.304358630487355
 31
0.0
  0
TEXT
  5
2BC
330
1F
100
AcDbEntity
  8
TEXT
100
AcDbText
 10
10.17591438208656
 20
7.191376522644305
 30
0.0
 40
0.0753214052286923
  1
REV
 72
     1
 11
10.2888964899296
 21
7.229037225258651
 31
0.0
100
AcDbText
 73
     2
  0
TEXT
  5
2BD
330
1F
100
AcDbEntity
  8
TEXT
100
AcDbText
 10
11.65221392456889
 20
7.191376522644305
 30
0.0
 40
0.0753214052286923
  1
DESCRIPTION
 72
     1
 11
12.02882095071236
 21
7.229037225258651
 31
0.0
100
AcDbText
 73
     2
  0
TEXT
  5
2BE
330
1F
100
AcDbEntity
  8
TEXT
100
AcDbText
 10
11.71498176225947
 20
7.040733712186908
 30
0.0
 40
0.0753214052286923
  1
REVISIONS
 72
     1
 11
12.02882095071236
 21
7.078394414801254
 31
0.0
100
AcDbText
 73
     2
  0
LINE
  5
2BF
330
1F
100
AcDbEntity
  8
0
100
AcDbLine
 10
10.12413091599185
 20
34.36070175085784
 30
0.0
 11
10.12413091599185
 21
7.003073009572561
 31
0.0
  0
LINE
  5
2C0
330
1F
100
AcDbEntity
  8
0
100
AcDbLine
 10
30.93462336259229
 20
7.003073009572578
 30
0.0
 11
10.12413091599185
 21
7.003073009572561
 31
0.0
  0
POINT
  5
2C1
330
1F
100
AcDbEntity
  8
0
100
AcDbPoint
 10
29.99310579723368
 20
7.003073009572578
 30
0.0
  0
TEXT
  5
2C2
330
1F
100
AcDbEntity
  8
TEXT
100
AcDbText
 10
30.6451126688468
 20
7.070374522738697
 30
0.0
 40
0.1883035130717306
  1
1
 72
     1
 11
30.67649658769209
 21
7.164526279274562
 31
0.0
100
AcDbText
 73
     2
  0
TEXT
  5
2C3
330
1F
100
AcDbEntity
  8
TEXT
100
AcDbText
 10
28.78300360998642
 20
7.070374522738697
 30
0.0
 40
0.1883035130717306
  1
IQ290934
 72
     1
 11
29.45775786516012
 21
7.164526279274562
 31
0.0
100
AcDbText
 73
     2
  0
TEXT
  5
2C4
330
1F
100
AcDbEntity
  8
TEXT
100
AcDbText
 10
28.50749817705418
 20
7.45308442029995
 30
0.0
 40
0.1883035130717306
  1
IQ1000-1300MM-R
 72
     1
 11
29.71577905259778
 21
7.547236176835816
 31
0.0
100
AcDbText
 73
     2
  0
LINE
  5
2C5
330
1F
100
AcDbEntity
  8
BORDER
100
AcDbLine
 10
28.49714591752838
 20
7.396593366378437
 30
0.0
 11
30.93462336259229
 21
7.396593366378437
 31
0.0
  0
LINE
  5
2C6
330
1F
100
AcDbEntity
  8
BORDER
100
AcDbLine
 10
30.41836981279188
 20
7.396593366378437
 30
0.0
 11
30.41836981279188
 21
7.003073009572578
 31
0.0
  0
TEXT
  5
2C7
330
1F
100
AcDbEntity
  8
TEXT
100
AcDbText
 10
27.32508506855287
 20
7.059358479540902
 30
0.0
 40
0.0941517565358654
  1
SHEET 1 OF 1
 72
     1
 11
27.84291972950013
 21
7.106434357808835
 31
0.0
100
AcDbText
 73
     2
  0
LINE
  5
2C8
330
1F
100
AcDbEntity
  8
BORDER
100
AcDbLine
 10
27.17902132602629
 20
7.208289853306697
 30
0.0
 11
28.49714591752838
 21
7.208289853306697
 31
0.0
  0
TEXT
  5
2C9
330
1F
100
AcDbEntity
  8
TEXT
100
AcDbText
 10
27.54778237245841
 20
7.25688271573241
 30
0.0
 40
0.0941517565358654
  1
9-21-09
 72
     1
 11
27.83808362177733
 21
7.303958594000342
 31
0.0
100
AcDbText
 73
     2
  0
TEXT
  5
2CA
330
1F
100
AcDbEntity
  8
TEXT
100
AcDbText
 10
27.22609720429419
 20
7.325979548976527
 30
0.0
 40
0.0470758782679327
  1
DATE
100
AcDbText
  0
TEXT
  5
2CB
330
1F
100
AcDbEntity
  8
TEXT
100
AcDbText
 10
27.40451478292961
 20
7.413352379041805
 30
0.0
 40
0.070613817401899
  1
JMH
 72
     1
 11
27.49866653946548
 21
7.448659287742755
 31
0.0
100
AcDbText
 73
     2
  0
TEXT
  5
2CC
330
1F
100
AcDbEntity
  8
TEXT
100
AcDbText
 10
27.20632533542168
 20
7.514283062048268
 30
0.0
 40
0.0470758782679327
  1
DRAWN
100
AcDbText
  0
TEXT
  5
2CD
330
1F
100
AcDbEntity
  8
TEXT
100
AcDbText
 10
27.88515950004528
 20
7.514283062048268
 30
0.0
 40
0.0470758782679327
  1
SCALE
100
AcDbText
  0
TEXT
  5
2CE
330
1F
100
AcDbEntity
  8
TEXT
100
AcDbText
 10
28.04804203885228
 20
7.413352379041805
 30
0.0
 40
0.070613817401899
  1
NONE
 72
     1
 11
28.17750070408909
 21
7.448659287742755
 31
0.0
100
AcDbText
 73
     2
  0
LINE
  5
2CF
330
1F
100
AcDbEntity
  8
BORDER
100
AcDbLine
 10
27.17902132602629
 20
7.584896879450167
 30
0.0
 11
28.49714591752838
 21
7.584896879450167
 31
0.0
  0
LINE
  5
2D0
330
1F
100
AcDbEntity
  8
BORDER
100
AcDbLine
 10
27.17902132602629
 20
7.396593366378437
 30
0.0
 11
28.49714591752838
 21
7.396593366378437
 31
0.0
  0
LINE
  5
2D1
330
1F
100
AcDbEntity
  8
DIMENSION
100
AcDbLine
 10
27.17902132602629
 20
7.584896879450167
 30
0.0
 11
27.17902132602629
 21
7.003073009572578
 31
0.0
  0
TEXT
  5
2D2
330
1F
100
AcDbEntity
  8
TEXT
100
AcDbText
 10
25.9215546793431
 20
7.073686826974471
 30
0.0
 40
0.0470758782679327
  1
ICE QUBE, INC.
 72
     1
 11
26.20008695909503
 21
7.097224766108437
 31
0.0
100
AcDbText
 73
     2
  0
TEXT
  5
2D3
330
1F
100
AcDbEntity
  8
TEXT
100
AcDbText
 10
25.42260252599148
 20
7.144300644376381
 30
0.0
 40
0.0470758782679327
  1
OR ALTERED WITHOUT AUTHORIZATION OF
 72
     1
 11
26.22289245654633
 21
7.167838583510347
 31
0.0
100
AcDbText
 73
     2
  0
TEXT
  5
2D4
330
1F
100
AcDbEntity
  8
TEXT
100
AcDbText
 10
25.38729561729053
 20
7.214914461778257
 30
0.0
 40
0.0470758782679327
  1
QUBE, INC. AND IS NOT TO BE DUPLICATED
 72
     1
 11
26.22289245654633
 21
7.238452400912223
 31
0.0
100
AcDbText
 73
     2
  0
TEXT
  5
2D5
330
1F
100
AcDbEntity
  8
TEXT
100
AcDbText
 10
25.4304485057028
 20
7.285528279180167
 30
0.0
 40
0.0470758782679327
  1
THIS DRAWING IS THE PROPERTY OF ICE
 72
     1
 11
26.22289245654633
 21
7.309066218314133
 31
0.0
100
AcDbText
 73
     2
  0
TEXT
  5
2D6
330
1F
100
AcDbEntity
  8
TEXT
100
AcDbText
 10
25.3598346883009
 20
7.379680035716035
 30
0.0
 40
0.0941517565358654
  1
PROPRIETARY DRAWING
 72
     1
 11
26.22289245654633
 21
7.426755913983968
 31
0.0
100
AcDbText
 73
     2
  0
LINE
  5
2D7
330
1F
100
AcDbEntity
  8
BORDER
100
AcDbLine
 10
27.17902132602629
 20
7.003073009572578
 30
0.0
 11
27.17902132602629
 21
7.520907670519827
 31
0.0
  0
LINE
  5
2D8
330
1F
100
AcDbEntity
  8
THERMOSTATCVR
100
AcDbLine
 10
27.17902132602629
 20
7.584896879450167
 30
0.0
 11
25.28465023256099
 21
7.584896879450167
 31
0.0
  0
LINE
  5
2D9
330
1F
100
AcDbEntity
  8
THERMOSTATCVR
100
AcDbLine
 10
25.28465023256099
 20
7.584896879450167
 30
0.0
 11
25.28465023256099
 21
7.003073009572578
 31
0.0
  0
TEXT
  5
2DA
330
1F
100
AcDbEntity
  8
TEXT
100
AcDbText
 10
29.70803866034901
 20
7.977980462987396
 30
0.0
 40
0.0470758782679327
  1
GREENSBURG, PA  15601
 72
     1
 11
30.16310548360569
 21
8.001518402121362
 31
0.0
100
AcDbText
 73
     2
  0
TEXT
  5
2DB
330
1F
100
AcDbEntity
  8
TEXT
100
AcDbText
 10
29.77865247775091
 20
8.072132219523266
 30
0.0
 40
0.0470758782679327
  1
141 WILSON AVENUE
 72
     1
 11
30.16310548360569
 21
8.095670158657233
 31
0.0
100
AcDbText
 73
     2
  0
TEXT
  5
2DC
330
1F
100
AcDbEntity
  8
TEXT
100
AcDbText
 10
29.54327308641124
 20
8.161576388232338
 30
0.0
 40
0.0470758782679327
  1
INDUSTRIAL COOLING EQUIPMENT
 72
     1
 11
30.16310548360569
 21
8.185114327366305
 31
0.0
100
AcDbText
 73
     2
  0
LINE
  5
2DD
330
1F
100
AcDbEntity
  8
BORDER
100
AcDbLine
 10
28.49714591752838
 20
8.243959175201236
 30
0.0
 11
30.93462336259229
 21
8.243959175201224
 31
0.0
  0
LINE
  5
2DE
330
1F
100
AcDbEntity
  8
TEXT
100
AcDbLine
 10
28.87182441322333
 20
8.118423178228862
 30
0.0
 11
28.93448929404103
 21
8.118423178228862
 31
0.0
  0
ARC
  5
2DF
330
1F
100
AcDbEntity
  8
TEXT
100
AcDbCircle
 10
28.90602436972288
 20
8.119746817265165
 30
0.0
 40
0.028495682773577
100
AcDbArc
 50
357.3376237443689
 51
85.63084243886233
  0
ARC
  5
2E0
330
1F
100
AcDbEntity
  8
TEXT
100
AcDbCircle
 10
28.89714126851334
 20
8.095448591556952
 30
0.0
 40
0.0538576827343743
100
AcDbArc
 50
78.15621523986212
 51
106.612240852029
  0
LINE
  5
2E1
330
1F
100
AcDbEntity
  8
TEXT
100
AcDbLine
 10
28.87182441322333
 20
8.125188625985298
 30
0.0
 11
28.91291872135623
 21
8.125188625985298
 31
0.0
  0
ARC
  5
2E2
330
1F
100
AcDbEntity
  8
TEXT
100
AcDbCircle
 10
28.89184651927963
 20
8.121278082311379
 30
0.0
 40
0.0204004186907141
100
AcDbArc
 50
103.9179608006051
 51
168.948608895047
  0
ARC
  5
2E3
330
1F
100
AcDbEntity
  8
TEXT
100
AcDbCircle
 10
28.89654039683573
 20
8.125705944537932
 30
0.0
 40
0.0163864923818733
100
AcDbArc
 50
358.1908821763629
 51
69.74957583403455
  0
ARC
  5
2E4
330
1F
100
AcDbEntity
  8
TEXT
100
AcDbCircle
 10
28.89457585714274
 20
8.078889542475973
 30
0.0
 40
0.0626571008621197
100
AcDbArc
 50
82.99970676553448
 51
97.00029323449177
  0
ARC
  5
2E5
330
1F
100
AcDbEntity
  8
TEXT
100
AcDbCircle
 10
28.89412373739438
 20
8.110147604917008
 30
0.0
 40
0.038931564444201
100
AcDbArc
 50
108.5416613320868
 51
149.7652339536235
  0
ARC
  5
2E6
330
1F
100
AcDbEntity
  8
TEXT
100
AcDbCircle
 10
28.89437290623078
 20
8.10896164595549
 30
0.0
 40
0.039754191555894
100
AcDbArc
 50
148.4692011102813
 51
195.5802361373364
  0
ARC
  5
2E7
330
1F
100
AcDbEntity
  8
TEXT
100
AcDbCircle
 10
28.89363751829579
 20
8.10777716789231
 30
0.0
 40
0.0387391789400517
100
AcDbArc
 50
194.1847393568171
 51
248.658676732099
  0
ARC
  5
2E8
330
1F
100
AcDbEntity
  8
TEXT
100
AcDbCircle
 10
28.90954985950154
 20
8.117959598252701
 30
0.0
 40
0.0377282944655948
100
AcDbArc
 50
179.2959701761241
 51
227.5915484940839
  0
ARC
  5
2E9
330
1F
100
AcDbEntity
  8
TEXT
100
AcDbCircle
 10
28.90132200629328
 20
8.111243605697531
 30
0.0
 40
0.0272643975521846
100
AcDbArc
 50
230.8416488637782
 51
280.5326941523482
  0
ARC
  5
2EA
330
1F
100
AcDbEntity
  8
TEXT
100
AcDbCircle
 10
28.90488518694187
 20
8.11863098897844
 30
0.0
 40
0.0342218971314216
100
AcDbArc
 50
272.3792098458871
 51
327.3581874363298
  0
ARC
  5
2EB
330
1F
100
AcDbEntity
  8
TEXT
100
AcDbCircle
 10
28.89476815627848
 20
8.125817087583348
 30
0.0
 40
0.0562243907835031
100
AcDbArc
 50
254.2847830849329
 51
294.1819270465994
  0
ARC
  5
2EC
330
1F
100
AcDbEntity
  8
TEXT
100
AcDbCircle
 10
28.89933222689084
 20
8.111854041243455
 30
0.0
 40
0.0416460911605504
100
AcDbArc
 50
296.3233923707218
 51
339.8348331475747
  0
ARC
  5
2ED
330
1F
100
AcDbEntity
  8
TEXT
100
AcDbCircle
 10
28.93560808935394
 20
8.098030090120834
 30
0.0
 40
0.0028673384320092
100
AcDbArc
 50
349.2952029716974
 51
131.6626905469293
  0
ARC
  5
2EE
330
1F
100
AcDbEntity
  8
TEXT
100
AcDbCircle
 10
28.81400374898819
 20
8.029237864872838
 30
0.0
 40
0.12015236547112
100
AcDbArc
 50
84.62122141578795
 51
95.37877858421206
  0
ARC
  5
2EF
330
1F
100
AcDbEntity
  8
TEXT
100
AcDbCircle
 10
28.82120819769518
 20
8.121464657003008
 30
0.0
 40
0.0276955050161919
100
AcDbArc
 50
43.16761867319035
 51
81.57335966330681
  0
ARC
  5
2F0
330
1F
100
AcDbEntity
  8
TEXT
100
AcDbCircle
 10
28.83179358846563
 20
8.13318229562523
 30
0.0
 40
0.0120294852725347
100
AcDbArc
 50
321.1558234807406
 51
36.94217904228418
  0
ARC
  5
2F1
330
1F
100
AcDbEntity
  8
TEXT
100
AcDbCircle
 10
28.83407816627658
 20
8.134814401563696
 30
0.0
 40
0.0115935527068065
100
AcDbArc
 50
205.1359642898991
 51
307.6679722285628
  0
ARC
  5
2F2
330
1F
100
AcDbEntity
  8
TEXT
100
AcDbCircle
 10
28.83650008525244
 20
8.135063088999046
 30
0.0
 40
0.0139149805860695
100
AcDbArc
 50
180.010674400693
 51
201.8251852717941
  0
ARC
  5
2F3
330
1F
100
AcDbEntity
  8
TEXT
100
AcDbCircle
 10
28.80890257878753
 20
8.130951157049166
 30
0.0
 40
0.0142862938685054
100
AcDbArc
 50
16.71684440730688
 51
45.9771940039907
  0
ARC
  5
2F4
330
1F
100
AcDbEntity
  8
TEXT
100
AcDbCircle
 10
28.81136246790084
 20
8.025285720805596
 30
0.0
 40
0.1161784754847913
100
AcDbArc
 50
86.31431733543349
 51
93.90381943515908
  0
ARC
  5
2F5
330
1F
100
AcDbEntity
  8
TEXT
100
AcDbCircle
 10
28.80717500912284
 20
8.113085756018341
 30
0.0
 40
0.0360491769993699
100
AcDbArc
 50
97.06566064010193
 51
142.498633431232
  0
ARC
  5
2F6
330
1F
100
AcDbEntity
  8
TEXT
100
AcDbCircle
 10
28.80684876832588
 20
8.10745038321582
 30
0.0
 40
0.0394980340168089
100
AcDbArc
 50
135.7093780000566
 51
195.2317137751495
  0
ARC
  5
2F7
330
1F
100
AcDbEntity
  8
TEXT
100
AcDbCircle
 10
28.80311296024149
 20
8.1062525724502
 30
0.0
 40
0.0355791942216639
100
AcDbArc
 50
194.9511061487655
 51
259.610313586206
  0
ARC
  5
2F8
330
1F
100
AcDbEntity
  8
TEXT
100
AcDbCircle
 10
28.80879493636353
 20
8.107699700936048
 30
0.0
 40
0.0383987109161728
100
AcDbArc
 50
251.6347706403381
 51
316.4182924463553
  0
ARC
  5
2F9
330
1F
100
AcDbEntity
  8
TEXT
100
AcDbCircle
 10
28.80396844746608
 20
8.119834055902105
 30
0.0
 40
0.0505562578197014
100
AcDbArc
 50
310.2152586008289
 51
331.3072507285814
  0
ARC
  5
2FA
330
1F
100
AcDbEntity
  8
TEXT
100
AcDbCircle
 10
28.81857181153078
 20
8.11199258994066
 30
0.0
 40
0.0328837791276186
100
AcDbArc
 50
117.3722826858103
 51
160.0902491401915
  0
ARC
  5
2FB
330
1F
100
AcDbEntity
  8
TEXT
100
AcDbCircle
 10
28.82281935089924
 20
8.115099934544927
 30
0.0
 40
0.0360846252913658
100
AcDbArc
 50
167.0430028911436
 51
212.130937130944
  0
ARC
  5
2FC
330
1F
100
AcDbEntity
  8
TEXT
100
AcDbCircle
 10
28.81511093809098
 20
8.11082966259376
 30
0.0
 40
0.0272899875170828
100
AcDbArc
 50
213.1462108998183
 51
285.6537258536325
  0
ARC
  5
2FD
330
1F
100
AcDbEntity
  8
TEXT
100
AcDbCircle
 10
28.81535896368339
 20
8.117565699394042
 30
0.0
 40
0.0337719254156519
100
AcDbArc
 50
282.1628426667718
 51
326.5593609179388
  0
ARC
  5
2FE
330
1F
100
AcDbEntity
  8
TEXT
100
AcDbCircle
 10
28.84457005694449
 20
8.095346117838486
 30
0.0
 40
0.0037528680371889
100
AcDbArc
 50
3.288025410275718
 51
105.9275278804241
  0
LINE
  5
2FF
330
1F
100
AcDbEntity
  8
TEXT
100
AcDbLine
 10
28.66770509884624
 20
8.229690063926705
 30
0.0
 11
28.66893137428409
 21
8.129207900516902
 31
0.0
  0
LINE
  5
300
330
1F
100
AcDbEntity
  8
TEXT
100
AcDbLine
 10
28.67751530234939
 20
8.217436139172916
 30
0.0
 11
28.67812844006824
 21
8.129207900516902
 31
0.0
  0
ARC
  5
301
330
1F
100
AcDbEntity
  8
TEXT
100
AcDbCircle
 10
28.67352990717619
 20
8.129039238379194
 30
0.0
 40
0.0046016248952257
100
AcDbArc
 50
177.899482485688
 51
2.100517514311817
  0
LINE
  5
302
330
1F
100
AcDbEntity
  8
TEXT
100
AcDbLine
 10
28.69859591763523
 20
8.213005266754437
 30
0.0
 11
28.69859591763523
 21
8.059405029103134
 31
0.0
  0
LINE
  5
303
330
1F
100
AcDbEntity
  8
TEXT
100
AcDbLine
 10
28.74313716128027
 20
8.213005266754437
 30
0.0
 11
28.74313716128027
 21
8.059405029103134
 31
0.0
  0
ARC
  5
304
330
1F
100
AcDbEntity
  8
TEXT
100
AcDbCircle
 10
28.68198172296639
 20
8.217221604268964
 30
0.0
 40
0.0044715700098972
100
AcDbArc
 50
38.20381851858036
 51
177.2500340797979
  0
LINE
  5
305
330
1F
100
AcDbEntity
  8
TEXT
100
AcDbLine
 10
28.68549555278168
 20
8.219987094891362
 30
0.0
 11
28.69859591763523
 21
8.213005266754437
 31
0.0
  0
LINE
  5
306
330
1F
100
AcDbEntity
  8
TEXT
100
AcDbLine
 10
28.75623752613383
 20
8.219987094891362
 30
0.0
 11
28.74313716128027
 21
8.213005266754437
 31
0.0
  0
LINE
  5
307
330
1F
100
AcDbEntity
  8
TEXT
100
AcDbLine
 10
28.76421777656619
 20
8.217436139172916
 30
0.0
 11
28.76416726593973
 21
8.210167847770611
 31
0.0
  0
LINE
  5
308
330
1F
100
AcDbEntity
  8
TEXT
100
AcDbLine
 10
28.77402798006934
 20
8.229690063926705
 30
0.0
 11
28.77378973266944
 21
8.210167847770611
 31
0.0
  0
ARC
  5
309
330
1F
100
AcDbEntity
  8
TEXT
100
AcDbCircle
 10
28.75975135594919
 20
8.217221604268964
 30
0.0
 40
0.0044715700098972
100
AcDbArc
 50
2.749965920202094
 51
141.7961814814196
  0
ARC
  5
30A
330
1F
100
AcDbEntity
  8
TEXT
100
AcDbCircle
 10
28.76897849930459
 20
8.206989218869892
 30
0.0
 40
0.0057664242108932
100
AcDbArc
 50
146.548528575337
 51
33.45147142466299
  0
ARC
  5
30B
330
1F
100
AcDbEntity
  8
TEXT
100
AcDbCircle
 10
28.70192194211489
 20
8.04999071574908
 30
0.0
 40
0.0099845748415906
100
AcDbArc
 50
109.4580308571273
 51
191.0341765876991
  0
ARC
  5
30C
330
1F
100
AcDbEntity
  8
TEXT
100
AcDbCircle
 10
28.68916009256753
 20
8.047521949165592
 30
0.0
 40
0.0030139197563073
100
AcDbArc
 50
155.924904233813
 51
10.66497725508803
  0
ARC
  5
30D
330
1F
100
AcDbEntity
  8
TEXT
100
AcDbCircle
 10
28.68078453551868
 20
8.045170637815672
 30
0.0
 40
0.0066670337445945
100
AcDbArc
 50
32.48569494743503
 51
175.1979664789355
  0
ARC
  5
30E
330
1F
100
AcDbEntity
  8
TEXT
100
AcDbCircle
 10
28.67190850947373
 20
8.044665529316239
 30
0.0
 40
0.0024726578280916
100
AcDbArc
 50
158.7719549350953
 51
25.46716058583678
  0
ARC
  5
30F
330
1F
100
AcDbEntity
  8
TEXT
100
AcDbCircle
 10
28.66612351526909
 20
8.046292896638304
 30
0.0
 40
0.0035562783631831
100
AcDbArc
 50
348.1206509806773
 51
136.2651890953701
  0
ARC
  5
310
330
1F
100
AcDbEntity
  8
TEXT
100
AcDbCircle
 10
28.66569654812793
 20
8.044419070327744
 30
0.0
 40
0.0048332301011665
100
AcDbArc
 50
116.3151684036656
 51
258.4674100382152
  0
ARC
  5
311
330
1F
100
AcDbEntity
  8
TEXT
100
AcDbCircle
 10
28.66734718388113
 20
8.037201551842526
 30
0.0
 40
0.0036066509975435
100
AcDbArc
 50
356.7423630506751
 51
136.5172760689915
  0
ARC
  5
312
330
1F
100
AcDbEntity
  8
TEXT
100
AcDbCircle
 10
28.67223067212738
 20
8.03511040433897
 30
0.0
 40
0.0022810013385922
100
AcDbArc
 50
124.2167745950254
 51
319.7988197133883
  0
ARC
  5
313
330
1F
100
AcDbEntity
  8
TEXT
100
AcDbCircle
 10
28.68136549076444
 20
8.030985714617084
 30
0.0
 40
0.0078540436227
100
AcDbArc
 50
160.26277828196
 51
255.1333022011589
  0
ARC
  5
314
330
1F
100
AcDbEntity
  8
TEXT
100
AcDbCircle
 10
28.68131176357588
 20
8.024167807140393
 30
0.0
 40
0.0021083025734577
100
AcDbArc
 50
201.5154657474048
 51
41.96660508020907
  0
ARC
  5
315
330
1F
100
AcDbEntity
  8
TEXT
100
AcDbCircle
 10
28.68865551322609
 20
8.029396897637655
 30
0.0
 40
0.006924651946487
100
AcDbArc
 50
121.2424246402128
 51
213.4732397083816
  0
ARC
  5
316
330
1F
100
AcDbEntity
  8
TEXT
100
AcDbCircle
 10
28.68698853204863
 20
8.031925071169402
 30
0.0
 40
0.0039001818197441
100
AcDbArc
 50
332.2921775479033
 51
119.5678571760053
  0
ARC
  5
317
330
1F
100
AcDbEntity
  8
TEXT
100
AcDbCircle
 10
28.68771949150337
 20
8.023701769009472
 30
0.0
 40
0.0069638752489777
100
AcDbArc
 50
312.9867785858928
 51
66.99118422928775
  0
ARC
  5
318
330
1F
100
AcDbEntity
  8
TEXT
100
AcDbCircle
 10
28.71770941620983
 20
7.969749121261987
 30
0.0
 40
0.0549936223840324
100
AcDbArc
 50
117.3222180892421
 51
179.3383492613259
  0
ARC
  5
319
330
1F
100
AcDbEntity
  8
TEXT
100
AcDbCircle
 10
28.88884774713753
 20
7.999978531935139
 30
0.0
 40
0.0133625184081101
100
AcDbArc
 50
51.01090143870322
 51
107.577946053111
  0
ARC
  5
31A
330
1F
100
AcDbEntity
  8
TEXT
100
AcDbCircle
 10
28.86592036397219
 20
8.013780234731695
 30
0.0
 40
0.0189217522752965
100
AcDbArc
 50
356.7791343814141
 51
50.82801334296444
  0
ARC
  5
31B
330
1F
100
AcDbEntity
  8
TEXT
100
AcDbCircle
 10
28.87067236827288
 20
7.992590847478735
 30
0.0
 40
0.0365742239306637
100
AcDbArc
 50
78.64671940114623
 51
92.8865786316482
  0
ARC
  5
31C
330
1F
100
AcDbEntity
  8
TEXT
100
AcDbCircle
 10
28.86654552011599
 20
8.0336462453805
 30
0.0
 40
0.0050715124531745
100
AcDbArc
 50
296.7794474250892
 51
150.4674482996524
  0
ARC
  5
31D
330
1F
100
AcDbEntity
  8
TEXT
100
AcDbCircle
 10
28.85841724336943
 20
8.040891091918812
 30
0.0
 40
0.0060267191065897
100
AcDbArc
 50
174.1982733486934
 51
308.0634596483696
  0
ARC
  5
31E
330
1F
100
AcDbEntity
  8
TEXT
100
AcDbCircle
 10
28.84123016974849
 20
8.031677904970781
 30
0.0
 40
0.0148903719514897
100
AcDbArc
 50
41.27304036067429
 51
94.61991284102541
  0
ARC
  5
31F
330
1F
100
AcDbEntity
  8
TEXT
100
AcDbCircle
 10
28.83526814358973
 20
8.045119271025951
 30
0.0
 40
0.0049643566344672
100
AcDbArc
 50
136.6395135700863
 51
16.38775991618308
  0
ARC
  5
320
330
1F
100
AcDbEntity
  8
TEXT
100
AcDbCircle
 10
28.82761242395788
 20
8.044093714685692
 30
0.0
 40
0.006002814691472
100
AcDbArc
 50
47.61705801860638
 51
152.6179806585846
  0
ARC
  5
321
330
1F
100
AcDbEntity
  8
TEXT
100
AcDbCircle
 10
28.81527086757059
 20
8.043621134735099
 30
0.0
 40
0.007720957893383
100
AcDbArc
 50
24.75773987532605
 51
121.5483884163316
  0
ARC
  5
322
330
1F
100
AcDbEntity
  8
TEXT
100
AcDbCircle
 10
28.80537071439684
 20
8.047963885634143
 30
0.0
 40
0.0062728536834813
100
AcDbArc
 50
20.89289471577905
 51
159.1071052842209
  0
ARC
  5
323
330
1F
100
AcDbEntity
  8
TEXT
100
AcDbCircle
 10
28.79638533854298
 20
8.051071674377636
 30
0.0
 40
0.0032440169560999
100
AcDbArc
 50
183.5606974541693
 51
344.4298925613363
  0
ARC
  5
324
330
1F
100
AcDbEntity
  8
TEXT
100
AcDbCircle
 10
28.78643221362069
 20
8.043809449273554
 30
0.0
 40
0.0097442508538777
100
AcDbArc
 50
46.43616582623518
 51
130.6283095026899
  0
ARC
  5
325
330
1F
100
AcDbEntity
  8
TEXT
100
AcDbCircle
 10
28.77657101069654
 20
8.050154981278643
 30
0.0
 40
0.0036696272941413
100
AcDbArc
 50
163.3756550464644
 51
16.62434495353224
  0
ARC
  5
326
330
1F
100
AcDbEntity
  8
TEXT
100
AcDbCircle
 10
28.76270192190458
 20
8.022675932062366
 30
0.0
 40
0.0303493055472228
100
AcDbArc
 50
70.05468846034901
 51
100.2232656721174
  0
ARC
  5
327
330
1F
100
AcDbEntity
  8
TEXT
100
AcDbCircle
 10
28.75480379273788
 20
8.036347309830969
 30
0.0
 40
0.01638967650168
100
AcDbArc
 50
81.18509483549035
 51
120.0392913824029
  0
ARC
  5
328
330
1F
100
AcDbEntity
  8
TEXT
100
AcDbCircle
 10
28.74261248609353
 20
8.054089815467589
 30
0.0
 40
0.0053410467179328
100
AcDbArc
 50
318.2823815987304
 51
84.36248438137992
  0
ARC
  5
329
330
1F
100
AcDbEntity
  8
TEXT
100
AcDbCircle
 10
28.71858203015809
 20
8.03034435821152
 30
0.0
 40
0.0076810515749842
100
AcDbArc
 50
35.60679995344256
 51
177.5845513854531
  0
LINE
  5
32A
330
1F
100
AcDbEntity
  8
TEXT
100
AcDbLine
 10
28.72482696833245
 20
8.03481641595888
 30
0.0
 11
28.72433857960519
 21
8.027739835468597
 31
0.0
  0
LINE
  5
32B
330
1F
100
AcDbEntity
  8
TEXT
100
AcDbLine
 10
28.71090780317524
 20
8.030668076474892
 30
0.0
 11
28.71066360881158
 21
8.012366576010316
 31
0.0
  0
ARC
  5
32C
330
1F
100
AcDbEntity
  8
TEXT
100
AcDbCircle
 10
28.74165751160488
 20
7.998565355146038
 30
0.0
 40
0.033927801398001
100
AcDbArc
 50
120.694762676349
 51
155.9971516553445
  0
ARC
  5
32D
330
1F
100
AcDbEntity
  8
TEXT
100
AcDbCircle
 10
28.72917469864173
 20
8.007973128655311
 30
0.0
 40
0.0063124611085434
100
AcDbArc
 50
218.6904014524285
 51
353.665941150076
  0
ARC
  5
32E
330
1F
100
AcDbEntity
  8
TEXT
100
AcDbCircle
 10
28.72568722703283
 20
7.998122580087962
 30
0.0
 40
0.0060775226063211
100
AcDbArc
 50
103.7022990326946
 51
207.01930656292
  0
ARC
  5
32F
330
1F
100
AcDbEntity
  8
TEXT
100
AcDbCircle
 10
28.87803666908244
 20
7.993033985087809
 30
0.0
 40
0.0172565616062193
100
AcDbArc
 50
155.9906329013374
 51
206.8057304576877
  0
ARC
  5
330
330
1F
100
AcDbEntity
  8
TEXT
100
AcDbCircle
 10
28.85971275047819
 20
7.999912570216666
 30
0.0
 40
0.0025643956741991
100
AcDbArc
 50
3.193725348484569
 51
193.0548754998683
  0
ARC
  5
331
330
1F
100
AcDbEntity
  8
TEXT
100
AcDbCircle
 10
28.85378206038078
 20
7.995456411533142
 30
0.0
 40
0.005178120454145
100
AcDbArc
 50
131.5213803610309
 51
48.47861963896903
  0
ARC
  5
332
330
1F
100
AcDbEntity
  8
TEXT
100
AcDbCircle
 10
28.83662094939453
 20
8.006668669601419
 30
0.0
 40
0.0155653522084734
100
AcDbArc
 50
331.8837666959979
 51
33.32508059323637
  0
ARC
  5
333
330
1F
100
AcDbEntity
  8
TEXT
100
AcDbCircle
 10
28.84616377623995
 20
8.014262000195314
 30
0.0
 40
0.0035931578394132
100
AcDbArc
 50
15.46471151433306
 51
237.0036058083627
  0
ARC
  5
334
330
1F
100
AcDbEntity
  8
TEXT
100
AcDbCircle
 10
28.83931848287954
 20
8.008978024847062
 30
0.0
 40
0.005390002736074
100
AcDbArc
 50
124.5991194751844
 51
24.9116295137931
  0
ARC
  5
335
330
1F
100
AcDbEntity
  8
TEXT
100
AcDbCircle
 10
28.82390310893703
 20
8.01904966873896
 30
0.0
 40
0.0135791068951365
100
AcDbArc
 50
335.4827230531713
 51
36.54383594003264
  0
ARC
  5
336
330
1F
100
AcDbEntity
  8
TEXT
100
AcDbCircle
 10
28.80668624433619
 20
7.976760444988113
 30
0.0
 40
0.0576949297740169
100
AcDbArc
 50
60.82353397560653
 51
101.6183182656789
  0
LINE
  5
337
330
1F
100
AcDbEntity
  8
TEXT
100
AcDbLine
 10
28.79506699926265
 20
8.033273258274576
 30
0.0
 11
28.79470567740523
 21
8.019552852829471
 31
0.0
  0
ARC
  5
338
330
1F
100
AcDbEntity
  8
TEXT
100
AcDbCircle
 10
28.78938355466969
 20
8.019292196420318
 30
0.0
 40
0.0053285018697211
100
AcDbArc
 50
165.3922446503752
 51
2.803879044206392
  0
LINE
  5
339
330
1F
100
AcDbEntity
  8
TEXT
100
AcDbLine
 10
28.78422729639694
 20
8.020636046411821
 30
0.0
 11
28.78350465268209
 21
8.031106875769676
 31
0.0
  0
ARC
  5
33A
330
1F
100
AcDbEntity
  8
TEXT
100
AcDbCircle
 10
28.77882684393463
 20
8.028763442515881
 30
0.0
 40
0.0052319761173963
100
AcDbArc
 50
26.60941129939514
 51
166.0619000058105
  0
LINE
  5
33B
330
1F
100
AcDbEntity
  8
TEXT
100
AcDbLine
 10
28.77374891538854
 20
8.030023686847124
 30
0.0
 11
28.77374891538854
 21
8.025329866629471
 31
0.0
  0
ARC
  5
33C
330
1F
100
AcDbEntity
  8
TEXT
100
AcDbCircle
 10
28.76960706794028
 20
8.022726983048409
 30
0.0
 40
0.004891820031562
100
AcDbArc
 50
179.1163546128549
 51
32.14670843866527
  0
LINE
  5
33D
330
1F
100
AcDbEntity
  8
TEXT
100
AcDbLine
 10
28.76471582966713
 20
8.022802424256907
 30
0.0
 11
28.76471582966713
 21
8.005471387516665
 31
0.0
  0
ARC
  5
33E
330
1F
100
AcDbEntity
  8
TEXT
100
AcDbCircle
 10
28.75820931443864
 20
8.005387922983924
 30
0.0
 40
0.0065070505412499
100
AcDbArc
 50
182.4450201076249
 51
0.7349407504797698
  0
LINE
  5
33F
330
1F
100
AcDbEntity
  8
TEXT
100
AcDbLine
 10
28.75170818779969
 20
8.005110327649028
 30
0.0
 11
28.75459877051618
 21
8.026774120079471
 31
0.0
  0
ARC
  5
340
330
1F
100
AcDbEntity
  8
TEXT
100
AcDbCircle
 10
28.75122976996399
 20
8.026293281867943
 30
0.0
 40
0.0034031412115983
100
AcDbArc
 50
8.12264254087859
 51
202.9043136183388
  0
LINE
  5
341
330
1F
100
AcDbEntity
  8
TEXT
100
AcDbLine
 10
28.74809494565384
 20
8.024968802102014
 30
0.0
 11
28.74664965822413
 21
8.013775843689249
 31
0.0
  0
ARC
  5
342
330
1F
100
AcDbEntity
  8
TEXT
100
AcDbCircle
 10
28.74249443722089
 20
8.013995401194291
 30
0.0
 40
0.0041610175539679
100
AcDbArc
 50
183.0246359049376
 51
356.9753640950624
  0
LINE
  5
343
330
1F
100
AcDbEntity
  8
TEXT
100
AcDbLine
 10
28.73833921621749
 20
8.013775843689249
 30
0.0
 11
28.73544862564378
 21
8.007276705494126
 31
0.0
  0
ARC
  5
344
330
1F
100
AcDbEntity
  8
TEXT
100
AcDbCircle
 10
29.02626346137358
 20
8.08793860216789
 30
0.0
 40
0.1144738945523429
100
AcDbArc
 50
273.5403564160084
 51
289.0758016785472
  0
LINE
  5
345
330
1F
100
AcDbEntity
  8
TEXT
100
AcDbLine
 10
29.03333240327434
 20
7.973683175187883
 30
0.0
 11
29.03383817215969
 21
7.968123732064141
 31
0.0
  0
LINE
  5
346
330
1F
100
AcDbEntity
  8
TEXT
100
AcDbLine
 10
29.03383817215969
 20
7.968123732064141
 30
0.0
 11
29.04445931089494
 21
7.967365624700972
 31
0.0
  0
ARC
  5
347
330
1F
100
AcDbEntity
  8
TEXT
100
AcDbCircle
 10
28.67377862513094
 20
8.230711119335419
 30
0.0
 40
0.0061587560171835
100
AcDbArc
 50
32.9363546715885
 51
189.54308541652
  0
ARC
  5
348
330
1F
100
AcDbEntity
  8
TEXT
100
AcDbCircle
 10
28.6835021186074
 20
8.2342132709768
 30
0.0
 40
0.0045571922518075
100
AcDbArc
 50
181.931421762249
 51
21.08009584438615
  0
ARC
  5
349
330
1F
100
AcDbEntity
  8
TEXT
100
AcDbCircle
 10
28.6911474527442
 20
8.235162930847815
 30
0.0
 40
0.0034624499286263
100
AcDbArc
 50
3.320051391017451
 51
168.5145862198274
  0
ARC
  5
34A
330
1F
100
AcDbEntity
  8
TEXT
100
AcDbCircle
 10
28.69850901758502
 20
8.23325302525974
 30
0.0
 40
0.004438733465378
100
AcDbArc
 50
151.6108765070493
 51
6.217261201770577
  0
ARC
  5
34B
330
1F
100
AcDbEntity
  8
TEXT
100
AcDbCircle
 10
28.70644090901119
 20
8.233921489921371
 30
0.0
 40
0.0035242697540112
100
AcDbArc
 50
7.567610287756992
 51
183.0538693842452
  0
ARC
  5
34C
330
1F
100
AcDbEntity
  8
TEXT
100
AcDbCircle
 10
28.71274485533778
 20
8.235908694123564
 30
0.0
 40
0.0031965514544682
100
AcDbArc
 50
208.4553291170884
 51
16.75507449314888
  0
ARC
  5
34D
330
1F
100
AcDbEntity
  8
TEXT
100
AcDbCircle
 10
28.71759895454894
 20
8.233662066364916
 30
0.0
 40
0.0036404435723378
100
AcDbArc
 50
340.2175703033683
 51
119.5111127021391
  0
ARC
  5
34E
330
1F
100
AcDbEntity
  8
TEXT
100
AcDbCircle
 10
28.72626570700658
 20
8.232410634011094
 30
0.0
 40
0.005241186744423
100
AcDbArc
 50
179.7887253899368
 51
338.318548208448
  0
ARC
  5
34F
330
1F
100
AcDbEntity
  8
TEXT
100
AcDbCircle
 10
28.73828576959164
 20
8.22700090534443
 30
0.0
 40
0.0079487332247453
100
AcDbArc
 50
51.76909225767519
 51
154.0890012254448
  0
ARC
  5
350
330
1F
100
AcDbEntity
  8
TEXT
100
AcDbCircle
 10
28.74838227857603
 20
8.234323339403557
 30
0.0
 40
0.0052887149025149
100
AcDbArc
 50
191.7667831442109
 51
294.1224948725079
  0
ARC
  5
351
330
1F
100
AcDbEntity
  8
TEXT
100
AcDbCircle
 10
28.75457526946178
 20
8.23080053817471
 30
0.0
 40
0.0042372175777371
100
AcDbArc
 50
13.33841226381581
 51
197.9246330183021
  0
ARC
  5
352
330
1F
100
AcDbEntity
  8
TEXT
100
AcDbCircle
 10
28.76318929497394
 20
8.232019305579539
 30
0.0
 40
0.0044975833446793
100
AcDbArc
 50
183.0745908828774
 51
5.238726745824523
  0
ARC
  5
353
330
1F
100
AcDbEntity
  8
TEXT
100
AcDbCircle
 10
28.77169369131319
 20
8.233022960343381
 30
0.0
 40
0.0040690419660801
100
AcDbArc
 50
305.0065695459185
 51
188.3798152009964
  0
TEXT
  5
354
330
1F
100
AcDbEntity
  8
TEXT
100
AcDbText
 10
29.45304431973104
 20
7.883828706451539
 30
0.0
 40
0.0470758782679327
  1
724-837-2204  *  1-888-867-8234
 72
     1
 11
30.16310548360569
 21
7.907366645585505
 31
0.0
100
AcDbText
 73
     2
  0
TEXT
  5
355
330
1F
100
AcDbEntity
  8
TEXT
100
AcDbText
 10
29.77080649803959
 20
7.789676949915682
 30
0.0
 40
0.0470758782679327
  1
FAX  724-837-3386
 72
     1
 11
30.16310548360569
 21
7.813214889049648
 31
0.0
100
AcDbText
 73
     2
  0
LINE
  5
356
330
1F
100
AcDbEntity
  8
BORDER
100
AcDbLine
 10
28.49714591752838
 20
7.773200392521894
 30
0.0
 11
30.93462336259229
 21
7.773200392521894
 31
0.0
  0
LINE
  5
357
330
1F
100
AcDbEntity
  8
BORDER
100
AcDbLine
 10
28.49714591752838
 20
7.00307300957254
 30
0.0
 11
28.49714591752838
 21
8.243959175201224
 31
0.0
  0
LINE
  5
358
330
1F
100
AcDbEntity
  8
TEXT
100
AcDbLine
 10
28.76656139502273
 20
7.849922780717648
 30
0.0
 11
28.77461508683728
 21
7.844825785368727
 31
0.0
  0
ARC
  5
359
330
1F
100
AcDbEntity
  8
TEXT
100
AcDbCircle
 10
28.81913868496134
 20
7.904043805936255
 30
0.0
 40
0.0310245554295267
100
AcDbArc
 50
287.1920036507256
 51
335.8997504051577
  0
ARC
  5
35A
330
1F
100
AcDbEntity
  8
TEXT
100
AcDbCircle
 10
28.88120739586778
 20
7.862246492843842
 30
0.0
 40
0.0144323539151078
100
AcDbArc
 50
67.37252950710424
 51
112.6274704928676
  0
ARC
  5
35B
330
1F
100
AcDbEntity
  8
TEXT
100
AcDbCircle
 10
28.87666073859924
 20
7.887180995903059
 30
0.0
 40
0.0203850702949034
100
AcDbArc
 50
330.1916644163658
 51
19.91318758188431
  0
ARC
  5
35C
330
1F
100
AcDbEntity
  8
TEXT
100
AcDbCircle
 10
28.84953924358349
 20
7.898596674154669
 30
0.0
 40
0.0075149480978199
100
AcDbArc
 50
253.9290889125732
 51
38.65267477509575
  0
ARC
  5
35D
330
1F
100
AcDbEntity
  8
TEXT
100
AcDbCircle
 10
28.97725997136428
 20
7.890818214155722
 30
0.0
 40
0.0156144547574394
100
AcDbArc
 50
188.1927496775747
 51
244.8496170020292
  0
ARC
  5
35E
330
1F
100
AcDbEntity
  8
TEXT
100
AcDbCircle
 10
28.97706902213653
 20
7.905932690441135
 30
0.0
 40
0.029950305247923
100
AcDbArc
 50
257.5730930866257
 51
314.4273867462179
  0
LINE
  5
35F
330
1F
100
AcDbEntity
  8
TEXT
100
AcDbLine
 10
29.02925850051058
 20
7.872635013949322
 30
0.0
 11
29.02973519770294
 21
7.878113162219254
 31
0.0
  0
LINE
  5
360
330
1F
100
AcDbEntity
  8
TEXT
100
AcDbLine
 10
29.02973519770294
 20
7.878113162219254
 30
0.0
 11
29.02163123543124
 21
7.877636800284524
 31
0.0
  0
ARC
  5
361
330
1F
100
AcDbEntity
  8
TEXT
100
AcDbCircle
 10
29.02146736087249
 20
7.884239198693428
 30
0.0
 40
0.0066044318166531
100
AcDbArc
 50
155.9964711746263
 51
271.4218156194984
  0
ARC
  5
362
330
1F
100
AcDbEntity
  8
TEXT
100
AcDbCircle
 10
29.0788399452221
 20
7.887468588006806
 30
0.0
 40
0.0154786119857928
100
AcDbArc
 50
203.9135879631607
 51
286.1701931802611
  0
ARC
  5
363
330
1F
100
AcDbEntity
  8
TEXT
100
AcDbCircle
 10
29.08624593744038
 20
7.89423650715579
 30
0.0
 40
0.0218544889272147
100
AcDbArc
 50
261.8576121462839
 51
331.2394802847464
  0
ARC
  5
364
330
1F
100
AcDbEntity
  8
TEXT
100
AcDbCircle
 10
29.08531915322718
 20
7.897632087436226
 30
0.0
 40
0.0244321531616939
100
AcDbArc
 50
325.293903470716
 51
356.4132772462207
  0
ARC
  5
365
330
1F
100
AcDbEntity
  8
TEXT
100
AcDbCircle
 10
29.22218966491259
 20
7.893071826257938
 30
0.0
 40
0.0028673384320092
100
AcDbArc
 50
349.2952029716974
 51
131.6626905469293
  0
ARC
  5
366
330
1F
100
AcDbEntity
  8
TEXT
100
AcDbCircle
 10
29.18591380244964
 20
7.906895777380548
 30
0.0
 40
0.0416460911605504
100
AcDbArc
 50
296.3233923707218
 51
339.8348331475747
  0
ARC
  5
367
330
1F
100
AcDbEntity
  8
TEXT
100
AcDbCircle
 10
29.18134973183713
 20
7.920858823720445
 30
0.0
 40
0.0562243907835031
100
AcDbArc
 50
254.2847830849329
 51
294.1819270465994
  0
ARC
  5
368
330
1F
100
AcDbEntity
  8
TEXT
100
AcDbCircle
 10
29.19146676250059
 20
7.913672725115537
 30
0.0
 40
0.0342218971314216
100
AcDbArc
 50
272.3792098458871
 51
327.3581874363298
  0
ARC
  5
369
330
1F
100
AcDbEntity
  8
TEXT
100
AcDbCircle
 10
29.18790358185194
 20
7.906285341834657
 30
0.0
 40
0.0272643975521846
100
AcDbArc
 50
230.8416488637782
 51
280.5326941523482
  0
ARC
  5
36A
330
1F
100
AcDbEntity
  8
TEXT
100
AcDbCircle
 10
29.19613143506018
 20
7.913001334389802
 30
0.0
 40
0.0377282944655948
100
AcDbArc
 50
179.2959701761241
 51
227.5915484940839
  0
ARC
  5
36B
330
1F
100
AcDbEntity
  8
TEXT
100
AcDbCircle
 10
29.18021909385448
 20
7.902818904029402
 30
0.0
 40
0.0387391789400517
100
AcDbArc
 50
194.1847393568171
 51
248.658676732099
  0
ARC
  5
36C
330
1F
100
AcDbEntity
  8
TEXT
100
AcDbCircle
 10
29.18095448178949
 20
7.904003382092597
 30
0.0
 40
0.039754191555894
100
AcDbArc
 50
148.4692011102813
 51
195.5802361373364
  0
ARC
  5
36D
330
1F
100
AcDbEntity
  8
TEXT
100
AcDbCircle
 10
29.18070531295303
 20
7.90518934105412
 30
0.0
 40
0.038931564444201
100
AcDbArc
 50
108.5416613320868
 51
149.7652339536235
  0
ARC
  5
36E
330
1F
100
AcDbEntity
  8
TEXT
100
AcDbCircle
 10
29.18115743270139
 20
7.873931278613094
 30
0.0
 40
0.0626571008621197
100
AcDbArc
 50
82.99970676553448
 51
97.00029323449177
  0
ARC
  5
36F
330
1F
100
AcDbEntity
  8
TEXT
100
AcDbCircle
 10
29.18312197239444
 20
7.920747680675026
 30
0.0
 40
0.0163864923818733
100
AcDbArc
 50
358.1908821763629
 51
69.74957583403455
  0
ARC
  5
370
330
1F
100
AcDbEntity
  8
TEXT
100
AcDbCircle
 10
29.17842809483828
 20
7.916319818448482
 30
0.0
 40
0.0204004186907141
100
AcDbArc
 50
103.9179608006051
 51
168.948608895047
  0
LINE
  5
371
330
1F
100
AcDbEntity
  8
TEXT
100
AcDbLine
 10
29.15840598878199
 20
7.920230362122393
 30
0.0
 11
29.19950029691488
 21
7.920230362122393
 31
0.0
  0
ARC
  5
372
330
1F
100
AcDbEntity
  8
TEXT
100
AcDbCircle
 10
29.18372284407204
 20
7.890490327694044
 30
0.0
 40
0.0538576827343743
100
AcDbArc
 50
78.15621523986212
 51
106.612240852029
  0
ARC
  5
373
330
1F
100
AcDbEntity
  8
TEXT
100
AcDbCircle
 10
29.19260594528154
 20
7.914788553402275
 30
0.0
 40
0.028495682773577
100
AcDbArc
 50
357.3376237443689
 51
85.63084243886233
  0
LINE
  5
374
330
1F
100
AcDbEntity
  8
TEXT
100
AcDbLine
 10
29.15840598878199
 20
7.913464914365954
 30
0.0
 11
29.22107086959968
 21
7.913464914365954
 31
0.0
  0
ARC
  5
375
330
1F
100
AcDbEntity
  8
TEXT
100
AcDbCircle
 10
28.89518337532189
 20
7.951730109095906
 30
0.0
 40
0.2332111612063455
100
AcDbArc
 50
175.4121316267021
 51
191.7939289657005
  0
ARC
  5
376
330
1F
100
AcDbEntity
  8
TEXT
100
AcDbCircle
 10
28.66643988300374
 20
7.893417958254755
 30
0.0
 40
0.0106553245651547
100
AcDbArc
 50
15.17145974977854
 51
87.54918714298277
  0
ARC
  5
377
330
1F
100
AcDbEntity
  8
TEXT
100
AcDbCircle
 10
29.62842219247184
 20
7.863744673808254
 30
0.0
 40
0.95225182196824
100
AcDbArc
 50
178.0464319449979
 51
181.7502526685598
  0
LINE
  5
378
330
1F
100
AcDbEntity
  8
TEXT
100
AcDbLine
 10
28.68681521121163
 20
7.881789319608267
 30
0.0
 11
28.68643328773833
 21
7.835800817091542
 31
0.0
  0
ARC
  5
379
330
1F
100
AcDbEntity
  8
TEXT
100
AcDbCircle
 10
28.68840932369714
 20
7.8821302601148
 30
0.0
 40
0.0016301641160248
100
AcDbArc
 50
333.6879001367247
 51
192.0722457553464
  0
LINE
  5
37A
330
1F
100
AcDbEntity
  8
TEXT
100
AcDbLine
 10
28.68987059114123
 20
7.881407672748517
 30
0.0
 11
28.68987059114123
 21
7.87453801995353
 31
0.0
  0
ARC
  5
37B
330
1F
100
AcDbEntity
  8
TEXT
100
AcDbCircle
 10
28.69203014448888
 20
7.875036063756398
 30
0.0
 40
0.0022162396735848
100
AcDbArc
 50
192.9866902548889
 51
33.3806313974107
  0
ARC
  5
37C
330
1F
100
AcDbEntity
  8
TEXT
100
AcDbCircle
 10
28.69780973829359
 20
7.873685485419271
 30
0.0
 40
0.0046948225238345
100
AcDbArc
 50
17.66955929970839
 51
146.8111142491889
  0
ARC
  5
37D
330
1F
100
AcDbEntity
  8
TEXT
100
AcDbCircle
 10
28.71251821493163
 20
7.880873043254196
 30
0.0
 40
0.0117458569646464
100
AcDbArc
 50
209.3802246625992
 51
263.8421008682747
  0
LINE
  5
37E
330
1F
100
AcDbEntity
  8
TEXT
100
AcDbLine
 10
28.71125825064803
 20
7.869194959257332
 30
0.0
 11
28.71240401321088
 21
7.853165767849092
 31
0.0
  0
ARC
  5
37F
330
1F
100
AcDbEntity
  8
TEXT
100
AcDbCircle
 10
28.71723568434323
 20
7.852490650736513
 30
0.0
 40
0.0048786093353263
100
AcDbArc
 50
172.045705651638
 51
14.81661014794028
  0
LINE
  5
380
330
1F
100
AcDbEntity
  8
TEXT
100
AcDbLine
 10
28.72195207647288
 20
7.8537382381387
 30
0.0
 11
28.72271592341959
 21
7.860417067503822
 31
0.0
  0
ARC
  5
381
330
1F
100
AcDbEntity
  8
TEXT
100
AcDbCircle
 10
28.72445608005673
 20
7.860620393310684
 30
0.0
 40
0.001751995007331
100
AcDbArc
 50
318.6510821797523
 51
186.6644145786481
  0
LINE
  5
382
330
1F
100
AcDbEntity
  8
TEXT
100
AcDbLine
 10
28.72577130334913
 20
7.859462950354451
 30
0.0
 11
28.72672610417533
 21
7.850685063260742
 31
0.0
  0
ARC
  5
383
330
1F
100
AcDbEntity
  8
TEXT
100
AcDbCircle
 10
28.72999511714488
 20
7.850009093842715
 30
0.0
 40
0.0033381702247627
100
AcDbArc
 50
168.3169857564317
 51
15.04995211452768
  0
LINE
  5
384
330
1F
100
AcDbEntity
  8
TEXT
100
AcDbLine
 10
28.73321878750768
 20
7.850875886690612
 30
0.0
 11
28.73321878750768
 21
7.858127186345346
 31
0.0
  0
ARC
  5
385
330
1F
100
AcDbEntity
  8
TEXT
100
AcDbCircle
 10
28.73756812884785
 20
7.854353128063722
 30
0.0
 40
0.0057584968530113
100
AcDbArc
 50
65.19241843010194
 51
139.0508106988864
  0
ARC
  5
386
330
1F
100
AcDbEntity
  8
TEXT
100
AcDbCircle
 10
28.74127858532953
 20
7.853992197309166
 30
0.0
 40
0.0057359908020059
100
AcDbArc
 50
7.606980527162162
 51
103.0413594591755
  0
LINE
  5
387
330
1F
100
AcDbEntity
  8
TEXT
100
AcDbLine
 10
28.74696409608374
 20
7.854751511436675
 30
0.0
 11
28.74938019734234
 21
7.821486916343602
 31
0.0
  0
LINE
  5
388
330
1F
100
AcDbEntity
  8
TEXT
100
AcDbLine
 10
28.75984999041544
 20
7.822559965543473
 30
0.0
 11
28.76065536273979
 21
7.848849726857974
 31
0.0
  0
ARC
  5
389
330
1F
100
AcDbEntity
  8
TEXT
100
AcDbCircle
 10
28.76356194896179
 20
7.849641801634389
 30
0.0
 40
0.0030125779521125
100
AcDbArc
 50
5.35167838309098
 51
195.2435488026515
  0
LINE
  5
38A
330
1F
100
AcDbEntity
  8
TEXT
100
AcDbLine
 10
28.77461508683728
 20
7.844825785368727
 30
0.0
 11
28.77515200172013
 21
7.828193485492311
 31
0.0
  0
ARC
  5
38B
330
1F
100
AcDbEntity
  8
TEXT
100
AcDbCircle
 10
28.78980441280449
 20
7.841070103849593
 30
0.0
 40
0.0028100783115637
100
AcDbArc
 50
354.5219056877808
 51
214.9448543763661
  0
ARC
  5
38C
330
1F
100
AcDbEntity
  8
TEXT
100
AcDbCircle
 10
28.79758023825463
 20
7.84060951758949
 30
0.0
 40
0.0049822947013846
100
AcDbArc
 50
177.787775166229
 51
326.3805826419286
  0
ARC
  5
38D
330
1F
100
AcDbEntity
  8
TEXT
100
AcDbCircle
 10
28.84905858064914
 20
7.846553104083309
 30
0.0
 40
0.0027250281264738
100
AcDbArc
 50
144.5711585108383
 51
21.75301147888069
  0
LINE
  5
38E
330
1F
100
AcDbEntity
  8
TEXT
100
AcDbLine
 10
28.85158955972719
 20
7.847563016553204
 30
0.0
 11
28.85177961788418
 21
7.861996981682833
 31
0.0
  0
ARC
  5
38F
330
1F
100
AcDbEntity
  8
TEXT
100
AcDbCircle
 10
28.84906478739554
 20
7.860350813715536
 30
0.0
 40
0.0031749289060915
100
AcDbArc
 50
31.23099864076737
 51
160.1819529381847
  0
ARC
  5
390
330
1F
100
AcDbEntity
  8
TEXT
100
AcDbCircle
 10
28.85951278901024
 20
7.855526528847486
 30
0.0
 40
0.0146735996379612
100
AcDbArc
 50
156.2885975497961
 51
210.2571046136517
  0
ARC
  5
391
330
1F
100
AcDbEntity
  8
TEXT
100
AcDbCircle
 10
28.90102794097595
 20
7.832325896792907
 30
0.0
 40
0.0090596925497432
100
AcDbArc
 50
341.5477100758439
 51
84.99888070834812
  0
ARC
  5
392
330
1F
100
AcDbEntity
  8
TEXT
100
AcDbCircle
 10
28.90497232832124
 20
7.821812256952438
 30
0.0
 40
0.0197918643538598
100
AcDbArc
 50
99.17143729877864
 51
127.7955283290885
  0
ARC
  5
393
330
1F
100
AcDbEntity
  8
TEXT
100
AcDbCircle
 10
28.86657392247563
 20
7.839451842793307
 30
0.0
 40
0.0021943599626615
100
AcDbArc
 50
312.7998628402714
 51
120.0581864533223
  0
ARC
  5
394
330
1F
100
AcDbEntity
  8
TEXT
100
AcDbCircle
 10
28.86677670952059
 20
7.846171806044557
 30
0.0
 40
0.0049934106670864
100
AcDbArc
 50
129.1527393458192
 51
254.8870408388436
  0
ARC
  5
395
330
1F
100
AcDbEntity
  8
TEXT
100
AcDbCircle
 10
28.84771693948513
 20
7.86216596389842
 30
0.0
 40
0.0199993368492878
100
AcDbArc
 50
322.6907301981532
 51
8.220255073941011
  0
ARC
  5
396
330
1F
100
AcDbEntity
  8
TEXT
100
AcDbCircle
 10
28.86932042858023
 20
7.866767731091441
 30
0.0
 40
0.0025120352457516
100
AcDbArc
 50
89.05883162362073
 51
223.9137905963087
  0
ARC
  5
397
330
1F
100
AcDbEntity
  8
TEXT
100
AcDbCircle
 10
28.81914713896059
 20
7.925823186669266
 30
0.0
 40
0.0756220728932707
100
AcDbArc
 50
311.6071689301269
 51
318.3515702307968
  0
ARC
  5
398
330
1F
100
AcDbEntity
  8
TEXT
100
AcDbCircle
 10
28.86902963829469
 20
7.868169693966541
 30
0.0
 40
0.0192120293368977
100
AcDbArc
 50
337.3510782224699
 51
22.64892177753004
  0
ARC
  5
399
330
1F
100
AcDbEntity
  8
TEXT
100
AcDbCircle
 10
28.90039939485678
 20
7.858235799433991
 30
0.0
 40
0.0138730229023197
100
AcDbArc
 50
169.468486757319
 51
223.1418439421581
  0
ARC
  5
39A
330
1F
100
AcDbEntity
  8
TEXT
100
AcDbCircle
 10
28.88844175127954
 20
7.856715865292112
 30
0.0
 40
0.0081751407456322
100
AcDbArc
 50
282.971262228297
 51
25.35441378640237
  0
ARC
  5
39B
330
1F
100
AcDbEntity
  8
TEXT
100
AcDbCircle
 10
28.98151576349119
 20
7.876235482996929
 30
0.0
 40
0.0871708220144838
100
AcDbArc
 50
179.466220207127
 51
190.5890997840366
  0
ARC
  5
39C
330
1F
100
AcDbEntity
  8
TEXT
100
AcDbCircle
 10
28.83043717181978
 20
7.953056544556565
 30
0.0
 40
0.0880276309955736
100
AcDbArc
 50
317.9732863042448
 51
40.61894937560984
  0
ARC
  5
39D
330
1F
100
AcDbEntity
  8
TEXT
100
AcDbCircle
 10
28.81587322169329
 20
7.947775153260747
 30
0.0
 40
0.1067888826413246
100
AcDbArc
 50
153.5374647244076
 51
193.3327646348718
  0
ARC
  5
39E
330
1F
100
AcDbEntity
  8
TEXT
100
AcDbCircle
 10
28.69136333477303
 20
7.909248038106165
 30
0.0
 40
0.0248508721443842
100
AcDbArc
 50
346.9852122362369
 51
34.01252680044434
  0
ARC
  5
39F
330
1F
100
AcDbEntity
  8
TEXT
100
AcDbCircle
 10
28.71214511368949
 20
7.892795929171946
 30
0.0
 40
0.0113848390243053
100
AcDbArc
 50
345.4259909574747
 51
72.46181126870695
  0
ARC
  5
3A0
330
1F
100
AcDbEntity
  8
TEXT
100
AcDbCircle
 10
28.72399106251183
 20
7.868371243945344
 30
0.0
 40
0.0215757861431104
100
AcDbArc
 50
18.24878221231889
 51
92.19784172829085
  0
ARC
  5
3A1
330
1F
100
AcDbEntity
  8
TEXT
100
AcDbCircle
 10
28.74708570674169
 20
7.873971418550063
 30
0.0
 40
0.0028491162904316
100
AcDbArc
 50
156.0593073728619
 51
8.762281217113391
  0
ARC
  5
3A2
330
1F
100
AcDbEntity
  8
TEXT
100
AcDbCircle
 10
28.75323254328808
 20
7.873219934935834
 30
0.0
 40
0.0035356469563608
100
AcDbArc
 50
1.658272028068479
 51
160.4091839300646
  0
ARC
  5
3A3
330
1F
100
AcDbEntity
  8
TEXT
100
AcDbCircle
 10
28.76653148560553
 20
7.880107291071986
 30
0.0
 40
0.0118906529916354
100
AcDbArc
 50
214.7934494581788
 51
299.0409507876052
  0
ARC
  5
3A4
330
1F
100
AcDbEntity
  8
TEXT
100
AcDbCircle
 10
28.77990255759414
 20
7.876805320265458
 30
0.0
 40
0.0103954082588083
100
AcDbArc
 50
223.0305625061276
 51
311.2487591160702
  0
ARC
  5
3A5
330
1F
100
AcDbEntity
  8
TEXT
100
AcDbCircle
 10
28.79265179387174
 20
7.870553092336431
 30
0.0
 40
0.0060990709763576
100
AcDbArc
 50
194.8546182240452
 51
330.4510994340958
  0
ARC
  5
3A6
330
1F
100
AcDbEntity
  8
TEXT
100
AcDbCircle
 10
28.80229347176848
 20
7.852979967756967
 30
0.0
 40
0.0151969381602386
100
AcDbArc
 50
33.6785164748939
 51
106.577550800992
  0
ARC
  5
3A7
330
1F
100
AcDbEntity
  8
TEXT
100
AcDbCircle
 10
28.81927566978188
 20
7.870321884369759
 30
0.0
 40
0.0099132300445648
100
AcDbArc
 50
244.0629515517926
 51
24.32612031265393
  0
ARC
  5
3A8
330
1F
100
AcDbEntity
  8
TEXT
100
AcDbCircle
 10
28.84225124685028
 20
7.925489833826517
 30
0.0
 40
0.0258052564868958
100
AcDbArc
 50
300.6537348898064
 51
16.682459163761
  0
ARC
  5
3A9
330
1F
100
AcDbEntity
  8
TEXT
100
AcDbCircle
 10
28.79226322408548
 20
7.95306718647358
 30
0.0
 40
0.0773819543511766
100
AcDbArc
 50
344.8914411173241
 51
24.57723374822268
  0
LINE
  5
3AA
330
1F
100
AcDbEntity
  8
TEXT
100
AcDbLine
 10
28.93081910812549
 20
7.939801878992836
 30
0.0
 11
28.96132816844263
 21
7.940992779169862
 31
0.0
  0
LINE
  5
3AB
330
1F
100
AcDbEntity
  8
TEXT
100
AcDbLine
 10
28.98444831227678
 20
7.939801878992836
 30
0.0
 11
29.01495737259394
 21
7.940992779169862
 31
0.0
  0
LINE
  5
3AC
330
1F
100
AcDbEntity
  8
TEXT
100
AcDbLine
 10
28.94321340798644
 20
7.930274663597318
 30
0.0
 11
28.94369011303603
 21
7.884067672423936
 31
0.0
  0
LINE
  5
3AD
330
1F
100
AcDbEntity
  8
TEXT
100
AcDbLine
 10
28.96132816844263
 20
7.940992779169862
 30
0.0
 11
28.96180487349234
 21
7.888593096824427
 31
0.0
  0
LINE
  5
3AE
330
1F
100
AcDbEntity
  8
TEXT
100
AcDbLine
 10
29.01495737259394
 20
7.940992779169862
 30
0.0
 11
29.01543407764363
 21
7.886925834712674
 31
0.0
  0
ARC
  5
3AF
330
1F
100
AcDbEntity
  8
TEXT
100
AcDbCircle
 10
28.93763791724803
 20
7.930402887104254
 30
0.0
 40
0.0055769649669123
100
AcDbArc
 50
358.6825606331185
 51
106.4049357729608
  0
LINE
  5
3B0
330
1F
100
AcDbEntity
  8
TEXT
100
AcDbLine
 10
28.93081910812549
 20
7.939801878992836
 30
0.0
 11
28.93105745672162
 21
7.936467350109557
 31
0.0
  0
LINE
  5
3B1
330
1F
100
AcDbEntity
  8
TEXT
100
AcDbLine
 10
28.93606284795668
 20
7.935752811867279
 30
0.0
 11
28.93105745672162
 21
7.936467350109557
 31
0.0
  0
LINE
  5
3B2
330
1F
100
AcDbEntity
  8
TEXT
100
AcDbLine
 10
28.98444831227678
 20
7.939801878992836
 30
0.0
 11
28.98420996368059
 21
7.935276449932552
 31
0.0
  0
LINE
  5
3B3
330
1F
100
AcDbEntity
  8
TEXT
100
AcDbLine
 10
28.98420996368059
 20
7.935276449932552
 30
0.0
 11
28.99279063885904
 21
7.934800087997825
 31
0.0
  0
LINE
  5
3B4
330
1F
100
AcDbEntity
  8
TEXT
100
AcDbLine
 10
28.99803437869034
 20
7.884544034358648
 30
0.0
 11
28.99779603009419
 21
7.93003648262997
 31
0.0
  0
ARC
  5
3B5
330
1F
100
AcDbEntity
  8
TEXT
100
AcDbCircle
 10
28.99438968915828
 20
7.931468773755542
 30
0.0
 40
0.003695215344201
100
AcDbArc
 50
337.1943218370192
 51
115.6412778855219
  0
ARC
  5
3B6
330
1F
100
AcDbEntity
  8
TEXT
100
AcDbCircle
 10
28.96203312409194
 20
7.884310582089552
 30
0.0
 40
0.0183446193664809
100
AcDbArc
 50
180.7587023263156
 51
270.031539090728
  0
ARC
  5
3B7
330
1F
100
AcDbEntity
  8
TEXT
100
AcDbCircle
 10
28.96928263981369
 20
7.907443934033353
 30
0.0
 40
0.0421050002073201
100
AcDbArc
 50
260.0995263030863
 51
313.0673878832376
  0
LINE
  5
3B8
330
1F
100
AcDbEntity
  8
TEXT
100
AcDbLine
 10
28.99803437869034
 20
7.876684081074875
 30
0.0
 11
28.99827273514374
 21
7.867633227614094
 31
0.0
  0
ARC
  5
3B9
330
1F
100
AcDbEntity
  8
TEXT
100
AcDbCircle
 10
29.00109121449374
 20
7.868754871118126
 30
0.0
 40
0.0030334650148434
100
AcDbArc
 50
201.7006027724349
 51
343.067867706764
  0
ARC
  5
3BA
330
1F
100
AcDbEntity
  8
TEXT
100
AcDbCircle
 10
29.02738027519403
 20
7.813213590205763
 30
0.0
 40
0.0594511003266494
100
AcDbArc
 50
88.18956599986867
 51
113.1652090520277
  0
LINE
  5
3BB
330
1F
100
AcDbEntity
  8
TEXT
100
AcDbLine
 10
29.04445931089494
 20
7.967365624700972
 30
0.0
 11
29.04622950199359
 21
7.875634754911834
 31
0.0
  0
LINE
  5
3BC
330
1F
100
AcDbEntity
  8
TEXT
100
AcDbLine
 10
29.06367567990128
 20
7.979750809701181
 30
0.0
 11
29.06418428956648
 21
7.934008947319361
 31
0.0
  0
LINE
  5
3BD
330
1F
100
AcDbEntity
  8
TEXT
100
AcDbLine
 10
29.06443716615188
 20
7.924658967379762
 30
0.0
 11
29.06469005059463
 21
7.88119420269538
 31
0.0
  0
ARC
  5
3BE
330
1F
100
AcDbEntity
  8
TEXT
100
AcDbCircle
 10
29.09395690753123
 20
7.89466028155513
 30
0.0
 40
0.0493429455738176
100
AcDbArc
 50
71.07988584763332
 51
127.1124618564786
  0
ARC
  5
3BF
330
1F
100
AcDbEntity
  8
TEXT
100
AcDbCircle
 10
29.09399319751353
 20
7.910838543844264
 30
0.0
 40
0.0344237742955207
100
AcDbArc
 50
359.8698564192901
 51
62.3723149018686
  0
ARC
  5
3C0
330
1F
100
AcDbEntity
  8
TEXT
100
AcDbCircle
 10
29.08005283340054
 20
7.914427513476521
 30
0.0
 40
0.0186690040599928
100
AcDbArc
 50
78.8707586499092
 51
146.7670066549813
  0
ARC
  5
3C1
330
1F
100
AcDbEntity
  8
TEXT
100
AcDbCircle
 10
29.08569607398103
 20
7.911103015971745
 30
0.0
 40
0.0217383211016773
100
AcDbArc
 50
21.58325850317424
 51
95.38396011115386
  0
ARC
  5
3C2
330
1F
100
AcDbEntity
  8
TEXT
100
AcDbCircle
 10
29.08399201327653
 20
7.903673232587797
 30
0.0
 40
0.0268025531142399
100
AcDbArc
 50
343.5952529167642
 51
35.13836089168539
  0
ARC
  5
3C3
330
1F
100
AcDbEntity
  8
TEXT
100
AcDbCircle
 10
29.07533480016283
 20
7.912479952140363
 30
0.0
 40
0.0469540939677032
100
AcDbArc
 50
231.6935697703574
 51
269.6626044169057
  0
ARC
  5
3C4
330
1F
100
AcDbEntity
  8
TEXT
100
AcDbCircle
 10
29.08020251701124
 20
7.920628916150558
 30
0.0
 40
0.0553418485341479
100
AcDbArc
 50
264.6664639047714
 51
308.6423664458057
  0
ARC
  5
3C5
330
1F
100
AcDbEntity
  8
TEXT
100
AcDbCircle
 10
29.08666578807693
 20
7.908379074940631
 30
0.0
 40
0.041818947989626
100
AcDbArc
 50
312.2086974257942
 51
3.26433362995777
  0
ARC
  5
3C6
330
1F
100
AcDbEntity
  8
TEXT
100
AcDbCircle
 10
28.68105705489299
 20
7.839249425028759
 30
0.0
 40
0.0063872354201114
100
AcDbArc
 50
225.9317407160089
 51
327.3216812937306
  0
ARC
  5
3C7
330
1F
100
AcDbEntity
  8
TEXT
100
AcDbCircle
 10
28.75479080648144
 20
7.820309004561178
 30
0.0
 40
0.0055373429930368
100
AcDbArc
 50
167.7181143692788
 51
23.98551077366608
  0
ARC
  5
3C8
330
1F
100
AcDbEntity
  8
TEXT
100
AcDbCircle
 10
28.78177735504684
 20
7.827111781056343
 30
0.0
 40
0.006713076134731
100
AcDbArc
 50
170.7272794785954
 51
21.15794103947638
  0
LINE
  5
3C9
330
1F
100
AcDbEntity
  8
TEXT
100
AcDbLine
 10
28.78803789605182
 20
7.829534799322048
 30
0.0
 11
28.78750098116898
 21
7.839460525389991
 31
0.0
  0
LINE
  5
3CA
330
1F
100
AcDbEntity
  8
TEXT
100
AcDbLine
 10
28.80172916270788
 20
7.837850951590168
 30
0.0
 11
28.80441372926508
 21
7.823901279373228
 31
0.0
  0
ARC
  5
3CB
330
1F
100
AcDbEntity
  8
TEXT
100
AcDbCircle
 10
28.80771254656469
 20
7.823240746460684
 30
0.0
 40
0.003364297743111
100
AcDbArc
 50
168.6772178130367
 51
20.84321825743614
  0
LINE
  5
3CC
330
1F
100
AcDbEntity
  8
TEXT
100
AcDbLine
 10
28.81085667643094
 20
7.824437803973162
 30
0.0
 11
28.81085667643094
 21
7.833827005441144
 31
0.0
  0
ARC
  5
3CD
330
1F
100
AcDbEntity
  8
TEXT
100
AcDbCircle
 10
28.81515002692593
 20
7.833403807325329
 30
0.0
 40
0.0043141575212708
100
AcDbArc
 50
354.9255052590734
 51
174.3705062402905
  0
LINE
  5
3CE
330
1F
100
AcDbEntity
  8
TEXT
100
AcDbLine
 10
28.81944727527113
 20
7.833022216211347
 30
0.0
 11
28.82052109717974
 21
7.806732454896821
 31
0.0
  0
ARC
  5
3CF
330
1F
100
AcDbEntity
  8
TEXT
100
AcDbCircle
 10
28.82587914243298
 20
7.807282689286128
 30
0.0
 40
0.0053862237996347
100
AcDbArc
 50
185.8633287467241
 51
2.70882780951028
  0
LINE
  5
3D0
330
1F
100
AcDbEntity
  8
TEXT
100
AcDbLine
 10
28.83125934769428
 20
7.807537244126639
 30
0.0
 11
28.82911170387713
 21
7.829266539351987
 31
0.0
  0
LINE
  5
3D1
330
1F
100
AcDbEntity
  8
TEXT
100
AcDbLine
 10
28.82911170387713
 20
7.829266539351987
 30
0.0
 11
28.83152780513569
 21
7.823633019403137
 31
0.0
  0
ARC
  5
3D2
330
1F
100
AcDbEntity
  8
TEXT
100
AcDbCircle
 10
28.83506063207594
 20
7.825567732226806
 30
0.0
 40
0.0040279001849355
100
AcDbArc
 50
208.7068196476591
 51
351.5282258973482
  0
LINE
  5
3D3
330
1F
100
AcDbEntity
  8
TEXT
100
AcDbLine
 10
28.83904458206734
 20
7.824974333232889
 30
0.0
 11
28.83877612462583
 21
7.828998274722112
 31
0.0
  0
ARC
  5
3D4
330
1F
100
AcDbEntity
  8
TEXT
100
AcDbCircle
 10
28.84419648313837
 20
7.827460791793243
 30
0.0
 40
0.0056341938341729
100
AcDbArc
 50
7.472141028409409
 51
164.1640293291654
  0
LINE
  5
3D5
330
1F
100
AcDbEntity
  8
TEXT
100
AcDbLine
 10
28.84978283258188
 20
7.828193485492311
 30
0.0
 11
28.85246739128188
 21
7.805927670326825
 31
0.0
  0
ARC
  5
3D6
330
1F
100
AcDbEntity
  8
TEXT
100
AcDbCircle
 10
28.85770558629479
 20
7.804586787270651
 30
0.0
 40
0.0054070929679049
100
AcDbArc
 50
165.6416373021034
 51
23.37981978601165
  0
LINE
  5
3D7
330
1F
100
AcDbEntity
  8
TEXT
100
AcDbLine
 10
28.86266872691358
 20
7.806732454896821
 30
0.0
 11
28.86185266877773
 21
7.826671748904119
 31
0.0
  0
ARC
  5
3D8
330
1F
100
AcDbEntity
  8
TEXT
100
AcDbCircle
 10
28.86338629315023
 20
7.828326142695976
 30
0.0
 40
0.0022558861971484
100
AcDbArc
 50
60.02231951668161
 51
227.1694577924203
  0
LINE
  5
3D9
330
1F
100
AcDbEntity
  8
TEXT
100
AcDbLine
 10
28.86451347511894
 20
7.830280236691682
 30
0.0
 11
28.87372285315788
 21
7.828873480644415
 31
0.0
  0
ARC
  5
3DA
330
1F
100
AcDbEntity
  8
TEXT
100
AcDbCircle
 10
28.87302342475873
 20
7.824849924674722
 30
0.0
 40
0.0040838955333029
100
AcDbArc
 50
327.150434122171
 51
80.13862259361689
  0
LINE
  5
3DB
330
1F
100
AcDbEntity
  8
TEXT
100
AcDbLine
 10
28.87645429585568
 20
7.822634676101236
 30
0.0
 11
28.87782002113323
 21
7.783837082243898
 31
0.0
  0
LINE
  5
3DC
330
1F
100
AcDbEntity
  8
TEXT
100
AcDbLine
 10
28.88933111510494
 20
7.784616936889111
 30
0.0
 11
28.88952621759349
 21
7.823999414740699
 31
0.0
  0
ARC
  5
3DD
330
1F
100
AcDbEntity
  8
TEXT
100
AcDbCircle
 10
28.89259702584284
 20
7.824272472674023
 30
0.0
 40
0.0030829245756307
100
AcDbArc
 50
32.94435831944419
 51
185.0814072168599
  0
ARC
  5
3DE
330
1F
100
AcDbEntity
  8
TEXT
100
AcDbCircle
 10
28.90141731681783
 20
7.83175901662395
 30
0.0
 40
0.0085209966413739
100
AcDbArc
 50
222.9877626572478
 51
344.3358851615499
  0
ARC
  5
3DF
330
1F
100
AcDbEntity
  8
TEXT
100
AcDbCircle
 10
28.88957404265228
 20
7.839114731353572
 30
0.0
 40
0.003667576245984
100
AcDbArc
 50
193.9319034609807
 51
333.0378283509288
  0
ARC
  5
3E0
330
1F
100
AcDbEntity
  8
TEXT
100
AcDbCircle
 10
28.88286030586963
 20
7.834619198052136
 30
0.0
 40
0.004795640653703
100
AcDbArc
 50
48.87596376792747
 51
143.7953529790141
  0
ARC
  5
3E1
330
1F
100
AcDbEntity
  8
TEXT
100
AcDbCircle
 10
28.87369308971234
 20
7.84227961783254
 30
0.0
 40
0.0071673897835325
100
AcDbArc
 50
218.2556843178732
 51
317.6564247238754
  0
ARC
  5
3E2
330
1F
100
AcDbEntity
  8
TEXT
100
AcDbCircle
 10
28.88362107640219
 20
7.783555281666581
 30
0.0
 40
0.0058078958150246
100
AcDbArc
 50
177.2189023070876
 51
10.53261226457852
  0
LINE
  5
3E3
330
1F
100
AcDbEntity
  8
0
100
AcDbLine
 10
30.93462336259229
 20
34.36070175085784
 30
0.0
 11
10.12413091599185
 21
34.36070175085781
 31
0.0
  0
DIMENSION
  5
610
330
1F
100
AcDbEntity
  8
0
100
AcDbDimension
280
     0
  2
*D58
 10
18.73691330105251
 20
19.42865547375028
 30
0.0
 11
24.33821833070965
 21
18.26679010684511
 31
0.0
 70
   163
 71
     5
 42
1.250000000000003
 73
     0
 74
     0
 75
     0
  3
Standard
100
AcDbDiametricDimension
 15
19.96085970472727
 25
19.17477518516601
 35
0.0
 40
0.0
  0
DIMENSION
  5
611
330
1F
100
AcDbEntity
  8
0
100
AcDbDimension
280
     0
  2
*D59
 10
17.51030352581443
 20
12.80958987294264
 30
0.0
 11
15.66418823051879
 21
12.80958987294264
 31
0.0
 70
    38
 71
     5
 42
0.0
 73
     0
 74
     0
 75
     0
  3
Standard
100
AcDbOrdinateDimension
 13
17.51030352581443
 23
12.80958987294264
 33
0.0
 14
16.47585489718546
 24
12.80958987294264
 34
0.0
  0
DIMENSION
  5
612
330
1F
100
AcDbEntity
  8
0
100
AcDbDimension
280
     0
  2
*D60
 10
17.51030352581443
 20
12.80958987294264
 30
0.0
 11
17.51030352581443
 21
10.98611182789855
 31
0.0
 70
   102
 71
     5
 42
0.0
 73
     0
 74
     0
 75
     0
  3
Standard
100
AcDbOrdinateDimension
 13
17.51030352581443
 23
12.80958987294264
 33
0.0
 14
17.51030352581443
 24
11.79777849456521
 34
0.0
  0
DIMENSION
  5
613
330
1F
100
AcDbEntity
  8
0
100
AcDbDimension
280
     0
  2
*D61
 10
17.51030352581443
 20
12.80958987294264
 30
0.0
 11
14.87035489718544
 21
18.47039362014801
 31
0.0
 70
    38
  1
(2) <>
 71
     5
 42
5.66080374720537
 73
     0
 74
     0
 75
     0
  3
Standard
100
AcDbOrdinateDimension
 13
18.96699716284325
 23
18.47039362014801
 33
0.0
 14
16.47585489718544
 24
18.47039362014801
 34
0.0
  0
DIMENSION
  5
614
330
1F
100
AcDbEntity
  8
0
100
AcDbDimension
280
     0
  2
*D62
 10
17.51030352581443
 20
12.80958987294264
 30
0.0
 11
15.51985489718551
 21
19.30171532945815
 31
0.0
 70
    38
 71
     5
 42
6.492125456515509
 73
     0
 74
     0
 75
     0
  3
Standard
100
AcDbOrdinateDimension
 13
19.34888650288991
 23
19.30171532945815
 33
0.0
 14
16.47585489718551
 24
19.30171532945815
 34
0.0
  0
DIMENSION
  5
615
330
1F
100
AcDbEntity
  8
0
100
AcDbDimension
280
     0
  2
*D63
 10
17.51030352581443
 20
12.80958987294264
 30
0.0
 11
19.34888650288991
 21
21.54385330619764
 31
0.0
 70
   102
 71
     5
 42
1.838582977075475
 73
     0
 74
     0
 75
     0
  3
Standard
100
AcDbOrdinateDimension
 13
19.34888650288991
 23
19.30171532945815
 33
0.0
 14
19.34888650288991
 24
20.66001997286431
 34
0.0
  0
DIMENSION
  5
616
330
1F
100
AcDbEntity
  8
0
100
AcDbDimension
280
     0
  2
*D64
 10
17.51030352581443
 20
12.80958987294264
 30
0.0
 11
17.9040050758445
 21
21.89827212632424
 31
0.0
 70
   102
 71
     5
 42
0.3937015500300731
 73
     0
 74
     0
 75
     0
  3
Standard
100
AcDbOrdinateDimension
 13
17.90400507584451
 23
23.6845887929909
 33
0.0
 14
17.90400507584451
 24
22.8181887929909
 34
0.0
  0
DIMENSION
  5
617
330
1F
100
AcDbEntity
  8
0
100
AcDbDimension
280
     0
  2
*D65
 10
17.51030352581443
 20
12.80958987294264
 30
0.0
 11
23.10085485509313
 21
21.93435545965757
 31
0.0
 70
   102
 71
     5
 42
5.590551329278696
 73
     0
 74
     0
 75
     0
  3
Standard
100
AcDbOrdinateDimension
 13
23.10085485509313
 23
23.6845887929909
 33
0.0
 14
23.10085485509313
 24
22.8181887929909
 34
0.0
  0
DIMENSION
  5
618
330
1F
100
AcDbEntity
  8
0
100
AcDbDimension
280
     0
  2
*D66
 10
17.51030352581443
 20
12.80958987294264
 30
0.0
 11
14.65385489718546
 21
27.2977784945652
 31
0.0
 70
    38
  1
(2) <>
 71
     5
 42
14.48818862162256
 73
     0
 74
     0
 75
     0
  3
Standard
100
AcDbOrdinateDimension
 13
18.10085489718545
 23
27.2977784945652
 33
0.0
 14
16.47585489718546
 24
27.2977784945652
 34
0.0
  0
DIMENSION
  5
619
330
1F
100
AcDbEntity
  8
0
100
AcDbDimension
280
     0
  2
*D67
 10
17.51030352581443
 20
12.80958987294264
 30
0.0
 11
25.4679382305188
 21
26.61940570369413
 31
0.0
 70
    38
 71
     5
 42
13.99999892004822
 73
     0
 74
     0
 75
     0
  3
Standard
100
AcDbOrdinateDimension
 13
23.10085485509313
 23
26.80958879299086
 33
0.0
 14
24.47585489718547
 24
26.61940570369413
 34
0.0
  0
DIMENSION
  5
61A
330
1F
100
AcDbEntity
  8
0
100
AcDbDimension
280
     0
  2
*D68
 10
17.51030352581443
 20
12.80958987294264
 30
0.0
 11
25.54010489718546
 21
23.6845887929909
 31
0.0
 70
    38
 71
     5
 42
10.87499892004826
 73
     0
 74
     0
 75
     0
  3
Standard
100
AcDbOrdinateDimension
 13
23.10085485509313
 23
23.6845887929909
 33
0.0
 14
24.47585489718546
 24
23.6845887929909
 34
0.0
  0
DIMENSION
  5
61B
330
1F
100
AcDbEntity
  8
0
100
AcDbDimension
280
     0
  2
*D69
 10
17.51030352581443
 20
12.80958987294264
 30
0.0
 11
22.9040050337522
 21
29.75377849456522
 31
0.0
 70
   102
 71
     5
 42
5.393701507937759
 73
     0
 74
     0
 75
     0
  3
Standard
100
AcDbOrdinateDimension
 13
22.9040050337522
 23
27.2977784945652
 33
0.0
 14
22.9040050337522
 24
28.79777849456522
 34
0.0
  0
DIMENSION
  5
61C
330
1F
100
AcDbEntity
  8
0
100
AcDbDimension
280
     0
  2
*D70
 10
17.51030352581443
 20
12.80958987294264
 30
0.0
 11
18.10085489718545
 21
29.64552849456521
 31
0.0
 70
   102
 71
     5
 42
0.5905513713710171
 73
     0
 74
     0
 75
     0
  3
Standard
100
AcDbOrdinateDimension
 13
18.10085489718545
 23
27.2977784945652
 33
0.0
 14
18.10085489718545
 24
28.79777849456521
 34
0.0
  0
DIMENSION
  5
61D
330
1F
100
AcDbEntity
  8
0
100
AcDbDimension
280
     0
  2
*D71
 10
17.51030352581443
 20
12.80958987294264
 30
0.0
 11
23.49455640512319
 21
29.75363778677753
 31
0.0
 70
   102
 71
     5
 42
5.984252879308751
 73
     0
 74
     0
 75
     0
  3
Standard
100
AcDbOrdinateDimension
 13
23.49455640512319
 23
27.8095887929909
 33
0.0
 14
23.49455640512319
 24
28.79763778677753
 34
0.0
  0
DIMENSION
  5
61E
330
1F
100
AcDbEntity
  8
0
100
AcDbDimension
280
     0
  2
*D72
 10
17.51030352581443
 20
12.80958987294264
 30
0.0
 11
25.46793823051879
 21
28.06605330938113
 31
0.0
 70
    38
 71
     5
 42
14.99999892004826
 73
     0
 74
     0
 75
     0
  3
Standard
100
AcDbOrdinateDimension
 13
23.49455640512319
 23
27.8095887929909
 33
0.0
 14
24.47585489718546
 24
28.06605330938113
 34
0.0
  0
DIMENSION
  5
61F
330
1F
100
AcDbEntity
  8
0
100
AcDbDimension
280
     0
  2
*D73
 10
21.36593386671288
 20
18.56795530826093
 30
0.0
 11
26.19711833070967
 21
17.02086857382897
 31
0.0
 70
   163
  1
<> (6)
 71
     5
 42
0.3750000000000178
 73
     0
 74
     0
 75
     0
  3
Standard
100
AcDbDiametricDimension
 15
21.68617107262472
 25
18.37283193203503
 35
0.0
 40
0.0
  0
CIRCLE
  5
620
330
1F
100
AcDbEntity
  8
0
100
AcDbCircle
 10
18.10085489718545
 20
27.2977784945652
 30
0.0
 40
0.1875
  0
LINE
  5
621
330
1F
100
AcDbEntity
  8
0
100
AcDbLine
 10
17.90400507584451
 20
26.80958879299087
 30
0.0
 11
18.65400507584451
 21
26.80958879299087
 31
0.0
  0
LINE
  5
622
330
1F
100
AcDbEntity
  8
0
100
AcDbLine
 10
22.35085485509313
 20
26.80958879299086
 30
0.0
 11
23.10085485509313
 21
26.80958879299086
 31
0.0
  0
LINE
  5
623
330
1F
100
AcDbEntity
  8
0
100
AcDbLine
 10
23.10085485509313
 20
23.6845887929909
 30
0.0
 11
17.90400507584451
 21
23.6845887929909
 31
0.0
  0
LINE
  5
624
330
1F
100
AcDbEntity
  8
0
  6
HIDDEN
100
AcDbLine
 10
17.51030352581443
 20
12.80958987294264
 30
0.0
 11
23.49455640512319
 21
12.80958987294264
 31
0.0
  0
LINE
  5
625
330
1F
100
AcDbEntity
  8
0
  6
HIDDEN
100
AcDbLine
 10
23.49455640512319
 20
27.8095887929909
 30
0.0
 11
23.49455640512319
 21
12.80958987294264
 31
0.0
  0
LINE
  5
626
330
1F
100
AcDbEntity
  8
0
  6
HIDDEN
100
AcDbLine
 10
17.51030352581443
 20
27.8095887929909
 30
0.0
 11
17.51030352581443
 21
12.80958987294264
 31
0.0
  0
LINE
  5
627
330
1F
100
AcDbEntity
  8
0
  6
HIDDEN
100
AcDbLine
 10
17.51030352581443
 20
27.8095887929909
 30
0.0
 11
23.49455640512319
 21
27.8095887929909
 31
0.0
  0
LINE
  5
628
330
1F
100
AcDbEntity
  8
0
100
AcDbLine
 10
23.10085485509313
 20
23.6845887929909
 30
0.0
 11
23.10085485509313
 21
26.80958879299086
 31
0.0
  0
LINE
  5
629
330
1F
100
AcDbEntity
  8
0
100
AcDbLine
 10
17.90400507584451
 20
23.6845887929909
 30
0.0
 11
17.90400507584451
 21
26.80958879299087
 31
0.0
  0
CIRCLE
  5
62A
330
1F
100
AcDbEntity
  8
0
100
AcDbCircle
 10
19.34888650288991
 20
19.30171532945815
 30
0.0
 40
0.625
  0
CIRCLE
  5
62B
330
1F
100
AcDbEntity
  8
0
100
AcDbCircle
 10
21.52605246966874
 20
18.47039362014801
 30
0.0
 40
0.1875
  0
CIRCLE
  5
62C
330
1F
100
AcDbEntity
  8
0
100
AcDbCircle
 10
18.96699716284325
 20
18.47039362014801
 30
0.0
 40
0.1875
  0
CIRCLE
  5
62D
330
1F
100
AcDbEntity
  8
0
100
AcDbCircle
 10
22.9040050337522
 20
27.2977784945652
 30
0.0
 40
0.1875
  0
DIMENSION
  5
62E
330
1F
100
AcDbEntity
  8
0
100
AcDbDimension
280
     0
  2
*D56
 10
17.51030352581443
 20
8.28258987294264
 30
0.0
 11
18.96699716284325
 21
11.01784790024308
 31
0.0
 70
   230
  1
(2) <>
 71
     5
 42
1.45669363702882
 73
     0
 74
     0
 75
     0
  3
Standard
100
AcDbOrdinateDimension
 13
18.96699716284325
 23
13.94339362014801
 33
0.0
 14
18.96699716284326
 24
12.62334790024308
 34
0.0
  0
DIMENSION
  5
62F
330
1F
100
AcDbEntity
  8
0
100
AcDbDimension
280
     0
  2
*D57
 10
17.51030352581443
 20
8.28258987294264
 30
0.0
 11
21.52605246966874
 21
10.9481767890513
 31
0.0
 70
   230
  1
(2) <>
 71
     5
 42
4.015748943854305
 73
     0
 74
     0
 75
     0
  3
Standard
100
AcDbOrdinateDimension
 13
21.52605246966874
 23
13.94339362014801
 33
0.0
 14
21.52605246966874
 24
12.51759345571797
 34
0.0
  0
CIRCLE
  5
630
330
1F
100
AcDbEntity
  8
0
100
AcDbCircle
 10
21.52605246966874
 20
13.94339362014801
 30
0.0
 40
0.1875
  0
CIRCLE
  5
631
102
{ACAD_REACTORS
330
634
102
}
330
1F
100
AcDbEntity
  8
0
100
AcDbCircle
 10
18.96699716284325
 20
13.94339362014801
 30
0.0
 40
0.1875
  0
DIMENSION
  5
632
102
{ACAD_XDICTIONARY
360
633
102
}
102
{ACAD_REACTORS
330
634
102
}
330
1F
100
AcDbEntity
  8
0
100
AcDbDimension
280
     0
  2
*D74
 10
17.51030352581443
 20
12.80958987294264
 30
0.0
 11
14.96536057034288
 21
13.94339362014801
 31
0.0
 70
    38
  1
(2) <>
 71
     5
 42
1.133803747205369
 73
     0
 74
     0
 75
     0
  3
Standard
100
AcDbOrdinateDimension
 13
18.96699716284325
 23
13.94339362014801
 33
0.0
 14
16.49869390367621
 24
13.94339362014801
 34
0.0
  0
LINE
  5
635
330
1F
100
AcDbEntity
  8
0
100
AcDbLine
 10
18.65400507584451
 20
26.80958879299087
 30
0.0
 11
18.65400507584451
 21
27.30958879299087
 31
0.0
  0
LINE
  5
636
102
{ACAD_REACTORS
330
7DB
330
7FB
102
}
330
1F
100
AcDbEntity
  8
0
100
AcDbLine
 10
22.35085485509313
 20
27.30958879299087
 30
0.0
 11
18.65400507584451
 21
27.30958879299087
 31
0.0
  0
LINE
  5
637
102
{ACAD_REACTORS
330
7EB
102
}
330
1F
100
AcDbEntity
  8
0
100
AcDbLine
 10
22.35085485509313
 20
26.80958879299087
 30
0.0
 11
22.35085485509313
 21
27.30958879299087
 31
0.0
  0
LINE
  5
743
330
1F
100
AcDbEntity
  8
BORDER
100
AcDbLine
 10
14.26680831945676
 20
7.455001523429205
 30
0.0
 11
14.26680831945676
 21
7.60564433388661
 31
0.0
  0
LINE
  5
744
330
1F
100
AcDbEntity
  8
BORDER
100
AcDbLine
 10
13.6039799534442
 20
7.455001523429205
 30
0.0
 11
13.6039799534442
 21
7.60564433388661
 31
0.0
  0
TEXT
  5
746
330
1F
100
AcDbEntity
  8
TEXT
100
AcDbText
 10
11.13751777139301
 20
7.492662226043544
 30
0.0
 40
0.0753214052286923
  1
ADJUSTED AIR FLOW CUTOUT
 72
     1
 11
12.02882106659921
 21
7.53032292865789
 31
0.0
100
AcDbText
 73
     2
  0
LINE
  5
748
330
1F
100
AcDbEntity
  8
BORDER
100
AcDbLine
 10
15.0186675644
 20
7.455001523429205
 30
0.0
 11
10.12413103187868
 21
7.455001523429205
 31
0.0
  0
LINE
  5
749
330
1F
100
AcDbEntity
  8
BORDER
100
AcDbLine
 10
10.45366217975422
 20
7.455001523429205
 30
0.0
 11
10.45366217975422
 21
7.60564433388661
 31
0.0
  0
TEXT
  5
757
330
1F
100
AcDbEntity
  8
TEXT
100
AcDbText
 10
10.27634303827825
 20
7.64167534244844
 30
0.0
 40
0.0753214052286923
  1
1
 72
     1
 11
10.28889660581637
 21
7.679336045062786
 31
0.0
100
AcDbText
 73
     2
  0
TEXT
  5
758
330
1F
100
AcDbEntity
  8
TEXT
100
AcDbText
 10
14.54230940162336
 20
7.643305118985395
 30
0.0
 40
0.0753214052286923
  1
RCC
 72
     1
 11
14.64273794192829
 21
7.680965821599741
 31
0.0
100
AcDbText
 73
     2
  0
LINE
  5
759
330
1F
100
AcDbEntity
  8
BORDER
100
AcDbLine
 10
14.26680831945676
 20
7.605644416371056
 30
0.0
 11
14.26680831945676
 21
7.756287226828461
 31
0.0
  0
LINE
  5
75A
330
1F
100
AcDbEntity
  8
BORDER
100
AcDbLine
 10
13.6039799534442
 20
7.605644416371056
 30
0.0
 11
13.6039799534442
 21
7.756287226828461
 31
0.0
  0
TEXT
  5
75B
330
1F
100
AcDbEntity
  8
TEXT
100
AcDbText
 10
13.71570670453346
 20
7.643305118985395
 30
0.0
 40
0.0753214052286923
  1
10-6-16
 72
     1
 11
13.93539413645048
 21
7.680965821599741
 31
0.0
100
AcDbText
 73
     2
  0
TEXT
  5
75C
330
1F
100
AcDbEntity
  8
TEXT
100
AcDbText
 10
11.26305344677417
 20
7.643305118985395
 30
0.0
 40
0.0753214052286923
  1
ADDED (2) 0.375" HOLES,
 72
     1
 11
12.02882106659921
 21
7.680965821599741
 31
0.0
100
AcDbText
 73
     2
  0
LINE
  5
75D
330
1F
100
AcDbEntity
  8
BORDER
100
AcDbLine
 10
15.0186675644
 20
7.756287226828461
 30
0.0
 11
10.12413103187868
 21
7.756287226828461
 31
0.0
  0
LINE
  5
75F
330
1F
100
AcDbEntity
  8
BORDER
100
AcDbLine
 10
10.45366217975422
 20
7.605644416371056
 30
0.0
 11
10.45366217975422
 21
7.756287226828461
 31
0.0
  0
DIMENSION
  5
7CC
102
{ACAD_XDICTIONARY
360
7D5
102
}
102
{ACAD_REACTORS
330
7DB
102
}
330
1F
100
AcDbEntity
  8
0
100
AcDbDimension
280
     0
  2
*D75
 10
17.51030352581443
 20
12.80958987294264
 30
0.0
 11
18.6540050758445
 21
29.68819123044196
 31
0.0
 70
   102
 71
     5
 42
1.143701550030069
 73
     0
 74
     0
 75
     0
  3
Standard
100
AcDbOrdinateDimension
 13
18.65400507584451
 23
27.30958879299087
 33
0.0
 14
18.65400507584451
 24
28.87652456377529
 34
0.0
  0
DIMENSION
  5
7DC
102
{ACAD_XDICTIONARY
360
7E5
102
}
102
{ACAD_REACTORS
330
7EB
102
}
330
1F
100
AcDbEntity
  8
0
100
AcDbDimension
280
     0
  2
*D76
 10
17.51030352581443
 20
12.80958987294264
 30
0.0
 11
22.35085485509313
 21
29.67321044555798
 31
0.0
 70
   102
 71
     5
 42
4.840551329278692
 73
     0
 74
     0
 75
     0
  3
Standard
100
AcDbOrdinateDimension
 13
22.35085485509313
 23
27.05958879299088
 33
0.0
 14
22.35085485509313
 24
28.78937711222464
 34
0.0
  0
DIMENSION
  5
7EC
102
{ACAD_XDICTIONARY
360
7F5
102
}
102
{ACAD_REACTORS
330
7FB
102
}
330
1F
100
AcDbEntity
  8
0
100
AcDbDimension
280
     0
  2
*D77
 10
17.51030352581443
 20
12.80958987294264
 30
0.0
 11
25.5133305876625
 21
27.30958879299087
 31
0.0
 70
    38
 71
     5
 42
14.49999892004823
 73
     0
 74
     0
 75
     0
  3
Standard
100
AcDbOrdinateDimension
 13
22.35085485509313
 23
27.30958879299087
 33
0.0
 14
24.48516392099583
 24
27.30958879299087
 34
0.0
  0
ENDSEC
  0
SECTION
  2
OBJECTS
  0
DICTIONARY
  5
C
330
0
100
AcDbDictionary
281
     1
  3
ACAD_CIP_PREVIOUS_PRODUCT_INFO
350
53E
  3
ACAD_COLOR
350
73
  3
ACAD_DETAILVIEWSTYLE
350
53B
  3
ACAD_GROUP
350
D
  3
ACAD_LAYOUT
350
1A
  3
ACAD_MATERIAL
350
72
  3
ACAD_MLEADERSTYLE
350
537
  3
ACAD_MLINESTYLE
350
17
  3
ACAD_PLOTSETTINGS
350
19
  3
ACAD_PLOTSTYLENAME
350
E
  3
ACAD_SCALELIST
350
525
  3
ACAD_SECTIONVIEWSTYLE
350
539
  3
ACAD_TABLESTYLE
350
523
  3
ACAD_VISUALSTYLE
350
50A
  3
ACDB_RECOMPOSE_DATA
350
87E
  3
AcDbVariableDictionary
350
66
  0
DICTIONARY
  5
775
330
8
100
AcDbDictionary
280
     1
281
     1
  0
DICTIONARY
  5
124
330
2
100
AcDbDictionary
280
     1
281
     1
  3
ACAD_LAYERSTATES
360
125
  0
DICTIONARY
  5
768
330
10
100
AcDbDictionary
280
     1
281
     1
  3
ADSK_XREC_LAYER_RECONCILED
360
769
  0
DICTIONARY
  5
76A
330
11F
100
AcDbDictionary
280
     1
281
     1
  3
ADSK_XREC_LAYER_RECONCILED
360
76B
  0
DICTIONARY
  5
76C
330
120
100
AcDbDictionary
280
     1
281
     1
  3
ADSK_XREC_LAYER_RECONCILED
360
76D
  0
DICTIONARY
  5
76E
330
122
100
AcDbDictionary
280
     1
281
     1
  3
ADSK_XREC_LAYER_RECONCILED
360
76F
  0
DICTIONARY
  5
770
330
123
100
AcDbDictionary
280
     1
281
     1
  3
ADSK_XREC_LAYER_RECONCILED
360
771
  0
DICTIONARY
  5
7BB
330
6E0
100
AcDbDictionary
280
     1
281
     1
  0
DICTIONARY
  5
7BD
330
72E
100
AcDbDictionary
280
     1
281
     1
  0
DICTIONARY
  5
633
330
632
100
AcDbDictionary
280
     1
281
     1
  3
ACAD_DIMASSOC
360
634
  0
DICTIONARY
  5
7D5
330
7CC
100
AcDbDictionary
280
     1
281
     1
  3
ACAD_DIMASSOC
360
7DB
  0
DICTIONARY
  5
7E5
330
7DC
100
AcDbDictionary
280
     1
281
     1
  3
ACAD_DIMASSOC
360
7EB
  0
DICTIONARY
  5
7F5
330
7EC
100
AcDbDictionary
280
     1
281
     1
  3
ACAD_DIMASSOC
360
7FB
  0
XRECORD
  5
53E
102
{ACAD_REACTORS
330
C
102
}
330
C
100
AcDbXrecord
280
     1
300
AMECH_PP
300
2014
300
PDSP_F_S
  0
DICTIONARY
  5
73
102
{ACAD_REACTORS
330
C
102
}
330
C
100
AcDbDictionary
281
     1
  0
DICTIONARY
  5
53B
102
{ACAD_REACTORS
330
C
102
}
330
C
100
AcDbDictionary
281
     1
  3
Imperial24
350
53C
  0
DICTIONARY
  5
D
102
{ACAD_REACTORS
330
C
102
}
330
C
100
AcDbDictionary
281
     1
  0
DICTIONARY
  5
1A
102
{ACAD_REACTORS
330
C
102
}
330
C
100
AcDbDictionary
281
     1
  3
Layout1
350
59
  3
Layout2
350
5E
  3
Model
350
22
  0
DICTIONARY
  5
72
102
{ACAD_REACTORS
330
C
102
}
330
C
100
AcDbDictionary
281
     1
  3
ByBlock
350
4FA
  3
ByLayer
350
4F2
  3
Global
350
502
  0
DICTIONARY
  5
537
102
{ACAD_REACTORS
330
C
102
}
330
C
100
AcDbDictionary
281
     1
  3
Standard
350
538
  0
DICTIONARY
  5
17
102
{ACAD_REACTORS
330
C
102
}
330
C
100
AcDbDictionary
281
     1
  3
Standard
350
18
  0
DICTIONARY
  5
19
102
{ACAD_REACTORS
330
C
102
}
330
C
100
AcDbDictionary
281
     1
  0
ACDBDICTIONARYWDFLT
  5
E
102
{ACAD_REACTORS
330
C
102
}
330
C
100
AcDbDictionary
281
     1
  3
Normal
350
F
100
AcDbDictionaryWithDefault
340
F
  0
DICTIONARY
  5
525
102
{ACAD_REACTORS
330
C
102
}
330
C
100
AcDbDictionary
281
     1
  3
A0
350
526
  3
A1
350
527
  3
A2
350
528
  3
A3
350
529
  3
A4
350
52A
  3
A5
350
52B
  3
A6
350
52C
  3
A7
350
52D
  3
A8
350
52E
  3
A9
350
52F
  3
B0
350
530
  3
B1
350
531
  3
B2
350
532
  3
B3
350
533
  3
B4
350
534
  3
B5
350
535
  3
B6
350
536
  0
DICTIONARY
  5
539
102
{ACAD_REACTORS
330
C
102
}
330
C
100
AcDbDictionary
281
     1
  3
Imperial24
350
53A
  0
DICTIONARY
  5
523
102
{ACAD_REACTORS
330
C
102
}
330
C
100
AcDbDictionary
281
     1
  3
Standard
350
524
  0
DICTIONARY
  5
50A
102
{ACAD_REACTORS
330
C
102
}
330
C
100
AcDbDictionary
281
     1
  3
2dWireframe
350
510
  3
Basic
350
50F
  3
Brighten
350
516
  3
ColorChange
350
51A
  3
Conceptual
350
513
  3
Dim
350
515
  3
EdgeColorOff
350
522
  3
Facepattern
350
519
  3
Flat
350
50B
  3
FlatWithEdges
350
50C
  3
Gouraud
350
50D
  3
GouraudWithEdges
350
50E
  3
Hidden
350
512
  3
JitterOff
350
520
  3
Linepattern
350
518
  3
OverhangOff
350
521
  3
Realistic
350
514
  3
Shaded
350
51F
  3
Shaded with edges
350
51E
  3
Shades of Gray
350
51B
  3
Sketchy
350
51C
  3
Thicken
350
517
  3
Wireframe
350
511
  3
X-Ray
350
51D
  0
XRECORD
  5
87E
102
{ACAD_REACTORS
330
C
102
}
330
C
100
AcDbXrecord
280
     1
 90
        1
330
524
330
53A
330
53C
  0
DICTIONARY
  5
66
102
{ACAD_REACTORS
330
C
102
}
330
C
100
AcDbDictionary
281
     1
  3
CANNOSCALE
350
7C3
  3
CMLEADERSTYLE
350
7C0
  3
CTABLESTYLE
350
7BF
  3
CVIEWDETAILSTYLE
350
7C1
  3
CVIEWSECTIONSTYLE
350
7C2
  3
DIMASSOC
350
67
  3
HIDETEXT
350
6B
  3
LAYEREVAL
350
877
  3
LAYERNOTIFY
350
878
  3
LIGHTINGUNITS
350
876
  3
MSLTSCALE
350
875
  3
PROJECTNAME
350
4D8
  0
DICTIONARY
  5
125
102
{ACAD_REACTORS
330
124
102
}
330
124
100
AcDbDictionary
281
     1
  0
XRECORD
  5
769
102
{ACAD_REACTORS
330
768
102
}
330
768
100
AcDbXrecord
280
     1
290
     1
  0
XRECORD
  5
76B
102
{ACAD_REACTORS
330
76A
102
}
330
76A
100
AcDbXrecord
280
     1
290
     1
  0
XRECORD
  5
76D
102
{ACAD_REACTORS
330
76C
102
}
330
76C
100
AcDbXrecord
280
     1
290
     1
  0
XRECORD
  5
76F
102
{ACAD_REACTORS
330
76E
102
}
330
76E
100
AcDbXrecord
280
     1
290
     1
  0
XRECORD
  5
771
102
{ACAD_REACTORS
330
770
102
}
330
770
100
AcDbXrecord
280
     1
290
     1
  0
DIMASSOC
  5
634
102
{ACAD_REACTORS
330
633
102
}
330
633
100
AcDbDimAssoc
330
632
 90
        2
 70
     0
 71
     0
  1
AcDbOsnapPointRef
 72
     3
331
631
 73
     2
 91
        0
 40
0.0
 10
0.0
 20
0.0
 30
0.0
 75
     0
  0
DIMASSOC
  5
7DB
102
{ACAD_REACTORS
330
7D5
102
}
330
7D5
100
AcDbDimAssoc
330
7CC
 90
        2
 70
     0
 71
     0
  1
AcDbOsnapPointRef
 72
     1
331
636
 73
     2
 91
        0
 40
1.0
 10
0.0
 20
0.0
 30
2.000000000000000E+50
 75
     0
  0
DIMASSOC
  5
7EB
102
{ACAD_REACTORS
330
7E5
102
}
330
7E5
100
AcDbDimAssoc
330
7DC
 90
        2
 70
     0
 71
     0
  1
AcDbOsnapPointRef
 72
     2
331
637
 73
     2
 91
        0
 40
0.5
 10
0.0
 20
0.0
 30
0.0
 75
     0
  0
DIMASSOC
  5
7FB
102
{ACAD_REACTORS
330
7F5
102
}
330
7F5
100
AcDbDimAssoc
330
7EC
 90
        2
 70
     0
 71
     0
  1
AcDbOsnapPointRef
 72
    13
331
636
 73
     2
 91
        0
 40
0.0
 10
0.0
 20
0.0
 30
2.000000000000000E+50
 75
     0
  0
ACDBDETAILVIEWSTYLE
  5
53C
102
{ACAD_XDICTIONARY
360
87C
102
}
102
{ACAD_REACTORS
330
53B
102
}
330
53B
100
AcDbModelDocViewStyle
 70
     0
  3
Imperial24
290
     0
100
AcDbDetailViewStyle
 70
     0
 71
     0
 90
        3
 71
     1
340
11
 62
   256
 40
0.24
340
0
 62
   256
 40
0.24
300

 40
0.36
280
     3
 71
     2
340
16
 90
       25
 62
   256
 71
     3
340
11
 62
   256
 40
0.24
 90
        1
 40
0.75
 90
        1
300
%<\AcVar ViewType \f "%tc1">% %<\AcVar ViewDetailId>%\PSCALE %<\AcVar ViewScale \f "%sn">%
 71
     4
340
16
 90
       25
 62
   256
340
16
 90
       25
 62
   256
280
     0
  0
LAYOUT
  5
59
102
{ACAD_REACTORS
330
1A
102
}
330
1A
100
AcDbPlotSettings
  1

  2
None
  4

  6

 40
0.0
 41
0.0
 42
0.0
 43
0.0
 44
0.0
 45
0.0
 46
0.0
 47
0.0
 48
0.0
 49
0.0
140
0.0
141
0.0
142
1.0
143
1.0
 70
   688
 72
     0
 73
     0
 74
     5
  7

 75
    16
147
1.0
 76
     0
 77
     2
 78
   300
148
0.0
149
0.0
100
AcDbLayout
  1
Layout1
 70
     1
 71
     1
 10
0.0
 20
0.0
 11
12.0
 21
9.0
 12
0.0
 22
0.0
 32
0.0
 14
0.0
 24
0.0
 34
0.0
 15
0.0
 25
0.0
 35
0.0
146
0.0
 13
0.0
 23
0.0
 33
0.0
 16
1.0
 26
0.0
 36
0.0
 17
0.0
 27
1.0
 37
0.0
 76
     0
330
58
  0
LAYOUT
  5
5E
102
{ACAD_REACTORS
330
1A
102
}
330
1A
100
AcDbPlotSettings
  1

  2
None
  4

  6

 40
0.0
 41
0.0
 42
0.0
 43
0.0
 44
0.0
 45
0.0
 46
0.0
 47
0.0
 48
0.0
 49
0.0
140
0.0
141
0.0
142
1.0
143
1.0
 70
   688
 72
     0
 73
     0
 74
     5
  7

 75
    16
147
1.0
 76
     0
 77
     2
 78
   300
148
0.0
149
0.0
100
AcDbLayout
  1
Layout2
 70
     1
 71
     2
 10
0.0
 20
0.0
 11
12.0
 21
9.0
 12
0.0
 22
0.0
 32
0.0
 14
0.0
 24
0.0
 34
0.0
 15
0.0
 25
0.0
 35
0.0
146
0.0
 13
0.0
 23
0.0
 33
0.0
 16
1.0
 26
0.0
 36
0.0
 17
0.0
 27
1.0
 37
0.0
 76
     0
330
5D
  0
LAYOUT
  5
22
102
{ACAD_REACTORS
330
1A
102
}
330
1A
100
AcDbPlotSettings
  1

  2
none_device
  4
ANSI_A_(8.50_x_11.00_Inches)
  6

 40
6.349999904632567
 41
19.04999923706055
 42
6.350006103515625
 43
19.04998779296875
 44
215.8999938964844
 45
279.3999938964844
 46
0.0
 47
0.0
 48
0.0
 49
0.0
140
0.0
141
0.0
142
1.0
143
2.584895464708373
 70
 11952
 72
     0
 73
     1
 74
     0
  7

 75
     0
147
0.3868628397755418
 76
     0
 77
     2
 78
   300
148
0.0
149
0.0
100
AcDbLayout
  1
Model
 70
     1
 71
     0
 10
0.0
 20
0.0
 11
12.0
 21
9.0
 12
0.0
 22
0.0
 32
0.0
 14
0.0
 24
0.0
 34
0.0
 15
0.0
 25
0.0
 35
0.0
146
0.0
 13
0.0
 23
0.0
 33
0.0
 16
1.0
 26
0.0
 36
0.0
 17
0.0
 27
1.0
 37
0.0
 76
     0
330
1F
331
4E5
  0
MATERIAL
  5
4FA
102
{ACAD_XDICTIONARY
360
4FB
102
}
102
{ACAD_REACTORS
330
72
102
}
330
72
100
AcDbMaterial
  1
ByBlock
 72
     0
 43
0.0208333333333333
 43
0.0
 43
0.0
 43
0.0
 43
0.0
 43
0.0208333333333333
 43
0.0
 43
0.0
 43
0.0
 43
0.0
 43
1.0
 43
0.0
 43
0.0
 43
0.0
 43
0.0
 43
1.0
 77
     0
 47
0.0208333333333333
 47
0.0
 47
0.0
 47
0.0
 47
0.0
 47
0.0208333333333333
 47
0.0
 47
0.0
 47
0.0
 47
0.0
 47
1.0
 47
0.0
 47
0.0
 47
0.0
 47
0.0
 47
1.0
171
     0
 49
0.0208333333333333
 49
0.0
 49
0.0
 49
0.0
 49
0.0
 49
0.0208333333333333
 49
0.0
 49
0.0
 49
0.0
 49
0.0
 49
1.0
 49
0.0
 49
0.0
 49
0.0
 49
0.0
 49
1.0
175
     0
142
0.0208333333333333
142
0.0
142
0.0
142
0.0
142
0.0
142
0.0208333333333333
142
0.0
142
0.0
142
0.0
142
0.0
142
1.0
142
0.0
142
0.0
142
0.0
142
0.0
142
1.0
179
     0
144
0.0208333333333333
144
0.0
144
0.0
144
0.0
144
0.0
144
0.0208333333333333
144
0.0
144
0.0
144
0.0
144
0.0
144
1.0
144
0.0
144
0.0
144
0.0
144
0.0
144
1.0
147
0.0208333333333333
147
0.0
147
0.0
147
0.0
147
0.0
147
0.0208333333333333
147
0.0
147
0.0
147
0.0
147
0.0
147
1.0
147
0.0
147
0.0
147
0.0
147
0.0
147
1.0
  0
MATERIAL
  5
4F2
102
{ACAD_XDICTIONARY
360
4F3
102
}
102
{ACAD_REACTORS
330
72
102
}
330
72
100
AcDbMaterial
  1
ByLayer
 72
     0
 43
0.0208333333333333
 43
0.0
 43
0.0
 43
0.0
 43
0.0
 43
0.0208333333333333
 43
0.0
 43
0.0
 43
0.0
 43
0.0
 43
1.0
 43
0.0
 43
0.0
 43
0.0
 43
0.0
 43
1.0
 77
     0
 47
0.0208333333333333
 47
0.0
 47
0.0
 47
0.0
 47
0.0
 47
0.0208333333333333
 47
0.0
 47
0.0
 47
0.0
 47
0.0
 47
1.0
 47
0.0
 47
0.0
 47
0.0
 47
0.0
 47
1.0
171
     0
 49
0.0208333333333333
 49
0.0
 49
0.0
 49
0.0
 49
0.0
 49
0.0208333333333333
 49
0.0
 49
0.0
 49
0.0
 49
0.0
 49
1.0
 49
0.0
 49
0.0
 49
0.0
 49
0.0
 49
1.0
175
     0
142
0.0208333333333333
142
0.0
142
0.0
142
0.0
142
0.0
142
0.0208333333333333
142
0.0
142
0.0
142
0.0
142
0.0
142
1.0
142
0.0
142
0.0
142
0.0
142
0.0
142
1.0
179
     0
144
0.0208333333333333
144
0.0
144
0.0
144
0.0
144
0.0
144
0.0208333333333333
144
0.0
144
0.0
144
0.0
144
0.0
144
1.0
144
0.0
144
0.0
144
0.0
144
0.0
144
1.0
147
0.0208333333333333
147
0.0
147
0.0
147
0.0
147
0.0
147
0.0208333333333333
147
0.0
147
0.0
147
0.0
147
0.0
147
1.0
147
0.0
147
0.0
147
0.0
147
0.0
147
1.0
  0
MATERIAL
  5
502
102
{ACAD_XDICTIONARY
360
503
102
}
102
{ACAD_REACTORS
330
72
102
}
330
72
100
AcDbMaterial
  1
Global
 72
     0
 43
0.0208333333333333
 43
0.0
 43
0.0
 43
0.0
 43
0.0
 43
0.0208333333333333
 43
0.0
 43
0.0
 43
0.0
 43
0.0
 43
1.0
 43
0.0
 43
0.0
 43
0.0
 43
0.0
 43
1.0
 77
     0
 47
0.0208333333333333
 47
0.0
 47
0.0
 47
0.0
 47
0.0
 47
0.0208333333333333
 47
0.0
 47
0.0
 47
0.0
 47
0.0
 47
1.0
 47
0.0
 47
0.0
 47
0.0
 47
0.0
 47
1.0
171
     0
 49
0.0208333333333333
 49
0.0
 49
0.0
 49
0.0
 49
0.0
 49
0.0208333333333333
 49
0.0
 49
0.0
 49
0.0
 49
0.0
 49
1.0
 49
0.0
 49
0.0
 49
0.0
 49
0.0
 49
1.0
175
     0
142
0.0208333333333333
142
0.0
142
0.0
142
0.0
142
0.0
142
0.0208333333333333
142
0.0
142
0.0
142
0.0
142
0.0
142
1.0
142
0.0
142
0.0
142
0.0
142
0.0
142
1.0
179
     0
144
0.0208333333333333
144
0.0
144
0.0
144
0.0
144
0.0
144
0.0208333333333333
144
0.0
144
0.0
144
0.0
144
0.0
144
1.0
144
0.0
144
0.0
144
0.0
144
0.0
144
1.0
147
0.0208333333333333
147
0.0
147
0.0
147
0.0
147
0.0
147
0.0208333333333333
147
0.0
147
0.0
147
0.0
147
0.0
147
1.0
147
0.0
147
0.0
147
0.0
147
0.0
147
1.0
  0
MLEADERSTYLE
  5
538
102
{ACAD_REACTORS
330
537
102
}
330
537
100
AcDbMLeaderStyle
179
     2
170
     2
171
     1
172
     0
 90
        2
 40
0.0
 41
0.0
173
     1
 91
-1056964608
340
14
 92
       -2
290
     1
 42
0.09
291
     1
 43
0.36
  3
Standard
 44
0.18
300

342
11
174
     1
178
     6
175
     1
176
     0
 93
-1056964608
 45
0.18
292
     0
297
     0
 46
0.18
 94
-1056964608
 47
1.0
 49
1.0
140
1.0
293
     1
141
0.0
294
     1
177
     0
142
1.0
295
     0
296
     0
143
0.125
271
     0
272
     9
273
     9
298
     0
  0
MLINESTYLE
  5
18
102
{ACAD_REACTORS
330
17
102
}
330
17
100
AcDbMlineStyle
  2
STANDARD
 70
     0
  3

 62
   256
 51
90.0
 52
90.0
 71
     2
 49
0.5
 62
   256
  6
BYLAYER
 49
-0.5
 62
   256
  6
BYLAYER
  0
ACDBPLACEHOLDER
  5
F
102
{ACAD_REACTORS
330
E
102
}
330
E
  0
SCALE
  5
526
102
{ACAD_REACTORS
330
525
102
}
330
525
100
AcDbScale
 70
     0
300
1:1
140
1.0
141
1.0
290
     1
  0
SCALE
  5
527
102
{ACAD_REACTORS
330
525
102
}
330
525
100
AcDbScale
 70
     0
300
1/128" = 1'-0"
140
0.0078125
141
12.0
290
     0
  0
SCALE
  5
528
102
{ACAD_REACTORS
330
525
102
}
330
525
100
AcDbScale
 70
     0
300
1/64" = 1'-0"
140
0.015625
141
12.0
290
     0
  0
SCALE
  5
529
102
{ACAD_REACTORS
330
525
102
}
330
525
100
AcDbScale
 70
     0
300
1/32" = 1'-0"
140
0.03125
141
12.0
290
     0
  0
SCALE
  5
52A
102
{ACAD_REACTORS
330
525
102
}
330
525
100
AcDbScale
 70
     0
300
1/16" = 1'-0"
140
0.0625
141
12.0
290
     0
  0
SCALE
  5
52B
102
{ACAD_REACTORS
330
525
102
}
330
525
100
AcDbScale
 70
     0
300
3/32" = 1'-0"
140
0.09375
141
12.0
290
     0
  0
SCALE
  5
52C
102
{ACAD_REACTORS
330
525
102
}
330
525
100
AcDbScale
 70
     0
300
1/8" = 1'-0"
140
0.125
141
12.0
290
     0
  0
SCALE
  5
52D
102
{ACAD_REACTORS
330
525
102
}
330
525
100
AcDbScale
 70
     0
300
3/16" = 1'-0"
140
0.1875
141
12.0
290
     0
  0
SCALE
  5
52E
102
{ACAD_REACTORS
330
525
102
}
330
525
100
AcDbScale
 70
     0
300
1/4" = 1'-0"
140
0.25
141
12.0
290
     0
  0
SCALE
  5
52F
102
{ACAD_REACTORS
330
525
102
}
330
525
100
AcDbScale
 70
     0
300
3/8" = 1'-0"
140
0.375
141
12.0
290
     0
  0
SCALE
  5
530
102
{ACAD_REACTORS
330
525
102
}
330
525
100
AcDbScale
 70
     0
300
1/2" = 1'-0"
140
0.5
141
12.0
290
     0
  0
SCALE
  5
531
102
{ACAD_REACTORS
330
525
102
}
330
525
100
AcDbScale
 70
     0
300
3/4" = 1'-0"
140
0.75
141
12.0
290
     0
  0
SCALE
  5
532
102
{ACAD_REACTORS
330
525
102
}
330
525
100
AcDbScale
 70
     0
300
1" = 1'-0"
140
1.0
141
12.0
290
     0
  0
SCALE
  5
533
102
{ACAD_REACTORS
330
525
102
}
330
525
100
AcDbScale
 70
     0
300
1-1/2" = 1'-0"
140
1.5
141
12.0
290
     0
  0
SCALE
  5
534
102
{ACAD_REACTORS
330
525
102
}
330
525
100
AcDbScale
 70
     0
300
3" = 1'-0"
140
3.0
141
12.0
290
     0
  0
SCALE
  5
535
102
{ACAD_REACTORS
330
525
102
}
330
525
100
AcDbScale
 70
     0
300
6" = 1'-0"
140
6.0
141
12.0
290
     0
  0
SCALE
  5
536
102
{ACAD_REACTORS
330
525
102
}
330
525
100
AcDbScale
 70
     0
300
1'-0" = 1'-0"
140
12.0
141
12.0
290
     0
  0
ACDBSECTIONVIEWSTYLE
  5
53A
102
{ACAD_XDICTIONARY
360
87A
102
}
102
{ACAD_REACTORS
330
539
102
}
330
539
100
AcDbModelDocViewStyle
 70
     0
  3
Imperial24
290
     0
100
AcDbSectionViewStyle
 70
     0
 71
     0
 90
       78
 71
     1
340
11
 62
   256
 40
0.24
340
0
340
0
 62
   256
 40
0.24
300
I, O, Q, S, X, Z
 40
0.48
 90
        3
 40
0.18
 90
        1
 71
     2
340
16
 90
       25
 62
   256
340
16
 90
       50
 62
   256
 40
0.24
 40
0.0
 40
0.24
 71
     3
340
11
 62
   256
 40
0.24
 90
        1
 40
0.75
 90
        1
300
%<\AcVar ViewType \f "%tc1">% %<\AcVar ViewSectionStartId>%-%<\AcVar ViewSectionEndId>%\PSCALE %<\AcVar ViewScale \f "%sn">%
 71
     4
 62
   256
 62
   257
300
ANSI31
 40
1.0
 90
        0
290
     0
290
     0
 90
        6
 40
0.0
 40
1.570796326794896
 40
0.2617993877991494
 40
1.308996938995747
 40
-0.2617993877991494
 40
1.832595714594046
  0
TABLESTYLE
  5
524
102
{ACAD_XDICTIONARY
360
772
102
}
102
{ACAD_REACTORS
330
523
102
}
330
523
100
AcDbTableStyle
280
     0
  3
Standard
 70
     0
 71
     0
 40
0.06
 41
0.06
280
     0
281
     0
  7
Standard
140
0.18
170
     2
 62
     0
 63
     7
283
     0
 90
      512
 91
        0
  1

274
    -2
284
     1
 64
     0
275
    -2
285
     1
 65
     0
276
    -2
286
     1
 66
     0
277
    -2
287
     1
 67
     0
278
    -2
288
     1
 68
     0
279
    -2
289
     1
 69
     0
  7
Standard
140
0.25
170
     5
 62
     0
 63
     7
283
     0
 90
      512
 91
        0
  1

274
    -2
284
     1
 64
     0
275
    -2
285
     1
 65
     0
276
    -2
286
     1
 66
     0
277
    -2
287
     1
 67
     0
278
    -2
288
     1
 68
     0
279
    -2
289
     1
 69
     0
  7
Standard
140
0.18
170
     5
 62
     0
 63
     7
283
     0
 90
      512
 91
        0
  1

274
    -2
284
     1
 64
     0
275
    -2
285
     1
 65
     0
276
    -2
286
     1
 66
     0
277
    -2
287
     1
 67
     0
278
    -2
288
     1
 68
     0
279
    -2
289
     1
 69
     0
  0
VISUALSTYLE
  5
510
102
{ACAD_REACTORS
330
50A
102
}
330
50A
100
AcDbVisualStyle
  2
2dWireframe
 70
     4
177
     3
291
     0
 70
    58
 90
        0
176
     1
 90
        2
176
     1
 90
        0
176
     1
 90
        0
176
     1
 40
0.6
176
     1
 40
30.0
176
     1
 62
     7
420
 16777215
176
     1
 90
        1
176
     1
 90
        4
176
     1
 62
     7
176
     1
 62
   257
176
     1
 90
        1
176
     1
 90
        1
176
     1
 40
1.0
176
     1
 90
        0
176
     1
 62
   257
176
     1
 40
1.0
176
     1
 90
        1
176
     1
 90
        6
176
     1
 90
        2
176
     1
 62
     7
176
     1
 90
        5
176
     1
 90
        0
176
     1
 90
        0
176
     1
290
     0
176
     1
 90
        1
176
     1
 40
0.0
176
     1
 90
        0
176
     1
290
     1
176
     1
290
     1
176
     1
290
     0
176
     1
290
     0
176
     1
290
     0
176
     1
290
     0
176
     1
290
     0
176
     1
290
     0
176
     1
290
     0
176
     1
 90
       50
176
     1
 40
0.0
176
     1
 40
1.0
176
     1
 90
        0
176
     1
 62
    18
420
        0
176
     1
 90
       50
176
     1
 90
        3
176
     1
 62
     5
420
      255
176
     1
290
     0
176
     1
 90
       50
176
     1
 90
       50
176
     1
 90
       50
176
     1
290
     0
176
     1
 90
       50
176
     1
 62
   256
176
     0
 40
1.0
176
     0
 90
        2
176
     1
  1
strokes_ogs.tif
176
     1
290
     0
176
     1
 40
1.0
176
     1
 40
1.0
176
     1
  0
VISUALSTYLE
  5
50F
102
{ACAD_REACTORS
330
50A
102
}
330
50A
100
AcDbVisualStyle
  2
Basic
 70
     7
177
     3
291
     1
 70
    58
 90
        1
176
     1
 90
        0
176
     1
 90
        1
176
     1
 90
        0
176
     1
 40
0.6
176
     1
 40
30.0
176
     1
 62
     7
420
 16777215
176
     1
 90
        0
176
     1
 90
        4
176
     1
 62
     7
176
     1
 62
   257
176
     1
 90
        1
176
     1
 90
        1
176
     1
 40
1.0
176
     1
 90
        8
176
     1
 62
     7
176
     1
 40
1.0
176
     1
 90
        1
176
     1
 90
        6
176
     1
 90
        2
176
     1
 62
     7
176
     1
 90
        5
176
     1
 90
        0
176
     1
 90
        0
176
     1
290
     0
176
     1
 90
        1
176
     1
 40
0.0
176
     1
 90
        0
176
     1
290
     0
176
     1
290
     1
176
     1
290
     1
176
     1
290
     0
176
     1
290
     0
176
     1
290
     0
176
     1
290
     0
176
     1
290
     0
176
     1
290
     0
176
     1
 90
       50
176
     1
 40
0.0
176
     1
 40
1.0
176
     1
 90
        0
176
     1
 62
    18
420
        0
176
     1
 90
       50
176
     1
 90
        3
176
     1
 62
     5
420
      255
176
     1
290
     0
176
     1
 90
       50
176
     1
 90
       50
176
     1
 90
       50
176
     1
290
     0
176
     1
 90
       50
176
     1
 62
   256
176
     0
 40
1.0
176
     0
 90
        2
176
     1
  1
strokes_ogs.tif
176
     1
290
     0
176
     1
 40
1.0
176
     1
 40
1.0
176
     1
  0
VISUALSTYLE
  5
516
102
{ACAD_REACTORS
330
50A
102
}
330
50A
100
AcDbVisualStyle
  2
Brighten
 70
    12
177
     3
291
     1
 70
    58
 90
        2
176
     1
 90
        2
176
     1
 90
        0
176
     1
 90
        0
176
     1
 40
0.6
176
     1
 40
30.0
176
     1
 62
     7
420
 16777215
176
     1
 90
        1
176
     1
 90
        4
176
     1
 62
     7
176
     1
 62
   257
176
     1
 90
        1
176
     1
 90
        1
176
     1
 40
1.0
176
     1
 90
        8
176
     1
 62
     7
176
     1
 40
1.0
176
     1
 90
        1
176
     1
 90
        6
176
     1
 90
        2
176
     1
 62
     7
176
     1
 90
        5
176
     1
 90
        0
176
     1
 90
        0
176
     1
290
     0
176
     1
 90
        1
176
     1
 40
50.0
176
     1
 90
        0
176
     1
290
     0
176
     1
290
     1
176
     1
290
     1
176
     1
290
     0
176
     1
290
     0
176
     1
290
     0
176
     1
290
     0
176
     1
290
     0
176
     1
290
     0
176
     1
 90
       50
176
     1
 40
0.0
176
     1
 40
1.0
176
     1
 90
        0
176
     1
 62
    18
420
        0
176
     1
 90
       50
176
     1
 90
        3
176
     1
 62
     5
420
      255
176
     1
290
     0
176
     1
 90
       50
176
     1
 90
       50
176
     1
 90
       50
176
     1
290
     0
176
     1
 90
       50
176
     1
 62
   256
176
     0
 40
1.0
176
     0
 90
        2
176
     1
  1
strokes_ogs.tif
176
     1
290
     0
176
     1
 40
1.0
176
     1
 40
1.0
176
     1
  0
VISUALSTYLE
  5
51A
102
{ACAD_REACTORS
330
50A
102
}
330
50A
100
AcDbVisualStyle
  2
ColorChange
 70
    16
177
     3
291
     1
 70
    58
 90
        2
176
     1
 90
        2
176
     1
 90
        3
176
     1
 90
        0
176
     1
 40
0.6
176
     1
 40
30.0
176
     1
 62
     8
420
  8421504
176
     1
 90
        1
176
     1
 90
        4
176
     1
 62
     7
176
     1
 62
   257
176
     1
 90
        1
176
     1
 90
        1
176
     1
 40
1.0
176
     1
 90
        8
176
     1
 62
     8
420
  8421504
176
     1
 40
1.0
176
     1
 90
        1
176
     1
 90
        6
176
     1
 90
        2
176
     1
 62
     7
176
     1
 90
        5
176
     1
 90
        0
176
     1
 90
        0
176
     1
290
     0
176
     1
 90
        1
176
     1
 40
0.0
176
     1
 90
        0
176
     1
290
     0
176
     1
290
     1
176
     1
290
     1
176
     1
290
     0
176
     1
290
     0
176
     1
290
     0
176
     1
290
     0
176
     1
290
     0
176
     1
290
     0
176
     1
 90
       50
176
     1
 40
0.0
176
     1
 40
1.0
176
     1
 90
        0
176
     1
 62
    18
420
        0
176
     1
 90
       50
176
     1
 90
        3
176
     1
 62
     5
420
      255
176
     1
290
     0
176
     1
 90
       50
176
     1
 90
       50
176
     1
 90
       50
176
     1
290
     0
176
     1
 90
       50
176
     1
 62
   256
176
     0
 40
1.0
176
     0
 90
        2
176
     1
  1
strokes_ogs.tif
176
     1
290
     0
176
     1
 40
1.0
176
     1
 40
1.0
176
     1
  0
VISUALSTYLE
  5
513
102
{ACAD_REACTORS
330
50A
102
}
330
50A
100
AcDbVisualStyle
  2
Conceptual
 70
     9
177
     3
291
     0
 70
    58
 90
        3
176
     1
 90
        2
176
     1
 90
        0
176
     1
 90
        0
176
     1
 40
0.6
176
     1
 40
30.0
176
     1
 62
     7
420
 16777215
176
     1
 90
        2
176
     1
 90
        2
176
     1
 62
     7
176
     1
 62
   257
176
     1
 90
        1
176
     1
 90
        1
176
     1
 40
179.0
176
     1
 90
        8
176
     1
 62
     7
176
     1
 40
1.0
176
     1
 90
        1
176
     1
 90
        6
176
     1
 90
        2
176
     1
 62
     7
176
     1
 90
        3
176
     1
 90
        0
176
     1
 90
        0
176
     1
290
     0
176
     1
 90
        1
176
     1
 40
0.0
176
     1
 90
        0
176
     1
290
     0
176
     1
290
     1
176
     1
290
     1
176
     1
290
     0
176
     1
290
     0
176
     1
290
     0
176
     1
290
     0
176
     1
290
     0
176
     1
290
     0
176
     1
 90
       50
176
     1
 40
0.0
176
     1
 40
1.0
176
     1
 90
        0
176
     1
 62
    18
420
        0
176
     1
 90
       50
176
     1
 90
        3
176
     1
 62
     5
420
      255
176
     1
290
     0
176
     1
 90
       50
176
     1
 90
       50
176
     1
 90
       50
176
     1
290
     0
176
     1
 90
       50
176
     1
 62
   256
176
     0
 40
1.0
176
     0
 90
        2
176
     1
  1
strokes_ogs.tif
176
     1
290
     0
176
     1
 40
1.0
176
     1
 40
1.0
176
     1
  0
VISUALSTYLE
  5
515
102
{ACAD_REACTORS
330
50A
102
}
330
50A
100
AcDbVisualStyle
  2
Dim
 70
    11
177
     3
291
     1
 70
    58
 90
        2
176
     1
 90
        2
176
     1
 90
        0
176
     1
 90
        0
176
     1
 40
0.6
176
     1
 40
30.0
176
     1
 62
     7
420
 16777215
176
     1
 90
        1
176
     1
 90
        4
176
     1
 62
     7
176
     1
 62
   257
176
     1
 90
        1
176
     1
 90
        1
176
     1
 40
1.0
176
     1
 90
        8
176
     1
 62
     7
176
     1
 40
1.0
176
     1
 90
        1
176
     1
 90
        6
176
     1
 90
        2
176
     1
 62
     7
176
     1
 90
        5
176
     1
 90
        0
176
     1
 90
        0
176
     1
290
     0
176
     1
 90
        1
176
     1
 40
-50.0
176
     1
 90
        0
176
     1
290
     0
176
     1
290
     1
176
     1
290
     1
176
     1
290
     0
176
     1
290
     0
176
     1
290
     0
176
     1
290
     0
176
     1
290
     0
176
     1
290
     0
176
     1
 90
       50
176
     1
 40
0.0
176
     1
 40
1.0
176
     1
 90
        0
176
     1
 62
    18
420
        0
176
     1
 90
       50
176
     1
 90
        3
176
     1
 62
     5
420
      255
176
     1
290
     0
176
     1
 90
       50
176
     1
 90
       50
176
     1
 90
       50
176
     1
290
     0
176
     1
 90
       50
176
     1
 62
   256
176
     0
 40
1.0
176
     0
 90
        2
176
     1
  1
strokes_ogs.tif
176
     1
290
     0
176
     1
 40
1.0
176
     1
 40
1.0
176
     1
  0
VISUALSTYLE
  5
522
102
{ACAD_REACTORS
330
50A
102
}
330
50A
100
AcDbVisualStyle
  2
EdgeColorOff
 70
    22
177
     3
291
     1
 70
    58
 90
        2
176
     0
 90
        2
176
     0
 90
        0
176
     0
 90
        0
176
     0
 40
0.6
176
     0
 40
30.0
176
     0
 62
     7
420
 16777215
176
     0
 90
        1
176
     0
 90
        4
176
     0
 62
     7
176
     0
 62
   257
176
     0
 90
        1
176
     0
 90
        1
176
     0
 40
1.0
176
     0
 90
        8
176
     2
 62
     7
176
     0
 40
1.0
176
     0
 90
        1
176
     0
 90
        6
176
     0
 90
        2
176
     0
 62
     7
176
     0
 90
        5
176
     0
 90
        0
176
     0
 90
        0
176
     0
290
     0
176
     0
 90
        1
176
     0
 40
0.0
176
     0
 90
        0
176
     0
290
     0
176
     1
290
     1
176
     1
290
     1
176
     1
290
     0
176
     1
290
     0
176
     1
290
     0
176
     1
290
     0
176
     1
290
     0
176
     1
290
     0
176
     1
 90
       50
176
     0
 40
0.0
176
     0
 40
1.0
176
     0
 90
        0
176
     0
 62
    18
420
        0
176
     0
 90
       50
176
     0
 90
        3
176
     0
 62
     5
420
      255
176
     0
290
     0
176
     1
 90
       50
176
     0
 90
       50
176
     0
 90
       50
176
     0
290
     0
176
     1
 90
       50
176
     0
 62
   256
176
     0
 40
1.0
176
     0
 90
        2
176
     0
  1
strokes_ogs.tif
176
     0
290
     0
176
     1
 40
1.0
176
     0
 40
1.0
176
     0
  0
VISUALSTYLE
  5
519
102
{ACAD_REACTORS
330
50A
102
}
330
50A
100
AcDbVisualStyle
  2
Facepattern
 70
    15
177
     3
291
     1
 70
    58
 90
        2
176
     1
 90
        2
176
     1
 90
        0
176
     1
 90
        0
176
     1
 40
0.6
176
     1
 40
30.0
176
     1
 62
     7
420
 16777215
176
     1
 90
        1
176
     1
 90
        4
176
     1
 62
     7
176
     1
 62
   257
176
     1
 90
        1
176
     1
 90
        1
176
     1
 40
1.0
176
     1
 90
        8
176
     1
 62
     7
176
     1
 40
1.0
176
     1
 90
        1
176
     1
 90
        6
176
     1
 90
        2
176
     1
 62
     7
176
     1
 90
        5
176
     1
 90
        0
176
     1
 90
        0
176
     1
290
     0
176
     1
 90
        1
176
     1
 40
0.0
176
     1
 90
        0
176
     1
290
     0
176
     1
290
     1
176
     1
290
     1
176
     1
290
     0
176
     1
290
     0
176
     1
290
     0
176
     1
290
     0
176
     1
290
     0
176
     1
290
     0
176
     1
 90
       50
176
     1
 40
0.0
176
     1
 40
1.0
176
     1
 90
        0
176
     1
 62
    18
420
        0
176
     1
 90
       50
176
     1
 90
        3
176
     1
 62
     5
420
      255
176
     1
290
     0
176
     1
 90
       50
176
     1
 90
       50
176
     1
 90
       50
176
     1
290
     0
176
     1
 90
       50
176
     1
 62
   256
176
     0
 40
1.0
176
     0
 90
        2
176
     1
  1
strokes_ogs.tif
176
     1
290
     0
176
     1
 40
1.0
176
     1
 40
1.0
176
     1
  0
VISUALSTYLE
  5
50B
102
{ACAD_REACTORS
330
50A
102
}
330
50A
100
AcDbVisualStyle
  2
Flat
 70
     0
177
     3
291
     1
 70
    58
 90
        2
176
     1
 90
        1
176
     1
 90
        1
176
     1
 90
        2
176
     1
 40
0.6
176
     1
 40
30.0
176
     1
 62
     7
420
 16777215
176
     1
 90
        0
176
     1
 90
        0
176
     1
 62
     7
176
     1
 62
   257
176
     1
 90
        1
176
     1
 90
        1
176
     1
 40
1.0
176
     1
 90
        8
176
     1
 62
     7
176
     1
 40
1.0
176
     1
 90
        1
176
     1
 90
        6
176
     1
 90
        2
176
     1
 62
     7
176
     1
 90
        5
176
     1
 90
        0
176
     1
 90
        0
176
     1
290
     0
176
     1
 90
       13
176
     1
 40
0.0
176
     1
 90
        0
176
     1
290
     0
176
     1
290
     1
176
     1
290
     1
176
     1
290
     0
176
     1
290
     0
176
     1
290
     0
176
     1
290
     0
176
     1
290
     0
176
     1
290
     0
176
     1
 90
       50
176
     1
 40
0.0
176
     1
 40
1.0
176
     1
 90
        0
176
     1
 62
    18
420
        0
176
     1
 90
       50
176
     1
 90
        3
176
     1
 62
     5
420
      255
176
     1
290
     0
176
     1
 90
       50
176
     1
 90
       50
176
     1
 90
       50
176
     1
290
     0
176
     1
 90
       50
176
     1
 62
   256
176
     0
 40
1.0
176
     0
 90
        2
176
     1
  1
strokes_ogs.tif
176
     1
290
     0
176
     1
 40
1.0
176
     1
 40
1.0
176
     1
  0
VISUALSTYLE
  5
50C
102
{ACAD_REACTORS
330
50A
102
}
330
50A
100
AcDbVisualStyle
  2
FlatWithEdges
 70
     1
177
     3
291
     1
 70
    58
 90
        2
176
     1
 90
        1
176
     1
 90
        1
176
     1
 90
        2
176
     1
 40
0.6
176
     1
 40
30.0
176
     1
 62
     7
420
 16777215
176
     1
 90
        1
176
     1
 90
        0
176
     1
 62
     7
176
     1
 62
   257
176
     1
 90
        1
176
     1
 90
        1
176
     1
 40
1.0
176
     1
 90
        0
176
     1
 62
   257
176
     1
 40
1.0
176
     1
 90
        1
176
     1
 90
        6
176
     1
 90
        2
176
     1
 62
     7
176
     1
 90
        5
176
     1
 90
        0
176
     1
 90
        0
176
     1
290
     0
176
     1
 90
       13
176
     1
 40
0.0
176
     1
 90
        0
176
     1
290
     0
176
     1
290
     1
176
     1
290
     1
176
     1
290
     0
176
     1
290
     0
176
     1
290
     0
176
     1
290
     0
176
     1
290
     0
176
     1
290
     0
176
     1
 90
       50
176
     1
 40
0.0
176
     1
 40
1.0
176
     1
 90
        0
176
     1
 62
    18
420
        0
176
     1
 90
       50
176
     1
 90
        3
176
     1
 62
     5
420
      255
176
     1
290
     0
176
     1
 90
       50
176
     1
 90
       50
176
     1
 90
       50
176
     1
290
     0
176
     1
 90
       50
176
     1
 62
   256
176
     0
 40
1.0
176
     0
 90
        2
176
     1
  1
strokes_ogs.tif
176
     1
290
     0
176
     1
 40
1.0
176
     1
 40
1.0
176
     1
  0
VISUALSTYLE
  5
50D
102
{ACAD_REACTORS
330
50A
102
}
330
50A
100
AcDbVisualStyle
  2
Gouraud
 70
     2
177
     3
291
     1
 70
    58
 90
        2
176
     1
 90
        2
176
     1
 90
        1
176
     1
 90
        2
176
     1
 40
0.6
176
     1
 40
30.0
176
     1
 62
     7
420
 16777215
176
     1
 90
        0
176
     1
 90
        0
176
     1
 62
     7
176
     1
 62
   257
176
     1
 90
        1
176
     1
 90
        1
176
     1
 40
1.0
176
     1
 90
        0
176
     1
 62
     7
176
     1
 40
1.0
176
     1
 90
        1
176
     1
 90
        6
176
     1
 90
        2
176
     1
 62
     7
176
     1
 90
        5
176
     1
 90
        0
176
     1
 90
        0
176
     1
290
     0
176
     1
 90
       13
176
     1
 40
0.0
176
     1
 90
        0
176
     1
290
     0
176
     1
290
     1
176
     1
290
     1
176
     1
290
     0
176
     1
290
     0
176
     1
290
     0
176
     1
290
     0
176
     1
290
     0
176
     1
290
     0
176
     1
 90
       50
176
     1
 40
0.0
176
     1
 40
1.0
176
     1
 90
        0
176
     1
 62
    18
420
        0
176
     1
 90
       50
176
     1
 90
        3
176
     1
 62
     5
420
      255
176
     1
290
     0
176
     1
 90
       50
176
     1
 90
       50
176
     1
 90
       50
176
     1
290
     0
176
     1
 90
       50
176
     1
 62
   256
176
     0
 40
1.0
176
     0
 90
        2
176
     1
  1
strokes_ogs.tif
176
     1
290
     0
176
     1
 40
1.0
176
     1
 40
1.0
176
     1
  0
VISUALSTYLE
  5
50E
102
{ACAD_REACTORS
330
50A
102
}
330
50A
100
AcDbVisualStyle
  2
GouraudWithEdges
 70
     3
177
     3
291
     1
 70
    58
 90
        2
176
     1
 90
        2
176
     1
 90
        1
176
     1
 90
        2
176
     1
 40
0.6
176
     1
 40
30.0
176
     1
 62
     7
420
 16777215
176
     1
 90
        1
176
     1
 90
        0
176
     1
 62
     7
176
     1
 62
   257
176
     1
 90
        1
176
     1
 90
        1
176
     1
 40
1.0
176
     1
 90
        0
176
     1
 62
   257
176
     1
 40
1.0
176
     1
 90
        1
176
     1
 90
        6
176
     1
 90
        2
176
     1
 62
     7
176
     1
 90
        5
176
     1
 90
        0
176
     1
 90
        0
176
     1
290
     0
176
     1
 90
       13
176
     1
 40
0.0
176
     1
 90
        0
176
     1
290
     0
176
     1
290
     1
176
     1
290
     1
176
     1
290
     0
176
     1
290
     0
176
     1
290
     0
176
     1
290
     0
176
     1
290
     0
176
     1
290
     0
176
     1
 90
       50
176
     1
 40
0.0
176
     1
 40
1.0
176
     1
 90
        0
176
     1
 62
    18
420
        0
176
     1
 90
       50
176
     1
 90
        3
176
     1
 62
     5
420
      255
176
     1
290
     0
176
     1
 90
       50
176
     1
 90
       50
176
     1
 90
       50
176
     1
290
     0
176
     1
 90
       50
176
     1
 62
   256
176
     0
 40
1.0
176
     0
 90
        2
176
     1
  1
strokes_ogs.tif
176
     1
290
     0
176
     1
 40
1.0
176
     1
 40
1.0
176
     1
  0
VISUALSTYLE
  5
512
102
{ACAD_REACTORS
330
50A
102
}
330
50A
100
AcDbVisualStyle
  2
Hidden
 70
     6
177
     3
291
     0
 70
    58
 90
        1
176
     1
 90
        2
176
     1
 90
        2
176
     1
 90
        0
176
     1
 40
0.6
176
     1
 40
30.0
176
     1
 62
     7
420
 16777215
176
     1
 90
        2
176
     1
 90
        2
176
     1
 62
     7
176
     1
 62
   257
176
     1
 90
        2
176
     1
 90
        1
176
     1
 40
40.0
176
     1
 90
        0
176
     1
 62
   257
176
     1
 40
1.0
176
     1
 90
        1
176
     1
 90
        6
176
     1
 90
        2
176
     1
 62
     7
176
     1
 90
        3
176
     1
 90
        0
176
     1
 90
        0
176
     1
290
     0
176
     1
 90
        1
176
     1
 40
0.0
176
     1
 90
        0
176
     1
290
     0
176
     1
290
     1
176
     1
290
     1
176
     1
290
     0
176
     1
290
     0
176
     1
290
     0
176
     1
290
     0
176
     1
290
     0
176
     1
290
     0
176
     1
 90
       50
176
     1
 40
0.0
176
     1
 40
1.0
176
     1
 90
        0
176
     1
 62
    18
420
        0
176
     1
 90
       50
176
     1
 90
        3
176
     1
 62
     5
420
      255
176
     1
290
     0
176
     1
 90
       50
176
     1
 90
       50
176
     1
 90
       50
176
     1
290
     0
176
     1
 90
       50
176
     1
 62
   256
176
     0
 40
1.0
176
     0
 90
        2
176
     1
  1
strokes_ogs.tif
176
     1
290
     0
176
     1
 40
1.0
176
     1
 40
1.0
176
     1
  0
VISUALSTYLE
  5
520
102
{ACAD_REACTORS
330
50A
102
}
330
50A
100
AcDbVisualStyle
  2
JitterOff
 70
    20
177
     3
291
     1
 70
    58
 90
        2
176
     0
 90
        2
176
     0
 90
        0
176
     0
 90
        0
176
     0
 40
0.6
176
     0
 40
30.0
176
     0
 62
     7
420
 16777215
176
     0
 90
        1
176
     0
 90
        4
176
     0
 62
     7
176
     0
 62
   257
176
     0
 90
        1
176
     0
 90
        1
176
     0
 40
1.0
176
     0
 90
       10
176
     2
 62
     7
176
     0
 40
1.0
176
     0
 90
        1
176
     0
 90
        6
176
     0
 90
        2
176
     0
 62
     7
176
     0
 90
        5
176
     0
 90
        0
176
     0
 90
        0
176
     0
290
     0
176
     0
 90
        1
176
     0
 40
0.0
176
     0
 90
        0
176
     0
290
     0
176
     1
290
     1
176
     1
290
     1
176
     1
290
     0
176
     1
290
     0
176
     1
290
     0
176
     1
290
     0
176
     1
290
     0
176
     1
290
     0
176
     1
 90
       50
176
     0
 40
0.0
176
     0
 40
1.0
176
     0
 90
        0
176
     0
 62
    18
420
        0
176
     0
 90
       50
176
     0
 90
        3
176
     0
 62
     5
420
      255
176
     0
290
     0
176
     1
 90
       50
176
     0
 90
       50
176
     0
 90
       50
176
     0
290
     0
176
     1
 90
       50
176
     0
 62
   256
176
     0
 40
1.0
176
     0
 90
        2
176
     0
  1
strokes_ogs.tif
176
     0
290
     0
176
     1
 40
1.0
176
     0
 40
1.0
176
     0
  0
VISUALSTYLE
  5
518
102
{ACAD_REACTORS
330
50A
102
}
330
50A
100
AcDbVisualStyle
  2
Linepattern
 70
    14
177
     3
291
     1
 70
    58
 90
        2
176
     1
 90
        2
176
     1
 90
        0
176
     1
 90
        0
176
     1
 40
0.6
176
     1
 40
30.0
176
     1
 62
     7
420
 16777215
176
     1
 90
        1
176
     1
 90
        4
176
     1
 62
     7
176
     1
 62
   257
176
     1
 90
        7
176
     1
 90
        7
176
     1
 40
1.0
176
     1
 90
        8
176
     1
 62
     7
176
     1
 40
1.0
176
     1
 90
        1
176
     1
 90
        6
176
     1
 90
        2
176
     1
 62
     7
176
     1
 90
        5
176
     1
 90
        0
176
     1
 90
        0
176
     1
290
     0
176
     1
 90
        1
176
     1
 40
0.0
176
     1
 90
        0
176
     1
290
     0
176
     1
290
     1
176
     1
290
     1
176
     1
290
     0
176
     1
290
     0
176
     1
290
     0
176
     1
290
     0
176
     1
290
     0
176
     1
290
     0
176
     1
 90
       50
176
     1
 40
0.0
176
     1
 40
1.0
176
     1
 90
        0
176
     1
 62
    18
420
        0
176
     1
 90
       50
176
     1
 90
        3
176
     1
 62
     5
420
      255
176
     1
290
     0
176
     1
 90
       50
176
     1
 90
       50
176
     1
 90
       50
176
     1
290
     0
176
     1
 90
       50
176
     1
 62
   256
176
     0
 40
1.0
176
     0
 90
        2
176
     1
  1
strokes_ogs.tif
176
     1
290
     0
176
     1
 40
1.0
176
     1
 40
1.0
176
     1
  0
VISUALSTYLE
  5
521
102
{ACAD_REACTORS
330
50A
102
}
330
50A
100
AcDbVisualStyle
  2
OverhangOff
 70
    21
177
     3
291
     1
 70
    58
 90
        2
176
     0
 90
        2
176
     0
 90
        0
176
     0
 90
        0
176
     0
 40
0.6
176
     0
 40
30.0
176
     0
 62
     7
420
 16777215
176
     0
 90
        1
176
     0
 90
        4
176
     0
 62
     7
176
     0
 62
   257
176
     0
 90
        1
176
     0
 90
        1
176
     0
 40
1.0
176
     0
 90
        9
176
     2
 62
     7
176
     0
 40
1.0
176
     0
 90
        1
176
     0
 90
        6
176
     0
 90
        2
176
     0
 62
     7
176
     0
 90
        5
176
     0
 90
        0
176
     0
 90
        0
176
     0
290
     0
176
     0
 90
        1
176
     0
 40
0.0
176
     0
 90
        0
176
     0
290
     0
176
     1
290
     1
176
     1
290
     1
176
     1
290
     0
176
     1
290
     0
176
     1
290
     0
176
     1
290
     0
176
     1
290
     0
176
     1
290
     0
176
     1
 90
       50
176
     0
 40
0.0
176
     0
 40
1.0
176
     0
 90
        0
176
     0
 62
    18
420
        0
176
     0
 90
       50
176
     0
 90
        3
176
     0
 62
     5
420
      255
176
     0
290
     0
176
     1
 90
       50
176
     0
 90
       50
176
     0
 90
       50
176
     0
290
     0
176
     1
 90
       50
176
     0
 62
   256
176
     0
 40
1.0
176
     0
 90
        2
176
     0
  1
strokes_ogs.tif
176
     0
290
     0
176
     1
 40
1.0
176
     0
 40
1.0
176
     0
  0
VISUALSTYLE
  5
514
102
{ACAD_REACTORS
330
50A
102
}
330
50A
100
AcDbVisualStyle
  2
Realistic
 70
     8
177
     3
291
     0
 70
    58
 90
        2
176
     1
 90
        2
176
     1
 90
        0
176
     1
 90
        2
176
     1
 40
0.6
176
     1
 40
30.0
176
     1
 62
     7
420
 16777215
176
     1
 90
        0
176
     1
 90
        0
176
     1
 62
     7
176
     1
 62
   257
176
     1
 90
        1
176
     1
 90
        1
176
     1
 40
1.0
176
     1
 90
        8
176
     1
 62
   257
176
     1
 40
1.0
176
     1
 90
        1
176
     1
 90
        6
176
     1
 90
        2
176
     1
 62
     7
176
     1
 90
        3
176
     1
 90
        0
176
     1
 90
        0
176
     1
290
     0
176
     1
 90
       13
176
     1
 40
0.0
176
     1
 90
        0
176
     1
290
     0
176
     1
290
     1
176
     1
290
     1
176
     1
290
     0
176
     1
290
     0
176
     1
290
     0
176
     1
290
     0
176
     1
290
     0
176
     1
290
     0
176
     1
 90
       50
176
     1
 40
0.0
176
     1
 40
1.0
176
     1
 90
        0
176
     1
 62
    18
420
        0
176
     1
 90
       50
176
     1
 90
        3
176
     1
 62
     5
420
      255
176
     1
290
     0
176
     1
 90
       50
176
     1
 90
       50
176
     1
 90
       50
176
     1
290
     0
176
     1
 90
       50
176
     1
 62
   256
176
     0
 40
1.0
176
     0
 90
        2
176
     1
  1
strokes_ogs.tif
176
     1
290
     0
176
     1
 40
1.0
176
     1
 40
1.0
176
     1
  0
VISUALSTYLE
  5
51F
102
{ACAD_REACTORS
330
50A
102
}
330
50A
100
AcDbVisualStyle
  2
Shaded
 70
    27
177
     3
291
     0
 70
    58
 90
        2
176
     1
 90
        2
176
     1
 90
        1
176
     1
 90
        2
176
     1
 40
0.6
176
     1
 40
30.0
176
     1
 62
     7
420
 16777215
176
     1
 90
        0
176
     1
 90
        4
176
     1
 62
     7
176
     1
 62
   257
176
     1
 90
        1
176
     1
 90
        1
176
     1
 40
1.0
176
     1
 90
        8
176
     1
 62
   257
176
     1
 40
1.0
176
     1
 90
        1
176
     1
 90
        6
176
     1
 90
        2
176
     1
 62
     8
420
  7895160
176
     1
 90
        3
176
     1
 90
        0
176
     1
 90
        0
176
     1
290
     0
176
     1
 90
        5
176
     1
 40
0.0
176
     1
 90
        0
176
     1
290
     0
176
     1
290
     1
176
     1
290
     1
176
     1
290
     0
176
     1
290
     0
176
     1
290
     0
176
     1
290
     0
176
     1
290
     0
176
     1
290
     0
176
     1
 90
       50
176
     1
 40
0.0
176
     1
 40
1.0
176
     1
 90
        0
176
     1
 62
    18
420
        0
176
     1
 90
       50
176
     1
 90
        3
176
     1
 62
     5
420
      255
176
     1
290
     0
176
     1
 90
       50
176
     1
 90
       50
176
     1
 90
       50
176
     1
290
     0
176
     1
 90
       50
176
     1
 62
   256
176
     0
 40
1.0
176
     0
 90
        2
176
     1
  1
strokes_ogs.tif
176
     1
290
     0
176
     1
 40
1.0
176
     1
 40
1.0
176
     1
  0
VISUALSTYLE
  5
51E
102
{ACAD_REACTORS
330
50A
102
}
330
50A
100
AcDbVisualStyle
  2
Shaded with edges
 70
    26
177
     3
291
     0
 70
    58
 90
        2
176
     1
 90
        2
176
     1
 90
        1
176
     1
 90
        2
176
     1
 40
0.6
176
     1
 40
30.0
176
     1
 62
     7
420
 16777215
176
     1
 90
        1
176
     1
 90
       10
176
     1
 62
     7
176
     1
 62
   257
176
     1
 90
        2
176
     1
 90
        1
176
     1
 40
1.0
176
     1
 90
        8
176
     1
 62
   257
176
     1
 40
1.0
176
     1
 90
        1
176
     1
 90
        6
176
     1
 90
        2
176
     1
 62
     7
176
     1
 90
        3
176
     1
 90
        0
176
     1
 90
        0
176
     1
290
     0
176
     1
 90
        5
176
     1
 40
0.0
176
     1
 90
        0
176
     1
290
     0
176
     1
290
     1
176
     1
290
     1
176
     1
290
     0
176
     1
290
     0
176
     1
290
     0
176
     1
290
     0
176
     1
290
     0
176
     1
290
     0
176
     1
 90
       50
176
     1
 40
0.0
176
     1
 40
1.0
176
     1
 90
        0
176
     1
 62
    18
420
        0
176
     1
 90
       50
176
     1
 90
        3
176
     1
 62
     5
420
      255
176
     1
290
     0
176
     1
 90
       50
176
     1
 90
       50
176
     1
 90
       50
176
     1
290
     0
176
     1
 90
       50
176
     1
 62
   256
176
     0
 40
1.0
176
     0
 90
        2
176
     1
  1
strokes_ogs.tif
176
     1
290
     0
176
     1
 40
1.0
176
     1
 40
1.0
176
     1
  0
VISUALSTYLE
  5
51B
102
{ACAD_REACTORS
330
50A
102
}
330
50A
100
AcDbVisualStyle
  2
Shades of Gray
 70
    23
177
     3
291
     0
 70
    58
 90
        2
176
     1
 90
        2
176
     1
 90
        3
176
     1
 90
        0
176
     1
 40
0.6
176
     1
 40
30.0
176
     1
 62
     7
420
 16777215
176
     1
 90
        2
176
     1
 90
        2
176
     1
 62
     7
176
     1
 62
     7
176
     1
 90
        1
176
     1
 90
        1
176
     1
 40
40.0
176
     1
 90
        8
176
     1
 62
     7
176
     1
 40
1.0
176
     1
 90
        1
176
     1
 90
        6
176
     1
 90
        2
176
     1
 62
     7
176
     1
 90
        3
176
     1
 90
        0
176
     1
 90
        0
176
     1
290
     0
176
     1
 90
        1
176
     1
 40
0.0
176
     1
 90
        0
176
     1
290
     0
176
     1
290
     1
176
     1
290
     1
176
     1
290
     0
176
     1
290
     0
176
     1
290
     0
176
     1
290
     0
176
     1
290
     0
176
     1
290
     0
176
     1
 90
       50
176
     1
 40
0.0
176
     1
 40
1.0
176
     1
 90
        0
176
     1
 62
    18
420
        0
176
     1
 90
       50
176
     1
 90
        3
176
     1
 62
     5
420
      255
176
     1
290
     0
176
     1
 90
       50
176
     1
 90
       50
176
     1
 90
       50
176
     1
290
     0
176
     1
 90
       50
176
     1
 62
   256
176
     0
 40
1.0
176
     0
 90
        2
176
     1
  1
strokes_ogs.tif
176
     1
290
     0
176
     1
 40
1.0
176
     1
 40
1.0
176
     1
  0
VISUALSTYLE
  5
51C
102
{ACAD_REACTORS
330
50A
102
}
330
50A
100
AcDbVisualStyle
  2
Sketchy
 70
    24
177
     3
291
     0
 70
    58
 90
        1
176
     1
 90
        2
176
     1
 90
        2
176
     1
 90
        0
176
     1
 40
0.6
176
     1
 40
30.0
176
     1
 62
     7
420
 16777215
176
     1
 90
        2
176
     1
 90
        2
176
     1
 62
     7
176
     1
 62
     7
176
     1
 90
        1
176
     1
 90
        1
176
     1
 40
40.0
176
     1
 90
       11
176
     1
 62
     7
176
     1
 40
1.0
176
     1
 90
        1
176
     1
 90
        6
176
     1
 90
        2
176
     1
 62
     7
176
     1
 90
        6
176
     1
 90
        0
176
     1
 90
        0
176
     1
290
     0
176
     1
 90
        1
176
     1
 40
0.0
176
     1
 90
        0
176
     1
290
     0
176
     1
290
     1
176
     1
290
     1
176
     1
290
     0
176
     1
290
     0
176
     1
290
     0
176
     1
290
     0
176
     1
290
     0
176
     1
290
     0
176
     1
 90
       50
176
     1
 40
0.0
176
     1
 40
1.0
176
     1
 90
        0
176
     1
 62
    18
420
        0
176
     1
 90
       50
176
     1
 90
        3
176
     1
 62
     5
420
      255
176
     1
290
     0
176
     1
 90
       50
176
     1
 90
       50
176
     1
 90
       50
176
     1
290
     0
176
     1
 90
       50
176
     1
 62
   256
176
     0
 40
1.0
176
     0
 90
        2
176
     1
  1
strokes_ogs.tif
176
     1
290
     0
176
     1
 40
1.0
176
     1
 40
1.0
176
     1
  0
VISUALSTYLE
  5
517
102
{ACAD_REACTORS
330
50A
102
}
330
50A
100
AcDbVisualStyle
  2
Thicken
 70
    13
177
     3
291
     1
 70
    58
 90
        2
176
     1
 90
        2
176
     1
 90
        0
176
     1
 90
        0
176
     1
 40
0.6
176
     1
 40
30.0
176
     1
 62
     7
420
 16777215
176
     1
 90
        1
176
     1
 90
        4
176
     1
 62
     7
176
     1
 62
   257
176
     1
 90
        1
176
     1
 90
        1
176
     1
 40
1.0
176
     1
 90
       12
176
     1
 62
     7
176
     1
 40
1.0
176
     1
 90
        1
176
     1
 90
        6
176
     1
 90
        2
176
     1
 62
     7
176
     1
 90
        5
176
     1
 90
        0
176
     1
 90
        0
176
     1
290
     0
176
     1
 90
        1
176
     1
 40
0.0
176
     1
 90
        0
176
     1
290
     0
176
     1
290
     1
176
     1
290
     1
176
     1
290
     0
176
     1
290
     0
176
     1
290
     0
176
     1
290
     0
176
     1
290
     0
176
     1
290
     0
176
     1
 90
       50
176
     1
 40
0.0
176
     1
 40
1.0
176
     1
 90
        0
176
     1
 62
    18
420
        0
176
     1
 90
       50
176
     1
 90
        3
176
     1
 62
     5
420
      255
176
     1
290
     0
176
     1
 90
       50
176
     1
 90
       50
176
     1
 90
       50
176
     1
290
     0
176
     1
 90
       50
176
     1
 62
   256
176
     0
 40
1.0
176
     0
 90
        2
176
     1
  1
strokes_ogs.tif
176
     1
290
     0
176
     1
 40
1.0
176
     1
 40
1.0
176
     1
  0
VISUALSTYLE
  5
511
102
{ACAD_REACTORS
330
50A
102
}
330
50A
100
AcDbVisualStyle
  2
Wireframe
 70
     5
177
     3
291
     0
 70
    58
 90
        0
176
     1
 90
        2
176
     1
 90
        0
176
     1
 90
        0
176
     1
 40
0.6
176
     1
 40
30.0
176
     1
 62
     7
420
 16777215
176
     1
 90
        1
176
     1
 90
        4
176
     1
 62
     7
176
     1
 62
   257
176
     1
 90
        1
176
     1
 90
        1
176
     1
 40
1.0
176
     1
 90
        0
176
     1
 62
   257
176
     1
 40
1.0
176
     1
 90
        1
176
     1
 90
        6
176
     1
 90
        2
176
     1
 62
     7
176
     1
 90
        3
176
     1
 90
        0
176
     1
 90
        0
176
     1
290
     0
176
     1
 90
        1
176
     1
 40
0.0
176
     1
 90
        0
176
     1
290
     0
176
     1
290
     1
176
     1
290
     1
176
     1
290
     0
176
     1
290
     0
176
     1
290
     0
176
     1
290
     0
176
     1
290
     0
176
     1
290
     0
176
     1
 90
       50
176
     1
 40
0.0
176
     1
 40
1.0
176
     1
 90
        0
176
     1
 62
    18
420
        0
176
     1
 90
       50
176
     1
 90
        3
176
     1
 62
     5
420
      255
176
     1
290
     0
176
     1
 90
       50
176
     1
 90
       50
176
     1
 90
       50
176
     1
290
     0
176
     1
 90
       50
176
     1
 62
   256
176
     0
 40
1.0
176
     0
 90
        2
176
     1
  1
strokes_ogs.tif
176
     1
290
     0
176
     1
 40
1.0
176
     1
 40
1.0
176
     1
  0
VISUALSTYLE
  5
51D
102
{ACAD_REACTORS
330
50A
102
}
330
50A
100
AcDbVisualStyle
  2
X-Ray
 70
    25
177
     3
291
     0
 70
    58
 90
        2
176
     1
 90
        2
176
     1
 90
        1
176
     1
 90
        1
176
     1
 40
0.5
176
     1
 40
30.0
176
     1
 62
     7
420
 16777215
176
     1
 90
        1
176
     1
 90
        0
176
     1
 62
     7
176
     1
 62
   257
176
     1
 90
        1
176
     1
 90
        1
176
     1
 40
1.0
176
     1
 90
        8
176
     1
 62
     7
176
     1
 40
1.0
176
     1
 90
        1
176
     1
 90
        6
176
     1
 90
        2
176
     1
 62
     7
176
     1
 90
        3
176
     1
 90
        0
176
     1
 90
        0
176
     1
290
     0
176
     1
 90
       13
176
     1
 40
0.0
176
     1
 90
        0
176
     1
290
     0
176
     1
290
     1
176
     1
290
     1
176
     1
290
     0
176
     1
290
     0
176
     1
290
     0
176
     1
290
     0
176
     1
290
     0
176
     1
290
     0
176
     1
 90
       50
176
     1
 40
0.0
176
     1
 40
1.0
176
     1
 90
        0
176
     1
 62
    18
420
        0
176
     1
 90
       50
176
     1
 90
        3
176
     1
 62
     5
420
      255
176
     1
290
     0
176
     1
 90
       50
176
     1
 90
       50
176
     1
 90
       50
176
     1
290
     0
176
     1
 90
       50
176
     1
 62
   256
176
     0
 40
1.0
176
     0
 90
        2
176
     1
  1
strokes_ogs.tif
176
     1
290
     0
176
     1
 40
1.0
176
     1
 40
1.0
176
     1
  0
DICTIONARYVAR
  5
7C3
102
{ACAD_REACTORS
330
66
102
}
330
66
100
DictionaryVariables
280
     0
  1
1:1
  0
DICTIONARYVAR
  5
7C0
102
{ACAD_REACTORS
330
66
102
}
330
66
100
DictionaryVariables
280
     0
  1
STANDARD
  0
DICTIONARYVAR
  5
7BF
102
{ACAD_REACTORS
330
66
102
}
330
66
100
DictionaryVariables
280
     0
  1
STANDARD
  0
DICTIONARYVAR
  5
7C1
102
{ACAD_REACTORS
330
66
102
}
330
66
100
DictionaryVariables
280
     0
  1
Imperial24
  0
DICTIONARYVAR
  5
7C2
102
{ACAD_REACTORS
330
66
102
}
330
66
100
DictionaryVariables
280
     0
  1
Imperial24
  0
DICTIONARYVAR
  5
67
102
{ACAD_REACTORS
330
66
102
}
330
66
100
DictionaryVariables
280
     0
  1
2
  0
DICTIONARYVAR
  5
6B
102
{ACAD_REACTORS
330
66
102
}
330
66
100
DictionaryVariables
280
     0
  1
1
  0
DICTIONARYVAR
  5
877
102
{ACAD_REACTORS
330
66
102
}
330
66
100
DictionaryVariables
280
     0
  1
1
  0
DICTIONARYVAR
  5
878
102
{ACAD_REACTORS
330
66
102
}
330
66
100
DictionaryVariables
280
     0
  1
15
  0
DICTIONARYVAR
  5
876
102
{ACAD_REACTORS
330
66
102
}
330
66
100
DictionaryVariables
280
     0
  1
0
  0
DICTIONARYVAR
  5
875
102
{ACAD_REACTORS
330
66
102
}
330
66
100
DictionaryVariables
280
     0
  1
0
  0
DICTIONARYVAR
  5
4D8
102
{ACAD_REACTORS
330
66
102
}
330
66
100
DictionaryVariables
280
     0
  1

  0
DICTIONARY
  5
87C
330
53C
100
AcDbDictionary
280
     1
281
     1
  3
ACAD_XREC_ROUNDTRIP
360
87D
  0
DICTIONARY
  5
4FB
330
4FA
100
AcDbDictionary
280
     1
281
     1
  3
BUMPTILE
360
4FD
  3
DIFFUSETILE
360
4FC
  3
OPACITYTILE
360
500
  3
REFLECTIONTILE
360
4FF
  3
REFRACTIONTILE
360
501
  3
SPECULARTILE
360
4FE
  0
DICTIONARY
  5
4F3
330
4F2
100
AcDbDictionary
280
     1
281
     1
  3
BUMPTILE
360
4F5
  3
DIFFUSETILE
360
4F4
  3
OPACITYTILE
360
4F8
  3
REFLECTIONTILE
360
4F7
  3
REFRACTIONTILE
360
4F9
  3
SPECULARTILE
360
4F6
  0
DICTIONARY
  5
503
330
502
100
AcDbDictionary
280
     1
281
     1
  3
BUMPTILE
360
505
  3
DIFFUSETILE
360
504
  3
OPACITYTILE
360
508
  3
REFLECTIONTILE
360
507
  3
REFRACTIONTILE
360
509
  3
SPECULARTILE
360
506
  0
DICTIONARY
  5
87A
330
53A
100
AcDbDictionary
280
     1
281
     1
  3
ACAD_XREC_ROUNDTRIP
360
87B
  0
DICTIONARY
  5
772
330
524
100
AcDbDictionary
280
     1
281
     1
  3
ACAD_ROUNDTRIP_2008_TABLESTYLE_CELLSTYLEMAP
360
879
  0
XRECORD
  5
87D
102
{ACAD_REACTORS
330
87C
102
}
330
87C
100
AcDbXrecord
280
     1
102
DISPLAYNAME
  1
Imperial24
102
FLAGS
 90
        0
  0
XRECORD
  5
4FD
102
{ACAD_REACTORS
330
4FB
102
}
330
4FB
100
AcDbXrecord
280
     1
270
     1
271
     1
  0
XRECORD
  5
4FC
102
{ACAD_REACTORS
330
4FB
102
}
330
4FB
100
AcDbXrecord
280
     1
270
     1
271
     1
  0
XRECORD
  5
500
102
{ACAD_REACTORS
330
4FB
102
}
330
4FB
100
AcDbXrecord
280
     1
270
     1
271
     1
  0
XRECORD
  5
4FF
102
{ACAD_REACTORS
330
4FB
102
}
330
4FB
100
AcDbXrecord
280
     1
270
     1
271
     1
  0
XRECORD
  5
501
102
{ACAD_REACTORS
330
4FB
102
}
330
4FB
100
AcDbXrecord
280
     1
270
     1
271
     1
  0
XRECORD
  5
4FE
102
{ACAD_REACTORS
330
4FB
102
}
330
4FB
100
AcDbXrecord
280
     1
270
     1
271
     1
  0
XRECORD
  5
4F5
102
{ACAD_REACTORS
330
4F3
102
}
330
4F3
100
AcDbXrecord
280
     1
270
     1
271
     1
  0
XRECORD
  5
4F4
102
{ACAD_REACTORS
330
4F3
102
}
330
4F3
100
AcDbXrecord
280
     1
270
     1
271
     1
  0
XRECORD
  5
4F8
102
{ACAD_REACTORS
330
4F3
102
}
330
4F3
100
AcDbXrecord
280
     1
270
     1
271
     1
  0
XRECORD
  5
4F7
102
{ACAD_REACTORS
330
4F3
102
}
330
4F3
100
AcDbXrecord
280
     1
270
     1
271
     1
  0
XRECORD
  5
4F9
102
{ACAD_REACTORS
330
4F3
102
}
330
4F3
100
AcDbXrecord
280
     1
270
     1
271
     1
  0
XRECORD
  5
4F6
102
{ACAD_REACTORS
330
4F3
102
}
330
4F3
100
AcDbXrecord
280
     1
270
     1
271
     1
  0
XRECORD
  5
505
102
{ACAD_REACTORS
330
503
102
}
330
503
100
AcDbXrecord
280
     1
270
     1
271
     1
  0
XRECORD
  5
504
102
{ACAD_REACTORS
330
503
102
}
330
503
100
AcDbXrecord
280
     1
270
     1
271
     1
  0
XRECORD
  5
508
102
{ACAD_REACTORS
330
503
102
}
330
503
100
AcDbXrecord
280
     1
270
     1
271
     1
  0
XRECORD
  5
507
102
{ACAD_REACTORS
330
503
102
}
330
503
100
AcDbXrecord
280
     1
270
     1
271
     1
  0
XRECORD
  5
509
102
{ACAD_REACTORS
330
503
102
}
330
503
100
AcDbXrecord
280
     1
270
     1
271
     1
  0
XRECORD
  5
506
102
{ACAD_REACTORS
330
503
102
}
330
503
100
AcDbXrecord
280
     1
270
     1
271
     1
  0
XRECORD
  5
87B
102
{ACAD_REACTORS
330
87A
102
}
330
87A
100
AcDbXrecord
280
     1
102
DISPLAYNAME
  1
Imperial24
102
FLAGS
 90
        0
  0
CELLSTYLEMAP
  5
879
102
{ACAD_REACTORS
330
772
102
}
330
772
100
AcDbCellStyleMap
 90
        3
300
CELLSTYLE
  1
TABLEFORMAT_BEGIN
 90
        5
170
     1
 91
        0
 92
    32768
 62
   257
 93
        1
300
CONTENTFORMAT
  1
CONTENTFORMAT_BEGIN
 90
        0
 91
        0
 92
      512
 93
        0
300

 40
0.0
140
1.0
 94
        5
 62
     0
340
11
144
0.25
309
CONTENTFORMAT_END
171
     0
 94
        0
309
TABLEFORMAT_END
  1
CELLSTYLE_BEGIN
 90
        1
 91
        1
300
_TITLE
309
CELLSTYLE_END
300
CELLSTYLE
  1
TABLEFORMAT_BEGIN
 90
        5
170
     1
 91
        0
 92
        0
 62
   257
 93
        1
300
CONTENTFORMAT
  1
CONTENTFORMAT_BEGIN
 90
        0
 91
        0
 92
      512
 93
        0
300

 40
0.0
140
1.0
 94
        5
 62
     0
340
11
144
0.18
309
CONTENTFORMAT_END
171
     0
 94
        0
309
TABLEFORMAT_END
  1
CELLSTYLE_BEGIN
 90
        2
 91
        1
300
_HEADER
309
CELLSTYLE_END
300
CELLSTYLE
  1
TABLEFORMAT_BEGIN
 90
        5
170
     1
 91
        0
 92
        0
 62
   257
 93
        1
300
CONTENTFORMAT
  1
CONTENTFORMAT_BEGIN
 90
        0
 91
        0
 92
      512
 93
        0
300

 40
0.0
140
1.0
 94
        2
 62
     0
340
11
144
0.18
309
CONTENTFORMAT_END
171
     0
 94
        0
309
TABLEFORMAT_END
  1
CELLSTYLE_BEGIN
 90
        3
 91
        2
300
_DATA
309
CELLSTYLE_END
  0
ENDSEC
  0
SECTION
  2
ACDSDATA
 70
     2
 71
     6
  0
ACDSSCHEMA
 90
        0
  1
AcDb_Thumbnail_Schema
  2
AcDbDs::ID
280
    10
 91
        8
  2
Thumbnail_Data
280
    15
 91
        0
101
ACDSRECORD
 95
        0
 90
        1
  2
AcDbDs::TreatedAsObjectData
280
     1
291
     1
101
ACDSRECORD
 95
        0
 90
        2
  2
AcDbDs::Legacy
280
     1
291
     1
101
ACDSRECORD
  1
AcDbDs::ID
 90
        3
  2
AcDs:Indexable
280
     1
291
     1
101
ACDSRECORD
  1
AcDbDs::ID
 90
        4
  2
AcDbDs::HandleAttribute
280
     7
282
     1
  0
ACDSSCHEMA
 90
        1
  1
AcDbDs::TreatedAsObjectDataSchema
  2
AcDbDs::TreatedAsObjectData
280
     1
 91
        0
  0
ACDSSCHEMA
 90
        2
  1
AcDbDs::LegacySchema
  2
AcDbDs::Legacy
280
     1
 91
        0
  0
ACDSSCHEMA
 90
        3
  1
AcDbDs::IndexedPropertySchema
  2
AcDs:Indexable
280
     1
 91
        0
  0
ACDSSCHEMA
 90
        4
  1
AcDbDs::HandleAttributeSchema
  2
AcDbDs::HandleAttribute
280
     7
 91
        1
284
     1
  0
ACDSRECORD
 90
        0
  2
AcDbDs::ID
280
    10
320
22
  2
Thumbnail_Data
280
    15
 94
     1351
310
89504E470D0A1A0A0000000D49484452000001000000007E0803000000FCF33F5100000300504C5445000000000000FFFFFF0000000000000000000000000000000000000000000000000000330000660000990000CC0000FF0033000033330033660033990033CC0033FF0066000066330066660066990066CC0066FF0099
310
000099330099660099990099CC0099FF00CC0000CC3300CC6600CC9900CCCC00CCFF00FF0000FF3300FF6600FF9900FFCC00FFFF3300003300333300663300993300CC3300FF3333003333333333663333993333CC3333FF3366003366333366663366993366CC3366FF3399003399333399663399993399CC3399FF33CC00
310
33CC3333CC6633CC9933CCCC33CCFF33FF0033FF3333FF6633FF9933FFCC33FFFF6600006600336600666600996600CC6600FF6633006633336633666633996633CC6633FF6666006666336666666666996666CC6666FF6699006699336699666699996699CC6699FF66CC0066CC3366CC6666CC9966CCCC66CCFF66FF0066
310
FF3366FF6666FF9966FFCC66FFFF9900009900339900669900999900CC9900FF9933009933339933669933999933CC9933FF9966009966339966669966999966CC9966FF9999009999339999669999999999CC9999FF99CC0099CC3399CC6699CC9999CCCC99CCFF99FF0099FF3399FF6699FF9999FFCC99FFFFCC0000CC00
310
33CC0066CC0099CC00CCCC00FFCC3300CC3333CC3366CC3399CC33CCCC33FFCC6600CC6633CC6666CC6699CC66CCCC66FFCC9900CC9933CC9966CC9999CC99CCCC99FFCCCC00CCCC33CCCC66CCCC99CCCCCCCCCCFFCCFF00CCFF33CCFF66CCFF99CCFFCCCCFFFFFF0000FF0033FF0066FF0099FF00CCFF00FFFF3300FF3333
310
FF3366FF3399FF33CCFF33FFFF6600FF6633FF6666FF6699FF66CCFF66FFFF9900FF9933FF9966FF9999FF99CCFF99FFFFCC00FFCC33FFCC66FFCC99FFCCCCFFCCFFFFFF00FFFF33FFFF66FFFF99FFFFCCFFFFFF0000000D0D0D1A1A1A2828283535354343435050505D5D5D6B6B6B787878868686939393A1A1A1AEAEAEBB
310
BBBBC9C9C9D6D6D6E4E4E4F1F1F1FFFFFF000000000000000000000000000000000000000000000000000000000000C11FEF66000002024944415478DAED9DC18EC3200C44E7FFFFD7F75DB545EB1048D82A521BCF9B9EAA54487ED8060C0D124208A1EB1557EB7600BEBC3D007C1C4072EEDF4F3803580A7142A0B4071002
310
EE00EC3C60637A23700CA11480A7D97A38FE6A18D402904C5E0D038641005407106779A31680D8FEE03C0B1603D09B7B9E058B03909F071002BB10000039C078187C7CB79A0A4F01CC82C102C0D1C2B0E86A707D1BE4CE009ECBDED6C5AF7AC03C04541140EC7A5DFF7481FB7B40B26CE401CDE88A004619B03731F9850C92
310
E0F069188D02130007116003C0632608000000000000000000860022E4B21698AE032D001C4F85E50B801CE00160B8DCF302B0EFF2F0F30000000000003005301EF8FD000800007006B0DF1E2B0E206F8FABED971B0198D43E9C3C20B61E10FD61B1C2005E27049401687B22A03480F6EFD0C9299048CE50747738DB964360
310
5B1F09F99C0F1896482241700320599D148DC91AD11C401B1835DC1EB100A083FD210F00EE210000000000000000000000500F407453FCBE2062042017448C000C9FEDAAA100280EA00B015B006FBE35B34208CCAAC24BC6D5CB017F45D0A537A6160410B600DA092173000AB90320047C4781B8B6BDFBE7004B0F48A380DC
310
E601329F07F4FD6E0AC039077C437B0000C0A757838BCDB8DF31925E3F7E3700D75C1473630F781B40956B7600607ED1124208218410420821F4BDFA01AD3191515FDC114F0000000049454E44AE426082
  0
ENDSEC
  0
EOF
