  0
SECTION
  2
HEADER
  9
$ACADVER
  1
AC1018
  9
$ACADMAINTVER
 70
   104
  9
$DWGCODEPAGE
  3
ANSI_1252
  9
$LASTSAVEDBY
  1
Reid
  9
$INSBASE
 10
0.0
 20
0.0
 30
0.0
  9
$EXTMIN
 10
560.519016316353
 20
-221.1048561967405
 30
0.0
  9
$EXTMAX
 10
608.0172946443436
 20
-154.9020388725147
 30
0.0
  9
$LIMMIN
 10
0.0
 20
0.0
  9
$LIMMAX
 10
12.0
 20
9.0
  9
$ORTHOMODE
 70
     1
  9
$REGENMODE
 70
     1
  9
$FILLMODE
 70
     1
  9
$QTEXTMODE
 70
     0
  9
$MIRRTEXT
 70
     0
  9
$LTSCALE
 40
1.0
  9
$ATTMODE
 70
     1
  9
$TEXTSIZE
 40
1.0
  9
$TRACEWID
 40
0.05
  9
$TEXTSTYLE
  7
Standard
  9
$CLAYER
  8
THERMOSTATCVR
  9
$CELTYPE
  6
ByLayer
  9
$CECOLOR
 62
   256
  9
$CELTSCALE
 40
1.0
  9
$DISPSILH
 70
     0
  9
$DIMSCALE
 40
1.0
  9
$DIMASZ
 40
0.75
  9
$DIMEXO
 40
0.3
  9
$DIMDLI
 40
0.38
  9
$DIMRND
 40
0.0
  9
$DIMDLE
 40
0.0
  9
$DIMEXE
 40
0.18
  9
$DIMTP
 40
0.0
  9
$DIMTM
 40
0.0
  9
$DIMTXT
 40
0.75
  9
$DIMCEN
 40
0.09
  9
$DIMTSZ
 40
0.0
  9
$DIMTOL
 70
     0
  9
$DIMLIM
 70
     0
  9
$DIMTIH
 70
     1
  9
$DIMTOH
 70
     1
  9
$DIMSE1
 70
     0
  9
$DIMSE2
 70
     0
  9
$DIMTAD
 70
     0
  9
$DIMZIN
 70
     0
  9
$DIMBLK
  1

  9
$DIMASO
 70
     1
  9
$DIMSHO
 70
     1
  9
$DIMPOST
  1

  9
$DIMAPOST
  1

  9
$DIMALT
 70
     0
  9
$DIMALTD
 70
     2
  9
$DIMALTF
 40
25.4
  9
$DIMLFAC
 40
1.0
  9
$DIMTOFL
 70
     0
  9
$DIMTVP
 40
0.0
  9
$DIMTIX
 70
     0
  9
$DIMSOXD
 70
     0
  9
$DIMSAH
 70
     0
  9
$DIMBLK1
  1

  9
$DIMBLK2
  1

  9
$DIMSTYLE
  2
Standard
  9
$DIMCLRD
 70
     0
  9
$DIMCLRE
 70
     0
  9
$DIMCLRT
 70
     0
  9
$DIMTFAC
 40
1.0
  9
$DIMGAP
 40
0.09
  9
$DIMJUST
 70
     0
  9
$DIMSD1
 70
     0
  9
$DIMSD2
 70
     0
  9
$DIMTOLJ
 70
     1
  9
$DIMTZIN
 70
     0
  9
$DIMALTZ
 70
     0
  9
$DIMALTTZ
 70
     0
  9
$DIMUPT
 70
     0
  9
$DIMDEC
 70
     3
  9
$DIMTDEC
 70
     3
  9
$DIMALTU
 70
     2
  9
$DIMALTTD
 70
     2
  9
$DIMTXSTY
  7
Standard
  9
$DIMAUNIT
 70
     0
  9
$DIMADEC
 70
     0
  9
$DIMALTRND
 40
0.0
  9
$DIMAZIN
 70
     0
  9
$DIMDSEP
 70
    46
  9
$DIMATFIT
 70
     2
  9
$DIMFRAC
 70
     0
  9
$DIMLDRBLK
  1

  9
$DIMLUNIT
 70
     2
  9
$DIMLWD
 70
    -2
  9
$DIMLWE
 70
    -2
  9
$DIMTMOVE
 70
     0
  9
$LUNITS
 70
     2
  9
$LUPREC
 70
     4
  9
$SKETCHINC
 40
0.1
  9
$FILLETRAD
 40
0.0
  9
$AUNITS
 70
     0
  9
$AUPREC
 70
     0
  9
$MENU
  1
.
  9
$ELEVATION
 40
0.0
  9
$PELEVATION
 40
0.0
  9
$THICKNESS
 40
0.0
  9
$LIMCHECK
 70
     0
  9
$CHAMFERA
 40
0.0
  9
$CHAMFERB
 40
0.0
  9
$CHAMFERC
 40
0.0
  9
$CHAMFERD
 40
0.0
  9
$SKPOLY
 70
     0
  9
$TDCREATE
 40
2453634.647303958
  9
$TDUCREATE
 40
2453634.855637291
  9
$TDUPDATE
 40
2457772.674883391
  9
$TDUUPDATE
 40
2457772.883216725
  9
$TDINDWG
 40
1.8290991435
  9
$TDUSRTIMER
 40
1.8290985880
  9
$USRTIMER
 70
     1
  9
$ANGBASE
 50
0.0
  9
$ANGDIR
 70
     0
  9
$PDMODE
 70
     0
  9
$PDSIZE
 40
0.0
  9
$PLINEWID
 40
0.0
  9
$SPLFRAME
 70
     0
  9
$SPLINETYPE
 70
     6
  9
$SPLINESEGS
 70
     8
  9
$HANDSEED
  5
BBA8
  9
$SURFTAB1
 70
     6
  9
$SURFTAB2
 70
     6
  9
$SURFTYPE
 70
     6
  9
$SURFU
 70
     6
  9
$SURFV
 70
     6
  9
$UCSBASE
  2

  9
$UCSNAME
  2

  9
$UCSORG
 10
578.13315550162
 20
-201.9151625016796
 30
0.0
  9
$UCSXDIR
 10
1.0
 20
0.0
 30
0.0
  9
$UCSYDIR
 10
0.0
 20
1.0
 30
0.0
  9
$UCSORTHOREF
  2

  9
$UCSORTHOVIEW
 70
     0
  9
$UCSORGTOP
 10
0.0
 20
0.0
 30
0.0
  9
$UCSORGBOTTOM
 10
0.0
 20
0.0
 30
0.0
  9
$UCSORGLEFT
 10
0.0
 20
0.0
 30
0.0
  9
$UCSORGRIGHT
 10
0.0
 20
0.0
 30
0.0
  9
$UCSORGFRONT
 10
0.0
 20
0.0
 30
0.0
  9
$UCSORGBACK
 10
0.0
 20
0.0
 30
0.0
  9
$PUCSBASE
  2

  9
$PUCSNAME
  2

  9
$PUCSORG
 10
0.0
 20
0.0
 30
0.0
  9
$PUCSXDIR
 10
1.0
 20
0.0
 30
0.0
  9
$PUCSYDIR
 10
0.0
 20
1.0
 30
0.0
  9
$PUCSORTHOREF
  2

  9
$PUCSORTHOVIEW
 70
     0
  9
$PUCSORGTOP
 10
0.0
 20
0.0
 30
0.0
  9
$PUCSORGBOTTOM
 10
0.0
 20
0.0
 30
0.0
  9
$PUCSORGLEFT
 10
0.0
 20
0.0
 30
0.0
  9
$PUCSORGRIGHT
 10
0.0
 20
0.0
 30
0.0
  9
$PUCSORGFRONT
 10
0.0
 20
0.0
 30
0.0
  9
$PUCSORGBACK
 10
0.0
 20
0.0
 30
0.0
  9
$USERI1
 70
     0
  9
$USERI2
 70
     0
  9
$USERI3
 70
     0
  9
$USERI4
 70
     0
  9
$USERI5
 70
     0
  9
$USERR1
 40
0.0
  9
$USERR2
 40
0.0
  9
$USERR3
 40
0.0
  9
$USERR4
 40
0.0
  9
$USERR5
 40
0.0
  9
$WORLDVIEW
 70
     1
  9
$SHADEDGE
 70
     3
  9
$SHADEDIF
 70
    70
  9
$TILEMODE
 70
     1
  9
$MAXACTVP
 70
    64
  9
$PINSBASE
 10
0.0
 20
0.0
 30
0.0
  9
$PLIMCHECK
 70
     0
  9
$PEXTMIN
 10
0.0
 20
0.0
 30
0.0
  9
$PEXTMAX
 10
0.0
 20
0.0
 30
0.0
  9
$PLIMMIN
 10
0.0
 20
0.0
  9
$PLIMMAX
 10
12.0
 20
9.0
  9
$UNITMODE
 70
     0
  9
$VISRETAIN
 70
     1
  9
$PLINEGEN
 70
     0
  9
$PSLTSCALE
 70
     1
  9
$TREEDEPTH
 70
  3020
  9
$CMLSTYLE
  2
Standard
  9
$CMLJUST
 70
     0
  9
$CMLSCALE
 40
1.0
  9
$PROXYGRAPHICS
 70
     1
  9
$MEASUREMENT
 70
     0
  9
$CELWEIGHT
370
    -1
  9
$ENDCAPS
280
     0
  9
$JOINSTYLE
280
     0
  9
$LWDISPLAY
290
     0
  9
$INSUNITS
 70
     1
  9
$HYPERLINKBASE
  1

  9
$STYLESHEET
  1
MONOCHROME.CTB
  9
$XEDIT
290
     1
  9
$CEPSNTYPE
380
     0
  9
$PSTYLEMODE
290
     1
  9
$FINGERPRINTGUID
  2
{FDEAD576-A652-11D2-9A35-0060089B3A3F}
  9
$VERSIONGUID
  2
{3CE952BA-D56B-4AAC-99D0-327006F06159}
  9
$EXTNAMES
290
     1
  9
$PSVPSCALE
 40
0.0
  9
$OLESTARTUP
290
     0
  9
$SORTENTS
280
   127
  9
$INDEXCTL
280
     0
  9
$HIDETEXT
280
     1
  9
$XCLIPFRAME
290
     0
  9
$HALOGAP
280
     0
  9
$OBSCOLOR
 70
   257
  9
$OBSLTYPE
280
     0
  9
$INTERSECTIONDISPLAY
280
     0
  9
$INTERSECTIONCOLOR
 70
   257
  9
$DIMASSOC
280
     2
  9
$PROJECTNAME
  1

  0
ENDSEC
  0
SECTION
  2
CLASSES
  0
CLASS
  1
ACDBDICTIONARYWDFLT
  2
AcDbDictionaryWithDefault
  3
ObjectDBX Classes
 90
        0
 91
        1
280
     0
281
     0
  0
CLASS
  1
DICTIONARYVAR
  2
AcDbDictionaryVar
  3
ObjectDBX Classes
 90
        0
 91
       12
280
     0
281
     0
  0
CLASS
  1
DIMASSOC
  2
AcDbDimAssoc
  3
"AcDbDimAssoc|Product Desc:     AcDim ARX App For Dimension|Company:          Autodesk, Inc.|WEB Address:      www.autodesk.com"
 90
        0
 91
       16
280
     0
281
     0
  0
CLASS
  1
SORTENTSTABLE
  2
AcDbSortentsTable
  3
ObjectDBX Classes
 90
        0
 91
        1
280
     0
281
     0
  0
CLASS
  1
MATERIAL
  2
AcDbMaterial
  3
ObjectDBX Classes
 90
     1153
 91
        3
280
     0
281
     0
  0
CLASS
  1
VISUALSTYLE
  2
AcDbVisualStyle
  3
ObjectDBX Classes
 90
     4095
 91
       24
280
     0
281
     0
  0
CLASS
  1
TABLESTYLE
  2
AcDbTableStyle
  3
ObjectDBX Classes
 90
     4095
 91
        1
280
     0
281
     0
  0
CLASS
  1
SCALE
  2
AcDbScale
  3
ObjectDBX Classes
 90
     1153
 91
       17
280
     0
281
     0
  0
CLASS
  1
MLEADERSTYLE
  2
AcDbMLeaderStyle
  3
ACDB_MLEADERSTYLE_CLASS
 90
     4095
 91
        1
280
     0
281
     0
  0
CLASS
  1
ACDBSECTIONVIEWSTYLE
  2
AcDbSectionViewStyle
  3
ObjectDBX Classes
 90
     1025
 91
        1
280
     0
281
     0
  0
CLASS
  1
ACDBDETAILVIEWSTYLE
  2
AcDbDetailViewStyle
  3
ObjectDBX Classes
 90
     1025
 91
        1
280
     0
281
     0
  0
CLASS
  1
EXACXREFPANELOBJECT
  2
ExAcXREFPanelObject
  3
EXAC_ESW
 90
     1025
 91
        2
280
     0
281
     0
  0
CLASS
  1
NPOCOLLECTION
  2
AcDbImpNonPersistentObjectsCollection
  3
ObjectDBX Classes
 90
     1153
 91
        1
280
     0
281
     0
  0
CLASS
  1
CELLSTYLEMAP
  2
AcDbCellStyleMap
  3
ObjectDBX Classes
 90
     1152
 91
        2
280
     0
281
     0
  0
ENDSEC
  0
SECTION
  2
TABLES
  0
TABLE
  2
VPORT
  5
8
102
{ACAD_XDICTIONARY
360
BB28
102
}
330
0
100
AcDbSymbolTable
 70
     1
  0
VPORT
  5
B8BB
330
8
100
AcDbSymbolTableRecord
100
AcDbViewportTableRecord
  2
*Active
 70
     0
 10
0.0
 20
0.0
 11
1.0
 21
1.0
 12
591.1660717804588
 22
-215.5177062241047
 13
0.0
 23
0.0
 14
0.5
 24
0.5
 15
0.5
 25
0.5
 16
0.0
 26
0.0
 36
1.0
 17
0.0
 27
0.0
 37
0.0
 40
23.63833483280664
 41
2.032008830022074
 42
50.0
 43
0.0
 44
0.0
 50
0.0
 51
0.0
 71
     0
 72
  1000
 73
     1
 74
     3
 75
     0
 76
     0
 77
     0
 78
     0
281
     0
 65
     1
110
578.13315550162
120
-201.9151625016796
130
0.0
111
1.0
121
0.0
131
0.0
112
0.0
122
1.0
132
0.0
 79
     0
146
0.0
1001
ACAD_NAV_VCDISPLAY
1070
     3
  0
ENDTAB
  0
TABLE
  2
LTYPE
  5
5
330
0
100
AcDbSymbolTable
 70
     3
  0
LTYPE
  5
14
330
5
100
AcDbSymbolTableRecord
100
AcDbLinetypeTableRecord
  2
ByBlock
 70
     0
  3

 72
    65
 73
     0
 40
0.0
  0
LTYPE
  5
15
330
5
100
AcDbSymbolTableRecord
100
AcDbLinetypeTableRecord
  2
ByLayer
 70
     0
  3

 72
    65
 73
     0
 40
0.0
  0
LTYPE
  5
16
330
5
100
AcDbSymbolTableRecord
100
AcDbLinetypeTableRecord
  2
Continuous
 70
     0
  3
Solid line
 72
    65
 73
     0
 40
0.0
  0
LTYPE
  5
93
330
5
100
AcDbSymbolTableRecord
100
AcDbLinetypeTableRecord
  2
HIDDEN
 70
     0
  3
Hidden __ __ __ __ __ __ __ __ __ __ __ __ __ _
 72
    65
 73
     2
 40
0.375
 49
0.25
 74
     0
 49
-0.125
 74
     0
  0
LTYPE
  5
2824
330
5
100
AcDbSymbolTableRecord
100
AcDbLinetypeTableRecord
  2
DASHED
 70
     0
  3
__ __ __ __ __ __ __ __ __ __ __ __ __ __ __ __
 72
    65
 73
     2
 40
0.75
 49
0.5
 74
     0
 49
-0.25
 74
     0
  0
ENDTAB
  0
TABLE
  2
LAYER
  5
2
102
{ACAD_XDICTIONARY
360
B99C
102
}
330
0
100
AcDbSymbolTable
 70
    23
  0
LAYER
  5
10
102
{ACAD_XDICTIONARY
360
B918
102
}
330
2
100
AcDbSymbolTableRecord
100
AcDbLayerTableRecord
  2
0
 70
     0
 62
     7
  6
Continuous
370
    -3
390
F
  0
LAYER
  5
94
102
{ACAD_XDICTIONARY
360
B91A
102
}
330
2
100
AcDbSymbolTableRecord
100
AcDbLayerTableRecord
  2
DIMENSION
 70
     0
 62
     7
  6
Continuous
370
    -3
390
F
  0
LAYER
  5
95
102
{ACAD_XDICTIONARY
360
B91C
102
}
330
2
100
AcDbSymbolTableRecord
100
AcDbLayerTableRecord
  2
THERMOSTATCVR
 70
     0
 62
     7
  6
Continuous
370
    -3
390
F
  0
LAYER
  5
96
102
{ACAD_XDICTIONARY
360
B91E
102
}
330
2
100
AcDbSymbolTableRecord
100
AcDbLayerTableRecord
  2
38VS
 70
     0
 62
     7
  6
Continuous
370
    -3
390
F
  0
LAYER
  5
97
102
{ACAD_XDICTIONARY
360
B920
102
}
330
2
100
AcDbSymbolTableRecord
100
AcDbLayerTableRecord
  2
TBLKCOVER
 70
     0
 62
     7
  6
Continuous
370
    -3
390
F
  0
LAYER
  5
98
102
{ACAD_XDICTIONARY
360
B922
102
}
330
2
100
AcDbSymbolTableRecord
100
AcDbLayerTableRecord
  2
CXJ684
 70
     0
 62
     7
  6
Continuous
370
    -3
390
F
  0
LAYER
  5
10BD
330
2
100
AcDbSymbolTableRecord
100
AcDbLayerTableRecord
  2
Defpoints
 70
     0
 62
     7
  6
Continuous
290
     0
370
    -3
390
F
  0
LAYER
  5
10BE
102
{ACAD_XDICTIONARY
360
B924
102
}
330
2
100
AcDbSymbolTableRecord
100
AcDbLayerTableRecord
  2
OBJ
 70
     0
 62
     7
  6
Continuous
370
    -3
390
F
  0
LAYER
  5
10BF
102
{ACAD_XDICTIONARY
360
B926
102
}
330
2
100
AcDbSymbolTableRecord
100
AcDbLayerTableRecord
  2
DIM
 70
     0
 62
     7
  6
Continuous
370
    -3
390
F
  0
LAYER
  5
10C0
102
{ACAD_XDICTIONARY
360
B928
102
}
330
2
100
AcDbSymbolTableRecord
100
AcDbLayerTableRecord
  2
TEXT
 70
     0
 62
     7
  6
Continuous
370
    -3
390
F
  0
LAYER
  5
10C1
102
{ACAD_XDICTIONARY
360
B92A
102
}
330
2
100
AcDbSymbolTableRecord
100
AcDbLayerTableRecord
  2
TEMPLATE
 70
     0
 62
     7
  6
Continuous
370
    -3
390
F
  0
LAYER
  5
2825
102
{ACAD_XDICTIONARY
360
B92C
102
}
330
2
100
AcDbSymbolTableRecord
100
AcDbLayerTableRecord
  2
THERMOSTAT
 70
     0
 62
     7
  6
Continuous
370
    -3
390
F
  0
LAYER
  5
2826
102
{ACAD_XDICTIONARY
360
B92E
102
}
330
2
100
AcDbSymbolTableRecord
100
AcDbLayerTableRecord
  2
HIDDEN
 70
     0
 62
     7
  6
HIDDEN
370
    -3
390
F
  0
LAYER
  5
2827
102
{ACAD_XDICTIONARY
360
B930
102
}
330
2
100
AcDbSymbolTableRecord
100
AcDbLayerTableRecord
  2
IQNIPPLE.75
 70
     0
 62
     7
  6
Continuous
370
    -3
390
F
  0
LAYER
  5
2828
102
{ACAD_XDICTIONARY
360
B932
102
}
330
2
100
AcDbSymbolTableRecord
100
AcDbLayerTableRecord
  2
IQNIPPLE.50
 70
     0
 62
     7
  6
Continuous
370
    -3
390
F
  0
LAYER
  5
2829
102
{ACAD_XDICTIONARY
360
B934
102
}
330
2
100
AcDbSymbolTableRecord
100
AcDbLayerTableRecord
  2
IQEYS452EYS453
 70
     0
 62
     7
  6
Continuous
370
    -3
390
F
  0
LAYER
  5
282A
102
{ACAD_XDICTIONARY
360
B936
102
}
330
2
100
AcDbSymbolTableRecord
100
AcDbLayerTableRecord
  2
IQELMFL90-75
 70
     0
 62
     7
  6
Continuous
370
    -3
390
F
  0
LAYER
  5
282B
102
{ACAD_XDICTIONARY
360
B938
102
}
330
2
100
AcDbSymbolTableRecord
100
AcDbLayerTableRecord
  2
IQELMFL90-50
 70
     0
 62
     7
  6
Continuous
370
    -3
390
F
  0
LAYER
  5
4247
102
{ACAD_XDICTIONARY
360
B93A
102
}
330
2
100
AcDbSymbolTableRecord
100
AcDbLayerTableRecord
  2
cutout
 70
     0
 62
   255
  6
Continuous
370
    -3
390
F
  0
LAYER
  5
6A26
102
{ACAD_XDICTIONARY
360
B93C
102
}
330
2
100
AcDbSymbolTableRecord
100
AcDbLayerTableRecord
  2
IQNIPPLE_75
 70
     0
 62
     7
  6
Continuous
370
    -3
390
F
  0
LAYER
  5
6A27
102
{ACAD_XDICTIONARY
360
B93E
102
}
330
2
100
AcDbSymbolTableRecord
100
AcDbLayerTableRecord
  2
IQNIPPLE_50
 70
     0
 62
     7
  6
Continuous
370
    -3
390
F
  0
LAYER
  5
8E07
102
{ACAD_XDICTIONARY
360
B940
102
}
330
2
100
AcDbSymbolTableRecord
100
AcDbLayerTableRecord
  2
BORDER
 70
     0
 62
     7
  6
Continuous
370
    -3
390
F
  0
LAYER
  5
B999
330
2
100
AcDbSymbolTableRecord
100
AcDbLayerTableRecord
  2
REV BLOCK
 70
     0
 62
     7
  6
Continuous
370
    -3
390
F
1001
AcAecLayerStandard
1000

1000

1001
AcCmTransparency
1071
        0
  0
ENDTAB
  0
TABLE
  2
STYLE
  5
3
330
0
100
AcDbSymbolTable
 70
     1
  0
STYLE
  5
11
330
3
100
AcDbSymbolTableRecord
100
AcDbTextStyleTableRecord
  2
Standard
 70
     0
 40
0.0
 41
1.0
 50
0.0
 71
     0
 42
1.0
  3
txt
  4

  0
ENDTAB
  0
TABLE
  2
VIEW
  5
6
330
0
100
AcDbSymbolTable
 70
     0
  0
ENDTAB
  0
TABLE
  2
UCS
  5
7
330
0
100
AcDbSymbolTable
 70
     0
  0
ENDTAB
  0
TABLE
  2
APPID
  5
9
330
0
100
AcDbSymbolTable
 70
     7
  0
APPID
  5
12
330
9
100
AcDbSymbolTableRecord
100
AcDbRegAppTableRecord
  2
ACAD
 70
     0
  0
APPID
  5
B94A
330
9
100
AcDbSymbolTableRecord
100
AcDbRegAppTableRecord
  2
ACAD_NAV_VCDISPLAY
 70
     0
  0
APPID
  5
B98C
330
9
100
AcDbSymbolTableRecord
100
AcDbRegAppTableRecord
  2
ACAD_MLEADERVER
 70
     0
  0
APPID
  5
B997
330
9
100
AcDbSymbolTableRecord
100
AcDbRegAppTableRecord
  2
ACAD_EXEMPT_FROM_CAD_STANDARDS
 70
     0
  0
APPID
  5
B99A
330
9
100
AcDbSymbolTableRecord
100
AcDbRegAppTableRecord
  2
AcAecLayerStandard
 70
     0
  0
APPID
  5
B99B
330
9
100
AcDbSymbolTableRecord
100
AcDbRegAppTableRecord
  2
AcCmTransparency
 70
     0
  0
APPID
  5
BAAC
330
9
100
AcDbSymbolTableRecord
100
AcDbRegAppTableRecord
  2
AcadAnnoMonitorAlertIconDisabled
 70
     0
  0
ENDTAB
  0
TABLE
  2
DIMSTYLE
  5
A
330
0
100
AcDbSymbolTable
 70
     1
100
AcDbDimStyleTable
 71
     1
340
27
  0
DIMSTYLE
105
27
102
{ACAD_REACTORS
330
935E
330
935D
330
935A
330
9357
330
9354
330
9351
330
934E
330
934B
330
9348
330
9345
330
9342
330
9339
330
932D
330
932A
330
9327
330
9324
330
9321
330
931E
330
BAA3
102
}
330
A
100
AcDbSymbolTableRecord
100
AcDbDimStyleTableRecord
  2
Standard
 70
     0
 41
0.75
 42
0.3
140
0.75
271
     3
272
     3
340
11
  0
ENDTAB
  0
TABLE
  2
BLOCK_RECORD
  5
1
330
0
100
AcDbSymbolTable
 70
    39
  0
BLOCK_RECORD
  5
1F
102
{ACAD_XDICTIONARY
360
A61C
102
}
330
1
100
AcDbSymbolTableRecord
100
AcDbBlockTableRecord
  2
*Model_Space
340
22
  0
BLOCK_RECORD
  5
58
330
1
100
AcDbSymbolTableRecord
100
AcDbBlockTableRecord
  2
*Paper_Space
340
59
  0
BLOCK_RECORD
  5
5D
330
1
100
AcDbSymbolTableRecord
100
AcDbBlockTableRecord
  2
*Paper_Space0
340
5E
  0
BLOCK_RECORD
  5
89
330
1
100
AcDbSymbolTableRecord
100
AcDbBlockTableRecord
  2
31HT
340
0
  0
BLOCK_RECORD
  5
9DF8
330
1
100
AcDbSymbolTableRecord
100
AcDbBlockTableRecord
  2
*D7
340
0
  0
BLOCK_RECORD
  5
9E00
330
1
100
AcDbSymbolTableRecord
100
AcDbBlockTableRecord
  2
*D8
340
0
  0
BLOCK_RECORD
  5
9E5C
330
1
100
AcDbSymbolTableRecord
100
AcDbBlockTableRecord
  2
*D13
340
0
  0
BLOCK_RECORD
  5
9E69
330
1
100
AcDbSymbolTableRecord
100
AcDbBlockTableRecord
  2
*D14
340
0
  0
BLOCK_RECORD
  5
9E71
330
1
100
AcDbSymbolTableRecord
100
AcDbBlockTableRecord
  2
*D15
340
0
  0
BLOCK_RECORD
  5
9E7B
330
1
100
AcDbSymbolTableRecord
100
AcDbBlockTableRecord
  2
*D16
340
0
  0
BLOCK_RECORD
  5
9E85
330
1
100
AcDbSymbolTableRecord
100
AcDbBlockTableRecord
  2
*D17
340
0
  0
BLOCK_RECORD
  5
9E8F
330
1
100
AcDbSymbolTableRecord
100
AcDbBlockTableRecord
  2
*D18
340
0
  0
BLOCK_RECORD
  5
9E97
330
1
100
AcDbSymbolTableRecord
100
AcDbBlockTableRecord
  2
*D19
340
0
  0
BLOCK_RECORD
  5
9E9F
330
1
100
AcDbSymbolTableRecord
100
AcDbBlockTableRecord
  2
*D20
340
0
  0
BLOCK_RECORD
  5
9EA7
330
1
100
AcDbSymbolTableRecord
100
AcDbBlockTableRecord
  2
*D21
340
0
  0
BLOCK_RECORD
  5
9EAF
330
1
100
AcDbSymbolTableRecord
100
AcDbBlockTableRecord
  2
*D22
340
0
  0
BLOCK_RECORD
  5
9ECA
330
1
100
AcDbSymbolTableRecord
100
AcDbBlockTableRecord
  2
*D24
340
0
  0
BLOCK_RECORD
  5
9ED2
330
1
100
AcDbSymbolTableRecord
100
AcDbBlockTableRecord
  2
*D25
340
0
  0
BLOCK_RECORD
  5
9EDC
330
1
100
AcDbSymbolTableRecord
100
AcDbBlockTableRecord
  2
*D26
340
0
  0
BLOCK_RECORD
  5
9EE4
330
1
100
AcDbSymbolTableRecord
100
AcDbBlockTableRecord
  2
*D27
340
0
  0
BLOCK_RECORD
  5
9EEC
330
1
100
AcDbSymbolTableRecord
100
AcDbBlockTableRecord
  2
*D28
340
0
  0
BLOCK_RECORD
  5
9EF6
330
1
100
AcDbSymbolTableRecord
100
AcDbBlockTableRecord
  2
*D29
340
0
  0
BLOCK_RECORD
  5
BAA4
330
1
100
AcDbSymbolTableRecord
100
AcDbBlockTableRecord
  2
*D38
340
0
  0
ENDTAB
  0
ENDSEC
  0
SECTION
  2
BLOCKS
  0
BLOCK
  5
20
330
1F
100
AcDbEntity
  8
0
100
AcDbBlockBegin
  2
*Model_Space
 70
     0
 10
0.0
 20
0.0
 30
0.0
  3
*Model_Space
  1

  0
ENDBLK
  5
21
330
1F
100
AcDbEntity
  8
0
100
AcDbBlockEnd
  0
BLOCK
  5
5A
330
58
100
AcDbEntity
 67
     1
  8
0
100
AcDbBlockBegin
  2
*Paper_Space
 70
     0
 10
0.0
 20
0.0
 30
0.0
  3
*Paper_Space
  1

  0
ENDBLK
  5
5B
330
58
100
AcDbEntity
 67
     1
  8
0
100
AcDbBlockEnd
  0
BLOCK
  5
5F
330
5D
100
AcDbEntity
 67
     1
  8
0
100
AcDbBlockBegin
  2
*Paper_Space0
 70
     0
 10
0.0
 20
0.0
 30
0.0
  3
*Paper_Space0
  1

  0
ENDBLK
  5
60
330
5D
100
AcDbEntity
 67
     1
  8
0
100
AcDbBlockEnd
  0
BLOCK
  5
8A
330
89
100
AcDbEntity
  8
0
100
AcDbBlockBegin
  2
31HT
 70
     0
 10
0.0
 20
0.0
 30
0.0
  3
31HT
  1

  0
LINE
  5
8B
330
89
100
AcDbEntity
  8
0
100
AcDbLine
 10
0.25
 20
-0.144338
 30
0.0
 11
0.25
 21
0.144338
 31
0.0
  0
LINE
  5
8C
330
89
100
AcDbEntity
  8
0
100
AcDbLine
 10
0.25
 20
0.144338
 30
0.0
 11
0.0
 21
0.288675
 31
0.0
  0
LINE
  5
8D
330
89
100
AcDbEntity
  8
0
100
AcDbLine
 10
0.0
 20
0.288675
 30
0.0
 11
-0.25
 21
0.144338
 31
0.0
  0
LINE
  5
8E
330
89
100
AcDbEntity
  8
0
100
AcDbLine
 10
-0.25
 20
0.144338
 30
0.0
 11
-0.25
 21
-0.144338
 31
0.0
  0
LINE
  5
8F
330
89
100
AcDbEntity
  8
0
100
AcDbLine
 10
-0.25
 20
-0.144338
 30
0.0
 11
0.0
 21
-0.288675
 31
0.0
  0
LINE
  5
90
330
89
100
AcDbEntity
  8
0
100
AcDbLine
 10
0.0
 20
-0.288675
 30
0.0
 11
0.25
 21
-0.144338
 31
0.0
  0
CIRCLE
  5
91
330
89
100
AcDbEntity
  8
0
100
AcDbCircle
 10
0.0
 20
0.0
 30
0.0
 40
0.25
  0
ENDBLK
  5
92
330
89
100
AcDbEntity
  8
0
100
AcDbBlockEnd
  0
BLOCK
  5
9DFE
330
9DF8
100
AcDbEntity
  8
0
100
AcDbBlockBegin
  2
*D7
 70
     1
 10
0.0
 20
0.0
 30
0.0
  3
*D7
  1

  0
LINE
  5
B83B
330
9DF8
100
AcDbEntity
  8
DIMENSION
 62
     0
440
 16777216
370
    -2
100
AcDbLine
 10
577.8331555016201
 20
-201.9151625016796
 30
0.0
 11
575.6934746352292
 21
-201.9151625016796
 31
0.0
  0
MTEXT
  5
B83C
330
9DF8
100
AcDbEntity
  8
DIMENSION
 62
     0
440
 16777216
100
AcDbMText
 10
574.3534746352293
 20
-201.9151625016796
 30
0.0
 40
0.75
 41
0.0
 71
     5
 72
     1
  1
\A1;0.000
 73
     1
 44
1.0
  0
POINT
  5
B83D
330
9DF8
100
AcDbEntity
  8
Defpoints
 62
     0
440
 16777216
100
AcDbPoint
 10
578.13315550162
 20
-201.9151625016796
 30
0.0
  0
POINT
  5
B83E
330
9DF8
100
AcDbEntity
  8
Defpoints
 62
     0
440
 16777216
100
AcDbPoint
 10
575.6934746352292
 20
-201.9151625016796
 30
0.0
  0
POINT
  5
B83F
330
9DF8
100
AcDbEntity
  8
Defpoints
 62
     0
440
 16777216
100
AcDbPoint
 10
578.13315550162
 20
-201.9151625016796
 30
0.0
  0
ENDBLK
  5
9DFF
330
9DF8
100
AcDbEntity
  8
0
100
AcDbBlockEnd
  0
BLOCK
  5
9E08
330
9E00
100
AcDbEntity
  8
0
100
AcDbBlockBegin
  2
*D8
 70
     1
 10
0.0
 20
0.0
 30
0.0
  3
*D8
  1

  0
LINE
  5
B875
330
9E00
100
AcDbEntity
  8
DIMENSION
 62
     0
440
 16777216
370
    -2
100
AcDbLine
 10
590.0171555016201
 20
-173.6751625016796
 30
0.0
 11
590.0171555016201
 21
-172.1126167045705
 31
0.0
  0
LINE
  5
B876
330
9E00
100
AcDbEntity
  8
DIMENSION
 62
     0
440
 16777216
370
    -2
100
AcDbLine
 10
590.0171555016201
 20
-172.1126167045705
 30
0.0
 11
588.0782385340681
 21
-170.6126167045706
 31
0.0
  0
LINE
  5
B877
330
9E00
100
AcDbEntity
  8
DIMENSION
 62
     0
440
 16777216
370
    -2
100
AcDbLine
 10
588.0782385340681
 20
-170.6126167045706
 30
0.0
 11
588.0782385340681
 21
-169.1126167045706
 31
0.0
  0
MTEXT
  5
B878
330
9E00
100
AcDbEntity
  8
DIMENSION
 62
     0
440
 16777216
100
AcDbMText
 10
588.0782385340681
 20
-167.3976167045705
 30
0.0
 40
0.75
 41
0.0
 71
     5
 72
     1
  1
\A1;11.884
 11
0.0000000000000001
 21
1.0
 31
0.0
 73
     1
 44
1.0
  0
POINT
  5
B879
330
9E00
100
AcDbEntity
  8
Defpoints
 62
     0
440
 16777216
100
AcDbPoint
 10
590.0171555016201
 20
-173.9751625016796
 30
0.0
  0
POINT
  5
B87A
330
9E00
100
AcDbEntity
  8
Defpoints
 62
     0
440
 16777216
100
AcDbPoint
 10
588.0782385340681
 20
-169.1126167045706
 30
0.0
  0
POINT
  5
B87B
330
9E00
100
AcDbEntity
  8
Defpoints
 62
     0
440
 16777216
100
AcDbPoint
 10
578.13315550162
 20
-201.9151625016796
 30
0.0
  0
ENDBLK
  5
9E09
330
9E00
100
AcDbEntity
  8
0
100
AcDbBlockEnd
  0
BLOCK
  5
9E62
330
9E5C
100
AcDbEntity
  8
0
100
AcDbBlockBegin
  2
*D13
 70
     1
 10
0.0
 20
0.0
 30
0.0
  3
*D13
  1

  0
LINE
  5
B836
330
9E5C
100
AcDbEntity
  8
DIMENSION
 62
     0
440
 16777216
370
    -2
100
AcDbLine
 10
578.13315550162
 20
-202.2151625016797
 30
0.0
 11
578.13315550162
 21
-204.8734840590203
 31
0.0
  0
MTEXT
  5
B837
330
9E5C
100
AcDbEntity
  8
DIMENSION
 62
     0
440
 16777216
100
AcDbMText
 10
578.13315550162
 20
-206.2134840590202
 30
0.0
 40
0.75
 41
0.0
 71
     5
 72
     1
  1
\A1;0.000
 11
0.0000000000000001
 21
1.0
 31
0.0
 73
     1
 44
1.0
  0
POINT
  5
B838
330
9E5C
100
AcDbEntity
  8
Defpoints
 62
     0
440
 16777216
100
AcDbPoint
 10
578.13315550162
 20
-201.9151625016796
 30
0.0
  0
POINT
  5
B839
330
9E5C
100
AcDbEntity
  8
Defpoints
 62
     0
440
 16777216
100
AcDbPoint
 10
578.13315550162
 20
-204.8734840590203
 30
0.0
  0
POINT
  5
B83A
330
9E5C
100
AcDbEntity
  8
Defpoints
 62
     0
440
 16777216
100
AcDbPoint
 10
578.13315550162
 20
-201.9151625016796
 30
0.0
  0
ENDBLK
  5
9E63
330
9E5C
100
AcDbEntity
  8
0
100
AcDbBlockEnd
  0
BLOCK
  5
9E6F
330
9E69
100
AcDbEntity
  8
0
100
AcDbBlockBegin
  2
*D14
 70
     1
 10
0.0
 20
0.0
 30
0.0
  3
*D14
  1

  0
LINE
  5
B840
330
9E69
100
AcDbEntity
  8
DIMENSION
 62
     0
440
 16777216
370
    -2
100
AcDbLine
 10
580.0296555016201
 20
-199.9751625016796
 30
0.0
 11
575.7734346968525
 21
-199.9751625016796
 31
0.0
  0
MTEXT
  5
B841
330
9E69
100
AcDbEntity
  8
DIMENSION
 62
     0
440
 16777216
100
AcDbMText
 10
574.3709346968524
 20
-199.9751625016796
 30
0.0
 40
0.75
 41
0.0
 71
     5
 72
     1
  1
\A1;1.940
 73
     1
 44
1.0
  0
POINT
  5
B842
330
9E69
100
AcDbEntity
  8
Defpoints
 62
     0
440
 16777216
100
AcDbPoint
 10
580.3296555016201
 20
-199.9751625016796
 30
0.0
  0
POINT
  5
B843
330
9E69
100
AcDbEntity
  8
Defpoints
 62
     0
440
 16777216
100
AcDbPoint
 10
575.7734346968525
 20
-199.9751625016796
 30
0.0
  0
POINT
  5
B844
330
9E69
100
AcDbEntity
  8
Defpoints
 62
     0
440
 16777216
100
AcDbPoint
 10
578.13315550162
 20
-201.9151625016796
 30
0.0
  0
ENDBLK
  5
9E70
330
9E69
100
AcDbEntity
  8
0
100
AcDbBlockEnd
  0
BLOCK
  5
9E79
330
9E71
100
AcDbEntity
  8
0
100
AcDbBlockBegin
  2
*D15
 70
     1
 10
0.0
 20
0.0
 30
0.0
  3
*D15
  1

  0
LINE
  5
B845
330
9E71
100
AcDbEntity
  8
DIMENSION
 62
     0
440
 16777216
370
    -2
100
AcDbLine
 10
580.5171555016197
 20
-200.4626625016797
 30
0.0
 11
580.5171555016197
 21
-201.6626625016797
 31
0.0
  0
LINE
  5
B846
330
9E71
100
AcDbEntity
  8
DIMENSION
 62
     0
440
 16777216
370
    -2
100
AcDbLine
 10
580.5171555016197
 20
-201.6626625016797
 30
0.0
 11
581.2151033802597
 21
-203.0179570425621
 31
0.0
  0
LINE
  5
B847
330
9E71
100
AcDbEntity
  8
DIMENSION
 62
     0
440
 16777216
370
    -2
100
AcDbLine
 10
581.2151033802597
 20
-203.0179570425621
 30
0.0
 11
581.2151033802597
 21
-204.5179570425621
 31
0.0
  0
MTEXT
  5
B848
330
9E71
100
AcDbEntity
  8
DIMENSION
 62
     0
440
 16777216
100
AcDbMText
 10
581.2151033802597
 20
-206.107957042562
 30
0.0
 40
0.75
 41
0.0
 71
     5
 72
     1
  1
\A1;2.384
 11
0.0000000000000001
 21
1.0
 31
0.0
 73
     1
 44
1.0
  0
POINT
  5
B849
330
9E71
100
AcDbEntity
  8
Defpoints
 62
     0
440
 16777216
100
AcDbPoint
 10
580.5171555016197
 20
-200.1626625016796
 30
0.0
  0
POINT
  5
B84A
330
9E71
100
AcDbEntity
  8
Defpoints
 62
     0
440
 16777216
100
AcDbPoint
 10
581.2151033802597
 20
-204.5179570425621
 30
0.0
  0
POINT
  5
B84B
330
9E71
100
AcDbEntity
  8
Defpoints
 62
     0
440
 16777216
100
AcDbPoint
 10
578.13315550162
 20
-201.9151625016796
 30
0.0
  0
ENDBLK
  5
9E7A
330
9E71
100
AcDbEntity
  8
0
100
AcDbBlockEnd
  0
BLOCK
  5
9E83
330
9E7B
100
AcDbEntity
  8
0
100
AcDbBlockBegin
  2
*D16
 70
     1
 10
0.0
 20
0.0
 30
0.0
  3
*D16
  1

  0
LINE
  5
B84C
330
9E7B
100
AcDbEntity
  8
DIMENSION
 62
     0
440
 16777216
370
    -2
100
AcDbLine
 10
579.3336555016202
 20
-181.8926625016796
 30
0.0
 11
579.3336555016202
 21
-201.7856452699192
 31
0.0
  0
LINE
  5
B84D
330
9E7B
100
AcDbEntity
  8
DIMENSION
 62
     0
440
 16777216
370
    -2
100
AcDbLine
 10
579.3336555016202
 20
-201.7856452699192
 30
0.0
 11
579.8768562406293
 21
-203.2856452699192
 31
0.0
  0
LINE
  5
B84E
330
9E7B
100
AcDbEntity
  8
DIMENSION
 62
     0
440
 16777216
370
    -2
100
AcDbLine
 10
579.8768562406293
 20
-203.2856452699192
 30
0.0
 11
579.8768562406293
 21
-204.7856452699192
 31
0.0
  0
MTEXT
  5
B84F
330
9E7B
100
AcDbEntity
  8
DIMENSION
 62
     0
440
 16777216
100
AcDbMText
 10
579.8768562406293
 20
-206.1256452699191
 30
0.0
 40
0.75
 41
0.0
 71
     5
 72
     1
  1
\A1;1.200
 11
0.0000000000000001
 21
1.0
 31
0.0
 73
     1
 44
1.0
  0
POINT
  5
B850
330
9E7B
100
AcDbEntity
  8
Defpoints
 62
     0
440
 16777216
100
AcDbPoint
 10
579.3336555016202
 20
-181.5926625016796
 30
0.0
  0
POINT
  5
B851
330
9E7B
100
AcDbEntity
  8
Defpoints
 62
     0
440
 16777216
100
AcDbPoint
 10
579.8768562406293
 20
-204.7856452699192
 30
0.0
  0
POINT
  5
B852
330
9E7B
100
AcDbEntity
  8
Defpoints
 62
     0
440
 16777216
100
AcDbPoint
 10
578.13315550162
 20
-201.9151625016796
 30
0.0
  0
ENDBLK
  5
9E84
330
9E7B
100
AcDbEntity
  8
0
100
AcDbBlockEnd
  0
BLOCK
  5
9E8D
330
9E85
100
AcDbEntity
  8
0
100
AcDbBlockBegin
  2
*D17
 70
     1
 10
0.0
 20
0.0
 30
0.0
  3
*D17
  1

  0
LINE
  5
B853
330
9E85
100
AcDbEntity
  8
DIMENSION
 62
     0
440
 16777216
370
    -2
100
AcDbLine
 10
589.2021555016202
 20
-181.7051625016796
 30
0.0
 11
589.2021555016202
 21
-201.8730530893364
 31
0.0
  0
LINE
  5
B854
330
9E85
100
AcDbEntity
  8
DIMENSION
 62
     0
440
 16777216
370
    -2
100
AcDbLine
 10
589.2021555016202
 20
-201.8730530893364
 30
0.0
 11
588.7003523761059
 21
-203.3730530893364
 31
0.0
  0
LINE
  5
B855
330
9E85
100
AcDbEntity
  8
DIMENSION
 62
     0
440
 16777216
370
    -2
100
AcDbLine
 10
588.7003523761059
 20
-203.3730530893364
 30
0.0
 11
588.7003523761059
 21
-204.8730530893364
 31
0.0
  0
MTEXT
  5
B856
330
9E85
100
AcDbEntity
  8
DIMENSION
 62
     0
440
 16777216
100
AcDbMText
 10
588.7003523761059
 20
-206.5255530893363
 30
0.0
 40
0.75
 41
0.0
 71
     5
 72
     1
  1
\A1;11.069
 11
0.0000000000000001
 21
1.0
 31
0.0
 73
     1
 44
1.0
  0
POINT
  5
B857
330
9E85
100
AcDbEntity
  8
Defpoints
 62
     0
440
 16777216
100
AcDbPoint
 10
589.2021555016202
 20
-181.4051625016796
 30
0.0
  0
POINT
  5
B858
330
9E85
100
AcDbEntity
  8
Defpoints
 62
     0
440
 16777216
100
AcDbPoint
 10
588.7003523761059
 20
-204.8730530893364
 30
0.0
  0
POINT
  5
B859
330
9E85
100
AcDbEntity
  8
Defpoints
 62
     0
440
 16777216
100
AcDbPoint
 10
578.13315550162
 20
-201.9151625016796
 30
0.0
  0
ENDBLK
  5
9E8E
330
9E85
100
AcDbEntity
  8
0
100
AcDbBlockEnd
  0
BLOCK
  5
9E95
330
9E8F
100
AcDbEntity
  8
0
100
AcDbBlockBegin
  2
*D18
 70
     1
 10
0.0
 20
0.0
 30
0.0
  3
*D18
  1

  0
LINE
  5
B85A
330
9E8F
100
AcDbEntity
  8
DIMENSION
 62
     0
440
 16777216
370
    -2
100
AcDbLine
 10
590.40315550162
 20
-202.2151625016797
 30
0.0
 11
590.40315550162
 21
-204.8596057325029
 31
0.0
  0
MTEXT
  5
B85B
330
9E8F
100
AcDbEntity
  8
DIMENSION
 62
     0
440
 16777216
100
AcDbMText
 10
590.40315550162
 20
-206.6371057325028
 30
0.0
 40
0.75
 41
0.0
 71
     5
 72
     1
  1
\A1;12.270
 11
0.0000000000000001
 21
1.0
 31
0.0
 73
     1
 44
1.0
  0
POINT
  5
B85C
330
9E8F
100
AcDbEntity
  8
Defpoints
 62
     0
440
 16777216
100
AcDbPoint
 10
590.40315550162
 20
-201.9151625016796
 30
0.0
  0
POINT
  5
B85D
330
9E8F
100
AcDbEntity
  8
Defpoints
 62
     0
440
 16777216
100
AcDbPoint
 10
590.40315550162
 20
-204.8596057325029
 30
0.0
  0
POINT
  5
B85E
330
9E8F
100
AcDbEntity
  8
Defpoints
 62
     0
440
 16777216
100
AcDbPoint
 10
578.13315550162
 20
-201.9151625016796
 30
0.0
  0
ENDBLK
  5
9E96
330
9E8F
100
AcDbEntity
  8
0
100
AcDbBlockEnd
  0
BLOCK
  5
9E9D
330
9E97
100
AcDbEntity
  8
0
100
AcDbBlockBegin
  2
*D19
 70
     1
 10
0.0
 20
0.0
 30
0.0
  3
*D19
  1

  0
LINE
  5
B85F
330
9E97
100
AcDbEntity
  8
DIMENSION
 62
     0
440
 16777216
370
    -2
100
AcDbLine
 10
579.9455305016197
 20
-185.1670287912526
 30
0.0
 11
575.5593941732312
 21
-185.1670287912526
 31
0.0
  0
MTEXT
  5
B860
330
9E97
100
AcDbEntity
  8
DIMENSION
 62
     0
440
 16777216
100
AcDbMText
 10
573.7193941732313
 20
-185.1670287912526
 30
0.0
 40
0.75
 41
0.0
 71
     5
 72
     1
  1
\A1;16.748
 73
     1
 44
1.0
  0
POINT
  5
B861
330
9E97
100
AcDbEntity
  8
Defpoints
 62
     0
440
 16777216
100
AcDbPoint
 10
580.2455305016199
 20
-185.1670287912526
 30
0.0
  0
POINT
  5
B862
330
9E97
100
AcDbEntity
  8
Defpoints
 62
     0
440
 16777216
100
AcDbPoint
 10
575.5593941732312
 20
-185.1670287912526
 30
0.0
  0
POINT
  5
B863
330
9E97
100
AcDbEntity
  8
Defpoints
 62
     0
440
 16777216
100
AcDbPoint
 10
578.13315550162
 20
-201.9151625016796
 30
0.0
  0
ENDBLK
  5
9E9E
330
9E97
100
AcDbEntity
  8
0
100
AcDbBlockEnd
  0
BLOCK
  5
9EA5
330
9E9F
100
AcDbEntity
  8
0
100
AcDbBlockBegin
  2
*D20
 70
     1
 10
0.0
 20
0.0
 30
0.0
  3
*D20
  1

  0
LINE
  5
B864
330
9E9F
100
AcDbEntity
  8
DIMENSION
 62
     0
440
 16777216
370
    -2
100
AcDbLine
 10
578.4299055016203
 20
-180.9161625016796
 30
0.0
 11
575.4428651792522
 21
-180.9161625016796
 31
0.0
  0
MTEXT
  5
B865
330
9E9F
100
AcDbEntity
  8
DIMENSION
 62
     0
440
 16777216
100
AcDbMText
 10
573.7903651792522
 20
-180.9161625016796
 30
0.0
 40
0.75
 41
0.0
 71
     5
 72
     1
  1
\A1;21.000
 73
     1
 44
1.0
  0
POINT
  5
B866
330
9E9F
100
AcDbEntity
  8
Defpoints
 62
     0
440
 16777216
100
AcDbPoint
 10
578.7299055016202
 20
-180.9161625016796
 30
0.0
  0
POINT
  5
B867
330
9E9F
100
AcDbEntity
  8
Defpoints
 62
     0
440
 16777216
100
AcDbPoint
 10
575.4428651792522
 20
-180.9161625016796
 30
0.0
  0
POINT
  5
B868
330
9E9F
100
AcDbEntity
  8
Defpoints
 62
     0
440
 16777216
100
AcDbPoint
 10
578.13315550162
 20
-201.9151625016796
 30
0.0
  0
ENDBLK
  5
9EA6
330
9E9F
100
AcDbEntity
  8
0
100
AcDbBlockEnd
  0
BLOCK
  5
9EAD
330
9EA7
100
AcDbEntity
  8
0
100
AcDbBlockBegin
  2
*D21
 70
     1
 10
0.0
 20
0.0
 30
0.0
  3
*D21
  1

  0
LINE
  5
B869
330
9EA7
100
AcDbEntity
  8
DIMENSION
 62
     0
440
 16777216
370
    -2
100
AcDbLine
 10
578.4299055016203
 20
-172.1661625016796
 30
0.0
 11
575.4697305318273
 21
-172.1661625016796
 31
0.0
  0
MTEXT
  5
B86A
330
9EA7
100
AcDbEntity
  8
DIMENSION
 62
     0
440
 16777216
100
AcDbMText
 10
573.5672305318272
 20
-172.1661625016796
 30
0.0
 40
0.75
 41
0.0
 71
     5
 72
     1
  1
\A1;29.750
 73
     1
 44
1.0
  0
POINT
  5
B86B
330
9EA7
100
AcDbEntity
  8
Defpoints
 62
     0
440
 16777216
100
AcDbPoint
 10
578.7299055016204
 20
-172.1661625016796
 30
0.0
  0
POINT
  5
B86C
330
9EA7
100
AcDbEntity
  8
Defpoints
 62
     0
440
 16777216
100
AcDbPoint
 10
575.4697305318273
 20
-172.1661625016796
 30
0.0
  0
POINT
  5
B86D
330
9EA7
100
AcDbEntity
  8
Defpoints
 62
     0
440
 16777216
100
AcDbPoint
 10
578.13315550162
 20
-201.9151625016796
 30
0.0
  0
ENDBLK
  5
9EAE
330
9EA7
100
AcDbEntity
  8
0
100
AcDbBlockEnd
  0
BLOCK
  5
9EB7
330
9EAF
100
AcDbEntity
  8
0
100
AcDbBlockBegin
  2
*D22
 70
     1
 10
0.0
 20
0.0
 30
0.0
  3
*D22
  1

  0
LINE
  5
B86E
330
9EAF
100
AcDbEntity
  8
DIMENSION
 62
     0
440
 16777216
370
    -2
100
AcDbLine
 10
578.7299055016204
 20
-171.8661625016796
 30
0.0
 11
578.7299055016204
 21
-170.6661625016796
 31
0.0
  0
LINE
  5
B86F
330
9EAF
100
AcDbEntity
  8
DIMENSION
 62
     0
440
 16777216
370
    -2
100
AcDbLine
 10
578.7299055016204
 20
-170.6661625016796
 30
0.0
 11
579.4706875365333
 21
-170.2975806223416
 31
0.0
  0
LINE
  5
B870
330
9EAF
100
AcDbEntity
  8
DIMENSION
 62
     0
440
 16777216
370
    -2
100
AcDbLine
 10
579.4706875365333
 20
-170.2975806223416
 30
0.0
 11
579.4706875365333
 21
-168.7975806223416
 31
0.0
  0
MTEXT
  5
B871
330
9EAF
100
AcDbEntity
  8
DIMENSION
 62
     0
440
 16777216
100
AcDbMText
 10
579.4706875365333
 20
-167.2700806223415
 30
0.0
 40
0.75
 41
0.0
 71
     5
 72
     1
  1
\A1;0.597
 11
0.0000000000000001
 21
1.0
 31
0.0
 73
     1
 44
1.0
  0
POINT
  5
B872
330
9EAF
100
AcDbEntity
  8
Defpoints
 62
     0
440
 16777216
100
AcDbPoint
 10
578.7299055016204
 20
-172.1661625016796
 30
0.0
  0
POINT
  5
B873
330
9EAF
100
AcDbEntity
  8
Defpoints
 62
     0
440
 16777216
100
AcDbPoint
 10
579.4706875365333
 20
-168.7975806223416
 30
0.0
  0
POINT
  5
B874
330
9EAF
100
AcDbEntity
  8
Defpoints
 62
     0
440
 16777216
100
AcDbPoint
 10
578.13315550162
 20
-201.9151625016796
 30
0.0
  0
ENDBLK
  5
9EB8
330
9EAF
100
AcDbEntity
  8
0
100
AcDbBlockEnd
  0
BLOCK
  5
9ED0
330
9ECA
100
AcDbEntity
  8
0
100
AcDbBlockBegin
  2
*D24
 70
     1
 10
0.0
 20
0.0
 30
0.0
  3
*D24
  1

  0
LINE
  5
B883
330
9ECA
100
AcDbEntity
  8
DIMENSION
 62
     0
440
 16777216
370
    -2
100
AcDbLine
 10
580.0296555016201
 20
-186.9751625016796
 30
0.0
 11
575.2970702426372
 21
-186.9751625016796
 31
0.0
  0
MTEXT
  5
B884
330
9ECA
100
AcDbEntity
  8
DIMENSION
 62
     0
440
 16777216
100
AcDbMText
 10
573.5195702426372
 20
-186.9751625016796
 30
0.0
 40
0.75
 41
0.0
 71
     5
 72
     1
  1
\A1;14.940
 73
     1
 44
1.0
  0
POINT
  5
B885
330
9ECA
100
AcDbEntity
  8
Defpoints
 62
     0
440
 16777216
100
AcDbPoint
 10
580.3296555016201
 20
-186.9751625016796
 30
0.0
  0
POINT
  5
B886
330
9ECA
100
AcDbEntity
  8
Defpoints
 62
     0
440
 16777216
100
AcDbPoint
 10
575.2970702426372
 20
-186.9751625016796
 30
0.0
  0
POINT
  5
B887
330
9ECA
100
AcDbEntity
  8
Defpoints
 62
     0
440
 16777216
100
AcDbPoint
 10
578.13315550162
 20
-201.9151625016796
 30
0.0
  0
ENDBLK
  5
9ED1
330
9ECA
100
AcDbEntity
  8
0
100
AcDbBlockEnd
  0
BLOCK
  5
9EDA
330
9ED2
100
AcDbEntity
  8
0
100
AcDbBlockBegin
  2
*D25
 70
     1
 10
0.0
 20
0.0
 30
0.0
  3
*D25
  1

  0
LINE
  5
B888
330
9ED2
100
AcDbEntity
  8
DIMENSION
 62
     0
440
 16777216
370
    -2
100
AcDbLine
 10
588.0171555016199
 20
-200.4626625016797
 30
0.0
 11
588.0171555016199
 21
-201.8896210710028
 31
0.0
  0
LINE
  5
B889
330
9ED2
100
AcDbEntity
  8
DIMENSION
 62
     0
440
 16777216
370
    -2
100
AcDbLine
 10
588.0171555016199
 20
-201.8896210710028
 30
0.0
 11
586.9477006359102
 21
-203.3896210710028
 31
0.0
  0
LINE
  5
B88A
330
9ED2
100
AcDbEntity
  8
DIMENSION
 62
     0
440
 16777216
370
    -2
100
AcDbLine
 10
586.9477006359102
 20
-203.3896210710028
 30
0.0
 11
586.9477006359102
 21
-204.8896210710029
 31
0.0
  0
MTEXT
  5
B88B
330
9ED2
100
AcDbEntity
  8
DIMENSION
 62
     0
440
 16777216
100
AcDbMText
 10
586.9477006359102
 20
-206.4796210710027
 30
0.0
 40
0.75
 41
0.0
 71
     5
 72
     1
  1
\A1;9.884
 11
0.0000000000000001
 21
1.0
 31
0.0
 73
     1
 44
1.0
  0
POINT
  5
B88C
330
9ED2
100
AcDbEntity
  8
Defpoints
 62
     0
440
 16777216
100
AcDbPoint
 10
588.0171555016199
 20
-200.1626625016796
 30
0.0
  0
POINT
  5
B88D
330
9ED2
100
AcDbEntity
  8
Defpoints
 62
     0
440
 16777216
100
AcDbPoint
 10
586.9477006359102
 20
-204.8896210710029
 30
0.0
  0
POINT
  5
B88E
330
9ED2
100
AcDbEntity
  8
Defpoints
 62
     0
440
 16777216
100
AcDbPoint
 10
578.13315550162
 20
-201.9151625016796
 30
0.0
  0
ENDBLK
  5
9EDB
330
9ED2
100
AcDbEntity
  8
0
100
AcDbBlockEnd
  0
BLOCK
  5
9EE2
330
9EDC
100
AcDbEntity
  8
0
100
AcDbBlockBegin
  2
*D26
 70
     1
 10
0.0
 20
0.0
 30
0.0
  3
*D26
  1

  0
LINE
  5
B88F
330
9EDC
100
AcDbEntity
  8
DIMENSION
 62
     0
440
 16777216
370
    -2
100
AcDbLine
 10
590.70315550162
 20
-171.8241625016796
 30
0.0
 11
593.0810918381497
 21
-171.8241625016796
 31
0.0
  0
MTEXT
  5
B890
330
9EDC
100
AcDbEntity
  8
DIMENSION
 62
     0
440
 16777216
100
AcDbMText
 10
594.7960918381496
 20
-171.8241625016796
 30
0.0
 40
0.75
 41
0.0
 71
     5
 72
     1
  1
\A1;30.091
 73
     1
 44
1.0
  0
POINT
  5
B891
330
9EDC
100
AcDbEntity
  8
Defpoints
 62
     0
440
 16777216
100
AcDbPoint
 10
590.40315550162
 20
-171.8241625016796
 30
0.0
  0
POINT
  5
B892
330
9EDC
100
AcDbEntity
  8
Defpoints
 62
     0
440
 16777216
100
AcDbPoint
 10
593.0810918381497
 20
-171.8241625016796
 30
0.0
  0
POINT
  5
B893
330
9EDC
100
AcDbEntity
  8
Defpoints
 62
     0
440
 16777216
100
AcDbPoint
 10
578.13315550162
 20
-201.9151625016796
 30
0.0
  0
ENDBLK
  5
9EE3
330
9EDC
100
AcDbEntity
  8
0
100
AcDbBlockEnd
  0
BLOCK
  5
9EEA
330
9EE4
100
AcDbEntity
  8
0
100
AcDbBlockBegin
  2
*D27
 70
     1
 10
0.0
 20
0.0
 30
0.0
  3
*D27
  1

  0
LINE
  5
B894
330
9EE4
100
AcDbEntity
  8
DIMENSION
 62
     0
440
 16777216
370
    -2
100
AcDbLine
 10
578.2171555016201
 20
-173.9751625016796
 30
0.0
 11
575.3958638864362
 21
-173.9751625016796
 31
0.0
  0
MTEXT
  5
B895
330
9EE4
100
AcDbEntity
  8
DIMENSION
 62
     0
440
 16777216
100
AcDbMText
 10
573.4933638864362
 20
-173.9751625016796
 30
0.0
 40
0.75
 41
0.0
 71
     5
 72
     1
  1
\A1;27.940
 73
     1
 44
1.0
  0
POINT
  5
B896
330
9EE4
100
AcDbEntity
  8
Defpoints
 62
     0
440
 16777216
100
AcDbPoint
 10
578.5171555016201
 20
-173.9751625016796
 30
0.0
  0
POINT
  5
B897
330
9EE4
100
AcDbEntity
  8
Defpoints
 62
     0
440
 16777216
100
AcDbPoint
 10
575.3958638864362
 20
-173.9751625016796
 30
0.0
  0
POINT
  5
B898
330
9EE4
100
AcDbEntity
  8
Defpoints
 62
     0
440
 16777216
100
AcDbPoint
 10
578.13315550162
 20
-201.9151625016796
 30
0.0
  0
ENDBLK
  5
9EEB
330
9EE4
100
AcDbEntity
  8
0
100
AcDbBlockEnd
  0
BLOCK
  5
9EF4
330
9EEC
100
AcDbEntity
  8
0
100
AcDbBlockBegin
  2
*D28
 70
     1
 10
0.0
 20
0.0
 30
0.0
  3
*D28
  1

  0
LINE
  5
B899
330
9EEC
100
AcDbEntity
  8
DIMENSION
 62
     0
440
 16777216
370
    -2
100
AcDbLine
 10
578.5171555016201
 20
-173.6751625016796
 30
0.0
 11
578.5171555016201
 21
-171.9725809624693
 31
0.0
  0
LINE
  5
B89A
330
9EEC
100
AcDbEntity
  8
DIMENSION
 62
     0
440
 16777216
370
    -2
100
AcDbLine
 10
578.5171555016201
 20
-171.9725809624693
 30
0.0
 11
577.8934425090124
 21
-170.4725809624692
 31
0.0
  0
LINE
  5
B89B
330
9EEC
100
AcDbEntity
  8
DIMENSION
 62
     0
440
 16777216
370
    -2
100
AcDbLine
 10
577.8934425090124
 20
-170.4725809624692
 30
0.0
 11
577.8934425090124
 21
-168.9725809624692
 31
0.0
  0
MTEXT
  5
B89C
330
9EEC
100
AcDbEntity
  8
DIMENSION
 62
     0
440
 16777216
100
AcDbMText
 10
577.8934425090124
 20
-167.4450809624691
 30
0.0
 40
0.75
 41
0.0
 71
     5
 72
     1
  1
\A1;0.384
 11
0.0000000000000001
 21
1.0
 31
0.0
 73
     1
 44
1.0
  0
POINT
  5
B89D
330
9EEC
100
AcDbEntity
  8
Defpoints
 62
     0
440
 16777216
100
AcDbPoint
 10
578.5171555016201
 20
-173.9751625016796
 30
0.0
  0
POINT
  5
B89E
330
9EEC
100
AcDbEntity
  8
Defpoints
 62
     0
440
 16777216
100
AcDbPoint
 10
577.8934425090124
 20
-168.9725809624692
 30
0.0
  0
POINT
  5
B89F
330
9EEC
100
AcDbEntity
  8
Defpoints
 62
     0
440
 16777216
100
AcDbPoint
 10
578.13315550162
 20
-201.9151625016796
 30
0.0
  0
ENDBLK
  5
9EF5
330
9EEC
100
AcDbEntity
  8
0
100
AcDbBlockEnd
  0
BLOCK
  5
9EFF
330
9EF6
100
AcDbEntity
  8
0
100
AcDbBlockBegin
  2
*D29
 70
     1
 10
0.0
 20
0.0
 30
0.0
  3
*D29
  1

  0
LINE
  5
B8A8
330
9EF6
100
AcDbEntity
  8
DIMENSION
 62
     0
440
 16777216
370
    -2
100
AcDbLine
 10
592.4073074403166
 20
-189.4268910236969
 30
0.0
 11
591.6573074403165
 21
-189.4268910236969
 31
0.0
  0
LINE
  5
B8A9
330
9EF6
100
AcDbEntity
  8
DIMENSION
 62
     0
440
 16777216
370
    -2
100
AcDbLine
 10
591.6573074403165
 20
-189.4268910236969
 30
0.0
 11
588.7947330611035
 21
-187.498879399428
 31
0.0
  0
MTEXT
  5
B8AA
102
{ACAD_XDICTIONARY
360
B956
102
}
330
9EF6
100
AcDbEntity
  8
DIMENSION
 62
     0
440
 16777216
100
AcDbMText
 10
595.5598074403166
 20
-189.4268910236969
 30
0.0
 40
0.75
 41
0.0
 71
     5
 72
     1
  1
\A1;\U+22050.375 (8)
 73
     1
 44
1.0
  0
SOLID
  5
B8AB
330
9EF6
100
AcDbEntity
  8
DIMENSION
 62
     0
440
 16777216
100
AcDbTrace
 10
588.8645619808032
 20
-187.3952023914968
 30
0.0
 11
588.7249041414037
 21
-187.6025564073592
 31
0.0
 12
588.1726710135165
 22
-187.0799058812293
 32
0.0
 13
588.1726710135165
 23
-187.0799058812293
 33
0.0
  0
LINE
  5
B8AC
330
9EF6
100
AcDbEntity
  8
DIMENSION
 62
     0
440
 16777216
370
    -2
100
AcDbLine
 10
587.9271555016197
 20
-186.9751625016796
 30
0.0
 11
588.1071555016196
 21
-186.9751625016796
 31
0.0
  0
LINE
  5
B8AD
330
9EF6
100
AcDbEntity
  8
DIMENSION
 62
     0
440
 16777216
370
    -2
100
AcDbLine
 10
588.0171555016197
 20
-187.0651625016797
 30
0.0
 11
588.0171555016197
 21
-186.8851625016796
 31
0.0
  0
POINT
  5
B8AE
330
9EF6
100
AcDbEntity
  8
Defpoints
 62
     0
440
 16777216
100
AcDbPoint
 10
588.1726710135165
 20
-187.0799058812293
 30
0.0
  0
POINT
  5
B8AF
330
9EF6
100
AcDbEntity
  8
Defpoints
 62
     0
440
 16777216
100
AcDbPoint
 10
587.8616399897231
 20
-186.87041912213
 30
0.0
  0
ENDBLK
  5
9F00
330
9EF6
100
AcDbEntity
  8
0
100
AcDbBlockEnd
  0
BLOCK
  5
BAA5
330
BAA4
100
AcDbEntity
  8
0
100
AcDbBlockBegin
  2
*D38
 70
     1
 10
0.0
 20
0.0
 30
0.0
  3
*D38
  1

  0
LINE
  5
BAB2
330
BAA4
100
AcDbEntity
  8
THERMOSTATCVR
 62
     0
440
 16777216
370
    -2
100
AcDbLine
 10
589.5021555016202
 20
-181.4051625016796
 30
0.0
 11
592.0846060391512
 21
-181.4051625016796
 31
0.0
  0
MTEXT
  5
BAB3
330
BAA4
100
AcDbEntity
  8
THERMOSTATCVR
 62
     0
440
 16777216
100
AcDbMText
 10
598.1746060391513
 20
-181.4051625016796
 30
0.0
 40
0.75
 41
0.0
 71
     5
 72
     1
  1
\A1;20.510 (2)\POMIT FOR IQ2200VS \PAND IQ3000VS
 73
     1
 44
1.0
  0
POINT
  5
BAB4
330
BAA4
100
AcDbEntity
  8
Defpoints
 62
     0
440
 16777216
100
AcDbPoint
 10
589.2021555016202
 20
-181.4051625016796
 30
0.0
  0
POINT
  5
BAB5
330
BAA4
100
AcDbEntity
  8
Defpoints
 62
     0
440
 16777216
100
AcDbPoint
 10
592.0846060391512
 20
-181.4051625016796
 30
0.0
  0
POINT
  5
BAB6
330
BAA4
100
AcDbEntity
  8
Defpoints
 62
     0
440
 16777216
100
AcDbPoint
 10
578.13315550162
 20
-201.9151625016796
 30
0.0
  0
ENDBLK
  5
BAA6
330
BAA4
100
AcDbEntity
  8
0
100
AcDbBlockEnd
  0
ENDSEC
  0
SECTION
  2
ENTITIES
  0
TEXT
  5
4FD7
330
1F
100
AcDbEntity
  8
cutout
100
AcDbText
 10
883.960454118144
 20
-15.86401112086037
 30
0.0
 40
1.0
  1

100
AcDbText
  0
LINE
  5
91D0
330
1F
100
AcDbEntity
  8
BORDER
100
AcDbLine
 10
576.7645196048207
 20
-219.6048561967404
 30
0.0
 11
560.5190163588961
 21
-219.6048561967404
 31
0.0
  0
TEXT
  5
91D1
330
1F
100
AcDbEntity
  8
TEXT
100
AcDbText
 10
561.0033913588961
 20
-219.9798561967405
 30
0.0
 40
0.25
  1
0
 72
     1
 11
561.0658913588961
 21
-219.8548561967405
 31
0.0
100
AcDbText
 73
     2
  0
LINE
  5
91D2
330
1F
100
AcDbEntity
  8
BORDER
100
AcDbLine
 10
561.6127663588961
 20
-220.1048561967405
 30
0.0
 11
561.612766358896
 21
-219.6048561967404
 31
0.0
  0
TEXT
  5
91D3
330
1F
100
AcDbEntity
  8
TEXT
100
AcDbText
 10
565.1325580255628
 20
-219.9798561967405
 30
0.0
 40
0.25
  1
INITIAL RELEASE
 72
     1
 11
566.8408913588962
 21
-219.8548561967405
 31
0.0
100
AcDbText
 73
     2
  0
TEXT
  5
91D4
330
1F
100
AcDbEntity
  8
TEXT
100
AcDbText
 10
575.1834346485252
 20
-219.9798561967405
 30
0.0
 40
0.25
  1
JJH
 72
     1
 11
575.5167679818586
 21
-219.8548561967405
 31
0.0
100
AcDbText
 73
     2
  0
LINE
  5
91D5
330
1F
100
AcDbEntity
  8
BORDER
100
AcDbLine
 10
574.2690163588962
 20
-220.1048561967405
 30
0.0
 11
574.2690163588962
 21
-219.6048561967404
 31
0.0
  0
TEXT
  5
91D6
330
1F
100
AcDbEntity
  8
TEXT
100
AcDbText
 10
572.3148496922296
 20
-219.9798561967405
 30
0.0
 40
0.25
  1
10-22-14
 72
     1
 11
573.1690163588962
 21
-219.8548561967405
 31
0.0
100
AcDbText
 73
     2
  0
LINE
  5
91D7
330
1F
100
AcDbEntity
  8
BORDER
100
AcDbLine
 10
572.0690163588963
 20
-220.1048561967405
 30
0.0
 11
572.0690163588963
 21
-219.6048561967404
 31
0.0
  0
LINE
  5
91D8
330
1F
100
AcDbEntity
  8
BORDER
100
AcDbLine
 10
576.7645196048207
 20
-220.6048561967405
 30
0.0
 11
560.5190163588961
 21
-220.6048561967405
 31
0.0
  0
LINE
  5
91D9
330
1F
100
AcDbEntity
  8
BORDER
100
AcDbLine
 10
576.7645196048207
 20
-220.1048561967405
 30
0.0
 11
560.5190163588961
 21
-220.1048561967405
 31
0.0
  0
TEXT
  5
91DA
330
1F
100
AcDbEntity
  8
TEXT
100
AcDbText
 10
560.6908913588961
 20
-220.4798561967405
 30
0.0
 40
0.25
  1
REV
 72
     1
 11
561.0658913588961
 21
-220.3548561967405
 31
0.0
100
AcDbText
 73
     2
  0
LINE
  5
91DB
330
1F
100
AcDbEntity
  8
BORDER
100
AcDbLine
 10
560.5190163588961
 20
-221.1048561967404
 30
0.0
 11
560.5190163588961
 21
-218.1048561967403
 31
0.0
  0
LINE
  5
91DC
330
1F
100
AcDbEntity
  8
BORDER
100
AcDbLine
 10
561.6127663588961
 20
-220.6048561967405
 30
0.0
 11
561.6127663588961
 21
-220.1048561967405
 31
0.0
  0
TEXT
  5
91DD
330
1F
100
AcDbEntity
  8
TEXT
100
AcDbText
 10
565.5908913588961
 20
-220.4798561967405
 30
0.0
 40
0.25
  1
DESCRIPTION
 72
     1
 11
566.8408913588962
 21
-220.3548561967405
 31
0.0
100
AcDbText
 73
     2
  0
TEXT
  5
91DE
330
1F
100
AcDbEntity
  8
TEXT
100
AcDbText
 10
574.6834346485252
 20
-220.4798561967405
 30
0.0
 40
0.25
  1
CHECKED
 72
     1
 11
575.5167679818586
 21
-220.3548561967405
 31
0.0
100
AcDbText
 73
     2
  0
LINE
  5
91DF
330
1F
100
AcDbEntity
  8
BORDER
100
AcDbLine
 10
574.2690163588962
 20
-220.6048561967405
 30
0.0
 11
574.2690163588962
 21
-220.1048561967405
 31
0.0
  0
TEXT
  5
91E0
330
1F
100
AcDbEntity
  8
TEXT
100
AcDbText
 10
572.7106830255628
 20
-220.4798561967405
 30
0.0
 40
0.25
  1
DATE
 72
     1
 11
573.1690163588962
 21
-220.3548561967405
 31
0.0
100
AcDbText
 73
     2
  0
LINE
  5
91E1
330
1F
100
AcDbEntity
  8
BORDER
100
AcDbLine
 10
572.0690163588963
 20
-220.6048561967405
 30
0.0
 11
572.0690163588963
 21
-220.1048561967405
 31
0.0
  0
LINE
  5
91E2
330
1F
100
AcDbEntity
  8
BORDER
100
AcDbLine
 10
560.5190163588961
 20
-220.6048561967405
 30
0.0
 11
576.7645196048207
 21
-220.6048561967405
 31
0.0
  0
LINE
  5
91E3
330
1F
100
AcDbEntity
  8
BORDER
100
AcDbLine
 10
576.7645196048207
 20
-219.1048561477041
 30
0.0
 11
576.7645196048207
 21
-221.1048561967404
 31
0.0
  0
LINE
  5
91E4
330
1F
100
AcDbEntity
  8
BORDER
100
AcDbLine
 10
576.7645196048207
 20
-221.1048561967404
 30
0.0
 11
560.5190163588961
 21
-221.1048561967404
 31
0.0
  0
LINE
  5
9211
330
1F
100
AcDbEntity
  8
DIMENSION
100
AcDbLine
 10
578.42715550162
 20
-173.9751625016796
 30
0.0
 11
578.6071555016201
 21
-173.9751625016795
 31
0.0
  0
LINE
  5
9212
330
1F
100
AcDbEntity
  8
DIMENSION
100
AcDbLine
 10
578.5171555016201
 20
-174.0651625016795
 30
0.0
 11
578.5171555016201
 21
-173.8851625016796
 31
0.0
  0
LINE
  5
9213
330
1F
100
AcDbEntity
  8
DIMENSION
100
AcDbLine
 10
590.0171555016201
 20
-174.0651625016795
 30
0.0
 11
590.0171555016201
 21
-173.8851625016796
 31
0.0
  0
LINE
  5
9214
330
1F
100
AcDbEntity
  8
DIMENSION
100
AcDbLine
 10
589.92715550162
 20
-173.9751625016796
 30
0.0
 11
590.10715550162
 21
-173.9751625016795
 31
0.0
  0
LINE
  5
9215
330
1F
100
AcDbEntity
  8
DIMENSION
100
AcDbLine
 10
589.1121555016202
 20
-181.4051625016798
 30
0.0
 11
589.2921555016203
 21
-181.4051625016796
 31
0.0
  0
LINE
  5
9216
330
1F
100
AcDbEntity
  8
DIMENSION
100
AcDbLine
 10
589.2021555016202
 20
-181.4951625016796
 30
0.0
 11
589.2021555016202
 21
-181.3151625016797
 31
0.0
  0
LINE
  5
9217
330
1F
100
AcDbEntity
  8
DIMENSION
100
AcDbLine
 10
579.2436555016203
 20
-181.4051625016796
 30
0.0
 11
579.4236555016202
 21
-181.4051625016796
 31
0.0
  0
LINE
  5
9218
330
1F
100
AcDbEntity
  8
DIMENSION
100
AcDbLine
 10
579.3336555016202
 20
-181.4951625016796
 30
0.0
 11
579.3336555016202
 21
-181.3151625016797
 31
0.0
  0
LINE
  5
9219
330
1F
100
AcDbEntity
  8
DIMENSION
100
AcDbLine
 10
580.42715550162
 20
-186.9751625016796
 30
0.0
 11
580.6071555016201
 21
-186.9751625016795
 31
0.0
  0
LINE
  5
921A
330
1F
100
AcDbEntity
  8
DIMENSION
100
AcDbLine
 10
580.5171555016197
 20
-187.0651625016796
 30
0.0
 11
580.5171555016197
 21
-186.8851625016796
 31
0.0
  0
LINE
  5
921B
330
1F
100
AcDbEntity
  8
DIMENSION
100
AcDbLine
 10
580.42715550162
 20
-199.9751625016796
 30
0.0
 11
580.6071555016201
 21
-199.9751625016795
 31
0.0
  0
LINE
  5
921C
330
1F
100
AcDbEntity
  8
DIMENSION
100
AcDbLine
 10
580.5171555016197
 20
-200.0651625016796
 30
0.0
 11
580.5171555016197
 21
-199.8851625016796
 31
0.0
  0
LINE
  5
921D
330
1F
100
AcDbEntity
  8
DIMENSION
100
AcDbLine
 10
587.9271555016201
 20
-199.9751625016796
 30
0.0
 11
588.1071555016201
 21
-199.9751625016795
 31
0.0
  0
LINE
  5
921E
330
1F
100
AcDbEntity
  8
DIMENSION
100
AcDbLine
 10
588.0171555016199
 20
-200.0651625016796
 30
0.0
 11
588.0171555016199
 21
-199.8851625016796
 31
0.0
  0
DIMENSION
  5
931E
102
{ACAD_XDICTIONARY
360
931F
102
}
102
{ACAD_REACTORS
330
9320
102
}
330
1F
100
AcDbEntity
  8
DIMENSION
100
AcDbDimension
  2
*D29
 10
587.8616399897231
 20
-186.87041912213
 30
0.0
 11
595.5598074403166
 21
-189.4268910236969
 31
0.0
 70
   163
  1
<> (8)
 71
     5
 42
0.3749999999998863
  3
Standard
100
AcDbDiametricDimension
 15
588.1726710135165
 25
-187.0799058812293
 35
0.0
 40
0.0
1001
ACAD
1000
DSTYLE
1002
{
1070
   288
1070
     1
1002
}
  0
DIMENSION
  5
9321
102
{ACAD_XDICTIONARY
360
9322
102
}
102
{ACAD_REACTORS
330
9323
102
}
330
1F
100
AcDbEntity
  8
DIMENSION
100
AcDbDimension
  2
*D28
 10
578.13315550162
 20
-201.9151625016796
 30
0.0
 11
577.8934425090124
 21
-167.4450809624691
 31
0.0
 70
   102
 71
     5
 42
0.3840000000000145
  3
Standard
100
AcDbOrdinateDimension
 13
578.5171555016201
 23
-173.9751625016796
 33
0.0
 14
577.8934425090124
 24
-168.9725809624692
 34
0.0
  0
DIMENSION
  5
9324
102
{ACAD_XDICTIONARY
360
9325
102
}
102
{ACAD_REACTORS
330
9326
102
}
330
1F
100
AcDbEntity
  8
DIMENSION
100
AcDbDimension
  2
*D27
 10
578.13315550162
 20
-201.9151625016796
 30
0.0
 11
573.4933638864362
 21
-173.9751625016796
 31
0.0
 70
    38
 71
     5
 42
27.94
  3
Standard
100
AcDbOrdinateDimension
 13
578.5171555016201
 23
-173.9751625016796
 33
0.0
 14
575.3958638864362
 24
-173.9751625016796
 34
0.0
  0
DIMENSION
  5
9327
102
{ACAD_XDICTIONARY
360
9328
102
}
102
{ACAD_REACTORS
330
9329
102
}
330
1F
100
AcDbEntity
  8
DIMENSION
100
AcDbDimension
  2
*D26
 10
578.13315550162
 20
-201.9151625016796
 30
0.0
 11
594.7960918381496
 21
-171.8241625016796
 31
0.0
 70
    38
 71
     5
 42
30.09100000000007
  3
Standard
100
AcDbOrdinateDimension
 13
590.40315550162
 23
-171.8241625016796
 33
0.0
 14
593.0810918381497
 24
-171.8241625016796
 34
0.0
  0
DIMENSION
  5
932A
102
{ACAD_XDICTIONARY
360
932B
102
}
102
{ACAD_REACTORS
330
932C
102
}
330
1F
100
AcDbEntity
  8
DIMENSION
100
AcDbDimension
  2
*D25
 10
578.13315550162
 20
-201.9151625016796
 30
0.0
 11
586.9477006359102
 21
-206.4796210710027
 31
0.0
 70
   102
 71
     5
 42
9.883999999999787
  3
Standard
100
AcDbOrdinateDimension
 13
588.0171555016199
 23
-200.1626625016796
 33
0.0
 14
586.9477006359102
 24
-204.8896210710029
 34
0.0
  0
DIMENSION
  5
932D
102
{ACAD_XDICTIONARY
360
932E
102
}
102
{ACAD_REACTORS
330
932F
102
}
330
1F
100
AcDbEntity
  8
DIMENSION
100
AcDbDimension
  2
*D24
 10
578.13315550162
 20
-201.9151625016796
 30
0.0
 11
573.5195702426372
 21
-186.9751625016796
 31
0.0
 70
    38
 71
     5
 42
14.93999999999999
  3
Standard
100
AcDbOrdinateDimension
 13
580.3296555016201
 23
-186.9751625016796
 33
0.0
 14
575.2970702426372
 24
-186.9751625016796
 34
0.0
  0
DIMENSION
  5
9339
330
1F
100
AcDbEntity
  8
DIMENSION
100
AcDbDimension
  2
*D8
 10
578.13315550162
 20
-201.9151625016796
 30
0.0
 11
588.0782385340681
 21
-167.3976167045705
 31
0.0
 70
   102
 71
     5
 42
11.88400000000001
  3
Standard
100
AcDbOrdinateDimension
 13
590.0171555016201
 23
-173.9751625016796
 33
0.0
 14
588.0782385340681
 24
-169.1126167045706
 34
0.0
  0
MTEXT
  5
933A
330
1F
100
AcDbEntity
  8
DIMENSION
100
AcDbMText
 10
586.2174556476245
 20
-190.2249412012558
 30
0.0
 40
0.75
 41
0.0
 71
     5
 72
     1
  1
\A1;10.278
 11
0.0000000000000001
 21
1.0
 31
0.0
 73
     1
 44
1.0
  0
LINE
  5
933B
330
1F
100
AcDbEntity
  8
DIMENSION
100
AcDbLine
 10
586.2174556476245
 20
-186.9474412012559
 30
0.0
 11
586.2174556476245
 21
-188.4474412012559
 31
0.0
  0
LINE
  5
933C
330
1F
100
AcDbEntity
  8
DIMENSION
100
AcDbLine
 10
588.4109055016202
 20
-185.3670287912526
 30
0.0
 11
588.4109055016202
 21
-186.0170287912526
 31
0.0
  0
LINE
  5
933D
330
1F
100
AcDbEntity
  8
DIMENSION
100
AcDbLine
 10
588.4109055016202
 20
-186.0170287912526
 30
0.0
 11
586.2174556476245
 21
-186.9474412012559
 31
0.0
  0
MTEXT
  5
933E
330
1F
100
AcDbEntity
  8
DIMENSION
100
AcDbMText
 10
581.8328765910774
 20
-190.06730593028
 30
0.0
 40
0.75
 41
0.0
 71
     5
 72
     1
  1
\A1;2.112
 11
0.0000000000000001
 21
1.0
 31
0.0
 73
     1
 44
1.0
  0
LINE
  5
933F
330
1F
100
AcDbEntity
  8
DIMENSION
100
AcDbLine
 10
581.8328765910774
 20
-187.22730593028
 30
0.0
 11
581.8328765910774
 21
-188.72730593028
 31
0.0
  0
LINE
  5
9340
330
1F
100
AcDbEntity
  8
DIMENSION
100
AcDbLine
 10
580.2455305016199
 20
-185.3670287912526
 30
0.0
 11
580.2455305016199
 21
-186.0170287912526
 31
0.0
  0
LINE
  5
9341
330
1F
100
AcDbEntity
  8
DIMENSION
100
AcDbLine
 10
581.8328765910774
 20
-187.22730593028
 30
0.0
 11
580.2455305016199
 21
-186.0170287912526
 31
0.0
  0
DIMENSION
  5
9342
102
{ACAD_XDICTIONARY
360
9343
102
}
102
{ACAD_REACTORS
330
9344
102
}
330
1F
100
AcDbEntity
  8
DIMENSION
100
AcDbDimension
  2
*D22
 10
578.13315550162
 20
-201.9151625016796
 30
0.0
 11
579.4706875365333
 21
-167.2700806223415
 31
0.0
 70
   102
 71
     5
 42
0.5967500000002702
  3
Standard
100
AcDbOrdinateDimension
 13
578.7299055016204
 23
-172.1661625016796
 33
0.0
 14
579.4706875365333
 24
-168.7975806223416
 34
0.0
  0
DIMENSION
  5
9345
102
{ACAD_XDICTIONARY
360
9346
102
}
102
{ACAD_REACTORS
330
9347
102
}
330
1F
100
AcDbEntity
  8
DIMENSION
100
AcDbDimension
  2
*D21
 10
578.13315550162
 20
-201.9151625016796
 30
0.0
 11
573.5672305318272
 21
-172.1661625016796
 31
0.0
 70
    38
  1
29.750
 71
     5
 42
29.749
  3
Standard
100
AcDbOrdinateDimension
 13
578.7299055016204
 23
-172.1661625016796
 33
0.0
 14
575.4697305318273
 24
-172.1661625016796
 34
0.0
  0
DIMENSION
  5
9348
102
{ACAD_XDICTIONARY
360
9349
102
}
102
{ACAD_REACTORS
330
934A
102
}
330
1F
100
AcDbEntity
  8
DIMENSION
100
AcDbDimension
  2
*D20
 10
578.13315550162
 20
-201.9151625016796
 30
0.0
 11
573.7903651792522
 21
-180.9161625016796
 31
0.0
 70
    38
  1
21.000
 71
     5
 42
20.99899999999999
  3
Standard
100
AcDbOrdinateDimension
 13
578.7299055016202
 23
-180.9161625016796
 33
0.0
 14
575.4428651792522
 24
-180.9161625016796
 34
0.0
  0
DIMENSION
  5
934B
102
{ACAD_XDICTIONARY
360
934C
102
}
102
{ACAD_REACTORS
330
934D
102
}
330
1F
100
AcDbEntity
  8
DIMENSION
100
AcDbDimension
  2
*D19
 10
578.13315550162
 20
-201.9151625016796
 30
0.0
 11
573.7193941732313
 21
-185.1670287912526
 31
0.0
 70
    38
 71
     5
 42
16.74813371042708
  3
Standard
100
AcDbOrdinateDimension
 13
580.2455305016199
 23
-185.1670287912526
 33
0.0
 14
575.5593941732312
 24
-185.1670287912526
 34
0.0
  0
DIMENSION
  5
934E
102
{ACAD_XDICTIONARY
360
934F
102
}
102
{ACAD_REACTORS
330
9350
102
}
330
1F
100
AcDbEntity
  8
DIMENSION
100
AcDbDimension
  2
*D18
 10
578.13315550162
 20
-201.9151625016796
 30
0.0
 11
590.40315550162
 21
-206.6371057325028
 31
0.0
 70
   102
 71
     5
 42
12.26999999999998
  3
Standard
100
AcDbOrdinateDimension
 13
590.40315550162
 23
-201.9151625016796
 33
0.0
 14
590.40315550162
 24
-204.8596057325029
 34
0.0
  0
DIMENSION
  5
9351
102
{ACAD_XDICTIONARY
360
9352
102
}
102
{ACAD_REACTORS
330
9353
102
}
330
1F
100
AcDbEntity
  8
DIMENSION
100
AcDbDimension
  2
*D17
 10
578.13315550162
 20
-201.9151625016796
 30
0.0
 11
588.7003523761059
 21
-206.5255530893363
 31
0.0
 70
   102
 71
     5
 42
11.06900000000019
  3
Standard
100
AcDbOrdinateDimension
 13
589.2021555016202
 23
-181.4051625016796
 33
0.0
 14
588.7003523761059
 24
-204.8730530893364
 34
0.0
  0
DIMENSION
  5
9354
102
{ACAD_XDICTIONARY
360
9355
102
}
102
{ACAD_REACTORS
330
9356
102
}
330
1F
100
AcDbEntity
  8
DIMENSION
100
AcDbDimension
  2
*D16
 10
578.13315550162
 20
-201.9151625016796
 30
0.0
 11
579.8768562406293
 21
-206.1256452699191
 31
0.0
 70
   102
  1
1.200
 71
     5
 42
1.200500000000146
  3
Standard
100
AcDbOrdinateDimension
 13
579.3336555016202
 23
-181.5926625016796
 33
0.0
 14
579.8768562406293
 24
-204.7856452699192
 34
0.0
  0
DIMENSION
  5
9357
102
{ACAD_XDICTIONARY
360
9358
102
}
102
{ACAD_REACTORS
330
9359
102
}
330
1F
100
AcDbEntity
  8
DIMENSION
100
AcDbDimension
  2
*D15
 10
578.13315550162
 20
-201.9151625016796
 30
0.0
 11
581.2151033802597
 21
-206.107957042562
 31
0.0
 70
   102
 71
     5
 42
2.383999999999787
  3
Standard
100
AcDbOrdinateDimension
 13
580.5171555016197
 23
-200.1626625016796
 33
0.0
 14
581.2151033802597
 24
-204.5179570425621
 34
0.0
  0
DIMENSION
  5
935A
102
{ACAD_XDICTIONARY
360
935B
102
}
102
{ACAD_REACTORS
330
935C
102
}
330
1F
100
AcDbEntity
  8
DIMENSION
100
AcDbDimension
  2
*D14
 10
578.13315550162
 20
-201.9151625016796
 30
0.0
 11
574.3709346968524
 21
-199.9751625016796
 31
0.0
 70
    38
 71
     5
 42
1.939999999999995
  3
Standard
100
AcDbOrdinateDimension
 13
580.3296555016201
 23
-199.9751625016796
 33
0.0
 14
575.7734346968525
 24
-199.9751625016796
 34
0.0
  0
DIMENSION
  5
935D
330
1F
100
AcDbEntity
  8
DIMENSION
100
AcDbDimension
  2
*D7
 10
578.13315550162
 20
-201.9151625016796
 30
0.0
 11
574.3534746352293
 21
-201.9151625016796
 31
0.0
 70
    38
 71
     5
 42
0.0
  3
Standard
100
AcDbOrdinateDimension
 13
578.13315550162
 23
-201.9151625016796
 33
0.0
 14
575.6934746352292
 24
-201.9151625016796
 34
0.0
  0
DIMENSION
  5
935E
102
{ACAD_XDICTIONARY
360
935F
102
}
102
{ACAD_REACTORS
330
9360
102
}
330
1F
100
AcDbEntity
  8
DIMENSION
100
AcDbDimension
  2
*D13
 10
578.13315550162
 20
-201.9151625016796
 30
0.0
 11
578.13315550162
 21
-206.2134840590202
 31
0.0
 70
   102
 71
     5
 42
0.0
  3
Standard
100
AcDbOrdinateDimension
 13
578.13315550162
 23
-201.9151625016796
 33
0.0
 14
578.13315550162
 24
-204.8734840590203
 34
0.0
  0
LINE
  5
9361
330
1F
100
AcDbEntity
  8
cutout
100
AcDbLine
 10
588.4109055016202
 20
-172.1661625016798
 30
0.0
 11
588.4109055016202
 21
-185.1670287912527
 31
0.0
  0
LINE
  5
9362
102
{ACAD_REACTORS
330
9347
330
9344
102
}
330
1F
100
AcDbEntity
  8
cutout
100
AcDbLine
 10
588.4109055016202
 20
-172.1661625016798
 30
0.0
 11
578.7299055016204
 21
-172.1661625016796
 31
0.0
  0
LINE
  5
9363
102
{ACAD_REACTORS
330
934A
102
}
330
1F
100
AcDbEntity
  8
cutout
100
AcDbLine
 10
578.7299055016202
 20
-180.9161625016796
 30
0.0
 11
578.7299055016204
 21
-172.1661625016796
 31
0.0
  0
LINE
  5
9367
102
{ACAD_REACTORS
330
934D
102
}
330
1F
100
AcDbEntity
  8
cutout
100
AcDbLine
 10
580.2455305016201
 20
-180.9161625016796
 30
0.0
 11
580.2455305016199
 21
-185.1670287912526
 31
0.0
  0
LINE
  5
9368
330
1F
100
AcDbEntity
  8
cutout
100
AcDbLine
 10
588.4109055016216
 20
-185.1670287912527
 30
0.0
 11
580.2455305016199
 21
-185.1670287912527
 31
0.0
  0
LINE
  5
9369
330
1F
100
AcDbEntity
  8
cutout
100
AcDbLine
 10
580.2455305016199
 20
-180.9161625016796
 30
0.0
 11
578.7299055016202
 21
-180.9161625016796
 31
0.0
  0
CIRCLE
  5
93D3
102
{ACAD_REACTORS
330
9326
330
9323
102
}
330
1F
100
AcDbEntity
  8
TEMPLATE
100
AcDbCircle
 10
578.5171555016201
 20
-173.9751625016796
 30
0.0
 40
0.1875
  0
CIRCLE
  5
93D4
330
1F
100
AcDbEntity
  8
TEMPLATE
100
AcDbCircle
 10
590.0171555016201
 20
-173.9751625016796
 30
0.0
 40
0.1875
  0
LINE
  5
93D5
102
{ACAD_REACTORS
330
9329
102
}
330
1F
100
AcDbEntity
  8
TEMPLATE
  6
HIDDEN
100
AcDbLine
 10
578.13315550162
 20
-171.8241625016796
 30
0.0
 11
590.40315550162
 21
-171.8241625016796
 31
0.0
  0
CIRCLE
  5
93D6
102
{ACAD_REACTORS
330
9356
102
}
330
1F
100
AcDbEntity
  8
TEMPLATE
100
AcDbCircle
 10
579.3336555016202
 20
-181.4051625016796
 30
0.0
 40
0.1875
  0
CIRCLE
  5
93D7
102
{ACAD_REACTORS
330
9353
102
}
330
1F
100
AcDbEntity
  8
TEMPLATE
100
AcDbCircle
 10
589.2021555016202
 20
-181.4051625016796
 30
0.0
 40
0.1875
  0
CIRCLE
  5
93D8
102
{ACAD_REACTORS
330
932F
102
}
330
1F
100
AcDbEntity
  8
TEMPLATE
100
AcDbCircle
 10
580.5171555016197
 20
-186.9751625016796
 30
0.0
 40
0.1875
  0
CIRCLE
  5
93D9
102
{ACAD_REACTORS
330
9320
102
}
330
1F
100
AcDbEntity
  8
TEMPLATE
100
AcDbCircle
 10
588.0171555016199
 20
-186.9751625016796
 30
0.0
 40
0.1875
  0
CIRCLE
  5
93DA
102
{ACAD_REACTORS
330
935C
330
9359
102
}
330
1F
100
AcDbEntity
  8
TEMPLATE
100
AcDbCircle
 10
580.5171555016197
 20
-199.9751625016796
 30
0.0
 40
0.1875
  0
CIRCLE
  5
93DB
102
{ACAD_REACTORS
330
932C
102
}
330
1F
100
AcDbEntity
  8
TEMPLATE
100
AcDbCircle
 10
588.0171555016199
 20
-199.9751625016796
 30
0.0
 40
0.1875
  0
LINE
  5
93E1
102
{ACAD_REACTORS
330
9360
330
9350
102
}
330
1F
100
AcDbEntity
  8
TEMPLATE
  6
HIDDEN
100
AcDbLine
 10
578.13315550162
 20
-201.9151625016796
 30
0.0
 11
590.40315550162
 21
-201.9151625016796
 31
0.0
  0
LINE
  5
93E2
330
1F
100
AcDbEntity
  8
TEMPLATE
  6
HIDDEN
100
AcDbLine
 10
578.2081555016201
 20
-201.9151625016796
 30
0.0
 11
590.3271555016202
 21
-201.9151625016796
 31
0.0
  0
LINE
  5
93E3
330
1F
100
AcDbEntity
  8
TEMPLATE
  6
HIDDEN
100
AcDbLine
 10
578.13315550162
 20
-201.9151625016796
 30
0.0
 11
578.13315550162
 21
-171.8241625016796
 31
0.0
  0
LINE
  5
93E4
330
1F
100
AcDbEntity
  8
TEMPLATE
  6
HIDDEN
100
AcDbLine
 10
590.40315550162
 20
-201.9151625016796
 30
0.0
 11
590.40315550162
 21
-171.8241625016796
 31
0.0
  0
TEXT
  5
984B
330
1F
100
AcDbEntity
  8
DIMENSION
100
AcDbText
 10
575.1551609461235
 20
-156.8628534923538
 30
0.0
 40
1.0
  1
HAZARDOUS LOCATION
 72
     1
 11
583.8218276127901
 21
-156.8628534923538
 31
0.0
100
AcDbText
  0
TEXT
  5
9F8B
330
1F
100
AcDbEntity
  8
TEXT
100
AcDbText
 10
607.0563769182789
 20
-220.8814750975636
 30
0.0
 40
0.625
  1
1
 72
     1
 11
607.1605435849456
 21
-220.5689750975636
 31
0.0
100
AcDbText
 73
     2
  0
TEXT
  5
9F8C
330
1F
100
AcDbEntity
  8
TEXT
100
AcDbText
 10
600.8758328444973
 20
-220.8814750975636
 30
0.0
 40
0.625
  1
IQ350272
 72
     1
 11
603.1154161778307
 21
-220.5689750975636
 31
0.0
100
AcDbText
 73
     2
  0
TEXT
  5
9F8D
330
1F
100
AcDbEntity
  8
TEXT
100
AcDbText
 10
601.6801501142006
 20
-219.6112189983869
 30
0.0
 40
0.625
  1
IQ5500VS
 72
     1
 11
603.9718167808672
 21
-219.2987189983869
 31
0.0
100
AcDbText
 73
     2
  0
TEXT
  5
9F8E
330
1F
100
AcDbEntity
  8
TEXT
100
AcDbText
 10
603.0997714038956
 20
-218.1815314983868
 30
0.0
 40
0.15625
  1
724-837-2204  *  1-888-867-8234
 72
     1
 11
605.456542237229
 21
-218.1034064983868
 31
0.0
100
AcDbText
 73
     2
  0
TEXT
  5
9F8F
330
1F
100
AcDbEntity
  8
TEXT
100
AcDbText
 10
603.9461255705623
 20
-217.8690314983868
 30
0.0
 40
0.15625
  1
GREENSBURG, PA  15601
 72
     1
 11
605.456542237229
 21
-217.7909064983868
 31
0.0
100
AcDbText
 73
     2
  0
TEXT
  5
9F90
330
1F
100
AcDbEntity
  8
TEXT
100
AcDbText
 10
604.1805005705623
 20
-217.5565314983867
 30
0.0
 40
0.15625
  1
141 WILSON AVENUE
 72
     1
 11
605.456542237229
 21
-217.4784064983867
 31
0.0
100
AcDbText
 73
     2
  0
TEXT
  5
9F91
330
1F
100
AcDbEntity
  8
TEXT
100
AcDbText
 10
603.3992505705623
 20
-217.2596564983867
 30
0.0
 40
0.15625
  1
INDUSTRIAL COOLING EQUIPMENT
 72
     1
 11
605.456542237229
 21
-217.1815314983867
 31
0.0
100
AcDbText
 73
     2
  0
TEXT
  5
9F92
330
1F
100
AcDbEntity
  8
TEXT
100
AcDbText
 10
604.1544589038956
 20
-218.4940314983869
 30
0.0
 40
0.15625
  1
FAX  724-837-3386
 72
     1
 11
605.456542237229
 21
-218.4159064983869
 31
0.0
100
AcDbText
 73
     2
  0
LINE
  5
9F93
330
1F
100
AcDbEntity
  8
BORDER
100
AcDbLine
 10
599.9270398301141
 20
-216.9862189983867
 30
0.0
 11
608.0172946443436
 21
-216.9862189983867
 31
0.0
  0
LINE
  5
9F94
330
1F
100
AcDbEntity
  8
BORDER
100
AcDbLine
 10
599.9270398301141
 20
-218.5487189983868
 30
0.0
 11
608.0172946443436
 21
-218.5487189983868
 31
0.0
  0
LINE
  5
9F95
330
1F
100
AcDbEntity
  8
BORDER
100
AcDbLine
 10
599.9270398301141
 20
-219.7987189983868
 30
0.0
 11
608.0172946443436
 21
-219.7987189983868
 31
0.0
  0
LINE
  5
9F96
330
1F
100
AcDbEntity
  8
BORDER
100
AcDbLine
 10
606.3037925255472
 20
-219.7987189983868
 30
0.0
 11
606.3037925255472
 21
-221.1048561967404
 31
0.0
  0
TEXT
  5
9F99
330
1F
100
AcDbEntity
  8
TEXT
100
AcDbText
 10
596.0368414017361
 20
-220.9180385524153
 30
0.0
 40
0.3125
  1
SHEET 1 OF 1
 72
     1
 11
597.7555914017361
 21
-220.7617885524153
 31
0.0
100
AcDbText
 73
     2
  0
LINE
  5
9F9A
330
1F
100
AcDbEntity
  8
BORDER
100
AcDbLine
 10
595.5520398301141
 20
-220.4237189983868
 30
0.0
 11
599.9270398301141
 21
-220.4237189983868
 31
0.0
  0
TEXT
  5
9F9B
330
1F
100
AcDbEntity
  8
TEXT
100
AcDbText
 10
596.6718314967807
 20
-220.2624339616891
 30
0.0
 40
0.3125
  1
10-22-14
 72
     1
 11
597.7395398301141
 21
-220.1061839616891
 31
0.0
100
AcDbText
 73
     2
  0
TEXT
  5
9F9C
330
1F
100
AcDbEntity
  8
TEXT
100
AcDbText
 10
595.7082898301141
 20
-220.0330939983868
 30
0.0
 40
0.15625
  1
DATE
100
AcDbText
  0
TEXT
  5
9F9D
330
1F
100
AcDbEntity
  8
TEXT
100
AcDbText
 10
596.3004773301141
 20
-219.7430939983868
 30
0.0
 40
0.234375
  1
JJH
 72
     1
 11
596.6129773301141
 21
-219.6259064983868
 31
0.0
100
AcDbText
 73
     2
  0
TEXT
  5
9F9E
330
1F
100
AcDbEntity
  8
TEXT
100
AcDbText
 10
595.6426648301142
 20
-219.4080939983868
 30
0.0
 40
0.15625
  1
DRAWN
100
AcDbText
  0
TEXT
  5
9F9F
330
1F
100
AcDbEntity
  8
TEXT
100
AcDbText
 10
597.8957898301141
 20
-219.4080939983868
 30
0.0
 40
0.15625
  1
SCALE
100
AcDbText
  0
TEXT
  5
9FA0
330
1F
100
AcDbEntity
  8
TEXT
100
AcDbText
 10
598.4364148301142
 20
-219.7430939983868
 30
0.0
 40
0.234375
  1
NONE
 72
     1
 11
598.8661023301142
 21
-219.6259064983868
 31
0.0
100
AcDbText
 73
     2
  0
LINE
  5
9FA1
330
1F
100
AcDbEntity
  8
BORDER
100
AcDbLine
 10
595.5520398301141
 20
-219.1737189983868
 30
0.0
 11
599.9270398301141
 21
-219.1737189983868
 31
0.0
  0
LINE
  5
9FA2
330
1F
100
AcDbEntity
  8
BORDER
100
AcDbLine
 10
595.5520398301141
 20
-219.7987189983868
 30
0.0
 11
599.9270398301141
 21
-219.7987189983868
 31
0.0
  0
LINE
  5
9FA3
330
1F
100
AcDbEntity
  8
BORDER
100
AcDbLine
 10
599.9270398301141
 20
-221.1048561967405
 30
0.0
 11
599.9270398301141
 21
-216.9862189983867
 31
0.0
  0
LINE
  5
9FA4
330
1F
100
AcDbEntity
  8
TEXT
100
AcDbLine
 10
600.8212593307871
 20
-218.2940689823562
 30
0.0
 11
600.8479904166919
 21
-218.3109864686053
 31
0.0
  0
ARC
  5
9FA5
330
1F
100
AcDbEntity
  8
TEXT
100
AcDbCircle
 10
600.9957691191365
 20
-218.1144353674021
 30
0.0
 40
0.1029739000996109
100
AcDbArc
 50
287.1920036507392
 51
335.8997504051564
  0
ARC
  5
9FA6
330
1F
100
AcDbEntity
  8
TEXT
100
AcDbCircle
 10
601.2017819740417
 20
-218.2531652309963
 30
0.0
 40
0.047902564587344
100
AcDbArc
 50
67.37252950712586
 51
112.6274704928672
  0
ARC
  5
9FA7
330
1F
100
AcDbEntity
  8
TEXT
100
AcDbCircle
 10
601.1866911202038
 20
-218.1704048822497
 30
0.0
 40
0.0676602827344026
100
AcDbArc
 50
330.191664416384
 51
19.91318758187905
  0
ARC
  5
9FA8
330
1F
100
AcDbEntity
  8
TEXT
100
AcDbCircle
 10
601.0966719054358
 20
-218.1325149948501
 30
0.0
 40
0.0249429364567843
100
AcDbArc
 50
253.9290889125597
 51
38.65267477511337
  0
ARC
  5
9FA9
330
1F
100
AcDbEntity
  8
TEXT
100
AcDbCircle
 10
601.5205910005222
 20
-218.1583325561905
 30
0.0
 40
0.0518260868541633
100
AcDbArc
 50
188.1927496775744
 51
244.8496170020149
  0
ARC
  5
9FAA
330
1F
100
AcDbEntity
  8
TEXT
100
AcDbCircle
 10
601.519957219105
 20
-218.1081659526881
 30
0.0
 40
0.0994083459973538
100
AcDbArc
 50
257.5730930866188
 51
314.4273867462248
  0
LINE
  5
9FAB
330
1F
100
AcDbEntity
  8
TEXT
100
AcDbLine
 10
601.6931798183636
 20
-218.2186845907522
 30
0.0
 11
601.6947620285965
 21
-218.2005020161795
 31
0.0
  0
LINE
  5
9FAC
330
1F
100
AcDbEntity
  8
TEXT
100
AcDbLine
 10
601.6947620285965
 20
-218.2005020161795
 30
0.0
 11
601.6678640895341
 21
-218.2020831136554
 31
0.0
  0
ARC
  5
9FAD
330
1F
100
AcDbEntity
  8
TEXT
100
AcDbCircle
 10
601.6673201719115
 20
-218.1801690296416
 30
0.0
 40
0.0219208331170951
100
AcDbArc
 50
155.9964711746287
 51
271.4218156194853
  0
ARC
  5
9FAE
330
1F
100
AcDbEntity
  8
TEXT
100
AcDbCircle
 10
601.8577460680273
 20
-218.1694503325342
 30
0.0
 40
0.0513752098052219
100
AcDbArc
 50
203.9135879631549
 51
286.1701931802542
  0
ARC
  5
9FAF
330
1F
100
AcDbEntity
  8
TEXT
100
AcDbCircle
 10
601.8823273679772
 20
-218.1469868670411
 30
0.0
 40
0.0725374442393223
100
AcDbArc
 50
261.8576121462839
 51
331.2394802847383
  0
ARC
  5
9FB0
330
1F
100
AcDbEntity
  8
TEXT
100
AcDbCircle
 10
601.8792512695878
 20
-218.1357165638978
 30
0.0
 40
0.0810929943736197
100
AcDbArc
 50
325.2939034707323
 51
356.4132772462207
  0
LINE
  5
9FB1
330
1F
100
AcDbEntity
  8
TEXT
100
AcDbLine
 10
601.1706388261675
 20
-217.4028867324499
 30
0.0
 11
601.3786304343546
 21
-217.4028867324499
 31
0.0
  0
ARC
  5
9FB2
330
1F
100
AcDbEntity
  8
TEXT
100
AcDbCircle
 10
601.2841522304774
 20
-217.3984934294032
 30
0.0
 40
0.0945802945625412
100
AcDbArc
 50
357.337623744369
 51
85.63084243886228
  0
ARC
  5
9FB3
330
1F
100
AcDbEntity
  8
TEXT
100
AcDbCircle
 10
601.2546682438784
 20
-217.4791419038788
 30
0.0
 40
0.1787595523837168
100
AcDbArc
 50
78.15621523985544
 51
106.6122408520361
  0
LINE
  5
9FB4
330
1F
100
AcDbEntity
  8
TEXT
100
AcDbLine
 10
601.1706388261675
 20
-217.3804314697797
 30
0.0
 11
601.3070353392442
 21
-217.3804314697797
 31
0.0
  0
ARC
  5
9FB5
330
1F
100
AcDbEntity
  8
TEXT
100
AcDbCircle
 10
601.2370943908092
 20
-217.3934109928715
 30
0.0
 40
0.0677112257424498
100
AcDbArc
 50
103.9179608005986
 51
168.9486088950471
  0
ARC
  5
9FB6
330
1F
100
AcDbEntity
  8
TEXT
100
AcDbCircle
 10
601.2526738849182
 20
-217.3787144327997
 30
0.0
 40
0.0543885643533876
100
AcDbArc
 50
358.1908821763629
 51
69.74957583402943
  0
ARC
  5
9FB7
330
1F
100
AcDbEntity
  8
TEXT
100
AcDbCircle
 10
601.2461533623421
 20
-217.5341032028306
 30
0.0
 40
0.2079657856617219
100
AcDbArc
 50
82.99970676551479
 51
97.00029323448521
  0
ARC
  5
9FB8
330
1F
100
AcDbEntity
  8
TEXT
100
AcDbCircle
 10
601.2446527273398
 20
-217.4303542673649
 30
0.0
 40
0.1292181297135794
100
AcDbArc
 50
108.5416613320802
 51
149.765233953618
  0
ARC
  5
9FB9
330
1F
100
AcDbEntity
  8
TEXT
100
AcDbCircle
 10
601.2454797460198
 20
-217.4342905951522
 30
0.0
 40
0.1319485192661753
100
AcDbArc
 50
148.4692011102848
 51
195.580236137337
  0
ARC
  5
9FBA
330
1F
100
AcDbEntity
  8
TEXT
100
AcDbCircle
 10
601.2430389128567
 20
-217.4382220076756
 30
0.0
 40
0.1285795811377622
100
AcDbArc
 50
194.1847393568164
 51
248.6586767321132
  0
ARC
  5
9FBB
330
1F
100
AcDbEntity
  8
TEXT
100
AcDbCircle
 10
601.2958537174845
 20
-217.4044254052043
 30
0.0
 40
0.1252243447630968
100
AcDbArc
 50
179.2959701761242
 51
227.5915484940839
  0
ARC
  5
9FBC
330
1F
100
AcDbEntity
  8
TEXT
100
AcDbCircle
 10
601.268544570824
 20
-217.4267165206407
 30
0.0
 40
0.0904935239504756
100
AcDbArc
 50
230.8416488637728
 51
280.5326941523483
  0
ARC
  5
9FBD
330
1F
100
AcDbEntity
  8
TEXT
100
AcDbCircle
 10
601.2803711579603
 20
-217.4021969857938
 30
0.0
 40
0.1135862276716573
100
AcDbArc
 50
272.3792098458872
 51
327.3581874363198
  0
ARC
  5
9FBE
330
1F
100
AcDbEntity
  8
TEXT
100
AcDbCircle
 10
601.2467916242518
 20
-217.3783455368495
 30
0.0
 40
0.1866149158157418
100
AcDbArc
 50
254.2847830849396
 51
294.1819270465994
  0
ARC
  5
9FBF
330
1F
100
AcDbEntity
  8
TEXT
100
AcDbCircle
 10
601.2619402748862
 20
-217.4246904181534
 30
0.0
 40
0.1382279414268217
100
AcDbArc
 50
296.323392370721
 51
339.834833147579
  0
ARC
  5
9FC0
330
1F
100
AcDbEntity
  8
TEXT
100
AcDbCircle
 10
601.3823438386301
 20
-217.470573627185
 30
0.0
 40
0.0095170105473448
100
AcDbArc
 50
349.2952029716978
 51
131.6626905469357
  0
ARC
  5
9FC1
330
1F
100
AcDbEntity
  8
TEXT
100
AcDbCircle
 10
600.9787257037967
 20
-217.6989025631598
 30
0.0
 40
0.3987988710058952
100
AcDbArc
 50
84.62122141578795
 51
95.37877858421207
  0
ARC
  5
9FC2
330
1F
100
AcDbEntity
  8
TEXT
100
AcDbCircle
 10
601.0026380587412
 20
-217.3927917310194
 30
0.0
 40
0.091924416877587
100
AcDbArc
 50
43.16761867319242
 51
81.57335966331345
  0
ARC
  5
9FC3
330
1F
100
AcDbEntity
  8
TEXT
100
AcDbCircle
 10
601.0377721309826
 20
-217.3538996040514
 30
0.0
 40
0.0399271801820827
100
AcDbArc
 50
321.1558234807579
 51
36.9421790422972
  0
ARC
  5
9FC4
330
1F
100
AcDbEntity
  8
TEXT
100
AcDbCircle
 10
601.0453548951517
 20
-217.3484824655451
 30
0.0
 40
0.0384802722134761
100
AcDbArc
 50
205.1359642898991
 51
307.6679722285769
  0
ARC
  5
9FC5
330
1F
100
AcDbEntity
  8
TEXT
100
AcDbCircle
 10
601.0533935097011
 20
-217.3476570446883
 30
0.0
 40
0.046185345798517
100
AcDbArc
 50
180.010674400693
 51
201.8251852718023
  0
ARC
  5
9FC6
330
1F
100
AcDbEntity
  8
TEXT
100
AcDbCircle
 10
600.9617943607572
 20
-217.3613049975426
 30
0.0
 40
0.0474177752828994
100
AcDbArc
 50
16.71684440730665
 51
45.97719400399848
  0
ARC
  5
9FC7
330
1F
100
AcDbEntity
  8
TEXT
100
AcDbCircle
 10
600.9699590023546
 20
-217.712020162517
 30
0.0
 40
0.3856090945596675
100
AcDbArc
 50
86.31431733544658
 51
93.90381943516556
  0
ARC
  5
9FC8
330
1F
100
AcDbEntity
  8
TEXT
100
AcDbCircle
 10
600.9560603676796
 20
-217.4206022218062
 30
0.0
 40
0.1196511698431431
100
AcDbArc
 50
97.06566064011505
 51
142.4986334312221
  0
ARC
  5
9FC9
330
1F
100
AcDbEntity
  8
TEXT
100
AcDbCircle
 10
600.9549775387149
 20
-217.439306641836
 30
0.0
 40
0.1310983043162969
100
AcDbArc
 50
135.7093780000617
 51
195.2317137751531
  0
ARC
  5
9FCA
330
1F
100
AcDbEntity
  8
TEXT
100
AcDbCircle
 10
600.9425779821977
 20
-217.4432823070602
 30
0.0
 40
0.1180912454887081
100
AcDbArc
 50
194.9511061487661
 51
259.6103135862126
  0
ARC
  5
9FCB
330
1F
100
AcDbEntity
  8
TEXT
100
AcDbCircle
 10
600.9614370837534
 20
-217.4384791289947
 30
0.0
 40
0.1274495304475066
100
AcDbArc
 50
251.6347706403308
 51
316.4182924463625
  0
ARC
  5
9FCC
330
1F
100
AcDbEntity
  8
TEXT
100
AcDbCircle
 10
600.9454174380667
 20
-217.3982038748048
 30
0.0
 40
0.1678017612198071
100
AcDbArc
 50
310.2152586008202
 51
331.3072507285866
  0
ARC
  5
9FCD
330
1F
100
AcDbEntity
  8
TEXT
100
AcDbCircle
 10
600.9938876040852
 20
-217.424230559841
 30
0.0
 40
0.1091448673447349
100
AcDbArc
 50
117.3722826858107
 51
160.0902491401812
  0
ARC
  5
9FCE
330
1F
100
AcDbEntity
  8
TEXT
100
AcDbCircle
 10
601.0079856528256
 20
-217.4139169425006
 30
0.0
 40
0.1197688266097961
100
AcDbArc
 50
167.0430028911423
 51
212.1309371309446
  0
ARC
  5
9FCF
330
1F
100
AcDbEntity
  8
TEXT
100
AcDbCircle
 10
600.9824005857892
 20
-217.4280904431748
 30
0.0
 40
0.0905784598489114
100
AcDbArc
 50
213.1462108998118
 51
285.6537258536393
  0
ARC
  5
9FD0
330
1F
100
AcDbEntity
  8
TEXT
100
AcDbCircle
 10
600.9832238099168
 20
-217.4057327986917
 30
0.0
 40
0.1120927222252192
100
AcDbArc
 50
282.1628426667851
 51
326.5593609179289
  0
ARC
  5
9FD1
330
1F
100
AcDbEntity
  8
TEXT
100
AcDbCircle
 10
601.0801786303042
 20
-217.4794820253826
 30
0.0
 40
0.0124561803706211
100
AcDbArc
 50
3.288025410275531
 51
105.9275278804375
  0
LINE
  5
9FD2
330
1F
100
AcDbEntity
  8
TEXT
100
AcDbLine
 10
600.493144448051
 20
-217.0335797427569
 30
0.0
 11
600.4972145906426
 21
-217.3670910570529
 31
0.0
  0
LINE
  5
9FD3
330
1F
100
AcDbEntity
  8
TEXT
100
AcDbLine
 10
600.525705588783
 20
-217.0742518621782
 30
0.0
 11
600.5277406600787
 21
-217.3670910570529
 31
0.0
  0
ARC
  5
9FD4
330
1F
100
AcDbEntity
  8
TEXT
100
AcDbCircle
 10
600.5124776253602
 20
-217.3676508651752
 30
0.0
 40
0.0152732974154362
100
AcDbArc
 50
177.899482485688
 51
2.100517514311758
  0
LINE
  5
9FD5
330
1F
100
AcDbEntity
  8
TEXT
100
AcDbLine
 10
600.5956744615819
 20
-217.088958413407
 30
0.0
 11
600.5956744615819
 21
-217.5987744384298
 31
0.0
  0
LINE
  5
9FD6
330
1F
100
AcDbEntity
  8
TEXT
100
AcDbLine
 10
600.7435117314448
 20
-217.088958413407
 30
0.0
 11
600.7435117314448
 21
-217.5987744384298
 31
0.0
  0
ARC
  5
9FD7
330
1F
100
AcDbEntity
  8
TEXT
100
AcDbCircle
 10
600.5405301283793
 20
-217.0749639270399
 30
0.0
 40
0.0148416309955998
100
AcDbArc
 50
38.20381851856389
 51
177.2500340797979
  0
LINE
  5
9FD8
330
1F
100
AcDbEntity
  8
TEXT
100
AcDbLine
 10
600.5521929146903
 20
-217.0657849605361
 30
0.0
 11
600.5956744615819
 21
-217.088958413407
 31
0.0
  0
LINE
  5
9FD9
330
1F
100
AcDbEntity
  8
TEXT
100
AcDbLine
 10
600.7869932783362
 20
-217.0657849605361
 30
0.0
 11
600.7435117314448
 21
-217.088958413407
 31
0.0
  0
LINE
  5
9FDA
330
1F
100
AcDbEntity
  8
TEXT
100
AcDbLine
 10
600.8134806042439
 20
-217.0742518621782
 30
0.0
 11
600.813312953938
 21
-217.0983761180264
 31
0.0
  0
LINE
  5
9FDB
330
1F
100
AcDbEntity
  8
TEXT
100
AcDbLine
 10
600.8460417449757
 20
-217.0335797427569
 30
0.0
 11
600.8452509757411
 21
-217.0983761180264
 31
0.0
  0
ARC
  5
9FDC
330
1F
100
AcDbEntity
  8
TEXT
100
AcDbCircle
 10
600.7986560646476
 20
-217.0749639270399
 30
0.0
 40
0.0148416309955998
100
AcDbArc
 50
2.749965920202086
 51
141.7961814814361
  0
ARC
  5
9FDD
330
1F
100
AcDbEntity
  8
TEXT
100
AcDbCircle
 10
600.8292819648394
 20
-217.1089263357602
 30
0.0
 40
0.019139394018822
100
AcDbArc
 50
146.5485285753443
 51
33.45147142465568
  0
ARC
  5
9FDE
330
1F
100
AcDbEntity
  8
TEXT
100
AcDbCircle
 10
602.3335395003697
 20
-218.1508525706028
 30
0.0
 40
0.0095170105473448
100
AcDbArc
 50
349.2952029716978
 51
131.6626905469357
  0
ARC
  5
9FDF
330
1F
100
AcDbEntity
  8
TEXT
100
AcDbCircle
 10
602.2131359366259
 20
-218.1049693615713
 30
0.0
 40
0.1382279414268217
100
AcDbArc
 50
296.323392370721
 51
339.834833147579
  0
ARC
  5
9FE0
330
1F
100
AcDbEntity
  8
TEXT
100
AcDbCircle
 10
602.1979872859913
 20
-218.0586244802673
 30
0.0
 40
0.1866149158157418
100
AcDbArc
 50
254.2847830849396
 51
294.1819270465994
  0
ARC
  5
9FE1
330
1F
100
AcDbEntity
  8
TEXT
100
AcDbCircle
 10
602.2315668196998
 20
-218.0824759292116
 30
0.0
 40
0.1135862276716573
100
AcDbArc
 50
272.3792098458872
 51
327.3581874363198
  0
ARC
  5
9FE2
330
1F
100
AcDbEntity
  8
TEXT
100
AcDbCircle
 10
602.2197402325636
 20
-218.1069954640585
 30
0.0
 40
0.0904935239504756
100
AcDbArc
 50
230.8416488637728
 51
280.5326941523483
  0
ARC
  5
9FE3
330
1F
100
AcDbEntity
  8
TEXT
100
AcDbCircle
 10
602.2470493792241
 20
-218.0847043486222
 30
0.0
 40
0.1252243447630968
100
AcDbArc
 50
179.2959701761242
 51
227.5915484940839
  0
ARC
  5
9FE4
330
1F
100
AcDbEntity
  8
TEXT
100
AcDbCircle
 10
602.1942345745965
 20
-218.1185009510935
 30
0.0
 40
0.1285795811377622
100
AcDbArc
 50
194.1847393568164
 51
248.6586767321132
  0
ARC
  5
9FE5
330
1F
100
AcDbEntity
  8
TEXT
100
AcDbCircle
 10
602.1966754077594
 20
-218.11456953857
 30
0.0
 40
0.1319485192661753
100
AcDbArc
 50
148.4692011102848
 51
195.580236137337
  0
ARC
  5
9FE6
330
1F
100
AcDbEntity
  8
TEXT
100
AcDbCircle
 10
602.1958483890796
 20
-218.1106332107827
 30
0.0
 40
0.1292181297135794
100
AcDbArc
 50
108.5416613320802
 51
149.765233953618
  0
ARC
  5
9FE7
330
1F
100
AcDbEntity
  8
TEXT
100
AcDbCircle
 10
602.1973490240816
 20
-218.2143821462485
 30
0.0
 40
0.2079657856617219
100
AcDbArc
 50
82.99970676551479
 51
97.00029323448521
  0
ARC
  5
9FE8
330
1F
100
AcDbEntity
  8
TEXT
100
AcDbCircle
 10
602.2038695466577
 20
-218.0589933762175
 30
0.0
 40
0.0543885643533876
100
AcDbArc
 50
358.1908821763629
 51
69.74957583402943
  0
ARC
  5
9FE9
330
1F
100
AcDbEntity
  8
TEXT
100
AcDbCircle
 10
602.1882900525489
 20
-218.0736899362893
 30
0.0
 40
0.0677112257424498
100
AcDbArc
 50
103.9179608005986
 51
168.9486088950471
  0
LINE
  5
9FEA
330
1F
100
AcDbEntity
  8
TEXT
100
AcDbLine
 10
602.1218344879071
 20
-218.0607104131975
 30
0.0
 11
602.2582310009839
 21
-218.0607104131975
 31
0.0
  0
ARC
  5
9FEB
330
1F
100
AcDbEntity
  8
TEXT
100
AcDbCircle
 10
602.2058639056178
 20
-218.1594208472967
 30
0.0
 40
0.1787595523837168
100
AcDbArc
 50
78.15621523985544
 51
106.6122408520361
  0
ARC
  5
9FEC
330
1F
100
AcDbEntity
  8
TEXT
100
AcDbCircle
 10
602.2353478922171
 20
-218.078772372821
 30
0.0
 40
0.0945802945625412
100
AcDbArc
 50
357.337623744369
 51
85.63084243886228
  0
LINE
  5
9FED
330
1F
100
AcDbEntity
  8
TEXT
100
AcDbLine
 10
602.1218344879071
 20
-218.0831656758678
 30
0.0
 11
602.3298260960943
 21
-218.0831656758678
 31
0.0
  0
ARC
  5
9FEE
330
1F
100
AcDbEntity
  8
TEXT
100
AcDbCircle
 10
600.6067139013981
 20
-217.6300215763632
 30
0.0
 40
0.0331398983173351
100
AcDbArc
 50
109.4580308571273
 51
191.0341765876995
  0
ARC
  5
9FEF
330
1F
100
AcDbEntity
  8
TEXT
100
AcDbCircle
 10
600.5643559239131
 20
-217.6382156832574
 30
0.0
 40
0.0100035300295991
100
AcDbArc
 50
155.9249042338189
 51
10.66497725508788
  0
ARC
  5
9FF0
330
1F
100
AcDbEntity
  8
TEXT
100
AcDbCircle
 10
600.5365565320158
 20
-217.6460199433572
 30
0.0
 40
0.0221286157777855
100
AcDbArc
 50
32.4856949474364
 51
175.1979664789357
  0
ARC
  5
9FF1
330
1F
100
AcDbEntity
  8
TEXT
100
AcDbCircle
 10
600.5070960286632
 20
-217.6476964538321
 30
0.0
 40
0.0082070223616514
100
AcDbArc
 50
158.7719549350953
 51
25.46716058584043
  0
ARC
  5
9FF2
330
1F
100
AcDbEntity
  8
TEXT
100
AcDbCircle
 10
600.4878949987998
 20
-217.6422950433131
 30
0.0
 40
0.0118036776942274
100
AcDbArc
 50
348.1206509806769
 51
136.2651890953788
  0
ARC
  5
9FF3
330
1F
100
AcDbEntity
  8
TEXT
100
AcDbCircle
 10
600.4864778480581
 20
-217.6485144782296
 30
0.0
 40
0.0160420204804056
100
AcDbArc
 50
116.3151684036778
 51
258.4674100382152
  0
ARC
  5
9FF4
330
1F
100
AcDbEntity
  8
TEXT
100
AcDbCircle
 10
600.4919564890506
 20
-217.6724702132006
 30
0.0
 40
0.0119708699890584
100
AcDbArc
 50
356.7423630506752
 51
136.5172760690091
  0
ARC
  5
9FF5
330
1F
100
AcDbEntity
  8
TEXT
100
AcDbCircle
 10
600.5081653218232
 20
-217.6794109609775
 30
0.0
 40
0.0075708934653655
100
AcDbArc
 50
124.2167745950174
 51
319.7988197133688
  0
ARC
  5
9FF6
330
1F
100
AcDbEntity
  8
TEXT
100
AcDbCircle
 10
600.5384847861554
 20
-217.6931012582753
 30
0.0
 40
0.0260684316724221
100
AcDbArc
 50
160.2627782819643
 51
255.1333022011721
  0
ARC
  5
9FF7
330
1F
100
AcDbEntity
  8
TEXT
100
AcDbCircle
 10
600.5383064597274
 20
-217.7157306405073
 30
0.0
 40
0.0069976873342193
100
AcDbArc
 50
201.5154657473982
 51
41.96660508022961
  0
ARC
  5
9FF8
330
1F
100
AcDbEntity
  8
TEXT
100
AcDbCircle
 10
600.5626811697712
 20
-217.6983747159817
 30
0.0
 40
0.0229836788276261
100
AcDbArc
 50
121.2424246402138
 51
213.473239708373
  0
ARC
  5
9FF9
330
1F
100
AcDbEntity
  8
TEXT
100
AcDbCircle
 10
600.5571482765239
 20
-217.6899834309145
 30
0.0
 40
0.0129451309621158
100
AcDbArc
 50
332.2921775479056
 51
119.5678571759904
  0
ARC
  5
9FFA
330
1F
100
AcDbEntity
  8
TEXT
100
AcDbCircle
 10
600.5595744110758
 20
-217.7172774721467
 30
0.0
 40
0.0231138652678936
100
AcDbArc
 50
312.9867785858866
 51
66.99118422926638
  0
ARC
  5
9FFB
330
1F
100
AcDbEntity
  8
TEXT
100
AcDbCircle
 10
600.6591142583985
 20
-217.8963522238181
 30
0.0
 40
0.1825298605922834
100
AcDbArc
 50
117.3222180892423
 51
179.3383492613259
  0
ARC
  5
9FFC
330
1F
100
AcDbEntity
  8
TEXT
100
AcDbCircle
 10
601.248169781769
 20
-217.9561593002773
 30
0.0
 40
0.7740534065258921
100
AcDbArc
 50
175.4121316267021
 51
191.7939289657066
  0
ARC
  5
9FFD
330
1F
100
AcDbEntity
  8
TEXT
100
AcDbCircle
 10
600.4889450579886
 20
-218.1497037205655
 30
0.0
 40
0.0353661901713158
100
AcDbArc
 50
15.17145974978885
 51
87.54918714297627
  0
ARC
  5
9FFE
330
1F
100
AcDbEntity
  8
TEXT
100
AcDbCircle
 10
603.6818697868465
 20
-218.2481926041584
 30
0.0
 40
3.160628174278595
100
AcDbArc
 50
178.0464319449979
 51
181.7502526685598
  0
LINE
  5
9FFF
330
1F
100
AcDbEntity
  8
TEXT
100
AcDbLine
 10
600.5565730056684
 20
-218.1883004468586
 30
0.0
 11
600.5553053597973
 21
-218.3409413275521
 31
0.0
  0
ARC
  5
A000
330
1F
100
AcDbEntity
  8
TEXT
100
AcDbCircle
 10
600.5618640397393
 20
-218.1871688279466
 30
0.0
 40
0.0054106933848193
100
AcDbArc
 50
333.6879001367211
 51
192.072245755337
  0
LINE
  5
A001
330
1F
100
AcDbEntity
  8
TEXT
100
AcDbLine
 10
600.5667141465574
 20
-218.1895671746187
 30
0.0
 11
600.5667141465574
 21
-218.2123683052341
 31
0.0
  0
ARC
  5
A002
330
1F
100
AcDbEntity
  8
TEXT
100
AcDbCircle
 10
600.5738819408287
 20
-218.2107152432613
 30
0.0
 40
0.0073559424006224
100
AcDbArc
 50
192.9866902548921
 51
33.38063139740807
  0
ARC
  5
A003
330
1F
100
AcDbEntity
  8
TEXT
100
AcDbCircle
 10
600.593065046173
 20
-218.2151979608003
 30
0.0
 40
0.0155826305602638
100
AcDbArc
 50
17.66955929970605
 51
146.8111142491855
  0
ARC
  5
A004
330
1F
100
AcDbEntity
  8
TEXT
100
AcDbCircle
 10
600.6418840923439
 20
-218.1913416685116
 30
0.0
 40
0.0389857867394515
100
AcDbArc
 50
209.3802246625978
 51
263.8421008682747
  0
LINE
  5
A005
330
1F
100
AcDbEntity
  8
TEXT
100
AcDbLine
 10
600.6377021327807
 20
-218.2301025093424
 30
0.0
 11
600.6415050443147
 21
-218.2833051526002
 31
0.0
  0
ARC
  5
A006
330
1F
100
AcDbEntity
  8
TEXT
100
AcDbCircle
 10
600.657541890407
 20
-218.285545940297
 30
0.0
 40
0.0161926391326401
100
AcDbArc
 50
172.0457056516385
 51
14.81661014794111
  0
LINE
  5
A007
330
1F
100
AcDbEntity
  8
TEXT
100
AcDbLine
 10
600.6731961128532
 20
-218.28140506096
 30
0.0
 11
600.6757314045954
 21
-218.2592372942248
 31
0.0
  0
ARC
  5
A008
330
1F
100
AcDbEntity
  8
TEXT
100
AcDbCircle
 10
600.6815071752143
 20
-218.2585624335851
 30
0.0
 40
0.0058150634670569
100
AcDbArc
 50
318.6510821797589
 51
186.6644145786487
  0
LINE
  5
A009
330
1F
100
AcDbEntity
  8
TEXT
100
AcDbLine
 10
600.6858725454844
 20
-218.2624041136251
 30
0.0
 11
600.6890416340827
 21
-218.2915388830411
 31
0.0
  0
ARC
  5
A00A
330
1F
100
AcDbEntity
  8
TEXT
100
AcDbCircle
 10
600.6998918464485
 20
-218.2937824996332
 30
0.0
 40
0.0110797528757836
100
AcDbArc
 50
168.3169857564316
 51
15.04995211451697
  0
LINE
  5
A00B
330
1F
100
AcDbEntity
  8
TEXT
100
AcDbLine
 10
600.710591561732
 20
-218.2909055191611
 30
0.0
 11
600.710591561732
 21
-218.2668376607856
 31
0.0
  0
ARC
  5
A00C
330
1F
100
AcDbEntity
  8
TEXT
100
AcDbCircle
 10
600.7250275023751
 20
-218.2793641739002
 30
0.0
 40
0.0191130822490872
100
AcDbArc
 50
65.19241843010725
 51
139.0508106988802
  0
ARC
  5
A00D
330
1F
100
AcDbEntity
  8
TEXT
100
AcDbCircle
 10
600.7373429141444
 20
-218.2805621426366
 30
0.0
 40
0.0190383821988919
100
AcDbArc
 50
7.606980527162057
 51
103.0413594591619
  0
LINE
  5
A00E
330
1F
100
AcDbEntity
  8
TEXT
100
AcDbLine
 10
600.7562137475315
 20
-218.2780418958182
 30
0.0
 11
600.7642330524396
 21
-218.3884507330938
 31
0.0
  0
LINE
  5
A00F
330
1F
100
AcDbEntity
  8
TEXT
100
AcDbLine
 10
600.7989834432527
 20
-218.3848891651817
 30
0.0
 11
600.8016565622746
 21
-218.2976305657347
 31
0.0
  0
ARC
  5
A010
330
1F
100
AcDbEntity
  8
TEXT
100
AcDbCircle
 10
600.811303840539
 20
-218.2950015827319
 30
0.0
 40
0.0099990764344
100
AcDbArc
 50
5.351678383091137
 51
195.2435488026406
  0
LINE
  5
A011
330
1F
100
AcDbEntity
  8
TEXT
100
AcDbLine
 10
600.8479904166919
 20
-218.3109864686053
 30
0.0
 11
600.8497724960399
 21
-218.3661908949763
 31
0.0
  0
ARC
  5
A012
330
1F
100
AcDbEntity
  8
TEXT
100
AcDbCircle
 10
600.8984054544924
 20
-218.323451987231
 30
0.0
 40
0.0093269579312538
100
AcDbArc
 50
354.5219056877808
 51
214.944854376383
  0
ARC
  5
A013
330
1F
100
AcDbEntity
  8
TEXT
100
AcDbCircle
 10
600.9242142714765
 20
-218.3249807235135
 30
0.0
 40
0.0165367822276326
100
AcDbArc
 50
177.7877751662289
 51
326.380582641936
  0
ARC
  5
A014
330
1F
100
AcDbEntity
  8
TEXT
100
AcDbCircle
 10
601.0950765324707
 20
-218.3052533084588
 30
0.0
 40
0.0090446670445143
100
AcDbArc
 50
144.571158510835
 51
21.75301147887101
  0
LINE
  5
A015
330
1F
100
AcDbEntity
  8
TEXT
100
AcDbLine
 10
601.1034771294536
 20
-218.3019012982738
 30
0.0
 11
601.1041079533092
 21
-218.2539933858889
 31
0.0
  0
ARC
  5
A016
330
1F
100
AcDbEntity
  8
TEXT
100
AcDbCircle
 10
601.0950971333422
 20
-218.2594571978103
 30
0.0
 40
0.0105379370460883
100
AcDbArc
 50
31.23099864076702
 51
160.1819529381847
  0
ARC
  5
A017
330
1F
100
AcDbEntity
  8
TEXT
100
AcDbCircle
 10
601.1297751959162
 20
-218.2754695280815
 30
0.0
 40
0.0487032855846518
100
AcDbArc
 50
156.288597549796
 51
210.2571046136436
  0
ARC
  5
A018
330
1F
100
AcDbEntity
  8
TEXT
100
AcDbCircle
 10
601.2675685358032
 20
-218.3524749689124
 30
0.0
 40
0.0300701126135258
100
AcDbArc
 50
341.5477100758347
 51
84.99888070834151
  0
ARC
  5
A019
330
1F
100
AcDbEntity
  8
TEXT
100
AcDbCircle
 10
601.28066038975
 20
-218.3873708919523
 30
0.0
 40
0.0656913671942501
100
AcDbArc
 50
99.17143729878524
 51
127.795528329095
  0
ARC
  5
A01A
330
1F
100
AcDbEntity
  8
TEXT
100
AcDbCircle
 10
601.1532118718652
 20
-218.3288231730558
 30
0.0
 40
0.0072833212418134
100
AcDbArc
 50
312.7998628402754
 51
120.0581864533366
  0
ARC
  5
A01B
330
1F
100
AcDbEntity
  8
TEXT
100
AcDbCircle
 10
601.1538849442947
 20
-218.3065188784439
 30
0.0
 40
0.0165736773362276
100
AcDbArc
 50
129.1527393458019
 51
254.8870408388504
  0
ARC
  5
A01C
330
1F
100
AcDbEntity
  8
TEXT
100
AcDbCircle
 10
601.0906234783889
 20
-218.253432515393
 30
0.0
 40
0.0663799911478199
100
AcDbArc
 50
322.6907301981563
 51
8.220255073941013
  0
ARC
  5
A01D
330
1F
100
AcDbEntity
  8
TEXT
100
AcDbCircle
 10
601.1623278266732
 20
-218.2381587456756
 30
0.0
 40
0.0083377203270588
100
AcDbArc
 50
89.05883162362073
 51
223.9137905962986
  0
ARC
  5
A01E
330
1F
100
AcDbEntity
  8
TEXT
100
AcDbCircle
 10
600.9957971788867
 20
-218.042147215492
 30
0.0
 40
0.2509979489351848
100
AcDbArc
 50
311.6071689301104
 51
318.3515702307943
  0
ARC
  5
A01F
330
1F
100
AcDbEntity
  8
TEXT
100
AcDbCircle
 10
601.1613626618416
 20
-218.2335054772227
 30
0.0
 40
0.0637668312167232
100
AcDbArc
 50
337.3510782224611
 51
22.64892177753901
  0
ARC
  5
A020
330
1F
100
AcDbEntity
  8
TEXT
100
AcDbCircle
 10
601.265482322338
 20
-218.2664771620392
 30
0.0
 40
0.0460460836471324
100
AcDbArc
 50
169.4684867573188
 51
223.1418439421417
  0
ARC
  5
A021
330
1F
100
AcDbEntity
  8
TEXT
100
AcDbCircle
 10
601.2257935926172
 20
-218.2715219900575
 30
0.0
 40
0.0271341882191743
100
AcDbArc
 50
282.9712622283038
 51
25.35441378639511
  0
ARC
  5
A022
330
1F
100
AcDbEntity
  8
TEXT
100
AcDbCircle
 10
601.5347164410727
 20
-218.2067342393326
 30
0.0
 40
0.2893295131371159
100
AcDbArc
 50
179.466220207127
 51
190.5890997840371
  0
ARC
  5
A023
330
1F
100
AcDbEntity
  8
TEXT
100
AcDbCircle
 10
601.0332700354571
 20
-217.9517567155916
 30
0.0
 40
0.2921733560609443
100
AcDbArc
 50
317.9732863042373
 51
40.61894937560235
  0
ARC
  5
A024
330
1F
100
AcDbEntity
  8
TEXT
100
AcDbCircle
 10
601.2271411373716
 20
-217.7960174963214
 30
0.0
 40
0.0443516632740007
100
AcDbArc
 50
51.01090143871113
 51
107.577946053111
  0
ARC
  5
A025
330
1F
100
AcDbEntity
  8
TEXT
100
AcDbCircle
 10
601.1510426395549
 20
-217.7502081319229
 30
0.0
 40
0.0628033698317426
100
AcDbArc
 50
356.7791343814141
 51
50.82801334298829
  0
ARC
  5
A026
330
1F
100
AcDbEntity
  8
TEXT
100
AcDbCircle
 10
601.1668150627005
 20
-217.8205380308029
 30
0.0
 40
0.1213938581589665
100
AcDbArc
 50
78.64671940115275
 51
92.8865786316482
  0
ARC
  5
A027
330
1F
100
AcDbEntity
  8
TEXT
100
AcDbCircle
 10
601.1531176013201
 20
-217.6842706650484
 30
0.0
 40
0.0168329057250599
100
AcDbArc
 50
296.7794474250819
 51
150.4674482996576
  0
ARC
  5
A028
330
1F
100
AcDbEntity
  8
TEXT
100
AcDbCircle
 10
601.1261389598508
 20
-217.6602242252737
 30
0.0
 40
0.0200033413087927
100
AcDbArc
 50
174.1982733486932
 51
308.063459648363
  0
ARC
  5
A029
330
1F
100
AcDbEntity
  8
TEXT
100
AcDbCircle
 10
601.0690931786125
 20
-217.6908038026198
 30
0.0
 40
0.0494227766538583
100
AcDbArc
 50
41.27304036069189
 51
94.61991284103847
  0
ARC
  5
A02A
330
1F
100
AcDbEntity
  8
TEXT
100
AcDbCircle
 10
601.0493045602886
 20
-217.6461904353626
 30
0.0
 40
0.0164772438173263
100
AcDbArc
 50
136.6395135700812
 51
16.38775991618401
  0
ARC
  5
A02B
330
1F
100
AcDbEntity
  8
TEXT
100
AcDbCircle
 10
601.0238943876802
 20
-217.6495943692681
 30
0.0
 40
0.019923999934833
100
AcDbArc
 50
47.61705801860887
 51
152.6179806586013
  0
ARC
  5
A02C
330
1F
100
AcDbEntity
  8
TEXT
100
AcDbCircle
 10
600.982931409262
 20
-217.6511629139239
 30
0.0
 40
0.0256267055491746
100
AcDbArc
 50
24.75773987532676
 51
121.5483884163383
  0
ARC
  5
A02D
330
1F
100
AcDbEntity
  8
TEXT
100
AcDbCircle
 10
600.9500717157138
 20
-217.6367488476773
 30
0.0
 40
0.0208202889485251
100
AcDbArc
 50
20.89289471578149
 51
159.1071052842185
  0
ARC
  5
A02E
330
1F
100
AcDbEntity
  8
TEXT
100
AcDbCircle
 10
600.9202482683597
 20
-217.6264337561901
 30
0.0
 40
0.0107672478568685
100
AcDbArc
 50
183.5606974541693
 51
344.4298925613459
  0
ARC
  5
A02F
330
1F
100
AcDbEntity
  8
TEXT
100
AcDbCircle
 10
600.8872127557716
 20
-217.6505378773295
 30
0.0
 40
0.0323422366599906
100
AcDbArc
 50
46.43616582623978
 51
130.6283095026662
  0
ARC
  5
A030
330
1F
100
AcDbEntity
  8
TEXT
100
AcDbCircle
 10
600.8544823423711
 20
-217.6294763610653
 30
0.0
 40
0.0121798952203543
100
AcDbArc
 50
163.3756550464651
 51
16.624344953531
  0
ARC
  5
A031
330
1F
100
AcDbEntity
  8
TEXT
100
AcDbCircle
 10
600.8084493164678
 20
-217.720682337417
 30
0.0
 40
0.1007326717255064
100
AcDbArc
 50
70.05468846035552
 51
100.2232656721042
  0
ARC
  5
A032
330
1F
100
AcDbEntity
  8
TEXT
100
AcDbCircle
 10
600.7822345600425
 20
-217.6753055360712
 30
0.0
 40
0.0543991327960405
100
AcDbArc
 50
81.18509483549706
 51
120.0392913824098
  0
ARC
  5
A033
330
1F
100
AcDbEntity
  8
TEXT
100
AcDbCircle
 10
600.7417702769899
 20
-217.6164162150915
 30
0.0
 40
0.0177275194936825
100
AcDbArc
 50
318.2823815987269
 51
84.36248438139951
  0
ARC
  5
A034
330
1F
100
AcDbEntity
  8
TEXT
100
AcDbCircle
 10
600.6620105597407
 20
-217.695229990485
 30
0.0
 40
0.0254942521042418
100
AcDbArc
 50
35.6067999534562
 51
177.5845513854532
  0
LINE
  5
A035
330
1F
100
AcDbEntity
  8
TEXT
100
AcDbLine
 10
600.6827381940545
 20
-217.6803867406353
 30
0.0
 11
600.681117178336
 21
-217.7038746869528
 31
0.0
  0
LINE
  5
A036
330
1F
100
AcDbEntity
  8
TEXT
100
AcDbLine
 10
600.6365389592058
 20
-217.6941555340858
 30
0.0
 11
600.6357284513466
 21
-217.7549002201714
 31
0.0
  0
ARC
  5
A037
330
1F
100
AcDbEntity
  8
TEXT
100
AcDbCircle
 10
600.7386006119864
 20
-217.800707984984
 30
0.0
 40
0.1126100916963402
100
AcDbArc
 50
120.6947626763568
 51
155.9971516553445
  0
ARC
  5
A038
330
1F
100
AcDbEntity
  8
TEXT
100
AcDbCircle
 10
600.6971687875096
 20
-217.7694825535124
 30
0.0
 40
0.0209517503337112
100
AcDbArc
 50
218.6904014524236
 51
353.6659411500759
  0
ARC
  5
A039
330
1F
100
AcDbEntity
  8
TEXT
100
AcDbCircle
 10
600.6855934869747
 20
-217.8021776039347
 30
0.0
 40
0.020171963693018
100
AcDbArc
 50
103.7022990326946
 51
207.0193065629259
  0
ARC
  5
A03A
330
1F
100
AcDbEntity
  8
TEXT
100
AcDbCircle
 10
600.9849306886198
 20
-217.9692862322004
 30
0.0
 40
0.3544440067106097
100
AcDbArc
 50
153.5374647244112
 51
193.3327646348711
  0
ARC
  5
A03B
330
1F
100
AcDbEntity
  8
TEXT
100
AcDbCircle
 10
600.5716687262924
 20
-218.0971619503897
 30
0.0
 40
0.0824827685733273
100
AcDbArc
 50
346.9852122362369
 51
34.01252680043078
  0
ARC
  5
A03C
330
1F
100
AcDbEntity
  8
TEXT
100
AcDbCircle
 10
600.6406457284251
 20
-218.1517683032726
 30
0.0
 40
0.0377875286239628
100
AcDbArc
 50
345.4259909574673
 51
72.46181126870012
  0
ARC
  5
A03D
330
1F
100
AcDbEntity
  8
TEXT
100
AcDbCircle
 10
600.6799637310117
 20
-218.2328365107511
 30
0.0
 40
0.0716123991500209
100
AcDbArc
 50
18.24878221231991
 51
92.19784172829085
  0
ARC
  5
A03E
330
1F
100
AcDbEntity
  8
TEXT
100
AcDbCircle
 10
600.7566173866349
 20
-218.2142489173978
 30
0.0
 40
0.0094565292621038
100
AcDbArc
 50
156.0593073728596
 51
8.762281217120088
  0
ARC
  5
A03F
330
1F
100
AcDbEntity
  8
TEXT
100
AcDbCircle
 10
600.7770194108925
 20
-218.2167431738843
 30
0.0
 40
0.0117351997935574
100
AcDbArc
 50
1.658272028068433
 51
160.4091839300749
  0
ARC
  5
A040
330
1F
100
AcDbEntity
  8
TEXT
100
AcDbCircle
 10
600.821160058153
 20
-218.1938832839392
 30
0.0
 40
0.0394663806242486
100
AcDbArc
 50
214.7934494581985
 51
299.0409507876119
  0
ARC
  5
A041
330
1F
100
AcDbEntity
  8
TEXT
100
AcDbCircle
 10
600.8655401116982
 20
-218.204842886978
 30
0.0
 40
0.0345034994608953
100
AcDbArc
 50
223.03056250613
 51
311.2487591160731
  0
ARC
  5
A042
330
1F
100
AcDbEntity
  8
TEXT
100
AcDbCircle
 10
600.9078562243587
 20
-218.2255947167866
 30
0.0
 40
0.0202434850951048
100
AcDbArc
 50
194.854618224045
 51
330.4510994340783
  0
ARC
  5
A043
330
1F
100
AcDbEntity
  8
TEXT
100
AcDbCircle
 10
600.9398580101308
 20
-218.2839218434717
 30
0.0
 40
0.0504403035036899
100
AcDbArc
 50
33.67851647489987
 51
106.5775508010125
  0
ARC
  5
A044
330
1F
100
AcDbEntity
  8
TEXT
100
AcDbCircle
 10
600.9962237867711
 20
-218.226362121371
 30
0.0
 40
0.0329030971158398
100
AcDbArc
 50
244.0629515517944
 51
24.32612031264529
  0
ARC
  5
A045
330
1F
100
AcDbEntity
  8
TEXT
100
AcDbCircle
 10
601.0724822454347
 20
-218.0432536501161
 30
0.0
 40
0.0856504748170368
100
AcDbArc
 50
300.6537348898141
 51
16.68245916376005
  0
ARC
  5
A046
330
1F
100
AcDbEntity
  8
TEXT
100
AcDbCircle
 10
600.9065665186469
 20
-217.9517213939025
 30
0.0
 40
0.2568391883961405
100
AcDbArc
 50
344.8914411173245
 51
24.57723374822038
  0
ARC
  5
A047
330
1F
100
AcDbEntity
  8
TEXT
100
AcDbCircle
 10
601.1912579842948
 20
-217.8190672085057
 30
0.0
 40
0.0572764194780507
100
AcDbArc
 50
155.9906329013464
 51
206.8057304576972
  0
ARC
  5
A048
330
1F
100
AcDbEntity
  8
TEXT
100
AcDbCircle
 10
601.1304388899465
 20
-217.7962364304952
 30
0.0
 40
0.0085115103283491
100
AcDbArc
 50
3.193725348484615
 51
193.0548754998608
  0
ARC
  5
A049
330
1F
100
AcDbEntity
  8
TEXT
100
AcDbCircle
 10
601.110754279445
 20
-217.8110269096092
 30
0.0
 40
0.0171867493656786
100
AcDbArc
 50
131.5213803610239
 51
48.47861963898473
  0
ARC
  5
A04A
330
1F
100
AcDbEntity
  8
TEXT
100
AcDbCircle
 10
601.0537946710369
 20
-217.7738121960951
 30
0.0
 40
0.0516631101119713
100
AcDbArc
 50
331.8837666959804
 51
33.32508059324715
  0
ARC
  5
A04B
330
1F
100
AcDbEntity
  8
TEXT
100
AcDbCircle
 10
601.0854683593345
 20
-217.7486090995422
 30
0.0
 40
0.0119260847182272
100
AcDbArc
 50
15.46471151433621
 51
237.0036058083551
  0
ARC
  5
A04C
330
1F
100
AcDbEntity
  8
TEXT
100
AcDbCircle
 10
601.0627480803528
 20
-217.7661471929043
 30
0.0
 40
0.0178900098840057
100
AcDbArc
 50
124.5991194751605
 51
24.91162951380401
  0
ARC
  5
A04D
330
1F
100
AcDbEntity
  8
TEXT
100
AcDbCircle
 10
601.0115827645446
 20
-217.7327183028654
 30
0.0
 40
0.0450705442028974
100
AcDbArc
 50
335.4827230531638
 51
36.54383594003247
  0
ARC
  5
A04E
330
1F
100
AcDbEntity
  8
TEXT
100
AcDbCircle
 10
600.9544381037787
 20
-217.8730808718537
 30
0.0
 40
0.1914957959123389
100
AcDbArc
 50
60.82353397560648
 51
101.6183182656855
  0
LINE
  5
A04F
330
1F
100
AcDbEntity
  8
TEXT
100
AcDbLine
 10
600.9158725557837
 20
-217.6855086501364
 30
0.0
 11
600.9146732889345
 21
-217.7310481797146
 31
0.0
  0
ARC
  5
A050
330
1F
100
AcDbEntity
  8
TEXT
100
AcDbCircle
 10
600.8970085802127
 20
-217.7319133269072
 30
0.0
 40
0.0176858817674158
100
AcDbArc
 50
165.3922446503689
 51
2.803879044206514
  0
LINE
  5
A051
330
1F
100
AcDbEntity
  8
TEXT
100
AcDbLine
 10
600.8798943938232
 20
-217.7274529414849
 30
0.0
 11
600.877495860124
 21
-217.6926991111292
 31
0.0
  0
ARC
  5
A052
330
1F
100
AcDbEntity
  8
TEXT
100
AcDbCircle
 10
600.8619697001522
 20
-217.7004772229644
 30
0.0
 40
0.0173655022151764
100
AcDbArc
 50
26.60941129939882
 51
166.0619000058105
  0
LINE
  5
A053
330
1F
100
AcDbEntity
  8
TEXT
100
AcDbLine
 10
600.8451154987117
 20
-217.6962943338925
 30
0.0
 11
600.8451154987117
 21
-217.7118736376887
 31
0.0
  0
ARC
  5
A054
330
1F
100
AcDbEntity
  8
TEXT
100
AcDbCircle
 10
600.8313682530395
 20
-217.7205128935986
 30
0.0
 40
0.0162364868814825
100
AcDbArc
 50
179.1163546128549
 51
32.14670843866071
  0
LINE
  5
A055
330
1F
100
AcDbEntity
  8
TEXT
100
AcDbLine
 10
600.8151336970777
 20
-217.7202624959584
 30
0.0
 11
600.8151336970777
 21
-217.7777861065695
 31
0.0
  0
ARC
  5
A056
330
1F
100
AcDbEntity
  8
TEXT
100
AcDbCircle
 10
600.7935378598496
 20
-217.7780631345024
 30
0.0
 40
0.0215976139899841
100
AcDbArc
 50
182.4450201076247
 51
0.7349407504797644
  0
LINE
  5
A057
330
1F
100
AcDbEntity
  8
TEXT
100
AcDbLine
 10
600.7719599079405
 20
-217.7789845038464
 30
0.0
 11
600.781554068816
 21
-217.7070800021823
 31
0.0
  0
ARC
  5
A058
330
1F
100
AcDbEntity
  8
TEXT
100
AcDbCircle
 10
600.7703719867042
 20
-217.7086759569114
 30
0.0
 40
0.0112953987026185
100
AcDbArc
 50
8.122642540875602
 51
202.9043136183461
  0
LINE
  5
A059
330
1F
100
AcDbEntity
  8
TEXT
100
AcDbLine
 10
600.7599671612077
 20
-217.7130720504319
 30
0.0
 11
600.7551700938095
 21
-217.750222706274
 31
0.0
  0
ARC
  5
A05A
330
1F
100
AcDbEntity
  8
TEXT
100
AcDbCircle
 10
600.7413784598421
 20
-217.7494939708488
 30
0.0
 40
0.0138108733544406
100
AcDbArc
 50
183.0246359049376
 51
356.9753640950624
  0
LINE
  5
A05B
330
1F
100
AcDbEntity
  8
TEXT
100
AcDbLine
 10
600.7275868258748
 20
-217.750222706274
 30
0.0
 11
600.7179926389201
 21
-217.7717940583199
 31
0.0
  0
LINE
  5
A05C
330
1F
100
AcDbEntity
  8
TEXT
100
AcDbLine
 10
601.3664486850086
 20
-217.9957504034532
 30
0.0
 11
601.4677116003266
 21
-217.99179767523
 31
0.0
  0
LINE
  5
A05D
330
1F
100
AcDbEntity
  8
TEXT
100
AcDbLine
 10
601.5444498919314
 20
-217.9957504034532
 30
0.0
 11
601.6457128072492
 21
-217.99179767523
 31
0.0
  0
LINE
  5
A05E
330
1F
100
AcDbEntity
  8
TEXT
100
AcDbLine
 10
601.4075867247973
 20
-218.0273722756374
 30
0.0
 11
601.409168961109
 21
-218.1807383441312
 31
0.0
  0
LINE
  5
A05F
330
1F
100
AcDbEntity
  8
TEXT
100
AcDbLine
 10
601.4677116003266
 20
-217.99179767523
 30
0.0
 11
601.4692938366382
 21
-218.16571796451
 31
0.0
  0
LINE
  5
A060
330
1F
100
AcDbEntity
  8
TEXT
100
AcDbLine
 10
601.6457128072492
 20
-217.99179767523
 30
0.0
 11
601.647295043561
 21
-218.1712517902091
 31
0.0
  0
ARC
  5
A061
330
1F
100
AcDbEntity
  8
TEXT
100
AcDbCircle
 10
601.3890810599017
 20
-218.0269466877632
 30
0.0
 40
0.0185105580212536
100
AcDbArc
 50
358.6825606331185
 51
106.4049357729542
  0
LINE
  5
A062
330
1F
100
AcDbEntity
  8
TEXT
100
AcDbLine
 10
601.3664486850086
 20
-217.9957504034532
 30
0.0
 11
601.3672397901249
 21
-218.0068180703174
 31
0.0
  0
LINE
  5
A063
330
1F
100
AcDbEntity
  8
TEXT
100
AcDbLine
 10
601.3838532322795
 20
-218.0091897010647
 30
0.0
 11
601.3672397901249
 21
-218.0068180703174
 31
0.0
  0
LINE
  5
A064
330
1F
100
AcDbEntity
  8
TEXT
100
AcDbLine
 10
601.5444498919314
 20
-217.9957504034532
 30
0.0
 11
601.543658786815
 21
-218.0107707985406
 31
0.0
  0
LINE
  5
A065
330
1F
100
AcDbEntity
  8
TEXT
100
AcDbLine
 10
601.543658786815
 20
-218.0107707985406
 30
0.0
 11
601.572138988268
 21
-218.0123518960164
 31
0.0
  0
LINE
  5
A066
330
1F
100
AcDbEntity
  8
TEXT
100
AcDbLine
 10
601.5895435355388
 20
-218.1791572466553
 30
0.0
 11
601.5887524304225
 21
-218.0281628243753
 31
0.0
  0
ARC
  5
A067
330
1F
100
AcDbEntity
  8
TEXT
100
AcDbCircle
 10
601.5774464114842
 20
-218.0234088931348
 30
0.0
 40
0.0122648247632313
100
AcDbArc
 50
337.1943218370273
 51
115.6412778855146
  0
ARC
  5
A068
330
1F
100
AcDbEntity
  8
TEXT
100
AcDbCircle
 10
601.470051425397
 20
-218.1799321003254
 30
0.0
 40
0.0608878024473341
100
AcDbArc
 50
180.7587023263156
 51
270.031539090741
  0
ARC
  5
A069
330
1F
100
AcDbEntity
  8
TEXT
100
AcDbCircle
 10
601.4941133627035
 20
-218.1031499695567
 30
0.0
 40
0.139751110854478
100
AcDbArc
 50
260.0995263030862
 51
313.0673878832468
  0
LINE
  5
A06A
330
1F
100
AcDbEntity
  8
TEXT
100
AcDbLine
 10
601.5895435355388
 20
-218.2052452931407
 30
0.0
 11
601.5903346667341
 21
-218.2352860678491
 31
0.0
  0
ARC
  5
A06B
330
1F
100
AcDbEntity
  8
TEXT
100
AcDbCircle
 10
601.5996895086326
 20
-218.2315632101148
 30
0.0
 40
0.0100684028850535
100
AcDbArc
 50
201.7006027724324
 51
343.0678677067634
  0
ARC
  5
A06C
330
1F
100
AcDbEntity
  8
TEXT
100
AcDbCircle
 10
601.6869457826641
 20
-218.415910809392
 30
0.0
 40
0.1973247184719365
100
AcDbArc
 50
88.18956599987521
 51
113.1652090520224
  0
LINE
  5
A06D
330
1F
100
AcDbEntity
  8
TEXT
100
AcDbLine
 10
601.7436329742037
 20
-217.9042633101613
 30
0.0
 11
601.7495084324925
 21
-218.2087281216933
 31
0.0
  0
LINE
  5
A06E
330
1F
100
AcDbEntity
  8
TEXT
100
AcDbLine
 10
601.807414209259
 20
-217.8631555235944
 30
0.0
 11
601.8091023404869
 21
-218.0149777786458
 31
0.0
  0
ARC
  5
A06F
330
1F
100
AcDbEntity
  8
TEXT
100
AcDbCircle
 10
601.6832389551791
 20
-217.5040683818377
 30
0.0
 40
0.3799514036042447
100
AcDbArc
 50
273.5403564160214
 51
289.0758016785421
  0
LINE
  5
A070
330
1F
100
AcDbEntity
  8
TEXT
100
AcDbLine
 10
601.7067015481806
 20
-217.883294667623
 30
0.0
 11
601.708380250549
 21
-217.9017470687261
 31
0.0
  0
LINE
  5
A071
330
1F
100
AcDbEntity
  8
TEXT
100
AcDbLine
 10
601.708380250549
 20
-217.9017470687261
 30
0.0
 11
601.7436329742037
 21
-217.9042633101613
 31
0.0
  0
LINE
  5
A072
330
1F
100
AcDbEntity
  8
TEXT
100
AcDbLine
 10
601.8099416655917
 20
-218.046011386925
 30
0.0
 11
601.8107810167763
 21
-218.1902757051239
 31
0.0
  0
ARC
  5
A073
330
1F
100
AcDbEntity
  8
TEXT
100
AcDbCircle
 10
601.907920922915
 20
-218.1455803133594
 30
0.0
 40
0.1637746448834882
100
AcDbArc
 50
71.0798858476198
 51
127.1124618564865
  0
ARC
  5
A074
330
1F
100
AcDbEntity
  8
TEXT
100
AcDbCircle
 10
601.908041373344
 20
-218.0918828875082
 30
0.0
 40
0.1142562801072371
100
AcDbArc
 50
359.8698564192901
 51
62.37231490188314
  0
ARC
  5
A075
330
1F
100
AcDbEntity
  8
TEXT
100
AcDbCircle
 10
601.8617717768372
 20
-218.0799707039084
 30
0.0
 40
0.0619644708011938
100
AcDbArc
 50
78.87075864991579
 51
146.7670066549833
  0
ARC
  5
A076
330
1F
100
AcDbEntity
  8
TEXT
100
AcDbCircle
 10
601.8805023108845
 20
-218.091005075528
 30
0.0
 40
0.0721518704931053
100
AcDbArc
 50
21.58325850317332
 51
95.38396011116695
  0
ARC
  5
A077
330
1F
100
AcDbEntity
  8
TEXT
100
AcDbCircle
 10
601.8748463466228
 20
-218.1156653409645
 30
0.0
 40
0.088960611637759
100
AcDbArc
 50
343.5952529167646
 51
35.13836089167805
  0
ARC
  5
A078
330
1F
100
AcDbEntity
  8
TEXT
100
AcDbCircle
 10
601.8461121073737
 20
-218.0864348734572
 30
0.0
 40
0.1558457845586532
100
AcDbArc
 50
231.6935697703411
 51
269.6626044169122
  0
ARC
  5
A079
330
1F
100
AcDbEntity
  8
TEXT
100
AcDbCircle
 10
601.8622685931482
 20
-218.0593875686922
 30
0.0
 40
0.1836856613538935
100
AcDbArc
 50
264.6664639047648
 51
308.6423664458132
  0
ARC
  5
A07A
330
1F
100
AcDbEntity
  8
TEXT
100
AcDbCircle
 10
601.8837208982601
 20
-218.1000461343839
 30
0.0
 40
0.138801672189514
100
AcDbArc
 50
312.2086974257841
 51
3.264333629957683
  0
ARC
  5
A07B
330
1F
100
AcDbEntity
  8
TEXT
100
AcDbCircle
 10
600.5133031475147
 20
-217.0301907479365
 30
0.0
 40
0.0204415862877363
100
AcDbArc
 50
32.93635467158718
 51
189.5430854165195
  0
ARC
  5
A07C
330
1F
100
AcDbEntity
  8
TEXT
100
AcDbCircle
 10
600.5455764881637
 20
-217.0185667227648
 30
0.0
 40
0.0151258206016299
100
AcDbArc
 50
181.9314217622489
 51
21.08009584438978
  0
ARC
  5
A07D
330
1F
100
AcDbEntity
  8
TEXT
100
AcDbCircle
 10
600.5709521901755
 20
-217.0154146975598
 30
0.0
 40
0.0114922508353156
100
AcDbArc
 50
3.320051391017303
 51
168.5145862198272
  0
ARC
  5
A07E
330
1F
100
AcDbEntity
  8
TEXT
100
AcDbCircle
 10
600.5953860307901
 20
-217.0217538835532
 30
0.0
 40
0.0147326429050978
100
AcDbArc
 50
151.610876507047
 51
6.217261201770662
  0
ARC
  5
A07F
330
1F
100
AcDbEntity
  8
TEXT
100
AcDbCircle
 10
600.6217128478551
 20
-217.0195351760702
 30
0.0
 40
0.0116974376118937
100
AcDbArc
 50
7.567610287756776
 51
183.0538693842452
  0
ARC
  5
A080
330
1F
100
AcDbEntity
  8
TEXT
100
AcDbCircle
 10
600.6426363366943
 20
-217.0129394275039
 30
0.0
 40
0.0106097046542174
100
AcDbArc
 50
208.4553291170971
 51
16.75507449313859
  0
ARC
  5
A081
330
1F
100
AcDbEntity
  8
TEXT
100
AcDbCircle
 10
600.6587476240381
 20
-217.0203962312897
 30
0.0
 40
0.0120830312488348
100
AcDbArc
 50
340.2175703033617
 51
119.5111127021398
  0
ARC
  5
A082
330
1F
100
AcDbEntity
  8
TEXT
100
AcDbCircle
 10
600.6875135254155
 20
-217.0245498724427
 30
0.0
 40
0.0173960732958633
100
AcDbArc
 50
179.7887253899368
 51
338.3185482084487
  0
ARC
  5
A083
330
1F
100
AcDbEntity
  8
TEXT
100
AcDbCircle
 10
600.7274094306649
 20
-217.0425053548524
 30
0.0
 40
0.026382716840622
100
AcDbArc
 50
51.76909225769858
 51
154.0890012254426
  0
ARC
  5
A084
330
1F
100
AcDbEntity
  8
TEXT
100
AcDbCircle
 10
600.7609208506712
 20
-217.0182013935917
 30
0.0
 40
0.0175538244621736
100
AcDbArc
 50
191.7667831442122
 51
294.1224948725131
  0
ARC
  5
A085
330
1F
100
AcDbEntity
  8
TEXT
100
AcDbCircle
 10
600.7814760662404
 20
-217.0298939570077
 30
0.0
 40
0.0140637895856828
100
AcDbArc
 50
13.33841226381525
 51
197.9246330182928
  0
ARC
  5
A086
330
1F
100
AcDbEntity
  8
TEXT
100
AcDbCircle
 10
600.8100669611065
 20
-217.0258487344008
 30
0.0
 40
0.0149279721050864
100
AcDbArc
 50
183.0745908828773
 51
5.23872674582437
  0
ARC
  5
A087
330
1F
100
AcDbEntity
  8
TEXT
100
AcDbCircle
 10
600.8382939847306
 20
-217.0225174942282
 30
0.0
 40
0.0135055962967152
100
AcDbArc
 50
305.0065695458977
 51
188.3798152009864
  0
ARC
  5
A088
330
1F
100
AcDbEntity
  8
TEXT
100
AcDbCircle
 10
600.5374610536899
 20
-218.3294950198035
 30
0.0
 40
0.0211999344698838
100
AcDbArc
 50
225.9317407159997
 51
327.3216812937218
  0
ARC
  5
A089
330
1F
100
AcDbEntity
  8
TEXT
100
AcDbCircle
 10
600.7821914572336
 20
-218.3923603514117
 30
0.0
 40
0.0183790483469612
100
AcDbArc
 50
167.7181143692787
 51
23.98551077365516
  0
ARC
  5
A08A
330
1F
100
AcDbEntity
  8
TEXT
100
AcDbCircle
 10
600.8717627699422
 20
-218.3697811905659
 30
0.0
 40
0.0222814355173959
100
AcDbArc
 50
170.7272794785983
 51
21.15794103948756
  0
LINE
  5
A08B
330
1F
100
AcDbEntity
  8
TEXT
100
AcDbLine
 10
600.8925421917608
 20
-218.3617389273528
 30
0.0
 11
600.8907601124128
 21
-218.3287943545658
 31
0.0
  0
LINE
  5
A08C
330
1F
100
AcDbEntity
  8
TEXT
100
AcDbLine
 10
600.9379850065043
 20
-218.3341367064342
 30
0.0
 11
600.9468953771655
 21
-218.3804371975581
 31
0.0
  0
ARC
  5
A08D
330
1F
100
AcDbEntity
  8
TEXT
100
AcDbCircle
 10
600.957844513369
 20
-218.3826295786964
 30
0.0
 40
0.0111664729730421
100
AcDbArc
 50
168.6772178130464
 51
20.84321825743645
  0
LINE
  5
A08E
330
1F
100
AcDbEntity
  8
TEXT
100
AcDbLine
 10
600.9682802250257
 20
-218.378656413602
 30
0.0
 11
600.9682802250257
 21
-218.3474926247711
 31
0.0
  0
ARC
  5
A08F
330
1F
100
AcDbEntity
  8
TEXT
100
AcDbCircle
 10
600.9825303259169
 20
-218.3488972657046
 30
0.0
 40
0.0143191616917265
100
AcDbArc
 50
354.9255052590734
 51
174.3705062402905
  0
LINE
  5
A090
330
1F
100
AcDbEntity
  8
TEXT
100
AcDbLine
 10
600.9967933641997
 20
-218.3501638084385
 30
0.0
 11
601.0003574968168
 21
-218.4374224078854
 31
0.0
  0
ARC
  5
A091
330
1F
100
AcDbEntity
  8
TEXT
100
AcDbCircle
 10
601.0181414363127
 20
-218.4355961196356
 30
0.0
 40
0.0178774671797511
100
AcDbArc
 50
185.8633287467241
 51
2.708827809510164
  0
LINE
  5
A092
330
1F
100
AcDbEntity
  8
TEXT
100
AcDbLine
 10
601.0359989273037
 20
-218.4347512242179
 30
0.0
 11
601.0288706620696
 21
-218.3626293115977
 31
0.0
  0
LINE
  5
A093
330
1F
100
AcDbEntity
  8
TEXT
100
AcDbLine
 10
601.0288706620696
 20
-218.3626293115977
 30
0.0
 11
601.0368899669778
 21
-218.381327581803
 31
0.0
  0
ARC
  5
A094
330
1F
100
AcDbEntity
  8
TEXT
100
AcDbCircle
 10
601.0486158068288
 20
-218.3749060578756
 30
0.0
 40
0.0133690422155094
100
AcDbArc
 50
208.706819647666
 51
351.5282258973487
  0
LINE
  5
A095
330
1F
100
AcDbEntity
  8
TEXT
100
AcDbLine
 10
601.0618389735342
 20
-218.3768756141795
 30
0.0
 11
601.0609479338604
 21
-218.363519711309
 31
0.0
  0
ARC
  5
A096
330
1F
100
AcDbEntity
  8
TEXT
100
AcDbCircle
 10
601.0789386978939
 20
-218.3686227856748
 30
0.0
 40
0.0187005069045984
100
AcDbArc
 50
7.472141028409086
 51
164.1640293291668
  0
LINE
  5
A097
330
1F
100
AcDbEntity
  8
TEXT
100
AcDbLine
 10
601.0974804040212
 20
-218.3661908949763
 30
0.0
 11
601.1063907486036
 21
-218.4400935760863
 31
0.0
  0
ARC
  5
A098
330
1F
100
AcDbEntity
  8
TEXT
100
AcDbCircle
 10
601.1237768920142
 20
-218.4445441139251
 30
0.0
 40
0.0179467342367279
100
AcDbArc
 50
165.6416373020926
 51
23.37981978602128
  0
LINE
  5
A099
330
1F
100
AcDbEntity
  8
TEXT
100
AcDbLine
 10
601.1402500997426
 20
-218.4374224078854
 30
0.0
 11
601.1375415133409
 21
-218.3712417055115
 31
0.0
  0
ARC
  5
A09A
330
1F
100
AcDbEntity
  8
TEXT
100
AcDbCircle
 10
601.1426317807352
 20
-218.3657505911767
 30
0.0
 40
0.0074875335580206
100
AcDbArc
 50
60.02231951668158
 51
227.1694577924197
  0
LINE
  5
A09B
330
1F
100
AcDbEntity
  8
TEXT
100
AcDbLine
 10
601.1463730212406
 20
-218.359264739015
 30
0.0
 11
601.1769399564001
 21
-218.3639339165317
 31
0.0
  0
ARC
  5
A09C
330
1F
100
AcDbEntity
  8
TEXT
100
AcDbCircle
 10
601.1746184768782
 20
-218.3772885398206
 30
0.0
 40
0.0135548969144405
100
AcDbArc
 50
327.1504341221696
 51
80.13862259361685
  0
LINE
  5
A09D
330
1F
100
AcDbEntity
  8
TEXT
100
AcDbLine
 10
601.1860059141103
 20
-218.3846411926513
 30
0.0
 11
601.1905389060046
 21
-218.5134146593025
 31
0.0
  0
LINE
  5
A09E
330
1F
100
AcDbEntity
  8
TEXT
100
AcDbLine
 10
601.2287454886376
 20
-218.5108262362545
 30
0.0
 11
601.2293930551826
 21
-218.3801114755169
 31
0.0
  0
ARC
  5
A09F
330
1F
100
AcDbEntity
  8
TEXT
100
AcDbCircle
 10
601.2395854043562
 20
-218.379205166306
 30
0.0
 40
0.0102325645886126
100
AcDbArc
 50
32.94435831946379
 51
185.0814072168601
  0
ARC
  5
A0A0
330
1F
100
AcDbEntity
  8
TEXT
100
AcDbCircle
 10
601.2688609169022
 20
-218.3543565063294
 30
0.0
 40
0.0282821218467122
100
AcDbArc
 50
222.9877626572331
 51
344.3358851615589
  0
ARC
  5
A0A1
330
1F
100
AcDbEntity
  8
TEXT
100
AcDbCircle
 10
601.2295517917947
 20
-218.3299420828754
 30
0.0
 40
0.0121730875667031
100
AcDbArc
 50
193.9319034609801
 51
333.037828350931
  0
ARC
  5
A0A2
330
1F
100
AcDbEntity
  8
TEXT
100
AcDbCircle
 10
601.2072681635149
 20
-218.3448632506623
 30
0.0
 40
0.0159172569840616
100
AcDbArc
 50
48.8759637679361
 51
143.7953529790059
  0
ARC
  5
A0A3
330
1F
100
AcDbEntity
  8
TEXT
100
AcDbCircle
 10
601.176841168262
 20
-218.3194374777457
 30
0.0
 40
0.0237893523154895
100
AcDbArc
 50
218.2556843178679
 51
317.6564247238852
  0
ARC
  5
A0A4
330
1F
100
AcDbEntity
  8
TEXT
100
AcDbCircle
 10
601.2097932443007
 20
-218.514349986307
 30
0.0
 40
0.0192770428186735
100
AcDbArc
 50
177.2189023070876
 51
10.53261226457853
  0
LINE
  5
A0A5
330
1F
100
AcDbEntity
  8
DIMENSION
100
AcDbLine
 10
595.5520398301141
 20
-219.1737189983868
 30
0.0
 11
595.5520398301141
 21
-221.1048561967404
 31
0.0
  0
TEXT
  5
A121
330
1F
100
AcDbEntity
  8
TEXT
100
AcDbText
 10
565.7992246922296
 20
-220.9798561967405
 30
0.0
 40
0.25
  1
REVISIONS
 72
     1
 11
566.8408913588962
 21
-220.8548561967405
 31
0.0
100
AcDbText
 73
     2
  0
LWPOLYLINE
  5
B5D2
330
1F
100
AcDbEntity
  8
BORDER
100
AcDbPolyline
 90
        4
 70
     1
 43
0.0
 10
560.5190163588961
 20
-154.9020388725147
 10
608.0172946443436
 20
-154.9020388725147
 10
608.0172946443436
 20
-221.1048561967404
 10
560.5190163588961
 20
-221.1048561967404
  0
TEXT
  5
B759
330
1F
100
AcDbEntity
  8
TEXT
100
AcDbText
 10
591.454064143511
 20
-220.8704811967405
 30
0.0
 40
0.15625
  1
ICE QUBE, INC.
 72
     1
 11
592.3785433101777
 21
-220.7923561967405
 31
0.0
100
AcDbText
 73
     2
  0
TEXT
  5
B75A
330
1F
100
AcDbEntity
  8
TEXT
100
AcDbText
 10
589.7222933101777
 20
-220.6361061967405
 30
0.0
 40
0.15625
  1
OR ALTERED WITHOUT AUTHORIZATION OF
 72
     1
 11
592.3785433101777
 21
-220.5579811967405
 31
0.0
100
AcDbText
 73
     2
  0
TEXT
  5
B75B
330
1F
100
AcDbEntity
  8
TEXT
100
AcDbText
 10
589.6051058101777
 20
-220.4017311967404
 30
0.0
 40
0.15625
  1
QUBE, INC. AND IS NOT TO BE DUPLICATED
 72
     1
 11
592.3785433101777
 21
-220.3236061967404
 31
0.0
100
AcDbText
 73
     2
  0
TEXT
  5
B75C
330
1F
100
AcDbEntity
  8
TEXT
100
AcDbText
 10
589.7483349768443
 20
-220.1673561967404
 30
0.0
 40
0.15625
  1
THIS DRAWING IS THE PROPERTY OF ICE
 72
     1
 11
592.3785433101777
 21
-220.0892311967404
 31
0.0
100
AcDbText
 73
     2
  0
TEXT
  5
B75D
330
1F
100
AcDbEntity
  8
TEXT
100
AcDbText
 10
589.5139599768442
 20
-219.8548561967404
 30
0.0
 40
0.3125
  1
PROPRIETARY DRAWING
 72
     1
 11
592.3785433101776
 21
-219.6986061967404
 31
0.0
100
AcDbText
 73
     2
  0
LINE
  5
B75E
330
1F
100
AcDbEntity
  8
BORDER
100
AcDbLine
 10
595.5520398301141
 20
-221.1048561967404
 30
0.0
 11
589.2050467902412
 21
-221.1048561967404
 31
0.0
  0
LINE
  5
B75F
330
1F
100
AcDbEntity
  8
BORDER
100
AcDbLine
 10
595.5520398301141
 20
-221.1048561967404
 30
0.0
 11
595.5520398301141
 21
-219.3861061967405
 31
0.0
  0
LINE
  5
B760
330
1F
100
AcDbEntity
  8
THERMOSTATCVR
100
AcDbLine
 10
595.5520398301141
 20
-219.1737189983868
 30
0.0
 11
589.2644145272088
 21
-219.1737189983868
 31
0.0
  0
LINE
  5
B763
330
1F
100
AcDbEntity
  8
THERMOSTATCVR
100
AcDbLine
 10
589.2644145272088
 20
-219.1737189983868
 30
0.0
 11
589.2644145272088
 21
-221.1048561967404
 31
0.0
  0
TEXT
  5
B7DD
330
1F
100
AcDbEntity
  8
DIMENSION
100
AcDbText
 10
576.9884942794567
 20
-164.8368333028088
 30
0.0
 40
1.0
  1
CUTOUT DRAWING
 72
     1
 11
583.8218276127901
 21
-164.8368333028088
 31
0.0
100
AcDbText
  0
TEXT
  5
B7DE
330
1F
100
AcDbEntity
  8
DIMENSION
100
AcDbText
 10
580.1551609461235
 20
-163.1374606768369
 30
0.0
 40
1.0
  1
IQ5500VS
 72
     1
 11
583.8218276127901
 21
-163.1374606768369
 31
0.0
100
AcDbText
  0
MTEXT
  5
B9A6
102
{ACAD_XDICTIONARY
360
B9A7
102
}
330
1F
100
AcDbEntity
  8
DIMENSION
100
AcDbMText
 10
574.1688345430498
 20
-209.5058009505295
 30
0.0
 40
0.625
 41
58.37513802476905
 71
     1
 72
     5
  1
\A1;{\LHAZARDOUS LOCATION CERTIFICATIONS:}\PUL/ETL: CLASS 1 DIVISION 2 GROUPS B, C & D\PETL: CLASS 1 ZONE 2 GROUPS IIB\P{\LTEMPERATURE CODE:\P}UL: T3C 60/50HZ \P*T3C CRANKCASE HEATER OPTION*\PETL: T3\PCSA: T4\P*T3 CRANKCASE HEATER OPTION*
 73
     1
 44
1.0
1001
ACAD
1000
ACAD_MTEXT_COLUMN_INFO_BEGIN
1070
    75
1070
     2
1070
    79
1070
     0
1070
    76
1070
     1
1070
    78
1070
     0
1070
    48
1040
58.37513802476905
1070
    49
1040
30.0
1070
    50
1070
     1
1040
0.0
1000
ACAD_MTEXT_COLUMN_INFO_END
  0
TEXT
  5
BA91
330
1F
100
AcDbEntity
  8
DIMENSION
100
AcDbText
 10
580.1509921328339
 20
-160.0001570845954
 30
0.0
 40
1.0
  1
IQ3000VS
 72
     1
 11
583.7343254661673
 21
-160.0001570845954
 31
0.0
100
AcDbText
  0
TEXT
  5
BA99
330
1F
100
AcDbEntity
  8
DIMENSION
100
AcDbText
 10
580.1551611893232
 20
-158.627586783875
 30
0.0
 40
1.0
  1
IQ2200VS
 72
     1
 11
583.8218278559899
 21
-158.627586783875
 31
0.0
100
AcDbText
  0
TEXT
  5
BAA2
330
1F
100
AcDbEntity
  8
DIMENSION
100
AcDbText
 10
580.2384944010566
 20
-161.5688088807162
 30
0.0
 40
1.0
  1
IQ4000VS
 72
     1
 11
583.82182773439
 21
-161.5688088807162
 31
0.0
100
AcDbText
  0
DIMENSION
  5
BAA3
330
1F
100
AcDbEntity
  8
THERMOSTATCVR
100
AcDbDimension
  2
*D38
 10
578.13315550162
 20
-201.9151625016796
 30
0.0
 11
598.1746060391513
 21
-181.4051625016796
 31
0.0
 70
    38
  1
<> (2)\POMIT FOR IQ2200VS \PAND IQ3000VS
 71
     5
 42
20.51000000000002
  3
Standard
100
AcDbOrdinateDimension
 13
589.2021555016202
 23
-181.4051625016796
 33
0.0
 14
592.0846060391512
 24
-181.4051625016796
 34
0.0
1001
ACAD
1000
DSTYLE
1002
{
1070
   289
1070
     2
1002
}
  0
LINE
  5
BAD0
330
1F
100
AcDbEntity
  8
BORDER
100
AcDbLine
 10
576.7645195622776
 20
-219.1048561477041
 30
0.0
 11
560.519016316353
 21
-219.1048561477041
 31
0.0
  0
TEXT
  5
BAD1
330
1F
100
AcDbEntity
  8
TEXT
100
AcDbText
 10
561.0242246496864
 20
-219.4798561477041
 30
0.0
 40
0.25
  1
1
 72
     1
 11
561.065891316353
 21
-219.3548561477042
 31
0.0
100
AcDbText
 73
     2
  0
LINE
  5
BAD2
330
1F
100
AcDbEntity
  8
BORDER
100
AcDbLine
 10
561.612766316353
 20
-219.6048561477041
 30
0.0
 11
561.6127663163529
 21
-219.1048561477041
 31
0.0
  0
TEXT
  5
BAD3
330
1F
100
AcDbEntity
  8
TEXT
100
AcDbText
 10
564.7783913163531
 20
-219.4798561477041
 30
0.0
 40
0.25
  1
ADDED 22-3-4000VS
 72
     1
 11
566.840891316353
 21
-219.3548561477042
 31
0.0
100
AcDbText
 73
     2
  0
TEXT
  5
BAD4
330
1F
100
AcDbEntity
  8
TEXT
100
AcDbText
 10
575.1834346059821
 20
-219.4798561477041
 30
0.0
 40
0.25
  1
RCC
 72
     1
 11
575.5167679393155
 21
-219.3548561477042
 31
0.0
100
AcDbText
 73
     2
  0
LINE
  5
BAD5
330
1F
100
AcDbEntity
  8
BORDER
100
AcDbLine
 10
574.2690163163531
 20
-219.6048561477041
 30
0.0
 11
574.2690163163531
 21
-219.1048561477041
 31
0.0
  0
TEXT
  5
BAD6
330
1F
100
AcDbEntity
  8
TEXT
100
AcDbText
 10
572.3565163163531
 20
-219.4798561477041
 30
0.0
 40
0.25
  1
10-13-16
 72
     1
 11
573.1690163163531
 21
-219.3548561477042
 31
0.0
100
AcDbText
 73
     2
  0
LINE
  5
BAD7
330
1F
100
AcDbEntity
  8
BORDER
100
AcDbLine
 10
572.0690163163531
 20
-219.6048561477041
 30
0.0
 11
572.0690163163531
 21
-219.1048561477041
 31
0.0
  0
LINE
  5
BAD8
330
1F
100
AcDbEntity
  8
BORDER
100
AcDbLine
 10
576.7645195622776
 20
-219.6048561477041
 30
0.0
 11
560.519016316353
 21
-219.6048561477041
 31
0.0
  0
ENDSEC
  0
SECTION
  2
OBJECTS
  0
DICTIONARY
  5
C
330
0
100
AcDbDictionary
281
     1
  3
ACAD_CIP_PREVIOUS_PRODUCT_INFO
350
B915
  3
ACAD_COLOR
350
73
  3
ACAD_DETAILVIEWSTYLE
350
B912
  3
ACAD_GROUP
350
D
  3
ACAD_LAYOUT
350
1A
  3
ACAD_MATERIAL
350
72
  3
ACAD_MLEADERSTYLE
350
B90E
  3
ACAD_MLINESTYLE
350
17
  3
ACAD_PLOTSETTINGS
350
19
  3
ACAD_PLOTSTYLENAME
350
E
  3
ACAD_SCALELIST
350
B8FC
  3
ACAD_SECTIONVIEWSTYLE
350
B910
  3
ACAD_TABLESTYLE
350
B8FA
  3
ACAD_VISUALSTYLE
350
B8E1
  3
ACDB_RECOMPOSE_DATA
350
BB6D
  3
AcDbVariableDictionary
350
66
  0
DICTIONARY
  5
BB28
330
8
100
AcDbDictionary
280
     1
281
     1
  0
DICTIONARY
  5
B99C
330
2
100
AcDbDictionary
280
     1
281
     1
  3
ACAD_LAYERSTATES
360
B99D
  0
DICTIONARY
  5
B918
330
10
100
AcDbDictionary
280
     1
281
     1
  3
ADSK_XREC_LAYER_RECONCILED
360
B919
  0
DICTIONARY
  5
B91A
330
94
100
AcDbDictionary
280
     1
281
     1
  3
ADSK_XREC_LAYER_RECONCILED
360
B91B
  0
DICTIONARY
  5
B91C
330
95
100
AcDbDictionary
280
     1
281
     1
  3
ADSK_XREC_LAYER_RECONCILED
360
B91D
  0
DICTIONARY
  5
B91E
330
96
100
AcDbDictionary
280
     1
281
     1
  3
ADSK_XREC_LAYER_RECONCILED
360
B91F
  0
DICTIONARY
  5
B920
330
97
100
AcDbDictionary
280
     1
281
     1
  3
ADSK_XREC_LAYER_RECONCILED
360
B921
  0
DICTIONARY
  5
B922
330
98
100
AcDbDictionary
280
     1
281
     1
  3
ADSK_XREC_LAYER_RECONCILED
360
B923
  0
DICTIONARY
  5
B924
330
10BE
100
AcDbDictionary
280
     1
281
     1
  3
ADSK_XREC_LAYER_RECONCILED
360
B925
  0
DICTIONARY
  5
B926
330
10BF
100
AcDbDictionary
280
     1
281
     1
  3
ADSK_XREC_LAYER_RECONCILED
360
B927
  0
DICTIONARY
  5
B928
330
10C0
100
AcDbDictionary
280
     1
281
     1
  3
ADSK_XREC_LAYER_RECONCILED
360
B929
  0
DICTIONARY
  5
B92A
330
10C1
100
AcDbDictionary
280
     1
281
     1
  3
ADSK_XREC_LAYER_RECONCILED
360
B92B
  0
DICTIONARY
  5
B92C
330
2825
100
AcDbDictionary
280
     1
281
     1
  3
ADSK_XREC_LAYER_RECONCILED
360
B92D
  0
DICTIONARY
  5
B92E
330
2826
100
AcDbDictionary
280
     1
281
     1
  3
ADSK_XREC_LAYER_RECONCILED
360
B92F
  0
DICTIONARY
  5
B930
330
2827
100
AcDbDictionary
280
     1
281
     1
  3
ADSK_XREC_LAYER_RECONCILED
360
B931
  0
DICTIONARY
  5
B932
330
2828
100
AcDbDictionary
280
     1
281
     1
  3
ADSK_XREC_LAYER_RECONCILED
360
B933
  0
DICTIONARY
  5
B934
330
2829
100
AcDbDictionary
280
     1
281
     1
  3
ADSK_XREC_LAYER_RECONCILED
360
B935
  0
DICTIONARY
  5
B936
330
282A
100
AcDbDictionary
280
     1
281
     1
  3
ADSK_XREC_LAYER_RECONCILED
360
B937
  0
DICTIONARY
  5
B938
330
282B
100
AcDbDictionary
280
     1
281
     1
  3
ADSK_XREC_LAYER_RECONCILED
360
B939
  0
DICTIONARY
  5
B93A
330
4247
100
AcDbDictionary
280
     1
281
     1
  3
ADSK_XREC_LAYER_RECONCILED
360
B93B
  0
DICTIONARY
  5
B93C
330
6A26
100
AcDbDictionary
280
     1
281
     1
  3
ADSK_XREC_LAYER_RECONCILED
360
B93D
  0
DICTIONARY
  5
B93E
330
6A27
100
AcDbDictionary
280
     1
281
     1
  3
ADSK_XREC_LAYER_RECONCILED
360
B93F
  0
DICTIONARY
  5
B940
330
8E07
100
AcDbDictionary
280
     1
281
     1
  3
ADSK_XREC_LAYER_RECONCILED
360
B941
  0
DICTIONARY
  5
A61C
330
1F
100
AcDbDictionary
280
     1
281
     1
  3
ACAD_SORTENTS
360
A61D
  0
DICTIONARY
  5
B956
330
B8AA
100
AcDbDictionary
280
     1
281
     1
  3
ACAD_MTEXT_2008_RT
360
BB6F
  0
DICTIONARY
  5
931F
330
931E
100
AcDbDictionary
280
     1
281
     1
  3
ACAD_DIMASSOC
360
9320
  0
DICTIONARY
  5
9322
330
9321
100
AcDbDictionary
280
     1
281
     1
  3
ACAD_DIMASSOC
360
9323
  0
DICTIONARY
  5
9325
330
9324
100
AcDbDictionary
280
     1
281
     1
  3
ACAD_DIMASSOC
360
9326
  0
DICTIONARY
  5
9328
330
9327
100
AcDbDictionary
280
     1
281
     1
  3
ACAD_DIMASSOC
360
9329
  0
DICTIONARY
  5
932B
330
932A
100
AcDbDictionary
280
     1
281
     1
  3
ACAD_DIMASSOC
360
932C
  0
DICTIONARY
  5
932E
330
932D
100
AcDbDictionary
280
     1
281
     1
  3
ACAD_DIMASSOC
360
932F
  0
DICTIONARY
  5
9343
330
9342
100
AcDbDictionary
280
     1
281
     1
  3
ACAD_DIMASSOC
360
9344
  0
DICTIONARY
  5
9346
330
9345
100
AcDbDictionary
280
     1
281
     1
  3
ACAD_DIMASSOC
360
9347
  0
DICTIONARY
  5
9349
330
9348
100
AcDbDictionary
280
     1
281
     1
  3
ACAD_DIMASSOC
360
934A
  0
DICTIONARY
  5
934C
330
934B
100
AcDbDictionary
280
     1
281
     1
  3
ACAD_DIMASSOC
360
934D
  0
DICTIONARY
  5
934F
330
934E
100
AcDbDictionary
280
     1
281
     1
  3
ACAD_DIMASSOC
360
9350
  0
DICTIONARY
  5
9352
330
9351
100
AcDbDictionary
280
     1
281
     1
  3
ACAD_DIMASSOC
360
9353
  0
DICTIONARY
  5
9355
330
9354
100
AcDbDictionary
280
     1
281
     1
  3
ACAD_DIMASSOC
360
9356
  0
DICTIONARY
  5
9358
330
9357
100
AcDbDictionary
280
     1
281
     1
  3
ACAD_DIMASSOC
360
9359
  0
DICTIONARY
  5
935B
330
935A
100
AcDbDictionary
280
     1
281
     1
  3
ACAD_DIMASSOC
360
935C
  0
DICTIONARY
  5
935F
330
935E
100
AcDbDictionary
280
     1
281
     1
  3
ACAD_DIMASSOC
360
9360
  0
DICTIONARY
  5
B9A7
330
B9A6
100
AcDbDictionary
280
     1
281
     1
  3
ACAD_MTEXT_2008_RT
360
BB6C
  0
XRECORD
  5
B915
102
{ACAD_REACTORS
330
C
102
}
330
C
100
AcDbXrecord
280
     1
300
AMECH_PP
300
2014
300
PDSP_F_S
  0
DICTIONARY
  5
73
102
{ACAD_REACTORS
330
C
102
}
330
C
100
AcDbDictionary
281
     1
  0
DICTIONARY
  5
B912
102
{ACAD_REACTORS
330
C
102
}
330
C
100
AcDbDictionary
281
     1
  3
Imperial24
350
B913
  0
DICTIONARY
  5
D
102
{ACAD_REACTORS
330
C
102
}
330
C
100
AcDbDictionary
281
     1
  0
DICTIONARY
  5
1A
102
{ACAD_REACTORS
330
C
102
}
330
C
100
AcDbDictionary
281
     1
  3
Layout1
350
59
  3
Layout2
350
5E
  3
Model
350
22
  0
DICTIONARY
  5
72
102
{ACAD_REACTORS
330
C
102
}
330
C
100
AcDbDictionary
281
     1
  3
ByBlock
350
B8D1
  3
ByLayer
350
B8C9
  3
Global
350
B8D9
  0
DICTIONARY
  5
B90E
102
{ACAD_REACTORS
330
C
102
}
330
C
100
AcDbDictionary
281
     1
  3
Standard
350
B90F
  0
DICTIONARY
  5
17
102
{ACAD_REACTORS
330
C
102
}
330
C
100
AcDbDictionary
281
     1
  3
Standard
350
18
  0
DICTIONARY
  5
19
102
{ACAD_REACTORS
330
C
102
}
330
C
100
AcDbDictionary
281
     1
  0
ACDBDICTIONARYWDFLT
  5
E
102
{ACAD_REACTORS
330
C
102
}
330
C
100
AcDbDictionary
281
     1
  3
Normal
350
F
100
AcDbDictionaryWithDefault
340
F
  0
DICTIONARY
  5
B8FC
102
{ACAD_REACTORS
330
C
102
}
330
C
100
AcDbDictionary
281
     1
  3
A0
350
B8FD
  3
A1
350
B8FE
  3
A2
350
B8FF
  3
A3
350
B900
  3
A4
350
B901
  3
A5
350
B902
  3
A6
350
B903
  3
A7
350
B904
  3
A8
350
B905
  3
A9
350
B906
  3
B0
350
B907
  3
B1
350
B908
  3
B2
350
B909
  3
B3
350
B90A
  3
B4
350
B90B
  3
B5
350
B90C
  3
B6
350
B90D
  0
DICTIONARY
  5
B910
102
{ACAD_REACTORS
330
C
102
}
330
C
100
AcDbDictionary
281
     1
  3
Imperial24
350
B911
  0
DICTIONARY
  5
B8FA
102
{ACAD_REACTORS
330
C
102
}
330
C
100
AcDbDictionary
281
     1
  3
Standard
350
B8FB
  0
DICTIONARY
  5
B8E1
102
{ACAD_REACTORS
330
C
102
}
330
C
100
AcDbDictionary
281
     1
  3
2dWireframe
350
B8E7
  3
Basic
350
B8E6
  3
Brighten
350
B8ED
  3
ColorChange
350
B8F1
  3
Conceptual
350
B8EA
  3
Dim
350
B8EC
  3
EdgeColorOff
350
B8F9
  3
Facepattern
350
B8F0
  3
Flat
350
B8E2
  3
FlatWithEdges
350
B8E3
  3
Gouraud
350
B8E4
  3
GouraudWithEdges
350
B8E5
  3
Hidden
350
B8E9
  3
JitterOff
350
B8F7
  3
Linepattern
350
B8EF
  3
OverhangOff
350
B8F8
  3
Realistic
350
B8EB
  3
Shaded
350
B8F6
  3
Shaded with edges
350
B8F5
  3
Shades of Gray
350
B8F2
  3
Sketchy
350
B8F3
  3
Thicken
350
B8EE
  3
Wireframe
350
B8E8
  3
X-Ray
350
B8F4
  0
XRECORD
  5
BB6D
102
{ACAD_REACTORS
330
C
102
}
330
C
100
AcDbXrecord
280
     1
 90
        1
330
B8FB
330
B9A6
330
BAA3
  0
DICTIONARY
  5
66
102
{ACAD_REACTORS
330
C
102
}
330
C
100
AcDbDictionary
281
     1
  3
CANNOSCALE
350
B946
  3
CMLEADERSTYLE
350
B943
  3
CTABLESTYLE
350
B942
  3
CVIEWDETAILSTYLE
350
B944
  3
CVIEWSECTIONSTYLE
350
B945
  3
DIMASSOC
350
67
  3
HIDETEXT
350
6B
  3
INDEXCTL
350
B948
  3
PROJECTNAME
350
B7F1
  3
SORTENTS
350
B947
  3
XCLIPFRAME
350
BB6A
  0
DICTIONARY
  5
B99D
102
{ACAD_REACTORS
330
B99C
102
}
330
B99C
100
AcDbDictionary
281
     1
  0
XRECORD
  5
B919
102
{ACAD_REACTORS
330
B918
102
}
330
B918
100
AcDbXrecord
280
     1
290
     1
  0
XRECORD
  5
B91B
102
{ACAD_REACTORS
330
B91A
102
}
330
B91A
100
AcDbXrecord
280
     1
290
     1
  0
XRECORD
  5
B91D
102
{ACAD_REACTORS
330
B91C
102
}
330
B91C
100
AcDbXrecord
280
     1
290
     1
  0
XRECORD
  5
B91F
102
{ACAD_REACTORS
330
B91E
102
}
330
B91E
100
AcDbXrecord
280
     1
290
     1
  0
XRECORD
  5
B921
102
{ACAD_REACTORS
330
B920
102
}
330
B920
100
AcDbXrecord
280
     1
290
     1
  0
XRECORD
  5
B923
102
{ACAD_REACTORS
330
B922
102
}
330
B922
100
AcDbXrecord
280
     1
290
     1
  0
XRECORD
  5
B925
102
{ACAD_REACTORS
330
B924
102
}
330
B924
100
AcDbXrecord
280
     1
290
     1
  0
XRECORD
  5
B927
102
{ACAD_REACTORS
330
B926
102
}
330
B926
100
AcDbXrecord
280
     1
290
     1
  0
XRECORD
  5
B929
102
{ACAD_REACTORS
330
B928
102
}
330
B928
100
AcDbXrecord
280
     1
290
     1
  0
XRECORD
  5
B92B
102
{ACAD_REACTORS
330
B92A
102
}
330
B92A
100
AcDbXrecord
280
     1
290
     1
  0
XRECORD
  5
B92D
102
{ACAD_REACTORS
330
B92C
102
}
330
B92C
100
AcDbXrecord
280
     1
290
     1
  0
XRECORD
  5
B92F
102
{ACAD_REACTORS
330
B92E
102
}
330
B92E
100
AcDbXrecord
280
     1
290
     1
  0
XRECORD
  5
B931
102
{ACAD_REACTORS
330
B930
102
}
330
B930
100
AcDbXrecord
280
     1
290
     1
  0
XRECORD
  5
B933
102
{ACAD_REACTORS
330
B932
102
}
330
B932
100
AcDbXrecord
280
     1
290
     1
  0
XRECORD
  5
B935
102
{ACAD_REACTORS
330
B934
102
}
330
B934
100
AcDbXrecord
280
     1
290
     1
  0
XRECORD
  5
B937
102
{ACAD_REACTORS
330
B936
102
}
330
B936
100
AcDbXrecord
280
     1
290
     1
  0
XRECORD
  5
B939
102
{ACAD_REACTORS
330
B938
102
}
330
B938
100
AcDbXrecord
280
     1
290
     1
  0
XRECORD
  5
B93B
102
{ACAD_REACTORS
330
B93A
102
}
330
B93A
100
AcDbXrecord
280
     1
290
     1
  0
XRECORD
  5
B93D
102
{ACAD_REACTORS
330
B93C
102
}
330
B93C
100
AcDbXrecord
280
     1
290
     1
  0
XRECORD
  5
B93F
102
{ACAD_REACTORS
330
B93E
102
}
330
B93E
100
AcDbXrecord
280
     1
290
     1
  0
XRECORD
  5
B941
102
{ACAD_REACTORS
330
B940
102
}
330
B940
100
AcDbXrecord
280
     1
290
     1
  0
SORTENTSTABLE
  5
A61D
102
{ACAD_REACTORS
330
A61C
102
}
330
A61C
100
AcDbSortentsTable
330
1F
331
A08A
  5
A08B
331
A04D
  5
A04E
331
A027
  5
A028
331
9FA9
  5
9FAA
331
9FEA
  5
9FEB
331
9219
  5
921A
331
935A
  5
935D
331
A05A
  5
A05B
331
A075
  5
A076
331
9FBA
  5
9FBB
331
9FF7
  5
9FF8
331
9F94
  5
9F95
331
9367
  5
9368
331
91DC
  5
91DD
331
A02A
  5
A02B
331
A004
  5
A005
331
A082
  5
A083
331
A045
  5
A046
331
9FC7
  5
9FC8
331
A01F
  5
A020
331
9FA1
  5
9FA2
331
93D4
  5
93D5
331
9211
  5
9212
331
A011
  5
A012
331
A08F
  5
A090
331
A052
  5
A053
331
9FD4
  5
9FD5
331
9FAE
  5
9FAF
331
9FEF
  5
9FF0
331
93E1
  5
93E2
331
921E
  5
921F
331
A09C
  5
A09D
331
A05F
  5
A060
331
9FE1
  5
9FE2
331
9FBF
  5
9FC0
331
9FFC
  5
9FFD
331
9351
  5
9354
331
9FB1
  5
9FB2
331
A02F
  5
A030
331
A06C
  5
A06D
331
9FCC
  5
9FCD
331
A087
  5
A088
331
A009
  5
A00A
331
9F8B
  5
9F8C
331
9FA6
  5
9FA7
331
933C
  5
933D
331
93D9
  5
93DA
331
91D3
  5
91D4
331
9216
  5
9217
331
A03C
  5
A03D
331
A079
  5
A07A
331
A016
  5
A017
331
A094
  5
A095
331
A057
  5
A058
331
9FD9
  5
9FDA
331
91E0
  5
91E1
331
A049
  5
A04A
331
A023
  5
A024
331
A064
  5
A065
331
9FE6
  5
9FE7
331
9FF3
  5
9FF4
331
A071
  5
A072
331
A034
  5
A035
331
9FB6
  5
9FB7
331
9F90
  5
9F91
331
A00E
  5
A00F
331
9363
  5
9364
331
91D8
  5
91D9
331
A0A4
  5
A0A5
331
A000
  5
A001
331
9FC3
  5
9FC4
331
A041
  5
A042
331
A07E
  5
A07F
331
9FDE
  5
9FDF
331
A01B
  5
A01C
331
9F9D
  5
9F9E
331
984B
  5
984C
331
934E
  5
9351
331
9FD0
  5
9FD1
331
A04E
  5
A04F
331
A08B
  5
A08C
331
9FEB
  5
9FEC
331
9FAA
  5
9FAB
331
9340
  5
9341
331
921A
  5
921B
331
A05B
  5
A05C
331
A098
  5
A099
331
9FBB
  5
9FBC
331
A076
  5
A077
331
9FF8
  5
9FF9
331
9F95
  5
9F96
331
9368
  5
9369
331
91DD
  5
91DE
331
A121
  5
A122
331
A02B
  5
A02C
331
A068
  5
A069
331
A083
  5
A084
331
A046
  5
A047
331
9FC8
  5
9FC9
331
A005
  5
A006
331
9FA2
  5
9FA3
331
93D5
  5
93D6
331
9212
  5
9213
331
A038
  5
A039
331
9FD5
  5
9FD6
331
A053
  5
A054
331
A090
  5
A091
331
A012
  5
A013
331
9FAF
  5
9FB0
331
93E2
  5
93E3
331
9345
  5
9348
331
9FE2
  5
9FE3
331
A060
  5
A061
331
A09D
  5
A09E
331
9FFD
  5
9FFE
331
9324
  5
9327
331
9FB2
  5
9FB3
331
A06D
  5
A06E
331
A030
  5
A031
331
9F8C
  5
9F8D
331
9FCD
  5
9FCE
331
A00A
  5
A00B
331
9FA7
  5
9FA8
331
91D4
  5
91D5
331
933D
  5
933E
331
93DA
  5
93DB
331
9217
  5
9218
331
A0A0
  5
A0A1
331
A03D
  5
A03E
331
A07A
  5
A07B
331
9F99
  5
9F9A
331
A017
  5
A018
331
A095
  5
A096
331
9FDA
  5
9FDB
331
91E1
  5
91E2
331
4FD7
  5
5015
331
A04A
  5
A04B
331
9FE7
  5
9FE8
331
A024
  5
A025
331
A065
  5
A066
331
9357
  5
935A
331
9FF4
  5
9FF5
331
9FB7
  5
9FB8
331
A072
  5
A073
331
A035
  5
A036
331
9F91
  5
9F92
331
A00F
  5
A010
331
91D9
  5
91DA
331
A0A5
  5
A121
331
A001
  5
A002
331
9FC4
  5
9FC5
331
A07F
  5
A080
331
A042
  5
A043
331
A01C
  5
A01D
331
9F9E
  5
9F9F
331
9FDF
  5
9FE0
331
9FD1
  5
9FD2
331
A04F
  5
A050
331
A08C
  5
A08D
331
9FAB
  5
9FAC
331
9FEC
  5
9FED
331
9341
  5
9342
331
921B
  5
921C
331
A05C
  5
A05D
331
A099
  5
A09A
331
9FBC
  5
9FBD
331
A077
  5
A078
331
9FF9
  5
9FFA
331
9F96
  5
9F97
331
9369
  5
936A
331
91DE
  5
91DF
331
A02C
  5
A02D
331
A069
  5
A06A
331
A006
  5
A007
331
A084
  5
A085
331
A047
  5
A048
331
9FC9
  5
9FCA
331
9FA3
  5
9FA4
331
93D6
  5
93D7
331
9339
  5
933A
331
91D0
  5
91D1
331
9213
  5
9214
331
A039
  5
A03A
331
9FD6
  5
9FD7
331
A091
  5
A092
331
A013
  5
A014
331
A054
  5
A055
331
93E3
  5
93E4
331
9FE3
  5
9FE4
331
A09E
  5
A09F
331
A020
  5
A021
331
A061
  5
A062
331
9FFE
  5
9FFF
331
9FF0
  5
9FF1
331
9FB3
  5
9FB4
331
A06E
  5
A06F
331
A031
  5
A032
331
9FCE
  5
9FCF
331
A00B
  5
A00C
331
9F8D
  5
9F8E
331
933E
  5
933F
331
93DB
  5
93DC
331
91D5
  5
91D6
331
A0A1
  5
A0A2
331
9FC0
  5
9FC1
331
A03E
  5
A03F
331
A07B
  5
A07C
331
9F9A
  5
9F9B
331
A018
  5
A019
331
A096
  5
A097
331
9FDB
  5
9FDC
331
934B
  5
934E
331
91E2
  5
91E3
331
A088
  5
A089
331
A04B
  5
A04C
331
A025
  5
A026
331
A066
  5
A067
331
9FE8
  5
9FE9
331
A058
  5
A059
331
A073
  5
A074
331
A036
  5
A037
331
9FB8
  5
9FB9
331
9FF5
  5
9FF6
331
9F92
  5
9F93
331
91DA
  5
91DB
331
A028
  5
A029
331
A002
  5
A003
331
A080
  5
A081
331
A043
  5
A044
331
9FC5
  5
9FC6
331
A01D
  5
A01E
331
9F9F
  5
9FA0
331
932D
  5
9330
331
A08D
  5
A08E
331
A050
  5
A051
331
9FD2
  5
9FD3
331
9FAC
  5
9FAD
331
9FED
  5
9FEE
331
9342
  5
9345
331
935D
  5
935E
331
921C
  5
921D
331
A09A
  5
A09B
331
A05D
  5
A05E
331
9FBD
  5
9FBE
331
9FFA
  5
9FFB
331
9321
  5
9324
331
91DF
  5
91E0
331
A02D
  5
A02E
331
A06A
  5
A06B
331
A085
  5
A086
331
9FCA
  5
9FCB
331
A007
  5
A008
331
9FA4
  5
9FA5
331
91D1
  5
91D2
331
933A
  5
933B
331
93D7
  5
93D8
331
9214
  5
9215
331
A03A
  5
A03B
331
A014
  5
A015
331
A092
  5
A093
331
A055
  5
A056
331
9FD7
  5
9FD8
331
93E4
  5
93E5
331
A021
  5
A022
331
A09F
  5
A0A0
331
A062
  5
A063
331
9FE4
  5
9FE5
331
9FFF
  5
A000
331
9354
  5
9357
331
9FF1
  5
9FF2
331
A032
  5
A033
331
A06F
  5
A070
331
9FB4
  5
9FB5
331
9FCF
  5
9FD0
331
A00C
  5
A00D
331
9F8E
  5
9F8F
331
9361
  5
9362
331
933F
  5
9340
331
91D6
  5
91D7
331
A0A2
  5
A0A3
331
9FC1
  5
9FC2
331
A03F
  5
A040
331
A07C
  5
A07D
331
9F9B
  5
9F9C
331
A019
  5
A01A
331
A097
  5
A098
331
9FDC
  5
9FDD
331
91E3
  5
91E4
331
931E
  5
9321
331
A089
  5
A08A
331
A04C
  5
A04D
331
A026
  5
A027
331
9FA8
  5
9FA9
331
A067
  5
A068
331
9FE9
  5
9FEA
331
9218
  5
9219
331
A059
  5
A05A
331
A074
  5
A075
331
A037
  5
A038
331
9FB9
  5
9FBA
331
9FF6
  5
9FF7
331
9F93
  5
9F94
331
91DB
  5
91DC
331
A029
  5
A02A
331
A003
  5
A004
331
A081
  5
A082
331
A044
  5
A045
331
9FC6
  5
9FC7
331
A01E
  5
A01F
331
9FA0
  5
9FA1
331
93D3
  5
93D4
331
A010
  5
A011
331
A08E
  5
A08F
331
A051
  5
A052
331
9FD3
  5
9FD4
331
9FAD
  5
9FAE
331
9FEE
  5
9FEF
331
921D
  5
921E
331
935E
  5
9361
331
A09B
  5
A09C
331
A05E
  5
A05F
331
9FE0
  5
9FE1
331
9FBE
  5
9FBF
331
9FFB
  5
9FFC
331
9FB0
  5
9FB1
331
A02E
  5
A02F
331
A06B
  5
A06C
331
A008
  5
A009
331
A086
  5
A087
331
9FCB
  5
9FCC
331
9FA5
  5
9FA6
331
933B
  5
933C
331
93D8
  5
93D9
331
91D2
  5
91D3
331
9215
  5
9216
331
A078
  5
A079
331
A03B
  5
A03C
331
A015
  5
A016
331
A093
  5
A094
331
A056
  5
A057
331
9FD8
  5
9FD9
331
9348
  5
934B
331
A048
  5
A049
331
A022
  5
A023
331
A063
  5
A064
331
9FE5
  5
9FE6
331
9327
  5
932A
331
9FF2
  5
9FF3
331
A070
  5
A071
331
A033
  5
A034
331
9FB5
  5
9FB6
331
A00D
  5
A00E
331
9F8F
  5
9F90
331
9362
  5
9363
331
91D7
  5
91D8
331
A0A3
  5
A0A4
331
9FC2
  5
9FC3
331
A040
  5
A041
331
A07D
  5
A07E
331
A01A
  5
A01B
331
9F9C
  5
9F9D
331
9FDD
  5
9FDE
331
932A
  5
932D
331
91E4
  5
91E5
  0
XRECORD
  5
BB6F
102
{ACAD_REACTORS
330
B956
102
}
330
B956
100
AcDbXrecord
280
     1
 40
10498.0
  1
\A1;\U+22050.375 (8)
  0
DIMASSOC
  5
9320
102
{ACAD_REACTORS
330
931F
102
}
330
931F
100
AcDbDimAssoc
330
931E
 90
        2
 70
     0
 71
     0
  1
AcDbOsnapPointRef
 72
     3
331
93D9
 73
     2
 91
        0
 40
0.0
 10
0.0
 20
0.0
 30
0.0
 75
     0
  0
DIMASSOC
  5
9323
102
{ACAD_REACTORS
330
9322
102
}
330
9322
100
AcDbDimAssoc
330
9321
 90
        2
 70
     0
 71
     0
  1
AcDbOsnapPointRef
 72
     3
331
93D3
 73
     2
 91
        0
 40
0.0
 10
0.0
 20
0.0
 30
0.0
 75
     0
  0
DIMASSOC
  5
9326
102
{ACAD_REACTORS
330
9325
102
}
330
9325
100
AcDbDimAssoc
330
9324
 90
        2
 70
     0
 71
     0
  1
AcDbOsnapPointRef
 72
     3
331
93D3
 73
     2
 91
        0
 40
0.0
 10
0.0
 20
0.0
 30
0.0
 75
     0
  0
DIMASSOC
  5
9329
102
{ACAD_REACTORS
330
9328
102
}
330
9328
100
AcDbDimAssoc
330
9327
 90
        2
 70
     0
 71
     0
  1
AcDbOsnapPointRef
 72
     1
331
93D5
 73
     2
 91
        0
 40
1.0
 10
0.0
 20
0.0
 30
2.000000000000000E+50
 75
     0
  0
DIMASSOC
  5
932C
102
{ACAD_REACTORS
330
932B
102
}
330
932B
100
AcDbDimAssoc
330
932A
 90
        2
 70
     0
 71
     0
  1
AcDbOsnapPointRef
 72
     5
331
93DB
 73
     2
 91
        0
 40
4.712388980384688
 10
0.0
 20
0.0
 30
0.0
 75
     0
  0
DIMASSOC
  5
932F
102
{ACAD_REACTORS
330
932E
102
}
330
932E
100
AcDbDimAssoc
330
932D
 90
        2
 70
     0
 71
     0
  1
AcDbOsnapPointRef
 72
     5
331
93D8
 73
     2
 91
        0
 40
3.141592653589792
 10
0.0
 20
0.0
 30
0.0
 75
     0
  0
DIMASSOC
  5
9344
102
{ACAD_REACTORS
330
9343
102
}
330
9343
100
AcDbDimAssoc
330
9342
 90
        2
 70
     0
 71
     0
  1
AcDbOsnapPointRef
 72
     1
331
9362
 73
     2
 91
        0
 40
1.0
 10
0.0
 20
0.0
 30
2.000000000000000E+50
 75
     0
  0
DIMASSOC
  5
9347
102
{ACAD_REACTORS
330
9346
102
}
330
9346
100
AcDbDimAssoc
330
9345
 90
        2
 70
     0
 71
     0
  1
AcDbOsnapPointRef
 72
     1
331
9362
 73
     2
 91
        0
 40
1.0
 10
0.0
 20
0.0
 30
2.000000000000000E+50
 75
     0
  0
DIMASSOC
  5
934A
102
{ACAD_REACTORS
330
9349
102
}
330
9349
100
AcDbDimAssoc
330
9348
 90
        2
 70
     0
 71
     0
  1
AcDbOsnapPointRef
 72
    13
331
9363
 73
     2
 91
        0
 40
0.0
 10
0.0
 20
0.0
 30
2.000000000000000E+50
 75
     0
  0
DIMASSOC
  5
934D
102
{ACAD_REACTORS
330
934C
102
}
330
934C
100
AcDbDimAssoc
330
934B
 90
        2
 70
     0
 71
     0
  1
AcDbOsnapPointRef
 72
     1
331
9367
 73
     2
 91
        0
 40
1.0
 10
0.0
 20
0.0
 30
2.000000000000000E+50
 75
     0
  0
DIMASSOC
  5
9350
102
{ACAD_REACTORS
330
934F
102
}
330
934F
100
AcDbDimAssoc
330
934E
 90
        2
 70
     0
 71
     0
  1
AcDbOsnapPointRef
 72
     1
331
93E1
 73
     2
 91
        0
 40
1.0
 10
0.0
 20
0.0
 30
2.000000000000000E+50
 75
     0
  0
DIMASSOC
  5
9353
102
{ACAD_REACTORS
330
9352
102
}
330
9352
100
AcDbDimAssoc
330
9351
 90
        2
 70
     0
 71
     0
  1
AcDbOsnapPointRef
 72
     3
331
93D7
 73
     2
 91
        0
 40
0.0
 10
0.0
 20
0.0
 30
0.0
 75
     0
  0
DIMASSOC
  5
9356
102
{ACAD_REACTORS
330
9355
102
}
330
9355
100
AcDbDimAssoc
330
9354
 90
        2
 70
     0
 71
     0
  1
AcDbOsnapPointRef
 72
     5
331
93D6
 73
     2
 91
        0
 40
4.712388980384688
 10
0.0
 20
0.0
 30
0.0
 75
     0
  0
DIMASSOC
  5
9359
102
{ACAD_REACTORS
330
9358
102
}
330
9358
100
AcDbDimAssoc
330
9357
 90
        2
 70
     0
 71
     0
  1
AcDbOsnapPointRef
 72
     5
331
93DA
 73
     2
 91
        0
 40
4.712388980384688
 10
0.0
 20
0.0
 30
0.0
 75
     0
  0
DIMASSOC
  5
935C
102
{ACAD_REACTORS
330
935B
102
}
330
935B
100
AcDbDimAssoc
330
935A
 90
        2
 70
     0
 71
     0
  1
AcDbOsnapPointRef
 72
     5
331
93DA
 73
     2
 91
        0
 40
3.141592653589792
 10
0.0
 20
0.0
 30
0.0
 75
     0
  0
DIMASSOC
  5
9360
102
{ACAD_REACTORS
330
935F
102
}
330
935F
100
AcDbDimAssoc
330
935E
 90
        2
 70
     0
 71
     0
  1
AcDbOsnapPointRef
 72
    13
331
93E1
 73
     2
 91
        0
 40
0.0
 10
0.0
 20
0.0
 30
2.000000000000000E+50
 75
     0
  0
XRECORD
  5
BB6C
102
{ACAD_REACTORS
330
B9A7
102
}
330
B9A7
100
AcDbXrecord
280
     1
 40
1938720.0
  1
\A1;\pxql;{\LHAZARDOUS LOCATION CERTIFICATIONS:}\PUL/ETL: CLASS 1 DIVISION 2 GROUPS B, C & D\PETL: CLASS 1 ZONE 2 GROUPS IIB\P{\LTEMPERATURE CODE:\P}UL: T3C 60/50HZ \P*T3C CRANKCASE HEATER OPTION*\PETL: T3\PCSA: T4\P*T3 CRANKCASE HEATER OPTION*
  0
ACDBDETAILVIEWSTYLE
  5
B913
102
{ACAD_XDICTIONARY
360
BBA6
102
}
102
{ACAD_REACTORS
330
B912
102
}
330
B912
100
AcDbModelDocViewStyle
 70
     0
  3
Imperial24
290
     0
100
AcDbDetailViewStyle
 70
     0
 71
     0
 90
        3
 71
     1
340
11
 62
   256
 40
0.24
340
0
 62
   256
 40
0.24
300

 40
0.36
280
     3
 71
     2
340
16
 90
       25
 62
   256
 71
     3
340
11
 62
   256
 40
0.24
 90
        1
 40
0.75
 90
        1
300
%<\AcVar ViewType \f "%tc1">% %<\AcVar ViewDetailId>%\PSCALE %<\AcVar ViewScale \f "%sn">%
 71
     4
340
16
 90
       25
 62
   256
340
16
 90
       25
 62
   256
280
     0
  0
LAYOUT
  5
59
102
{ACAD_REACTORS
330
1A
102
}
330
1A
100
AcDbPlotSettings
  1

  2
None
  4

  6

 40
0.0
 41
0.0
 42
0.0
 43
0.0
 44
0.0
 45
0.0
 46
0.0
 47
0.0
 48
0.0
 49
0.0
140
0.0
141
0.0
142
1.0
143
1.0
 70
   688
 72
     0
 73
     0
 74
     5
  7
monochrome.ctb
 75
    16
147
1.0
 76
     0
 77
     2
 78
   300
148
0.0
149
0.0
100
AcDbLayout
  1
Layout1
 70
     1
 71
     1
 10
0.0
 20
0.0
 11
12.0
 21
9.0
 12
0.0
 22
0.0
 32
0.0
 14
0.0
 24
0.0
 34
0.0
 15
0.0
 25
0.0
 35
0.0
146
0.0
 13
0.0
 23
0.0
 33
0.0
 16
1.0
 26
0.0
 36
0.0
 17
0.0
 27
1.0
 37
0.0
 76
     0
330
58
  0
LAYOUT
  5
5E
102
{ACAD_REACTORS
330
1A
102
}
330
1A
100
AcDbPlotSettings
  1

  2
None
  4

  6

 40
0.0
 41
0.0
 42
0.0
 43
0.0
 44
0.0
 45
0.0
 46
0.0
 47
0.0
 48
0.0
 49
0.0
140
0.0
141
0.0
142
1.0
143
1.0
 70
   688
 72
     0
 73
     0
 74
     5
  7
monochrome.ctb
 75
    16
147
1.0
 76
     0
 77
     2
 78
   300
148
0.0
149
0.0
100
AcDbLayout
  1
Layout2
 70
     1
 71
     2
 10
0.0
 20
0.0
 11
12.0
 21
9.0
 12
0.0
 22
0.0
 32
0.0
 14
0.0
 24
0.0
 34
0.0
 15
0.0
 25
0.0
 35
0.0
146
0.0
 13
0.0
 23
0.0
 33
0.0
 16
1.0
 26
0.0
 36
0.0
 17
0.0
 27
1.0
 37
0.0
 76
     0
330
5D
  0
LAYOUT
  5
22
102
{ACAD_XDICTIONARY
360
BB2A
102
}
102
{ACAD_REACTORS
330
1A
102
}
330
1A
100
AcDbPlotSettings
  1

  2
HP Deskjet 6500 Series
  4
Letter
  6

 40
3.96875
 41
3.799404859542846
 42
3.96875
 43
3.17498779296875
 44
215.8999938964844
 45
279.3999938964844
 46
0.508
 47
0.0
 48
555.8639557415924
 49
-221.2993133862696
140
631.8612009983086
141
-121.2993133862696
142
1.0
143
9.323646486973462
 70
 11956
 72
     0
 73
     0
 74
     4
  7
monochrome.ctb
 75
     0
147
0.1072541737180995
 76
     0
 77
     2
 78
   300
148
-14118.94447583645
149
5621.002560011248
100
AcDbLayout
  1
Model
 70
     1
 71
     0
 10
0.0
 20
0.0
 11
12.0
 21
9.0
 12
0.0
 22
0.0
 32
0.0
 14
0.0
 24
0.0
 34
0.0
 15
0.0
 25
0.0
 35
0.0
146
0.0
 13
0.0
 23
0.0
 33
0.0
 16
1.0
 26
0.0
 36
0.0
 17
0.0
 27
1.0
 37
0.0
 76
     0
330
1F
331
B8BB
  0
MATERIAL
  5
B8D1
102
{ACAD_XDICTIONARY
360
B8D2
102
}
102
{ACAD_REACTORS
330
72
102
}
330
72
100
AcDbMaterial
  1
ByBlock
 72
     0
 43
0.0208333333333333
 43
0.0
 43
0.0
 43
0.0
 43
0.0
 43
0.0208333333333333
 43
0.0
 43
0.0
 43
0.0
 43
0.0
 43
1.0
 43
0.0
 43
0.0
 43
0.0
 43
0.0
 43
1.0
 77
     0
 47
0.0208333333333333
 47
0.0
 47
0.0
 47
0.0
 47
0.0
 47
0.0208333333333333
 47
0.0
 47
0.0
 47
0.0
 47
0.0
 47
1.0
 47
0.0
 47
0.0
 47
0.0
 47
0.0
 47
1.0
171
     0
 49
0.0208333333333333
 49
0.0
 49
0.0
 49
0.0
 49
0.0
 49
0.0208333333333333
 49
0.0
 49
0.0
 49
0.0
 49
0.0
 49
1.0
 49
0.0
 49
0.0
 49
0.0
 49
0.0
 49
1.0
175
     0
142
0.0208333333333333
142
0.0
142
0.0
142
0.0
142
0.0
142
0.0208333333333333
142
0.0
142
0.0
142
0.0
142
0.0
142
1.0
142
0.0
142
0.0
142
0.0
142
0.0
142
1.0
179
     0
144
0.0208333333333333
144
0.0
144
0.0
144
0.0
144
0.0
144
0.0208333333333333
144
0.0
144
0.0
144
0.0
144
0.0
144
1.0
144
0.0
144
0.0
144
0.0
144
0.0
144
1.0
147
0.0208333333333333
147
0.0
147
0.0
147
0.0
147
0.0
147
0.0208333333333333
147
0.0
147
0.0
147
0.0
147
0.0
147
1.0
147
0.0
147
0.0
147
0.0
147
0.0
147
1.0
  0
MATERIAL
  5
B8C9
102
{ACAD_XDICTIONARY
360
B8CA
102
}
102
{ACAD_REACTORS
330
72
102
}
330
72
100
AcDbMaterial
  1
ByLayer
 72
     0
 43
0.0208333333333333
 43
0.0
 43
0.0
 43
0.0
 43
0.0
 43
0.0208333333333333
 43
0.0
 43
0.0
 43
0.0
 43
0.0
 43
1.0
 43
0.0
 43
0.0
 43
0.0
 43
0.0
 43
1.0
 77
     0
 47
0.0208333333333333
 47
0.0
 47
0.0
 47
0.0
 47
0.0
 47
0.0208333333333333
 47
0.0
 47
0.0
 47
0.0
 47
0.0
 47
1.0
 47
0.0
 47
0.0
 47
0.0
 47
0.0
 47
1.0
171
     0
 49
0.0208333333333333
 49
0.0
 49
0.0
 49
0.0
 49
0.0
 49
0.0208333333333333
 49
0.0
 49
0.0
 49
0.0
 49
0.0
 49
1.0
 49
0.0
 49
0.0
 49
0.0
 49
0.0
 49
1.0
175
     0
142
0.0208333333333333
142
0.0
142
0.0
142
0.0
142
0.0
142
0.0208333333333333
142
0.0
142
0.0
142
0.0
142
0.0
142
1.0
142
0.0
142
0.0
142
0.0
142
0.0
142
1.0
179
     0
144
0.0208333333333333
144
0.0
144
0.0
144
0.0
144
0.0
144
0.0208333333333333
144
0.0
144
0.0
144
0.0
144
0.0
144
1.0
144
0.0
144
0.0
144
0.0
144
0.0
144
1.0
147
0.0208333333333333
147
0.0
147
0.0
147
0.0
147
0.0
147
0.0208333333333333
147
0.0
147
0.0
147
0.0
147
0.0
147
1.0
147
0.0
147
0.0
147
0.0
147
0.0
147
1.0
  0
MATERIAL
  5
B8D9
102
{ACAD_XDICTIONARY
360
B8DA
102
}
102
{ACAD_REACTORS
330
72
102
}
330
72
100
AcDbMaterial
  1
Global
 72
     0
 43
0.0208333333333333
 43
0.0
 43
0.0
 43
0.0
 43
0.0
 43
0.0208333333333333
 43
0.0
 43
0.0
 43
0.0
 43
0.0
 43
1.0
 43
0.0
 43
0.0
 43
0.0
 43
0.0
 43
1.0
 77
     0
 47
0.0208333333333333
 47
0.0
 47
0.0
 47
0.0
 47
0.0
 47
0.0208333333333333
 47
0.0
 47
0.0
 47
0.0
 47
0.0
 47
1.0
 47
0.0
 47
0.0
 47
0.0
 47
0.0
 47
1.0
171
     0
 49
0.0208333333333333
 49
0.0
 49
0.0
 49
0.0
 49
0.0
 49
0.0208333333333333
 49
0.0
 49
0.0
 49
0.0
 49
0.0
 49
1.0
 49
0.0
 49
0.0
 49
0.0
 49
0.0
 49
1.0
175
     0
142
0.0208333333333333
142
0.0
142
0.0
142
0.0
142
0.0
142
0.0208333333333333
142
0.0
142
0.0
142
0.0
142
0.0
142
1.0
142
0.0
142
0.0
142
0.0
142
0.0
142
1.0
179
     0
144
0.0208333333333333
144
0.0
144
0.0
144
0.0
144
0.0
144
0.0208333333333333
144
0.0
144
0.0
144
0.0
144
0.0
144
1.0
144
0.0
144
0.0
144
0.0
144
0.0
144
1.0
147
0.0208333333333333
147
0.0
147
0.0
147
0.0
147
0.0
147
0.0208333333333333
147
0.0
147
0.0
147
0.0
147
0.0
147
1.0
147
0.0
147
0.0
147
0.0
147
0.0
147
1.0
  0
MLEADERSTYLE
  5
B90F
102
{ACAD_REACTORS
330
B90E
102
}
330
B90E
100
AcDbMLeaderStyle
170
     2
171
     1
172
     0
 90
        2
 40
0.0
 41
0.0
173
     1
 91
-1056964608
340
14
 92
       -2
290
     1
 42
0.09
291
     1
 43
0.36
  3
Standard
 44
0.18
300

342
11
174
     1
178
     6
175
     1
176
     0
 93
-1056964608
 45
0.18
292
     0
297
     0
 46
0.18
 94
-1056964608
 47
1.0
 49
1.0
140
1.0
293
     1
141
0.0
294
     1
177
     0
142
1.0
295
     0
296
     0
143
0.125
1001
ACAD_MLEADERVER
1070
     2
  0
MLINESTYLE
  5
18
102
{ACAD_REACTORS
330
17
102
}
330
17
100
AcDbMlineStyle
  2
STANDARD
 70
     0
  3

 62
   256
 51
90.0
 52
90.0
 71
     2
 49
0.5
 62
   256
  6
BYLAYER
 49
-0.5
 62
   256
  6
BYLAYER
  0
ACDBPLACEHOLDER
  5
F
102
{ACAD_REACTORS
330
E
102
}
330
E
  0
SCALE
  5
B8FD
102
{ACAD_REACTORS
330
B8FC
102
}
330
B8FC
100
AcDbScale
 70
     0
300
1:1
140
1.0
141
1.0
290
     1
  0
SCALE
  5
B8FE
102
{ACAD_REACTORS
330
B8FC
102
}
330
B8FC
100
AcDbScale
 70
     0
300
1/128" = 1'-0"
140
0.0078125
141
12.0
290
     0
  0
SCALE
  5
B8FF
102
{ACAD_REACTORS
330
B8FC
102
}
330
B8FC
100
AcDbScale
 70
     0
300
1/64" = 1'-0"
140
0.015625
141
12.0
290
     0
  0
SCALE
  5
B900
102
{ACAD_REACTORS
330
B8FC
102
}
330
B8FC
100
AcDbScale
 70
     0
300
1/32" = 1'-0"
140
0.03125
141
12.0
290
     0
  0
SCALE
  5
B901
102
{ACAD_REACTORS
330
B8FC
102
}
330
B8FC
100
AcDbScale
 70
     0
300
1/16" = 1'-0"
140
0.0625
141
12.0
290
     0
  0
SCALE
  5
B902
102
{ACAD_REACTORS
330
B8FC
102
}
330
B8FC
100
AcDbScale
 70
     0
300
3/32" = 1'-0"
140
0.09375
141
12.0
290
     0
  0
SCALE
  5
B903
102
{ACAD_REACTORS
330
B8FC
102
}
330
B8FC
100
AcDbScale
 70
     0
300
1/8" = 1'-0"
140
0.125
141
12.0
290
     0
  0
SCALE
  5
B904
102
{ACAD_REACTORS
330
B8FC
102
}
330
B8FC
100
AcDbScale
 70
     0
300
3/16" = 1'-0"
140
0.1875
141
12.0
290
     0
  0
SCALE
  5
B905
102
{ACAD_REACTORS
330
B8FC
102
}
330
B8FC
100
AcDbScale
 70
     0
300
1/4" = 1'-0"
140
0.25
141
12.0
290
     0
  0
SCALE
  5
B906
102
{ACAD_REACTORS
330
B8FC
102
}
330
B8FC
100
AcDbScale
 70
     0
300
3/8" = 1'-0"
140
0.375
141
12.0
290
     0
  0
SCALE
  5
B907
102
{ACAD_REACTORS
330
B8FC
102
}
330
B8FC
100
AcDbScale
 70
     0
300
1/2" = 1'-0"
140
0.5
141
12.0
290
     0
  0
SCALE
  5
B908
102
{ACAD_REACTORS
330
B8FC
102
}
330
B8FC
100
AcDbScale
 70
     0
300
3/4" = 1'-0"
140
0.75
141
12.0
290
     0
  0
SCALE
  5
B909
102
{ACAD_REACTORS
330
B8FC
102
}
330
B8FC
100
AcDbScale
 70
     0
300
1" = 1'-0"
140
1.0
141
12.0
290
     0
  0
SCALE
  5
B90A
102
{ACAD_REACTORS
330
B8FC
102
}
330
B8FC
100
AcDbScale
 70
     0
300
1-1/2" = 1'-0"
140
1.5
141
12.0
290
     0
  0
SCALE
  5
B90B
102
{ACAD_REACTORS
330
B8FC
102
}
330
B8FC
100
AcDbScale
 70
     0
300
3" = 1'-0"
140
3.0
141
12.0
290
     0
  0
SCALE
  5
B90C
102
{ACAD_REACTORS
330
B8FC
102
}
330
B8FC
100
AcDbScale
 70
     0
300
6" = 1'-0"
140
6.0
141
12.0
290
     0
  0
SCALE
  5
B90D
102
{ACAD_REACTORS
330
B8FC
102
}
330
B8FC
100
AcDbScale
 70
     0
300
1'-0" = 1'-0"
140
12.0
141
12.0
290
     0
  0
ACDBSECTIONVIEWSTYLE
  5
B911
102
{ACAD_XDICTIONARY
360
BBA4
102
}
102
{ACAD_REACTORS
330
B910
102
}
330
B910
100
AcDbModelDocViewStyle
 70
     0
  3
Imperial24
290
     0
100
AcDbSectionViewStyle
 70
     0
 71
     0
 90
       78
 71
     1
340
11
 62
   256
 40
0.24
340
0
340
0
 62
   256
 40
0.24
300
I, O, Q, S, X, Z
 40
0.48
 90
        3
 40
0.18
 90
        1
 71
     2
340
16
 90
       25
 62
   256
340
16
 90
       50
 62
   256
 40
0.24
 40
0.0
 40
0.24
 71
     3
340
11
 62
   256
 40
0.24
 90
        1
 40
0.75
 90
        1
300
%<\AcVar ViewType \f "%tc1">% %<\AcVar ViewSectionStartId>%-%<\AcVar ViewSectionEndId>%\PSCALE %<\AcVar ViewScale \f "%sn">%
 71
     4
 62
   256
 62
   257
300
ANSI31
 40
1.0
 90
        0
290
     0
290
     0
 90
        6
 40
0.0
 40
1.570796326794896
 40
0.2617993877991494
 40
1.308996938995747
 40
-0.2617993877991494
 40
1.832595714594044
  0
TABLESTYLE
  5
B8FB
102
{ACAD_XDICTIONARY
360
B94B
102
}
102
{ACAD_REACTORS
330
B8FA
102
}
330
B8FA
100
AcDbTableStyle
  3
Standard
 70
     0
 71
     0
 40
0.06
 41
0.06
280
     0
281
     0
  7
Standard
140
0.18
170
     2
 62
     0
 63
     7
283
     0
274
    -2
284
     1
 64
     0
275
    -2
285
     1
 65
     0
276
    -2
286
     1
 66
     0
277
    -2
287
     1
 67
     0
278
    -2
288
     1
 68
     0
279
    -2
289
     1
 69
     0
  7
Standard
140
0.25
170
     5
 62
     0
 63
     7
283
     0
274
    -2
284
     1
 64
     0
275
    -2
285
     1
 65
     0
276
    -2
286
     1
 66
     0
277
    -2
287
     1
 67
     0
278
    -2
288
     1
 68
     0
279
    -2
289
     1
 69
     0
  7
Standard
140
0.18
170
     5
 62
     0
 63
     7
283
     0
274
    -2
284
     1
 64
     0
275
    -2
285
     1
 65
     0
276
    -2
286
     1
 66
     0
277
    -2
287
     1
 67
     0
278
    -2
288
     1
 68
     0
279
    -2
289
     1
 69
     0
  0
VISUALSTYLE
  5
B8E7
102
{ACAD_XDICTIONARY
360
BB7D
102
}
102
{ACAD_REACTORS
330
B8E1
102
}
330
B8E1
100
AcDbVisualStyle
  2

 70
     4
 71
     0
 72
     2
 73
     0
 90
        0
 40
-0.6
 41
-30.0
 62
     5
 63
     7
 74
     1
 91
        4
 64
     7
 65
   257
 75
     1
175
     1
 42
1.0
 92
        0
 66
   257
 43
1.0
 76
     1
 77
     6
 78
     2
 67
     7
 79
     5
170
     0
171
     0
290
     0
174
     0
 93
        1
 44
0.0
173
     0
291
     0
 45
0.0
1001
ACAD
1000
AcDbSavedByObjectVersion
1070
     0
  0
VISUALSTYLE
  5
B8E6
102
{ACAD_XDICTIONARY
360
BB7B
102
}
102
{ACAD_REACTORS
330
B8E1
102
}
330
B8E1
100
AcDbVisualStyle
  2

 70
     7
 71
     1
 72
     0
 73
     1
 90
        0
 40
-0.6
 41
-30.0
 62
     5
 63
     7
 74
     0
 91
        4
 64
     7
 65
   257
 75
     1
175
     1
 42
1.0
 92
        8
 66
     7
 43
1.0
 76
     1
 77
     6
 78
     2
 67
     7
 79
     5
170
     0
171
     0
290
     0
174
     0
 93
        1
 44
0.0
173
     0
291
     1
 45
0.0
1001
ACAD
1000
AcDbSavedByObjectVersion
1070
     0
  0
VISUALSTYLE
  5
B8ED
102
{ACAD_XDICTIONARY
360
BB89
102
}
102
{ACAD_REACTORS
330
B8E1
102
}
330
B8E1
100
AcDbVisualStyle
  2

 70
    12
 71
     2
 72
     2
 73
     0
 90
        0
 40
-0.6
 41
-30.0
 62
     5
 63
     7
 74
     1
 91
        4
 64
     7
 65
   257
 75
     1
175
     1
 42
1.0
 92
        8
 66
     7
 43
1.0
 76
     1
 77
     6
 78
     2
 67
     7
 79
     5
170
     0
171
     0
290
     0
174
     0
 93
        1
 44
50.0
173
     0
291
     1
 45
0.0
1001
ACAD
1000
AcDbSavedByObjectVersion
1070
     0
  0
VISUALSTYLE
  5
B8F1
102
{ACAD_XDICTIONARY
360
BB91
102
}
102
{ACAD_REACTORS
330
B8E1
102
}
330
B8E1
100
AcDbVisualStyle
  2

 70
    16
 71
     2
 72
     2
 73
     3
 90
        0
 40
-0.6
 41
-30.0
 62
     5
 63
     8
 74
     1
 91
        4
 64
     7
 65
   257
 75
     1
175
     1
 42
1.0
 92
        8
 66
     8
 43
1.0
 76
     1
 77
     6
 78
     2
 67
     7
 79
     5
170
     0
171
     0
290
     0
174
     0
 93
        1
 44
0.0
173
     0
291
     1
 45
0.0
1001
ACAD
1000
AcDbSavedByObjectVersion
1070
     0
  0
VISUALSTYLE
  5
B8EA
102
{ACAD_XDICTIONARY
360
BB83
102
}
102
{ACAD_REACTORS
330
B8E1
102
}
330
B8E1
100
AcDbVisualStyle
  2

 70
     9
 71
     3
 72
     2
 73
     0
 90
        0
 40
-0.6
 41
-30.0
 62
     5
 63
     7
 74
     2
 91
        2
 64
     7
 65
   257
 75
     1
175
     1
 42
179.0
 92
        8
 66
     7
 43
1.0
 76
     1
 77
     6
 78
     2
 67
     7
 79
     3
170
     0
171
     0
290
     0
174
     0
 93
        1
 44
0.0
173
     0
291
     0
 45
0.0
1001
ACAD
1000
AcDbSavedByObjectVersion
1070
     0
  0
VISUALSTYLE
  5
B8EC
102
{ACAD_XDICTIONARY
360
BB87
102
}
102
{ACAD_REACTORS
330
B8E1
102
}
330
B8E1
100
AcDbVisualStyle
  2

 70
    11
 71
     2
 72
     2
 73
     0
 90
        0
 40
-0.6
 41
-30.0
 62
     5
 63
     7
 74
     1
 91
        4
 64
     7
 65
   257
 75
     1
175
     1
 42
1.0
 92
        8
 66
     7
 43
1.0
 76
     1
 77
     6
 78
     2
 67
     7
 79
     5
170
     0
171
     0
290
     0
174
     0
 93
        1
 44
-50.0
173
     0
291
     1
 45
0.0
1001
ACAD
1000
AcDbSavedByObjectVersion
1070
     0
  0
VISUALSTYLE
  5
B8F9
102
{ACAD_XDICTIONARY
360
BBA1
102
}
102
{ACAD_REACTORS
330
B8E1
102
}
330
B8E1
100
AcDbVisualStyle
  2

 70
    22
 71
     2
 72
     2
 73
     0
 90
        0
 40
-0.6
 41
-30.0
 62
     5
 63
     7
 74
     1
 91
        4
 64
     7
 65
   257
 75
     1
175
     1
 42
1.0
 92
        8
 66
     7
 43
1.0
 76
     1
 77
     6
 78
     2
 67
     7
 79
     5
170
     0
171
     0
290
     0
174
     0
 93
        1
 44
0.0
173
     0
291
     1
 45
0.0
1001
ACAD
1000
AcDbSavedByObjectVersion
1070
     0
  0
VISUALSTYLE
  5
B8F0
102
{ACAD_XDICTIONARY
360
BB8F
102
}
102
{ACAD_REACTORS
330
B8E1
102
}
330
B8E1
100
AcDbVisualStyle
  2

 70
    15
 71
     2
 72
     2
 73
     0
 90
        0
 40
-0.6
 41
-30.0
 62
     5
 63
     7
 74
     1
 91
        4
 64
     7
 65
   257
 75
     1
175
     1
 42
1.0
 92
        8
 66
     7
 43
1.0
 76
     1
 77
     6
 78
     2
 67
     7
 79
     5
170
     0
171
     0
290
     0
174
     0
 93
        1
 44
0.0
173
     0
291
     1
 45
0.0
1001
ACAD
1000
AcDbSavedByObjectVersion
1070
     0
  0
VISUALSTYLE
  5
B8E2
102
{ACAD_XDICTIONARY
360
BB73
102
}
102
{ACAD_REACTORS
330
B8E1
102
}
330
B8E1
100
AcDbVisualStyle
  2

 70
     0
 71
     2
 72
     1
 73
     1
 90
        2
 40
-0.6
 41
30.0
 62
     5
 63
     7
 74
     0
 91
        0
 64
     7
 65
   257
 75
     1
175
     1
 42
1.0
 92
        8
 66
     7
 43
1.0
 76
     1
 77
     6
 78
     2
 67
     7
 79
     5
170
     0
171
     0
290
     0
174
     0
 93
       13
 44
0.0
173
     0
291
     1
 45
0.0
1001
ACAD
1000
AcDbSavedByObjectVersion
1070
     0
  0
VISUALSTYLE
  5
B8E3
102
{ACAD_XDICTIONARY
360
BB75
102
}
102
{ACAD_REACTORS
330
B8E1
102
}
330
B8E1
100
AcDbVisualStyle
  2

 70
     1
 71
     2
 72
     1
 73
     1
 90
        2
 40
-0.6
 41
30.0
 62
     5
 63
     7
 74
     1
 91
        0
 64
     7
 65
   257
 75
     1
175
     1
 42
1.0
 92
        0
 66
   257
 43
1.0
 76
     1
 77
     6
 78
     2
 67
     7
 79
     5
170
     0
171
     0
290
     0
174
     0
 93
       13
 44
0.0
173
     0
291
     1
 45
0.0
1001
ACAD
1000
AcDbSavedByObjectVersion
1070
     0
  0
VISUALSTYLE
  5
B8E4
102
{ACAD_XDICTIONARY
360
BB77
102
}
102
{ACAD_REACTORS
330
B8E1
102
}
330
B8E1
100
AcDbVisualStyle
  2

 70
     2
 71
     2
 72
     2
 73
     1
 90
        2
 40
-0.6
 41
30.0
 62
     5
 63
     7
 74
     0
 91
        0
 64
     7
 65
   257
 75
     1
175
     1
 42
1.0
 92
        0
 66
     7
 43
1.0
 76
     1
 77
     6
 78
     2
 67
     7
 79
     5
170
     0
171
     0
290
     0
174
     0
 93
       13
 44
0.0
173
     0
291
     1
 45
0.0
1001
ACAD
1000
AcDbSavedByObjectVersion
1070
     0
  0
VISUALSTYLE
  5
B8E5
102
{ACAD_XDICTIONARY
360
BB79
102
}
102
{ACAD_REACTORS
330
B8E1
102
}
330
B8E1
100
AcDbVisualStyle
  2

 70
     3
 71
     2
 72
     2
 73
     1
 90
        2
 40
-0.6
 41
30.0
 62
     5
 63
     7
 74
     1
 91
        0
 64
     7
 65
   257
 75
     1
175
     1
 42
1.0
 92
        0
 66
   257
 43
1.0
 76
     1
 77
     6
 78
     2
 67
     7
 79
     5
170
     0
171
     0
290
     0
174
     0
 93
       13
 44
0.0
173
     0
291
     1
 45
0.0
1001
ACAD
1000
AcDbSavedByObjectVersion
1070
     0
  0
VISUALSTYLE
  5
B8E9
102
{ACAD_XDICTIONARY
360
BB81
102
}
102
{ACAD_REACTORS
330
B8E1
102
}
330
B8E1
100
AcDbVisualStyle
  2

 70
     6
 71
     1
 72
     2
 73
     2
 90
        0
 40
-0.6
 41
-30.0
 62
     5
 63
     7
 74
     2
 91
        2
 64
     7
 65
   257
 75
     2
175
     1
 42
40.0
 92
        0
 66
   257
 43
1.0
 76
     1
 77
     6
 78
     2
 67
     7
 79
     3
170
     0
171
     0
290
     0
174
     0
 93
        1
 44
0.0
173
     0
291
     0
 45
0.0
1001
ACAD
1000
AcDbSavedByObjectVersion
1070
     0
  0
VISUALSTYLE
  5
B8F7
102
{ACAD_XDICTIONARY
360
BB9D
102
}
102
{ACAD_REACTORS
330
B8E1
102
}
330
B8E1
100
AcDbVisualStyle
  2

 70
    20
 71
     2
 72
     2
 73
     0
 90
        0
 40
-0.6
 41
-30.0
 62
     5
 63
     7
 74
     1
 91
        4
 64
     7
 65
   257
 75
     1
175
     1
 42
1.0
 92
       10
 66
     7
 43
1.0
 76
     1
 77
     6
 78
     2
 67
     7
 79
     5
170
     0
171
     0
290
     0
174
     0
 93
        1
 44
0.0
173
     0
291
     1
 45
0.0
1001
ACAD
1000
AcDbSavedByObjectVersion
1070
     0
  0
VISUALSTYLE
  5
B8EF
102
{ACAD_XDICTIONARY
360
BB8D
102
}
102
{ACAD_REACTORS
330
B8E1
102
}
330
B8E1
100
AcDbVisualStyle
  2

 70
    14
 71
     2
 72
     2
 73
     0
 90
        0
 40
-0.6
 41
-30.0
 62
     5
 63
     7
 74
     1
 91
        4
 64
     7
 65
   257
 75
     7
175
     7
 42
1.0
 92
        8
 66
     7
 43
1.0
 76
     1
 77
     6
 78
     2
 67
     7
 79
     5
170
     0
171
     0
290
     0
174
     0
 93
        1
 44
0.0
173
     0
291
     1
 45
0.0
1001
ACAD
1000
AcDbSavedByObjectVersion
1070
     0
  0
VISUALSTYLE
  5
B8F8
102
{ACAD_XDICTIONARY
360
BB9F
102
}
102
{ACAD_REACTORS
330
B8E1
102
}
330
B8E1
100
AcDbVisualStyle
  2

 70
    21
 71
     2
 72
     2
 73
     0
 90
        0
 40
-0.6
 41
-30.0
 62
     5
 63
     7
 74
     1
 91
        4
 64
     7
 65
   257
 75
     1
175
     1
 42
1.0
 92
        9
 66
     7
 43
1.0
 76
     1
 77
     6
 78
     2
 67
     7
 79
     5
170
     0
171
     0
290
     0
174
     0
 93
        1
 44
0.0
173
     0
291
     1
 45
0.0
1001
ACAD
1000
AcDbSavedByObjectVersion
1070
     0
  0
VISUALSTYLE
  5
B8EB
102
{ACAD_XDICTIONARY
360
BB85
102
}
102
{ACAD_REACTORS
330
B8E1
102
}
330
B8E1
100
AcDbVisualStyle
  2

 70
     8
 71
     2
 72
     2
 73
     0
 90
        2
 40
-0.6
 41
30.0
 62
     5
 63
     7
 74
     0
 91
        0
 64
     7
 65
   257
 75
     1
175
     1
 42
1.0
 92
        8
 66
   257
 43
1.0
 76
     1
 77
     6
 78
     2
 67
     7
 79
     3
170
     0
171
     0
290
     0
174
     0
 93
       13
 44
0.0
173
     0
291
     0
 45
0.0
1001
ACAD
1000
AcDbSavedByObjectVersion
1070
     0
  0
VISUALSTYLE
  5
B8F6
102
{ACAD_XDICTIONARY
360
BB9B
102
}
102
{ACAD_REACTORS
330
B8E1
102
}
330
B8E1
100
AcDbVisualStyle
  2

 70
    27
 71
     2
 72
     2
 73
     1
 90
        2
 40
-0.6
 41
30.0
 62
     5
 63
     7
 74
     0
 91
        4
 64
     7
 65
   257
 75
     1
175
     1
 42
1.0
 92
        8
 66
   257
 43
1.0
 76
     1
 77
     6
 78
     2
 67
     8
 79
     3
170
     0
171
     0
290
     0
174
     0
 93
        5
 44
0.0
173
     0
291
     0
 45
0.0
1001
ACAD
1000
AcDbSavedByObjectVersion
1070
     0
  0
VISUALSTYLE
  5
B8F5
102
{ACAD_XDICTIONARY
360
BB99
102
}
102
{ACAD_REACTORS
330
B8E1
102
}
330
B8E1
100
AcDbVisualStyle
  2

 70
    26
 71
     2
 72
     2
 73
     1
 90
        2
 40
-0.6
 41
30.0
 62
     5
 63
     7
 74
     1
 91
       10
 64
     7
 65
   257
 75
     2
175
     1
 42
1.0
 92
        8
 66
   257
 43
1.0
 76
     1
 77
     6
 78
     2
 67
     7
 79
     3
170
     0
171
     0
290
     0
174
     0
 93
        5
 44
0.0
173
     0
291
     0
 45
0.0
1001
ACAD
1000
AcDbSavedByObjectVersion
1070
     0
  0
VISUALSTYLE
  5
B8F2
102
{ACAD_XDICTIONARY
360
BB93
102
}
102
{ACAD_REACTORS
330
B8E1
102
}
330
B8E1
100
AcDbVisualStyle
  2

 70
    23
 71
     2
 72
     2
 73
     3
 90
        0
 40
-0.6
 41
-30.0
 62
     5
 63
     7
 74
     2
 91
        2
 64
     7
 65
     7
 75
     1
175
     1
 42
40.0
 92
        8
 66
     7
 43
1.0
 76
     1
 77
     6
 78
     2
 67
     7
 79
     3
170
     0
171
     0
290
     0
174
     0
 93
        1
 44
0.0
173
     0
291
     0
 45
0.0
1001
ACAD
1000
AcDbSavedByObjectVersion
1070
     0
  0
VISUALSTYLE
  5
B8F3
102
{ACAD_XDICTIONARY
360
BB95
102
}
102
{ACAD_REACTORS
330
B8E1
102
}
330
B8E1
100
AcDbVisualStyle
  2

 70
    24
 71
     1
 72
     2
 73
     2
 90
        0
 40
-0.6
 41
-30.0
 62
     5
 63
     7
 74
     2
 91
        2
 64
     7
 65
     7
 75
     1
175
     1
 42
40.0
 92
       11
 66
     7
 43
1.0
 76
     1
 77
     6
 78
     2
 67
     7
 79
     6
170
     0
171
     0
290
     0
174
     0
 93
        1
 44
0.0
173
     0
291
     0
 45
0.0
1001
ACAD
1000
AcDbSavedByObjectVersion
1070
     0
  0
VISUALSTYLE
  5
B8EE
102
{ACAD_XDICTIONARY
360
BB8B
102
}
102
{ACAD_REACTORS
330
B8E1
102
}
330
B8E1
100
AcDbVisualStyle
  2

 70
    13
 71
     2
 72
     2
 73
     0
 90
        0
 40
-0.6
 41
-30.0
 62
     5
 63
     7
 74
     1
 91
        4
 64
     7
 65
   257
 75
     1
175
     1
 42
1.0
 92
       12
 66
     7
 43
1.0
 76
     1
 77
     6
 78
     2
 67
     7
 79
     5
170
     0
171
     0
290
     0
174
     0
 93
        1
 44
0.0
173
     0
291
     1
 45
0.0
1001
ACAD
1000
AcDbSavedByObjectVersion
1070
     0
  0
VISUALSTYLE
  5
B8E8
102
{ACAD_XDICTIONARY
360
BB7F
102
}
102
{ACAD_REACTORS
330
B8E1
102
}
330
B8E1
100
AcDbVisualStyle
  2

 70
     5
 71
     0
 72
     2
 73
     0
 90
        0
 40
-0.6
 41
-30.0
 62
     5
 63
     7
 74
     1
 91
        4
 64
     7
 65
   257
 75
     1
175
     1
 42
1.0
 92
        0
 66
   257
 43
1.0
 76
     1
 77
     6
 78
     2
 67
     7
 79
     3
170
     0
171
     0
290
     0
174
     0
 93
        1
 44
0.0
173
     0
291
     0
 45
0.0
1001
ACAD
1000
AcDbSavedByObjectVersion
1070
     0
  0
VISUALSTYLE
  5
B8F4
102
{ACAD_XDICTIONARY
360
BB97
102
}
102
{ACAD_REACTORS
330
B8E1
102
}
330
B8E1
100
AcDbVisualStyle
  2

 70
    25
 71
     2
 72
     2
 73
     1
 90
        1
 40
0.5
 41
-30.0
 62
     5
 63
     7
 74
     1
 91
        0
 64
     7
 65
   257
 75
     1
175
     1
 42
1.0
 92
        8
 66
     7
 43
1.0
 76
     1
 77
     6
 78
     2
 67
     7
 79
     3
170
     0
171
     0
290
     0
174
     0
 93
       13
 44
0.0
173
     0
291
     0
 45
0.0
1001
ACAD
1000
AcDbSavedByObjectVersion
1070
     0
  0
DICTIONARYVAR
  5
B946
102
{ACAD_REACTORS
330
66
102
}
330
66
100
DictionaryVariables
280
     0
  1
1:1
  0
DICTIONARYVAR
  5
B943
102
{ACAD_REACTORS
330
66
102
}
330
66
100
DictionaryVariables
280
     0
  1
STANDARD
  0
DICTIONARYVAR
  5
B942
102
{ACAD_REACTORS
330
66
102
}
330
66
100
DictionaryVariables
280
     0
  1
STANDARD
  0
DICTIONARYVAR
  5
B944
102
{ACAD_REACTORS
330
66
102
}
330
66
100
DictionaryVariables
280
     0
  1
Imperial24
  0
DICTIONARYVAR
  5
B945
102
{ACAD_REACTORS
330
66
102
}
330
66
100
DictionaryVariables
280
     0
  1
Imperial24
  0
DICTIONARYVAR
  5
67
102
{ACAD_REACTORS
330
66
102
}
330
66
100
DictionaryVariables
280
     0
  1
2
  0
DICTIONARYVAR
  5
6B
102
{ACAD_REACTORS
330
66
102
}
330
66
100
DictionaryVariables
280
     0
  1
1
  0
DICTIONARYVAR
  5
B948
102
{ACAD_REACTORS
330
66
102
}
330
66
100
DictionaryVariables
280
     0
  1
0
  0
DICTIONARYVAR
  5
B7F1
102
{ACAD_REACTORS
330
66
102
}
330
66
100
DictionaryVariables
280
     0
  1

  0
DICTIONARYVAR
  5
B947
102
{ACAD_REACTORS
330
66
102
}
330
66
100
DictionaryVariables
280
     0
  1
127
  0
DICTIONARYVAR
  5
BB6A
102
{ACAD_REACTORS
330
66
102
}
330
66
100
DictionaryVariables
280
     0
  1
2
  0
DICTIONARY
  5
BBA6
330
B913
100
AcDbDictionary
280
     1
281
     1
  3
ACAD_XREC_ROUNDTRIP
360
BBA7
  0
DICTIONARY
  5
BB2A
330
22
100
AcDbDictionary
280
     1
281
     1
  3
ADSK_XREC_LAYOUTTHUMBNAIL
360
BB2B
  0
DICTIONARY
  5
B8D2
330
B8D1
100
AcDbDictionary
280
     1
281
     1
  3
ACAD_XREC_ROUNDTRIP
360
BB71
  3
BUMPTILE
360
B8D4
  3
DIFFUSETILE
360
B8D3
  3
OPACITYTILE
360
B8D7
  3
REFLECTIONTILE
360
B8D6
  3
REFRACTIONTILE
360
B8D8
  3
SPECULARTILE
360
B8D5
  0
DICTIONARY
  5
B8CA
330
B8C9
100
AcDbDictionary
280
     1
281
     1
  3
ACAD_XREC_ROUNDTRIP
360
BB70
  3
BUMPTILE
360
B8CC
  3
DIFFUSETILE
360
B8CB
  3
OPACITYTILE
360
B8CF
  3
REFLECTIONTILE
360
B8CE
  3
REFRACTIONTILE
360
B8D0
  3
SPECULARTILE
360
B8CD
  0
DICTIONARY
  5
B8DA
330
B8D9
100
AcDbDictionary
280
     1
281
     1
  3
ACAD_XREC_ROUNDTRIP
360
BB72
  3
BUMPTILE
360
B8DC
  3
DIFFUSETILE
360
B8DB
  3
OPACITYTILE
360
B8DF
  3
REFLECTIONTILE
360
B8DE
  3
REFRACTIONTILE
360
B8E0
  3
SPECULARTILE
360
B8DD
  0
DICTIONARY
  5
BBA4
330
B911
100
AcDbDictionary
280
     1
281
     1
  3
ACAD_XREC_ROUNDTRIP
360
BBA5
  0
DICTIONARY
  5
B94B
330
B8FB
100
AcDbDictionary
280
     1
281
     1
  3
ACAD_ROUNDTRIP_2008_TABLESTYLE_CELLSTYLEMAP
360
BB6B
  3
ACAD_XREC_ROUNDTRIP
360
BBA3
  0
DICTIONARY
  5
BB7D
330
B8E7
100
AcDbDictionary
280
     1
281
     1
  3
ACAD_XREC_ROUNDTRIP
360
BB7E
  0
DICTIONARY
  5
BB7B
330
B8E6
100
AcDbDictionary
280
     1
281
     1
  3
ACAD_XREC_ROUNDTRIP
360
BB7C
  0
DICTIONARY
  5
BB89
330
B8ED
100
AcDbDictionary
280
     1
281
     1
  3
ACAD_XREC_ROUNDTRIP
360
BB8A
  0
DICTIONARY
  5
BB91
330
B8F1
100
AcDbDictionary
280
     1
281
     1
  3
ACAD_XREC_ROUNDTRIP
360
BB92
  0
DICTIONARY
  5
BB83
330
B8EA
100
AcDbDictionary
280
     1
281
     1
  3
ACAD_XREC_ROUNDTRIP
360
BB84
  0
DICTIONARY
  5
BB87
330
B8EC
100
AcDbDictionary
280
     1
281
     1
  3
ACAD_XREC_ROUNDTRIP
360
BB88
  0
DICTIONARY
  5
BBA1
330
B8F9
100
AcDbDictionary
280
     1
281
     1
  3
ACAD_XREC_ROUNDTRIP
360
BBA2
  0
DICTIONARY
  5
BB8F
330
B8F0
100
AcDbDictionary
280
     1
281
     1
  3
ACAD_XREC_ROUNDTRIP
360
BB90
  0
DICTIONARY
  5
BB73
330
B8E2
100
AcDbDictionary
280
     1
281
     1
  3
ACAD_XREC_ROUNDTRIP
360
BB74
  0
DICTIONARY
  5
BB75
330
B8E3
100
AcDbDictionary
280
     1
281
     1
  3
ACAD_XREC_ROUNDTRIP
360
BB76
  0
DICTIONARY
  5
BB77
330
B8E4
100
AcDbDictionary
280
     1
281
     1
  3
ACAD_XREC_ROUNDTRIP
360
BB78
  0
DICTIONARY
  5
BB79
330
B8E5
100
AcDbDictionary
280
     1
281
     1
  3
ACAD_XREC_ROUNDTRIP
360
BB7A
  0
DICTIONARY
  5
BB81
330
B8E9
100
AcDbDictionary
280
     1
281
     1
  3
ACAD_XREC_ROUNDTRIP
360
BB82
  0
DICTIONARY
  5
BB9D
330
B8F7
100
AcDbDictionary
280
     1
281
     1
  3
ACAD_XREC_ROUNDTRIP
360
BB9E
  0
DICTIONARY
  5
BB8D
330
B8EF
100
AcDbDictionary
280
     1
281
     1
  3
ACAD_XREC_ROUNDTRIP
360
BB8E
  0
DICTIONARY
  5
BB9F
330
B8F8
100
AcDbDictionary
280
     1
281
     1
  3
ACAD_XREC_ROUNDTRIP
360
BBA0
  0
DICTIONARY
  5
BB85
330
B8EB
100
AcDbDictionary
280
     1
281
     1
  3
ACAD_XREC_ROUNDTRIP
360
BB86
  0
DICTIONARY
  5
BB9B
330
B8F6
100
AcDbDictionary
280
     1
281
     1
  3
ACAD_XREC_ROUNDTRIP
360
BB9C
  0
DICTIONARY
  5
BB99
330
B8F5
100
AcDbDictionary
280
     1
281
     1
  3
ACAD_XREC_ROUNDTRIP
360
BB9A
  0
DICTIONARY
  5
BB93
330
B8F2
100
AcDbDictionary
280
     1
281
     1
  3
ACAD_XREC_ROUNDTRIP
360
BB94
  0
DICTIONARY
  5
BB95
330
B8F3
100
AcDbDictionary
280
     1
281
     1
  3
ACAD_XREC_ROUNDTRIP
360
BB96
  0
DICTIONARY
  5
BB8B
330
B8EE
100
AcDbDictionary
280
     1
281
     1
  3
ACAD_XREC_ROUNDTRIP
360
BB8C
  0
DICTIONARY
  5
BB7F
330
B8E8
100
AcDbDictionary
280
     1
281
     1
  3
ACAD_XREC_ROUNDTRIP
360
BB80
  0
DICTIONARY
  5
BB97
330
B8F4
100
AcDbDictionary
280
     1
281
     1
  3
ACAD_XREC_ROUNDTRIP
360
BB98
  0
XRECORD
  5
BBA7
102
{ACAD_REACTORS
330
BBA6
102
}
330
BBA6
100
AcDbXrecord
280
     1
102
DISPLAYNAME
  1
Imperial24
102
FLAGS
 90
        0
  0
XRECORD
  5
BB2B
102
{ACAD_REACTORS
330
BB2A
102
}
330
BB2A
100
AcDbXrecord
280
     1
310
280000000001000078000000010008000000000000780000010000000100000000010000000000000000000000000000FFFFFFFF000000FF000000FF000000FF000000FF000000FF000000FF000000FF000000FF330000FF660000FF990000FFCC0000FFFF0000FF003300FF333300FF663300FF993300FFCC3300FFFF3300
310
FF006600FF336600FF666600FF996600FFCC6600FFFF6600FF009900FF339900FF669900FF999900FFCC9900FFFF9900FF00CC00FF33CC00FF66CC00FF99CC00FFCCCC00FFFFCC00FF00FF00FF33FF00FF66FF00FF99FF00FFCCFF00FFFFFF00FF000033FF330033FF660033FF990033FFCC0033FFFF0033FF003333FF3333
310
33FF663333FF993333FFCC3333FFFF3333FF006633FF336633FF666633FF996633FFCC6633FFFF6633FF009933FF339933FF669933FF999933FFCC9933FFFF9933FF00CC33FF33CC33FF66CC33FF99CC33FFCCCC33FFFFCC33FF00FF33FF33FF33FF66FF33FF99FF33FFCCFF33FFFFFF33FF000066FF330066FF660066FF99
310
0066FFCC0066FFFF0066FF003366FF333366FF663366FF993366FFCC3366FFFF3366FF006666FF336666FF666666FF996666FFCC6666FFFF6666FF009966FF339966FF669966FF999966FFCC9966FFFF9966FF00CC66FF33CC66FF66CC66FF99CC66FFCCCC66FFFFCC66FF00FF66FF33FF66FF66FF66FF99FF66FFCCFF66FF
310
FFFF66FF000099FF330099FF660099FF990099FFCC0099FFFF0099FF003399FF333399FF663399FF993399FFCC3399FFFF3399FF006699FF336699FF666699FF996699FFCC6699FFFF6699FF009999FF339999FF669999FF999999FFCC9999FFFF9999FF00CC99FF33CC99FF66CC99FF99CC99FFCCCC99FFFFCC99FF00FF99
310
FF33FF99FF66FF99FF99FF99FFCCFF99FFFFFF99FF0000CCFF3300CCFF6600CCFF9900CCFFCC00CCFFFF00CCFF0033CCFF3333CCFF6633CCFF9933CCFFCC33CCFFFF33CCFF0066CCFF3366CCFF6666CCFF9966CCFFCC66CCFFFF66CCFF0099CCFF3399CCFF6699CCFF9999CCFFCC99CCFFFF99CCFF00CCCCFF33CCCCFF66CC
310
CCFF99CCCCFFCCCCCCFFFFCCCCFF00FFCCFF33FFCCFF66FFCCFF99FFCCFFCCFFCCFFFFFFCCFF0000FFFF3300FFFF6600FFFF9900FFFFCC00FFFFFF00FFFF0033FFFF3333FFFF6633FFFF9933FFFFCC33FFFFFF33FFFF0066FFFF3366FFFF6666FFFF9966FFFFCC66FFFFFF66FFFF0099FFFF3399FFFF6699FFFF9999FFFFCC
310
99FFFFFF99FFFF00CCFFFF33CCFFFF66CCFFFF99CCFFFFCCCCFFFFFFCCFFFF00FFFFFF33FFFFFF66FFFFFF99FFFFFFCCFFFFFFFFFFFFFF000000FF0D0D0DFF1A1A1AFF282828FF353535FF434343FF505050FF5D5D5DFF6B6B6BFF787878FF868686FF939393FFA1A1A1FFAEAEAEFFBBBBBBFFC9C9C9FFD6D6D6FFE4E4E4FF
310
F1F1F1FFFFFFFFFF000000FF000000FF000000FF000000FF000000FF000000FF000000FF000000FF000000FF000000FF00000000000000000000000000000000000000000000000000000000000000000000000000000000000000000000000000000000000000000000000000000000000000000000000000000000000000
310
00000000000000000000000000000000000000000000000000000000000000000000000000000000000000000000000000000000000000000000000000000000000000000000000000000000000000000000000000000000000000000000000000000000000000000000000000000000000000000000000000000000000000
310
00000000000000000000000000000000000000000000000000000000000000000000000000000000000000000000000000000000000000000000000000000000000000000000000000000000000000000000000000000000000000000000000000000000000000000000000000000000000000000000000000000000000000
310
00000000000000000000000000000000000000000000000000000000000000000000000000000000000000000000000000000000000000000000000000000000000000000000000000000000000000000000000000000000000000000000000000000000000000000000000000000000000000000000000000000000000000
310
00000000000000000000000000000000000000000000000000000000000000000000000000000000000000000000000000000000000000000000000000000000000000000000000000000000000000000000000000000000000000000000000000000000000000000000000000000000000000000000000000000000000000
310
00000000000000000000000000000000000000000000000000000000000000000000000000000000000000000000000000000000000000000000000000000000000000000000000000000000000000000000000000000000000000000000000000000000000000000000000000000000000000000000000000000000000000
310
00000000000000000000000000000000000000000000000000000000000000000000000000000000000000000000000000000000000000000000000000000000000000000000000000000000000000000000000000000000000000000000000000000000000000000000000000000000000000000000000000000000000000
310
00000000000000000000000000000000000000000000000000000000000000000000000000000000000000000000000000000000000000000000000000000000000000000000000000000000000000000000000000000000000000000000000000000000000000000000000000000000000000000000000000000000000000
310
00000000000000000000000000000000000000000000000000000000000000000000000000000000000000000000000000000000000000000000000000000000000000000000000000000000000000000000000000000000000000000000000000000000000000000000000000000000000000000000000000000000000000
310
00000000000000000000000000000000000000000000000000000000000000000000000000000000000000000000000000000000000000000000000000000000000000000000000000000000000000000000000000000000000000000000000000000000000000000000000000000000000000000000000000000000000000
310
00000000000000000000000000000000000000000000000000000000000000000000000000000000000000000000000000000000000000000000000000000000000000000000000000000000000000000000000000000000000000000000000000000000000000000000000000000000000000000000000000000000000000
310
00000000000000000000000000000000000000000000000000000000000000000000000000000000000000000000000000000000000000000000000000000000000000000000000000000000000000000000000000000000000000000000000000000000000000000000000000000000000000000000000000000000000000
310
00000000000000000000000000000000000000000000000000000000000000000000000000000000000000000000000000000000000000000000000000000000000000000000000000000000000000000000000000000000000000000000000000000000000000000000000000000000000000000000000000000000000000
310
00000000000000000000000000000000000000000000000000000000000000000000000000000000000000000000000000000000000000000000000000000000000000000000000000000000000000000000000000000000000000000000000000000000000000000000000000000000000000000000000000000000000000
310
00000000000000000000000000000000000000000000000000000000000000000000000000000000000000000000000000000000000000000000000000000000000000000000000000000000000000000000000000000000000000000000000000000000000000000000000000000000000000000000000000000000000000
310
00000000000000000000000000000000000000000000000000000000000000000000000000000000000000000000000000000000000000000000000000000000000000000000000000000000000000000000000000000000000000000000000000000000000000000000000000000000000000000000000000000000000000
310
00000000000000000000000000000000000000000000000000000000000000000000000000000000000000000000000000000000000000000000000000000000000000000000000000000000000000000000000000000000000000000000000000000000000000000000000000000000000000000000000000000000000000
310
00000000000000000000000000000000000000000000000000000000000000000000000000000000000000000000000000000000000000000000000000000000000000000000000000000000000000000000000000000000000000000000000000000000000000000000000000000000000000000000000000000000000000
310
00000000000000000000000000000000000000000000000000000000000000000000000000000000000000000000000000000000000000000000000000000000000000000000000000000000000000000000000000000000000000000000000000000000000000000000000000000000000000000000000000000000000000
310
00000000000000000000000000000000000000000000000000000000000000000000000000000000000000000000000000000000000000000000000000000000000000000000000000000000000000000000000000000000000000000000000000000000000000000000000000000000000000000000000000000000000000
310
00000000000000000000000000000000000000000000000000000000000000000000000000000000000000000000000000000000000000000000000000000000000000000000000000000000000000000000000000000000000000000000000000000000000000000000000000000000000000000000000000000000000000
310
00000000000000000000000000000000000000000000000000000000000000000000000000000000000000000000000000000000000000000000000000000000000000000000000000000000000000000000000000000000000000000000000000000000000000000000000000000000000000000000000000000000000000
310
00000000000000000000000000000000000000000000000000000000000000000000000000000000000000000000000000000000000000000000000000000000000000000000000000000000000000000000000000000000000000000000000000000000000000000000000000000000000000000000000000000000000000
310
00000000000000000000000000000000000000000000000000000000000000000000000000000000000000000000000000000000000000000000000000000000000000000000000000000000000000000000000000000000000000000000000000000000000000000000000000000000000000000000000000000000000000
310
00000000000000000000000000000000000000000000000000000000000000000000000000000000000000000000000000000000000000000000000000000000000000000000000000000000000000000000000000000000000000000000000000000000000000000000000000000000000000000000000000000000000000
310
00000000000000000000000000000000000000000000000000000000000000000000000000000000000000000000000000000000000000000000000000000000000000000000000000000000000000000000000000000000000000000000000000000000000000000000000000000000000000000000000000000000000000
310
00000000000000000000000000000000000000000000000000000000000000000000000000000000000000000000000000000000000000000000000000000000000000000000000000000000000000000000000000000000000000000000000000000000000000000000000000000000000000000000000000000000000000
310
00000000000000000000000000000000000000000000000000000000000000000000000000000000000000000000000000000000000000000000000000000000000000000000000000000000000000000000000000000000000000000000000000000000000000000000000000000000000000000000000000000000000000
310
00000000000000000000000000000000000000000000000000000000000000000000000000000000000000000000000000000000000000000000000000000000000000000000000000000000000000000000000000000000000000000000000000000000000000000000000000000000000000000000000000000000000000
310
00000000000000000000000000000000000000000000000000000000000000000000000000000000000000000000000000000000000000000000000000000000000000000000000000000000000000000000000000000000000000000000000000000000000000000000000000000000000000000000000000000000000000
310
00000000000000000000000000000000000000000000000000000000000000000000000000000000000000000000000000000000000000000000000000000000000000000000000000000000000000000000000000000000000000000000000000000000000000000000000000000000000000000000000000000000000000
310
00000000000000000000000000000000000000000000000000000000000000000000000000000000000000000000000000000000000000000000000000000000000000000000000000000000000000000000000000000000000000000000000000000000000000000000000000000000000000000000000000000000000000
310
00000000000000000000000000000000000000000000000000000000000000000000000000000000000000000000000000000000000000000000000000000000000000000000000000000000000000000000000000000000000000000000000000000000000000000000000000000000000000000000000000000000000000
310
00000000000000000000000000000000000000000000000000000000000000000000000000000000000000000000000000000000000000000000000000000000000000000000000000000000000000000000000000000000000000000000000000000000000000000000000000000000000000000000000000000000000000
310
00000000000000000000000000000000000000000000000000000000000000000000000000000000000000000000000000000000000000000000000000000000000000000000000000000000000000000000000000000000000000000000000000000000000000000000000000000000000000000000000000000000000000
310
00000000000000000000000000000000000000000000000000000000000000000000000000000000000000000000000000000000000000000000000000000000000000000000000000000000000000000000000000000000000000000000000000000000000000000000000000000000000000000000000000000000000000
310
00000000000000000000000000000000000000000000000000000000000000000000000000000000000000000000000000000000000000000000000000000000000000000000000000000000000000000000000000000000000000000000000000000000000000000000000000000000000000000000000000000000000000
310
00000000000000000000000000000000000000000000000000000000000000000000000000000000000000000000000000000000000000000000000000000000000000000000000000000000000000000000000000000000000000000000000000000000000000000000000000000000000000000000000000000000000000
310
00000000000000000000000000000000000000000000000000000000000000000000000000000000000000000000000000000000000000000000000000000000000000000000000000000000000000000000000000000000000000000000000000000000000000000000000000000000000000000000000000000000000000
310
00000000000000000000000000000000000000000000000000000000000000000000000000000000000000000000000000000000000000000000000000000000000000000000000000000000000000000000000000000000000000000000000000000000000000000000000000000000000000000000000000000000000000
310
00000000000000000000000000000000000000000000000000000000000000000000000000000000000000000000000000000000000000000000000000000000000000000000000000000000000000000000000000000000000000000000000000000000000000000000000000000000000000000000000000000000000000
310
00000000000000000000000000000000000000000000000000000000000000000000000000000000000000000000000000000000000000000000000000000000000000000000000000000000000000000000000000000000000000000000000000000000000000000000000000000000000000000000000000000000000000
310
00000000000000000000000000000000000000000000000000000000000000000000000000000000000000000000000000000000000000000000000000000000000000000000000000000000000000000000000000000000000000000000000000000000000000000000000000000000000000000000000000000000000000
310
00000000000000000000000000000000000000000000000000000000000000000000000000000000000000000000000000000000000000000000000000000000000000000000000000000000000000000000000000000000000000000000000000000000000000000000000000000000000000000000000000000000000000
310
00000000000000000000000000000000000000000000000000000000000000000000000000000000000000000000000000000000000000000000000000000000000000000000000000000000000000000000000000000000000000000000000000000000000000000000000000000000000000000000000000000000000000
310
00000000000000000000000000000000000000000000000000000000000000000000000000000000000000000000000000000000000000000000000000000000000000000000000000000000000000000000000000000000000000000000000000000000000000000000000000000000000000000000000000000000000000
310
00000000000000000000000000000000000000000000000000000000000000000000000000000000000000000000000000000000000000000000000000000000000000000000000000000000000000000000000000000000000000000000000000000000000000000000000000000000000000000000000000000000000000
310
00000000000000000000000000000000000000000000000000000000000000000000000000000000000000000000000000000000000000000000000000000000000000000000000000000000000000000000000000000000000000000000000000000000000000000000000000000000000000000000000000000000000000
310
00000000000000000000000000000000000000000000000000000000000000000000000000000000000000000000000000000000000000000000000000000000000000000000000000000000000000000000000000000000000000000000000000000000000000000000000000000000000000000000000000000000000000
310
00000000000000000000000000000000000000000000000000000000000000000000000000000000000000000000000000000000000000000000000000000000000000000000000000000000000000000000000000000000000000000000000000000000000000000000000000000000000000000000000000000000000000
310
00000000000000000000000000000000000000000000000000000000000000000000000000000000000000000000000000000000000000000000000000000000000000000000000000000000000000000000000000000000000000000000000000000000000000000000000000000000000000000000000000000000000000
310
00000000000000000000000000000000000000000000000000000000000000000000000000000000000000000000000000000000000000000000000000000000000000000000000000000000000000000000000000000000000000000000000000000000000000000000000000000000000000000000000000000000000000
310
00000000000000000000000000000000000000000000000000000000000000000000000000000000000000000000000000000000000000000000000000000000000000000000000000000000000000000000000000000000000000000000000000000000000000000000000000000000000000000000000000000000000000
310
00000000000000000000000000000000000000000000000000000000000000000000000000000000000000000000000000000000000000000000000000000000000000000000000000000000000000000000000000000000000000000000000000000000000000000000000000000000000000000000000000000000000000
310
00000000000000000000000000000000000000000000000000000000000000000000000000000000000000000000000000000000000000000000000000000000000000000000000000000000000000000000000000000000000000000000000000000000000000000000000000000000000000000000000000000000000000
310
00000000000000000000000000000000000000000000000000000000000000000000000000000000000000000000000000000000000000000000000000000000000000000000000000000000000000000000000000000000000000000000000000000000000000000000000000000000000000000000000000000000000000
310
00000000000000000000000000000000000000000000000000000000000000000000000000000000000000000000000000000000000000000000000000000000000000000000000000000000000000000000000000000000000000000000000000000000000000000000000000000000000000000000000000000000000000
310
00000000000000000000000000000000000000000000000000000000000000000000000000000000000000000000000000000000000000000000000000000000000000000000000000000000000000000000000000000000000000000000000000000000000000000000000000000000000000000000000000000000000000
310
00000000000000000000000000000000000000000000000000000000000000000000000000000000000000000000000000000000000000000000000000000000000000000000000000000000000000000000000000000000000000000000000000000000000000000000000000000000000000000000000000000000000000
310
00000000000000000000000000000000000000000000000000000000000000000000000000000000000000000000000000000000000000000000000000000000000000000000000000000000000000000000000000000000000000000000000000000000000000000000000000000000000000000000000000000000000000
310
00000000000000000000000000000000000000000000000000000000000000000000000000000000000000000000000000000000000000000000000000000000000000000000000000000000000000000000000000000000000000000000000000000000000000000000000000000000000000000000000000000000000000
310
00000000000000000000000000000000000000000000000000000000000000000000000000000000000000000000000000000000000000000000000000000000000000000000000000000000000000000000000000000000000000000000000000000000000000000000000000000000000000000000000000000000000000
310
00000000000000000000000000000000000000000000000000000000000000000000000000000000000000000000000000000000000000000000000000000000000000000000000000000000000000000000000000000000000000000000000000000000000000000000000000000000000000000000000000000000000000
310
00000000000000000000000000000000000000000000000000000000000000000000000000000000000000000000000000000000000000000000000000000000000000000000000000000000000000000000000000000000000000000000000000000000000000000000000000000000000000000000000000000000000000
310
00000000000000000000000000000000000000000000000000000000000000000000000000000000000000000000000000000000000000000000000000000000000000000000000000000000000000000000000000000000000000000000000000000000000000000000000000000000000000000000000000000000000000
310
00000000000000000000000000000000000000000000000000000000000000000000000000000000000000000000000000000000000000000000000000000000000000000000000000000000000000000000000000000000000000000000000000000000000000000000000000000000000000000000000000000000000000
310
00000000000000000000000000000000000000000000000000000000000000000000000000000000000000000000000000000000000000000000000000000000000000000000000000000000000000000000000000000000000000000000000000000000000000000000000000000000000000000000000000000000000000
310
00000000000000000000000000000000000000000000000000000000000000000000000000000000000000000000000000000000000000000000000000000000000000000000000000000000000000000000000000000000000000000000000000000000000000000000000000000000000000000000000000000000000000
310
00000000000000000000000000000000000000000000000000000000000000000000000000000000000000000000000000000000000000000000000000000000000000000000000000000000000000000000000000000000000000000000000000000000000000000000000000000000000000000000000000000000000000
310
00000000000000000000000000000000000000000000000000000000000000000000000000000000000000000000000000000000000000000000000000000000000000000000000000000000000000000000000000000000000000000000000000000000000000000000000000000000000000000000000000000000000000
310
00000000000000000000000000000000000000000000000000000000000000000000000000000000000000000000000000000000000000000000000000000000000000000000000000000000000000000000000000000000000000000000000000000000000000000000000000000000000000000000F5F5F5F5F5F5F5F5F5
310
F5F5F5F5F5F5F5F5F5F5F5F5F5F5F5F5F5F5F5F5F5F5F5F5F5F5F5F5F5F5F5F5F5F5F5F5F5F5F5F5F5F5F5F5F5F5F5F5F5F5F5F5F5F5F5F5F5F5F5F5F5F5F5F5F5F5F5F5F5F5F5F5F5F5F5F5F5F5F5F5F5F5F5F5F5F5F5F5F5F5F5F5F5F5F5F5F5F5F5F5F5F5F5F5F5F5F5F5F5F5F5F5F5F5F5F5F5F5F5F5F5F5F5F5F5F5F5
310
F5F5F5F5F5F5F5F5F5F5F5F5F5F5F5F5F5F5F5F5F5F5F5F5F5F5F5F5F5F5F5F5F5F5F5F5F5F5F5F5F5F5F5F5F5F5F5F5F5F5F5F5F5F5F5F5F5F5F5F5F5F5F5F5F5F5F5F5F5F5F5F5F5F5F5F5F5F5F5F5F5F50000000000000000000000000000000000000000000000000000000000000000000000000000F5F5F5F5F50000
310
0000000000000000000000000000000000000000000000000000000000000000000000000000000000000000F50000000000000000000000000000000000000000000000000000000000000000000000000000000000000000000000000000000000000000000000000000000000F50000000000000000000000F5F5F5F5F5
310
F5F5F5F5F5F50000000000000000000000F500F5F5F5F5F5F5F500F500F5F500F5F5F50000F5F500F500000000F5F500F5F500F5F500F5F5F500F500F5F5F500F50000F5F5F500000000F5000000F5F5000000F50000000000000000000000000000000000000000000000000000000000000000000000000000F5F5F5F5F5
310
00000000000000000000000000000000000000000000000000000000000000000000000000000000000000000000F50000000000000000000000000000000000000000000000000000000000000000000000000000000000000000000000000000000000000000000000000000000000F50000F5F5F5F5F5F5F5F5F5F5F5F5
310
F5F5F5F5F5F5F5F5F5F5F5F5F5F5F5F5000000F500F5F5F5F5F5F5F500F500F5F500F5F5F50000F50000F50000000000F5F5F5F500F500F5F500F5F500F5F500000000F500F5000000000000F5000000F500000000F50000000000000000000000000000000000000000000000000000000000000000000000000000F5F5F5
310
F5F5F5F5F5F5F5F5F5F5F5F5F5F5F5F5F5F5F5F5F5F5F5F5F5F5F5F5F5F5F5F5F5F5F5F5F5F5F5F5F5F5F5F5F5F5F5F5F50000000000000000000000000000000000000000000000000000000000000000000000000000000000000000000000000000000000000000000000000000000000F50000F5F5F5F5F5F5F5F5F5F5
310
F5F5F5F5F500F5F5F5F5F5F5F5F5F5F5F5F5F50000F50000F5F5F5F5F5F5F5F50000F500F5F5F5F500F50000F50000000000F5F500F50000F5F5F5F5F5F500F500F5F50000F500F5F5F500000000F5000000F500000000F50000000000000000000000000000000000000000000000000000000000000000000000000000F5
310
F5F5F5F5F50000000000000000000000000000000000000000F5000000F5F5F5F5F5000000F500F5F5F5F5F5F5F5F5F5F500F50000000000000000000000000000000000000000000000000000000000000000000000000000000000000000000000000000000000000000000000000000000000F500F5F5F5F5F5F5F5F5F5
310
F5F5F5F5F5F5F5F5F5F5F5F5F5F5F5F5F5F5F5F5F5F500F5F5F5F5F5F5F5F5F5F5F5F5F5F5F5F5F5F5F5F5F5F5F5F500000000F5F5F5F5F500F5F5F5F5F5F5F5F5F5F5F5F5F5F5F5F5F5F5F500000000F5000000F500000000F500000000000000000000000000000000000000000000000000000000000000000000000000
310
00F5F5F5F5F5F5F5F5F5F5F5F5F5F5F5F5F5F5F5F5F5F5F5F5F5F5F5F5F5F5F5F5F5F5F5F5F5F5F5F5F5F5F5F5F5F5F5F5F5F5F5F50000000000000000000000000000000000000000000000000000000000000000000000000000000000000000000000000000000000000000000000000000000000F50000F5F5F5F5F5F5
310
F5F5F5F5F5F5F5F5F5F5F5F5F5F5F5F5F5F5F5F5F5F5F50000F50000000000F5F5F5F5F5F5F5F5F5F5F5F50000000000F5000000000000000000000000000000000000000000000000000000000000000000F50000000000000000F50000000000000000000000000000000000000000000000000000000000000000000000
310
000000F5F5F5F5F5F5F5F5000000000000000000000000000000000000F5F5F5F500F5F5F500F5F500F500000000F5F5F5F500000000F50000000000000000000000000000000000000000000000000000000000000000000000000000000000000000000000000000000000000000000000000000000000F50000F5F5F5F5
310
F5F5F5F5F5F5F5F5F5F5F5F5F5F5F5F5F5F5F5F5F5F5F5F5F50000F5F5F5F5F500F5F5F500F5F5F5F500F500F50000000000F5000000000000000000000000000000000000000000000000000000000000000000F50000000000000000F5000000000000000000000000000000000000000000000000000000000000000000
310
0000000000F5F500F5F5F5F5F5000000000000000000000000000000000000F5F5F5F5F5F5F5F5F5F5F500F50000000000F5F5F500000000F50000000000000000000000000000000000000000000000000000000000000000000000000000000000000000000000000000000000000000000000000000000000F500F5F5F5
310
F5F5F5F5F5F5F5F5F5F5F5F5F5F50000F5F5F5F5F5F5F5F5F5F5F5F500F5F5F5F5F5F5F5F5F5F5F5F5F5F5F5F5F5F5F5F5F5F5F5F5F5F5F5F5F5F5F5F5F5F5F5F5F5F5F5F5F5F5F5F5F5F5F5F5F5F5F5F5F5F5F5F5F5F5F5F5F5F5F5F5F5F5F500000000000000000000000000000000000000000000000000000000000000
310
00000000000000F5F5F5F5F5F5F5F5F5F5F5F5F5F5F5F5F5F5F5F5F5F5F5F5F5F5F5F5F5F5F5F5F5F5F5F5F5F5F5F5F5F5F5F5F5F5F5F5F5F5F5F50000000000000000000000000000000000000000000000000000000000000000000000000000000000000000000000000000000000000000000000000000000000F500F5
310
F5F5F5F5F5F5F5F5F5F5F5F5F5F5F5F5F500F5F5F5F5F5F500F5F5F5F5F500F500000000F5F5F500000000000000F5F5F5F5F5F50000F50000000000000000F5F500F5F5F5F5F5F5F5F5F5F5F5F5F5F5F50000F500F5F5F5F50000000000000000F50000000000000000000000000000000000000000000000000000000000
310
000000000000000000F5F5F5F5F5F5F5F5F5F500000000000000000000000000000000F500F5F5F5F5F5F5F5F5F500F500000000F5F5F5F500000000F50000000000000000000000000000000000000000000000000000000000000000000000000000000000000000000000000000000000000000000000000000000000F5
310
000000000000000000000000000000000000000000000000000000000000000000F5F5F5F5F500000000000000F5F5F5F5F5000000000000F5000000000000000000F500F5F5F50000F50000F5F500F5F500F500F5F5000000F5000000000000000000F5000000000000000000000000000000000000000000000000000000
310
0000000000000000000000F5F5F5F5F5F5F5F5F5F5F5F5F5F5F5F5F5F5F5F5F5F5F5F5F5F5F5F5F5F5F5F5F5F5F5F5F5F5F5F5F5F5F5F5F5F5F5F5F5F5F5F500000000000000000000000000000000000000000000000000000000000000000000000000000000000000000000000000000000000000000000000000000000
310
00F5F5F5F5F5F5F5F5F5F5F5F5F5F5F5F5F5F5F5F5F5F5F5F5F5F5F5F5F5F5F5F5F5F5F5F5F5F5F5F5F5F5F5F5F5F5F5F5F5F5F5F5F5F5F5F5F5F5000000000000000000F500F500F5F5F5F5F5F5F5F500F5F500F500F500F500F500000000000000000000F500000000000000000000000000000000000000000000000000
310
00000000000000000000000000000000000000000000000000000000000000000000000000000000000000000000000000000000000000000000000000000000000000000000000000000000000000000000000000000000000000000000000000000000000000000000000000000000000000000000000000000000000000
310
000000000000000000000000000000000000000000000000000000000000000000000000000000000000000000000000000000000000000000000000F50000000000000000F5F500F5F5F5F5F5F5F5F5F5F5F5F5F5F5F5F50000F5F5F5F5F50000000000000000F50000000000000000000000000000000000000000000000
310
00000000000000000000000000000000000000000000000000000000000000000000000000000000000000000000000000000000000000000000000000000000000000000000000000000000000000000000000000000000000000000000000000000000000000000000000000000000000000000000000000000000000000
310
0000000000000000000000000000000000000000000000000000000000000000000000000000000000000000000000000000000000000000000000000000F5000000000000000000000000000000000000000000000000000000000000000000000000000000000000F5000000000000000000000000000000000000000000
310
00000000000000000000000000000000000000000000000000000000000000000000000000000000000000000000000000000000000000000000000000000000000000000000000000000000000000000000000000000000000000000000000000000000000000000000000000000000000000000000000000000000000000
310
00000000000000000000000000000000000000000000000000000000000000000000000000000000000000000000000000000000000000000000000000000000F5F5F5F5F5F5F5F5F5F5F5F5F5F5F5F5F5F5F5F5F5F5F5F5F5F5F5F5F5F5F5F5F5F5F5F5F5F5F5F5F5F5F5F500000000000000000000000000000000000000
310
0000000000000000000000000000000000000000000000000000000000000000000000000000000000000000000000000000000000000000F5F5F50000F500F5F5F500000000F5F5F5F500F5F500F5F50000F5F500F5F5F5F5F50000F5F5F5F5F5F5F500000000F500F5F5F5F5F50000F500F500F5F5F5F50000F5000000F5
310
F5F5F500000000F500F5F5F5F5F5F50000F5F5F5F5000000000000000000000000000000000000000000000000000000000000000000000000000000000000000000F50000F5F5F5F5F50000000000000000000000000000F5F5F5F500F5F5F5F5F5F5F5F5F5F5000000000000F50000000000000000000000000000000000
310
0000000000000000000000000000000000000000000000000000000000000000000000000000000000000000000000000000000000000000000000F5000000F5000000F500000000F50000F5F500F5F5F5F500F5F5F5F500F50000F5F5F5F500F500F5000000000000F500F5F50000F5F5F5F500F500F50000F500F5000000
310
00F500F5F500000000F500F500F500F5F500F5F500F500000000000000000000000000000000000000000000000000000000000000000000000000000000000000000000F50000F5F5F5F5F5F5F5F5F5F5F5000000F5F5F5F5F5F5F5F5F5F5F5F5F5F5F5F5F5F5F5F5F500F5F5F5F5F5000000000000000000000000000000
310
000000000000000000000000000000000000000000000000000000000000000000000000000000000000000000000000000000000000000000000000F5F5F50000F50000F5F500000000F50000F5F5F500F5F5F5F500F5F50000F5000000F500F500F500F5F50000000000F5F5F5F5F50000F5F50000F500F5F500F5F5F5F5
310
000000F500F5F5F5F50000F500F500F500F5F5F500F5F5F5F5000000000000000000000000000000000000000000000000000000000000000000000000000000000000000000F50000F5F500F5F5F5F5F5F5F5F5000000F5F5F5F5F5F5F5F5F5F500F5F500F5F5F5F5F5F5F5F5F5F5F5F5F500000000000000000000000000
310
0000000000000000000000000000000000000000000000000000000000000000000000000000000000000000000000000000000000000000000000000000F5F5F500F5F5F5F5F5F500000000F5F5F5F5F5F500F500F50000F5F5F5F5F5F5F50000F500F5F5F5F5F5F500000000F500F5F5F5F500F50000F5F5F5F5F5F5F5F5
310
F5F5000000F5F5F5F5F5F500F5F5F5F5F5F5F5F5F50000F5F5F5F5000000000000000000000000000000000000000000000000000000000000000000000000000000000000000000F50000F5F5F5F5F500F5F500000000000000000000F5F5F5F5F5F5F5F5F5F5F5F500F5F5F5F50000000000F50000000000000000000000
310
00000000000000000000000000000000000000000000000000000000000000000000000000000000000000000000000000000000000000000000000000000000000000000000000000000000000000000000000000000000000000000000000000000000000000000000000000000000000000000000000000000000000000
310
0000000000000000000000000000000000000000000000000000000000000000000000000000000000000000000000000000000000000000000000000000000000000000000000000000F50000F5F5F5F5F500000000000000000000000000F5F5F5F5F5F5F5F5F500F5F500F5F5F5F50000000000F5000000000000000000
310
00000000000000000000000000000000000000000000000000000000000000000000000000000000000000000000000000000000000000000000000000000000000000F5F500F5F500F500F5000000000000F5000000F500000000000000000000000000000000000000000000000000000000000000000000000000000000
310
00000000000000000000000000000000000000000000000000000000000000000000000000000000000000000000000000000000000000000000000000000000000000000000000000000000F5000000F5F5F5F5F50000000000000000000000000000F5F5F5F5F5F5F5F5F5F5F5F5F5F5000000000000F500000000000000
310
0000000000000000000000000000000000000000000000000000000000000000000000000000000000000000000000000000000000000000000000000000000000000000F500F500F500F5F5F5F5F50000000000F500F5F5F50000000000000000000000000000000000000000000000000000000000000000000000000000
310
000000000000000000000000000000000000000000000000000000000000000000000000000000000000000000000000000000000000000000000000000000000000000000000000000000000000F50000F5F5F5F5F5F5000000000000000000F5F5F5F5F5F5F5F5F5F5F5F5F5F5F5F5F5F5F5F5F5F5F50000F50000000000
310
00000000000000000000000000000000000000000000000000000000000000000000000000000000000000000000000000000000000000000000000000000000000000000000F500000000F500F500F5F50000000000F50000F5F5000000000000000000000000000000000000000000000000000000000000000000000000
310
0000000000000000000000000000000000000000000000000000000000000000000000000000000000000000000000000000000000000000000000000000000000000000000000000000000000000000F50000F5F5F5000000000000000000000000F5F5F5F5F5F5F5F500F5F5F5F5F5F5F5F5F5F5F5F5F5F50000F5000000
310
000000000000000000000000000000000000000000000000000000000000000000000000000000000000000000000000000000000000000000000000000000000000000000000000F500F500F500F500F500F50000000000F50000F5F500000000000000000000000000000000000000000000000000000000000000000000
310
00000000000000000000000000000000000000000000000000000000000000000000000000000000000000000000000000000000000000000000000000000000000000000000000000000000000000000000F5F5F5F5F5F5F5F5F5F5F5F5F5F5F5F5F5F5F5F5F5F5F5F5F5F5F5F5F5F5F5F5F5F5F5F5F5F5F5F5F5F5F5F500
310
000000000000000000000000000000000000000000000000000000000000000000000000000000000000000000000000000000000000000000000000000000000000000000000000000000F5F500F5F50000F5000000000000F5F5F50000F50000000000000000000000000000000000000000000000000000000000000000
310
00000000000000000000000000000000000000000000000000000000000000000000000000000000000000000000000000000000000000000000000000000000000000000000000000000000000000000000000000000000000000000000000000000000000000000000000000000000000000000000000000000000000000
310
F5000000000000000000000000000000000000000000000000000000000000000000000000000000000000000000000000000000000000000000000000000000000000000000000000000000000000000000000000000000000000000000000000000000000000000000000000000000000000000000000000000000000000
310
00000000000000000000000000000000000000000000000000000000000000000000000000000000000000000000000000000000000000000000000000000000000000000000000000000000000000000000000000000000000000000000000000000000000000000000000000000000000000000000000000000000000000
310
0000F5000000000000000000000000000000000000000000000000000000000000000000000000000000000000000000000000000000000000000000000000000000000000000000000000000000F5F5F50000F500F5F5F5F50000000000F500F5F5F500000000000000000000000000000000000000000000000000000000
310
00000000000000000000000000000000000000000000000000000000000000000000000000000000000000000000000000000000000000000000000000000000000000000000000000000000000000000000000000000000000000000000000000000000000000000000000000000000000000000000000000000000000000
310
00000000F5000000000000000000000000000000000000000000000000000000000000000000000000000000000000000000000000000000000000000000000000000000000000000000000000000000F5F5000000F500F50000F50000000000F50000F5F50000000000000000000000000000000000000000000000000000
310
00000000000000000000000000000000000000000000000000000000000000000000000000000000000000000000000000000000000000000000000000000000000000000000000000000000000000000000000000000000000000000000000000000000000000000000000000000000000000000000000000000000000000
310
000000000000F5000000000000000000000000000000000000000000000000000000000000000000000000000000000000000000000000000000000000000000000000000000000000000000000000000000F500000000F500F50000F50000000000F5000000F5000000000000000000000000000000000000000000000000
310
00000000000000000000000000000000000000000000000000000000000000000000000000000000000000000000000000000000000000000000000000000000000000000000000000000000000000000000000000000000000000000000000000000000000000000000000000000000000000000000000000000000000000
310
0000000000000000F5000000000000000000000000000000000000000000000000000000000000000000000000000000000000000000000000000000000000000000000000000000000000000000000000000000F5F5F500F5F5F5F500000000000000F5F5F5F5F5F500000000000000000000000000000000000000000000
310
00000000000000000000000000000000000000000000000000000000000000000000000000000000000000000000000000000000000000000000000000000000000000000000000000000000000000000000000000000000000000000000000000000000000000000000000000000000000000000000000000000000000000
310
00000000000000000000F50000000000000000000000000000000000000000000000000000000000000000000000000000000000000000000000000000000000000000000000000000000000000000000000000000000000000000000000000000000000000000000000000000000000000000000000000000000000000000
310
00000000000000000000000000000000000000000000000000000000000000000000000000000000000000000000000000000000000000000000000000000000000000000000000000000000000000000000000000000000000000000000000000000000000000000000000000000000000000000000000000000000000000
310
000000000000000000000000F50000000000000000000000000000000000000000000000000000000000000000000000000000000000000000000000000000000000000000000000000000000000000000000000000000000000000000F500F5F5F500F5F500000000F5F5F5F500F5F50000F5F500F5F500F500F5F500F500
310
F500F5F5F5F5F5F5000000F500F5F5F5F5F5F500F500F500F5F5F5F5F500F5000000F5F5F500F5000000F500F5F5F5F5F5F5F500F50000000000000000000000000000000000000000000000000000000000000000000000000000000000000000000000000000000000000000000000000000000000000000000000000000
310
0000000000000000000000000000F5000000000000000000000000000000000000000000000000000000000000000000000000000000000000000000000000000000000000000000000000000000000000000000000000000000F5F5F50000F500F500F5F500F500000000F500F5F500F5F5F5F5F5F500F5F500F5F50000F5
310
F5F5F5F500F5F5000000000000F500F5F5000000F5F5F500F500F5000000F5F500000000F500F500F5000000F50000F5F50000F5F500F5F5F5F5000000000000000000000000000000000000000000000000000000000000000000000000000000000000000000000000000000000000000000000000000000000000000000
310
00000000000000000000000000000000F5000000000000000000000000000000000000000000000000000000000000000000000000000000000000000000000000000000000000000000000000000000000000000000000000000000F5F5F50000F50000F5F5F5000000000000F50000F5F5F500F500F5F5F5F5F5F500F500
310
0000F500F500F500F5F5F500000000F5F5F5F5F50000F500F500F500F5F50000F5F500000000F500F500F5F50000F50000F5F50000F5F5F5F5F5F5F500000000000000000000000000000000000000000000000000000000000000000000000000000000000000000000000000000000000000000000000000000000000000
310
000000000000000000000000000000000000F5000000000000000000000000000000000000000000000000000000000000000000000000000000000000000000000000000000000000000000000000000000000000000000000000000000F5F5F50000F500F500F5F500F500000000F500F5F500F500F5F500F5F5F5F500F5
310
F50000F500F500F500F5F5000000000000F500F5F500000000F50000F500F5000000F500F5000000F500F500F500F500F50000F5F50000F5F5F5F5F5F5F50000000000000000000000000000000000000000000000000000000000000000000000000000000000000000000000000000000000000000000000000000000000
310
0000000000000000000000000000000000000000F500000000000000000000000000000000000000000000000000000000000000000000000000000000000000000000000000000000000000000000000000000000000000000000000000000000000000F5F5F5F5F5F500F5F500000000F5F5F5F5F5F50000F500F500F5F5
310
00F500F5F50000F50000F5F5F5F5F5F5000000F500F5F5F5F5F500F500F5F5F5F5F5F5F5F5F500000000F5F5F500F5F500F5F5F5F5F5F5F5F5F5F500F5000000000000000000000000000000000000000000000000000000000000000000000000000000000000000000000000000000000000000000000000000000000000
310
00000000000000000000000000000000000000000000F50000000000000000000000000000000000000000000000000000000000000000000000000000000000000000000000000000000000000000000000000000000000000000000000000000000000000000000000000000000000000000000000000000000000000000
310
00000000000000000000000000000000000000000000000000000000000000000000000000000000000000000000000000000000000000000000000000000000000000000000000000000000000000000000000000000000000000000000000000000000000000000000000000000000000000000000000000000000000000
310
000000000000000000000000000000000000000000000000F5000000000000000000000000000000000000000000000000000000000000000000000000000000000000000000000000000000000000000000000000000000000000000000000000000000F5F5F500F5F5F5F500000000F50000F5F5F5F5F5F500000000F5F5
310
F5F5F5F5F50000F5F5F5F5F5F5F500F5F5F5F5F50000000000000000000000000000000000000000000000000000000000000000000000000000000000000000000000000000000000000000000000000000000000000000000000000000000000000000000000000000000000000000000000000000000000000000000000
310
0000000000000000000000000000000000000000000000000000F5000000000000000000000000000000000000000000000000000000000000000000000000000000000000000000000000000000000000000000000000000000000000000000000000000000F500F500F50000F500000000F5000000F5F5F5000000000000
310
F5F5F5F500F500F5000000F5F500F5F5F5F500F50000000000000000000000000000000000000000000000000000000000000000000000000000000000000000000000000000000000000000000000000000000000000000000000000000000000000000000000000000000000000000000000000000000000000000000000
310
00000000000000000000000000000000000000000000000000000000F5000000000000000000000000000000000000000000000000000000000000000000000000000000000000000000000000000000000000000000000000000000000000000000000000000000F500F500F50000F500000000F500000000F5F500000000
310
0000F50000F500F500F500F5F5F5F500F5F500F50000F50000000000000000000000000000000000000000000000000000000000000000000000000000000000000000000000000000000000000000000000000000000000000000000000000000000000000000000000000000000000000000000000000000000000000000
310
000000000000000000000000000000000000000000000000000000000000F5000000000000000000000000000000000000000000000000000000000000000000000000000000000000000000000000000000000000000000000000000000000000000000000000000000F500F500F5000000000000F5F5F5F5F5F5F5F5F5F5
310
0000000000F500F5F5F50000F5F5F5F5F5F5F5F500F5F5F5F5F50000000000000000000000000000000000000000000000000000000000000000000000000000000000000000000000000000000000000000000000000000000000000000000000000000000000000000000000000000000000000000000000000000000000
310
0000000000000000000000000000000000000000000000000000000000000000F500000000000000000000000000000000000000000000000000000000000000000000000000000000000000000000000000000000000000000000000000000000000000000000000000000000000000000000000000000000000000000000
310
00000000000000000000000000000000000000000000000000000000000000000000000000000000000000000000000000000000000000000000000000000000000000000000000000000000000000000000000000000000000000000000000000000000000000000000000000000000000000000000000000000000000000
310
00000000000000000000000000000000000000000000000000000000000000000000F5000000000000000000000000000000000000000000000000000000000000000000000000000000000000000000000000000000000000000000000000000000000000000000000000000000F5F5F5F5F5F5F5F5F5F5F5F5F5F5F5F5F5
310
F5F5F5F5F5F5F5F5F5F5F5F5F5F5F5F5F5F5F5F5F5F5F5F5F5F5F5F5F5F5F5F5F5F5F5F5F5F50000000000000000000000000000000000000000000000000000000000000000000000000000000000000000000000000000000000000000000000000000000000000000000000000000000000000000000000000000000000
310
000000000000000000000000000000000000000000000000000000000000000000000000F500000000000000000000000000000000000000000000000000000000000000000000000000000000000000000000000000000000000000000000000000000000000000000000000000000000F50000F50000F5F5F5F5000000F5
310
0000F5F500F5F5F50000F500F500F5F500F5F5000000000000F500F5F50000F5F500F5F50000F500000000000000000000000000000000000000000000000000000000000000000000000000000000000000000000000000000000000000000000000000000000000000000000000000000000000000000000000000000000
310
0000000000000000000000000000000000000000000000000000000000000000000000000000F500000000000000000000000000000000000000000000000000000000000000000000000000000000000000000000000000000000000000000000000000000000000000000000000000000000F50000F5F500F5F5F5F5F5F5
310
00F5F500F5F5F5F500F50000F500F500F5F5F5F5F5F5F500000000F50000F50000F5F500F5F5F500F50000000000000000000000000000000000000000000000000000000000000000000000000000000000000000000000000000000000000000000000000000000000000000000000000000000000000000000000000000
310
00000000000000000000000000000000000000000000000000000000000000000000000000000000F500000000000000000000000000000000000000000000000000000000000000000000000000000000000000000000000000000000000000000000000000000000000000000000000000000000F50000F50000F500F5F5
310
00F500F50000F500F500F5000000F500F500F5F500F5F5000000000000F500F5F50000F5F500F5F5000000000000000000000000000000000000000000000000000000000000000000000000000000000000000000000000000000000000000000000000000000000000000000000000000000000000000000000000000000
310
000000000000000000000000000000000000000000000000000000000000000000000000000000000000F5000000000000000000000000000000000000000000000000000000000000000000000000000000000000000000000000000000000000000000000000000000000000000000000000000000F5F5F500F5F5F5F500
310
F5F5F5F500F5F5F5F5F5F500F500F5F5F5F5F500F5F5F5F5F5F5F5F500000000F5F5F5F5F5F5F5F500F5F5F50000000000000000000000000000000000000000000000000000000000000000000000000000000000000000000000000000000000000000000000000000000000000000000000000000000000000000000000
310
0000000000000000000000000000000000000000000000000000000000000000000000000000000000000000F500000000000000000000000000000000000000000000000000000000000000000000000000000000000000000000000000000000000000000000000000000000000000000000000000000000000000000000
310
00000000000000000000000000000000000000000000000000000000000000000000000000000000000000000000000000000000000000000000000000000000000000000000000000000000000000000000000000000000000000000000000000000000000000000000000000000000000000000000000000000000000000
310
00000000000000000000000000000000000000000000000000000000000000000000000000000000000000000000F5000000000000000000000000000000000000000000000000000000000000000000000000000000000000000000000000000000000000000000000000000000000000000000000000000000F5F5F50000
310
F500F5F5F5F500000000F5F5F5F5F5F5F500F500F5F5F5F5F5F500000000F5F5000000F5F5F5F5F5F5F5F500F5F5F5F500000000F5F5F5000000F5F5F5F5F500F5F5F5F5F5F5F500F50000F5F5F500000000F5F5F5F5F5F5F50000000000000000000000000000000000000000000000000000000000000000000000000000
310
000000000000000000000000000000000000000000000000000000000000000000000000000000000000000000000000F5000000000000000000000000000000000000000000000000000000000000000000000000000000000000000000000000000000000000000000000000000000000000000000000000000000F5F500
310
0000F500F50000F500000000F50000F50000F5F5F50000F50000F50000000000F50000000000F500F50000F5F5F5F5F5F50000000000F5F500000000F500F5F5F5F500F500F5F500F500F5F50000F50000000000F500F50000F5F5000000000000000000000000000000000000000000000000000000000000000000000000
310
0000000000000000000000000000000000000000000000000000000000000000000000000000000000000000000000000000F5000000000000000000000000000000000000000000000000000000000000000000000000000000000000000000000000000000000000000000000000000000000000000000000000000000F5
310
00000000F500F50000F500000000F50000F5000000F5F50000F50000F50000000000F50000000000F500F50000F5F5F5F5F50000000000000000F5000000F5000000F500F5F500F5F500F500F500F500F50000000000F500F50000F5F500000000000000000000000000000000000000000000000000000000000000000000
310
00000000000000000000000000000000000000000000000000000000000000000000000000000000000000000000000000000000F50000000000000000000000000000000000000000000000000000000000000000000000000000000000000000000000000000000000000000000000000000000000000000000000000000
310
00F5F5F500F5F5F5F500000000000000F5F5F5F5000000F50000F5F5F5F5F5F500000000F500000000F5F5F5F5F5F5F5F500F5F5F5F500000000F5F5F5000000F5F5F5F5F5F5F5F5F5F5F500F500F5F5F5F5F5F500000000F5F5F5F5F5F5F50000000000000000000000000000000000000000000000000000000000000000
310
000000000000000000000000000000000000000000000000000000000000000000000000000000000000000000000000000000000000F5000000000000000000000000000000000000000000000000000000000000000000000000000000000000000000000000000000000000000000000000000000000000000000000000
310
00000000000000000000000000000000000000000000000000000000000000000000000000000000000000000000000000000000000000000000000000000000000000000000000000000000000000000000000000000000000000000000000000000000000000000000000000000000000000000000000000000000000000
310
0000000000000000000000000000000000000000000000000000000000000000000000000000000000000000000000000000000000000000F500000000000000000000000000000000000000000000000000000000000000000000000000000000000000000000000000000000000000000000000000000000000000000000
310
000000000000F5F500F5F5F5F50000F5F5F50000F500F5F5F50000000000F5F500F5F5F5F500F500F5F500F5F5F500000000F5F5000000F5F5F5F5F50000F50000F5F500F5F500F5F5F5F5F5F500F500000000F5F5F500000000F5F5F5F500F5F5F5F500F5F500F50000F5F5F500000000F5F500F500000000F5F5F5000000
310
00F5F5F5000000F5F5F5000000000000000000000000000000000000000000000000000000000000000000000000000000000000000000000000F50000000000000000000000000000000000000000000000000000000000000000000000000000000000000000000000000000000000000000000000000000000000000000
310
00000000000000F500F500F5000000F500F500000000F500F50000F500000000F500F5F50000F5F5F500F500F5F500F500000000F50000000000F5F500F50000F5F50000F5F500F500F500F500F5F500F500000000F50000000000F50000F5F5F500F500F5F500F500F50000F500F500000000F500F5F500000000F500F500
310
0000F5F5F5F500000000F5F5000000000000000000000000000000000000000000000000000000000000000000000000000000000000000000000000F5000000000000000000000000000000000000000000000000000000000000000000000000000000000000000000000000000000000000000000000000000000000000
310
000000000000000000F500F500F5000000F500F5F5000000F500F50000F500000000F50000F50000F500F50000F50000F50000000000F50000000000F5F500F50000F5F50000F500F50000F500F500F5F5F5F500000000F5F5F5000000F500F5F5F5F5F5F500F5F500F500F5F5F500F50000000000F5F5F50000000000F500
310
00000000F5F5F50000000000F5F5000000000000000000000000000000000000000000000000000000000000000000000000000000000000000000000000F500000000000000000000000000000000000000000000000000000000000000000000000000000000000000000000000000000000000000000000000000000000
310
0000000000000000000000F500F500F500000000F5F500000000F500F500000000000000F500F5F5000000F50000F500F5F500F500000000F50000000000F5F500F500F50000F500F5F500F500F500F500F5F5F5F500000000F500F5000000F5000000F500F5F500F5F500F500F500F5F500F500000000F500F50000000000
310
F500F5000000F500F50000000000F5F5000000000000000000000000000000000000000000000000000000000000000000000000000000000000000000000000F50000000000000000000000000000000000000000000000000000000000000000000000000000000000000000000000000000000000000000000000000000
310
00000000000000000000000000F500F500F500000000F5F5F5F500F5F5F5F500000000000000F5F500F5000000F50000F5F500F5F5F500000000F500000000F5F5F5F5F500F50000F5F5F500F5F500F5F5F5F5F5F500F500000000F5F50000000000F5F5F5F5F500F5F5F5F500F500F5F500F5F5F500000000F5F500000000
310
0000F5F5F500000000F50000000000F5F5F5000000000000000000000000000000000000000000000000000000000000000000000000000000000000000000000000F5000000000000000000000000000000000000000000000000000000000000000000000000000000000000000000000000000000000000000000000000
310
000000000000000000000000000000F5F5F5F5F5F5F5F5F5F5F5F5F5F5F5F5F5F5F5F5F5F5F5F5F5F5F5F5F5F5F5F5F5F5F5F5F5F5F5F5F5F5F5F5F5F5F5F5F5F5F5F5F5F5F5F5F5F5F5F5F5F5F5F5F5F5F5F5F5F5F5F5F5F5F5F5F5F5F5F5F5F5F5F5F5F5F5F5F5F5F5F5F5F5F5F5F5F5F5F5F5F5F5F5F5F5F50000000000
310
0000000000000000000000000000000000000000000000000000000000000000000000000000000000000000000000000000000000000000000000000000000000000000F500000000000000000000000000000000000000000000000000000000000000000000000000000000000000000000000000000000000000000000
310
0000000000000000000000000000000000F500F500F500F5F5F5F5F500F500F500F5F5F5F5F5F5F5F5F5F5F5F5F5F5000000F5F5F5F5F5F5F5F5F5F5F50000F500F500F5F5F5F5F500F500F5000000F5F5F500F5F5F5F500F500F500F5F5F5F50000F5F5F5F5F500F500F500F500F5F5F5F5F5F5F500F5F5F5F5F500000000
310
00000000000000000000000000000000000000000000000000000000000000000000000000000000000000000000000000000000000000000000000000000000000000000000F50000000000000000000000000000000000000000000000000000000000000000000000000000000000000000000000000000000000000000
310
00000000000000000000000000000000000000F5F5F500F5F5F500F500F5F5F500F5F500F500F5F500F5F50000F500F500000000F5000000F500F5F50000F5F5F5F500F50000F5F500F500F5F5F5000000F5000000F5F500F5F50000F50000F500F5F50000F5F5000000F5F5F500F50000F5F50000F5F5F5F500F500F50000
310
000000000000000000000000000000000000000000000000000000000000000000000000000000000000000000000000000000000000000000000000000000000000000000000000F5000000000000000000000000000000000000000000000000000000000000000000000000000000000000000000000000000000000000
310
000000000000000000000000000000000000000000F500F50000F5F500F50000F5F500F500F5F500F5F500F5F50000F5F500F5000000F5000000F500F5F500F500F500F500F50000F5F500F500F5F5F5000000F500F500F50000F500F500F50000F500F5000000F5F500F50000F5F500F50000F5F50000F5F5F5F5F500F5F5
310
0000000000000000000000000000000000000000000000000000000000000000000000000000000000000000000000000000000000000000000000000000000000000000000000000000F500000000000000000000000000000000000000000000000000000000000000000000000000000000000000000000000000000000
310
0000000000000000000000000000000000000000000000F500F50000F500F5F5F500F50000F5F500F5F5F5F5F5F5F50000F5F5F500000000F5000000F5F5F500F5F50000F500F5F5F5F5F5F5F5F500F500F500000000F5F500F5F5F5F5F500F5F5F5F5F5F5F5F5F5F5F500F5F50000F500F5F5F5F5F5F5F5F5F5F500F500F5
310
F5000000000000000000000000000000000000000000000000000000000000000000000000000000000000000000000000000000000000000000000000000000000000000000000000000000F50000000000000000000000000000000000000000000000000000000000000000000000000000000000000000000000000000
310
00000000000000000000000000000000000000000000000000000000000000000000000000000000000000000000000000000000000000000000000000000000000000000000000000000000000000000000000000000000000000000000000000000000000000000000000000000000000000000000000000000000000000
310
000000000000000000000000000000000000000000000000000000000000000000000000000000000000000000000000000000000000000000000000000000000000000000000000000000000000F5000000000000000000000000000000000000000000000000000000000000000000000000000000000000000000000000
310
00000000000000000000000000000000000000000000000000000000000000000000000000000000000000000000000000000000000000000000000000000000000000000000000000000000000000000000000000000000000000000000000000000000000000000000000000000000000000000000000000000000000000
310
0000000000000000000000000000000000000000000000000000000000000000000000000000000000000000000000000000000000000000000000000000000000000000000000000000000000000000F500000000000000000000000000000000000000000000000000000000000000000000000000000000000000000000
310
00000000000000000000000000000000000000000000000000000000000000000000000000000000000000000000000000000000000000000000000000000000000000000000000000000000000000000000000000000000000000000000000000000000000000000000000000000000000000000000000000000000000000
310
00000000000000000000000000000000000000000000000000000000000000000000000000000000000000000000000000000000000000000000000000000000000000000000000000000000000000000000F50000000000000000000000000000000000000000000000000000000000000000000000000000000000000000
310
00000000000000000000000000000000000000000000000000000000000000000000000000000000000000000000000000000000000000000000000000000000000000000000000000000000000000000000000000000000000000000000000000000000000000000000000000000000000000000000000000000000000000
310
000000000000000000000000000000000000000000000000000000000000000000000000000000000000000000000000000000000000000000000000000000000000000000000000000000000000000000000000F5000000000000000000000000000000000000000000000000000000000000000000000000000000000000
310
00000000000000000000000000000000000000000000000000000000000000000000000000000000000000000000000000000000000000000000000000000000000000000000000000000000000000000000000000000000000000000000000000000000000000000000000000000000000000000000000000000000000000
310
0000000000000000000000000000000000000000000000000000000000000000000000000000000000000000000000000000000000000000000000000000000000000000000000000000000000000000000000000000F500000000000000000000000000000000000000000000000000000000000000000000000000000000
310
000000000000000000000000000000000000000000000000000000000000000000000000000000000000000000000000000000000000000000000000000000000000000000000000000000000000000000000000000000000000000000000000000000000000000000000000000000000000000000000000F50000F5000000
310
00000000000000000000000000000000000000000000000000000000000000000000000000000000000000000000000000000000000000000000000000000000000000000000000000000000000000000000000000000000F50000000000000000000000000000000000000000000000000000000000000000000000000000
310
00000000000000000000000000000000000000000000000000000000000000000000000000000000000000000000000000000000000000000000000000000000000000000000000000000000000000000000000000000000000000000000000000000000000000000000000000000000000000000000000000F5F5F5F5F500
310
000000000000000000000000000000000000000000000000000000000000000000000000000000000000000000000000000000000000000000000000000000000000000000000000000000000000000000000000000000000000F5000000000000000000000000000000000000000000000000000000000000000000000000
310
00000000000000000000000000000000000000000000000000000000000000000000000000000000000000000000000000000000000000000000000000000000000000000000000000000000000000000000000000000000000000000000000000000000000000000000F500000000000000F5F5F5F5F50000000000000000
310
F500000000000000000000000000000000000000000000000000000000000000000000000000000000000000000000000000000000000000000000000000000000000000000000000000000000000000000000000000000000000000F500000000000000000000000000000000000000000000000000000000000000000000
310
0000000000000000000000000000000000000000000000000000000000000000000000000000000000000000000000000000000000000000000000000000000000000000000000000000000000000000000000000000000000000000000000000000000000000000000000F500F500F50000000000000000F50000000000F5
310
00F5F500000000000000000000000000000000000000000000000000000000000000000000000000000000000000000000000000000000000000000000000000000000000000000000000000000000000000000000000000000000000000F50000000000000000000000000000000000000000000000000000000000000000
310
00000000000000000000000000000000000000000000000000000000000000000000000000000000000000000000000000000000000000000000000000000000000000000000000000000000000000F500F5F5F500000000000000000000000000000000000000000000000000F500F500F50000000000F50000F500000000
310
F500F500F500000000000000000000000000000000000000000000000000000000000000000000000000000000000000000000000000000000000000000000000000000000000000000000000000000000000000000000000000000000000000F5000000000000000000000000000000000000000000000000000000000000
310
00000000000000000000000000000000000000000000000000000000000000000000000000000000000000000000000000000000000000000000000000000000F5F5F5F5F50000000000F5000000F50000F500F500F50000000000000000000000000000000000000000000000000000F5F5F50000000000F5F5F5F5F50000
310
0000F500F500F500000000000000000000000000000000000000000000000000000000000000000000000000000000000000000000000000000000000000000000000000000000000000000000000000000000000000000000000000000000000000F500000000000000000000000000000000000000000000000000000000
310
000000000000000000000000000000000000000000000000000000000000000000000000000000000000000000000000000000000000000000000000000000000000F5000000F50000000000F5F5F5F5F50000F500F500F500000000000000000000000000000000000000000000000000000000F5F5000000000000000000
310
0000000000F5F500F500000000000000000000000000000000000000000000000000000000000000000000000000000000000000000000000000000000000000000000000000000000000000000000000000000000000000000000000000000000000000F50000000000000000000000000000000000000000000000000000
310
000000000000000000000000000000000000000000000000000000000000000000000000000000000000000000000000000000000000000000000000000000000000000000F5F5F5F5000000000000000000F50000F5F50000F50000000000000000000000000000000000000000000000000000F500F50000000000000000
310
00F50000000000000000F500000000000000000000000000000000000000000000000000000000000000000000000000000000000000000000000000000000000000000000000000000000000000000000000000000000000000000000000000000000000000F5000000000000000000000000000000000000000000000000
310
0000000000000000000000000000000000000000000000000000000000000000000000000000000000000000000000000000000000000000000000000000000000000000000000000000F50000000000000000F5F50000000000F5F500000000000000000000000000000000000000000000000000F500F500F50000000000
310
F5F5F5F50000000000F500F5F500000000000000000000000000000000000000000000000000000000000000000000000000000000000000000000000000000000000000000000000000000000000000000000000000000000000000000000000000000000000000F500000000000000000000000000000000000000000000
310
00000000000000000000000000000000000000000000000000000000000000000000000000000000000000000000000000000000000000000000000000000000000000000000000000F5F5F5F50000000000F500F5F5F50000F50000F50000000000000000000000000000000000000000000000000000F500F500F5000000
310
00F5000000F500000000F500F500F500000000000000000000000000000000000000000000000000000000000000000000000000000000000000000000000000000000000000000000000000000000000000000000000000000000000000000000000000000000000000F50000000000000000000000000000000000000000
310
0000000000000000000000000000000000000000000000000000000000000000000000000000000000000000000000000000000000000000000000000000000000000000000000000000F5000000F50000000000F500F500F50000F5000000F50000000000000000000000000000000000000000000000000000F500F50000
310
00000000F5F5F5F500000000F500F500F500000000000000000000000000000000000000000000000000000000000000000000000000000000000000000000000000000000000000000000000000000000000000000000000000000000000000000000000000000000000000F5000000000000000000000000000000000000
310
00000000000000000000000000000000000000000000000000000000000000000000000000000000000000000000000000000000000000000000000000000000000000000000000000000000F5F5F5F5F50000000000F500F500F50000F500F500F50000000000000000000000000000000000000000000000000000F500F5
310
00000000000000F5F5F50000000000F5F500F500000000000000000000000000000000000000000000000000000000000000000000000000000000000000000000000000000000000000000000000000000000000000000000000000000000000000000000000000000000000000F500000000000000000000000000000000
310
00000000000000000000000000000000000000000000000000000000000000000000000000000000000000000000000000000000000000000000000000000000000000000000000000000000000000000000000000000000F5F50000F50000F5F5F5F50000000000000000000000000000000000000000000000000000F500
310
F500F50000000000F5F500F500000000F50000000000000000000000000000000000000000000000000000000000000000000000000000000000000000000000000000000000000000000000000000000000000000000000000000000000000000000000000000000000000000000000F50000000000000000000000000000
310
0000000000000000000000000000000000000000000000000000000000000000000000000000000000000000000000000000000000000000000000000000000000000000000000000000000000000000F5F5F5F5F50000000000F5F5F5F5000000F5F5F5F50000000000000000000000000000000000000000000000000000
310
F500F500F500000000F500F500F500000000F5000000F500000000000000000000000000000000000000000000000000000000000000000000000000000000000000000000000000000000000000000000000000000000000000000000000000000000000000000000000000000000000000F5000000000000000000000000
310
00000000000000000000000000000000000000000000000000000000000000000000000000000000000000000000000000000000000000000000000000000000000000000000000000000000000000000000F5000000F50000000000F5000000F50000F500F500F50000000000000000000000000000000000000000000000
310
000000F500F50000000000000000F5F500000000F500F5F50000000000000000000000000000000000000000000000000000000000000000000000000000000000000000000000000000000000000000000000000000000000000000000000000000000000000000000000000000000000000000F500000000000000000000
310
00000000000000000000000000000000000000000000000000000000000000000000000000000000000000000000000000000000000000000000000000000000000000000000000000000000000000000000000000F5F5F5F50000000000F5F5F5F5000000F500F500F5000000000000000000000000000000000000000000
310
00000000000000F5000000000000F5F5000000000000F5F500000000000000000000000000000000000000000000000000000000000000000000000000000000000000000000000000000000000000000000000000000000000000000000000000000000000000000000000000000000000000000000F50000000000000000
310
000000000000000000000000000000000000000000000000000000000000000000000000000000000000000000000000000000000000000000000000000000000000000000000000000000000000000000000000000000F5F5F5F50000000000F5F5F5F5000000F5F5F5F50000000000000000000000000000000000000000
310
00000000000000F5F5F50000000000F500F500F50000000000F5F5F5F500000000000000000000000000000000000000000000000000000000000000000000000000000000000000000000000000000000000000000000000000000000000000000000000000000000000000000000000000000000000000F5000000000000
310
00000000000000000000000000000000000000000000000000000000000000000000000000000000000000000000000000000000000000000000000000000000000000000000000000000000000000000000000000000000F5000000F50000000000F5000000F500000000F500000000000000000000000000000000000000
310
0000000000000000F5F5F5F5F500000000F500F500F500000000F5000000F500000000000000000000000000000000000000000000000000000000000000000000000000000000000000000000000000000000000000000000000000000000000000000000000000000000000000000000000000000000000000F500000000
310
00000000000000000000000000000000000000000000000000000000000000000000
  0
XRECORD
  5
BB71
102
{ACAD_REACTORS
330
B8D2
102
}
330
B8D2
100
AcDbXrecord
280
     1
102
MATERIAL
148
0.0
149
0.0
149
0.0
 93
        0
 94
      127
282
     0
 72
     0
 77
     0
171
     0
175
     0
179
     0
273
     0
  0
XRECORD
  5
B8D4
102
{ACAD_REACTORS
330
B8D2
102
}
330
B8D2
100
AcDbXrecord
280
     1
270
     1
271
     1
  0
XRECORD
  5
B8D3
102
{ACAD_REACTORS
330
B8D2
102
}
330
B8D2
100
AcDbXrecord
280
     1
270
     1
271
     1
  0
XRECORD
  5
B8D7
102
{ACAD_REACTORS
330
B8D2
102
}
330
B8D2
100
AcDbXrecord
280
     1
270
     1
271
     1
  0
XRECORD
  5
B8D6
102
{ACAD_REACTORS
330
B8D2
102
}
330
B8D2
100
AcDbXrecord
280
     1
270
     1
271
     1
  0
XRECORD
  5
B8D8
102
{ACAD_REACTORS
330
B8D2
102
}
330
B8D2
100
AcDbXrecord
280
     1
270
     1
271
     1
  0
XRECORD
  5
B8D5
102
{ACAD_REACTORS
330
B8D2
102
}
330
B8D2
100
AcDbXrecord
280
     1
270
     1
271
     1
  0
XRECORD
  5
BB70
102
{ACAD_REACTORS
330
B8CA
102
}
330
B8CA
100
AcDbXrecord
280
     1
102
MATERIAL
148
0.0
149
0.0
149
0.0
 93
        0
 94
      127
282
     0
 72
     0
 77
     0
171
     0
175
     0
179
     0
273
     0
  0
XRECORD
  5
B8CC
102
{ACAD_REACTORS
330
B8CA
102
}
330
B8CA
100
AcDbXrecord
280
     1
270
     1
271
     1
  0
XRECORD
  5
B8CB
102
{ACAD_REACTORS
330
B8CA
102
}
330
B8CA
100
AcDbXrecord
280
     1
270
     1
271
     1
  0
XRECORD
  5
B8CF
102
{ACAD_REACTORS
330
B8CA
102
}
330
B8CA
100
AcDbXrecord
280
     1
270
     1
271
     1
  0
XRECORD
  5
B8CE
102
{ACAD_REACTORS
330
B8CA
102
}
330
B8CA
100
AcDbXrecord
280
     1
270
     1
271
     1
  0
XRECORD
  5
B8D0
102
{ACAD_REACTORS
330
B8CA
102
}
330
B8CA
100
AcDbXrecord
280
     1
270
     1
271
     1
  0
XRECORD
  5
B8CD
102
{ACAD_REACTORS
330
B8CA
102
}
330
B8CA
100
AcDbXrecord
280
     1
270
     1
271
     1
  0
XRECORD
  5
BB72
102
{ACAD_REACTORS
330
B8DA
102
}
330
B8DA
100
AcDbXrecord
280
     1
102
MATERIAL
148
0.0
149
0.0
149
0.0
 93
        0
 94
      127
282
     0
 72
     0
 77
     0
171
     0
175
     0
179
     0
273
     0
  0
XRECORD
  5
B8DC
102
{ACAD_REACTORS
330
B8DA
102
}
330
B8DA
100
AcDbXrecord
280
     1
270
     1
271
     1
  0
XRECORD
  5
B8DB
102
{ACAD_REACTORS
330
B8DA
102
}
330
B8DA
100
AcDbXrecord
280
     1
270
     1
271
     1
  0
XRECORD
  5
B8DF
102
{ACAD_REACTORS
330
B8DA
102
}
330
B8DA
100
AcDbXrecord
280
     1
270
     1
271
     1
  0
XRECORD
  5
B8DE
102
{ACAD_REACTORS
330
B8DA
102
}
330
B8DA
100
AcDbXrecord
280
     1
270
     1
271
     1
  0
XRECORD
  5
B8E0
102
{ACAD_REACTORS
330
B8DA
102
}
330
B8DA
100
AcDbXrecord
280
     1
270
     1
271
     1
  0
XRECORD
  5
B8DD
102
{ACAD_REACTORS
330
B8DA
102
}
330
B8DA
100
AcDbXrecord
280
     1
270
     1
271
     1
  0
XRECORD
  5
BBA5
102
{ACAD_REACTORS
330
BBA4
102
}
330
BBA4
100
AcDbXrecord
280
     1
102
DISPLAYNAME
  1
Imperial24
102
FLAGS
 90
        0
  0
CELLSTYLEMAP
  5
BB6B
102
{ACAD_REACTORS
330
B94B
102
}
330
B94B
100
AcDbCellStyleMap
 90
        3
300
CELLSTYLE
  1
TABLEFORMAT_BEGIN
 90
        5
170
     1
 91
        0
 92
    32768
 62
   257
 93
        1
300
CONTENTFORMAT
  1
CONTENTFORMAT_BEGIN
 90
        0
 91
        0
 92
      512
 93
        0
300

 40
0.0
140
1.0
 94
        5
 62
     0
340
11
144
0.25
309
CONTENTFORMAT_END
171
     1
301
MARGIN
  1
CELLMARGIN_BEGIN
 40
0.06
 40
0.06
 40
0.06
 40
0.06
 40
0.18
 40
0.18
309
CELLMARGIN_END
 94
        6
 95
        1
302
GRIDFORMAT
  1
GRIDFORMAT_BEGIN
 90
        0
 91
        1
 62
     0
 92
       -2
340
0
 93
        0
 40
0.045
309
GRIDFORMAT_END
 95
        2
302
GRIDFORMAT
  1
GRIDFORMAT_BEGIN
 90
        0
 91
        1
 62
     0
 92
       -2
340
0
 93
        0
 40
0.045
309
GRIDFORMAT_END
 95
        4
302
GRIDFORMAT
  1
GRIDFORMAT_BEGIN
 90
        0
 91
        1
 62
     0
 92
       -2
340
0
 93
        0
 40
0.045
309
GRIDFORMAT_END
 95
        8
302
GRIDFORMAT
  1
GRIDFORMAT_BEGIN
 90
        0
 91
        1
 62
     0
 92
       -2
340
0
 93
        0
 40
0.045
309
GRIDFORMAT_END
 95
       16
302
GRIDFORMAT
  1
GRIDFORMAT_BEGIN
 90
        0
 91
        1
 62
     0
 92
       -2
340
0
 93
        0
 40
0.045
309
GRIDFORMAT_END
 95
       32
302
GRIDFORMAT
  1
GRIDFORMAT_BEGIN
 90
        0
 91
        1
 62
     0
 92
       -2
340
0
 93
        0
 40
0.045
309
GRIDFORMAT_END
309
TABLEFORMAT_END
  1
CELLSTYLE_BEGIN
 90
        1
 91
        1
300
_TITLE
309
CELLSTYLE_END
300
CELLSTYLE
  1
TABLEFORMAT_BEGIN
 90
        5
170
     1
 91
        0
 92
        0
 62
   257
 93
        1
300
CONTENTFORMAT
  1
CONTENTFORMAT_BEGIN
 90
        0
 91
        0
 92
      512
 93
        0
300

 40
0.0
140
1.0
 94
        5
 62
     0
340
11
144
0.18
309
CONTENTFORMAT_END
171
     1
301
MARGIN
  1
CELLMARGIN_BEGIN
 40
0.06
 40
0.06
 40
0.06
 40
0.06
 40
0.18
 40
0.18
309
CELLMARGIN_END
 94
        6
 95
        1
302
GRIDFORMAT
  1
GRIDFORMAT_BEGIN
 90
        0
 91
        1
 62
     0
 92
       -2
340
0
 93
        0
 40
0.045
309
GRIDFORMAT_END
 95
        2
302
GRIDFORMAT
  1
GRIDFORMAT_BEGIN
 90
        0
 91
        1
 62
     0
 92
       -2
340
0
 93
        0
 40
0.045
309
GRIDFORMAT_END
 95
        4
302
GRIDFORMAT
  1
GRIDFORMAT_BEGIN
 90
        0
 91
        1
 62
     0
 92
       -2
340
0
 93
        0
 40
0.045
309
GRIDFORMAT_END
 95
        8
302
GRIDFORMAT
  1
GRIDFORMAT_BEGIN
 90
        0
 91
        1
 62
     0
 92
       -2
340
0
 93
        0
 40
0.045
309
GRIDFORMAT_END
 95
       16
302
GRIDFORMAT
  1
GRIDFORMAT_BEGIN
 90
        0
 91
        1
 62
     0
 92
       -2
340
0
 93
        0
 40
0.045
309
GRIDFORMAT_END
 95
       32
302
GRIDFORMAT
  1
GRIDFORMAT_BEGIN
 90
        0
 91
        1
 62
     0
 92
       -2
340
0
 93
        0
 40
0.045
309
GRIDFORMAT_END
309
TABLEFORMAT_END
  1
CELLSTYLE_BEGIN
 90
        2
 91
        1
300
_HEADER
309
CELLSTYLE_END
300
CELLSTYLE
  1
TABLEFORMAT_BEGIN
 90
        5
170
     1
 91
        0
 92
        0
 62
   257
 93
        1
300
CONTENTFORMAT
  1
CONTENTFORMAT_BEGIN
 90
        0
 91
        0
 92
      512
 93
        0
300

 40
0.0
140
1.0
 94
        2
 62
     0
340
11
144
0.18
309
CONTENTFORMAT_END
171
     1
301
MARGIN
  1
CELLMARGIN_BEGIN
 40
0.06
 40
0.06
 40
0.06
 40
0.06
 40
0.18
 40
0.18
309
CELLMARGIN_END
 94
        6
 95
        1
302
GRIDFORMAT
  1
GRIDFORMAT_BEGIN
 90
        0
 91
        1
 62
     0
 92
       -2
340
0
 93
        0
 40
0.045
309
GRIDFORMAT_END
 95
        2
302
GRIDFORMAT
  1
GRIDFORMAT_BEGIN
 90
        0
 91
        1
 62
     0
 92
       -2
340
0
 93
        0
 40
0.045
309
GRIDFORMAT_END
 95
        4
302
GRIDFORMAT
  1
GRIDFORMAT_BEGIN
 90
        0
 91
        1
 62
     0
 92
       -2
340
0
 93
        0
 40
0.045
309
GRIDFORMAT_END
 95
        8
302
GRIDFORMAT
  1
GRIDFORMAT_BEGIN
 90
        0
 91
        1
 62
     0
 92
       -2
340
0
 93
        0
 40
0.045
309
GRIDFORMAT_END
 95
       16
302
GRIDFORMAT
  1
GRIDFORMAT_BEGIN
 90
        0
 91
        1
 62
     0
 92
       -2
340
0
 93
        0
 40
0.045
309
GRIDFORMAT_END
 95
       32
302
GRIDFORMAT
  1
GRIDFORMAT_BEGIN
 90
        0
 91
        1
 62
     0
 92
       -2
340
0
 93
        0
 40
0.045
309
GRIDFORMAT_END
309
TABLEFORMAT_END
  1
CELLSTYLE_BEGIN
 90
        3
 91
        2
300
_DATA
309
CELLSTYLE_END
  0
XRECORD
  5
BBA3
102
{ACAD_REACTORS
330
B94B
102
}
330
B94B
100
AcDbXrecord
280
     1
102
ACAD_ROUNDTRIP_PRE2007_TABLESTYLE
 90
      512
 91
        0
  1

 92
      512
 93
        0
  2

 94
      512
 95
        0
  3

  0
XRECORD
  5
BB7E
102
{ACAD_REACTORS
330
BB7D
102
}
330
BB7D
100
AcDbXrecord
280
     1
102
RTVSPost2010Prop28
280
     1
102
RTVSPost2010PropOp28
 70
     1
102
RTVSPost2010Prop29
280
     1
102
RTVSPost2010PropOp29
 70
     1
102
RTVSPost2010Prop30
280
     0
102
RTVSPost2010PropOp30
 70
     1
102
RTVSPost2010Prop31
280
     0
102
RTVSPost2010PropOp31
 70
     1
102
RTVSPost2010Prop32
280
     0
102
RTVSPost2010PropOp32
 70
     1
102
RTVSPost2010Prop33
280
     0
102
RTVSPost2010PropOp33
 70
     1
102
RTVSPost2010Prop34
280
     0
102
RTVSPost2010PropOp34
 70
     1
102
RTVSPost2010Prop35
280
     0
102
RTVSPost2010PropOp35
 70
     1
102
RTVSPost2010Prop36
280
     0
102
RTVSPost2010PropOp36
 70
     1
102
RTVSPost2010Prop37
 90
       50
102
RTVSPost2010PropOp37
 70
     1
102
RTVSPost2010Prop38
140
0.0
102
RTVSPost2010PropOp38
 70
     1
102
RTVSPost2010Prop39
140
1.0
102
RTVSPost2010PropOp39
 70
     1
102
RTVSPost2010Prop40
 90
        0
102
RTVSPost2010PropOp40
 70
     1
102
RTVSPost2010Prop41ColorIndex
 90
       18
102
RTVSPost2010Prop41ColorRGB
 90
        0
102
RTVSPost2010PropOp41
 70
     1
102
RTVSPost2010Prop42
 90
       50
102
RTVSPost2010PropOp42
 70
     1
102
RTVSPost2010Prop43
 90
        3
102
RTVSPost2010PropOp43
 70
     1
102
RTVSPost2010Prop44ColorIndex
 90
        5
102
RTVSPost2010Prop44ColorRGB
 90
      255
102
RTVSPost2010PropOp44
 70
     1
102
RTVSPost2010Prop45
280
     0
102
RTVSPost2010PropOp45
 70
     1
102
RTVSPost2010Prop46
 90
       50
102
RTVSPost2010PropOp46
 70
     1
102
RTVSPost2010Prop47
 90
       50
102
RTVSPost2010PropOp47
 70
     1
102
RTVSPost2010Prop48
 90
       50
102
RTVSPost2010PropOp48
 70
     1
102
RTVSPost2010Prop49
280
     0
102
RTVSPost2010PropOp49
 70
     1
102
RTVSPost2010Prop50
 90
       50
102
RTVSPost2010PropOp50
 70
     1
102
RTVSPost2010Prop51ColorIndex
 90
      256
102
RTVSPost2010Prop51ColorRGB
 90
-16777216
102
RTVSPost2010PropOp51
 70
     0
102
RTVSPost2010Prop52
140
1.0
102
RTVSPost2010PropOp52
 70
     0
102
RTVSPost2010Prop53
 90
        2
102
RTVSPost2010PropOp53
 70
     1
102
RTVSPost2010Prop54
  1
strokes_ogs.tif
102
RTVSPost2010PropOp54
 70
     1
102
RTVSPost2010Prop55
280
     0
102
RTVSPost2010PropOp55
 70
     1
102
RTVSPost2010Prop56
140
1.0
102
RTVSPost2010PropOp56
 70
     1
102
RTVSPost2010Prop57
140
1.0
102
RTVSPost2010PropOp57
 70
     1
102
RTVSPropertyOp0
 70
     1
102
RTVSPropertyOp1
 70
     1
102
RTVSPropertyOp2
 70
     1
102
RTVSPropertyOp3
 70
     1
102
RTVSPropertyOp4
 70
     1
102
RTVSPropertyOp5
 70
     1
102
RTVSPropertyOp6
 70
     1
102
RTVSPropertyOp7
 70
     1
102
RTVSPropertyOp8
 70
     1
102
RTVSPropertyOp9
 70
     1
102
RTVSPropertyOp10
 70
     1
102
RTVSPropertyOp11
 70
     1
102
RTVSPropertyOp12
 70
     1
102
RTVSPropertyOp13
 70
     1
102
RTVSPropertyOp14
 70
     1
102
RTVSPropertyOp15
 70
     1
102
RTVSPropertyOp16
 70
     1
102
RTVSPropertyOp17
 70
     1
102
RTVSPropertyOp18
 70
     1
102
RTVSPropertyOp19
 70
     1
102
RTVSPropertyOp20
 70
     1
102
RTVSPropertyOp21
 70
     1
102
RTVSPropertyOp22
 70
     1
102
RTVSPropertyOp23
 70
     1
102
RTVSPropertyOp24
 70
     1
102
RTVSPropertyOp25
 70
     1
102
RTVSPropertyOp26
 70
     1
102
RTVSPropertyOp27
 70
     1
102
RTVSPropertyOp28
 70
     1
102
RTVSPropertyOp29
 70
     1
102
RTVSPropertyOp30
 70
     1
102
RTVSPropertyOp31
 70
     1
102
RTVSPropertyOp32
 70
     1
102
RTVSPropertyOp33
 70
     1
102
RTVSPropertyOp34
 70
     1
102
RTVSPropertyOp35
 70
     1
102
RTVSPropertyOp36
 70
     1
102
RTVSPropertyOp37
 70
     1
102
RTVSPropertyOp38
 70
     1
102
RTVSPropertyOp39
 70
     1
102
RTVSPropertyOp40
 70
     1
102
RTVSPropertyOp41
 70
     1
102
RTVSPropertyOp42
 70
     1
102
RTVSPropertyOp43
 70
     1
102
RTVSPropertyOp44
 70
     1
102
RTVSPropertyOp45
 70
     1
102
RTVSPropertyOp46
 70
     1
102
RTVSPropertyOp47
 70
     1
102
RTVSPropertyOp48
 70
     1
102
RTVSPropertyOp49
 70
     1
102
RTVSPropertyOp50
 70
     1
102
RTVSPropertyOp51
 70
     0
102
RTVSPropertyOp52
 70
     0
102
RTVSPropertyOp53
 70
     1
102
RTVSPropertyOp54
 70
     1
102
RTVSPropertyOp55
 70
     1
102
RTVSPropertyOp56
 70
     1
102
RTVSPropertyOp57
 70
     1
102
RTVSPropertyOp58
 70
     1
102
RTVSPropertyOp59
 70
     1
102
RTVSPropertyOp60
 70
     1
102
RTVSPropertyOp61
 70
     1
102
RTVSPropertyOp62
 70
     1
  0
XRECORD
  5
BB7C
102
{ACAD_REACTORS
330
BB7B
102
}
330
BB7B
100
AcDbXrecord
280
     1
102
RTVSPost2010Prop28
280
     0
102
RTVSPost2010PropOp28
 70
     1
102
RTVSPost2010Prop29
280
     1
102
RTVSPost2010PropOp29
 70
     1
102
RTVSPost2010Prop30
280
     1
102
RTVSPost2010PropOp30
 70
     1
102
RTVSPost2010Prop31
280
     0
102
RTVSPost2010PropOp31
 70
     1
102
RTVSPost2010Prop32
280
     0
102
RTVSPost2010PropOp32
 70
     1
102
RTVSPost2010Prop33
280
     0
102
RTVSPost2010PropOp33
 70
     1
102
RTVSPost2010Prop34
280
     0
102
RTVSPost2010PropOp34
 70
     1
102
RTVSPost2010Prop35
280
     0
102
RTVSPost2010PropOp35
 70
     1
102
RTVSPost2010Prop36
280
     0
102
RTVSPost2010PropOp36
 70
     1
102
RTVSPost2010Prop37
 90
       50
102
RTVSPost2010PropOp37
 70
     1
102
RTVSPost2010Prop38
140
0.0
102
RTVSPost2010PropOp38
 70
     1
102
RTVSPost2010Prop39
140
1.0
102
RTVSPost2010PropOp39
 70
     1
102
RTVSPost2010Prop40
 90
        0
102
RTVSPost2010PropOp40
 70
     1
102
RTVSPost2010Prop41ColorIndex
 90
       18
102
RTVSPost2010Prop41ColorRGB
 90
        0
102
RTVSPost2010PropOp41
 70
     1
102
RTVSPost2010Prop42
 90
       50
102
RTVSPost2010PropOp42
 70
     1
102
RTVSPost2010Prop43
 90
        3
102
RTVSPost2010PropOp43
 70
     1
102
RTVSPost2010Prop44ColorIndex
 90
        5
102
RTVSPost2010Prop44ColorRGB
 90
      255
102
RTVSPost2010PropOp44
 70
     1
102
RTVSPost2010Prop45
280
     0
102
RTVSPost2010PropOp45
 70
     1
102
RTVSPost2010Prop46
 90
       50
102
RTVSPost2010PropOp46
 70
     1
102
RTVSPost2010Prop47
 90
       50
102
RTVSPost2010PropOp47
 70
     1
102
RTVSPost2010Prop48
 90
       50
102
RTVSPost2010PropOp48
 70
     1
102
RTVSPost2010Prop49
280
     0
102
RTVSPost2010PropOp49
 70
     1
102
RTVSPost2010Prop50
 90
       50
102
RTVSPost2010PropOp50
 70
     1
102
RTVSPost2010Prop51ColorIndex
 90
      256
102
RTVSPost2010Prop51ColorRGB
 90
-16777216
102
RTVSPost2010PropOp51
 70
     0
102
RTVSPost2010Prop52
140
1.0
102
RTVSPost2010PropOp52
 70
     0
102
RTVSPost2010Prop53
 90
        2
102
RTVSPost2010PropOp53
 70
     1
102
RTVSPost2010Prop54
  1
strokes_ogs.tif
102
RTVSPost2010PropOp54
 70
     1
102
RTVSPost2010Prop55
280
     0
102
RTVSPost2010PropOp55
 70
     1
102
RTVSPost2010Prop56
140
1.0
102
RTVSPost2010PropOp56
 70
     1
102
RTVSPost2010Prop57
140
1.0
102
RTVSPost2010PropOp57
 70
     1
102
RTVSPropertyOp0
 70
     1
102
RTVSPropertyOp1
 70
     1
102
RTVSPropertyOp2
 70
     1
102
RTVSPropertyOp3
 70
     1
102
RTVSPropertyOp4
 70
     1
102
RTVSPropertyOp5
 70
     1
102
RTVSPropertyOp6
 70
     1
102
RTVSPropertyOp7
 70
     1
102
RTVSPropertyOp8
 70
     1
102
RTVSPropertyOp9
 70
     1
102
RTVSPropertyOp10
 70
     1
102
RTVSPropertyOp11
 70
     1
102
RTVSPropertyOp12
 70
     1
102
RTVSPropertyOp13
 70
     1
102
RTVSPropertyOp14
 70
     1
102
RTVSPropertyOp15
 70
     1
102
RTVSPropertyOp16
 70
     1
102
RTVSPropertyOp17
 70
     1
102
RTVSPropertyOp18
 70
     1
102
RTVSPropertyOp19
 70
     1
102
RTVSPropertyOp20
 70
     1
102
RTVSPropertyOp21
 70
     1
102
RTVSPropertyOp22
 70
     1
102
RTVSPropertyOp23
 70
     1
102
RTVSPropertyOp24
 70
     1
102
RTVSPropertyOp25
 70
     1
102
RTVSPropertyOp26
 70
     1
102
RTVSPropertyOp27
 70
     1
102
RTVSPropertyOp28
 70
     1
102
RTVSPropertyOp29
 70
     1
102
RTVSPropertyOp30
 70
     1
102
RTVSPropertyOp31
 70
     1
102
RTVSPropertyOp32
 70
     1
102
RTVSPropertyOp33
 70
     1
102
RTVSPropertyOp34
 70
     1
102
RTVSPropertyOp35
 70
     1
102
RTVSPropertyOp36
 70
     1
102
RTVSPropertyOp37
 70
     1
102
RTVSPropertyOp38
 70
     1
102
RTVSPropertyOp39
 70
     1
102
RTVSPropertyOp40
 70
     1
102
RTVSPropertyOp41
 70
     1
102
RTVSPropertyOp42
 70
     1
102
RTVSPropertyOp43
 70
     1
102
RTVSPropertyOp44
 70
     1
102
RTVSPropertyOp45
 70
     1
102
RTVSPropertyOp46
 70
     1
102
RTVSPropertyOp47
 70
     1
102
RTVSPropertyOp48
 70
     1
102
RTVSPropertyOp49
 70
     1
102
RTVSPropertyOp50
 70
     1
102
RTVSPropertyOp51
 70
     0
102
RTVSPropertyOp52
 70
     0
102
RTVSPropertyOp53
 70
     1
102
RTVSPropertyOp54
 70
     1
102
RTVSPropertyOp55
 70
     1
102
RTVSPropertyOp56
 70
     1
102
RTVSPropertyOp57
 70
     1
102
RTVSPropertyOp58
 70
     1
102
RTVSPropertyOp59
 70
     1
102
RTVSPropertyOp60
 70
     1
102
RTVSPropertyOp61
 70
     1
102
RTVSPropertyOp62
 70
     1
  0
XRECORD
  5
BB8A
102
{ACAD_REACTORS
330
BB89
102
}
330
BB89
100
AcDbXrecord
280
     1
102
RTVSPost2010Prop28
280
     0
102
RTVSPost2010PropOp28
 70
     1
102
RTVSPost2010Prop29
280
     1
102
RTVSPost2010PropOp29
 70
     1
102
RTVSPost2010Prop30
280
     1
102
RTVSPost2010PropOp30
 70
     1
102
RTVSPost2010Prop31
280
     0
102
RTVSPost2010PropOp31
 70
     1
102
RTVSPost2010Prop32
280
     0
102
RTVSPost2010PropOp32
 70
     1
102
RTVSPost2010Prop33
280
     0
102
RTVSPost2010PropOp33
 70
     1
102
RTVSPost2010Prop34
280
     0
102
RTVSPost2010PropOp34
 70
     1
102
RTVSPost2010Prop35
280
     0
102
RTVSPost2010PropOp35
 70
     1
102
RTVSPost2010Prop36
280
     0
102
RTVSPost2010PropOp36
 70
     1
102
RTVSPost2010Prop37
 90
       50
102
RTVSPost2010PropOp37
 70
     1
102
RTVSPost2010Prop38
140
0.0
102
RTVSPost2010PropOp38
 70
     1
102
RTVSPost2010Prop39
140
1.0
102
RTVSPost2010PropOp39
 70
     1
102
RTVSPost2010Prop40
 90
        0
102
RTVSPost2010PropOp40
 70
     1
102
RTVSPost2010Prop41ColorIndex
 90
       18
102
RTVSPost2010Prop41ColorRGB
 90
        0
102
RTVSPost2010PropOp41
 70
     1
102
RTVSPost2010Prop42
 90
       50
102
RTVSPost2010PropOp42
 70
     1
102
RTVSPost2010Prop43
 90
        3
102
RTVSPost2010PropOp43
 70
     1
102
RTVSPost2010Prop44ColorIndex
 90
        5
102
RTVSPost2010Prop44ColorRGB
 90
      255
102
RTVSPost2010PropOp44
 70
     1
102
RTVSPost2010Prop45
280
     0
102
RTVSPost2010PropOp45
 70
     1
102
RTVSPost2010Prop46
 90
       50
102
RTVSPost2010PropOp46
 70
     1
102
RTVSPost2010Prop47
 90
       50
102
RTVSPost2010PropOp47
 70
     1
102
RTVSPost2010Prop48
 90
       50
102
RTVSPost2010PropOp48
 70
     1
102
RTVSPost2010Prop49
280
     0
102
RTVSPost2010PropOp49
 70
     1
102
RTVSPost2010Prop50
 90
       50
102
RTVSPost2010PropOp50
 70
     1
102
RTVSPost2010Prop51ColorIndex
 90
      256
102
RTVSPost2010Prop51ColorRGB
 90
-16777216
102
RTVSPost2010PropOp51
 70
     0
102
RTVSPost2010Prop52
140
1.0
102
RTVSPost2010PropOp52
 70
     0
102
RTVSPost2010Prop53
 90
        2
102
RTVSPost2010PropOp53
 70
     1
102
RTVSPost2010Prop54
  1
strokes_ogs.tif
102
RTVSPost2010PropOp54
 70
     1
102
RTVSPost2010Prop55
280
     0
102
RTVSPost2010PropOp55
 70
     1
102
RTVSPost2010Prop56
140
1.0
102
RTVSPost2010PropOp56
 70
     1
102
RTVSPost2010Prop57
140
1.0
102
RTVSPost2010PropOp57
 70
     1
102
RTVSPropertyOp0
 70
     1
102
RTVSPropertyOp1
 70
     1
102
RTVSPropertyOp2
 70
     1
102
RTVSPropertyOp3
 70
     1
102
RTVSPropertyOp4
 70
     1
102
RTVSPropertyOp5
 70
     1
102
RTVSPropertyOp6
 70
     1
102
RTVSPropertyOp7
 70
     1
102
RTVSPropertyOp8
 70
     1
102
RTVSPropertyOp9
 70
     1
102
RTVSPropertyOp10
 70
     1
102
RTVSPropertyOp11
 70
     1
102
RTVSPropertyOp12
 70
     1
102
RTVSPropertyOp13
 70
     1
102
RTVSPropertyOp14
 70
     1
102
RTVSPropertyOp15
 70
     1
102
RTVSPropertyOp16
 70
     1
102
RTVSPropertyOp17
 70
     1
102
RTVSPropertyOp18
 70
     1
102
RTVSPropertyOp19
 70
     1
102
RTVSPropertyOp20
 70
     1
102
RTVSPropertyOp21
 70
     1
102
RTVSPropertyOp22
 70
     1
102
RTVSPropertyOp23
 70
     1
102
RTVSPropertyOp24
 70
     1
102
RTVSPropertyOp25
 70
     1
102
RTVSPropertyOp26
 70
     1
102
RTVSPropertyOp27
 70
     1
102
RTVSPropertyOp28
 70
     1
102
RTVSPropertyOp29
 70
     1
102
RTVSPropertyOp30
 70
     1
102
RTVSPropertyOp31
 70
     1
102
RTVSPropertyOp32
 70
     1
102
RTVSPropertyOp33
 70
     1
102
RTVSPropertyOp34
 70
     1
102
RTVSPropertyOp35
 70
     1
102
RTVSPropertyOp36
 70
     1
102
RTVSPropertyOp37
 70
     1
102
RTVSPropertyOp38
 70
     1
102
RTVSPropertyOp39
 70
     1
102
RTVSPropertyOp40
 70
     1
102
RTVSPropertyOp41
 70
     1
102
RTVSPropertyOp42
 70
     1
102
RTVSPropertyOp43
 70
     1
102
RTVSPropertyOp44
 70
     1
102
RTVSPropertyOp45
 70
     1
102
RTVSPropertyOp46
 70
     1
102
RTVSPropertyOp47
 70
     1
102
RTVSPropertyOp48
 70
     1
102
RTVSPropertyOp49
 70
     1
102
RTVSPropertyOp50
 70
     1
102
RTVSPropertyOp51
 70
     0
102
RTVSPropertyOp52
 70
     0
102
RTVSPropertyOp53
 70
     1
102
RTVSPropertyOp54
 70
     1
102
RTVSPropertyOp55
 70
     1
102
RTVSPropertyOp56
 70
     1
102
RTVSPropertyOp57
 70
     1
102
RTVSPropertyOp58
 70
     1
102
RTVSPropertyOp59
 70
     1
102
RTVSPropertyOp60
 70
     1
102
RTVSPropertyOp61
 70
     1
102
RTVSPropertyOp62
 70
     1
  0
XRECORD
  5
BB92
102
{ACAD_REACTORS
330
BB91
102
}
330
BB91
100
AcDbXrecord
280
     1
102
RTVSPost2010Prop28
280
     0
102
RTVSPost2010PropOp28
 70
     1
102
RTVSPost2010Prop29
280
     1
102
RTVSPost2010PropOp29
 70
     1
102
RTVSPost2010Prop30
280
     1
102
RTVSPost2010PropOp30
 70
     1
102
RTVSPost2010Prop31
280
     0
102
RTVSPost2010PropOp31
 70
     1
102
RTVSPost2010Prop32
280
     0
102
RTVSPost2010PropOp32
 70
     1
102
RTVSPost2010Prop33
280
     0
102
RTVSPost2010PropOp33
 70
     1
102
RTVSPost2010Prop34
280
     0
102
RTVSPost2010PropOp34
 70
     1
102
RTVSPost2010Prop35
280
     0
102
RTVSPost2010PropOp35
 70
     1
102
RTVSPost2010Prop36
280
     0
102
RTVSPost2010PropOp36
 70
     1
102
RTVSPost2010Prop37
 90
       50
102
RTVSPost2010PropOp37
 70
     1
102
RTVSPost2010Prop38
140
0.0
102
RTVSPost2010PropOp38
 70
     1
102
RTVSPost2010Prop39
140
1.0
102
RTVSPost2010PropOp39
 70
     1
102
RTVSPost2010Prop40
 90
        0
102
RTVSPost2010PropOp40
 70
     1
102
RTVSPost2010Prop41ColorIndex
 90
       18
102
RTVSPost2010Prop41ColorRGB
 90
        0
102
RTVSPost2010PropOp41
 70
     1
102
RTVSPost2010Prop42
 90
       50
102
RTVSPost2010PropOp42
 70
     1
102
RTVSPost2010Prop43
 90
        3
102
RTVSPost2010PropOp43
 70
     1
102
RTVSPost2010Prop44ColorIndex
 90
        5
102
RTVSPost2010Prop44ColorRGB
 90
      255
102
RTVSPost2010PropOp44
 70
     1
102
RTVSPost2010Prop45
280
     0
102
RTVSPost2010PropOp45
 70
     1
102
RTVSPost2010Prop46
 90
       50
102
RTVSPost2010PropOp46
 70
     1
102
RTVSPost2010Prop47
 90
       50
102
RTVSPost2010PropOp47
 70
     1
102
RTVSPost2010Prop48
 90
       50
102
RTVSPost2010PropOp48
 70
     1
102
RTVSPost2010Prop49
280
     0
102
RTVSPost2010PropOp49
 70
     1
102
RTVSPost2010Prop50
 90
       50
102
RTVSPost2010PropOp50
 70
     1
102
RTVSPost2010Prop51ColorIndex
 90
      256
102
RTVSPost2010Prop51ColorRGB
 90
-16777216
102
RTVSPost2010PropOp51
 70
     0
102
RTVSPost2010Prop52
140
1.0
102
RTVSPost2010PropOp52
 70
     0
102
RTVSPost2010Prop53
 90
        2
102
RTVSPost2010PropOp53
 70
     1
102
RTVSPost2010Prop54
  1
strokes_ogs.tif
102
RTVSPost2010PropOp54
 70
     1
102
RTVSPost2010Prop55
280
     0
102
RTVSPost2010PropOp55
 70
     1
102
RTVSPost2010Prop56
140
1.0
102
RTVSPost2010PropOp56
 70
     1
102
RTVSPost2010Prop57
140
1.0
102
RTVSPost2010PropOp57
 70
     1
102
RTVSPropertyOp0
 70
     1
102
RTVSPropertyOp1
 70
     1
102
RTVSPropertyOp2
 70
     1
102
RTVSPropertyOp3
 70
     1
102
RTVSPropertyOp4
 70
     1
102
RTVSPropertyOp5
 70
     1
102
RTVSPropertyOp6
 70
     1
102
RTVSPropertyOp7
 70
     1
102
RTVSPropertyOp8
 70
     1
102
RTVSPropertyOp9
 70
     1
102
RTVSPropertyOp10
 70
     1
102
RTVSPropertyOp11
 70
     1
102
RTVSPropertyOp12
 70
     1
102
RTVSPropertyOp13
 70
     1
102
RTVSPropertyOp14
 70
     1
102
RTVSPropertyOp15
 70
     1
102
RTVSPropertyOp16
 70
     1
102
RTVSPropertyOp17
 70
     1
102
RTVSPropertyOp18
 70
     1
102
RTVSPropertyOp19
 70
     1
102
RTVSPropertyOp20
 70
     1
102
RTVSPropertyOp21
 70
     1
102
RTVSPropertyOp22
 70
     1
102
RTVSPropertyOp23
 70
     1
102
RTVSPropertyOp24
 70
     1
102
RTVSPropertyOp25
 70
     1
102
RTVSPropertyOp26
 70
     1
102
RTVSPropertyOp27
 70
     1
102
RTVSPropertyOp28
 70
     1
102
RTVSPropertyOp29
 70
     1
102
RTVSPropertyOp30
 70
     1
102
RTVSPropertyOp31
 70
     1
102
RTVSPropertyOp32
 70
     1
102
RTVSPropertyOp33
 70
     1
102
RTVSPropertyOp34
 70
     1
102
RTVSPropertyOp35
 70
     1
102
RTVSPropertyOp36
 70
     1
102
RTVSPropertyOp37
 70
     1
102
RTVSPropertyOp38
 70
     1
102
RTVSPropertyOp39
 70
     1
102
RTVSPropertyOp40
 70
     1
102
RTVSPropertyOp41
 70
     1
102
RTVSPropertyOp42
 70
     1
102
RTVSPropertyOp43
 70
     1
102
RTVSPropertyOp44
 70
     1
102
RTVSPropertyOp45
 70
     1
102
RTVSPropertyOp46
 70
     1
102
RTVSPropertyOp47
 70
     1
102
RTVSPropertyOp48
 70
     1
102
RTVSPropertyOp49
 70
     1
102
RTVSPropertyOp50
 70
     1
102
RTVSPropertyOp51
 70
     0
102
RTVSPropertyOp52
 70
     0
102
RTVSPropertyOp53
 70
     1
102
RTVSPropertyOp54
 70
     1
102
RTVSPropertyOp55
 70
     1
102
RTVSPropertyOp56
 70
     1
102
RTVSPropertyOp57
 70
     1
102
RTVSPropertyOp58
 70
     1
102
RTVSPropertyOp59
 70
     1
102
RTVSPropertyOp60
 70
     1
102
RTVSPropertyOp61
 70
     1
102
RTVSPropertyOp62
 70
     1
  0
XRECORD
  5
BB84
102
{ACAD_REACTORS
330
BB83
102
}
330
BB83
100
AcDbXrecord
280
     1
102
RTVSPost2010Prop28
280
     0
102
RTVSPost2010PropOp28
 70
     1
102
RTVSPost2010Prop29
280
     1
102
RTVSPost2010PropOp29
 70
     1
102
RTVSPost2010Prop30
280
     1
102
RTVSPost2010PropOp30
 70
     1
102
RTVSPost2010Prop31
280
     0
102
RTVSPost2010PropOp31
 70
     1
102
RTVSPost2010Prop32
280
     0
102
RTVSPost2010PropOp32
 70
     1
102
RTVSPost2010Prop33
280
     0
102
RTVSPost2010PropOp33
 70
     1
102
RTVSPost2010Prop34
280
     0
102
RTVSPost2010PropOp34
 70
     1
102
RTVSPost2010Prop35
280
     0
102
RTVSPost2010PropOp35
 70
     1
102
RTVSPost2010Prop36
280
     0
102
RTVSPost2010PropOp36
 70
     1
102
RTVSPost2010Prop37
 90
       50
102
RTVSPost2010PropOp37
 70
     1
102
RTVSPost2010Prop38
140
0.0
102
RTVSPost2010PropOp38
 70
     1
102
RTVSPost2010Prop39
140
1.0
102
RTVSPost2010PropOp39
 70
     1
102
RTVSPost2010Prop40
 90
        0
102
RTVSPost2010PropOp40
 70
     1
102
RTVSPost2010Prop41ColorIndex
 90
       18
102
RTVSPost2010Prop41ColorRGB
 90
        0
102
RTVSPost2010PropOp41
 70
     1
102
RTVSPost2010Prop42
 90
       50
102
RTVSPost2010PropOp42
 70
     1
102
RTVSPost2010Prop43
 90
        3
102
RTVSPost2010PropOp43
 70
     1
102
RTVSPost2010Prop44ColorIndex
 90
        5
102
RTVSPost2010Prop44ColorRGB
 90
      255
102
RTVSPost2010PropOp44
 70
     1
102
RTVSPost2010Prop45
280
     0
102
RTVSPost2010PropOp45
 70
     1
102
RTVSPost2010Prop46
 90
       50
102
RTVSPost2010PropOp46
 70
     1
102
RTVSPost2010Prop47
 90
       50
102
RTVSPost2010PropOp47
 70
     1
102
RTVSPost2010Prop48
 90
       50
102
RTVSPost2010PropOp48
 70
     1
102
RTVSPost2010Prop49
280
     0
102
RTVSPost2010PropOp49
 70
     1
102
RTVSPost2010Prop50
 90
       50
102
RTVSPost2010PropOp50
 70
     1
102
RTVSPost2010Prop51ColorIndex
 90
      256
102
RTVSPost2010Prop51ColorRGB
 90
-16777216
102
RTVSPost2010PropOp51
 70
     0
102
RTVSPost2010Prop52
140
1.0
102
RTVSPost2010PropOp52
 70
     0
102
RTVSPost2010Prop53
 90
        2
102
RTVSPost2010PropOp53
 70
     1
102
RTVSPost2010Prop54
  1
strokes_ogs.tif
102
RTVSPost2010PropOp54
 70
     1
102
RTVSPost2010Prop55
280
     0
102
RTVSPost2010PropOp55
 70
     1
102
RTVSPost2010Prop56
140
1.0
102
RTVSPost2010PropOp56
 70
     1
102
RTVSPost2010Prop57
140
1.0
102
RTVSPost2010PropOp57
 70
     1
102
RTVSPropertyOp0
 70
     1
102
RTVSPropertyOp1
 70
     1
102
RTVSPropertyOp2
 70
     1
102
RTVSPropertyOp3
 70
     1
102
RTVSPropertyOp4
 70
     1
102
RTVSPropertyOp5
 70
     1
102
RTVSPropertyOp6
 70
     1
102
RTVSPropertyOp7
 70
     1
102
RTVSPropertyOp8
 70
     1
102
RTVSPropertyOp9
 70
     1
102
RTVSPropertyOp10
 70
     1
102
RTVSPropertyOp11
 70
     1
102
RTVSPropertyOp12
 70
     1
102
RTVSPropertyOp13
 70
     1
102
RTVSPropertyOp14
 70
     1
102
RTVSPropertyOp15
 70
     1
102
RTVSPropertyOp16
 70
     1
102
RTVSPropertyOp17
 70
     1
102
RTVSPropertyOp18
 70
     1
102
RTVSPropertyOp19
 70
     1
102
RTVSPropertyOp20
 70
     1
102
RTVSPropertyOp21
 70
     1
102
RTVSPropertyOp22
 70
     1
102
RTVSPropertyOp23
 70
     1
102
RTVSPropertyOp24
 70
     1
102
RTVSPropertyOp25
 70
     1
102
RTVSPropertyOp26
 70
     1
102
RTVSPropertyOp27
 70
     1
102
RTVSPropertyOp28
 70
     1
102
RTVSPropertyOp29
 70
     1
102
RTVSPropertyOp30
 70
     1
102
RTVSPropertyOp31
 70
     1
102
RTVSPropertyOp32
 70
     1
102
RTVSPropertyOp33
 70
     1
102
RTVSPropertyOp34
 70
     1
102
RTVSPropertyOp35
 70
     1
102
RTVSPropertyOp36
 70
     1
102
RTVSPropertyOp37
 70
     1
102
RTVSPropertyOp38
 70
     1
102
RTVSPropertyOp39
 70
     1
102
RTVSPropertyOp40
 70
     1
102
RTVSPropertyOp41
 70
     1
102
RTVSPropertyOp42
 70
     1
102
RTVSPropertyOp43
 70
     1
102
RTVSPropertyOp44
 70
     1
102
RTVSPropertyOp45
 70
     1
102
RTVSPropertyOp46
 70
     1
102
RTVSPropertyOp47
 70
     1
102
RTVSPropertyOp48
 70
     1
102
RTVSPropertyOp49
 70
     1
102
RTVSPropertyOp50
 70
     1
102
RTVSPropertyOp51
 70
     0
102
RTVSPropertyOp52
 70
     0
102
RTVSPropertyOp53
 70
     1
102
RTVSPropertyOp54
 70
     1
102
RTVSPropertyOp55
 70
     1
102
RTVSPropertyOp56
 70
     1
102
RTVSPropertyOp57
 70
     1
102
RTVSPropertyOp58
 70
     1
102
RTVSPropertyOp59
 70
     1
102
RTVSPropertyOp60
 70
     1
102
RTVSPropertyOp61
 70
     1
102
RTVSPropertyOp62
 70
     1
  0
XRECORD
  5
BB88
102
{ACAD_REACTORS
330
BB87
102
}
330
BB87
100
AcDbXrecord
280
     1
102
RTVSPost2010Prop28
280
     0
102
RTVSPost2010PropOp28
 70
     1
102
RTVSPost2010Prop29
280
     1
102
RTVSPost2010PropOp29
 70
     1
102
RTVSPost2010Prop30
280
     1
102
RTVSPost2010PropOp30
 70
     1
102
RTVSPost2010Prop31
280
     0
102
RTVSPost2010PropOp31
 70
     1
102
RTVSPost2010Prop32
280
     0
102
RTVSPost2010PropOp32
 70
     1
102
RTVSPost2010Prop33
280
     0
102
RTVSPost2010PropOp33
 70
     1
102
RTVSPost2010Prop34
280
     0
102
RTVSPost2010PropOp34
 70
     1
102
RTVSPost2010Prop35
280
     0
102
RTVSPost2010PropOp35
 70
     1
102
RTVSPost2010Prop36
280
     0
102
RTVSPost2010PropOp36
 70
     1
102
RTVSPost2010Prop37
 90
       50
102
RTVSPost2010PropOp37
 70
     1
102
RTVSPost2010Prop38
140
0.0
102
RTVSPost2010PropOp38
 70
     1
102
RTVSPost2010Prop39
140
1.0
102
RTVSPost2010PropOp39
 70
     1
102
RTVSPost2010Prop40
 90
        0
102
RTVSPost2010PropOp40
 70
     1
102
RTVSPost2010Prop41ColorIndex
 90
       18
102
RTVSPost2010Prop41ColorRGB
 90
        0
102
RTVSPost2010PropOp41
 70
     1
102
RTVSPost2010Prop42
 90
       50
102
RTVSPost2010PropOp42
 70
     1
102
RTVSPost2010Prop43
 90
        3
102
RTVSPost2010PropOp43
 70
     1
102
RTVSPost2010Prop44ColorIndex
 90
        5
102
RTVSPost2010Prop44ColorRGB
 90
      255
102
RTVSPost2010PropOp44
 70
     1
102
RTVSPost2010Prop45
280
     0
102
RTVSPost2010PropOp45
 70
     1
102
RTVSPost2010Prop46
 90
       50
102
RTVSPost2010PropOp46
 70
     1
102
RTVSPost2010Prop47
 90
       50
102
RTVSPost2010PropOp47
 70
     1
102
RTVSPost2010Prop48
 90
       50
102
RTVSPost2010PropOp48
 70
     1
102
RTVSPost2010Prop49
280
     0
102
RTVSPost2010PropOp49
 70
     1
102
RTVSPost2010Prop50
 90
       50
102
RTVSPost2010PropOp50
 70
     1
102
RTVSPost2010Prop51ColorIndex
 90
      256
102
RTVSPost2010Prop51ColorRGB
 90
-16777216
102
RTVSPost2010PropOp51
 70
     0
102
RTVSPost2010Prop52
140
1.0
102
RTVSPost2010PropOp52
 70
     0
102
RTVSPost2010Prop53
 90
        2
102
RTVSPost2010PropOp53
 70
     1
102
RTVSPost2010Prop54
  1
strokes_ogs.tif
102
RTVSPost2010PropOp54
 70
     1
102
RTVSPost2010Prop55
280
     0
102
RTVSPost2010PropOp55
 70
     1
102
RTVSPost2010Prop56
140
1.0
102
RTVSPost2010PropOp56
 70
     1
102
RTVSPost2010Prop57
140
1.0
102
RTVSPost2010PropOp57
 70
     1
102
RTVSPropertyOp0
 70
     1
102
RTVSPropertyOp1
 70
     1
102
RTVSPropertyOp2
 70
     1
102
RTVSPropertyOp3
 70
     1
102
RTVSPropertyOp4
 70
     1
102
RTVSPropertyOp5
 70
     1
102
RTVSPropertyOp6
 70
     1
102
RTVSPropertyOp7
 70
     1
102
RTVSPropertyOp8
 70
     1
102
RTVSPropertyOp9
 70
     1
102
RTVSPropertyOp10
 70
     1
102
RTVSPropertyOp11
 70
     1
102
RTVSPropertyOp12
 70
     1
102
RTVSPropertyOp13
 70
     1
102
RTVSPropertyOp14
 70
     1
102
RTVSPropertyOp15
 70
     1
102
RTVSPropertyOp16
 70
     1
102
RTVSPropertyOp17
 70
     1
102
RTVSPropertyOp18
 70
     1
102
RTVSPropertyOp19
 70
     1
102
RTVSPropertyOp20
 70
     1
102
RTVSPropertyOp21
 70
     1
102
RTVSPropertyOp22
 70
     1
102
RTVSPropertyOp23
 70
     1
102
RTVSPropertyOp24
 70
     1
102
RTVSPropertyOp25
 70
     1
102
RTVSPropertyOp26
 70
     1
102
RTVSPropertyOp27
 70
     1
102
RTVSPropertyOp28
 70
     1
102
RTVSPropertyOp29
 70
     1
102
RTVSPropertyOp30
 70
     1
102
RTVSPropertyOp31
 70
     1
102
RTVSPropertyOp32
 70
     1
102
RTVSPropertyOp33
 70
     1
102
RTVSPropertyOp34
 70
     1
102
RTVSPropertyOp35
 70
     1
102
RTVSPropertyOp36
 70
     1
102
RTVSPropertyOp37
 70
     1
102
RTVSPropertyOp38
 70
     1
102
RTVSPropertyOp39
 70
     1
102
RTVSPropertyOp40
 70
     1
102
RTVSPropertyOp41
 70
     1
102
RTVSPropertyOp42
 70
     1
102
RTVSPropertyOp43
 70
     1
102
RTVSPropertyOp44
 70
     1
102
RTVSPropertyOp45
 70
     1
102
RTVSPropertyOp46
 70
     1
102
RTVSPropertyOp47
 70
     1
102
RTVSPropertyOp48
 70
     1
102
RTVSPropertyOp49
 70
     1
102
RTVSPropertyOp50
 70
     1
102
RTVSPropertyOp51
 70
     0
102
RTVSPropertyOp52
 70
     0
102
RTVSPropertyOp53
 70
     1
102
RTVSPropertyOp54
 70
     1
102
RTVSPropertyOp55
 70
     1
102
RTVSPropertyOp56
 70
     1
102
RTVSPropertyOp57
 70
     1
102
RTVSPropertyOp58
 70
     1
102
RTVSPropertyOp59
 70
     1
102
RTVSPropertyOp60
 70
     1
102
RTVSPropertyOp61
 70
     1
102
RTVSPropertyOp62
 70
     1
  0
XRECORD
  5
BBA2
102
{ACAD_REACTORS
330
BBA1
102
}
330
BBA1
100
AcDbXrecord
280
     1
102
RTVSPost2010Prop28
280
     0
102
RTVSPost2010PropOp28
 70
     1
102
RTVSPost2010Prop29
280
     1
102
RTVSPost2010PropOp29
 70
     1
102
RTVSPost2010Prop30
280
     1
102
RTVSPost2010PropOp30
 70
     1
102
RTVSPost2010Prop31
280
     0
102
RTVSPost2010PropOp31
 70
     1
102
RTVSPost2010Prop32
280
     0
102
RTVSPost2010PropOp32
 70
     1
102
RTVSPost2010Prop33
280
     0
102
RTVSPost2010PropOp33
 70
     1
102
RTVSPost2010Prop34
280
     0
102
RTVSPost2010PropOp34
 70
     1
102
RTVSPost2010Prop35
280
     0
102
RTVSPost2010PropOp35
 70
     1
102
RTVSPost2010Prop36
280
     0
102
RTVSPost2010PropOp36
 70
     1
102
RTVSPost2010Prop37
 90
       50
102
RTVSPost2010PropOp37
 70
     0
102
RTVSPost2010Prop38
140
0.0
102
RTVSPost2010PropOp38
 70
     0
102
RTVSPost2010Prop39
140
1.0
102
RTVSPost2010PropOp39
 70
     0
102
RTVSPost2010Prop40
 90
        0
102
RTVSPost2010PropOp40
 70
     0
102
RTVSPost2010Prop41ColorIndex
 90
       18
102
RTVSPost2010Prop41ColorRGB
 90
        0
102
RTVSPost2010PropOp41
 70
     0
102
RTVSPost2010Prop42
 90
       50
102
RTVSPost2010PropOp42
 70
     0
102
RTVSPost2010Prop43
 90
        3
102
RTVSPost2010PropOp43
 70
     0
102
RTVSPost2010Prop44ColorIndex
 90
        5
102
RTVSPost2010Prop44ColorRGB
 90
      255
102
RTVSPost2010PropOp44
 70
     0
102
RTVSPost2010Prop45
280
     0
102
RTVSPost2010PropOp45
 70
     1
102
RTVSPost2010Prop46
 90
       50
102
RTVSPost2010PropOp46
 70
     0
102
RTVSPost2010Prop47
 90
       50
102
RTVSPost2010PropOp47
 70
     0
102
RTVSPost2010Prop48
 90
       50
102
RTVSPost2010PropOp48
 70
     0
102
RTVSPost2010Prop49
280
     0
102
RTVSPost2010PropOp49
 70
     1
102
RTVSPost2010Prop50
 90
       50
102
RTVSPost2010PropOp50
 70
     0
102
RTVSPost2010Prop51ColorIndex
 90
      256
102
RTVSPost2010Prop51ColorRGB
 90
-16777216
102
RTVSPost2010PropOp51
 70
     0
102
RTVSPost2010Prop52
140
1.0
102
RTVSPost2010PropOp52
 70
     0
102
RTVSPost2010Prop53
 90
        2
102
RTVSPost2010PropOp53
 70
     0
102
RTVSPost2010Prop54
  1
strokes_ogs.tif
102
RTVSPost2010PropOp54
 70
     0
102
RTVSPost2010Prop55
280
     0
102
RTVSPost2010PropOp55
 70
     1
102
RTVSPost2010Prop56
140
1.0
102
RTVSPost2010PropOp56
 70
     0
102
RTVSPost2010Prop57
140
1.0
102
RTVSPost2010PropOp57
 70
     0
102
RTVSPropertyOp0
 70
     0
102
RTVSPropertyOp1
 70
     0
102
RTVSPropertyOp2
 70
     0
102
RTVSPropertyOp3
 70
     0
102
RTVSPropertyOp4
 70
     0
102
RTVSPropertyOp5
 70
     0
102
RTVSPropertyOp6
 70
     0
102
RTVSPropertyOp7
 70
     0
102
RTVSPropertyOp8
 70
     0
102
RTVSPropertyOp9
 70
     0
102
RTVSPropertyOp10
 70
     0
102
RTVSPropertyOp11
 70
     0
102
RTVSPropertyOp12
 70
     0
102
RTVSPropertyOp13
 70
     0
102
RTVSPropertyOp14
 70
     2
102
RTVSPropertyOp15
 70
     0
102
RTVSPropertyOp16
 70
     0
102
RTVSPropertyOp17
 70
     0
102
RTVSPropertyOp18
 70
     0
102
RTVSPropertyOp19
 70
     0
102
RTVSPropertyOp20
 70
     0
102
RTVSPropertyOp21
 70
     0
102
RTVSPropertyOp22
 70
     0
102
RTVSPropertyOp23
 70
     0
102
RTVSPropertyOp24
 70
     0
102
RTVSPropertyOp25
 70
     0
102
RTVSPropertyOp26
 70
     0
102
RTVSPropertyOp27
 70
     0
102
RTVSPropertyOp28
 70
     1
102
RTVSPropertyOp29
 70
     1
102
RTVSPropertyOp30
 70
     1
102
RTVSPropertyOp31
 70
     1
102
RTVSPropertyOp32
 70
     1
102
RTVSPropertyOp33
 70
     1
102
RTVSPropertyOp34
 70
     1
102
RTVSPropertyOp35
 70
     1
102
RTVSPropertyOp36
 70
     1
102
RTVSPropertyOp37
 70
     0
102
RTVSPropertyOp38
 70
     0
102
RTVSPropertyOp39
 70
     0
102
RTVSPropertyOp40
 70
     0
102
RTVSPropertyOp41
 70
     0
102
RTVSPropertyOp42
 70
     0
102
RTVSPropertyOp43
 70
     0
102
RTVSPropertyOp44
 70
     0
102
RTVSPropertyOp45
 70
     1
102
RTVSPropertyOp46
 70
     0
102
RTVSPropertyOp47
 70
     0
102
RTVSPropertyOp48
 70
     0
102
RTVSPropertyOp49
 70
     1
102
RTVSPropertyOp50
 70
     0
102
RTVSPropertyOp51
 70
     0
102
RTVSPropertyOp52
 70
     0
102
RTVSPropertyOp53
 70
     0
102
RTVSPropertyOp54
 70
     0
102
RTVSPropertyOp55
 70
     1
102
RTVSPropertyOp56
 70
     0
102
RTVSPropertyOp57
 70
     0
102
RTVSPropertyOp58
 70
     0
102
RTVSPropertyOp59
 70
     0
102
RTVSPropertyOp60
 70
     0
102
RTVSPropertyOp61
 70
     0
102
RTVSPropertyOp62
 70
     0
  0
XRECORD
  5
BB90
102
{ACAD_REACTORS
330
BB8F
102
}
330
BB8F
100
AcDbXrecord
280
     1
102
RTVSPost2010Prop28
280
     0
102
RTVSPost2010PropOp28
 70
     1
102
RTVSPost2010Prop29
280
     1
102
RTVSPost2010PropOp29
 70
     1
102
RTVSPost2010Prop30
280
     1
102
RTVSPost2010PropOp30
 70
     1
102
RTVSPost2010Prop31
280
     0
102
RTVSPost2010PropOp31
 70
     1
102
RTVSPost2010Prop32
280
     0
102
RTVSPost2010PropOp32
 70
     1
102
RTVSPost2010Prop33
280
     0
102
RTVSPost2010PropOp33
 70
     1
102
RTVSPost2010Prop34
280
     0
102
RTVSPost2010PropOp34
 70
     1
102
RTVSPost2010Prop35
280
     0
102
RTVSPost2010PropOp35
 70
     1
102
RTVSPost2010Prop36
280
     0
102
RTVSPost2010PropOp36
 70
     1
102
RTVSPost2010Prop37
 90
       50
102
RTVSPost2010PropOp37
 70
     1
102
RTVSPost2010Prop38
140
0.0
102
RTVSPost2010PropOp38
 70
     1
102
RTVSPost2010Prop39
140
1.0
102
RTVSPost2010PropOp39
 70
     1
102
RTVSPost2010Prop40
 90
        0
102
RTVSPost2010PropOp40
 70
     1
102
RTVSPost2010Prop41ColorIndex
 90
       18
102
RTVSPost2010Prop41ColorRGB
 90
        0
102
RTVSPost2010PropOp41
 70
     1
102
RTVSPost2010Prop42
 90
       50
102
RTVSPost2010PropOp42
 70
     1
102
RTVSPost2010Prop43
 90
        3
102
RTVSPost2010PropOp43
 70
     1
102
RTVSPost2010Prop44ColorIndex
 90
        5
102
RTVSPost2010Prop44ColorRGB
 90
      255
102
RTVSPost2010PropOp44
 70
     1
102
RTVSPost2010Prop45
280
     0
102
RTVSPost2010PropOp45
 70
     1
102
RTVSPost2010Prop46
 90
       50
102
RTVSPost2010PropOp46
 70
     1
102
RTVSPost2010Prop47
 90
       50
102
RTVSPost2010PropOp47
 70
     1
102
RTVSPost2010Prop48
 90
       50
102
RTVSPost2010PropOp48
 70
     1
102
RTVSPost2010Prop49
280
     0
102
RTVSPost2010PropOp49
 70
     1
102
RTVSPost2010Prop50
 90
       50
102
RTVSPost2010PropOp50
 70
     1
102
RTVSPost2010Prop51ColorIndex
 90
      256
102
RTVSPost2010Prop51ColorRGB
 90
-16777216
102
RTVSPost2010PropOp51
 70
     0
102
RTVSPost2010Prop52
140
1.0
102
RTVSPost2010PropOp52
 70
     0
102
RTVSPost2010Prop53
 90
        2
102
RTVSPost2010PropOp53
 70
     1
102
RTVSPost2010Prop54
  1
strokes_ogs.tif
102
RTVSPost2010PropOp54
 70
     1
102
RTVSPost2010Prop55
280
     0
102
RTVSPost2010PropOp55
 70
     1
102
RTVSPost2010Prop56
140
1.0
102
RTVSPost2010PropOp56
 70
     1
102
RTVSPost2010Prop57
140
1.0
102
RTVSPost2010PropOp57
 70
     1
102
RTVSPropertyOp0
 70
     1
102
RTVSPropertyOp1
 70
     1
102
RTVSPropertyOp2
 70
     1
102
RTVSPropertyOp3
 70
     1
102
RTVSPropertyOp4
 70
     1
102
RTVSPropertyOp5
 70
     1
102
RTVSPropertyOp6
 70
     1
102
RTVSPropertyOp7
 70
     1
102
RTVSPropertyOp8
 70
     1
102
RTVSPropertyOp9
 70
     1
102
RTVSPropertyOp10
 70
     1
102
RTVSPropertyOp11
 70
     1
102
RTVSPropertyOp12
 70
     1
102
RTVSPropertyOp13
 70
     1
102
RTVSPropertyOp14
 70
     1
102
RTVSPropertyOp15
 70
     1
102
RTVSPropertyOp16
 70
     1
102
RTVSPropertyOp17
 70
     1
102
RTVSPropertyOp18
 70
     1
102
RTVSPropertyOp19
 70
     1
102
RTVSPropertyOp20
 70
     1
102
RTVSPropertyOp21
 70
     1
102
RTVSPropertyOp22
 70
     1
102
RTVSPropertyOp23
 70
     1
102
RTVSPropertyOp24
 70
     1
102
RTVSPropertyOp25
 70
     1
102
RTVSPropertyOp26
 70
     1
102
RTVSPropertyOp27
 70
     1
102
RTVSPropertyOp28
 70
     1
102
RTVSPropertyOp29
 70
     1
102
RTVSPropertyOp30
 70
     1
102
RTVSPropertyOp31
 70
     1
102
RTVSPropertyOp32
 70
     1
102
RTVSPropertyOp33
 70
     1
102
RTVSPropertyOp34
 70
     1
102
RTVSPropertyOp35
 70
     1
102
RTVSPropertyOp36
 70
     1
102
RTVSPropertyOp37
 70
     1
102
RTVSPropertyOp38
 70
     1
102
RTVSPropertyOp39
 70
     1
102
RTVSPropertyOp40
 70
     1
102
RTVSPropertyOp41
 70
     1
102
RTVSPropertyOp42
 70
     1
102
RTVSPropertyOp43
 70
     1
102
RTVSPropertyOp44
 70
     1
102
RTVSPropertyOp45
 70
     1
102
RTVSPropertyOp46
 70
     1
102
RTVSPropertyOp47
 70
     1
102
RTVSPropertyOp48
 70
     1
102
RTVSPropertyOp49
 70
     1
102
RTVSPropertyOp50
 70
     1
102
RTVSPropertyOp51
 70
     0
102
RTVSPropertyOp52
 70
     0
102
RTVSPropertyOp53
 70
     1
102
RTVSPropertyOp54
 70
     1
102
RTVSPropertyOp55
 70
     1
102
RTVSPropertyOp56
 70
     1
102
RTVSPropertyOp57
 70
     1
102
RTVSPropertyOp58
 70
     1
102
RTVSPropertyOp59
 70
     1
102
RTVSPropertyOp60
 70
     1
102
RTVSPropertyOp61
 70
     1
102
RTVSPropertyOp62
 70
     1
  0
XRECORD
  5
BB74
102
{ACAD_REACTORS
330
BB73
102
}
330
BB73
100
AcDbXrecord
280
     1
102
RTVSPost2010Prop28
280
     0
102
RTVSPost2010PropOp28
 70
     1
102
RTVSPost2010Prop29
280
     1
102
RTVSPost2010PropOp29
 70
     1
102
RTVSPost2010Prop30
280
     1
102
RTVSPost2010PropOp30
 70
     1
102
RTVSPost2010Prop31
280
     0
102
RTVSPost2010PropOp31
 70
     1
102
RTVSPost2010Prop32
280
     0
102
RTVSPost2010PropOp32
 70
     1
102
RTVSPost2010Prop33
280
     0
102
RTVSPost2010PropOp33
 70
     1
102
RTVSPost2010Prop34
280
     0
102
RTVSPost2010PropOp34
 70
     1
102
RTVSPost2010Prop35
280
     0
102
RTVSPost2010PropOp35
 70
     1
102
RTVSPost2010Prop36
280
     0
102
RTVSPost2010PropOp36
 70
     1
102
RTVSPost2010Prop37
 90
       50
102
RTVSPost2010PropOp37
 70
     1
102
RTVSPost2010Prop38
140
0.0
102
RTVSPost2010PropOp38
 70
     1
102
RTVSPost2010Prop39
140
1.0
102
RTVSPost2010PropOp39
 70
     1
102
RTVSPost2010Prop40
 90
        0
102
RTVSPost2010PropOp40
 70
     1
102
RTVSPost2010Prop41ColorIndex
 90
       18
102
RTVSPost2010Prop41ColorRGB
 90
        0
102
RTVSPost2010PropOp41
 70
     1
102
RTVSPost2010Prop42
 90
       50
102
RTVSPost2010PropOp42
 70
     1
102
RTVSPost2010Prop43
 90
        3
102
RTVSPost2010PropOp43
 70
     1
102
RTVSPost2010Prop44ColorIndex
 90
        5
102
RTVSPost2010Prop44ColorRGB
 90
      255
102
RTVSPost2010PropOp44
 70
     1
102
RTVSPost2010Prop45
280
     0
102
RTVSPost2010PropOp45
 70
     1
102
RTVSPost2010Prop46
 90
       50
102
RTVSPost2010PropOp46
 70
     1
102
RTVSPost2010Prop47
 90
       50
102
RTVSPost2010PropOp47
 70
     1
102
RTVSPost2010Prop48
 90
       50
102
RTVSPost2010PropOp48
 70
     1
102
RTVSPost2010Prop49
280
     0
102
RTVSPost2010PropOp49
 70
     1
102
RTVSPost2010Prop50
 90
       50
102
RTVSPost2010PropOp50
 70
     1
102
RTVSPost2010Prop51ColorIndex
 90
      256
102
RTVSPost2010Prop51ColorRGB
 90
-16777216
102
RTVSPost2010PropOp51
 70
     0
102
RTVSPost2010Prop52
140
1.0
102
RTVSPost2010PropOp52
 70
     0
102
RTVSPost2010Prop53
 90
        2
102
RTVSPost2010PropOp53
 70
     1
102
RTVSPost2010Prop54
  1
strokes_ogs.tif
102
RTVSPost2010PropOp54
 70
     1
102
RTVSPost2010Prop55
280
     0
102
RTVSPost2010PropOp55
 70
     1
102
RTVSPost2010Prop56
140
1.0
102
RTVSPost2010PropOp56
 70
     1
102
RTVSPost2010Prop57
140
1.0
102
RTVSPost2010PropOp57
 70
     1
102
RTVSPropertyOp0
 70
     1
102
RTVSPropertyOp1
 70
     1
102
RTVSPropertyOp2
 70
     1
102
RTVSPropertyOp3
 70
     1
102
RTVSPropertyOp4
 70
     1
102
RTVSPropertyOp5
 70
     1
102
RTVSPropertyOp6
 70
     1
102
RTVSPropertyOp7
 70
     1
102
RTVSPropertyOp8
 70
     1
102
RTVSPropertyOp9
 70
     1
102
RTVSPropertyOp10
 70
     1
102
RTVSPropertyOp11
 70
     1
102
RTVSPropertyOp12
 70
     1
102
RTVSPropertyOp13
 70
     1
102
RTVSPropertyOp14
 70
     1
102
RTVSPropertyOp15
 70
     1
102
RTVSPropertyOp16
 70
     1
102
RTVSPropertyOp17
 70
     1
102
RTVSPropertyOp18
 70
     1
102
RTVSPropertyOp19
 70
     1
102
RTVSPropertyOp20
 70
     1
102
RTVSPropertyOp21
 70
     1
102
RTVSPropertyOp22
 70
     1
102
RTVSPropertyOp23
 70
     1
102
RTVSPropertyOp24
 70
     1
102
RTVSPropertyOp25
 70
     1
102
RTVSPropertyOp26
 70
     1
102
RTVSPropertyOp27
 70
     1
102
RTVSPropertyOp28
 70
     1
102
RTVSPropertyOp29
 70
     1
102
RTVSPropertyOp30
 70
     1
102
RTVSPropertyOp31
 70
     1
102
RTVSPropertyOp32
 70
     1
102
RTVSPropertyOp33
 70
     1
102
RTVSPropertyOp34
 70
     1
102
RTVSPropertyOp35
 70
     1
102
RTVSPropertyOp36
 70
     1
102
RTVSPropertyOp37
 70
     1
102
RTVSPropertyOp38
 70
     1
102
RTVSPropertyOp39
 70
     1
102
RTVSPropertyOp40
 70
     1
102
RTVSPropertyOp41
 70
     1
102
RTVSPropertyOp42
 70
     1
102
RTVSPropertyOp43
 70
     1
102
RTVSPropertyOp44
 70
     1
102
RTVSPropertyOp45
 70
     1
102
RTVSPropertyOp46
 70
     1
102
RTVSPropertyOp47
 70
     1
102
RTVSPropertyOp48
 70
     1
102
RTVSPropertyOp49
 70
     1
102
RTVSPropertyOp50
 70
     1
102
RTVSPropertyOp51
 70
     0
102
RTVSPropertyOp52
 70
     0
102
RTVSPropertyOp53
 70
     1
102
RTVSPropertyOp54
 70
     1
102
RTVSPropertyOp55
 70
     1
102
RTVSPropertyOp56
 70
     1
102
RTVSPropertyOp57
 70
     1
102
RTVSPropertyOp58
 70
     1
102
RTVSPropertyOp59
 70
     1
102
RTVSPropertyOp60
 70
     1
102
RTVSPropertyOp61
 70
     1
102
RTVSPropertyOp62
 70
     1
  0
XRECORD
  5
BB76
102
{ACAD_REACTORS
330
BB75
102
}
330
BB75
100
AcDbXrecord
280
     1
102
RTVSPost2010Prop28
280
     0
102
RTVSPost2010PropOp28
 70
     1
102
RTVSPost2010Prop29
280
     1
102
RTVSPost2010PropOp29
 70
     1
102
RTVSPost2010Prop30
280
     1
102
RTVSPost2010PropOp30
 70
     1
102
RTVSPost2010Prop31
280
     0
102
RTVSPost2010PropOp31
 70
     1
102
RTVSPost2010Prop32
280
     0
102
RTVSPost2010PropOp32
 70
     1
102
RTVSPost2010Prop33
280
     0
102
RTVSPost2010PropOp33
 70
     1
102
RTVSPost2010Prop34
280
     0
102
RTVSPost2010PropOp34
 70
     1
102
RTVSPost2010Prop35
280
     0
102
RTVSPost2010PropOp35
 70
     1
102
RTVSPost2010Prop36
280
     0
102
RTVSPost2010PropOp36
 70
     1
102
RTVSPost2010Prop37
 90
       50
102
RTVSPost2010PropOp37
 70
     1
102
RTVSPost2010Prop38
140
0.0
102
RTVSPost2010PropOp38
 70
     1
102
RTVSPost2010Prop39
140
1.0
102
RTVSPost2010PropOp39
 70
     1
102
RTVSPost2010Prop40
 90
        0
102
RTVSPost2010PropOp40
 70
     1
102
RTVSPost2010Prop41ColorIndex
 90
       18
102
RTVSPost2010Prop41ColorRGB
 90
        0
102
RTVSPost2010PropOp41
 70
     1
102
RTVSPost2010Prop42
 90
       50
102
RTVSPost2010PropOp42
 70
     1
102
RTVSPost2010Prop43
 90
        3
102
RTVSPost2010PropOp43
 70
     1
102
RTVSPost2010Prop44ColorIndex
 90
        5
102
RTVSPost2010Prop44ColorRGB
 90
      255
102
RTVSPost2010PropOp44
 70
     1
102
RTVSPost2010Prop45
280
     0
102
RTVSPost2010PropOp45
 70
     1
102
RTVSPost2010Prop46
 90
       50
102
RTVSPost2010PropOp46
 70
     1
102
RTVSPost2010Prop47
 90
       50
102
RTVSPost2010PropOp47
 70
     1
102
RTVSPost2010Prop48
 90
       50
102
RTVSPost2010PropOp48
 70
     1
102
RTVSPost2010Prop49
280
     0
102
RTVSPost2010PropOp49
 70
     1
102
RTVSPost2010Prop50
 90
       50
102
RTVSPost2010PropOp50
 70
     1
102
RTVSPost2010Prop51ColorIndex
 90
      256
102
RTVSPost2010Prop51ColorRGB
 90
-16777216
102
RTVSPost2010PropOp51
 70
     0
102
RTVSPost2010Prop52
140
1.0
102
RTVSPost2010PropOp52
 70
     0
102
RTVSPost2010Prop53
 90
        2
102
RTVSPost2010PropOp53
 70
     1
102
RTVSPost2010Prop54
  1
strokes_ogs.tif
102
RTVSPost2010PropOp54
 70
     1
102
RTVSPost2010Prop55
280
     0
102
RTVSPost2010PropOp55
 70
     1
102
RTVSPost2010Prop56
140
1.0
102
RTVSPost2010PropOp56
 70
     1
102
RTVSPost2010Prop57
140
1.0
102
RTVSPost2010PropOp57
 70
     1
102
RTVSPropertyOp0
 70
     1
102
RTVSPropertyOp1
 70
     1
102
RTVSPropertyOp2
 70
     1
102
RTVSPropertyOp3
 70
     1
102
RTVSPropertyOp4
 70
     1
102
RTVSPropertyOp5
 70
     1
102
RTVSPropertyOp6
 70
     1
102
RTVSPropertyOp7
 70
     1
102
RTVSPropertyOp8
 70
     1
102
RTVSPropertyOp9
 70
     1
102
RTVSPropertyOp10
 70
     1
102
RTVSPropertyOp11
 70
     1
102
RTVSPropertyOp12
 70
     1
102
RTVSPropertyOp13
 70
     1
102
RTVSPropertyOp14
 70
     1
102
RTVSPropertyOp15
 70
     1
102
RTVSPropertyOp16
 70
     1
102
RTVSPropertyOp17
 70
     1
102
RTVSPropertyOp18
 70
     1
102
RTVSPropertyOp19
 70
     1
102
RTVSPropertyOp20
 70
     1
102
RTVSPropertyOp21
 70
     1
102
RTVSPropertyOp22
 70
     1
102
RTVSPropertyOp23
 70
     1
102
RTVSPropertyOp24
 70
     1
102
RTVSPropertyOp25
 70
     1
102
RTVSPropertyOp26
 70
     1
102
RTVSPropertyOp27
 70
     1
102
RTVSPropertyOp28
 70
     1
102
RTVSPropertyOp29
 70
     1
102
RTVSPropertyOp30
 70
     1
102
RTVSPropertyOp31
 70
     1
102
RTVSPropertyOp32
 70
     1
102
RTVSPropertyOp33
 70
     1
102
RTVSPropertyOp34
 70
     1
102
RTVSPropertyOp35
 70
     1
102
RTVSPropertyOp36
 70
     1
102
RTVSPropertyOp37
 70
     1
102
RTVSPropertyOp38
 70
     1
102
RTVSPropertyOp39
 70
     1
102
RTVSPropertyOp40
 70
     1
102
RTVSPropertyOp41
 70
     1
102
RTVSPropertyOp42
 70
     1
102
RTVSPropertyOp43
 70
     1
102
RTVSPropertyOp44
 70
     1
102
RTVSPropertyOp45
 70
     1
102
RTVSPropertyOp46
 70
     1
102
RTVSPropertyOp47
 70
     1
102
RTVSPropertyOp48
 70
     1
102
RTVSPropertyOp49
 70
     1
102
RTVSPropertyOp50
 70
     1
102
RTVSPropertyOp51
 70
     0
102
RTVSPropertyOp52
 70
     0
102
RTVSPropertyOp53
 70
     1
102
RTVSPropertyOp54
 70
     1
102
RTVSPropertyOp55
 70
     1
102
RTVSPropertyOp56
 70
     1
102
RTVSPropertyOp57
 70
     1
102
RTVSPropertyOp58
 70
     1
102
RTVSPropertyOp59
 70
     1
102
RTVSPropertyOp60
 70
     1
102
RTVSPropertyOp61
 70
     1
102
RTVSPropertyOp62
 70
     1
  0
XRECORD
  5
BB78
102
{ACAD_REACTORS
330
BB77
102
}
330
BB77
100
AcDbXrecord
280
     1
102
RTVSPost2010Prop28
280
     0
102
RTVSPost2010PropOp28
 70
     1
102
RTVSPost2010Prop29
280
     1
102
RTVSPost2010PropOp29
 70
     1
102
RTVSPost2010Prop30
280
     1
102
RTVSPost2010PropOp30
 70
     1
102
RTVSPost2010Prop31
280
     0
102
RTVSPost2010PropOp31
 70
     1
102
RTVSPost2010Prop32
280
     0
102
RTVSPost2010PropOp32
 70
     1
102
RTVSPost2010Prop33
280
     0
102
RTVSPost2010PropOp33
 70
     1
102
RTVSPost2010Prop34
280
     0
102
RTVSPost2010PropOp34
 70
     1
102
RTVSPost2010Prop35
280
     0
102
RTVSPost2010PropOp35
 70
     1
102
RTVSPost2010Prop36
280
     0
102
RTVSPost2010PropOp36
 70
     1
102
RTVSPost2010Prop37
 90
       50
102
RTVSPost2010PropOp37
 70
     1
102
RTVSPost2010Prop38
140
0.0
102
RTVSPost2010PropOp38
 70
     1
102
RTVSPost2010Prop39
140
1.0
102
RTVSPost2010PropOp39
 70
     1
102
RTVSPost2010Prop40
 90
        0
102
RTVSPost2010PropOp40
 70
     1
102
RTVSPost2010Prop41ColorIndex
 90
       18
102
RTVSPost2010Prop41ColorRGB
 90
        0
102
RTVSPost2010PropOp41
 70
     1
102
RTVSPost2010Prop42
 90
       50
102
RTVSPost2010PropOp42
 70
     1
102
RTVSPost2010Prop43
 90
        3
102
RTVSPost2010PropOp43
 70
     1
102
RTVSPost2010Prop44ColorIndex
 90
        5
102
RTVSPost2010Prop44ColorRGB
 90
      255
102
RTVSPost2010PropOp44
 70
     1
102
RTVSPost2010Prop45
280
     0
102
RTVSPost2010PropOp45
 70
     1
102
RTVSPost2010Prop46
 90
       50
102
RTVSPost2010PropOp46
 70
     1
102
RTVSPost2010Prop47
 90
       50
102
RTVSPost2010PropOp47
 70
     1
102
RTVSPost2010Prop48
 90
       50
102
RTVSPost2010PropOp48
 70
     1
102
RTVSPost2010Prop49
280
     0
102
RTVSPost2010PropOp49
 70
     1
102
RTVSPost2010Prop50
 90
       50
102
RTVSPost2010PropOp50
 70
     1
102
RTVSPost2010Prop51ColorIndex
 90
      256
102
RTVSPost2010Prop51ColorRGB
 90
-16777216
102
RTVSPost2010PropOp51
 70
     0
102
RTVSPost2010Prop52
140
1.0
102
RTVSPost2010PropOp52
 70
     0
102
RTVSPost2010Prop53
 90
        2
102
RTVSPost2010PropOp53
 70
     1
102
RTVSPost2010Prop54
  1
strokes_ogs.tif
102
RTVSPost2010PropOp54
 70
     1
102
RTVSPost2010Prop55
280
     0
102
RTVSPost2010PropOp55
 70
     1
102
RTVSPost2010Prop56
140
1.0
102
RTVSPost2010PropOp56
 70
     1
102
RTVSPost2010Prop57
140
1.0
102
RTVSPost2010PropOp57
 70
     1
102
RTVSPropertyOp0
 70
     1
102
RTVSPropertyOp1
 70
     1
102
RTVSPropertyOp2
 70
     1
102
RTVSPropertyOp3
 70
     1
102
RTVSPropertyOp4
 70
     1
102
RTVSPropertyOp5
 70
     1
102
RTVSPropertyOp6
 70
     1
102
RTVSPropertyOp7
 70
     1
102
RTVSPropertyOp8
 70
     1
102
RTVSPropertyOp9
 70
     1
102
RTVSPropertyOp10
 70
     1
102
RTVSPropertyOp11
 70
     1
102
RTVSPropertyOp12
 70
     1
102
RTVSPropertyOp13
 70
     1
102
RTVSPropertyOp14
 70
     1
102
RTVSPropertyOp15
 70
     1
102
RTVSPropertyOp16
 70
     1
102
RTVSPropertyOp17
 70
     1
102
RTVSPropertyOp18
 70
     1
102
RTVSPropertyOp19
 70
     1
102
RTVSPropertyOp20
 70
     1
102
RTVSPropertyOp21
 70
     1
102
RTVSPropertyOp22
 70
     1
102
RTVSPropertyOp23
 70
     1
102
RTVSPropertyOp24
 70
     1
102
RTVSPropertyOp25
 70
     1
102
RTVSPropertyOp26
 70
     1
102
RTVSPropertyOp27
 70
     1
102
RTVSPropertyOp28
 70
     1
102
RTVSPropertyOp29
 70
     1
102
RTVSPropertyOp30
 70
     1
102
RTVSPropertyOp31
 70
     1
102
RTVSPropertyOp32
 70
     1
102
RTVSPropertyOp33
 70
     1
102
RTVSPropertyOp34
 70
     1
102
RTVSPropertyOp35
 70
     1
102
RTVSPropertyOp36
 70
     1
102
RTVSPropertyOp37
 70
     1
102
RTVSPropertyOp38
 70
     1
102
RTVSPropertyOp39
 70
     1
102
RTVSPropertyOp40
 70
     1
102
RTVSPropertyOp41
 70
     1
102
RTVSPropertyOp42
 70
     1
102
RTVSPropertyOp43
 70
     1
102
RTVSPropertyOp44
 70
     1
102
RTVSPropertyOp45
 70
     1
102
RTVSPropertyOp46
 70
     1
102
RTVSPropertyOp47
 70
     1
102
RTVSPropertyOp48
 70
     1
102
RTVSPropertyOp49
 70
     1
102
RTVSPropertyOp50
 70
     1
102
RTVSPropertyOp51
 70
     0
102
RTVSPropertyOp52
 70
     0
102
RTVSPropertyOp53
 70
     1
102
RTVSPropertyOp54
 70
     1
102
RTVSPropertyOp55
 70
     1
102
RTVSPropertyOp56
 70
     1
102
RTVSPropertyOp57
 70
     1
102
RTVSPropertyOp58
 70
     1
102
RTVSPropertyOp59
 70
     1
102
RTVSPropertyOp60
 70
     1
102
RTVSPropertyOp61
 70
     1
102
RTVSPropertyOp62
 70
     1
  0
XRECORD
  5
BB7A
102
{ACAD_REACTORS
330
BB79
102
}
330
BB79
100
AcDbXrecord
280
     1
102
RTVSPost2010Prop28
280
     0
102
RTVSPost2010PropOp28
 70
     1
102
RTVSPost2010Prop29
280
     1
102
RTVSPost2010PropOp29
 70
     1
102
RTVSPost2010Prop30
280
     1
102
RTVSPost2010PropOp30
 70
     1
102
RTVSPost2010Prop31
280
     0
102
RTVSPost2010PropOp31
 70
     1
102
RTVSPost2010Prop32
280
     0
102
RTVSPost2010PropOp32
 70
     1
102
RTVSPost2010Prop33
280
     0
102
RTVSPost2010PropOp33
 70
     1
102
RTVSPost2010Prop34
280
     0
102
RTVSPost2010PropOp34
 70
     1
102
RTVSPost2010Prop35
280
     0
102
RTVSPost2010PropOp35
 70
     1
102
RTVSPost2010Prop36
280
     0
102
RTVSPost2010PropOp36
 70
     1
102
RTVSPost2010Prop37
 90
       50
102
RTVSPost2010PropOp37
 70
     1
102
RTVSPost2010Prop38
140
0.0
102
RTVSPost2010PropOp38
 70
     1
102
RTVSPost2010Prop39
140
1.0
102
RTVSPost2010PropOp39
 70
     1
102
RTVSPost2010Prop40
 90
        0
102
RTVSPost2010PropOp40
 70
     1
102
RTVSPost2010Prop41ColorIndex
 90
       18
102
RTVSPost2010Prop41ColorRGB
 90
        0
102
RTVSPost2010PropOp41
 70
     1
102
RTVSPost2010Prop42
 90
       50
102
RTVSPost2010PropOp42
 70
     1
102
RTVSPost2010Prop43
 90
        3
102
RTVSPost2010PropOp43
 70
     1
102
RTVSPost2010Prop44ColorIndex
 90
        5
102
RTVSPost2010Prop44ColorRGB
 90
      255
102
RTVSPost2010PropOp44
 70
     1
102
RTVSPost2010Prop45
280
     0
102
RTVSPost2010PropOp45
 70
     1
102
RTVSPost2010Prop46
 90
       50
102
RTVSPost2010PropOp46
 70
     1
102
RTVSPost2010Prop47
 90
       50
102
RTVSPost2010PropOp47
 70
     1
102
RTVSPost2010Prop48
 90
       50
102
RTVSPost2010PropOp48
 70
     1
102
RTVSPost2010Prop49
280
     0
102
RTVSPost2010PropOp49
 70
     1
102
RTVSPost2010Prop50
 90
       50
102
RTVSPost2010PropOp50
 70
     1
102
RTVSPost2010Prop51ColorIndex
 90
      256
102
RTVSPost2010Prop51ColorRGB
 90
-16777216
102
RTVSPost2010PropOp51
 70
     0
102
RTVSPost2010Prop52
140
1.0
102
RTVSPost2010PropOp52
 70
     0
102
RTVSPost2010Prop53
 90
        2
102
RTVSPost2010PropOp53
 70
     1
102
RTVSPost2010Prop54
  1
strokes_ogs.tif
102
RTVSPost2010PropOp54
 70
     1
102
RTVSPost2010Prop55
280
     0
102
RTVSPost2010PropOp55
 70
     1
102
RTVSPost2010Prop56
140
1.0
102
RTVSPost2010PropOp56
 70
     1
102
RTVSPost2010Prop57
140
1.0
102
RTVSPost2010PropOp57
 70
     1
102
RTVSPropertyOp0
 70
     1
102
RTVSPropertyOp1
 70
     1
102
RTVSPropertyOp2
 70
     1
102
RTVSPropertyOp3
 70
     1
102
RTVSPropertyOp4
 70
     1
102
RTVSPropertyOp5
 70
     1
102
RTVSPropertyOp6
 70
     1
102
RTVSPropertyOp7
 70
     1
102
RTVSPropertyOp8
 70
     1
102
RTVSPropertyOp9
 70
     1
102
RTVSPropertyOp10
 70
     1
102
RTVSPropertyOp11
 70
     1
102
RTVSPropertyOp12
 70
     1
102
RTVSPropertyOp13
 70
     1
102
RTVSPropertyOp14
 70
     1
102
RTVSPropertyOp15
 70
     1
102
RTVSPropertyOp16
 70
     1
102
RTVSPropertyOp17
 70
     1
102
RTVSPropertyOp18
 70
     1
102
RTVSPropertyOp19
 70
     1
102
RTVSPropertyOp20
 70
     1
102
RTVSPropertyOp21
 70
     1
102
RTVSPropertyOp22
 70
     1
102
RTVSPropertyOp23
 70
     1
102
RTVSPropertyOp24
 70
     1
102
RTVSPropertyOp25
 70
     1
102
RTVSPropertyOp26
 70
     1
102
RTVSPropertyOp27
 70
     1
102
RTVSPropertyOp28
 70
     1
102
RTVSPropertyOp29
 70
     1
102
RTVSPropertyOp30
 70
     1
102
RTVSPropertyOp31
 70
     1
102
RTVSPropertyOp32
 70
     1
102
RTVSPropertyOp33
 70
     1
102
RTVSPropertyOp34
 70
     1
102
RTVSPropertyOp35
 70
     1
102
RTVSPropertyOp36
 70
     1
102
RTVSPropertyOp37
 70
     1
102
RTVSPropertyOp38
 70
     1
102
RTVSPropertyOp39
 70
     1
102
RTVSPropertyOp40
 70
     1
102
RTVSPropertyOp41
 70
     1
102
RTVSPropertyOp42
 70
     1
102
RTVSPropertyOp43
 70
     1
102
RTVSPropertyOp44
 70
     1
102
RTVSPropertyOp45
 70
     1
102
RTVSPropertyOp46
 70
     1
102
RTVSPropertyOp47
 70
     1
102
RTVSPropertyOp48
 70
     1
102
RTVSPropertyOp49
 70
     1
102
RTVSPropertyOp50
 70
     1
102
RTVSPropertyOp51
 70
     0
102
RTVSPropertyOp52
 70
     0
102
RTVSPropertyOp53
 70
     1
102
RTVSPropertyOp54
 70
     1
102
RTVSPropertyOp55
 70
     1
102
RTVSPropertyOp56
 70
     1
102
RTVSPropertyOp57
 70
     1
102
RTVSPropertyOp58
 70
     1
102
RTVSPropertyOp59
 70
     1
102
RTVSPropertyOp60
 70
     1
102
RTVSPropertyOp61
 70
     1
102
RTVSPropertyOp62
 70
     1
  0
XRECORD
  5
BB82
102
{ACAD_REACTORS
330
BB81
102
}
330
BB81
100
AcDbXrecord
280
     1
102
RTVSPost2010Prop28
280
     0
102
RTVSPost2010PropOp28
 70
     1
102
RTVSPost2010Prop29
280
     1
102
RTVSPost2010PropOp29
 70
     1
102
RTVSPost2010Prop30
280
     1
102
RTVSPost2010PropOp30
 70
     1
102
RTVSPost2010Prop31
280
     0
102
RTVSPost2010PropOp31
 70
     1
102
RTVSPost2010Prop32
280
     0
102
RTVSPost2010PropOp32
 70
     1
102
RTVSPost2010Prop33
280
     0
102
RTVSPost2010PropOp33
 70
     1
102
RTVSPost2010Prop34
280
     0
102
RTVSPost2010PropOp34
 70
     1
102
RTVSPost2010Prop35
280
     0
102
RTVSPost2010PropOp35
 70
     1
102
RTVSPost2010Prop36
280
     0
102
RTVSPost2010PropOp36
 70
     1
102
RTVSPost2010Prop37
 90
       50
102
RTVSPost2010PropOp37
 70
     1
102
RTVSPost2010Prop38
140
0.0
102
RTVSPost2010PropOp38
 70
     1
102
RTVSPost2010Prop39
140
1.0
102
RTVSPost2010PropOp39
 70
     1
102
RTVSPost2010Prop40
 90
        0
102
RTVSPost2010PropOp40
 70
     1
102
RTVSPost2010Prop41ColorIndex
 90
       18
102
RTVSPost2010Prop41ColorRGB
 90
        0
102
RTVSPost2010PropOp41
 70
     1
102
RTVSPost2010Prop42
 90
       50
102
RTVSPost2010PropOp42
 70
     1
102
RTVSPost2010Prop43
 90
        3
102
RTVSPost2010PropOp43
 70
     1
102
RTVSPost2010Prop44ColorIndex
 90
        5
102
RTVSPost2010Prop44ColorRGB
 90
      255
102
RTVSPost2010PropOp44
 70
     1
102
RTVSPost2010Prop45
280
     0
102
RTVSPost2010PropOp45
 70
     1
102
RTVSPost2010Prop46
 90
       50
102
RTVSPost2010PropOp46
 70
     1
102
RTVSPost2010Prop47
 90
       50
102
RTVSPost2010PropOp47
 70
     1
102
RTVSPost2010Prop48
 90
       50
102
RTVSPost2010PropOp48
 70
     1
102
RTVSPost2010Prop49
280
     0
102
RTVSPost2010PropOp49
 70
     1
102
RTVSPost2010Prop50
 90
       50
102
RTVSPost2010PropOp50
 70
     1
102
RTVSPost2010Prop51ColorIndex
 90
      256
102
RTVSPost2010Prop51ColorRGB
 90
-16777216
102
RTVSPost2010PropOp51
 70
     0
102
RTVSPost2010Prop52
140
1.0
102
RTVSPost2010PropOp52
 70
     0
102
RTVSPost2010Prop53
 90
        2
102
RTVSPost2010PropOp53
 70
     1
102
RTVSPost2010Prop54
  1
strokes_ogs.tif
102
RTVSPost2010PropOp54
 70
     1
102
RTVSPost2010Prop55
280
     0
102
RTVSPost2010PropOp55
 70
     1
102
RTVSPost2010Prop56
140
1.0
102
RTVSPost2010PropOp56
 70
     1
102
RTVSPost2010Prop57
140
1.0
102
RTVSPost2010PropOp57
 70
     1
102
RTVSPropertyOp0
 70
     1
102
RTVSPropertyOp1
 70
     1
102
RTVSPropertyOp2
 70
     1
102
RTVSPropertyOp3
 70
     1
102
RTVSPropertyOp4
 70
     1
102
RTVSPropertyOp5
 70
     1
102
RTVSPropertyOp6
 70
     1
102
RTVSPropertyOp7
 70
     1
102
RTVSPropertyOp8
 70
     1
102
RTVSPropertyOp9
 70
     1
102
RTVSPropertyOp10
 70
     1
102
RTVSPropertyOp11
 70
     1
102
RTVSPropertyOp12
 70
     1
102
RTVSPropertyOp13
 70
     1
102
RTVSPropertyOp14
 70
     1
102
RTVSPropertyOp15
 70
     1
102
RTVSPropertyOp16
 70
     1
102
RTVSPropertyOp17
 70
     1
102
RTVSPropertyOp18
 70
     1
102
RTVSPropertyOp19
 70
     1
102
RTVSPropertyOp20
 70
     1
102
RTVSPropertyOp21
 70
     1
102
RTVSPropertyOp22
 70
     1
102
RTVSPropertyOp23
 70
     1
102
RTVSPropertyOp24
 70
     1
102
RTVSPropertyOp25
 70
     1
102
RTVSPropertyOp26
 70
     1
102
RTVSPropertyOp27
 70
     1
102
RTVSPropertyOp28
 70
     1
102
RTVSPropertyOp29
 70
     1
102
RTVSPropertyOp30
 70
     1
102
RTVSPropertyOp31
 70
     1
102
RTVSPropertyOp32
 70
     1
102
RTVSPropertyOp33
 70
     1
102
RTVSPropertyOp34
 70
     1
102
RTVSPropertyOp35
 70
     1
102
RTVSPropertyOp36
 70
     1
102
RTVSPropertyOp37
 70
     1
102
RTVSPropertyOp38
 70
     1
102
RTVSPropertyOp39
 70
     1
102
RTVSPropertyOp40
 70
     1
102
RTVSPropertyOp41
 70
     1
102
RTVSPropertyOp42
 70
     1
102
RTVSPropertyOp43
 70
     1
102
RTVSPropertyOp44
 70
     1
102
RTVSPropertyOp45
 70
     1
102
RTVSPropertyOp46
 70
     1
102
RTVSPropertyOp47
 70
     1
102
RTVSPropertyOp48
 70
     1
102
RTVSPropertyOp49
 70
     1
102
RTVSPropertyOp50
 70
     1
102
RTVSPropertyOp51
 70
     0
102
RTVSPropertyOp52
 70
     0
102
RTVSPropertyOp53
 70
     1
102
RTVSPropertyOp54
 70
     1
102
RTVSPropertyOp55
 70
     1
102
RTVSPropertyOp56
 70
     1
102
RTVSPropertyOp57
 70
     1
102
RTVSPropertyOp58
 70
     1
102
RTVSPropertyOp59
 70
     1
102
RTVSPropertyOp60
 70
     1
102
RTVSPropertyOp61
 70
     1
102
RTVSPropertyOp62
 70
     1
  0
XRECORD
  5
BB9E
102
{ACAD_REACTORS
330
BB9D
102
}
330
BB9D
100
AcDbXrecord
280
     1
102
RTVSPost2010Prop28
280
     0
102
RTVSPost2010PropOp28
 70
     1
102
RTVSPost2010Prop29
280
     1
102
RTVSPost2010PropOp29
 70
     1
102
RTVSPost2010Prop30
280
     1
102
RTVSPost2010PropOp30
 70
     1
102
RTVSPost2010Prop31
280
     0
102
RTVSPost2010PropOp31
 70
     1
102
RTVSPost2010Prop32
280
     0
102
RTVSPost2010PropOp32
 70
     1
102
RTVSPost2010Prop33
280
     0
102
RTVSPost2010PropOp33
 70
     1
102
RTVSPost2010Prop34
280
     0
102
RTVSPost2010PropOp34
 70
     1
102
RTVSPost2010Prop35
280
     0
102
RTVSPost2010PropOp35
 70
     1
102
RTVSPost2010Prop36
280
     0
102
RTVSPost2010PropOp36
 70
     1
102
RTVSPost2010Prop37
 90
       50
102
RTVSPost2010PropOp37
 70
     0
102
RTVSPost2010Prop38
140
0.0
102
RTVSPost2010PropOp38
 70
     0
102
RTVSPost2010Prop39
140
1.0
102
RTVSPost2010PropOp39
 70
     0
102
RTVSPost2010Prop40
 90
        0
102
RTVSPost2010PropOp40
 70
     0
102
RTVSPost2010Prop41ColorIndex
 90
       18
102
RTVSPost2010Prop41ColorRGB
 90
        0
102
RTVSPost2010PropOp41
 70
     0
102
RTVSPost2010Prop42
 90
       50
102
RTVSPost2010PropOp42
 70
     0
102
RTVSPost2010Prop43
 90
        3
102
RTVSPost2010PropOp43
 70
     0
102
RTVSPost2010Prop44ColorIndex
 90
        5
102
RTVSPost2010Prop44ColorRGB
 90
      255
102
RTVSPost2010PropOp44
 70
     0
102
RTVSPost2010Prop45
280
     0
102
RTVSPost2010PropOp45
 70
     1
102
RTVSPost2010Prop46
 90
       50
102
RTVSPost2010PropOp46
 70
     0
102
RTVSPost2010Prop47
 90
       50
102
RTVSPost2010PropOp47
 70
     0
102
RTVSPost2010Prop48
 90
       50
102
RTVSPost2010PropOp48
 70
     0
102
RTVSPost2010Prop49
280
     0
102
RTVSPost2010PropOp49
 70
     1
102
RTVSPost2010Prop50
 90
       50
102
RTVSPost2010PropOp50
 70
     0
102
RTVSPost2010Prop51ColorIndex
 90
      256
102
RTVSPost2010Prop51ColorRGB
 90
-16777216
102
RTVSPost2010PropOp51
 70
     0
102
RTVSPost2010Prop52
140
1.0
102
RTVSPost2010PropOp52
 70
     0
102
RTVSPost2010Prop53
 90
        2
102
RTVSPost2010PropOp53
 70
     0
102
RTVSPost2010Prop54
  1
strokes_ogs.tif
102
RTVSPost2010PropOp54
 70
     0
102
RTVSPost2010Prop55
280
     0
102
RTVSPost2010PropOp55
 70
     1
102
RTVSPost2010Prop56
140
1.0
102
RTVSPost2010PropOp56
 70
     0
102
RTVSPost2010Prop57
140
1.0
102
RTVSPost2010PropOp57
 70
     0
102
RTVSPropertyOp0
 70
     0
102
RTVSPropertyOp1
 70
     0
102
RTVSPropertyOp2
 70
     0
102
RTVSPropertyOp3
 70
     0
102
RTVSPropertyOp4
 70
     0
102
RTVSPropertyOp5
 70
     0
102
RTVSPropertyOp6
 70
     0
102
RTVSPropertyOp7
 70
     0
102
RTVSPropertyOp8
 70
     0
102
RTVSPropertyOp9
 70
     0
102
RTVSPropertyOp10
 70
     0
102
RTVSPropertyOp11
 70
     0
102
RTVSPropertyOp12
 70
     0
102
RTVSPropertyOp13
 70
     0
102
RTVSPropertyOp14
 70
     2
102
RTVSPropertyOp15
 70
     0
102
RTVSPropertyOp16
 70
     0
102
RTVSPropertyOp17
 70
     0
102
RTVSPropertyOp18
 70
     0
102
RTVSPropertyOp19
 70
     0
102
RTVSPropertyOp20
 70
     0
102
RTVSPropertyOp21
 70
     0
102
RTVSPropertyOp22
 70
     0
102
RTVSPropertyOp23
 70
     0
102
RTVSPropertyOp24
 70
     0
102
RTVSPropertyOp25
 70
     0
102
RTVSPropertyOp26
 70
     0
102
RTVSPropertyOp27
 70
     0
102
RTVSPropertyOp28
 70
     1
102
RTVSPropertyOp29
 70
     1
102
RTVSPropertyOp30
 70
     1
102
RTVSPropertyOp31
 70
     1
102
RTVSPropertyOp32
 70
     1
102
RTVSPropertyOp33
 70
     1
102
RTVSPropertyOp34
 70
     1
102
RTVSPropertyOp35
 70
     1
102
RTVSPropertyOp36
 70
     1
102
RTVSPropertyOp37
 70
     0
102
RTVSPropertyOp38
 70
     0
102
RTVSPropertyOp39
 70
     0
102
RTVSPropertyOp40
 70
     0
102
RTVSPropertyOp41
 70
     0
102
RTVSPropertyOp42
 70
     0
102
RTVSPropertyOp43
 70
     0
102
RTVSPropertyOp44
 70
     0
102
RTVSPropertyOp45
 70
     1
102
RTVSPropertyOp46
 70
     0
102
RTVSPropertyOp47
 70
     0
102
RTVSPropertyOp48
 70
     0
102
RTVSPropertyOp49
 70
     1
102
RTVSPropertyOp50
 70
     0
102
RTVSPropertyOp51
 70
     0
102
RTVSPropertyOp52
 70
     0
102
RTVSPropertyOp53
 70
     0
102
RTVSPropertyOp54
 70
     0
102
RTVSPropertyOp55
 70
     1
102
RTVSPropertyOp56
 70
     0
102
RTVSPropertyOp57
 70
     0
102
RTVSPropertyOp58
 70
     0
102
RTVSPropertyOp59
 70
     0
102
RTVSPropertyOp60
 70
     0
102
RTVSPropertyOp61
 70
     0
102
RTVSPropertyOp62
 70
     0
  0
XRECORD
  5
BB8E
102
{ACAD_REACTORS
330
BB8D
102
}
330
BB8D
100
AcDbXrecord
280
     1
102
RTVSPost2010Prop28
280
     0
102
RTVSPost2010PropOp28
 70
     1
102
RTVSPost2010Prop29
280
     1
102
RTVSPost2010PropOp29
 70
     1
102
RTVSPost2010Prop30
280
     1
102
RTVSPost2010PropOp30
 70
     1
102
RTVSPost2010Prop31
280
     0
102
RTVSPost2010PropOp31
 70
     1
102
RTVSPost2010Prop32
280
     0
102
RTVSPost2010PropOp32
 70
     1
102
RTVSPost2010Prop33
280
     0
102
RTVSPost2010PropOp33
 70
     1
102
RTVSPost2010Prop34
280
     0
102
RTVSPost2010PropOp34
 70
     1
102
RTVSPost2010Prop35
280
     0
102
RTVSPost2010PropOp35
 70
     1
102
RTVSPost2010Prop36
280
     0
102
RTVSPost2010PropOp36
 70
     1
102
RTVSPost2010Prop37
 90
       50
102
RTVSPost2010PropOp37
 70
     1
102
RTVSPost2010Prop38
140
0.0
102
RTVSPost2010PropOp38
 70
     1
102
RTVSPost2010Prop39
140
1.0
102
RTVSPost2010PropOp39
 70
     1
102
RTVSPost2010Prop40
 90
        0
102
RTVSPost2010PropOp40
 70
     1
102
RTVSPost2010Prop41ColorIndex
 90
       18
102
RTVSPost2010Prop41ColorRGB
 90
        0
102
RTVSPost2010PropOp41
 70
     1
102
RTVSPost2010Prop42
 90
       50
102
RTVSPost2010PropOp42
 70
     1
102
RTVSPost2010Prop43
 90
        3
102
RTVSPost2010PropOp43
 70
     1
102
RTVSPost2010Prop44ColorIndex
 90
        5
102
RTVSPost2010Prop44ColorRGB
 90
      255
102
RTVSPost2010PropOp44
 70
     1
102
RTVSPost2010Prop45
280
     0
102
RTVSPost2010PropOp45
 70
     1
102
RTVSPost2010Prop46
 90
       50
102
RTVSPost2010PropOp46
 70
     1
102
RTVSPost2010Prop47
 90
       50
102
RTVSPost2010PropOp47
 70
     1
102
RTVSPost2010Prop48
 90
       50
102
RTVSPost2010PropOp48
 70
     1
102
RTVSPost2010Prop49
280
     0
102
RTVSPost2010PropOp49
 70
     1
102
RTVSPost2010Prop50
 90
       50
102
RTVSPost2010PropOp50
 70
     1
102
RTVSPost2010Prop51ColorIndex
 90
      256
102
RTVSPost2010Prop51ColorRGB
 90
-16777216
102
RTVSPost2010PropOp51
 70
     0
102
RTVSPost2010Prop52
140
1.0
102
RTVSPost2010PropOp52
 70
     0
102
RTVSPost2010Prop53
 90
        2
102
RTVSPost2010PropOp53
 70
     1
102
RTVSPost2010Prop54
  1
strokes_ogs.tif
102
RTVSPost2010PropOp54
 70
     1
102
RTVSPost2010Prop55
280
     0
102
RTVSPost2010PropOp55
 70
     1
102
RTVSPost2010Prop56
140
1.0
102
RTVSPost2010PropOp56
 70
     1
102
RTVSPost2010Prop57
140
1.0
102
RTVSPost2010PropOp57
 70
     1
102
RTVSPropertyOp0
 70
     1
102
RTVSPropertyOp1
 70
     1
102
RTVSPropertyOp2
 70
     1
102
RTVSPropertyOp3
 70
     1
102
RTVSPropertyOp4
 70
     1
102
RTVSPropertyOp5
 70
     1
102
RTVSPropertyOp6
 70
     1
102
RTVSPropertyOp7
 70
     1
102
RTVSPropertyOp8
 70
     1
102
RTVSPropertyOp9
 70
     1
102
RTVSPropertyOp10
 70
     1
102
RTVSPropertyOp11
 70
     1
102
RTVSPropertyOp12
 70
     1
102
RTVSPropertyOp13
 70
     1
102
RTVSPropertyOp14
 70
     1
102
RTVSPropertyOp15
 70
     1
102
RTVSPropertyOp16
 70
     1
102
RTVSPropertyOp17
 70
     1
102
RTVSPropertyOp18
 70
     1
102
RTVSPropertyOp19
 70
     1
102
RTVSPropertyOp20
 70
     1
102
RTVSPropertyOp21
 70
     1
102
RTVSPropertyOp22
 70
     1
102
RTVSPropertyOp23
 70
     1
102
RTVSPropertyOp24
 70
     1
102
RTVSPropertyOp25
 70
     1
102
RTVSPropertyOp26
 70
     1
102
RTVSPropertyOp27
 70
     1
102
RTVSPropertyOp28
 70
     1
102
RTVSPropertyOp29
 70
     1
102
RTVSPropertyOp30
 70
     1
102
RTVSPropertyOp31
 70
     1
102
RTVSPropertyOp32
 70
     1
102
RTVSPropertyOp33
 70
     1
102
RTVSPropertyOp34
 70
     1
102
RTVSPropertyOp35
 70
     1
102
RTVSPropertyOp36
 70
     1
102
RTVSPropertyOp37
 70
     1
102
RTVSPropertyOp38
 70
     1
102
RTVSPropertyOp39
 70
     1
102
RTVSPropertyOp40
 70
     1
102
RTVSPropertyOp41
 70
     1
102
RTVSPropertyOp42
 70
     1
102
RTVSPropertyOp43
 70
     1
102
RTVSPropertyOp44
 70
     1
102
RTVSPropertyOp45
 70
     1
102
RTVSPropertyOp46
 70
     1
102
RTVSPropertyOp47
 70
     1
102
RTVSPropertyOp48
 70
     1
102
RTVSPropertyOp49
 70
     1
102
RTVSPropertyOp50
 70
     1
102
RTVSPropertyOp51
 70
     0
102
RTVSPropertyOp52
 70
     0
102
RTVSPropertyOp53
 70
     1
102
RTVSPropertyOp54
 70
     1
102
RTVSPropertyOp55
 70
     1
102
RTVSPropertyOp56
 70
     1
102
RTVSPropertyOp57
 70
     1
102
RTVSPropertyOp58
 70
     1
102
RTVSPropertyOp59
 70
     1
102
RTVSPropertyOp60
 70
     1
102
RTVSPropertyOp61
 70
     1
102
RTVSPropertyOp62
 70
     1
  0
XRECORD
  5
BBA0
102
{ACAD_REACTORS
330
BB9F
102
}
330
BB9F
100
AcDbXrecord
280
     1
102
RTVSPost2010Prop28
280
     0
102
RTVSPost2010PropOp28
 70
     1
102
RTVSPost2010Prop29
280
     1
102
RTVSPost2010PropOp29
 70
     1
102
RTVSPost2010Prop30
280
     1
102
RTVSPost2010PropOp30
 70
     1
102
RTVSPost2010Prop31
280
     0
102
RTVSPost2010PropOp31
 70
     1
102
RTVSPost2010Prop32
280
     0
102
RTVSPost2010PropOp32
 70
     1
102
RTVSPost2010Prop33
280
     0
102
RTVSPost2010PropOp33
 70
     1
102
RTVSPost2010Prop34
280
     0
102
RTVSPost2010PropOp34
 70
     1
102
RTVSPost2010Prop35
280
     0
102
RTVSPost2010PropOp35
 70
     1
102
RTVSPost2010Prop36
280
     0
102
RTVSPost2010PropOp36
 70
     1
102
RTVSPost2010Prop37
 90
       50
102
RTVSPost2010PropOp37
 70
     0
102
RTVSPost2010Prop38
140
0.0
102
RTVSPost2010PropOp38
 70
     0
102
RTVSPost2010Prop39
140
1.0
102
RTVSPost2010PropOp39
 70
     0
102
RTVSPost2010Prop40
 90
        0
102
RTVSPost2010PropOp40
 70
     0
102
RTVSPost2010Prop41ColorIndex
 90
       18
102
RTVSPost2010Prop41ColorRGB
 90
        0
102
RTVSPost2010PropOp41
 70
     0
102
RTVSPost2010Prop42
 90
       50
102
RTVSPost2010PropOp42
 70
     0
102
RTVSPost2010Prop43
 90
        3
102
RTVSPost2010PropOp43
 70
     0
102
RTVSPost2010Prop44ColorIndex
 90
        5
102
RTVSPost2010Prop44ColorRGB
 90
      255
102
RTVSPost2010PropOp44
 70
     0
102
RTVSPost2010Prop45
280
     0
102
RTVSPost2010PropOp45
 70
     1
102
RTVSPost2010Prop46
 90
       50
102
RTVSPost2010PropOp46
 70
     0
102
RTVSPost2010Prop47
 90
       50
102
RTVSPost2010PropOp47
 70
     0
102
RTVSPost2010Prop48
 90
       50
102
RTVSPost2010PropOp48
 70
     0
102
RTVSPost2010Prop49
280
     0
102
RTVSPost2010PropOp49
 70
     1
102
RTVSPost2010Prop50
 90
       50
102
RTVSPost2010PropOp50
 70
     0
102
RTVSPost2010Prop51ColorIndex
 90
      256
102
RTVSPost2010Prop51ColorRGB
 90
-16777216
102
RTVSPost2010PropOp51
 70
     0
102
RTVSPost2010Prop52
140
1.0
102
RTVSPost2010PropOp52
 70
     0
102
RTVSPost2010Prop53
 90
        2
102
RTVSPost2010PropOp53
 70
     0
102
RTVSPost2010Prop54
  1
strokes_ogs.tif
102
RTVSPost2010PropOp54
 70
     0
102
RTVSPost2010Prop55
280
     0
102
RTVSPost2010PropOp55
 70
     1
102
RTVSPost2010Prop56
140
1.0
102
RTVSPost2010PropOp56
 70
     0
102
RTVSPost2010Prop57
140
1.0
102
RTVSPost2010PropOp57
 70
     0
102
RTVSPropertyOp0
 70
     0
102
RTVSPropertyOp1
 70
     0
102
RTVSPropertyOp2
 70
     0
102
RTVSPropertyOp3
 70
     0
102
RTVSPropertyOp4
 70
     0
102
RTVSPropertyOp5
 70
     0
102
RTVSPropertyOp6
 70
     0
102
RTVSPropertyOp7
 70
     0
102
RTVSPropertyOp8
 70
     0
102
RTVSPropertyOp9
 70
     0
102
RTVSPropertyOp10
 70
     0
102
RTVSPropertyOp11
 70
     0
102
RTVSPropertyOp12
 70
     0
102
RTVSPropertyOp13
 70
     0
102
RTVSPropertyOp14
 70
     2
102
RTVSPropertyOp15
 70
     0
102
RTVSPropertyOp16
 70
     0
102
RTVSPropertyOp17
 70
     0
102
RTVSPropertyOp18
 70
     0
102
RTVSPropertyOp19
 70
     0
102
RTVSPropertyOp20
 70
     0
102
RTVSPropertyOp21
 70
     0
102
RTVSPropertyOp22
 70
     0
102
RTVSPropertyOp23
 70
     0
102
RTVSPropertyOp24
 70
     0
102
RTVSPropertyOp25
 70
     0
102
RTVSPropertyOp26
 70
     0
102
RTVSPropertyOp27
 70
     0
102
RTVSPropertyOp28
 70
     1
102
RTVSPropertyOp29
 70
     1
102
RTVSPropertyOp30
 70
     1
102
RTVSPropertyOp31
 70
     1
102
RTVSPropertyOp32
 70
     1
102
RTVSPropertyOp33
 70
     1
102
RTVSPropertyOp34
 70
     1
102
RTVSPropertyOp35
 70
     1
102
RTVSPropertyOp36
 70
     1
102
RTVSPropertyOp37
 70
     0
102
RTVSPropertyOp38
 70
     0
102
RTVSPropertyOp39
 70
     0
102
RTVSPropertyOp40
 70
     0
102
RTVSPropertyOp41
 70
     0
102
RTVSPropertyOp42
 70
     0
102
RTVSPropertyOp43
 70
     0
102
RTVSPropertyOp44
 70
     0
102
RTVSPropertyOp45
 70
     1
102
RTVSPropertyOp46
 70
     0
102
RTVSPropertyOp47
 70
     0
102
RTVSPropertyOp48
 70
     0
102
RTVSPropertyOp49
 70
     1
102
RTVSPropertyOp50
 70
     0
102
RTVSPropertyOp51
 70
     0
102
RTVSPropertyOp52
 70
     0
102
RTVSPropertyOp53
 70
     0
102
RTVSPropertyOp54
 70
     0
102
RTVSPropertyOp55
 70
     1
102
RTVSPropertyOp56
 70
     0
102
RTVSPropertyOp57
 70
     0
102
RTVSPropertyOp58
 70
     0
102
RTVSPropertyOp59
 70
     0
102
RTVSPropertyOp60
 70
     0
102
RTVSPropertyOp61
 70
     0
102
RTVSPropertyOp62
 70
     0
  0
XRECORD
  5
BB86
102
{ACAD_REACTORS
330
BB85
102
}
330
BB85
100
AcDbXrecord
280
     1
102
RTVSPost2010Prop28
280
     0
102
RTVSPost2010PropOp28
 70
     1
102
RTVSPost2010Prop29
280
     1
102
RTVSPost2010PropOp29
 70
     1
102
RTVSPost2010Prop30
280
     1
102
RTVSPost2010PropOp30
 70
     1
102
RTVSPost2010Prop31
280
     0
102
RTVSPost2010PropOp31
 70
     1
102
RTVSPost2010Prop32
280
     0
102
RTVSPost2010PropOp32
 70
     1
102
RTVSPost2010Prop33
280
     0
102
RTVSPost2010PropOp33
 70
     1
102
RTVSPost2010Prop34
280
     0
102
RTVSPost2010PropOp34
 70
     1
102
RTVSPost2010Prop35
280
     0
102
RTVSPost2010PropOp35
 70
     1
102
RTVSPost2010Prop36
280
     0
102
RTVSPost2010PropOp36
 70
     1
102
RTVSPost2010Prop37
 90
       50
102
RTVSPost2010PropOp37
 70
     1
102
RTVSPost2010Prop38
140
0.0
102
RTVSPost2010PropOp38
 70
     1
102
RTVSPost2010Prop39
140
1.0
102
RTVSPost2010PropOp39
 70
     1
102
RTVSPost2010Prop40
 90
        0
102
RTVSPost2010PropOp40
 70
     1
102
RTVSPost2010Prop41ColorIndex
 90
       18
102
RTVSPost2010Prop41ColorRGB
 90
        0
102
RTVSPost2010PropOp41
 70
     1
102
RTVSPost2010Prop42
 90
       50
102
RTVSPost2010PropOp42
 70
     1
102
RTVSPost2010Prop43
 90
        3
102
RTVSPost2010PropOp43
 70
     1
102
RTVSPost2010Prop44ColorIndex
 90
        5
102
RTVSPost2010Prop44ColorRGB
 90
      255
102
RTVSPost2010PropOp44
 70
     1
102
RTVSPost2010Prop45
280
     0
102
RTVSPost2010PropOp45
 70
     1
102
RTVSPost2010Prop46
 90
       50
102
RTVSPost2010PropOp46
 70
     1
102
RTVSPost2010Prop47
 90
       50
102
RTVSPost2010PropOp47
 70
     1
102
RTVSPost2010Prop48
 90
       50
102
RTVSPost2010PropOp48
 70
     1
102
RTVSPost2010Prop49
280
     0
102
RTVSPost2010PropOp49
 70
     1
102
RTVSPost2010Prop50
 90
       50
102
RTVSPost2010PropOp50
 70
     1
102
RTVSPost2010Prop51ColorIndex
 90
      256
102
RTVSPost2010Prop51ColorRGB
 90
-16777216
102
RTVSPost2010PropOp51
 70
     0
102
RTVSPost2010Prop52
140
1.0
102
RTVSPost2010PropOp52
 70
     0
102
RTVSPost2010Prop53
 90
        2
102
RTVSPost2010PropOp53
 70
     1
102
RTVSPost2010Prop54
  1
strokes_ogs.tif
102
RTVSPost2010PropOp54
 70
     1
102
RTVSPost2010Prop55
280
     0
102
RTVSPost2010PropOp55
 70
     1
102
RTVSPost2010Prop56
140
1.0
102
RTVSPost2010PropOp56
 70
     1
102
RTVSPost2010Prop57
140
1.0
102
RTVSPost2010PropOp57
 70
     1
102
RTVSPropertyOp0
 70
     1
102
RTVSPropertyOp1
 70
     1
102
RTVSPropertyOp2
 70
     1
102
RTVSPropertyOp3
 70
     1
102
RTVSPropertyOp4
 70
     1
102
RTVSPropertyOp5
 70
     1
102
RTVSPropertyOp6
 70
     1
102
RTVSPropertyOp7
 70
     1
102
RTVSPropertyOp8
 70
     1
102
RTVSPropertyOp9
 70
     1
102
RTVSPropertyOp10
 70
     1
102
RTVSPropertyOp11
 70
     1
102
RTVSPropertyOp12
 70
     1
102
RTVSPropertyOp13
 70
     1
102
RTVSPropertyOp14
 70
     1
102
RTVSPropertyOp15
 70
     1
102
RTVSPropertyOp16
 70
     1
102
RTVSPropertyOp17
 70
     1
102
RTVSPropertyOp18
 70
     1
102
RTVSPropertyOp19
 70
     1
102
RTVSPropertyOp20
 70
     1
102
RTVSPropertyOp21
 70
     1
102
RTVSPropertyOp22
 70
     1
102
RTVSPropertyOp23
 70
     1
102
RTVSPropertyOp24
 70
     1
102
RTVSPropertyOp25
 70
     1
102
RTVSPropertyOp26
 70
     1
102
RTVSPropertyOp27
 70
     1
102
RTVSPropertyOp28
 70
     1
102
RTVSPropertyOp29
 70
     1
102
RTVSPropertyOp30
 70
     1
102
RTVSPropertyOp31
 70
     1
102
RTVSPropertyOp32
 70
     1
102
RTVSPropertyOp33
 70
     1
102
RTVSPropertyOp34
 70
     1
102
RTVSPropertyOp35
 70
     1
102
RTVSPropertyOp36
 70
     1
102
RTVSPropertyOp37
 70
     1
102
RTVSPropertyOp38
 70
     1
102
RTVSPropertyOp39
 70
     1
102
RTVSPropertyOp40
 70
     1
102
RTVSPropertyOp41
 70
     1
102
RTVSPropertyOp42
 70
     1
102
RTVSPropertyOp43
 70
     1
102
RTVSPropertyOp44
 70
     1
102
RTVSPropertyOp45
 70
     1
102
RTVSPropertyOp46
 70
     1
102
RTVSPropertyOp47
 70
     1
102
RTVSPropertyOp48
 70
     1
102
RTVSPropertyOp49
 70
     1
102
RTVSPropertyOp50
 70
     1
102
RTVSPropertyOp51
 70
     0
102
RTVSPropertyOp52
 70
     0
102
RTVSPropertyOp53
 70
     1
102
RTVSPropertyOp54
 70
     1
102
RTVSPropertyOp55
 70
     1
102
RTVSPropertyOp56
 70
     1
102
RTVSPropertyOp57
 70
     1
102
RTVSPropertyOp58
 70
     1
102
RTVSPropertyOp59
 70
     1
102
RTVSPropertyOp60
 70
     1
102
RTVSPropertyOp61
 70
     1
102
RTVSPropertyOp62
 70
     1
  0
XRECORD
  5
BB9C
102
{ACAD_REACTORS
330
BB9B
102
}
330
BB9B
100
AcDbXrecord
280
     1
102
RTVSPost2010Prop28
280
     0
102
RTVSPost2010PropOp28
 70
     1
102
RTVSPost2010Prop29
280
     1
102
RTVSPost2010PropOp29
 70
     1
102
RTVSPost2010Prop30
280
     1
102
RTVSPost2010PropOp30
 70
     1
102
RTVSPost2010Prop31
280
     0
102
RTVSPost2010PropOp31
 70
     1
102
RTVSPost2010Prop32
280
     0
102
RTVSPost2010PropOp32
 70
     1
102
RTVSPost2010Prop33
280
     0
102
RTVSPost2010PropOp33
 70
     1
102
RTVSPost2010Prop34
280
     0
102
RTVSPost2010PropOp34
 70
     1
102
RTVSPost2010Prop35
280
     0
102
RTVSPost2010PropOp35
 70
     1
102
RTVSPost2010Prop36
280
     0
102
RTVSPost2010PropOp36
 70
     1
102
RTVSPost2010Prop37
 90
       50
102
RTVSPost2010PropOp37
 70
     1
102
RTVSPost2010Prop38
140
0.0
102
RTVSPost2010PropOp38
 70
     1
102
RTVSPost2010Prop39
140
1.0
102
RTVSPost2010PropOp39
 70
     1
102
RTVSPost2010Prop40
 90
        0
102
RTVSPost2010PropOp40
 70
     1
102
RTVSPost2010Prop41ColorIndex
 90
       18
102
RTVSPost2010Prop41ColorRGB
 90
        0
102
RTVSPost2010PropOp41
 70
     1
102
RTVSPost2010Prop42
 90
       50
102
RTVSPost2010PropOp42
 70
     1
102
RTVSPost2010Prop43
 90
        3
102
RTVSPost2010PropOp43
 70
     1
102
RTVSPost2010Prop44ColorIndex
 90
        5
102
RTVSPost2010Prop44ColorRGB
 90
      255
102
RTVSPost2010PropOp44
 70
     1
102
RTVSPost2010Prop45
280
     0
102
RTVSPost2010PropOp45
 70
     1
102
RTVSPost2010Prop46
 90
       50
102
RTVSPost2010PropOp46
 70
     1
102
RTVSPost2010Prop47
 90
       50
102
RTVSPost2010PropOp47
 70
     1
102
RTVSPost2010Prop48
 90
       50
102
RTVSPost2010PropOp48
 70
     1
102
RTVSPost2010Prop49
280
     0
102
RTVSPost2010PropOp49
 70
     1
102
RTVSPost2010Prop50
 90
       50
102
RTVSPost2010PropOp50
 70
     1
102
RTVSPost2010Prop51ColorIndex
 90
      256
102
RTVSPost2010Prop51ColorRGB
 90
-16777216
102
RTVSPost2010PropOp51
 70
     0
102
RTVSPost2010Prop52
140
1.0
102
RTVSPost2010PropOp52
 70
     0
102
RTVSPost2010Prop53
 90
        2
102
RTVSPost2010PropOp53
 70
     1
102
RTVSPost2010Prop54
  1
strokes_ogs.tif
102
RTVSPost2010PropOp54
 70
     1
102
RTVSPost2010Prop55
280
     0
102
RTVSPost2010PropOp55
 70
     1
102
RTVSPost2010Prop56
140
1.0
102
RTVSPost2010PropOp56
 70
     1
102
RTVSPost2010Prop57
140
1.0
102
RTVSPost2010PropOp57
 70
     1
102
RTVSPropertyOp0
 70
     1
102
RTVSPropertyOp1
 70
     1
102
RTVSPropertyOp2
 70
     1
102
RTVSPropertyOp3
 70
     1
102
RTVSPropertyOp4
 70
     1
102
RTVSPropertyOp5
 70
     1
102
RTVSPropertyOp6
 70
     1
102
RTVSPropertyOp7
 70
     1
102
RTVSPropertyOp8
 70
     1
102
RTVSPropertyOp9
 70
     1
102
RTVSPropertyOp10
 70
     1
102
RTVSPropertyOp11
 70
     1
102
RTVSPropertyOp12
 70
     1
102
RTVSPropertyOp13
 70
     1
102
RTVSPropertyOp14
 70
     1
102
RTVSPropertyOp15
 70
     1
102
RTVSPropertyOp16
 70
     1
102
RTVSPropertyOp17
 70
     1
102
RTVSPropertyOp18
 70
     1
102
RTVSPropertyOp19
 70
     1
102
RTVSPropertyOp20
 70
     1
102
RTVSPropertyOp21
 70
     1
102
RTVSPropertyOp22
 70
     1
102
RTVSPropertyOp23
 70
     1
102
RTVSPropertyOp24
 70
     1
102
RTVSPropertyOp25
 70
     1
102
RTVSPropertyOp26
 70
     1
102
RTVSPropertyOp27
 70
     1
102
RTVSPropertyOp28
 70
     1
102
RTVSPropertyOp29
 70
     1
102
RTVSPropertyOp30
 70
     1
102
RTVSPropertyOp31
 70
     1
102
RTVSPropertyOp32
 70
     1
102
RTVSPropertyOp33
 70
     1
102
RTVSPropertyOp34
 70
     1
102
RTVSPropertyOp35
 70
     1
102
RTVSPropertyOp36
 70
     1
102
RTVSPropertyOp37
 70
     1
102
RTVSPropertyOp38
 70
     1
102
RTVSPropertyOp39
 70
     1
102
RTVSPropertyOp40
 70
     1
102
RTVSPropertyOp41
 70
     1
102
RTVSPropertyOp42
 70
     1
102
RTVSPropertyOp43
 70
     1
102
RTVSPropertyOp44
 70
     1
102
RTVSPropertyOp45
 70
     1
102
RTVSPropertyOp46
 70
     1
102
RTVSPropertyOp47
 70
     1
102
RTVSPropertyOp48
 70
     1
102
RTVSPropertyOp49
 70
     1
102
RTVSPropertyOp50
 70
     1
102
RTVSPropertyOp51
 70
     0
102
RTVSPropertyOp52
 70
     0
102
RTVSPropertyOp53
 70
     1
102
RTVSPropertyOp54
 70
     1
102
RTVSPropertyOp55
 70
     1
102
RTVSPropertyOp56
 70
     1
102
RTVSPropertyOp57
 70
     1
102
RTVSPropertyOp58
 70
     1
102
RTVSPropertyOp59
 70
     1
102
RTVSPropertyOp60
 70
     1
102
RTVSPropertyOp61
 70
     1
102
RTVSPropertyOp62
 70
     1
  0
XRECORD
  5
BB9A
102
{ACAD_REACTORS
330
BB99
102
}
330
BB99
100
AcDbXrecord
280
     1
102
RTVSPost2010Prop28
280
     0
102
RTVSPost2010PropOp28
 70
     1
102
RTVSPost2010Prop29
280
     1
102
RTVSPost2010PropOp29
 70
     1
102
RTVSPost2010Prop30
280
     1
102
RTVSPost2010PropOp30
 70
     1
102
RTVSPost2010Prop31
280
     0
102
RTVSPost2010PropOp31
 70
     1
102
RTVSPost2010Prop32
280
     0
102
RTVSPost2010PropOp32
 70
     1
102
RTVSPost2010Prop33
280
     0
102
RTVSPost2010PropOp33
 70
     1
102
RTVSPost2010Prop34
280
     0
102
RTVSPost2010PropOp34
 70
     1
102
RTVSPost2010Prop35
280
     0
102
RTVSPost2010PropOp35
 70
     1
102
RTVSPost2010Prop36
280
     0
102
RTVSPost2010PropOp36
 70
     1
102
RTVSPost2010Prop37
 90
       50
102
RTVSPost2010PropOp37
 70
     1
102
RTVSPost2010Prop38
140
0.0
102
RTVSPost2010PropOp38
 70
     1
102
RTVSPost2010Prop39
140
1.0
102
RTVSPost2010PropOp39
 70
     1
102
RTVSPost2010Prop40
 90
        0
102
RTVSPost2010PropOp40
 70
     1
102
RTVSPost2010Prop41ColorIndex
 90
       18
102
RTVSPost2010Prop41ColorRGB
 90
        0
102
RTVSPost2010PropOp41
 70
     1
102
RTVSPost2010Prop42
 90
       50
102
RTVSPost2010PropOp42
 70
     1
102
RTVSPost2010Prop43
 90
        3
102
RTVSPost2010PropOp43
 70
     1
102
RTVSPost2010Prop44ColorIndex
 90
        5
102
RTVSPost2010Prop44ColorRGB
 90
      255
102
RTVSPost2010PropOp44
 70
     1
102
RTVSPost2010Prop45
280
     0
102
RTVSPost2010PropOp45
 70
     1
102
RTVSPost2010Prop46
 90
       50
102
RTVSPost2010PropOp46
 70
     1
102
RTVSPost2010Prop47
 90
       50
102
RTVSPost2010PropOp47
 70
     1
102
RTVSPost2010Prop48
 90
       50
102
RTVSPost2010PropOp48
 70
     1
102
RTVSPost2010Prop49
280
     0
102
RTVSPost2010PropOp49
 70
     1
102
RTVSPost2010Prop50
 90
       50
102
RTVSPost2010PropOp50
 70
     1
102
RTVSPost2010Prop51ColorIndex
 90
      256
102
RTVSPost2010Prop51ColorRGB
 90
-16777216
102
RTVSPost2010PropOp51
 70
     0
102
RTVSPost2010Prop52
140
1.0
102
RTVSPost2010PropOp52
 70
     0
102
RTVSPost2010Prop53
 90
        2
102
RTVSPost2010PropOp53
 70
     1
102
RTVSPost2010Prop54
  1
strokes_ogs.tif
102
RTVSPost2010PropOp54
 70
     1
102
RTVSPost2010Prop55
280
     0
102
RTVSPost2010PropOp55
 70
     1
102
RTVSPost2010Prop56
140
1.0
102
RTVSPost2010PropOp56
 70
     1
102
RTVSPost2010Prop57
140
1.0
102
RTVSPost2010PropOp57
 70
     1
102
RTVSPropertyOp0
 70
     1
102
RTVSPropertyOp1
 70
     1
102
RTVSPropertyOp2
 70
     1
102
RTVSPropertyOp3
 70
     1
102
RTVSPropertyOp4
 70
     1
102
RTVSPropertyOp5
 70
     1
102
RTVSPropertyOp6
 70
     1
102
RTVSPropertyOp7
 70
     1
102
RTVSPropertyOp8
 70
     1
102
RTVSPropertyOp9
 70
     1
102
RTVSPropertyOp10
 70
     1
102
RTVSPropertyOp11
 70
     1
102
RTVSPropertyOp12
 70
     1
102
RTVSPropertyOp13
 70
     1
102
RTVSPropertyOp14
 70
     1
102
RTVSPropertyOp15
 70
     1
102
RTVSPropertyOp16
 70
     1
102
RTVSPropertyOp17
 70
     1
102
RTVSPropertyOp18
 70
     1
102
RTVSPropertyOp19
 70
     1
102
RTVSPropertyOp20
 70
     1
102
RTVSPropertyOp21
 70
     1
102
RTVSPropertyOp22
 70
     1
102
RTVSPropertyOp23
 70
     1
102
RTVSPropertyOp24
 70
     1
102
RTVSPropertyOp25
 70
     1
102
RTVSPropertyOp26
 70
     1
102
RTVSPropertyOp27
 70
     1
102
RTVSPropertyOp28
 70
     1
102
RTVSPropertyOp29
 70
     1
102
RTVSPropertyOp30
 70
     1
102
RTVSPropertyOp31
 70
     1
102
RTVSPropertyOp32
 70
     1
102
RTVSPropertyOp33
 70
     1
102
RTVSPropertyOp34
 70
     1
102
RTVSPropertyOp35
 70
     1
102
RTVSPropertyOp36
 70
     1
102
RTVSPropertyOp37
 70
     1
102
RTVSPropertyOp38
 70
     1
102
RTVSPropertyOp39
 70
     1
102
RTVSPropertyOp40
 70
     1
102
RTVSPropertyOp41
 70
     1
102
RTVSPropertyOp42
 70
     1
102
RTVSPropertyOp43
 70
     1
102
RTVSPropertyOp44
 70
     1
102
RTVSPropertyOp45
 70
     1
102
RTVSPropertyOp46
 70
     1
102
RTVSPropertyOp47
 70
     1
102
RTVSPropertyOp48
 70
     1
102
RTVSPropertyOp49
 70
     1
102
RTVSPropertyOp50
 70
     1
102
RTVSPropertyOp51
 70
     0
102
RTVSPropertyOp52
 70
     0
102
RTVSPropertyOp53
 70
     1
102
RTVSPropertyOp54
 70
     1
102
RTVSPropertyOp55
 70
     1
102
RTVSPropertyOp56
 70
     1
102
RTVSPropertyOp57
 70
     1
102
RTVSPropertyOp58
 70
     1
102
RTVSPropertyOp59
 70
     1
102
RTVSPropertyOp60
 70
     1
102
RTVSPropertyOp61
 70
     1
102
RTVSPropertyOp62
 70
     1
  0
XRECORD
  5
BB94
102
{ACAD_REACTORS
330
BB93
102
}
330
BB93
100
AcDbXrecord
280
     1
102
RTVSPost2010Prop28
280
     0
102
RTVSPost2010PropOp28
 70
     1
102
RTVSPost2010Prop29
280
     1
102
RTVSPost2010PropOp29
 70
     1
102
RTVSPost2010Prop30
280
     1
102
RTVSPost2010PropOp30
 70
     1
102
RTVSPost2010Prop31
280
     0
102
RTVSPost2010PropOp31
 70
     1
102
RTVSPost2010Prop32
280
     0
102
RTVSPost2010PropOp32
 70
     1
102
RTVSPost2010Prop33
280
     0
102
RTVSPost2010PropOp33
 70
     1
102
RTVSPost2010Prop34
280
     0
102
RTVSPost2010PropOp34
 70
     1
102
RTVSPost2010Prop35
280
     0
102
RTVSPost2010PropOp35
 70
     1
102
RTVSPost2010Prop36
280
     0
102
RTVSPost2010PropOp36
 70
     1
102
RTVSPost2010Prop37
 90
       50
102
RTVSPost2010PropOp37
 70
     1
102
RTVSPost2010Prop38
140
0.0
102
RTVSPost2010PropOp38
 70
     1
102
RTVSPost2010Prop39
140
1.0
102
RTVSPost2010PropOp39
 70
     1
102
RTVSPost2010Prop40
 90
        0
102
RTVSPost2010PropOp40
 70
     1
102
RTVSPost2010Prop41ColorIndex
 90
       18
102
RTVSPost2010Prop41ColorRGB
 90
        0
102
RTVSPost2010PropOp41
 70
     1
102
RTVSPost2010Prop42
 90
       50
102
RTVSPost2010PropOp42
 70
     1
102
RTVSPost2010Prop43
 90
        3
102
RTVSPost2010PropOp43
 70
     1
102
RTVSPost2010Prop44ColorIndex
 90
        5
102
RTVSPost2010Prop44ColorRGB
 90
      255
102
RTVSPost2010PropOp44
 70
     1
102
RTVSPost2010Prop45
280
     0
102
RTVSPost2010PropOp45
 70
     1
102
RTVSPost2010Prop46
 90
       50
102
RTVSPost2010PropOp46
 70
     1
102
RTVSPost2010Prop47
 90
       50
102
RTVSPost2010PropOp47
 70
     1
102
RTVSPost2010Prop48
 90
       50
102
RTVSPost2010PropOp48
 70
     1
102
RTVSPost2010Prop49
280
     0
102
RTVSPost2010PropOp49
 70
     1
102
RTVSPost2010Prop50
 90
       50
102
RTVSPost2010PropOp50
 70
     1
102
RTVSPost2010Prop51ColorIndex
 90
      256
102
RTVSPost2010Prop51ColorRGB
 90
-16777216
102
RTVSPost2010PropOp51
 70
     0
102
RTVSPost2010Prop52
140
1.0
102
RTVSPost2010PropOp52
 70
     0
102
RTVSPost2010Prop53
 90
        2
102
RTVSPost2010PropOp53
 70
     1
102
RTVSPost2010Prop54
  1
strokes_ogs.tif
102
RTVSPost2010PropOp54
 70
     1
102
RTVSPost2010Prop55
280
     0
102
RTVSPost2010PropOp55
 70
     1
102
RTVSPost2010Prop56
140
1.0
102
RTVSPost2010PropOp56
 70
     1
102
RTVSPost2010Prop57
140
1.0
102
RTVSPost2010PropOp57
 70
     1
102
RTVSPropertyOp0
 70
     1
102
RTVSPropertyOp1
 70
     1
102
RTVSPropertyOp2
 70
     1
102
RTVSPropertyOp3
 70
     1
102
RTVSPropertyOp4
 70
     1
102
RTVSPropertyOp5
 70
     1
102
RTVSPropertyOp6
 70
     1
102
RTVSPropertyOp7
 70
     1
102
RTVSPropertyOp8
 70
     1
102
RTVSPropertyOp9
 70
     1
102
RTVSPropertyOp10
 70
     1
102
RTVSPropertyOp11
 70
     1
102
RTVSPropertyOp12
 70
     1
102
RTVSPropertyOp13
 70
     1
102
RTVSPropertyOp14
 70
     1
102
RTVSPropertyOp15
 70
     1
102
RTVSPropertyOp16
 70
     1
102
RTVSPropertyOp17
 70
     1
102
RTVSPropertyOp18
 70
     1
102
RTVSPropertyOp19
 70
     1
102
RTVSPropertyOp20
 70
     1
102
RTVSPropertyOp21
 70
     1
102
RTVSPropertyOp22
 70
     1
102
RTVSPropertyOp23
 70
     1
102
RTVSPropertyOp24
 70
     1
102
RTVSPropertyOp25
 70
     1
102
RTVSPropertyOp26
 70
     1
102
RTVSPropertyOp27
 70
     1
102
RTVSPropertyOp28
 70
     1
102
RTVSPropertyOp29
 70
     1
102
RTVSPropertyOp30
 70
     1
102
RTVSPropertyOp31
 70
     1
102
RTVSPropertyOp32
 70
     1
102
RTVSPropertyOp33
 70
     1
102
RTVSPropertyOp34
 70
     1
102
RTVSPropertyOp35
 70
     1
102
RTVSPropertyOp36
 70
     1
102
RTVSPropertyOp37
 70
     1
102
RTVSPropertyOp38
 70
     1
102
RTVSPropertyOp39
 70
     1
102
RTVSPropertyOp40
 70
     1
102
RTVSPropertyOp41
 70
     1
102
RTVSPropertyOp42
 70
     1
102
RTVSPropertyOp43
 70
     1
102
RTVSPropertyOp44
 70
     1
102
RTVSPropertyOp45
 70
     1
102
RTVSPropertyOp46
 70
     1
102
RTVSPropertyOp47
 70
     1
102
RTVSPropertyOp48
 70
     1
102
RTVSPropertyOp49
 70
     1
102
RTVSPropertyOp50
 70
     1
102
RTVSPropertyOp51
 70
     0
102
RTVSPropertyOp52
 70
     0
102
RTVSPropertyOp53
 70
     1
102
RTVSPropertyOp54
 70
     1
102
RTVSPropertyOp55
 70
     1
102
RTVSPropertyOp56
 70
     1
102
RTVSPropertyOp57
 70
     1
102
RTVSPropertyOp58
 70
     1
102
RTVSPropertyOp59
 70
     1
102
RTVSPropertyOp60
 70
     1
102
RTVSPropertyOp61
 70
     1
102
RTVSPropertyOp62
 70
     1
  0
XRECORD
  5
BB96
102
{ACAD_REACTORS
330
BB95
102
}
330
BB95
100
AcDbXrecord
280
     1
102
RTVSPost2010Prop28
280
     0
102
RTVSPost2010PropOp28
 70
     1
102
RTVSPost2010Prop29
280
     1
102
RTVSPost2010PropOp29
 70
     1
102
RTVSPost2010Prop30
280
     1
102
RTVSPost2010PropOp30
 70
     1
102
RTVSPost2010Prop31
280
     0
102
RTVSPost2010PropOp31
 70
     1
102
RTVSPost2010Prop32
280
     0
102
RTVSPost2010PropOp32
 70
     1
102
RTVSPost2010Prop33
280
     0
102
RTVSPost2010PropOp33
 70
     1
102
RTVSPost2010Prop34
280
     0
102
RTVSPost2010PropOp34
 70
     1
102
RTVSPost2010Prop35
280
     0
102
RTVSPost2010PropOp35
 70
     1
102
RTVSPost2010Prop36
280
     0
102
RTVSPost2010PropOp36
 70
     1
102
RTVSPost2010Prop37
 90
       50
102
RTVSPost2010PropOp37
 70
     1
102
RTVSPost2010Prop38
140
0.0
102
RTVSPost2010PropOp38
 70
     1
102
RTVSPost2010Prop39
140
1.0
102
RTVSPost2010PropOp39
 70
     1
102
RTVSPost2010Prop40
 90
        0
102
RTVSPost2010PropOp40
 70
     1
102
RTVSPost2010Prop41ColorIndex
 90
       18
102
RTVSPost2010Prop41ColorRGB
 90
        0
102
RTVSPost2010PropOp41
 70
     1
102
RTVSPost2010Prop42
 90
       50
102
RTVSPost2010PropOp42
 70
     1
102
RTVSPost2010Prop43
 90
        3
102
RTVSPost2010PropOp43
 70
     1
102
RTVSPost2010Prop44ColorIndex
 90
        5
102
RTVSPost2010Prop44ColorRGB
 90
      255
102
RTVSPost2010PropOp44
 70
     1
102
RTVSPost2010Prop45
280
     0
102
RTVSPost2010PropOp45
 70
     1
102
RTVSPost2010Prop46
 90
       50
102
RTVSPost2010PropOp46
 70
     1
102
RTVSPost2010Prop47
 90
       50
102
RTVSPost2010PropOp47
 70
     1
102
RTVSPost2010Prop48
 90
       50
102
RTVSPost2010PropOp48
 70
     1
102
RTVSPost2010Prop49
280
     0
102
RTVSPost2010PropOp49
 70
     1
102
RTVSPost2010Prop50
 90
       50
102
RTVSPost2010PropOp50
 70
     1
102
RTVSPost2010Prop51ColorIndex
 90
      256
102
RTVSPost2010Prop51ColorRGB
 90
-16777216
102
RTVSPost2010PropOp51
 70
     0
102
RTVSPost2010Prop52
140
1.0
102
RTVSPost2010PropOp52
 70
     0
102
RTVSPost2010Prop53
 90
        2
102
RTVSPost2010PropOp53
 70
     1
102
RTVSPost2010Prop54
  1
strokes_ogs.tif
102
RTVSPost2010PropOp54
 70
     1
102
RTVSPost2010Prop55
280
     0
102
RTVSPost2010PropOp55
 70
     1
102
RTVSPost2010Prop56
140
1.0
102
RTVSPost2010PropOp56
 70
     1
102
RTVSPost2010Prop57
140
1.0
102
RTVSPost2010PropOp57
 70
     1
102
RTVSPropertyOp0
 70
     1
102
RTVSPropertyOp1
 70
     1
102
RTVSPropertyOp2
 70
     1
102
RTVSPropertyOp3
 70
     1
102
RTVSPropertyOp4
 70
     1
102
RTVSPropertyOp5
 70
     1
102
RTVSPropertyOp6
 70
     1
102
RTVSPropertyOp7
 70
     1
102
RTVSPropertyOp8
 70
     1
102
RTVSPropertyOp9
 70
     1
102
RTVSPropertyOp10
 70
     1
102
RTVSPropertyOp11
 70
     1
102
RTVSPropertyOp12
 70
     1
102
RTVSPropertyOp13
 70
     1
102
RTVSPropertyOp14
 70
     1
102
RTVSPropertyOp15
 70
     1
102
RTVSPropertyOp16
 70
     1
102
RTVSPropertyOp17
 70
     1
102
RTVSPropertyOp18
 70
     1
102
RTVSPropertyOp19
 70
     1
102
RTVSPropertyOp20
 70
     1
102
RTVSPropertyOp21
 70
     1
102
RTVSPropertyOp22
 70
     1
102
RTVSPropertyOp23
 70
     1
102
RTVSPropertyOp24
 70
     1
102
RTVSPropertyOp25
 70
     1
102
RTVSPropertyOp26
 70
     1
102
RTVSPropertyOp27
 70
     1
102
RTVSPropertyOp28
 70
     1
102
RTVSPropertyOp29
 70
     1
102
RTVSPropertyOp30
 70
     1
102
RTVSPropertyOp31
 70
     1
102
RTVSPropertyOp32
 70
     1
102
RTVSPropertyOp33
 70
     1
102
RTVSPropertyOp34
 70
     1
102
RTVSPropertyOp35
 70
     1
102
RTVSPropertyOp36
 70
     1
102
RTVSPropertyOp37
 70
     1
102
RTVSPropertyOp38
 70
     1
102
RTVSPropertyOp39
 70
     1
102
RTVSPropertyOp40
 70
     1
102
RTVSPropertyOp41
 70
     1
102
RTVSPropertyOp42
 70
     1
102
RTVSPropertyOp43
 70
     1
102
RTVSPropertyOp44
 70
     1
102
RTVSPropertyOp45
 70
     1
102
RTVSPropertyOp46
 70
     1
102
RTVSPropertyOp47
 70
     1
102
RTVSPropertyOp48
 70
     1
102
RTVSPropertyOp49
 70
     1
102
RTVSPropertyOp50
 70
     1
102
RTVSPropertyOp51
 70
     0
102
RTVSPropertyOp52
 70
     0
102
RTVSPropertyOp53
 70
     1
102
RTVSPropertyOp54
 70
     1
102
RTVSPropertyOp55
 70
     1
102
RTVSPropertyOp56
 70
     1
102
RTVSPropertyOp57
 70
     1
102
RTVSPropertyOp58
 70
     1
102
RTVSPropertyOp59
 70
     1
102
RTVSPropertyOp60
 70
     1
102
RTVSPropertyOp61
 70
     1
102
RTVSPropertyOp62
 70
     1
  0
XRECORD
  5
BB8C
102
{ACAD_REACTORS
330
BB8B
102
}
330
BB8B
100
AcDbXrecord
280
     1
102
RTVSPost2010Prop28
280
     0
102
RTVSPost2010PropOp28
 70
     1
102
RTVSPost2010Prop29
280
     1
102
RTVSPost2010PropOp29
 70
     1
102
RTVSPost2010Prop30
280
     1
102
RTVSPost2010PropOp30
 70
     1
102
RTVSPost2010Prop31
280
     0
102
RTVSPost2010PropOp31
 70
     1
102
RTVSPost2010Prop32
280
     0
102
RTVSPost2010PropOp32
 70
     1
102
RTVSPost2010Prop33
280
     0
102
RTVSPost2010PropOp33
 70
     1
102
RTVSPost2010Prop34
280
     0
102
RTVSPost2010PropOp34
 70
     1
102
RTVSPost2010Prop35
280
     0
102
RTVSPost2010PropOp35
 70
     1
102
RTVSPost2010Prop36
280
     0
102
RTVSPost2010PropOp36
 70
     1
102
RTVSPost2010Prop37
 90
       50
102
RTVSPost2010PropOp37
 70
     1
102
RTVSPost2010Prop38
140
0.0
102
RTVSPost2010PropOp38
 70
     1
102
RTVSPost2010Prop39
140
1.0
102
RTVSPost2010PropOp39
 70
     1
102
RTVSPost2010Prop40
 90
        0
102
RTVSPost2010PropOp40
 70
     1
102
RTVSPost2010Prop41ColorIndex
 90
       18
102
RTVSPost2010Prop41ColorRGB
 90
        0
102
RTVSPost2010PropOp41
 70
     1
102
RTVSPost2010Prop42
 90
       50
102
RTVSPost2010PropOp42
 70
     1
102
RTVSPost2010Prop43
 90
        3
102
RTVSPost2010PropOp43
 70
     1
102
RTVSPost2010Prop44ColorIndex
 90
        5
102
RTVSPost2010Prop44ColorRGB
 90
      255
102
RTVSPost2010PropOp44
 70
     1
102
RTVSPost2010Prop45
280
     0
102
RTVSPost2010PropOp45
 70
     1
102
RTVSPost2010Prop46
 90
       50
102
RTVSPost2010PropOp46
 70
     1
102
RTVSPost2010Prop47
 90
       50
102
RTVSPost2010PropOp47
 70
     1
102
RTVSPost2010Prop48
 90
       50
102
RTVSPost2010PropOp48
 70
     1
102
RTVSPost2010Prop49
280
     0
102
RTVSPost2010PropOp49
 70
     1
102
RTVSPost2010Prop50
 90
       50
102
RTVSPost2010PropOp50
 70
     1
102
RTVSPost2010Prop51ColorIndex
 90
      256
102
RTVSPost2010Prop51ColorRGB
 90
-16777216
102
RTVSPost2010PropOp51
 70
     0
102
RTVSPost2010Prop52
140
1.0
102
RTVSPost2010PropOp52
 70
     0
102
RTVSPost2010Prop53
 90
        2
102
RTVSPost2010PropOp53
 70
     1
102
RTVSPost2010Prop54
  1
strokes_ogs.tif
102
RTVSPost2010PropOp54
 70
     1
102
RTVSPost2010Prop55
280
     0
102
RTVSPost2010PropOp55
 70
     1
102
RTVSPost2010Prop56
140
1.0
102
RTVSPost2010PropOp56
 70
     1
102
RTVSPost2010Prop57
140
1.0
102
RTVSPost2010PropOp57
 70
     1
102
RTVSPropertyOp0
 70
     1
102
RTVSPropertyOp1
 70
     1
102
RTVSPropertyOp2
 70
     1
102
RTVSPropertyOp3
 70
     1
102
RTVSPropertyOp4
 70
     1
102
RTVSPropertyOp5
 70
     1
102
RTVSPropertyOp6
 70
     1
102
RTVSPropertyOp7
 70
     1
102
RTVSPropertyOp8
 70
     1
102
RTVSPropertyOp9
 70
     1
102
RTVSPropertyOp10
 70
     1
102
RTVSPropertyOp11
 70
     1
102
RTVSPropertyOp12
 70
     1
102
RTVSPropertyOp13
 70
     1
102
RTVSPropertyOp14
 70
     1
102
RTVSPropertyOp15
 70
     1
102
RTVSPropertyOp16
 70
     1
102
RTVSPropertyOp17
 70
     1
102
RTVSPropertyOp18
 70
     1
102
RTVSPropertyOp19
 70
     1
102
RTVSPropertyOp20
 70
     1
102
RTVSPropertyOp21
 70
     1
102
RTVSPropertyOp22
 70
     1
102
RTVSPropertyOp23
 70
     1
102
RTVSPropertyOp24
 70
     1
102
RTVSPropertyOp25
 70
     1
102
RTVSPropertyOp26
 70
     1
102
RTVSPropertyOp27
 70
     1
102
RTVSPropertyOp28
 70
     1
102
RTVSPropertyOp29
 70
     1
102
RTVSPropertyOp30
 70
     1
102
RTVSPropertyOp31
 70
     1
102
RTVSPropertyOp32
 70
     1
102
RTVSPropertyOp33
 70
     1
102
RTVSPropertyOp34
 70
     1
102
RTVSPropertyOp35
 70
     1
102
RTVSPropertyOp36
 70
     1
102
RTVSPropertyOp37
 70
     1
102
RTVSPropertyOp38
 70
     1
102
RTVSPropertyOp39
 70
     1
102
RTVSPropertyOp40
 70
     1
102
RTVSPropertyOp41
 70
     1
102
RTVSPropertyOp42
 70
     1
102
RTVSPropertyOp43
 70
     1
102
RTVSPropertyOp44
 70
     1
102
RTVSPropertyOp45
 70
     1
102
RTVSPropertyOp46
 70
     1
102
RTVSPropertyOp47
 70
     1
102
RTVSPropertyOp48
 70
     1
102
RTVSPropertyOp49
 70
     1
102
RTVSPropertyOp50
 70
     1
102
RTVSPropertyOp51
 70
     0
102
RTVSPropertyOp52
 70
     0
102
RTVSPropertyOp53
 70
     1
102
RTVSPropertyOp54
 70
     1
102
RTVSPropertyOp55
 70
     1
102
RTVSPropertyOp56
 70
     1
102
RTVSPropertyOp57
 70
     1
102
RTVSPropertyOp58
 70
     1
102
RTVSPropertyOp59
 70
     1
102
RTVSPropertyOp60
 70
     1
102
RTVSPropertyOp61
 70
     1
102
RTVSPropertyOp62
 70
     1
  0
XRECORD
  5
BB80
102
{ACAD_REACTORS
330
BB7F
102
}
330
BB7F
100
AcDbXrecord
280
     1
102
RTVSPost2010Prop28
280
     0
102
RTVSPost2010PropOp28
 70
     1
102
RTVSPost2010Prop29
280
     1
102
RTVSPost2010PropOp29
 70
     1
102
RTVSPost2010Prop30
280
     1
102
RTVSPost2010PropOp30
 70
     1
102
RTVSPost2010Prop31
280
     0
102
RTVSPost2010PropOp31
 70
     1
102
RTVSPost2010Prop32
280
     0
102
RTVSPost2010PropOp32
 70
     1
102
RTVSPost2010Prop33
280
     0
102
RTVSPost2010PropOp33
 70
     1
102
RTVSPost2010Prop34
280
     0
102
RTVSPost2010PropOp34
 70
     1
102
RTVSPost2010Prop35
280
     0
102
RTVSPost2010PropOp35
 70
     1
102
RTVSPost2010Prop36
280
     0
102
RTVSPost2010PropOp36
 70
     1
102
RTVSPost2010Prop37
 90
       50
102
RTVSPost2010PropOp37
 70
     1
102
RTVSPost2010Prop38
140
0.0
102
RTVSPost2010PropOp38
 70
     1
102
RTVSPost2010Prop39
140
1.0
102
RTVSPost2010PropOp39
 70
     1
102
RTVSPost2010Prop40
 90
        0
102
RTVSPost2010PropOp40
 70
     1
102
RTVSPost2010Prop41ColorIndex
 90
       18
102
RTVSPost2010Prop41ColorRGB
 90
        0
102
RTVSPost2010PropOp41
 70
     1
102
RTVSPost2010Prop42
 90
       50
102
RTVSPost2010PropOp42
 70
     1
102
RTVSPost2010Prop43
 90
        3
102
RTVSPost2010PropOp43
 70
     1
102
RTVSPost2010Prop44ColorIndex
 90
        5
102
RTVSPost2010Prop44ColorRGB
 90
      255
102
RTVSPost2010PropOp44
 70
     1
102
RTVSPost2010Prop45
280
     0
102
RTVSPost2010PropOp45
 70
     1
102
RTVSPost2010Prop46
 90
       50
102
RTVSPost2010PropOp46
 70
     1
102
RTVSPost2010Prop47
 90
       50
102
RTVSPost2010PropOp47
 70
     1
102
RTVSPost2010Prop48
 90
       50
102
RTVSPost2010PropOp48
 70
     1
102
RTVSPost2010Prop49
280
     0
102
RTVSPost2010PropOp49
 70
     1
102
RTVSPost2010Prop50
 90
       50
102
RTVSPost2010PropOp50
 70
     1
102
RTVSPost2010Prop51ColorIndex
 90
      256
102
RTVSPost2010Prop51ColorRGB
 90
-16777216
102
RTVSPost2010PropOp51
 70
     0
102
RTVSPost2010Prop52
140
1.0
102
RTVSPost2010PropOp52
 70
     0
102
RTVSPost2010Prop53
 90
        2
102
RTVSPost2010PropOp53
 70
     1
102
RTVSPost2010Prop54
  1
strokes_ogs.tif
102
RTVSPost2010PropOp54
 70
     1
102
RTVSPost2010Prop55
280
     0
102
RTVSPost2010PropOp55
 70
     1
102
RTVSPost2010Prop56
140
1.0
102
RTVSPost2010PropOp56
 70
     1
102
RTVSPost2010Prop57
140
1.0
102
RTVSPost2010PropOp57
 70
     1
102
RTVSPropertyOp0
 70
     1
102
RTVSPropertyOp1
 70
     1
102
RTVSPropertyOp2
 70
     1
102
RTVSPropertyOp3
 70
     1
102
RTVSPropertyOp4
 70
     1
102
RTVSPropertyOp5
 70
     1
102
RTVSPropertyOp6
 70
     1
102
RTVSPropertyOp7
 70
     1
102
RTVSPropertyOp8
 70
     1
102
RTVSPropertyOp9
 70
     1
102
RTVSPropertyOp10
 70
     1
102
RTVSPropertyOp11
 70
     1
102
RTVSPropertyOp12
 70
     1
102
RTVSPropertyOp13
 70
     1
102
RTVSPropertyOp14
 70
     1
102
RTVSPropertyOp15
 70
     1
102
RTVSPropertyOp16
 70
     1
102
RTVSPropertyOp17
 70
     1
102
RTVSPropertyOp18
 70
     1
102
RTVSPropertyOp19
 70
     1
102
RTVSPropertyOp20
 70
     1
102
RTVSPropertyOp21
 70
     1
102
RTVSPropertyOp22
 70
     1
102
RTVSPropertyOp23
 70
     1
102
RTVSPropertyOp24
 70
     1
102
RTVSPropertyOp25
 70
     1
102
RTVSPropertyOp26
 70
     1
102
RTVSPropertyOp27
 70
     1
102
RTVSPropertyOp28
 70
     1
102
RTVSPropertyOp29
 70
     1
102
RTVSPropertyOp30
 70
     1
102
RTVSPropertyOp31
 70
     1
102
RTVSPropertyOp32
 70
     1
102
RTVSPropertyOp33
 70
     1
102
RTVSPropertyOp34
 70
     1
102
RTVSPropertyOp35
 70
     1
102
RTVSPropertyOp36
 70
     1
102
RTVSPropertyOp37
 70
     1
102
RTVSPropertyOp38
 70
     1
102
RTVSPropertyOp39
 70
     1
102
RTVSPropertyOp40
 70
     1
102
RTVSPropertyOp41
 70
     1
102
RTVSPropertyOp42
 70
     1
102
RTVSPropertyOp43
 70
     1
102
RTVSPropertyOp44
 70
     1
102
RTVSPropertyOp45
 70
     1
102
RTVSPropertyOp46
 70
     1
102
RTVSPropertyOp47
 70
     1
102
RTVSPropertyOp48
 70
     1
102
RTVSPropertyOp49
 70
     1
102
RTVSPropertyOp50
 70
     1
102
RTVSPropertyOp51
 70
     0
102
RTVSPropertyOp52
 70
     0
102
RTVSPropertyOp53
 70
     1
102
RTVSPropertyOp54
 70
     1
102
RTVSPropertyOp55
 70
     1
102
RTVSPropertyOp56
 70
     1
102
RTVSPropertyOp57
 70
     1
102
RTVSPropertyOp58
 70
     1
102
RTVSPropertyOp59
 70
     1
102
RTVSPropertyOp60
 70
     1
102
RTVSPropertyOp61
 70
     1
102
RTVSPropertyOp62
 70
     1
  0
XRECORD
  5
BB98
102
{ACAD_REACTORS
330
BB97
102
}
330
BB97
100
AcDbXrecord
280
     1
102
RTVSPost2010Prop28
280
     0
102
RTVSPost2010PropOp28
 70
     1
102
RTVSPost2010Prop29
280
     1
102
RTVSPost2010PropOp29
 70
     1
102
RTVSPost2010Prop30
280
     1
102
RTVSPost2010PropOp30
 70
     1
102
RTVSPost2010Prop31
280
     0
102
RTVSPost2010PropOp31
 70
     1
102
RTVSPost2010Prop32
280
     0
102
RTVSPost2010PropOp32
 70
     1
102
RTVSPost2010Prop33
280
     0
102
RTVSPost2010PropOp33
 70
     1
102
RTVSPost2010Prop34
280
     0
102
RTVSPost2010PropOp34
 70
     1
102
RTVSPost2010Prop35
280
     0
102
RTVSPost2010PropOp35
 70
     1
102
RTVSPost2010Prop36
280
     0
102
RTVSPost2010PropOp36
 70
     1
102
RTVSPost2010Prop37
 90
       50
102
RTVSPost2010PropOp37
 70
     1
102
RTVSPost2010Prop38
140
0.0
102
RTVSPost2010PropOp38
 70
     1
102
RTVSPost2010Prop39
140
1.0
102
RTVSPost2010PropOp39
 70
     1
102
RTVSPost2010Prop40
 90
        0
102
RTVSPost2010PropOp40
 70
     1
102
RTVSPost2010Prop41ColorIndex
 90
       18
102
RTVSPost2010Prop41ColorRGB
 90
        0
102
RTVSPost2010PropOp41
 70
     1
102
RTVSPost2010Prop42
 90
       50
102
RTVSPost2010PropOp42
 70
     1
102
RTVSPost2010Prop43
 90
        3
102
RTVSPost2010PropOp43
 70
     1
102
RTVSPost2010Prop44ColorIndex
 90
        5
102
RTVSPost2010Prop44ColorRGB
 90
      255
102
RTVSPost2010PropOp44
 70
     1
102
RTVSPost2010Prop45
280
     0
102
RTVSPost2010PropOp45
 70
     1
102
RTVSPost2010Prop46
 90
       50
102
RTVSPost2010PropOp46
 70
     1
102
RTVSPost2010Prop47
 90
       50
102
RTVSPost2010PropOp47
 70
     1
102
RTVSPost2010Prop48
 90
       50
102
RTVSPost2010PropOp48
 70
     1
102
RTVSPost2010Prop49
280
     0
102
RTVSPost2010PropOp49
 70
     1
102
RTVSPost2010Prop50
 90
       50
102
RTVSPost2010PropOp50
 70
     1
102
RTVSPost2010Prop51ColorIndex
 90
      256
102
RTVSPost2010Prop51ColorRGB
 90
-16777216
102
RTVSPost2010PropOp51
 70
     0
102
RTVSPost2010Prop52
140
1.0
102
RTVSPost2010PropOp52
 70
     0
102
RTVSPost2010Prop53
 90
        2
102
RTVSPost2010PropOp53
 70
     1
102
RTVSPost2010Prop54
  1
strokes_ogs.tif
102
RTVSPost2010PropOp54
 70
     1
102
RTVSPost2010Prop55
280
     0
102
RTVSPost2010PropOp55
 70
     1
102
RTVSPost2010Prop56
140
1.0
102
RTVSPost2010PropOp56
 70
     1
102
RTVSPost2010Prop57
140
1.0
102
RTVSPost2010PropOp57
 70
     1
102
RTVSPropertyOp0
 70
     1
102
RTVSPropertyOp1
 70
     1
102
RTVSPropertyOp2
 70
     1
102
RTVSPropertyOp3
 70
     1
102
RTVSPropertyOp4
 70
     1
102
RTVSPropertyOp5
 70
     1
102
RTVSPropertyOp6
 70
     1
102
RTVSPropertyOp7
 70
     1
102
RTVSPropertyOp8
 70
     1
102
RTVSPropertyOp9
 70
     1
102
RTVSPropertyOp10
 70
     1
102
RTVSPropertyOp11
 70
     1
102
RTVSPropertyOp12
 70
     1
102
RTVSPropertyOp13
 70
     1
102
RTVSPropertyOp14
 70
     1
102
RTVSPropertyOp15
 70
     1
102
RTVSPropertyOp16
 70
     1
102
RTVSPropertyOp17
 70
     1
102
RTVSPropertyOp18
 70
     1
102
RTVSPropertyOp19
 70
     1
102
RTVSPropertyOp20
 70
     1
102
RTVSPropertyOp21
 70
     1
102
RTVSPropertyOp22
 70
     1
102
RTVSPropertyOp23
 70
     1
102
RTVSPropertyOp24
 70
     1
102
RTVSPropertyOp25
 70
     1
102
RTVSPropertyOp26
 70
     1
102
RTVSPropertyOp27
 70
     1
102
RTVSPropertyOp28
 70
     1
102
RTVSPropertyOp29
 70
     1
102
RTVSPropertyOp30
 70
     1
102
RTVSPropertyOp31
 70
     1
102
RTVSPropertyOp32
 70
     1
102
RTVSPropertyOp33
 70
     1
102
RTVSPropertyOp34
 70
     1
102
RTVSPropertyOp35
 70
     1
102
RTVSPropertyOp36
 70
     1
102
RTVSPropertyOp37
 70
     1
102
RTVSPropertyOp38
 70
     1
102
RTVSPropertyOp39
 70
     1
102
RTVSPropertyOp40
 70
     1
102
RTVSPropertyOp41
 70
     1
102
RTVSPropertyOp42
 70
     1
102
RTVSPropertyOp43
 70
     1
102
RTVSPropertyOp44
 70
     1
102
RTVSPropertyOp45
 70
     1
102
RTVSPropertyOp46
 70
     1
102
RTVSPropertyOp47
 70
     1
102
RTVSPropertyOp48
 70
     1
102
RTVSPropertyOp49
 70
     1
102
RTVSPropertyOp50
 70
     1
102
RTVSPropertyOp51
 70
     0
102
RTVSPropertyOp52
 70
     0
102
RTVSPropertyOp53
 70
     1
102
RTVSPropertyOp54
 70
     1
102
RTVSPropertyOp55
 70
     1
102
RTVSPropertyOp56
 70
     1
102
RTVSPropertyOp57
 70
     1
102
RTVSPropertyOp58
 70
     1
102
RTVSPropertyOp59
 70
     1
102
RTVSPropertyOp60
 70
     1
102
RTVSPropertyOp61
 70
     1
102
RTVSPropertyOp62
 70
     1
  0
ENDSEC
  0
EOF
