  0
SECTION
  2
HEADER
  9
$ACADVER
  1
AC1021
  9
$ACADMAINTVER
 70
    50
  9
$DWGCODEPAGE
  3
ANSI_1252
  9
$LASTSAVEDBY
  1
Reid
  9
$INSBASE
 10
0.0
 20
0.0
 30
0.0
  9
$EXTMIN
 10
-59.75845529221712
 20
60.08541521610607
 30
-0.0015258207003583
  9
$EXTMAX
 10
-43.01116023989559
 20
82.12620832437625
 30
0.0000000349246037
  9
$LIMMIN
 10
0.0
 20
0.0
  9
$LIMMAX
 10
12.0
 20
9.0
  9
$ORTHOMODE
 70
     1
  9
$REGENMODE
 70
     1
  9
$FILLMODE
 70
     1
  9
$QTEXTMODE
 70
     0
  9
$MIRRTEXT
 70
     0
  9
$LTSCALE
 40
1.0
  9
$ATTMODE
 70
     1
  9
$TEXTSIZE
 40
0.2
  9
$TRACEWID
 40
0.05
  9
$TEXTSTYLE
  7
Standard
  9
$CLAYER
  8
0
  9
$CELTYPE
  6
ByLayer
  9
$CECOLOR
 62
   256
  9
$CELTSCALE
 40
1.0
  9
$DISPSILH
 70
     0
  9
$DIMSCALE
 40
1.0
  9
$DIMASZ
 40
0.5508
  9
$DIMEXO
 40
0.25
  9
$DIMDLI
 40
0.38
  9
$DIMRND
 40
0.0
  9
$DIMDLE
 40
0.0
  9
$DIMEXE
 40
0.18
  9
$DIMTP
 40
0.0
  9
$DIMTM
 40
0.0
  9
$DIMTXT
 40
0.5508
  9
$DIMCEN
 40
0.09
  9
$DIMTSZ
 40
0.0
  9
$DIMTOL
 70
     0
  9
$DIMLIM
 70
     0
  9
$DIMTIH
 70
     1
  9
$DIMTOH
 70
     1
  9
$DIMSE1
 70
     0
  9
$DIMSE2
 70
     0
  9
$DIMTAD
 70
     0
  9
$DIMZIN
 70
     0
  9
$DIMBLK
  1

  9
$DIMASO
 70
     1
  9
$DIMSHO
 70
     1
  9
$DIMPOST
  1

  9
$DIMAPOST
  1

  9
$DIMALT
 70
     0
  9
$DIMALTD
 70
     2
  9
$DIMALTF
 40
25.4
  9
$DIMLFAC
 40
1.0
  9
$DIMTOFL
 70
     0
  9
$DIMTVP
 40
0.0
  9
$DIMTIX
 70
     0
  9
$DIMSOXD
 70
     0
  9
$DIMSAH
 70
     0
  9
$DIMBLK1
  1

  9
$DIMBLK2
  1

  9
$DIMSTYLE
  2
Standard
  9
$DIMCLRD
 70
     0
  9
$DIMCLRE
 70
     0
  9
$DIMCLRT
 70
     0
  9
$DIMTFAC
 40
1.0
  9
$DIMGAP
 40
0.09
  9
$DIMJUST
 70
     0
  9
$DIMSD1
 70
     0
  9
$DIMSD2
 70
     0
  9
$DIMTOLJ
 70
     1
  9
$DIMTZIN
 70
     0
  9
$DIMALTZ
 70
     0
  9
$DIMALTTZ
 70
     0
  9
$DIMUPT
 70
     0
  9
$DIMDEC
 70
     3
  9
$DIMTDEC
 70
     3
  9
$DIMALTU
 70
     2
  9
$DIMALTTD
 70
     2
  9
$DIMTXSTY
  7
Standard
  9
$DIMAUNIT
 70
     0
  9
$DIMADEC
 70
     0
  9
$DIMALTRND
 40
0.0
  9
$DIMAZIN
 70
     0
  9
$DIMDSEP
 70
    46
  9
$DIMATFIT
 70
     3
  9
$DIMFRAC
 70
     0
  9
$DIMLDRBLK
  1

  9
$DIMLUNIT
 70
     2
  9
$DIMLWD
 70
    -2
  9
$DIMLWE
 70
    -2
  9
$DIMTMOVE
 70
     0
  9
$DIMFXL
 40
1.0
  9
$DIMFXLON
 70
     0
  9
$DIMJOGANG
 40
0.7853981633974483
  9
$DIMTFILL
 70
     0
  9
$DIMTFILLCLR
 70
     0
  9
$DIMARCSYM
 70
     0
  9
$DIMLTYPE
  6

  9
$DIMLTEX1
  6

  9
$DIMLTEX2
  6

  9
$LUNITS
 70
     2
  9
$LUPREC
 70
     4
  9
$SKETCHINC
 40
0.1
  9
$FILLETRAD
 40
0.0
  9
$AUNITS
 70
     0
  9
$AUPREC
 70
     0
  9
$MENU
  1
.
  9
$ELEVATION
 40
0.0
  9
$PELEVATION
 40
0.0
  9
$THICKNESS
 40
0.0
  9
$LIMCHECK
 70
     0
  9
$CHAMFERA
 40
0.0
  9
$CHAMFERB
 40
0.0
  9
$CHAMFERC
 40
0.0
  9
$CHAMFERD
 40
0.0
  9
$SKPOLY
 70
     0
  9
$TDCREATE
 40
2454687.591962604
  9
$TDUCREATE
 40
2454687.800295937
  9
$TDUPDATE
 40
2457777.505490567
  9
$TDUUPDATE
 40
2457777.713823900
  9
$TDINDWG
 40
1.4152793519
  9
$TDUSRTIMER
 40
1.4152793287
  9
$USRTIMER
 70
     1
  9
$ANGBASE
 50
0.0
  9
$ANGDIR
 70
     0
  9
$PDMODE
 70
     0
  9
$PDSIZE
 40
0.0
  9
$PLINEWID
 40
0.0
  9
$SPLFRAME
 70
     0
  9
$SPLINETYPE
 70
     6
  9
$SPLINESEGS
 70
     8
  9
$HANDSEED
  5
3701
  9
$SURFTAB1
 70
     6
  9
$SURFTAB2
 70
     6
  9
$SURFTYPE
 70
     6
  9
$SURFU
 70
     6
  9
$SURFV
 70
     6
  9
$UCSBASE
  2

  9
$UCSNAME
  2

  9
$UCSORG
 10
-55.4021813343861
 20
67.05704511701668
 30
0.0
  9
$UCSXDIR
 10
1.0
 20
0.0
 30
0.0
  9
$UCSYDIR
 10
0.0
 20
1.0
 30
0.0
  9
$UCSORTHOREF
  2

  9
$UCSORTHOVIEW
 70
     0
  9
$UCSORGTOP
 10
0.0
 20
0.0
 30
0.0
  9
$UCSORGBOTTOM
 10
0.0
 20
0.0
 30
0.0
  9
$UCSORGLEFT
 10
0.0
 20
0.0
 30
0.0
  9
$UCSORGRIGHT
 10
0.0
 20
0.0
 30
0.0
  9
$UCSORGFRONT
 10
0.0
 20
0.0
 30
0.0
  9
$UCSORGBACK
 10
0.0
 20
0.0
 30
0.0
  9
$PUCSBASE
  2

  9
$PUCSNAME
  2

  9
$PUCSORG
 10
0.0
 20
0.0
 30
0.0
  9
$PUCSXDIR
 10
1.0
 20
0.0
 30
0.0
  9
$PUCSYDIR
 10
0.0
 20
1.0
 30
0.0
  9
$PUCSORTHOREF
  2

  9
$PUCSORTHOVIEW
 70
     0
  9
$PUCSORGTOP
 10
0.0
 20
0.0
 30
0.0
  9
$PUCSORGBOTTOM
 10
0.0
 20
0.0
 30
0.0
  9
$PUCSORGLEFT
 10
0.0
 20
0.0
 30
0.0
  9
$PUCSORGRIGHT
 10
0.0
 20
0.0
 30
0.0
  9
$PUCSORGFRONT
 10
0.0
 20
0.0
 30
0.0
  9
$PUCSORGBACK
 10
0.0
 20
0.0
 30
0.0
  9
$USERI1
 70
     0
  9
$USERI2
 70
     0
  9
$USERI3
 70
     0
  9
$USERI4
 70
     0
  9
$USERI5
 70
     0
  9
$USERR1
 40
0.0
  9
$USERR2
 40
0.0
  9
$USERR3
 40
0.0
  9
$USERR4
 40
0.0
  9
$USERR5
 40
0.0
  9
$WORLDVIEW
 70
     1
  9
$SHADEDGE
 70
     3
  9
$SHADEDIF
 70
    70
  9
$TILEMODE
 70
     1
  9
$MAXACTVP
 70
    64
  9
$PINSBASE
 10
0.0
 20
0.0
 30
0.0
  9
$PLIMCHECK
 70
     0
  9
$PEXTMIN
 10
0.0
 20
0.0
 30
0.0
  9
$PEXTMAX
 10
0.0
 20
0.0
 30
0.0
  9
$PLIMMIN
 10
0.0
 20
0.0
  9
$PLIMMAX
 10
12.0
 20
9.0
  9
$UNITMODE
 70
     0
  9
$VISRETAIN
 70
     1
  9
$PLINEGEN
 70
     0
  9
$PSLTSCALE
 70
     1
  9
$TREEDEPTH
 70
  3020
  9
$CMLSTYLE
  2
Standard
  9
$CMLJUST
 70
     0
  9
$CMLSCALE
 40
1.0
  9
$PROXYGRAPHICS
 70
     1
  9
$MEASUREMENT
 70
     0
  9
$CELWEIGHT
370
    -1
  9
$ENDCAPS
280
     0
  9
$JOINSTYLE
280
     0
  9
$LWDISPLAY
290
     0
  9
$INSUNITS
 70
     1
  9
$HYPERLINKBASE
  1

  9
$STYLESHEET
  1
monochrome.ctb
  9
$XEDIT
290
     1
  9
$CEPSNTYPE
380
     0
  9
$PSTYLEMODE
290
     1
  9
$FINGERPRINTGUID
  2
{FDEAD576-A652-11D2-9A35-0060089B3A3F}
  9
$VERSIONGUID
  2
{9AFC8AED-EF43-47C1-B33F-DF2CFA9A4119}
  9
$EXTNAMES
290
     1
  9
$PSVPSCALE
 40
0.0
  9
$OLESTARTUP
290
     0
  9
$SORTENTS
280
   127
  9
$INDEXCTL
280
     0
  9
$HIDETEXT
280
     1
  9
$XCLIPFRAME
290
     0
  9
$HALOGAP
280
     0
  9
$OBSCOLOR
 70
   257
  9
$OBSLTYPE
280
     0
  9
$INTERSECTIONDISPLAY
280
     0
  9
$INTERSECTIONCOLOR
 70
   257
  9
$DIMASSOC
280
     2
  9
$PROJECTNAME
  1

  9
$CAMERADISPLAY
290
     0
  9
$LENSLENGTH
 40
50.0
  9
$CAMERAHEIGHT
 40
0.0
  9
$STEPSPERSEC
 40
2.0
  9
$STEPSIZE
 40
6.0
  9
$3DDWFPREC
 40
2.0
  9
$PSOLWIDTH
 40
0.25
  9
$PSOLHEIGHT
 40
4.0
  9
$LOFTANG1
 40
1.570796326794896
  9
$LOFTANG2
 40
1.570796326794896
  9
$LOFTMAG1
 40
0.0
  9
$LOFTMAG2
 40
0.0
  9
$LOFTPARAM
 70
     7
  9
$LOFTNORMALS
280
     1
  9
$LATITUDE
 40
37.795
  9
$LONGITUDE
 40
-122.394
  9
$NORTHDIRECTION
 40
0.0
  9
$TIMEZONE
 70
 -8000
  9
$LIGHTGLYPHDISPLAY
280
     1
  9
$TILEMODELIGHTSYNCH
280
     1
  9
$CMATERIAL
347
3625
  9
$SOLIDHIST
280
     0
  9
$SHOWHIST
280
     1
  9
$DWFFRAME
280
     2
  9
$DGNFRAME
280
     0
  9
$REALWORLDSCALE
290
     1
  9
$INTERFERECOLOR
 62
     1
  9
$INTERFEREOBJVS
345
3647
  9
$INTERFEREVPVS
346
3644
  9
$CSHADOW
280
     0
  9
$SHADOWPLANELOCATION
 40
0.0
  0
ENDSEC
  0
SECTION
  2
CLASSES
  0
CLASS
  1
ACDBDICTIONARYWDFLT
  2
AcDbDictionaryWithDefault
  3
ObjectDBX Classes
 90
        0
 91
        1
280
     0
281
     0
  0
CLASS
  1
DICTIONARYVAR
  2
AcDbDictionaryVar
  3
ObjectDBX Classes
 90
        0
 91
       13
280
     0
281
     0
  0
CLASS
  1
DIMASSOC
  2
AcDbDimAssoc
  3
"AcDbDimAssoc|Product Desc:     AcDim ARX App For Dimension|Company:          Autodesk, Inc.|WEB Address:      www.autodesk.com"
 90
        0
 91
        0
280
     0
281
     0
  0
CLASS
  1
MATERIAL
  2
AcDbMaterial
  3
ObjectDBX Classes
 90
     1153
 91
        3
280
     0
281
     0
  0
CLASS
  1
VISUALSTYLE
  2
AcDbVisualStyle
  3
ObjectDBX Classes
 90
     4095
 91
       24
280
     0
281
     0
  0
CLASS
  1
TABLESTYLE
  2
AcDbTableStyle
  3
ObjectDBX Classes
 90
     4095
 91
        1
280
     0
281
     0
  0
CLASS
  1
SCALE
  2
AcDbScale
  3
ObjectDBX Classes
 90
     1153
 91
       17
280
     0
281
     0
  0
CLASS
  1
MLEADERSTYLE
  2
AcDbMLeaderStyle
  3
ACDB_MLEADERSTYLE_CLASS
 90
     4095
 91
        1
280
     0
281
     0
  0
CLASS
  1
ACDBSECTIONVIEWSTYLE
  2
AcDbSectionViewStyle
  3
ObjectDBX Classes
 90
     1025
 91
        1
280
     0
281
     0
  0
CLASS
  1
ACDBDETAILVIEWSTYLE
  2
AcDbDetailViewStyle
  3
ObjectDBX Classes
 90
     1025
 91
        1
280
     0
281
     0
  0
CLASS
  1
EXACXREFPANELOBJECT
  2
ExAcXREFPanelObject
  3
EXAC_ESW
 90
     1025
 91
        2
280
     0
281
     0
  0
CLASS
  1
NPOCOLLECTION
  2
AcDbImpNonPersistentObjectsCollection
  3
ObjectDBX Classes
 90
     1153
 91
        1
280
     0
281
     0
  0
CLASS
  1
CELLSTYLEMAP
  2
AcDbCellStyleMap
  3
ObjectDBX Classes
 90
     1152
 91
        1
280
     0
281
     0
  0
ENDSEC
  0
SECTION
  2
TABLES
  0
TABLE
  2
VPORT
  5
8
330
0
100
AcDbSymbolTable
 70
     1
  0
VPORT
  5
3618
330
8
100
AcDbSymbolTableRecord
100
AcDbViewportTableRecord
  2
*Active
 70
     0
 10
0.0
 20
0.0
 11
1.0
 21
1.0
 12
-45.7802026116816
 22
71.71534040180945
 13
0.0
 23
0.0
 14
0.5
 24
0.5
 15
0.5
 25
0.5
 16
0.0
 26
0.0
 36
1.0
 17
0.0
 27
0.0
 37
0.0
 40
24.6838218074054
 41
2.032008830022074
 42
50.0
 43
0.0
 44
0.0
 50
0.0
 51
0.0
 71
     0
 72
  1000
 73
     1
 74
     3
 75
     0
 76
     0
 77
     0
 78
     2
281
     0
 65
     1
110
-55.4021813343861
120
67.05704511701668
130
0.0
111
1.0
121
0.0
131
0.0
112
0.0
122
1.0
132
0.0
 79
     0
146
0.0
348
3643
 60
     3
 61
     5
292
     1
282
     1
141
0.0
142
0.0
 63
   250
421
  3355443
1001
ACAD_NAV_VCDISPLAY
1070
     3
  0
ENDTAB
  0
TABLE
  2
LTYPE
  5
5
330
0
100
AcDbSymbolTable
 70
     3
  0
LTYPE
  5
14
330
5
100
AcDbSymbolTableRecord
100
AcDbLinetypeTableRecord
  2
ByBlock
 70
     0
  3

 72
    65
 73
     0
 40
0.0
  0
LTYPE
  5
15
330
5
100
AcDbSymbolTableRecord
100
AcDbLinetypeTableRecord
  2
ByLayer
 70
     0
  3

 72
    65
 73
     0
 40
0.0
  0
LTYPE
  5
16
330
5
100
AcDbSymbolTableRecord
100
AcDbLinetypeTableRecord
  2
Continuous
 70
     0
  3
Solid line
 72
    65
 73
     0
 40
0.0
  0
LTYPE
  5
E42
330
5
100
AcDbSymbolTableRecord
100
AcDbLinetypeTableRecord
  2
HIDDEN
 70
     0
  3
Hidden __ __ __ __ __ __ __ __ __ __ __ __ __ _
 72
    65
 73
     2
 40
0.375
 49
0.25
 74
     0
 49
-0.125
 74
     0
  0
ENDTAB
  0
TABLE
  2
LAYER
  5
2
102
{ACAD_XDICTIONARY
360
9E
102
}
330
0
100
AcDbSymbolTable
 70
     7
  0
LAYER
  5
10
102
{ACAD_XDICTIONARY
360
3676
102
}
330
2
100
AcDbSymbolTableRecord
100
AcDbLayerTableRecord
  2
0
 70
     0
 62
     7
  6
Continuous
370
    -3
390
F
347
3635
  0
LAYER
  5
9A
102
{ACAD_XDICTIONARY
360
3678
102
}
330
2
100
AcDbSymbolTableRecord
100
AcDbLayerTableRecord
  2
6INCHFAN
 70
     0
 62
   211
  6
Continuous
370
    -3
390
F
347
3635
  0
LAYER
  5
9B
330
2
100
AcDbSymbolTableRecord
100
AcDbLayerTableRecord
  2
Defpoints
 70
     0
 62
     7
  6
Continuous
290
     0
370
    -3
390
F
347
3635
  0
LAYER
  5
9C
102
{ACAD_XDICTIONARY
360
367A
102
}
330
2
100
AcDbSymbolTableRecord
100
AcDbLayerTableRecord
  2
DIMENSION
 70
     0
 62
     7
  6
Continuous
370
    -3
390
F
347
3635
  0
LAYER
  5
9D
102
{ACAD_XDICTIONARY
360
367C
102
}
330
2
100
AcDbSymbolTableRecord
100
AcDbLayerTableRecord
  2
6INCHFINGERGUARD
 70
     0
 62
     4
  6
Continuous
370
    -3
390
F
347
3635
  0
LAYER
  5
EF2
102
{ACAD_XDICTIONARY
360
367E
102
}
330
2
100
AcDbSymbolTableRecord
100
AcDbLayerTableRecord
  2
TEXT
 70
     0
 62
    -7
  6
Continuous
370
    -3
390
F
347
3635
  0
LAYER
  5
EF3
102
{ACAD_XDICTIONARY
360
3680
102
}
330
2
100
AcDbSymbolTableRecord
100
AcDbLayerTableRecord
  2
BORDER
 70
     0
 62
     7
  6
Continuous
370
    -3
390
F
347
3635
  0
ENDTAB
  0
TABLE
  2
STYLE
  5
3
330
0
100
AcDbSymbolTable
 70
     4
  0
STYLE
  5
11
330
3
100
AcDbSymbolTableRecord
100
AcDbTextStyleTableRecord
  2
Standard
 70
     0
 40
0.0
 41
1.0
 50
0.0
 71
     0
 42
0.2
  3
txt
  4

  0
STYLE
  5
E41
330
3
100
AcDbSymbolTableRecord
100
AcDbTextStyleTableRecord
  2

 70
     1
 40
0.0
 41
1.0
 50
0.0
 71
     0
 42
0.2
  3
ltypeshp.shx
  4

  0
ENDTAB
  0
TABLE
  2
VIEW
  5
6
330
0
100
AcDbSymbolTable
 70
     0
  0
ENDTAB
  0
TABLE
  2
UCS
  5
7
330
0
100
AcDbSymbolTable
 70
     0
  0
ENDTAB
  0
TABLE
  2
APPID
  5
9
330
0
100
AcDbSymbolTable
 70
     6
  0
APPID
  5
12
330
9
100
AcDbSymbolTableRecord
100
AcDbRegAppTableRecord
  2
ACAD
 70
     0
  0
APPID
  5
368A
330
9
100
AcDbSymbolTableRecord
100
AcDbRegAppTableRecord
  2
ACAD_PSEXT
 70
     0
  0
APPID
  5
368B
330
9
100
AcDbSymbolTableRecord
100
AcDbRegAppTableRecord
  2
AcadAnnoMonitorAlertIconDisabled
 70
     0
  0
APPID
  5
368C
330
9
100
AcDbSymbolTableRecord
100
AcDbRegAppTableRecord
  2
ACAD_EXEMPT_FROM_CAD_STANDARDS
 70
     0
  0
APPID
  5
36C7
330
9
100
AcDbSymbolTableRecord
100
AcDbRegAppTableRecord
  2
ACAD_NAV_VCDISPLAY
 70
     0
  0
APPID
  5
36FC
330
9
100
AcDbSymbolTableRecord
100
AcDbRegAppTableRecord
  2
ACAD_MLEADERVER
 70
     0
  0
ENDTAB
  0
TABLE
  2
DIMSTYLE
  5
A
330
0
100
AcDbSymbolTable
 70
     3
100
AcDbDimStyleTable
 71
     1
340
27
  0
DIMSTYLE
105
27
102
{ACAD_REACTORS
330
2AC1
330
2ABA
330
2AB9
330
2AB8
330
2AB5
330
2AB4
330
2AB3
330
2AAF
330
2AAE
330
2AA7
330
2AA6
330
2AA4
330
2AA3
330
2AA2
102
}
330
A
100
AcDbSymbolTableRecord
100
AcDbDimStyleTableRecord
  2
Standard
 70
     0
 41
0.5508
 42
0.25
140
0.5508
271
     3
272
     3
340
11
  0
ENDTAB
  0
TABLE
  2
BLOCK_RECORD
  5
1
330
0
100
AcDbSymbolTable
 70
    25
  0
BLOCK_RECORD
  5
1F
330
1
100
AcDbSymbolTableRecord
100
AcDbBlockTableRecord
  2
*Model_Space
340
22
 70
     0
280
     1
281
     0
  0
BLOCK_RECORD
  5
58
330
1
100
AcDbSymbolTableRecord
100
AcDbBlockTableRecord
  2
*Paper_Space
340
59
 70
     0
280
     1
281
     0
  0
BLOCK_RECORD
  5
5D
330
1
100
AcDbSymbolTableRecord
100
AcDbBlockTableRecord
  2
*Paper_Space0
340
5E
 70
     0
280
     1
281
     0
  0
BLOCK_RECORD
  5
3A6
330
1
100
AcDbSymbolTableRecord
100
AcDbBlockTableRecord
  2
A$C7C1C19D1
340
0
 70
     0
280
     1
281
     0
  0
BLOCK_RECORD
  5
4E2
330
1
100
AcDbSymbolTableRecord
100
AcDbBlockTableRecord
  2
A$C582B5AE9
340
0
 70
     0
280
     1
281
     0
  0
BLOCK_RECORD
  5
1594
330
1
100
AcDbSymbolTableRecord
100
AcDbBlockTableRecord
  2
A$C6813577D
340
0
 70
     0
280
     1
281
     0
  0
BLOCK_RECORD
  5
249E
330
1
100
AcDbSymbolTableRecord
100
AcDbBlockTableRecord
  2
*D4
340
0
 70
     0
280
     1
281
     0
  0
BLOCK_RECORD
  5
24B9
330
1
100
AcDbSymbolTableRecord
100
AcDbBlockTableRecord
  2
*D5
340
0
 70
     0
280
     1
281
     0
  0
BLOCK_RECORD
  5
2AC7
330
1
100
AcDbSymbolTableRecord
100
AcDbBlockTableRecord
  2
*D6
340
0
 70
     0
280
     1
281
     0
  0
BLOCK_RECORD
  5
2ACF
330
1
100
AcDbSymbolTableRecord
100
AcDbBlockTableRecord
  2
*D7
340
0
 70
     0
280
     1
281
     0
  0
BLOCK_RECORD
  5
2AD7
330
1
100
AcDbSymbolTableRecord
100
AcDbBlockTableRecord
  2
*D8
340
0
 70
     0
280
     1
281
     0
  0
BLOCK_RECORD
  5
2AE1
330
1
100
AcDbSymbolTableRecord
100
AcDbBlockTableRecord
  2
*D9
340
0
 70
     0
280
     1
281
     0
  0
BLOCK_RECORD
  5
2AE9
330
1
100
AcDbSymbolTableRecord
100
AcDbBlockTableRecord
  2
*D10
340
0
 70
     0
280
     1
281
     0
  0
BLOCK_RECORD
  5
2AF3
330
1
100
AcDbSymbolTableRecord
100
AcDbBlockTableRecord
  2
*D11
340
0
 70
     0
280
     1
281
     0
  0
BLOCK_RECORD
  5
2AFB
330
1
100
AcDbSymbolTableRecord
100
AcDbBlockTableRecord
  2
*D12
340
0
 70
     0
280
     1
281
     0
  0
BLOCK_RECORD
  5
2B03
330
1
100
AcDbSymbolTableRecord
100
AcDbBlockTableRecord
  2
*D13
340
0
 70
     0
280
     1
281
     0
  0
BLOCK_RECORD
  5
2B0B
330
1
100
AcDbSymbolTableRecord
100
AcDbBlockTableRecord
  2
*D14
340
0
 70
     0
280
     1
281
     0
  0
BLOCK_RECORD
  5
2B15
330
1
100
AcDbSymbolTableRecord
100
AcDbBlockTableRecord
  2
*D15
340
0
 70
     0
280
     1
281
     0
  0
BLOCK_RECORD
  5
2B1D
330
1
100
AcDbSymbolTableRecord
100
AcDbBlockTableRecord
  2
*D16
340
0
 70
     0
280
     1
281
     0
  0
BLOCK_RECORD
  5
2B27
330
1
100
AcDbSymbolTableRecord
100
AcDbBlockTableRecord
  2
*D17
340
0
 70
     0
280
     1
281
     0
  0
BLOCK_RECORD
  5
2B2F
330
1
100
AcDbSymbolTableRecord
100
AcDbBlockTableRecord
  2
*D18
340
0
 70
     0
280
     1
281
     0
  0
BLOCK_RECORD
  5
2B4B
330
1
100
AcDbSymbolTableRecord
100
AcDbBlockTableRecord
  2
*D19
340
0
 70
     0
280
     1
281
     0
  0
BLOCK_RECORD
  5
2B69
330
1
100
AcDbSymbolTableRecord
100
AcDbBlockTableRecord
  2
*D20
340
0
 70
     0
280
     1
281
     0
  0
BLOCK_RECORD
  5
2F3E
330
1
100
AcDbSymbolTableRecord
100
AcDbBlockTableRecord
  2
*D21
340
0
 70
     0
280
     1
281
     0
  0
BLOCK_RECORD
  5
3538
330
1
100
AcDbSymbolTableRecord
100
AcDbBlockTableRecord
  2
*D22
340
0
 70
     0
280
     1
281
     0
  0
ENDTAB
  0
ENDSEC
  0
SECTION
  2
BLOCKS
  0
BLOCK
  5
20
330
1F
100
AcDbEntity
  8
0
100
AcDbBlockBegin
  2
*Model_Space
 70
     0
 10
0.0
 20
0.0
 30
0.0
  3
*Model_Space
  1

  0
ENDBLK
  5
21
330
1F
100
AcDbEntity
  8
0
100
AcDbBlockEnd
  0
BLOCK
  5
5A
330
58
100
AcDbEntity
 67
     1
  8
0
100
AcDbBlockBegin
  2
*Paper_Space
 70
     0
 10
0.0
 20
0.0
 30
0.0
  3
*Paper_Space
  1

  0
ENDBLK
  5
5B
330
58
100
AcDbEntity
 67
     1
  8
0
100
AcDbBlockEnd
  0
BLOCK
  5
5F
330
5D
100
AcDbEntity
 67
     1
  8
0
100
AcDbBlockBegin
  2
*Paper_Space0
 70
     0
 10
0.0
 20
0.0
 30
0.0
  3
*Paper_Space0
  1

  0
ENDBLK
  5
60
330
5D
100
AcDbEntity
 67
     1
  8
0
100
AcDbBlockEnd
  0
BLOCK
  5
3A9
330
3A6
100
AcDbEntity
  8
0
100
AcDbBlockBegin
  2
A$C7C1C19D1
 70
     0
 10
0.0
 20
0.0
 30
0.0
  3
A$C7C1C19D1
  1

  0
ARC
  5
3A7
330
3A6
100
AcDbEntity
  8
0
100
AcDbCircle
 10
1.104296266439718
 20
0.0445647706740999
 30
0.0
 40
1.125912488870224
100
AcDbArc
 50
191.2453376617893
 51
203.9092529503671
  0
ARC
  5
3A8
330
3A6
100
AcDbEntity
  8
0
100
AcDbCircle
 10
0.6196969900554024
 20
-0.9112387999759475
 30
0.0
 40
0.7390388654432295
100
AcDbArc
 50
137.4793921388586
 51
146.983896279721
  0
ENDBLK
  5
3AA
330
3A6
100
AcDbEntity
  8
0
100
AcDbBlockEnd
  0
BLOCK
  5
4E3
330
4E2
100
AcDbEntity
  8
0
100
AcDbBlockBegin
  2
A$C582B5AE9
 70
     0
 10
0.0
 20
0.0
 30
0.0
  3
A$C582B5AE9
  1

  0
LINE
  5
4E4
330
4E2
100
AcDbEntity
  8
6INCHFAN
100
AcDbLine
 10
3.375
 20
1.000000000000027
 30
0.0
 11
3.223449239556899
 21
1.000000000000027
 31
0.0
  0
LINE
  5
4E5
330
4E2
100
AcDbEntity
  8
6INCHFAN
100
AcDbLine
 10
3.375000000000006
 20
2.067438853987176
 30
0.0
 11
3.375
 21
1.000000000000027
 31
0.0
  0
LINE
  5
4E6
330
4E2
100
AcDbEntity
  8
6INCHFAN
100
AcDbLine
 10
3.375
 20
2.067438853987173
 30
0.0
 11
2.473438853987154
 21
2.969000000000022
 31
0.0
  0
LINE
  5
4E7
330
4E2
100
AcDbEntity
  8
6INCHFAN
100
AcDbLine
 10
2.473438853987154
 20
2.969000000000022
 30
0.0
 11
1.604887535000464
 21
2.969000000000022
 31
0.0
  0
LINE
  5
4E8
330
4E2
100
AcDbEntity
  8
6INCHFAN
100
AcDbLine
 10
1.6048875350005
 20
2.968999999999993
 30
0.0
 11
-1.6048875350005
 21
2.968999999999993
 31
0.0
  0
LINE
  5
4E9
330
4E2
100
AcDbEntity
  8
6INCHFAN
100
AcDbLine
 10
0.0760206280850397
 20
1.560649580817404
 30
0.0
 11
0.1337963054296836
 21
2.746743262238638
 31
0.0
  0
ARC
  5
4EA
330
4E2
100
AcDbEntity
  8
6INCHFAN
100
AcDbCircle
 10
0.0
 20
-0.0000000000000036
 30
0.0
 40
2.75
100
AcDbArc
 50
36.00000000000004
 51
87.21127591430576
  0
LINE
  5
4EB
330
4E2
100
AcDbEntity
  8
6INCHFAN
100
AcDbLine
 10
1.264089053710846
 20
0.9184144567069941
 30
0.0
 11
2.224796734531103
 21
1.616409443804307
 31
0.0
  0
LINE
  5
4EC
330
4E2
100
AcDbEntity
  8
6INCHFAN
100
AcDbLine
 10
1.507757619491029
 20
0.4099673290235871
 30
0.0
 11
2.653653410304214
 21
0.7215424990815082
 31
0.0
  0
CIRCLE
  5
4ED
330
4E2
100
AcDbEntity
  8
6INCHFAN
100
AcDbCircle
 10
3.1875
 20
0.0
 30
0.0
 40
0.093
  0
ARC
  5
4EE
330
4E2
100
AcDbEntity
  8
6INCHFAN
100
AcDbCircle
 10
-0.0000000000000071
 20
0.0000000000000107
 30
0.0
 40
2.75
100
AcDbArc
 50
323.9999999999997
 51
15.21127591430594
  0
ARC
  5
4EF
330
4E2
100
AcDbEntity
  8
6INCHFAN
100
AcDbCircle
 10
0.0
 20
0.0
 30
0.0
 40
3.375
100
AcDbArc
 50
298.393357985386
 51
61.60664201461393
  0
LINE
  5
4F0
330
4E2
100
AcDbEntity
  8
6INCHFAN
100
AcDbLine
 10
1.26408905371086
 20
-0.9184144567069836
 30
0.0
 11
2.224796734531111
 21
-1.6164094438043
 31
0.0
  0
LINE
  5
4F1
330
4E2
100
AcDbEntity
  8
6INCHFAN
100
AcDbLine
 10
1.604887535000528
 20
-2.968999999999997
 30
0.0
 11
-1.60488753500052
 21
-2.96899999999999
 31
0.0
  0
ARC
  5
4F2
330
4E2
100
AcDbEntity
  8
6INCHFAN
100
AcDbCircle
 10
0.0
 20
0.0
 30
0.0
 40
2.75
100
AcDbArc
 50
252.0000000000003
 51
303.2112759143057
  0
LINE
  5
4F3
330
4E2
100
AcDbEntity
  8
6INCHFAN
100
AcDbLine
 10
0.8558248275570432
 20
-1.307275837203817
 30
0.0
 11
1.506251696500392
 21
-2.300805473478727
 31
0.0
  0
LINE
  5
4F4
330
4E2
100
AcDbEntity
  8
6INCHFAN
100
AcDbLine
 10
-0.4828390537108548
 20
-1.486025806711182
 30
0.0
 11
-0.8497967345311039
 21
-2.615405419811675
 31
0.0
  0
LINE
  5
4F5
330
4E2
100
AcDbEntity
  8
6INCHFAN
100
AcDbLine
 10
-0.9788287876447585
 20
-1.217908229087014
 30
0.0
 11
-1.722738666254784
 21
-2.143518483193143
 31
0.0
  0
CIRCLE
  5
4F6
330
4E2
100
AcDbEntity
  8
6INCHFAN
100
AcDbCircle
 10
-3.1875
 20
0.0
 30
0.0
 40
0.093
  0
ARC
  5
4F7
330
4E2
100
AcDbEntity
  8
6INCHFAN
100
AcDbCircle
 10
-0.0000000000000071
 20
0.0
 30
0.0
 40
2.75
100
AcDbArc
 50
179.9999999999996
 51
231.2112759143061
  0
LINE
  5
4F8
330
4E2
100
AcDbEntity
  8
6INCHFAN
100
AcDbLine
 10
-1.5625
 20
0.0
 30
0.0
 11
-2.75
 21
0.0
 31
0.0
  0
LINE
  5
4F9
330
4E2
100
AcDbEntity
  8
6INCHFAN
100
AcDbLine
 10
-1.460774287488348
 20
0.5545671564498491
 30
0.0
 11
-2.5709627459795
 21
0.9760381953517407
 31
0.0
  0
CIRCLE
  5
4FA
330
4E2
100
AcDbEntity
  8
6INCHFAN
100
AcDbCircle
 10
0.0
 20
0.0
 30
0.0
 40
1.5625
  0
LINE
  5
4FB
330
4E2
100
AcDbEntity
  8
6INCHFAN
100
AcDbLine
 10
-0.4828390537108477
 20
1.486025806711182
 30
0.0
 11
-0.8497967345310968
 21
2.615405419811679
 31
0.0
  0
ARC
  5
4FC
330
4E2
100
AcDbEntity
  8
6INCHFAN
100
AcDbCircle
 10
0.0000000000000284
 20
0.0000000000000036
 30
0.0
 40
2.75
100
AcDbArc
 50
107.9999999999997
 51
159.211275914306
  0
CIRCLE
  5
4FD
330
4E2
100
AcDbEntity
  8
6INCHFAN
100
AcDbCircle
 10
0.0
 20
0.0
 30
0.0
 40
2.875
  0
ARC
  5
4FE
330
4E2
100
AcDbEntity
  8
6INCHFAN
100
AcDbCircle
 10
0.0
 20
0.0
 30
0.0
 40
3.375
100
AcDbArc
 50
118.3933579853861
 51
241.6066420146129
  0
ENDBLK
  5
4FF
330
4E2
100
AcDbEntity
  8
0
100
AcDbBlockEnd
  0
BLOCK
  5
15AE
330
1594
100
AcDbEntity
  8
0
100
AcDbBlockBegin
  2
A$C6813577D
 70
     0
 10
0.0
 20
0.0
 30
0.0
  3
A$C6813577D
  1

  0
LINE
  5
1595
330
1594
100
AcDbEntity
  8
0
100
AcDbLine
 10
0.1999999999999886
 20
-0.2349999999999994
 30
0.0
 11
9.034999999999996
 21
-0.2349999999999994
 31
0.0
  0
LINE
  5
1596
330
1594
100
AcDbEntity
  8
0
100
AcDbLine
 10
0.1999999999999886
 20
-8.990000000000001
 30
0.0
 11
9.034999999999996
 21
-8.990000000000001
 31
0.0
  0
LINE
  5
1597
330
1594
100
AcDbEntity
  8
0
100
AcDbLine
 10
0.1999999999999886
 20
-0.2349999999999994
 30
0.0
 11
0.1999999999999886
 21
-8.990000000000001
 31
0.0
  0
LINE
  5
1598
330
1594
100
AcDbEntity
  8
0
100
AcDbLine
 10
9.034999999999996
 20
-0.2349999999999994
 30
0.0
 11
9.034999999999996
 21
-8.990000000000001
 31
0.0
  0
LINE
  5
1599
330
1594
100
AcDbEntity
  8
0
100
AcDbLine
 10
0.1250000000000284
 20
-2.019999999999996
 30
0.0
 11
0.200000000000017
 21
-2.019999999999992
 31
0.0
  0
LINE
  5
159A
330
1594
100
AcDbEntity
  8
0
100
AcDbLine
 10
0.1250000000000284
 20
-2.620000000000003
 30
0.0
 11
0.200000000000017
 21
-2.62
 31
0.0
  0
LINE
  5
159B
330
1594
100
AcDbEntity
  8
0
100
AcDbLine
 10
0.1250000000000284
 20
-6.604999999999995
 30
0.0
 11
0.200000000000017
 21
-6.604999999999991
 31
0.0
  0
LINE
  5
159C
330
1594
100
AcDbEntity
  8
0
100
AcDbLine
 10
0.1250000000000284
 20
-7.205000000000004
 30
0.0
 11
0.200000000000017
 21
-7.205
 31
0.0
  0
LINE
  5
159D
330
1594
100
AcDbEntity
  8
0
100
AcDbLine
 10
9.109999999999956
 20
-2.019999999999996
 30
0.0
 11
9.109999999999956
 21
-2.619999999999577
 31
0.0
  0
LINE
  5
159E
330
1594
100
AcDbEntity
  8
0
100
AcDbLine
 10
0.1250000000000284
 20
-2.019999999999996
 30
0.0
 11
0.1250000000000284
 21
-2.620000000000003
 31
0.0
  0
LINE
  5
159F
330
1594
100
AcDbEntity
  8
0
100
AcDbLine
 10
9.034999999999996
 20
-7.205
 30
0.0
 11
9.109999999999956
 21
-7.205000000000004
 31
0.0
  0
LINE
  5
15A0
330
1594
100
AcDbEntity
  8
0
100
AcDbLine
 10
9.034999999999996
 20
-6.604999999999991
 30
0.0
 11
9.109999999999956
 21
-6.604999999999995
 31
0.0
  0
LINE
  5
15A1
330
1594
100
AcDbEntity
  8
0
100
AcDbLine
 10
9.034999999999996
 20
-2.62
 30
0.0
 11
9.109999999999956
 21
-2.620000000000003
 31
0.0
  0
LINE
  5
15A2
330
1594
100
AcDbEntity
  8
0
100
AcDbLine
 10
9.034999999999996
 20
-2.019999999999992
 30
0.0
 11
9.109999999999956
 21
-2.019999999999996
 31
0.0
  0
LINE
  5
15A3
330
1594
100
AcDbEntity
  8
0
100
AcDbLine
 10
0.1250000000000284
 20
-6.604999999999995
 30
0.0
 11
0.1250000000000284
 21
-7.205000000000004
 31
0.0
  0
LINE
  5
15A4
330
1594
100
AcDbEntity
  8
0
100
AcDbLine
 10
9.109999999999956
 20
-6.604999999999781
 30
0.0
 11
9.109999999999956
 21
-7.205000000000004
 31
0.0
  0
LINE
  5
15A5
330
1594
100
AcDbEntity
  8
0
100
AcDbLine
 10
9.034999999999996
 20
-0.6602622678018549
 30
0.0
 11
9.034999999999996
 21
-0.4102622678018585
 31
0.0
  0
CIRCLE
  5
15A6
330
1594
100
AcDbEntity
  8
0
100
AcDbCircle
 10
0.0
 20
0.0
 30
0.0
 40
0.0675
  0
CIRCLE
  5
15A7
330
1594
100
AcDbEntity
  8
0
100
AcDbCircle
 10
0.0
 20
-4.599999999999996
 30
0.0
 40
0.0675
  0
CIRCLE
  5
15A8
330
1594
100
AcDbEntity
  8
0
100
AcDbCircle
 10
0.0
 20
-9.199999999999999
 30
0.0
 40
0.0675
  0
CIRCLE
  5
15A9
330
1594
100
AcDbEntity
  8
0
100
AcDbCircle
 10
9.234999999999985
 20
-9.199999999999995
 30
0.0
 40
0.0675
  0
CIRCLE
  5
15AA
330
1594
100
AcDbEntity
  8
0
100
AcDbCircle
 10
9.234999999999985
 20
0.0
 30
0.0
 40
0.0675
  0
CIRCLE
  5
15AB
330
1594
100
AcDbEntity
  8
0
100
AcDbCircle
 10
4.617500000000005
 20
0.0
 30
0.0
 40
0.0675
  0
CIRCLE
  5
15AC
330
1594
100
AcDbEntity
  8
0
100
AcDbCircle
 10
9.234999999999985
 20
-4.599999999999996
 30
0.0
 40
0.0675
  0
CIRCLE
  5
15AD
330
1594
100
AcDbEntity
  8
0
100
AcDbCircle
 10
4.617500000000005
 20
-9.199999999999995
 30
0.0
 40
0.0675
  0
ENDBLK
  5
15AF
330
1594
100
AcDbEntity
  8
0
100
AcDbBlockEnd
  0
BLOCK
  5
24A9
330
249E
100
AcDbEntity
  8
0
100
AcDbBlockBegin
  2
*D4
 70
     1
 10
0.0
 20
0.0
 30
0.0
  3
*D4
  1

  0
LINE
  5
34BD
330
249E
100
AcDbEntity
  8
0
 62
     0
370
    -2
100
AcDbLine
 10
-49.99674038664836
 20
89.1925810837495
 30
0.0
 11
-49.99674038664836
 21
90.16653730286758
 31
0.0
  0
LINE
  5
34BE
330
249E
100
AcDbEntity
  8
0
 62
     0
370
    -2
100
AcDbLine
 10
-41.96174038664835
 20
89.1925810837495
 30
0.0
 11
-41.96174038664835
 21
90.16653730286758
 31
0.0
  0
LINE
  5
34BF
330
249E
100
AcDbEntity
  8
0
 62
     0
370
    -2
100
AcDbLine
 10
-49.44594038664836
 20
89.98653730286759
 30
0.0
 11
-47.12494038664836
 21
89.98653730286759
 31
0.0
  0
LINE
  5
34C0
330
249E
100
AcDbEntity
  8
0
 62
     0
370
    -2
100
AcDbLine
 10
-42.51254038664836
 20
89.98653730286759
 30
0.0
 11
-44.83354038664836
 21
89.98653730286759
 31
0.0
  0
SOLID
  5
34C1
330
249E
100
AcDbEntity
  8
0
 62
     0
100
AcDbTrace
 10
-49.44594038664836
 20
90.07833730286758
 30
0.0
 11
-49.44594038664836
 21
89.89473730286759
 31
0.0
 12
-49.99674038664836
 22
89.98653730286759
 32
0.0
 13
-49.99674038664836
 23
89.98653730286759
 33
0.0
  0
SOLID
  5
34C2
330
249E
100
AcDbEntity
  8
0
 62
     0
100
AcDbTrace
 10
-42.51254038664836
 20
90.07833730286758
 30
0.0
 11
-42.51254038664836
 21
89.89473730286759
 31
0.0
 12
-41.96174038664835
 22
89.98653730286759
 32
0.0
 13
-41.96174038664835
 23
89.98653730286759
 33
0.0
  0
MTEXT
  5
34C3
330
249E
100
AcDbEntity
  8
0
 62
     0
100
AcDbMText
 10
-45.97924038664835
 20
89.98653730286759
 30
0.0
 40
0.5508
 41
0.0
 46
0.0
 71
     5
 72
     1
  1
\A1;8.035
 73
     1
 44
1.0
1001
ACAD
1000
MTEXTBEGIN
1070
    73
1070
     1
1070
    44
1040
1.0
1070
    74
1070
     0
1000
MTEXTEND
  0
POINT
  5
34C4
330
249E
100
AcDbEntity
  8
Defpoints
 62
     0
100
AcDbPoint
 10
-49.99674038664836
 20
88.9425810837495
 30
0.0
  0
POINT
  5
34C5
330
249E
100
AcDbEntity
  8
Defpoints
 62
     0
100
AcDbPoint
 10
-41.96174038664835
 20
88.9425810837495
 30
0.0
  0
POINT
  5
34C6
330
249E
100
AcDbEntity
  8
Defpoints
 62
     0
100
AcDbPoint
 10
-41.96174038664835
 20
89.98653730286759
 30
0.0
  0
ENDBLK
  5
24AA
330
249E
100
AcDbEntity
  8
0
100
AcDbBlockEnd
  0
BLOCK
  5
24C4
330
24B9
100
AcDbEntity
  8
0
100
AcDbBlockBegin
  2
*D5
 70
     1
 10
0.0
 20
0.0
 30
0.0
  3
*D5
  1

  0
LINE
  5
34B3
330
24B9
100
AcDbEntity
  8
0
 62
     0
370
    -2
100
AcDbLine
 10
-50.24674038664836
 20
88.9425810837495
 30
0.0
 11
-51.62060242569509
 21
88.9425810837495
 31
0.0
  0
LINE
  5
34B4
330
24B9
100
AcDbEntity
  8
0
 62
     0
370
    -2
100
AcDbLine
 10
-50.25677128198079
 20
80.84258108374951
 30
0.0
 11
-51.62060242569509
 21
80.84258108374951
 31
0.0
  0
LINE
  5
34B5
330
24B9
100
AcDbEntity
  8
0
 62
     0
370
    -2
100
AcDbLine
 10
-51.44060242569509
 20
88.3917810837495
 30
0.0
 11
-51.44060242569509
 21
85.25798108374948
 31
0.0
  0
LINE
  5
34B6
330
24B9
100
AcDbEntity
  8
0
 62
     0
370
    -2
100
AcDbLine
 10
-51.44060242569509
 20
81.3933810837495
 30
0.0
 11
-51.44060242569509
 21
84.5271810837495
 31
0.0
  0
SOLID
  5
34B7
330
24B9
100
AcDbEntity
  8
0
 62
     0
100
AcDbTrace
 10
-51.53240242569509
 20
88.3917810837495
 30
0.0
 11
-51.34880242569511
 21
88.3917810837495
 31
0.0
 12
-51.44060242569509
 22
88.9425810837495
 32
0.0
 13
-51.44060242569509
 23
88.9425810837495
 33
0.0
  0
SOLID
  5
34B8
330
24B9
100
AcDbEntity
  8
0
 62
     0
100
AcDbTrace
 10
-51.53240242569509
 20
81.3933810837495
 30
0.0
 11
-51.34880242569511
 21
81.3933810837495
 31
0.0
 12
-51.44060242569509
 22
80.84258108374951
 32
0.0
 13
-51.44060242569509
 23
80.84258108374951
 33
0.0
  0
MTEXT
  5
34B9
330
24B9
100
AcDbEntity
  8
0
 62
     0
100
AcDbMText
 10
-51.44060242569511
 20
84.89258108374949
 30
0.0
 40
0.5508
 41
0.0
 46
0.0
 71
     5
 72
     1
  1
\A1;8.100
 73
     1
 44
1.0
1001
ACAD
1000
MTEXTBEGIN
1070
    73
1070
     1
1070
    44
1040
1.0
1070
    74
1070
     0
1000
MTEXTEND
  0
POINT
  5
34BA
330
24B9
100
AcDbEntity
  8
Defpoints
 62
     0
100
AcDbPoint
 10
-49.99674038664836
 20
88.9425810837495
 30
0.0
  0
POINT
  5
34BB
330
24B9
100
AcDbEntity
  8
Defpoints
 62
     0
100
AcDbPoint
 10
-50.00677128198079
 20
80.84258108374951
 30
0.0
  0
POINT
  5
34BC
330
24B9
100
AcDbEntity
  8
Defpoints
 62
     0
100
AcDbPoint
 10
-51.44060242569509
 20
80.84258108374951
 30
0.0
  0
ENDBLK
  5
24C5
330
24B9
100
AcDbEntity
  8
0
100
AcDbBlockEnd
  0
BLOCK
  5
2ACD
330
2AC7
100
AcDbEntity
  8
0
100
AcDbBlockBegin
  2
*D6
 70
     1
 10
0.0
 20
0.0
 30
0.0
  3
*D6
  1

  0
LINE
  5
345B
330
2AC7
100
AcDbEntity
  8
0
 62
     0
440
 16777216
370
    -2
100
AcDbLine
 10
-47.76093133438613
 20
67.23204511701668
 30
0.0
 11
-47.76093133438613
 21
66.05704511701668
 31
0.0
  0
MTEXT
  5
345C
330
2AC7
100
AcDbEntity
  8
0
 62
     0
440
 16777216
100
AcDbMText
 10
-47.76093133438613
 20
64.03924511701666
 30
0.0
 40
0.5508
 41
0.0
 46
0.0
 71
     5
 72
     1
  1
\A1;(3) 7.641
 11
0.0000000000000001
 21
1.0
 31
0.0
 73
     1
 44
1.0
1001
ACAD
1000
MTEXTBEGIN
1070
    73
1070
     1
1070
    44
1040
1.0
1070
    74
1070
     0
1000
MTEXTEND
  0
POINT
  5
345D
330
2AC7
100
AcDbEntity
  8
Defpoints
 62
     0
440
 16777216
100
AcDbPoint
 10
-47.76093133438613
 20
67.48204511701668
 30
0.0
  0
POINT
  5
345E
330
2AC7
100
AcDbEntity
  8
Defpoints
 62
     0
440
 16777216
100
AcDbPoint
 10
-47.76093133438613
 20
66.05704511701668
 30
0.0
  0
POINT
  5
345F
330
2AC7
100
AcDbEntity
  8
Defpoints
 62
     0
440
 16777216
100
AcDbPoint
 10
-55.4021813343861
 20
67.05704511701668
 30
0.0
  0
ENDBLK
  5
2ACE
330
2AC7
100
AcDbEntity
  8
0
100
AcDbBlockEnd
  0
BLOCK
  5
2AD5
330
2ACF
100
AcDbEntity
  8
0
100
AcDbBlockBegin
  2
*D7
 70
     1
 10
0.0
 20
0.0
 30
0.0
  3
*D7
  1

  0
LINE
  5
3460
330
2ACF
100
AcDbEntity
  8
0
 62
     0
440
 16777216
370
    -2
100
AcDbLine
 10
-47.70468133438614
 20
67.67704511701669
 30
0.0
 11
-46.34468133438614
 21
67.67704511701669
 31
0.0
  0
MTEXT
  5
3461
330
2ACF
100
AcDbEntity
  8
0
 62
     0
440
 16777216
100
AcDbMText
 10
-45.24488133438615
 20
67.67704511701669
 30
0.0
 40
0.5508
 41
0.0
 46
0.0
 71
     5
 72
     1
  1
\A1;0.620
 73
     1
 44
1.0
1001
ACAD
1000
MTEXTBEGIN
1070
    73
1070
     1
1070
    44
1040
1.0
1070
    74
1070
     0
1000
MTEXTEND
  0
POINT
  5
3462
330
2ACF
100
AcDbEntity
  8
Defpoints
 62
     0
440
 16777216
100
AcDbPoint
 10
-47.95468133438615
 20
67.67704511701669
 30
0.0
  0
POINT
  5
3463
330
2ACF
100
AcDbEntity
  8
Defpoints
 62
     0
440
 16777216
100
AcDbPoint
 10
-46.34468133438614
 20
67.67704511701669
 30
0.0
  0
POINT
  5
3464
330
2ACF
100
AcDbEntity
  8
Defpoints
 62
     0
440
 16777216
100
AcDbPoint
 10
-55.40218133438614
 20
67.05704511701668
 30
0.0
  0
ENDBLK
  5
2AD6
330
2ACF
100
AcDbEntity
  8
0
100
AcDbBlockEnd
  0
BLOCK
  5
2ADF
330
2AD7
100
AcDbEntity
  8
0
100
AcDbBlockBegin
  2
*D8
 70
     1
 10
0.0
 20
0.0
 30
0.0
  3
*D8
  1

  0
LINE
  5
3465
330
2AD7
100
AcDbEntity
  8
0
 62
     0
440
 16777216
370
    -2
100
AcDbLine
 10
-47.70468133438614
 20
74.52704511701668
 30
0.0
 11
-47.34468133438614
 21
74.52704511701668
 31
0.0
  0
LINE
  5
3466
330
2AD7
100
AcDbEntity
  8
0
 62
     0
440
 16777216
370
    -2
100
AcDbLine
 10
-47.34468133438614
 20
74.52704511701668
 30
0.0
 11
-46.84468133438614
 21
74.15085659146678
 31
0.0
  0
LINE
  5
3467
330
2AD7
100
AcDbEntity
  8
0
 62
     0
440
 16777216
370
    -2
100
AcDbLine
 10
-46.84468133438614
 20
74.15085659146678
 30
0.0
 11
-46.34468133438614
 21
74.15085659146678
 31
0.0
  0
MTEXT
  5
3468
330
2AD7
100
AcDbEntity
  8
0
 62
     0
440
 16777216
100
AcDbMText
 10
-45.19898133438615
 20
74.15085659146678
 30
0.0
 40
0.5508
 41
0.0
 46
0.0
 71
     5
 72
     1
  1
\A1;7.470
 73
     1
 44
1.0
1001
ACAD
1000
MTEXTBEGIN
1070
    73
1070
     1
1070
    44
1040
1.0
1070
    74
1070
     0
1000
MTEXTEND
  0
POINT
  5
3469
330
2AD7
100
AcDbEntity
  8
Defpoints
 62
     0
440
 16777216
100
AcDbPoint
 10
-47.95468133438615
 20
74.52704511701668
 30
0.0
  0
POINT
  5
346A
330
2AD7
100
AcDbEntity
  8
Defpoints
 62
     0
440
 16777216
100
AcDbPoint
 10
-46.34468133438614
 20
74.15085659146678
 30
0.0
  0
POINT
  5
346B
330
2AD7
100
AcDbEntity
  8
Defpoints
 62
     0
440
 16777216
100
AcDbPoint
 10
-55.40218133438614
 20
67.05704511701668
 30
0.0
  0
ENDBLK
  5
2AE0
330
2AD7
100
AcDbEntity
  8
0
100
AcDbBlockEnd
  0
BLOCK
  5
2AE7
330
2AE1
100
AcDbEntity
  8
0
100
AcDbBlockBegin
  2
*D9
 70
     1
 10
0.0
 20
0.0
 30
0.0
  3
*D9
  1

  0
LINE
  5
3471
330
2AE1
100
AcDbEntity
  8
0
 62
     0
440
 16777216
370
    -2
100
AcDbLine
 10
-47.3671813343861
 20
75.40704511701669
 30
0.0
 11
-47.3671813343861
 21
76.15704511701669
 31
0.0
  0
MTEXT
  5
3472
330
2AE1
100
AcDbEntity
  8
0
 62
     0
440
 16777216
100
AcDbMText
 10
-47.36718133438611
 20
77.30274511701667
 30
0.0
 40
0.5508
 41
0.0
 46
0.0
 71
     5
 72
     1
  1
\A1;8.035
 11
0.0000000000000001
 21
1.0
 31
0.0
 73
     1
 44
1.0
1001
ACAD
1000
MTEXTBEGIN
1070
    73
1070
     1
1070
    44
1040
1.0
1070
    74
1070
     0
1000
MTEXTEND
  0
POINT
  5
3473
330
2AE1
100
AcDbEntity
  8
Defpoints
 62
     0
440
 16777216
100
AcDbPoint
 10
-47.3671813343861
 20
75.15704511701669
 30
0.0
  0
POINT
  5
3474
330
2AE1
100
AcDbEntity
  8
Defpoints
 62
     0
440
 16777216
100
AcDbPoint
 10
-47.3671813343861
 20
76.15704511701669
 30
0.0
  0
POINT
  5
3475
330
2AE1
100
AcDbEntity
  8
Defpoints
 62
     0
440
 16777216
100
AcDbPoint
 10
-55.40218133438614
 20
67.05704511701668
 30
0.0
  0
ENDBLK
  5
2AE8
330
2AE1
100
AcDbEntity
  8
0
100
AcDbBlockEnd
  0
BLOCK
  5
2AF1
330
2AE9
100
AcDbEntity
  8
0
100
AcDbBlockBegin
  2
*D10
 70
     1
 10
0.0
 20
0.0
 30
0.0
  3
*D10
  1

  0
LINE
  5
3476
330
2AE9
100
AcDbEntity
  8
0
 62
     0
440
 16777216
370
    -2
100
AcDbLine
 10
-47.95468133438615
 20
74.77704511701668
 30
0.0
 11
-47.95468133438615
 21
75.17204511701669
 31
0.0
  0
LINE
  5
3477
330
2AE9
100
AcDbEntity
  8
0
 62
     0
440
 16777216
370
    -2
100
AcDbLine
 10
-47.95468133438615
 20
75.17204511701669
 30
0.0
 11
-48.34681863574025
 21
75.67204511701669
 31
0.0
  0
LINE
  5
3478
330
2AE9
100
AcDbEntity
  8
0
 62
     0
440
 16777216
370
    -2
100
AcDbLine
 10
-48.34681863574025
 20
75.67204511701669
 30
0.0
 11
-48.34681863574025
 21
76.17204511701669
 31
0.0
  0
MTEXT
  5
3479
330
2AE9
100
AcDbEntity
  8
0
 62
     0
440
 16777216
100
AcDbMText
 10
-48.34681863574026
 20
77.36364511701667
 30
0.0
 40
0.5508
 41
0.0
 46
0.0
 71
     5
 72
     1
  1
\A1;7.447
 11
0.0000000000000001
 21
1.0
 31
0.0
 73
     1
 44
1.0
1001
ACAD
1000
MTEXTBEGIN
1070
    73
1070
     1
1070
    44
1040
1.0
1070
    74
1070
     0
1000
MTEXTEND
  0
POINT
  5
347A
330
2AE9
100
AcDbEntity
  8
Defpoints
 62
     0
440
 16777216
100
AcDbPoint
 10
-47.95468133438615
 20
74.52704511701668
 30
0.0
  0
POINT
  5
347B
330
2AE9
100
AcDbEntity
  8
Defpoints
 62
     0
440
 16777216
100
AcDbPoint
 10
-48.34681863574025
 20
76.17204511701669
 30
0.0
  0
POINT
  5
347C
330
2AE9
100
AcDbEntity
  8
Defpoints
 62
     0
440
 16777216
100
AcDbPoint
 10
-55.40218133438614
 20
67.05704511701668
 30
0.0
  0
ENDBLK
  5
2AF2
330
2AE9
100
AcDbEntity
  8
0
100
AcDbBlockEnd
  0
BLOCK
  5
2AF9
330
2AF3
100
AcDbEntity
  8
0
100
AcDbBlockBegin
  2
*D11
 70
     1
 10
0.0
 20
0.0
 30
0.0
  3
*D11
  1

  0
LINE
  5
35DA
330
2AF3
100
AcDbEntity
  8
0
 62
     0
440
 16777216
370
    -2
100
AcDbLine
 10
-55.2609313343861
 20
74.72704511701668
 30
0.0
 11
-56.43593133438611
 21
74.72704511701668
 31
0.0
  0
MTEXT
  5
35DB
330
2AF3
100
AcDbEntity
  8
0
 62
     0
440
 16777216
100
AcDbMText
 10
-57.5816313343861
 20
74.72704511701668
 30
0.0
 40
0.5508
 41
0.0
 46
0.0
 71
     5
 72
     1
  1
\A1;7.670\P(3)
 73
     1
 44
1.0
1001
ACAD
1000
MTEXTBEGIN
1070
    73
1070
     1
1070
    44
1040
1.0
1070
    74
1070
     0
1000
MTEXTEND
  0
POINT
  5
35DC
330
2AF3
100
AcDbEntity
  8
Defpoints
 62
     0
440
 16777216
100
AcDbPoint
 10
-55.01093133438612
 20
74.72704511701668
 30
0.0
  0
POINT
  5
35DD
330
2AF3
100
AcDbEntity
  8
Defpoints
 62
     0
440
 16777216
100
AcDbPoint
 10
-56.43593133438611
 20
74.72704511701668
 30
0.0
  0
POINT
  5
35DE
330
2AF3
100
AcDbEntity
  8
Defpoints
 62
     0
440
 16777216
100
AcDbPoint
 10
-55.4021813343861
 20
67.05704511701668
 30
0.0
  0
ENDBLK
  5
2AFA
330
2AF3
100
AcDbEntity
  8
0
100
AcDbBlockEnd
  0
BLOCK
  5
2B01
330
2AFB
100
AcDbEntity
  8
0
100
AcDbBlockBegin
  2
*D12
 70
     1
 10
0.0
 20
0.0
 30
0.0
  3
*D12
  1

  0
LINE
  5
36B0
330
2AFB
100
AcDbEntity
  8
0
 62
     0
440
 16777216
370
    -2
100
AcDbLine
 10
-55.01093133438613
 20
74.97704511701669
 30
0.0
 11
-55.01093133438613
 21
75.63436188842837
 31
0.0
  0
MTEXT
  5
36B1
330
2AFB
100
AcDbEntity
  8
0
 62
     0
440
 16777216
100
AcDbMText
 10
-55.01093133438613
 20
77.60626188842836
 30
0.0
 40
0.5508
 41
0.0
 46
0.0
 71
     5
 72
     1
  1
\A1;0.391 (3)
 11
0.0000000000000001
 21
1.0
 31
0.0
 73
     1
 44
1.0
  0
POINT
  5
36B2
330
2AFB
100
AcDbEntity
  8
Defpoints
 62
     0
440
 16777216
100
AcDbPoint
 10
-55.01093133438613
 20
74.72704511701668
 30
0.0
  0
POINT
  5
36B3
330
2AFB
100
AcDbEntity
  8
Defpoints
 62
     0
440
 16777216
100
AcDbPoint
 10
-55.01093133438613
 20
75.63436188842837
 30
0.0
  0
POINT
  5
36B4
330
2AFB
100
AcDbEntity
  8
Defpoints
 62
     0
440
 16777216
100
AcDbPoint
 10
-55.40218133438614
 20
67.05704511701668
 30
0.0
  0
ENDBLK
  5
2B02
330
2AFB
100
AcDbEntity
  8
0
100
AcDbBlockEnd
  0
BLOCK
  5
2B09
330
2B03
100
AcDbEntity
  8
0
100
AcDbBlockBegin
  2
*D13
 70
     1
 10
0.0
 20
0.0
 30
0.0
  3
*D13
  1

  0
LINE
  5
348C
330
2B03
100
AcDbEntity
  8
0
 62
     0
440
 16777216
370
    -2
100
AcDbLine
 10
-55.40218133438614
 20
66.80704511701669
 30
0.0
 11
-55.40218133438614
 21
66.05704511701668
 31
0.0
  0
MTEXT
  5
348D
330
2B03
100
AcDbEntity
  8
0
 62
     0
440
 16777216
100
AcDbMText
 10
-55.40218133438615
 20
65.04904511701667
 30
0.0
 40
0.5508
 41
0.0
 46
0.0
 71
     5
 72
     1
  1
\A1;0.000
 11
0.0000000000000001
 21
1.0
 31
0.0
 73
     1
 44
1.0
1001
ACAD
1000
MTEXTBEGIN
1070
    73
1070
     1
1070
    44
1040
1.0
1070
    74
1070
     0
1000
MTEXTEND
  0
POINT
  5
348E
330
2B03
100
AcDbEntity
  8
Defpoints
 62
     0
440
 16777216
100
AcDbPoint
 10
-55.40218133438614
 20
67.05704511701668
 30
0.0
  0
POINT
  5
348F
330
2B03
100
AcDbEntity
  8
Defpoints
 62
     0
440
 16777216
100
AcDbPoint
 10
-55.40218133438614
 20
66.05704511701668
 30
0.0
  0
POINT
  5
3490
330
2B03
100
AcDbEntity
  8
Defpoints
 62
     0
440
 16777216
100
AcDbPoint
 10
-55.40218133438614
 20
67.05704511701668
 30
0.0
  0
ENDBLK
  5
2B0A
330
2B03
100
AcDbEntity
  8
0
100
AcDbBlockEnd
  0
BLOCK
  5
2B13
330
2B0B
100
AcDbEntity
  8
0
100
AcDbBlockBegin
  2
*D14
 70
     1
 10
0.0
 20
0.0
 30
0.0
  3
*D14
  1

  0
LINE
  5
3695
330
2B0B
100
AcDbEntity
  8
0
 62
     0
440
 16777216
370
    -2
100
AcDbLine
 10
-54.97718133438613
 20
67.23204511701668
 30
0.0
 11
-54.97718133438613
 21
66.98204511701668
 31
0.0
  0
LINE
  5
3696
330
2B0B
100
AcDbEntity
  8
0
 62
     0
440
 16777216
370
    -2
100
AcDbLine
 10
-54.97718133438613
 20
66.98204511701668
 30
0.0
 11
-54.20483564442822
 21
66.55704511701668
 31
0.0
  0
LINE
  5
3697
330
2B0B
100
AcDbEntity
  8
0
 62
     0
440
 16777216
370
    -2
100
AcDbLine
 10
-54.20483564442822
 20
66.55704511701668
 30
0.0
 11
-54.20483564442822
 21
66.05704511701668
 31
0.0
  0
MTEXT
  5
3698
330
2B0B
100
AcDbEntity
  8
0
 62
     0
440
 16777216
100
AcDbMText
 10
-54.20483564442822
 20
63.99334511701667
 30
0.0
 40
0.5508
 41
0.0
 46
0.0
 71
     5
 72
     1
  1
\A1;(3) 0.425
 11
0.0000000000000001
 21
1.0
 31
0.0
 73
     1
 44
1.0
  0
POINT
  5
3699
330
2B0B
100
AcDbEntity
  8
Defpoints
 62
     0
440
 16777216
100
AcDbPoint
 10
-54.97718133438613
 20
67.48204511701668
 30
0.0
  0
POINT
  5
369A
330
2B0B
100
AcDbEntity
  8
Defpoints
 62
     0
440
 16777216
100
AcDbPoint
 10
-54.20483564442822
 20
66.05704511701668
 30
0.0
  0
POINT
  5
369B
330
2B0B
100
AcDbEntity
  8
Defpoints
 62
     0
440
 16777216
100
AcDbPoint
 10
-55.40218133438614
 20
67.05704511701668
 30
0.0
  0
ENDBLK
  5
2B14
330
2B0B
100
AcDbEntity
  8
0
100
AcDbBlockEnd
  0
BLOCK
  5
2B1B
330
2B15
100
AcDbEntity
  8
0
100
AcDbBlockBegin
  2
*D15
 70
     1
 10
0.0
 20
0.0
 30
0.0
  3
*D15
  1

  0
LINE
  5
3498
330
2B15
100
AcDbEntity
  8
0
 62
     0
440
 16777216
370
    -2
100
AcDbLine
 10
-51.38593133438613
 20
67.22704511701667
 30
0.0
 11
-51.38593133438613
 21
66.05204511701668
 31
0.0
  0
MTEXT
  5
3499
330
2B15
100
AcDbEntity
  8
0
 62
     0
440
 16777216
100
AcDbMText
 10
-51.38593133438614
 20
64.08014511701665
 30
0.0
 40
0.5508
 41
0.0
 46
0.0
 71
     5
 72
     1
  1
\A1;(2) 4.016
 11
0.0000000000000001
 21
1.0
 31
0.0
 73
     1
 44
1.0
1001
ACAD
1000
MTEXTBEGIN
1070
    73
1070
     1
1070
    44
1040
1.0
1070
    74
1070
     0
1000
MTEXTEND
  0
POINT
  5
349A
330
2B15
100
AcDbEntity
  8
Defpoints
 62
     0
440
 16777216
100
AcDbPoint
 10
-51.38593133438613
 20
67.47704511701669
 30
0.0
  0
POINT
  5
349B
330
2B15
100
AcDbEntity
  8
Defpoints
 62
     0
440
 16777216
100
AcDbPoint
 10
-51.38593133438613
 20
66.05204511701668
 30
0.0
  0
POINT
  5
349C
330
2B15
100
AcDbEntity
  8
Defpoints
 62
     0
440
 16777216
100
AcDbPoint
 10
-55.40218133438614
 20
67.05204511701667
 30
0.0
  0
ENDBLK
  5
2B1C
330
2B15
100
AcDbEntity
  8
0
100
AcDbBlockEnd
  0
BLOCK
  5
2B25
330
2B1D
100
AcDbEntity
  8
0
100
AcDbBlockBegin
  2
*D16
 70
     1
 10
0.0
 20
0.0
 30
0.0
  3
*D16
  1

  0
LINE
  5
3605
330
2B1D
100
AcDbEntity
  8
0
 62
     0
440
 16777216
370
    -2
100
AcDbLine
 10
-55.22718133438615
 20
67.48204511701668
 30
0.0
 11
-55.47718133438614
 21
67.48204511701668
 31
0.0
  0
LINE
  5
3606
330
2B1D
100
AcDbEntity
  8
0
 62
     0
440
 16777216
370
    -2
100
AcDbLine
 10
-55.47718133438614
 20
67.48204511701668
 30
0.0
 11
-55.90218133438614
 21
68.75656402631396
 31
0.0
  0
LINE
  5
3607
330
2B1D
100
AcDbEntity
  8
0
 62
     0
440
 16777216
370
    -2
100
AcDbLine
 10
-55.90218133438614
 20
68.75656402631396
 30
0.0
 11
-56.40218133438614
 21
68.75656402631396
 31
0.0
  0
MTEXT
  5
3608
330
2B1D
100
AcDbEntity
  8
0
 62
     0
440
 16777216
100
AcDbMText
 10
-57.82328133438614
 20
68.75656402631396
 30
0.0
 40
0.5508
 41
0.0
 46
0.0
 71
     5
 72
     1
  1
\A1; 0.425\P(3)
 73
     1
 44
1.0
1001
ACAD
1000
MTEXTBEGIN
1070
    73
1070
     1
1070
    44
1040
1.0
1070
    74
1070
     0
1000
MTEXTEND
  0
POINT
  5
3609
330
2B1D
100
AcDbEntity
  8
Defpoints
 62
     0
440
 16777216
100
AcDbPoint
 10
-54.97718133438613
 20
67.48204511701668
 30
0.0
  0
POINT
  5
360A
330
2B1D
100
AcDbEntity
  8
Defpoints
 62
     0
440
 16777216
100
AcDbPoint
 10
-56.40218133438614
 20
68.75656402631396
 30
0.0
  0
POINT
  5
360B
330
2B1D
100
AcDbEntity
  8
Defpoints
 62
     0
440
 16777216
100
AcDbPoint
 10
-55.40218133438614
 20
67.05704511701668
 30
0.0
  0
ENDBLK
  5
2B26
330
2B1D
100
AcDbEntity
  8
0
100
AcDbBlockEnd
  0
BLOCK
  5
2B2D
330
2B27
100
AcDbEntity
  8
0
100
AcDbBlockBegin
  2
*D17
 70
     1
 10
0.0
 20
0.0
 30
0.0
  3
*D17
  1

  0
LINE
  5
35E4
330
2B27
100
AcDbEntity
  8
0
 62
     0
440
 16777216
370
    -2
100
AcDbLine
 10
-55.26093133438614
 20
71.10204511701667
 30
0.0
 11
-56.43593133438614
 21
71.10204511701667
 31
0.0
  0
MTEXT
  5
35E5
330
2B27
100
AcDbEntity
  8
0
 62
     0
440
 16777216
100
AcDbMText
 10
-57.85703133438613
 20
71.10204511701667
 30
0.0
 40
0.5508
 41
0.0
 46
0.0
 71
     5
 72
     1
  1
\A1; 4.045\P(2)
 73
     1
 44
1.0
1001
ACAD
1000
MTEXTBEGIN
1070
    73
1070
     1
1070
    44
1040
1.0
1070
    74
1070
     0
1000
MTEXTEND
  0
POINT
  5
35E6
330
2B27
100
AcDbEntity
  8
Defpoints
 62
     0
440
 16777216
100
AcDbPoint
 10
-55.01093133438613
 20
71.10204511701667
 30
0.0
  0
POINT
  5
35E7
330
2B27
100
AcDbEntity
  8
Defpoints
 62
     0
440
 16777216
100
AcDbPoint
 10
-56.43593133438614
 20
71.10204511701667
 30
0.0
  0
POINT
  5
35E8
330
2B27
100
AcDbEntity
  8
Defpoints
 62
     0
440
 16777216
100
AcDbPoint
 10
-55.40218133438614
 20
67.05704511701668
 30
0.0
  0
ENDBLK
  5
2B2E
330
2B27
100
AcDbEntity
  8
0
100
AcDbBlockEnd
  0
BLOCK
  5
2B38
330
2B2F
100
AcDbEntity
  8
0
100
AcDbBlockBegin
  2
*D18
 70
     1
 10
0.0
 20
0.0
 30
0.0
  3
*D18
  1

  0
LINE
  5
35C8
330
2B2F
100
AcDbEntity
  8
0
 62
     0
440
 16777216
370
    -2
100
AcDbLine
 10
-45.75045316152056
 20
72.08334350248271
 30
0.0
 11
-46.30125316152057
 21
72.08334350248271
 31
0.0
  0
LINE
  5
35C9
330
2B2F
100
AcDbEntity
  8
0
 62
     0
440
 16777216
370
    -2
100
AcDbLine
 10
-46.30125316152057
 20
72.08334350248271
 30
0.0
 11
-47.22581331000704
 21
71.46178910930101
 31
0.0
  0
MTEXT
  5
35CA
330
2B2F
100
AcDbEntity
  8
0
 62
     0
440
 16777216
100
AcDbMText
 10
-44.42115316152056
 20
72.08334350248271
 30
0.0
 40
0.5508
 41
0.0
 46
0.0
 71
     5
 72
     1
  1
\A1;∅0.188 \P(8)
 73
     1
 44
1.0
1001
ACAD
1000
MTEXTBEGIN
1070
    73
1070
     1
1070
    44
1040
1.0
1070
    74
1070
     0
1000
MTEXTEND
  0
SOLID
  5
35CB
330
2B2F
100
AcDbEntity
  8
0
 62
     0
440
 16777216
100
AcDbTrace
 10
-47.27702996399542
 20
71.53797371636986
 30
0.0
 11
-47.17459665601867
 21
71.38560450223216
 31
0.0
 12
-47.68292095242016
 22
71.15448918537079
 32
0.0
 13
-47.68292095242016
 23
71.15448918537079
 33
0.0
  0
LINE
  5
35CC
330
2B2F
100
AcDbEntity
  8
0
 62
     0
440
 16777216
370
    -2
100
AcDbLine
 10
-47.85093133438611
 20
71.10204511701669
 30
0.0
 11
-47.6709313343861
 21
71.10204511701667
 31
0.0
  0
LINE
  5
35CD
330
2B2F
100
AcDbEntity
  8
0
 62
     0
440
 16777216
370
    -2
100
AcDbLine
 10
-47.76093133438609
 20
71.01204511701668
 30
0.0
 11
-47.76093133438609
 21
71.19204511701669
 31
0.0
  0
POINT
  5
35CE
330
2B2F
100
AcDbEntity
  8
Defpoints
 62
     0
440
 16777216
100
AcDbPoint
 10
-47.68292095242016
 20
71.15448918537079
 30
0.0
  0
POINT
  5
35CF
330
2B2F
100
AcDbEntity
  8
Defpoints
 62
     0
440
 16777216
100
AcDbPoint
 10
-47.83894171635204
 20
71.04960104866258
 30
0.0
  0
ENDBLK
  5
2B39
330
2B2F
100
AcDbEntity
  8
0
100
AcDbBlockEnd
  0
BLOCK
  5
2B51
330
2B4B
100
AcDbEntity
  8
0
100
AcDbBlockBegin
  2
*D19
 70
     1
 10
0.0
 20
0.0
 30
0.0
  3
*D19
  1

  0
LINE
  5
346C
330
2B4B
100
AcDbEntity
  8
0
 62
     0
440
 16777216
370
    -2
100
AcDbLine
 10
-47.1171813343861
 20
75.15704511701669
 30
0.0
 11
-46.3671813343861
 21
75.15704511701669
 31
0.0
  0
MTEXT
  5
346D
330
2B4B
100
AcDbEntity
  8
0
 62
     0
440
 16777216
100
AcDbMText
 10
-45.3591813343861
 20
75.15704511701669
 30
0.0
 40
0.5508
 41
0.0
 46
0.0
 71
     5
 72
     1
  1
\A1;8.100
 73
     1
 44
1.0
1001
ACAD
1000
MTEXTBEGIN
1070
    73
1070
     1
1070
    44
1040
1.0
1070
    74
1070
     0
1000
MTEXTEND
  0
POINT
  5
346E
330
2B4B
100
AcDbEntity
  8
Defpoints
 62
     0
440
 16777216
100
AcDbPoint
 10
-47.3671813343861
 20
75.15704511701669
 30
0.0
  0
POINT
  5
346F
330
2B4B
100
AcDbEntity
  8
Defpoints
 62
     0
440
 16777216
100
AcDbPoint
 10
-46.3671813343861
 20
75.15704511701669
 30
0.0
  0
POINT
  5
3470
330
2B4B
100
AcDbEntity
  8
Defpoints
 62
     0
440
 16777216
100
AcDbPoint
 10
-55.40218133438614
 20
67.05704511701668
 30
0.0
  0
ENDBLK
  5
2B52
330
2B4B
100
AcDbEntity
  8
0
100
AcDbBlockEnd
  0
BLOCK
  5
2B6F
330
2B69
100
AcDbEntity
  8
0
100
AcDbBlockBegin
  2
*D20
 70
     1
 10
0.0
 20
0.0
 30
0.0
  3
*D20
  1

  0
LINE
  5
3487
330
2B69
100
AcDbEntity
  8
0
 62
     0
440
 16777216
370
    -2
100
AcDbLine
 10
-55.65218133438614
 20
67.05704511701668
 30
0.0
 11
-56.40218133438614
 21
67.05704511701668
 31
0.0
  0
MTEXT
  5
3488
330
2B69
100
AcDbEntity
  8
0
 62
     0
440
 16777216
100
AcDbMText
 10
-57.41018133438615
 20
67.05704511701668
 30
0.0
 40
0.5508
 41
0.0
 46
0.0
 71
     5
 72
     1
  1
\A1;0.000
 73
     1
 44
1.0
1001
ACAD
1000
MTEXTBEGIN
1070
    73
1070
     1
1070
    44
1040
1.0
1070
    74
1070
     0
1000
MTEXTEND
  0
POINT
  5
3489
330
2B69
100
AcDbEntity
  8
Defpoints
 62
     0
440
 16777216
100
AcDbPoint
 10
-55.40218133438614
 20
67.05704511701668
 30
0.0
  0
POINT
  5
348A
330
2B69
100
AcDbEntity
  8
Defpoints
 62
     0
440
 16777216
100
AcDbPoint
 10
-56.40218133438614
 20
67.05704511701668
 30
0.0
  0
POINT
  5
348B
330
2B69
100
AcDbEntity
  8
Defpoints
 62
     0
440
 16777216
100
AcDbPoint
 10
-55.40218133438614
 20
67.05704511701668
 30
0.0
  0
ENDBLK
  5
2B70
330
2B69
100
AcDbEntity
  8
0
100
AcDbBlockEnd
  0
BLOCK
  5
2F49
330
2F3E
100
AcDbEntity
  8
0
100
AcDbBlockBegin
  2
*D21
 70
     1
 10
0.0
 20
0.0
 30
0.0
  3
*D21
  1

  0
LINE
  5
34C7
330
2F3E
100
AcDbEntity
  8
0
 62
     0
370
    -2
100
AcDbLine
 10
-36.10477202089857
 20
88.29758108374949
 30
0.0
 11
-32.07118903358785
 21
88.29758108374949
 31
0.0
  0
LINE
  5
34C8
330
2F3E
100
AcDbEntity
  8
0
 62
     0
370
    -2
100
AcDbLine
 10
-36.10477202089857
 20
81.47758108374951
 30
0.0
 11
-32.07118903358785
 21
81.47758108374951
 31
0.0
  0
LINE
  5
34C9
330
2F3E
100
AcDbEntity
  8
0
 62
     0
370
    -2
100
AcDbLine
 10
-32.25118903358785
 20
87.74678108374947
 30
0.0
 11
-32.25118903358785
 21
85.25298108374952
 31
0.0
  0
LINE
  5
34CA
330
2F3E
100
AcDbEntity
  8
0
 62
     0
370
    -2
100
AcDbLine
 10
-32.25118903358785
 20
82.02838108374951
 30
0.0
 11
-32.25118903358785
 21
84.52218108374951
 31
0.0
  0
SOLID
  5
34CB
330
2F3E
100
AcDbEntity
  8
0
 62
     0
100
AcDbTrace
 10
-32.34298903358785
 20
87.74678108374947
 30
0.0
 11
-32.15938903358785
 21
87.74678108374947
 31
0.0
 12
-32.25118903358785
 22
88.29758108374949
 32
0.0
 13
-32.25118903358785
 23
88.29758108374949
 33
0.0
  0
SOLID
  5
34CC
330
2F3E
100
AcDbEntity
  8
0
 62
     0
100
AcDbTrace
 10
-32.34298903358785
 20
82.02838108374951
 30
0.0
 11
-32.15938903358785
 21
82.02838108374951
 31
0.0
 12
-32.25118903358785
 22
81.47758108374951
 32
0.0
 13
-32.25118903358785
 23
81.47758108374951
 33
0.0
  0
MTEXT
  5
34CD
330
2F3E
100
AcDbEntity
  8
0
 62
     0
100
AcDbMText
 10
-32.25118903358787
 20
84.8875810837495
 30
0.0
 40
0.5508
 41
0.0
 46
0.0
 71
     5
 72
     1
  1
\A1;6.820
 73
     1
 44
1.0
1001
ACAD
1000
MTEXTBEGIN
1070
    73
1070
     1
1070
    44
1040
1.0
1070
    74
1070
     0
1000
MTEXTEND
  0
POINT
  5
34CE
330
2F3E
100
AcDbEntity
  8
Defpoints
 62
     0
100
AcDbPoint
 10
-36.35477202089858
 20
88.29758108374949
 30
0.0
  0
POINT
  5
34CF
330
2F3E
100
AcDbEntity
  8
Defpoints
 62
     0
100
AcDbPoint
 10
-36.35477202089858
 20
81.47758108374951
 30
0.0
  0
POINT
  5
34D0
330
2F3E
100
AcDbEntity
  8
Defpoints
 62
     0
100
AcDbPoint
 10
-32.25118903358785
 20
81.47758108374951
 30
0.0
  0
ENDBLK
  5
2F4A
330
2F3E
100
AcDbEntity
  8
0
100
AcDbBlockEnd
  0
BLOCK
  5
3543
330
3538
100
AcDbEntity
  8
0
100
AcDbBlockBegin
  2
*D22
 70
     1
 10
0.0
 20
0.0
 30
0.0
  3
*D22
  1

  0
LINE
  5
3546
330
3538
100
AcDbEntity
  8
0
 62
     0
370
    -2
100
AcDbLine
 10
-37.59626808389857
 20
88.79258108374946
 30
0.0
 11
-37.59626808389857
 21
89.85344155348656
 31
0.0
  0
LINE
  5
3547
330
3538
100
AcDbEntity
  8
0
 62
     0
370
    -2
100
AcDbLine
 10
-36.35477202089858
 20
88.5475810837495
 30
0.0
 11
-36.35477202089858
 21
89.85344155348656
 31
0.0
  0
LINE
  5
3548
330
3538
100
AcDbEntity
  8
0
 62
     0
370
    -2
100
AcDbLine
 10
-38.14706808389857
 20
89.67344155348653
 30
0.0
 11
-38.69786808389857
 21
89.67344155348653
 31
0.0
  0
LINE
  5
3549
330
3538
100
AcDbEntity
  8
0
 62
     0
370
    -2
100
AcDbLine
 10
-35.80397202089857
 20
89.67344155348653
 30
0.0
 11
-35.25317202089857
 21
89.67344155348653
 31
0.0
  0
SOLID
  5
354A
330
3538
100
AcDbEntity
  8
0
 62
     0
100
AcDbTrace
 10
-38.14706808389857
 20
89.76524155348656
 30
0.0
 11
-38.14706808389857
 21
89.58164155348653
 31
0.0
 12
-37.59626808389857
 22
89.67344155348653
 32
0.0
 13
-37.59626808389857
 23
89.67344155348653
 33
0.0
  0
SOLID
  5
354B
330
3538
100
AcDbEntity
  8
0
 62
     0
100
AcDbTrace
 10
-35.80397202089857
 20
89.76524155348656
 30
0.0
 11
-35.80397202089857
 21
89.58164155348653
 31
0.0
 12
-36.35477202089858
 22
89.67344155348653
 32
0.0
 13
-36.35477202089858
 23
89.67344155348653
 33
0.0
  0
MTEXT
  5
354C
330
3538
100
AcDbEntity
  8
0
 62
     0
100
AcDbMText
 10
-34.24517202089857
 20
89.67344155348653
 30
0.0
 40
0.5508
 41
0.0
 46
0.0
 71
     5
 72
     1
  1
\A1;1.241
 73
     1
 44
1.0
1001
ACAD
1000
MTEXTBEGIN
1070
    73
1070
     1
1070
    44
1040
1.0
1070
    74
1070
     0
1000
MTEXTEND
  0
POINT
  5
354D
330
3538
100
AcDbEntity
  8
Defpoints
 62
     0
100
AcDbPoint
 10
-37.59626808389857
 20
88.54258108374947
 30
0.0
  0
POINT
  5
354E
330
3538
100
AcDbEntity
  8
Defpoints
 62
     0
100
AcDbPoint
 10
-36.35477202089858
 20
88.29758108374949
 30
0.0
  0
POINT
  5
354F
330
3538
100
AcDbEntity
  8
Defpoints
 62
     0
100
AcDbPoint
 10
-36.35477202089858
 20
89.67344155348653
 30
0.0
  0
ENDBLK
  5
3544
330
3538
100
AcDbEntity
  8
0
100
AcDbBlockEnd
  0
ENDSEC
  0
SECTION
  2
ENTITIES
  0
LINE
  5
25D9
330
1F
100
AcDbEntity
  8
BORDER
100
AcDbLine
 10
-59.75744295490815
 20
60.08985417510935
 30
0.0
 11
-59.75744295490815
 21
82.12423605892402
 31
0.0
  0
LINE
  5
25DA
330
1F
100
AcDbEntity
  8
BORDER
100
AcDbLine
 10
-59.75744295490815
 20
82.12423605892402
 30
0.0
 11
-43.01191971386407
 21
82.12423605892402
 31
0.0
  0
LINE
  5
25DB
330
1F
100
AcDbEntity
  8
BORDER
100
AcDbLine
 10
-43.01191971386407
 20
82.12423605892402
 30
0.0
 11
-43.01191971386407
 21
60.08985417510935
 31
0.0
  0
LINE
  5
25DC
330
1F
100
AcDbEntity
  8
BORDER
100
AcDbLine
 10
-49.77509008929257
 20
60.69573929900363
 30
0.0
 11
-47.53767995732482
 21
60.69573929900363
 31
0.0
  0
TEXT
  5
25DD
330
1F
100
AcDbEntity
  8
TEXT
100
AcDbText
 10
-49.66619356313254
 20
60.53049790157793
 30
0.0
 40
0.1101609316171448
  1
PROPRIETARY DRAWING
 72
     1
 11
-48.6563850233087
 21
60.5855783673865
 31
0.0
100
AcDbText
 73
     2
  0
TEXT
  5
25DE
330
1F
100
AcDbEntity
  8
TEXT
100
AcDbText
 10
-49.59275294205443
 20
60.25509557253506
 30
0.0
 40
0.0550804658085724
  1
OR ALTERED WITHOUT AUTHORIZATION OF
 72
     1
 11
-48.6563850233087
 21
60.28263580543935
 31
0.0
100
AcDbText
 73
     2
  0
TEXT
  5
25DF
330
1F
100
AcDbEntity
  8
TEXT
100
AcDbText
 10
-49.63406329141086
 20
60.33771627124791
 30
0.0
 40
0.0550804658085724
  1
QUBE, INC. AND IS NOT TO BE DUPLICATED
 72
     1
 11
-48.6563850233087
 21
60.3652565041522
 31
0.0
100
AcDbText
 73
     2
  0
TEXT
  5
25E0
330
1F
100
AcDbEntity
  8
TEXT
100
AcDbText
 10
-49.58357286441968
 20
60.42033696996078
 30
0.0
 40
0.0550804658085724
  1
THIS DRAWING IS THE PROPERTY OF ICE
 72
     1
 11
-48.6563850233087
 21
60.44787720286507
 31
0.0
100
AcDbText
 73
     2
  0
TEXT
  5
25E1
330
1F
100
AcDbEntity
  8
TEXT
100
AcDbText
 10
-48.98227777934273
 20
60.17247487382219
 30
0.0
 40
0.0550804658085724
  1
ICE QUBE, INC.
 72
     1
 11
-48.65638502330869
 21
60.20001510672647
 31
0.0
100
AcDbText
 73
     2
  0
LINE
  5
25E2
330
1F
100
AcDbEntity
  8
BORDER
100
AcDbLine
 10
-49.77509008929257
 20
60.69573929900363
 30
0.0
 11
-49.77509008929257
 21
60.08985417510935
 31
0.0
  0
TEXT
  5
25E3
330
1F
100
AcDbEntity
  8
TEXT
100
AcDbText
 10
-45.58097705895568
 20
60.15088333122525
 30
0.0
 40
0.2203218632342896
  1
IQ290966
 72
     1
 11
-44.79149038236615
 21
60.2610442628424
 31
0.0
100
AcDbText
 73
     2
  0
TEXT
  5
25E4
330
1F
100
AcDbEntity
  8
TEXT
100
AcDbText
 10
-45.25166603995486
 20
60.57599436633581
 30
0.0
 40
0.2203218632342896
  1
IQ200FPP
 72
     1
 11
-44.48053951863484
 21
60.68615529795295
 31
0.0
100
AcDbText
 73
     2
  0
LINE
  5
25E5
330
1F
100
AcDbEntity
  8
BORDER
100
AcDbLine
 10
-45.94915932340561
 20
60.51485504928828
 30
0.0
 11
-43.01191971386407
 21
60.51485504928828
 31
0.0
  0
LINE
  5
25E6
330
1F
100
AcDbEntity
  8
BORDER
100
AcDbLine
 10
-45.94915932340561
 20
60.94007624533047
 30
0.0
 11
-43.01191971386407
 21
60.94007624533047
 31
0.0
  0
TEXT
  5
25E7
330
1F
100
AcDbEntity
  8
TEXT
100
AcDbText
 10
-45.89407885759704
 20
60.85745554661762
 30
0.0
 40
0.0550804658085724
  1
PART NAME
100
AcDbText
  0
TEXT
  5
25E8
330
1F
100
AcDbEntity
  8
TEXT
100
AcDbText
 10
-45.89407885759704
 20
60.43223435057542
 30
0.0
 40
0.0550804658085724
  1
DWG NO
100
AcDbText
  0
LINE
  5
25E9
330
1F
100
AcDbEntity
  8
BORDER
100
AcDbLine
 10
-45.94915932340561
 20
60.08985417510935
 30
0.0
 11
-45.94915932340561
 21
61.50740504315876
 31
0.0
  0
TEXT
  5
25EA
330
1F
100
AcDbEntity
  8
TEXT
100
AcDbText
 10
-46.49776076285898
 20
60.59769606986439
 30
0.0
 40
0.0826206987128586
  1
NONE
 72
     1
 11
-46.34628948188541
 21
60.63900641922082
 31
0.0
100
AcDbText
 73
     2
  0
TEXT
  5
25EB
330
1F
100
AcDbEntity
  8
TEXT
100
AcDbText
 10
-47.10135373020168
 20
60.3890380418795
 30
0.0
 40
0.1101609316171448
  1
9-29-09
 72
     1
 11
-46.74333070244596
 21
60.44411850768807
 31
0.0
100
AcDbText
 73
     2
  0
TEXT
  5
25EC
330
1F
100
AcDbEntity
  8
TEXT
100
AcDbText
 10
-47.48259949151624
 20
60.4796035511708
 30
0.0
 40
0.0550804658085724
  1
DATE
100
AcDbText
  0
TEXT
  5
25ED
330
1F
100
AcDbEntity
  8
TEXT
100
AcDbText
 10
-47.25071073046218
 20
60.59769606986439
 30
0.0
 40
0.0826206987128586
  1
JJH
 72
     1
 11
-47.14054979884504
 21
60.63900641922082
 31
0.0
100
AcDbText
 73
     2
  0
LINE
  5
25EE
330
1F
100
AcDbEntity
  8
BORDER
100
AcDbLine
 10
-47.53767995732482
 20
60.08985417510935
 30
0.0
 11
-47.53767995732482
 21
60.79840928727081
 31
0.0
  0
TEXT
  5
25EF
330
1F
100
AcDbEntity
  8
TEXT
100
AcDbText
 10
-47.48259949151627
 20
60.71578858855797
 30
0.0
 40
0.0550804658085724
  1
DRAWN
100
AcDbText
  0
LINE
  5
25F0
330
1F
100
AcDbEntity
  8
BORDER
100
AcDbLine
 10
-46.74341964036521
 20
60.79840928727084
 30
0.0
 11
-46.74341964036521
 21
60.56222424988365
 31
0.0
  0
TEXT
  5
25F1
330
1F
100
AcDbEntity
  8
TEXT
100
AcDbText
 10
-46.68833917455664
 20
60.71578858855797
 30
0.0
 40
0.0550804658085724
  1
SCALE
100
AcDbText
  0
TEXT
  5
25F2
330
1F
100
AcDbEntity
  8
TEXT
100
AcDbText
 10
-47.34930476425949
 20
60.15286622799436
 30
0.0
 40
0.1101609316171448
  1
SHEET 1 OF 1
 72
     1
 11
-46.7434196403652
 21
60.20794669380293
 31
0.0
100
AcDbText
 73
     2
  0
LINE
  5
25F3
330
1F
100
AcDbEntity
  8
BORDER
100
AcDbLine
 10
-47.53767995732482
 20
60.56222424988365
 30
0.0
 11
-45.94915932340561
 21
60.56222424988365
 31
0.0
  0
LINE
  5
25F4
330
1F
100
AcDbEntity
  8
BORDER
100
AcDbLine
 10
-47.53767995732482
 20
60.32603921249648
 30
0.0
 11
-45.94915932340561
 21
60.32603921249648
 31
0.0
  0
LINE
  5
25F5
330
1F
100
AcDbEntity
  8
BORDER
100
AcDbLine
 10
-47.53767995732482
 20
60.79840928727081
 30
0.0
 11
-45.94915932340561
 21
60.79840928727081
 31
0.0
  0
TEXT
  5
25F6
330
1F
100
AcDbEntity
  8
TEXT
100
AcDbText
 10
-43.37795104340396
 20
60.15088333122525
 30
0.0
 40
0.2203218632342896
  1
0
 72
     1
 11
-43.32287057759539
 21
60.2610442628424
 31
0.0
100
AcDbText
 73
     2
  0
LINE
  5
25F7
330
1F
100
AcDbEntity
  8
BORDER
100
AcDbLine
 10
-43.6338214413267
 20
60.51485504928828
 30
0.0
 11
-43.6338214413267
 21
60.08985417510935
 31
0.0
  0
TEXT
  5
25F8
330
1F
100
AcDbEntity
  8
TEXT
100
AcDbText
 10
-43.57874097551813
 20
60.43223435057542
 30
0.0
 40
0.0550804658085724
  1
REV
100
AcDbText
  0
ARC
  5
25F9
330
1F
100
AcDbEntity
  8
TEXT
100
AcDbCircle
 10
-44.65539347481203
 20
61.1235546961676
 30
0.0
 40
0.065000675498669
100
AcDbArc
 50
180.0
 51
0.0
  0
ARC
  5
25FA
330
1F
100
AcDbEntity
  8
TEXT
100
AcDbCircle
 10
-44.65539347481203
 20
61.22723526484261
 30
0.0
 40
0.065000675498669
100
AcDbArc
 50
357.1912576066922
 51
182.8087423933078
  0
LINE
  5
25FB
330
1F
100
AcDbEntity
  8
TEXT
100
AcDbLine
 10
-44.59043880395706
 20
61.13891098383199
 30
0.0
 11
-44.59043880395706
 21
61.12110958892941
 31
0.0
  0
LINE
  5
25FC
330
1F
100
AcDbEntity
  8
TEXT
100
AcDbLine
 10
-44.67405703510372
 20
61.15961480604898
 30
0.0
 11
-44.67405703510372
 21
61.1065196160197
 31
0.0
  0
LINE
  5
25FD
330
1F
100
AcDbEntity
  8
TEXT
100
AcDbLine
 10
-44.63677591916403
 20
61.13891098383199
 30
0.0
 11
-44.63677591916403
 21
61.10520999605362
 31
0.0
  0
LINE
  5
25FE
330
1F
100
AcDbEntity
  8
TEXT
100
AcDbLine
 10
-44.67405703510374
 20
61.18987415083779
 30
0.0
 11
-44.63677591916403
 21
61.18987415083779
 31
0.0
  0
LINE
  5
25FF
330
1F
100
AcDbEntity
  8
TEXT
100
AcDbLine
 10
-44.63677591916403
 20
61.13891098383199
 30
0.0
 11
-44.59043880395706
 21
61.13891098383199
 31
0.0
  0
LINE
  5
2600
330
1F
100
AcDbEntity
  8
TEXT
100
AcDbLine
 10
-44.67405703510372
 20
61.15961480604898
 30
0.0
 11
-44.59043880395706
 21
61.15961480604898
 31
0.0
  0
ARC
  5
2601
330
1F
100
AcDbEntity
  8
TEXT
100
AcDbCircle
 10
-44.65539347481203
 20
61.1065196160197
 30
0.0
 40
0.018663560291697
100
AcDbArc
 50
179.9999999999984
 51
4.023745172363636
  0
ARC
  5
2602
330
1F
100
AcDbEntity
  8
TEXT
100
AcDbCircle
 10
-44.65539347481203
 20
61.24350583495814
 30
0.0
 40
0.018663560291697
100
AcDbArc
 50
355.9762548274004
 51
180.0
  0
LINE
  5
2603
330
1F
100
AcDbEntity
  8
TEXT
100
AcDbLine
 10
-45.02958165999074
 20
61.07336173076289
 30
0.0
 11
-45.02958165999074
 21
61.05855402066893
 31
0.0
  0
LINE
  5
2604
330
1F
100
AcDbEntity
  8
TEXT
100
AcDbLine
 10
-45.0610959774649
 20
61.28905076615072
 30
0.0
 11
-45.0610959774649
 21
61.10355918921482
 31
0.0
  0
LINE
  5
2605
330
1F
100
AcDbEntity
  8
TEXT
100
AcDbLine
 10
-45.02958165999074
 20
61.05855402066893
 30
0.0
 11
-44.98324454478377
 21
61.05855402066893
 31
0.0
  0
LINE
  5
2606
330
1F
100
AcDbEntity
  8
TEXT
100
AcDbLine
 10
-45.10676618146289
 20
61.28905076615072
 30
0.0
 11
-45.1067661814629
 21
61.09025611187927
 31
0.0
  0
LINE
  5
2607
330
1F
100
AcDbEntity
  8
TEXT
100
AcDbLine
 10
-45.0610959774649
 20
61.24646626176303
 30
0.0
 11
-45.0610959774649
 21
61.10355918921482
 31
0.0
  0
LINE
  5
2608
330
1F
100
AcDbEntity
  8
TEXT
100
AcDbLine
 10
-45.02958165999074
 20
61.28905076615072
 30
0.0
 11
-45.02958165999074
 21
61.10355918921482
 31
0.0
  0
LINE
  5
2609
330
1F
100
AcDbEntity
  8
TEXT
100
AcDbLine
 10
-44.98324454478377
 20
61.28905076615072
 30
0.0
 11
-44.98324454478377
 21
61.05855402066893
 31
0.0
  0
LINE
  5
260A
330
1F
100
AcDbEntity
  8
TEXT
100
AcDbLine
 10
-45.06856140158157
 20
61.05855402066893
 30
0.0
 11
-45.06010924074696
 21
61.05855402066893
 31
0.0
  0
ARC
  5
260B
330
1F
100
AcDbEntity
  8
TEXT
100
AcDbCircle
 10
-45.0453928439781
 20
61.10355918921482
 30
0.0
 40
0.0157031334868072
100
AcDbArc
 50
180.0000000000016
 51
359.9999999999984
  0
ARC
  5
260C
330
1F
100
AcDbEntity
  8
TEXT
100
AcDbCircle
 10
-45.06856140158157
 20
61.09742571175922
 30
0.0
 40
0.0388716910902931
100
AcDbArc
 50
180.0
 51
270.0
  0
ARC
  5
260D
330
1F
100
AcDbEntity
  8
TEXT
100
AcDbCircle
 10
-45.06010924074696
 20
61.09742571175922
 30
0.0
 40
0.0388716910902931
100
AcDbArc
 50
270.0
 51
321.7523418942982
  0
LINE
  5
260E
330
1F
100
AcDbEntity
  8
TEXT
100
AcDbLine
 10
-44.7887250533938
 20
61.09774144990797
 30
0.0
 11
-44.7887250533938
 21
61.25259973921864
 31
0.0
  0
LINE
  5
260F
330
1F
100
AcDbEntity
  8
TEXT
100
AcDbLine
 10
-44.83506216860077
 20
61.10355918921482
 30
0.0
 11
-44.83506216860078
 21
61.24646626176303
 31
0.0
  0
LINE
  5
2610
330
1F
100
AcDbEntity
  8
TEXT
100
AcDbLine
 10
-44.86657648607495
 20
61.10355918921482
 30
0.0
 11
-44.86657648607495
 21
61.24646626176303
 31
0.0
  0
LINE
  5
2611
330
1F
100
AcDbEntity
  8
TEXT
100
AcDbLine
 10
-44.91291360128192
 20
61.06097468482714
 30
0.0
 11
-44.91291360128192
 21
61.3889272678203
 31
0.0
  0
LINE
  5
2612
330
1F
100
AcDbEntity
  8
TEXT
100
AcDbLine
 10
-44.87234328454047
 20
61.06097468482714
 30
0.0
 11
-44.87234328454047
 21
61.08164965914347
 31
0.0
  0
LINE
  5
2613
330
1F
100
AcDbEntity
  8
TEXT
100
AcDbLine
 10
-44.87234328454047
 20
61.06097468482714
 30
0.0
 11
-44.91291360128192
 21
61.06097468482714
 31
0.0
  0
ARC
  5
2614
330
1F
100
AcDbEntity
  8
TEXT
100
AcDbCircle
 10
-44.85076530208759
 20
61.10355918921482
 30
0.0
 40
0.0157031334868072
100
AcDbArc
 50
180.0
 51
0.0
  0
ARC
  5
2615
330
1F
100
AcDbEntity
  8
TEXT
100
AcDbCircle
 10
-44.85076530208759
 20
61.24646626176303
 30
0.0
 40
0.0157031334868072
100
AcDbArc
 50
0.0000000000016284
 51
179.9999999999984
  0
ARC
  5
2616
330
1F
100
AcDbEntity
  8
TEXT
100
AcDbCircle
 10
-44.83055717128899
 20
61.09774144990797
 30
0.0
 40
0.041832117895183
100
AcDbArc
 50
202.6235962336629
 51
0.0
  0
LINE
  5
2617
330
1F
100
AcDbEntity
  8
TEXT
100
AcDbLine
 10
-44.86917038609414
 20
61.08164965914347
 30
0.0
 11
-44.87234328454047
 21
61.08164965914347
 31
0.0
  0
ARC
  5
2618
330
1F
100
AcDbEntity
  8
TEXT
100
AcDbCircle
 10
-44.82759674448411
 20
61.25259973921864
 30
0.0
 40
0.0388716910902931
100
AcDbArc
 50
0.0
 51
90.0
  0
LINE
  5
2619
330
1F
100
AcDbEntity
  8
TEXT
100
AcDbLine
 10
-45.54916159686999
 20
61.15719660580721
 30
0.0
 11
-45.54916159686999
 21
61.12445569562996
 31
0.0
  0
LINE
  5
261A
330
1F
100
AcDbEntity
  8
TEXT
100
AcDbLine
 10
-45.59549871207696
 20
61.15719660580721
 30
0.0
 11
-45.59549871207696
 21
61.12445569562996
 31
0.0
  0
LINE
  5
261B
330
1F
100
AcDbEntity
  8
TEXT
100
AcDbLine
 10
-45.54916159686999
 20
61.15719660580721
 30
0.0
 11
-45.59549871207696
 21
61.15719660580721
 31
0.0
  0
ARC
  5
261C
330
1F
100
AcDbEntity
  8
TEXT
100
AcDbCircle
 10
-45.255512090951
 20
61.09742571175922
 30
0.0
 40
0.0388716910902931
100
AcDbArc
 50
270.0
 51
321.7523418942982
  0
ARC
  5
261D
330
1F
100
AcDbEntity
  8
TEXT
100
AcDbCircle
 10
-45.26396425178563
 20
61.09742571175922
 30
0.0
 40
0.0388716910902931
100
AcDbArc
 50
180.0
 51
270.0
  0
LINE
  5
261E
330
1F
100
AcDbEntity
  8
TEXT
100
AcDbLine
 10
-45.2223906101756
 20
61.2683757918344
 30
0.0
 11
-45.21921771172926
 21
61.2683757918344
 31
0.0
  0
LINE
  5
261F
330
1F
100
AcDbEntity
  8
TEXT
100
AcDbLine
 10
-45.22498451019479
 20
61.07336173076288
 30
0.0
 11
-45.22498451019479
 21
60.98215212094626
 31
0.0
  0
ARC
  5
2620
330
1F
100
AcDbEntity
  8
TEXT
100
AcDbCircle
 10
-45.26100382498074
 20
61.25228400106989
 30
0.0
 40
0.041832117895183
100
AcDbArc
 50
22.62359623366367
 51
180.0
  0
ARC
  5
2621
330
1F
100
AcDbEntity
  8
TEXT
100
AcDbCircle
 10
-45.24079569418215
 20
61.10355918921482
 30
0.0
 40
0.0157031334868072
100
AcDbArc
 50
180.0000000000016
 51
359.9999999999984
  0
ARC
  5
2622
330
1F
100
AcDbEntity
  8
TEXT
100
AcDbCircle
 10
-45.24079569418215
 20
61.24646626176303
 30
0.0
 40
0.0157031334868072
100
AcDbArc
 50
0.0
 51
180.0
  0
LINE
  5
2623
330
1F
100
AcDbEntity
  8
TEXT
100
AcDbLine
 10
-45.22498451019479
 20
60.98215212094626
 30
0.0
 11
-45.17864739498782
 21
60.98215212094626
 31
0.0
  0
LINE
  5
2624
330
1F
100
AcDbEntity
  8
TEXT
100
AcDbLine
 10
-45.43959311923232
 20
61.20981753364152
 30
0.0
 11
-45.43959311923232
 21
61.09794056859485
 31
0.0
  0
LINE
  5
2625
330
1F
100
AcDbEntity
  8
TEXT
100
AcDbLine
 10
-45.36760853243382
 20
61.20981753364152
 30
0.0
 11
-45.36760853243382
 21
61.249188478121
 31
0.0
  0
LINE
  5
2626
330
1F
100
AcDbEntity
  8
TEXT
100
AcDbLine
 10
-45.36194510724185
 20
61.05855402066893
 30
0.0
 11
-45.36194510724185
 21
61.09794056859485
 31
0.0
  0
LINE
  5
2627
330
1F
100
AcDbEntity
  8
TEXT
100
AcDbLine
 10
-45.43959311923232
 20
61.20981753364152
 30
0.0
 11
-45.36760853243382
 21
61.20981753364152
 31
0.0
  0
LINE
  5
2628
330
1F
100
AcDbEntity
  8
TEXT
100
AcDbLine
 10
-45.43959311923229
 20
61.249188478121
 30
0.0
 11
-45.36760853243382
 21
61.249188478121
 31
0.0
  0
ARC
  5
2629
330
1F
100
AcDbEntity
  8
TEXT
100
AcDbCircle
 10
-45.62212253025157
 20
61.12445569562996
 30
0.0
 40
0.0728522422420726
100
AcDbArc
 50
180.0
 51
0.0
  0
LINE
  5
262A
330
1F
100
AcDbEntity
  8
TEXT
100
AcDbLine
 10
-45.26396425178563
 20
61.05855402066893
 30
0.0
 11
-45.255512090951
 21
61.05855402066893
 31
0.0
  0
LINE
  5
262B
330
1F
100
AcDbEntity
  8
TEXT
100
AcDbLine
 10
-45.43959311923232
 20
61.09794056859485
 30
0.0
 11
-45.36194510724185
 21
61.09794056859485
 31
0.0
  0
LINE
  5
262C
330
1F
100
AcDbEntity
  8
TEXT
100
AcDbLine
 10
-45.48593023443928
 20
61.05855402066893
 30
0.0
 11
-45.36194510724185
 21
61.05855402066893
 31
0.0
  0
ARC
  5
262D
330
1F
100
AcDbEntity
  8
TEXT
100
AcDbCircle
 10
-45.62212253025157
 20
61.12445569562996
 30
0.0
 40
0.0265151270351006
100
AcDbArc
 50
180.0
 51
0.0
  0
LINE
  5
262E
330
1F
100
AcDbEntity
  8
TEXT
100
AcDbLine
 10
-44.59043880395706
 20
61.22968037208085
 30
0.0
 11
-44.59043880395706
 21
61.15961480604898
 31
0.0
  0
LINE
  5
262F
330
1F
100
AcDbEntity
  8
TEXT
100
AcDbLine
 10
-44.63677591916403
 20
61.24481545492431
 30
0.0
 11
-44.63677591916403
 21
61.18987415083779
 31
0.0
  0
LINE
  5
2630
330
1F
100
AcDbEntity
  8
TEXT
100
AcDbLine
 10
-44.67405703510372
 20
61.24350583495814
 30
0.0
 11
-44.67405703510374
 21
61.18987415083779
 31
0.0
  0
LINE
  5
2631
330
1F
100
AcDbEntity
  8
TEXT
100
AcDbLine
 10
-44.72039415031068
 20
61.22723526484261
 30
0.0
 11
-44.72039415031068
 21
61.1235546961676
 31
0.0
  0
LINE
  5
2632
330
1F
100
AcDbEntity
  8
TEXT
100
AcDbLine
 10
-45.21921771172926
 20
61.28905076615072
 30
0.0
 11
-45.21921771172926
 21
61.2683757918344
 31
0.0
  0
LINE
  5
2633
330
1F
100
AcDbEntity
  8
TEXT
100
AcDbLine
 10
-45.17864739498782
 20
61.28905076615072
 30
0.0
 11
-45.17864739498782
 21
60.98215212094626
 31
0.0
  0
LINE
  5
2634
330
1F
100
AcDbEntity
  8
TEXT
100
AcDbLine
 10
-45.22498451019479
 20
61.24646626176303
 30
0.0
 11
-45.22498451019479
 21
61.10355918921482
 31
0.0
  0
LINE
  5
2635
330
1F
100
AcDbEntity
  8
TEXT
100
AcDbLine
 10
-45.25649882766896
 20
61.24646626176303
 30
0.0
 11
-45.25649882766896
 21
61.10355918921482
 31
0.0
  0
LINE
  5
2636
330
1F
100
AcDbEntity
  8
TEXT
100
AcDbLine
 10
-45.30283594287593
 20
61.25228400106989
 30
0.0
 11
-45.30283594287593
 21
61.09742571175922
 31
0.0
  0
LINE
  5
2637
330
1F
100
AcDbEntity
  8
TEXT
100
AcDbLine
 10
-45.43959311923232
 20
61.34955632334083
 30
0.0
 11
-45.43959311923229
 21
61.249188478121
 31
0.0
  0
LINE
  5
2638
330
1F
100
AcDbEntity
  8
TEXT
100
AcDbLine
 10
-45.48593023443928
 20
61.3889272678203
 30
0.0
 11
-45.48593023443928
 21
61.05855402066893
 31
0.0
  0
LINE
  5
2639
330
1F
100
AcDbEntity
  8
TEXT
100
AcDbLine
 10
-45.64863765728669
 20
61.32304119630572
 30
0.0
 11
-45.64863765728669
 21
61.12445569562996
 31
0.0
  0
LINE
  5
263A
330
1F
100
AcDbEntity
  8
TEXT
100
AcDbLine
 10
-45.69497477249366
 20
61.32304119630572
 30
0.0
 11
-45.69497477249366
 21
61.12445569562996
 31
0.0
  0
LINE
  5
263B
330
1F
100
AcDbEntity
  8
TEXT
100
AcDbLine
 10
-45.76541480630839
 20
61.3889272678203
 30
0.0
 11
-45.76541480630839
 21
61.05855402066893
 31
0.0
  0
LINE
  5
263C
330
1F
100
AcDbEntity
  8
TEXT
100
AcDbLine
 10
-45.81175192151536
 20
61.3889272678203
 30
0.0
 11
-45.81175192151536
 21
61.05855402066893
 31
0.0
  0
LINE
  5
263D
330
1F
100
AcDbEntity
  8
TEXT
100
AcDbLine
 10
-45.81175192151536
 20
61.05855402066893
 30
0.0
 11
-45.76541480630839
 21
61.05855402066893
 31
0.0
  0
TEXT
  5
263E
330
1F
100
AcDbEntity
  8
TEXT
100
AcDbText
 10
-44.14825228203157
 20
60.98957479876547
 30
0.0
 40
0.0413103493564293
  1
FAX  724-837-3386
 72
     1
 11
-43.80399937072799
 21
61.01022997344369
 31
0.0
100
AcDbText
 73
     2
  0
TEXT
  5
263F
330
1F
100
AcDbEntity
  8
TEXT
100
AcDbText
 10
-44.20333274784014
 20
61.20989666199974
 30
0.0
 40
0.0413103493564293
  1
GREENSBURG, PA  15601
 72
     1
 11
-43.80399937072799
 21
61.23055183667797
 31
0.0
100
AcDbText
 73
     2
  0
TEXT
  5
2640
330
1F
100
AcDbEntity
  8
TEXT
100
AcDbText
 10
-44.42709714018747
 20
61.0997357303826
 30
0.0
 40
0.0413103493564293
  1
724-837-2204  *  1-888-867-8234
 72
     1
 11
-43.80399937072799
 21
61.12039090506082
 31
0.0
100
AcDbText
 73
     2
  0
LINE
  5
2641
330
1F
100
AcDbEntity
  8
BORDER
100
AcDbLine
 10
-45.94915932340561
 20
61.50740504315876
 30
0.0
 11
-43.01191971386407
 21
61.50740504315876
 31
0.0
  0
LINE
  5
2642
330
1F
100
AcDbEntity
  8
TEXT
100
AcDbLine
 10
-45.10676618146289
 20
61.28905076615072
 30
0.0
 11
-45.0610959774649
 21
61.28905076615072
 31
0.0
  0
LINE
  5
2643
330
1F
100
AcDbEntity
  8
TEXT
100
AcDbLine
 10
-45.02958165999074
 20
61.28905076615072
 30
0.0
 11
-44.98324454478377
 21
61.28905076615072
 31
0.0
  0
LINE
  5
2644
330
1F
100
AcDbEntity
  8
TEXT
100
AcDbLine
 10
-44.82759674448411
 20
61.29147143030893
 30
0.0
 11
-44.83604890531874
 21
61.29147143030893
 31
0.0
  0
LINE
  5
2645
330
1F
100
AcDbEntity
  8
TEXT
100
AcDbLine
 10
-44.86657648607495
 20
61.27666372021497
 30
0.0
 11
-44.86657648607495
 21
61.3889272678203
 31
0.0
  0
ARC
  5
2646
330
1F
100
AcDbEntity
  8
TEXT
100
AcDbCircle
 10
-44.83604890531874
 20
61.25259973921864
 30
0.0
 40
0.0388716910902931
100
AcDbArc
 50
90.0
 51
141.7523418942984
  0
LINE
  5
2647
330
1F
100
AcDbEntity
  8
TEXT
100
AcDbLine
 10
-45.54916159686999
 20
61.2960453347182
 30
0.0
 11
-45.59549871207698
 21
61.2960453347182
 31
0.0
  0
LINE
  5
2648
330
1F
100
AcDbEntity
  8
TEXT
100
AcDbLine
 10
-44.91291360128192
 20
61.3889272678203
 30
0.0
 11
-44.86657648607495
 21
61.3889272678203
 31
0.0
  0
LINE
  5
2649
330
1F
100
AcDbEntity
  8
TEXT
100
AcDbLine
 10
-45.21921771172926
 20
61.28905076615072
 30
0.0
 11
-45.17864739498782
 21
61.28905076615072
 31
0.0
  0
LINE
  5
264A
330
1F
100
AcDbEntity
  8
TEXT
100
AcDbLine
 10
-45.36194510724185
 20
61.34955632334083
 30
0.0
 11
-45.36194510724185
 21
61.3889272678203
 31
0.0
  0
ARC
  5
264B
330
1F
100
AcDbEntity
  8
TEXT
100
AcDbCircle
 10
-45.62212253025157
 20
61.32304119630572
 30
0.0
 40
0.0728522422420726
100
AcDbArc
 50
0.0
 51
180.0
  0
LINE
  5
264C
330
1F
100
AcDbEntity
  8
TEXT
100
AcDbLine
 10
-45.48593023443928
 20
61.3889272678203
 30
0.0
 11
-45.36194510724185
 21
61.3889272678203
 31
0.0
  0
LINE
  5
264D
330
1F
100
AcDbEntity
  8
TEXT
100
AcDbLine
 10
-45.43959311923232
 20
61.34955632334083
 30
0.0
 11
-45.36194510724185
 21
61.34955632334083
 31
0.0
  0
ARC
  5
264E
330
1F
100
AcDbEntity
  8
TEXT
100
AcDbCircle
 10
-45.62212253025157
 20
61.32304119630572
 30
0.0
 40
0.0265151270351006
100
AcDbArc
 50
0.0
 51
180.0
  0
LINE
  5
264F
330
1F
100
AcDbEntity
  8
TEXT
100
AcDbLine
 10
-45.59549871207698
 20
61.32304119630572
 30
0.0
 11
-45.59549871207698
 21
61.2960453347182
 31
0.0
  0
LINE
  5
2650
330
1F
100
AcDbEntity
  8
TEXT
100
AcDbLine
 10
-45.54916159686999
 20
61.32304119630572
 30
0.0
 11
-45.54916159686999
 21
61.2960453347182
 31
0.0
  0
LINE
  5
2651
330
1F
100
AcDbEntity
  8
TEXT
100
AcDbLine
 10
-45.81175192151536
 20
61.3889272678203
 30
0.0
 11
-45.76541480630839
 21
61.3889272678203
 31
0.0
  0
TEXT
  5
2652
330
1F
100
AcDbEntity
  8
TEXT
100
AcDbText
 10
-44.1413672238055
 20
61.32005759361691
 30
0.0
 40
0.0413103493564293
  1
141 WILSON AVENUE
 72
     1
 11
-43.80399937072799
 21
61.34071276829512
 31
0.0
100
AcDbText
 73
     2
  0
TEXT
  5
2653
330
1F
100
AcDbEntity
  8
TEXT
100
AcDbText
 10
-44.34791897058764
 20
61.42471047865318
 30
0.0
 40
0.0413103493564293
  1
INDUSTRIAL COOLING EQUIPMENT
 72
     1
 11
-43.80399937072799
 21
61.44536565333139
 31
0.0
100
AcDbText
 73
     2
  0
LINE
  5
2659
330
1F
100
AcDbEntity
  8
BORDER
100
AcDbLine
 10
-54.03008899626088
 20
60.6186793403209
 30
0.0
 11
-59.75744295490815
 21
60.6186793403209
 31
0.0
  0
TEXT
  5
265A
330
1F
100
AcDbEntity
  8
TEXT
100
AcDbText
 10
-59.58667649530859
 20
60.48647304901802
 30
0.0
 40
0.0881375275352588
  1
0
 72
     1
 11
-59.56464211342478
 21
60.53054181278564
 31
0.0
100
AcDbText
 73
     2
  0
TEXT
  5
265C
330
1F
100
AcDbEntity
  8
TEXT
100
AcDbText
 10
-58.13093833218455
 20
60.48647304901802
 30
0.0
 40
0.0881375275352588
  1
INITIAL RELEASE
 72
     1
 11
-57.52866522736027
 21
60.53054181278564
 31
0.0
100
AcDbText
 73
     2
  0
TEXT
  5
265D
330
1F
100
AcDbEntity
  8
TEXT
100
AcDbText
 10
-54.58750067174524
 20
60.48647304901802
 30
0.0
 40
0.0881375275352588
  1
JMH
 72
     1
 11
-54.4699839683649
 21
60.53054181278564
 31
0.0
100
AcDbText
 73
     2
  0
TEXT
  5
265F
330
1F
100
AcDbEntity
  8
TEXT
100
AcDbText
 10
-55.54006226234601
 20
60.48647304901802
 30
0.0
 40
0.0881375275352588
  1
8-7-08
 72
     1
 11
-55.29768406162406
 21
60.53054181278564
 31
0.0
100
AcDbText
 73
     2
  0
LINE
  5
2661
330
1F
100
AcDbEntity
  8
BORDER
100
AcDbLine
 10
-54.03008899626088
 20
60.26612923017985
 30
0.0
 11
-59.75744295490815
 21
60.26612923017985
 31
0.0
  0
LINE
  5
2662
330
1F
100
AcDbEntity
  8
BORDER
100
AcDbLine
 10
-54.03008899626088
 20
60.44240428525039
 30
0.0
 11
-59.75744295490815
 21
60.44240428525039
 31
0.0
  0
TEXT
  5
2663
330
1F
100
AcDbEntity
  8
TEXT
100
AcDbText
 10
-59.69684840472766
 20
60.31019799394748
 30
0.0
 40
0.0881375275352588
  1
REV
 72
     1
 11
-59.56464211342478
 21
60.3542667577151
 31
0.0
100
AcDbText
 73
     2
  0
LINE
  5
2664
330
1F
100
AcDbEntity
  8
BORDER
100
AcDbLine
 10
-59.75744295490815
 20
60.08985417510935
 30
0.0
 11
-59.75744295490815
 21
61.14750450553252
 31
0.0
  0
LINE
  5
2665
330
1F
100
AcDbEntity
  8
BORDER
100
AcDbLine
 10
-59.37184127194139
 20
60.26612923017985
 30
0.0
 11
-59.37184127194139
 21
60.6186793403209
 31
0.0
  0
TEXT
  5
2666
330
1F
100
AcDbEntity
  8
TEXT
100
AcDbText
 10
-57.96935286503657
 20
60.31019799394748
 30
0.0
 40
0.0881375275352588
  1
DESCRIPTION
 72
     1
 11
-57.52866522736027
 21
60.3542667577151
 31
0.0
100
AcDbText
 73
     2
  0
TEXT
  5
2667
330
1F
100
AcDbEntity
  8
TEXT
100
AcDbText
 10
-54.76377572681577
 20
60.31019799394748
 30
0.0
 40
0.0881375275352588
  1
CHECKED
 72
     1
 11
-54.4699839683649
 21
60.3542667577151
 31
0.0
100
AcDbText
 73
     2
  0
LINE
  5
2668
330
1F
100
AcDbEntity
  8
BORDER
100
AcDbLine
 10
-54.90987894046892
 20
60.26612923017985
 30
0.0
 11
-54.90987894046892
 21
60.6186793403209
 31
0.0
  0
TEXT
  5
2669
330
1F
100
AcDbEntity
  8
TEXT
100
AcDbText
 10
-55.45926952877203
 20
60.31019799394748
 30
0.0
 40
0.0881375275352588
  1
DATE
 72
     1
 11
-55.29768406162406
 21
60.3542667577151
 31
0.0
100
AcDbText
 73
     2
  0
LINE
  5
266A
330
1F
100
AcDbEntity
  8
BORDER
100
AcDbLine
 10
-55.68548918277919
 20
60.26612923017985
 30
0.0
 11
-55.68548918277921
 21
60.6186793403209
 31
0.0
  0
LINE
  5
266B
330
1F
100
AcDbEntity
  8
BORDER
100
AcDbLine
 10
-59.75744295490815
 20
60.26612923017985
 30
0.0
 11
-54.03008899626088
 21
60.26612923017985
 31
0.0
  0
LINE
  5
266C
330
1F
100
AcDbEntity
  8
BORDER
100
AcDbLine
 10
-54.03008899626088
 20
60.6186793403209
 30
0.0
 11
-54.03008899626088
 21
60.08985417510935
 31
0.0
  0
LINE
  5
266D
330
1F
100
AcDbEntity
  8
BORDER
100
AcDbLine
 10
-54.03008899626088
 20
60.08985417510935
 30
0.0
 11
-59.75744295490815
 21
60.08985417510935
 31
0.0
  0
TEXT
  5
266E
330
1F
100
AcDbEntity
  8
TEXT
100
AcDbText
 10
-57.89590492542386
 20
60.13392293887693
 30
0.0
 40
0.0881375275352588
  1
REVISIONS
 72
     1
 11
-57.52866522736027
 21
60.17799170264455
 31
0.0
100
AcDbText
 73
     2
  0
LINE
  5
268A
330
1F
100
AcDbEntity
  8
BORDER
100
AcDbLine
 10
-43.01191971386407
 20
60.08985417510935
 30
0.0
 11
-59.75744295490815
 21
60.08985417510935
 31
0.0
  0
TEXT
  5
26BD
330
1F
100
AcDbEntity
  8
DIMENSION
100
AcDbText
 10
-53.23308182594978
 20
79.79952337678778
 30
0.0
 40
0.5
  1
IQ200FPP
 72
     1
 11
-51.48308182594978
 21
80.04952337678778
 31
0.0
100
AcDbText
 73
     2
  0
TEXT
  5
26BE
330
1F
100
AcDbEntity
  8
DIMENSION
100
AcDbText
 10
-52.89974849261644
 20
78.83887028871578
 30
0.0
 40
0.5
  1
CUTOUT
 72
     1
 11
-51.48308182594978
 21
79.08887028871578
 31
0.0
100
AcDbText
 73
     2
  0
DIMENSION
  5
2AA2
330
1F
100
AcDbEntity
  8
0
100
AcDbDimension
  2
*D17
 10
-55.40218133438614
 20
67.05704511701668
 30
0.0
 11
-57.85703133438613
 21
71.10204511701667
 31
0.0
 70
    38
  1
 <>\P(2)
 71
     5
 42
4.044999999999986
 73
     0
 74
     0
 75
     0
  3
Standard
100
AcDbOrdinateDimension
 13
-55.01093133438613
 23
71.10204511701667
 33
0.0
 14
-56.43593133438614
 24
71.10204511701667
 34
0.0
  0
DIMENSION
  5
2AA3
330
1F
100
AcDbEntity
  8
0
100
AcDbDimension
  2
*D16
 10
-55.40218133438614
 20
67.05704511701668
 30
0.0
 11
-57.82328133438614
 21
68.75656402631396
 31
0.0
 70
   166
  1
 <>\P(3)
 71
     5
 42
0.4250000000000115
 73
     0
 74
     0
 75
     0
  3
Standard
100
AcDbOrdinateDimension
 13
-54.97718133438613
 23
67.48204511701668
 33
0.0
 14
-56.40218133438614
 24
68.75656402631396
 34
0.0
1001
ACAD
1000
DSTYLE
1002
{
1070
    41
1040
0.25
1002
}
  0
DIMENSION
  5
2AA4
330
1F
100
AcDbEntity
  8
0
100
AcDbDimension
  2
*D15
 10
-55.40218133438614
 20
67.05204511701667
 30
0.0
 11
-51.38593133438614
 21
64.08014511701665
 31
0.0
 70
   102
  1
(2) <>
 71
     5
 42
4.016250000000012
 73
     0
 74
     0
 75
     0
  3
Standard
100
AcDbOrdinateDimension
 13
-51.38593133438613
 23
67.47704511701669
 33
0.0
 14
-51.38593133438613
 24
66.05204511701668
 34
0.0
  0
DIMENSION
  5
2AA6
330
1F
100
AcDbEntity
  8
0
100
AcDbDimension
  2
*D13
 10
-55.40218133438614
 20
67.05704511701668
 30
0.0
 11
-55.40218133438615
 21
65.04904511701667
 31
0.0
 70
   102
 71
     5
 42
0.0
 73
     0
 74
     0
 75
     0
  3
Standard
100
AcDbOrdinateDimension
 13
-55.40218133438614
 23
67.05704511701668
 33
0.0
 14
-55.40218133438614
 24
66.05704511701668
 34
0.0
  0
DIMENSION
  5
2AA7
330
1F
100
AcDbEntity
  8
0
100
AcDbDimension
  2
*D20
 10
-55.40218133438614
 20
67.05704511701668
 30
0.0
 11
-57.41018133438615
 21
67.05704511701668
 31
0.0
 70
    38
 71
     5
 42
0.0
 73
     0
 74
     0
 75
     0
  3
Standard
100
AcDbOrdinateDimension
 13
-55.40218133438614
 23
67.05704511701668
 33
0.0
 14
-56.40218133438614
 24
67.05704511701668
 34
0.0
  0
DIMENSION
  5
2AAE
330
1F
100
AcDbEntity
  8
0
100
AcDbDimension
  2
*D12
 10
-55.40218133438614
 20
67.05704511701668
 30
0.0
 11
-55.01093133438613
 21
77.60626188842836
 31
0.0
 70
   102
  1
<> (3)
 71
     5
 42
0.3912500000000136
 73
     0
 74
     0
 75
     0
  3
Standard
100
AcDbOrdinateDimension
 13
-55.01093133438613
 23
74.72704511701668
 33
0.0
 14
-55.01093133438613
 24
75.63436188842837
 34
0.0
  0
DIMENSION
  5
2AAF
330
1F
100
AcDbEntity
  8
0
100
AcDbDimension
  2
*D11
 10
-55.4021813343861
 20
67.05704511701668
 30
0.0
 11
-57.5816313343861
 21
74.72704511701668
 31
0.0
 70
    38
  1
<>\P(3)
 71
     5
 42
7.67
 73
     0
 74
     0
 75
     0
  3
Standard
100
AcDbOrdinateDimension
 13
-55.01093133438612
 23
74.72704511701668
 33
0.0
 14
-56.43593133438611
 24
74.72704511701668
 34
0.0
  0
DIMENSION
  5
2AB3
330
1F
100
AcDbEntity
  8
0
100
AcDbDimension
  2
*D10
 10
-55.40218133438614
 20
67.05704511701668
 30
0.0
 11
-48.34681863574026
 21
77.36364511701667
 31
0.0
 70
   102
 71
     5
 42
7.44749999999999
 73
     0
 74
     0
 75
     0
  3
Standard
100
AcDbOrdinateDimension
 13
-47.95468133438615
 23
74.52704511701668
 33
0.0
 14
-48.34681863574025
 24
76.17204511701669
 34
0.0
1001
ACAD
1000
DSTYLE
1002
{
1070
    41
1040
0.25
1002
}
  0
DIMENSION
  5
2AB4
330
1F
100
AcDbEntity
  8
0
100
AcDbDimension
  2
*D9
 10
-55.40218133438614
 20
67.05704511701668
 30
0.0
 11
-47.36718133438611
 21
77.30274511701667
 31
0.0
 70
   102
 71
     5
 42
8.035000000000039
 73
     0
 74
     0
 75
     0
  3
Standard
100
AcDbOrdinateDimension
 13
-47.3671813343861
 23
75.15704511701669
 33
0.0
 14
-47.3671813343861
 24
76.15704511701669
 34
0.0
  0
DIMENSION
  5
2AB5
330
1F
100
AcDbEntity
  8
0
100
AcDbDimension
  2
*D19
 10
-55.40218133438614
 20
67.05704511701668
 30
0.0
 11
-45.3591813343861
 21
75.15704511701669
 31
0.0
 70
    38
 71
     5
 42
8.099999999999994
 73
     0
 74
     0
 75
     0
  3
Standard
100
AcDbOrdinateDimension
 13
-47.3671813343861
 23
75.15704511701669
 33
0.0
 14
-46.3671813343861
 24
75.15704511701669
 34
0.0
  0
DIMENSION
  5
2AB8
330
1F
100
AcDbEntity
  8
0
100
AcDbDimension
  2
*D8
 10
-55.40218133438614
 20
67.05704511701668
 30
0.0
 11
-45.19898133438615
 21
74.15085659146678
 31
0.0
 70
    38
 71
     5
 42
7.469999999999997
 73
     0
 74
     0
 75
     0
  3
Standard
100
AcDbOrdinateDimension
 13
-47.95468133438615
 23
74.52704511701668
 33
0.0
 14
-46.34468133438614
 24
74.15085659146678
 34
0.0
1001
ACAD
1000
DSTYLE
1002
{
1070
    41
1040
0.25
1002
}
  0
DIMENSION
  5
2AB9
330
1F
100
AcDbEntity
  8
0
100
AcDbDimension
  2
*D7
 10
-55.40218133438614
 20
67.05704511701668
 30
0.0
 11
-45.24488133438615
 21
67.67704511701669
 31
0.0
 70
    38
 71
     5
 42
0.6200000000000046
 73
     0
 74
     0
 75
     0
  3
Standard
100
AcDbOrdinateDimension
 13
-47.95468133438615
 23
67.67704511701669
 33
0.0
 14
-46.34468133438614
 24
67.67704511701669
 34
0.0
  0
DIMENSION
  5
2ABA
330
1F
100
AcDbEntity
  8
0
100
AcDbDimension
  2
*D6
 10
-55.4021813343861
 20
67.05704511701668
 30
0.0
 11
-47.76093133438613
 21
64.03924511701666
 31
0.0
 70
   102
  1
(3) <>
 71
     5
 42
7.641249999999986
 73
     0
 74
     0
 75
     0
  3
Standard
100
AcDbOrdinateDimension
 13
-47.76093133438613
 23
67.48204511701668
 33
0.0
 14
-47.76093133438613
 24
66.05704511701668
 34
0.0
  0
DIMENSION
  5
2AC1
330
1F
100
AcDbEntity
  8
0
100
AcDbDimension
  2
*D18
 10
-47.83894171635204
 20
71.04960104866258
 30
0.0
 11
-44.42115316152056
 21
72.08334350248271
 31
0.0
 70
   163
  1
<> \P(8)
 71
     5
 42
0.1880000000000095
 73
     0
 74
     0
 75
     0
  3
Standard
100
AcDbDiametricDimension
 15
-47.68292095242016
 25
71.15448918537079
 35
0.0
 40
0.0
1001
ACAD
1000
DSTYLE
1002
{
1070
   288
1070
     1
1002
}
  0
CIRCLE
  5
3205
330
1F
100
AcDbEntity
  8
0
100
AcDbCircle
 10
-55.01093133438613
 20
71.10204511701667
 30
0.0
 40
0.0675
  0
CIRCLE
  5
3206
330
1F
100
AcDbEntity
  8
0
100
AcDbCircle
 10
-55.01093133438613
 20
67.47704511701669
 30
0.0
 40
0.0675
  0
CIRCLE
  5
320A
330
1F
100
AcDbEntity
  8
0
100
AcDbCircle
 10
-47.76093133438613
 20
67.47704511701669
 30
0.0
 40
0.0675
  0
CIRCLE
  5
320E
330
1F
100
AcDbEntity
  8
0
100
AcDbCircle
 10
-51.38593133438611
 20
67.47704511701669
 30
0.0
 40
0.0675
  0
CIRCLE
  5
3211
330
1F
100
AcDbEntity
  8
0
100
AcDbCircle
 10
-47.7609313343861
 20
71.10204511701667
 30
0.0
 40
0.0675
  0
LINE
  5
321B
330
1F
100
AcDbEntity
  8
0
  6
HIDDEN
100
AcDbLine
 10
-55.40218133438613
 20
67.05704511701668
 30
0.0
 11
-47.36718133438611
 21
67.05704511701668
 31
0.0
  0
CIRCLE
  5
321E
330
1F
100
AcDbEntity
  8
0
100
AcDbCircle
 10
-51.38593133438611
 20
74.72704511701668
 30
0.0
 40
0.0675
  0
CIRCLE
  5
3222
330
1F
100
AcDbEntity
  8
0
100
AcDbCircle
 10
-47.76093133438613
 20
74.72704511701668
 30
0.0
 40
0.0675
  0
CIRCLE
  5
3226
330
1F
100
AcDbEntity
  8
0
100
AcDbCircle
 10
-55.01093133438613
 20
74.72704511701668
 30
0.0
 40
0.0675
  0
LINE
  5
3227
330
1F
100
AcDbEntity
  8
0
  6
HIDDEN
100
AcDbLine
 10
-55.4021813343861
 20
75.15704511701669
 30
0.0
 11
-55.40218133438613
 21
67.05704511701668
 31
0.0
  0
LINE
  5
3229
330
1F
100
AcDbEntity
  8
0
  6
HIDDEN
100
AcDbLine
 10
-55.4021813343861
 20
75.15704511701667
 30
0.0
 11
-47.36718133438611
 21
75.15704511701669
 31
0.0
  0
LINE
  5
322A
330
1F
100
AcDbEntity
  8
0
  6
HIDDEN
100
AcDbLine
 10
-47.36718133438611
 20
75.15704511701669
 30
0.0
 11
-47.36718133438611
 21
67.05704511701668
 31
0.0
  0
LINE
  5
32C6
330
1F
100
AcDbEntity
  8
0
100
AcDbLine
 10
-54.81718133438612
 20
67.67704511701669
 30
0.0
 11
-54.81718133438612
 21
74.52704511701668
 31
0.0
  0
LINE
  5
32C7
330
1F
100
AcDbEntity
  8
0
100
AcDbLine
 10
-54.81718133438612
 20
74.52704511701668
 30
0.0
 11
-47.95468133438613
 21
74.52704511701668
 31
0.0
  0
LINE
  5
32C8
330
1F
100
AcDbEntity
  8
0
100
AcDbLine
 10
-47.95468133438615
 20
74.52704511701668
 30
0.0
 11
-47.95468133438613
 21
67.67704511701669
 31
0.0
  0
LINE
  5
32C9
330
1F
100
AcDbEntity
  8
0
100
AcDbLine
 10
-54.81718133438612
 20
67.67704511701669
 30
0.0
 11
-47.95468133438613
 21
67.67704511701669
 31
0.0
  0
ENDSEC
  0
SECTION
  2
OBJECTS
  0
DICTIONARY
  5
C
330
0
100
AcDbDictionary
281
     1
  3
ACAD_CIP_PREVIOUS_PRODUCT_INFO
350
3672
  3
ACAD_COLOR
350
73
  3
ACAD_DETAILVIEWSTYLE
350
366E
  3
ACAD_GROUP
350
D
  3
ACAD_LAYOUT
350
1A
  3
ACAD_MATERIAL
350
72
  3
ACAD_MLEADERSTYLE
350
366A
  3
ACAD_MLINESTYLE
350
17
  3
ACAD_PLOTSETTINGS
350
19
  3
ACAD_PLOTSTYLENAME
350
E
  3
ACAD_SCALELIST
350
3658
  3
ACAD_SECTIONVIEWSTYLE
350
366C
  3
ACAD_TABLESTYLE
350
3656
  3
ACAD_VISUALSTYLE
350
363D
  3
ACDB_RECOMPOSE_DATA
350
36CA
  3
AcDbVariableDictionary
350
66
  0
DICTIONARY
  5
9E
330
2
100
AcDbDictionary
280
     1
281
     1
  3
ACAD_LAYERSTATES
360
9F
  0
DICTIONARY
  5
3676
330
10
100
AcDbDictionary
280
     1
281
     1
  3
ADSK_XREC_LAYER_RECONCILED
360
3677
  0
DICTIONARY
  5
3678
330
9A
100
AcDbDictionary
280
     1
281
     1
  3
ADSK_XREC_LAYER_RECONCILED
360
3679
  0
DICTIONARY
  5
367A
330
9C
100
AcDbDictionary
280
     1
281
     1
  3
ADSK_XREC_LAYER_RECONCILED
360
367B
  0
DICTIONARY
  5
367C
330
9D
100
AcDbDictionary
280
     1
281
     1
  3
ADSK_XREC_LAYER_RECONCILED
360
367D
  0
DICTIONARY
  5
367E
330
EF2
100
AcDbDictionary
280
     1
281
     1
  3
ADSK_XREC_LAYER_RECONCILED
360
367F
  0
DICTIONARY
  5
3680
330
EF3
100
AcDbDictionary
280
     1
281
     1
  3
ADSK_XREC_LAYER_RECONCILED
360
3681
  0
XRECORD
  5
3672
102
{ACAD_REACTORS
330
C
102
}
330
C
100
AcDbXrecord
280
     1
300
AMECH_PP
300
2014
300
PDSP_F_S
  0
DICTIONARY
  5
73
102
{ACAD_REACTORS
330
C
102
}
330
C
100
AcDbDictionary
281
     1
  0
DICTIONARY
  5
366E
102
{ACAD_REACTORS
330
C
102
}
330
C
100
AcDbDictionary
281
     1
  3
Imperial24
350
366F
  0
DICTIONARY
  5
D
102
{ACAD_REACTORS
330
C
102
}
330
C
100
AcDbDictionary
281
     1
  0
DICTIONARY
  5
1A
102
{ACAD_REACTORS
330
C
102
}
330
C
100
AcDbDictionary
281
     1
  3
Layout1
350
59
  3
Layout2
350
5E
  3
Model
350
22
  0
DICTIONARY
  5
72
102
{ACAD_REACTORS
330
C
102
}
330
C
100
AcDbDictionary
281
     1
  3
ByBlock
350
362D
  3
ByLayer
350
3625
  3
Global
350
3635
  0
DICTIONARY
  5
366A
102
{ACAD_REACTORS
330
C
102
}
330
C
100
AcDbDictionary
281
     1
  3
Standard
350
366B
  0
DICTIONARY
  5
17
102
{ACAD_REACTORS
330
C
102
}
330
C
100
AcDbDictionary
281
     1
  3
Standard
350
18
  0
DICTIONARY
  5
19
102
{ACAD_REACTORS
330
C
102
}
330
C
100
AcDbDictionary
281
     1
  0
ACDBDICTIONARYWDFLT
  5
E
102
{ACAD_REACTORS
330
C
102
}
330
C
100
AcDbDictionary
281
     1
  3
Normal
350
F
100
AcDbDictionaryWithDefault
340
F
  0
DICTIONARY
  5
3658
102
{ACAD_REACTORS
330
C
102
}
330
C
100
AcDbDictionary
281
     1
  3
A0
350
3659
  3
A1
350
365A
  3
A2
350
365B
  3
A3
350
365C
  3
A4
350
365D
  3
A5
350
365E
  3
A6
350
365F
  3
A7
350
3660
  3
A8
350
3661
  3
A9
350
3662
  3
B0
350
3663
  3
B1
350
3664
  3
B2
350
3665
  3
B3
350
3666
  3
B4
350
3667
  3
B5
350
3668
  3
B6
350
3669
  0
DICTIONARY
  5
366C
102
{ACAD_REACTORS
330
C
102
}
330
C
100
AcDbDictionary
281
     1
  3
Imperial24
350
366D
  0
DICTIONARY
  5
3656
102
{ACAD_REACTORS
330
C
102
}
330
C
100
AcDbDictionary
281
     1
  3
Standard
350
3657
  0
DICTIONARY
  5
363D
102
{ACAD_REACTORS
330
C
102
}
330
C
100
AcDbDictionary
281
     1
  3
2dWireframe
350
3643
  3
Basic
350
3642
  3
Brighten
350
3649
  3
ColorChange
350
364D
  3
Conceptual
350
3646
  3
Dim
350
3648
  3
EdgeColorOff
350
3655
  3
Facepattern
350
364C
  3
Flat
350
363E
  3
FlatWithEdges
350
363F
  3
Gouraud
350
3640
  3
GouraudWithEdges
350
3641
  3
Hidden
350
3645
  3
JitterOff
350
3653
  3
Linepattern
350
364B
  3
OverhangOff
350
3654
  3
Realistic
350
3647
  3
Shaded
350
3652
  3
Shaded with edges
350
3651
  3
Shades of Gray
350
364E
  3
Sketchy
350
364F
  3
Thicken
350
364A
  3
Wireframe
350
3644
  3
X-Ray
350
3650
  0
XRECORD
  5
36CA
102
{ACAD_REACTORS
330
C
102
}
330
C
100
AcDbXrecord
280
     1
 90
        1
330
3657
  0
DICTIONARY
  5
66
102
{ACAD_REACTORS
330
C
102
}
330
C
100
AcDbDictionary
281
     1
  3
CANNOSCALE
350
36C2
  3
CMLEADERSTYLE
350
36BE
  3
CTABLESTYLE
350
36BD
  3
CVIEWDETAILSTYLE
350
36BF
  3
CVIEWSECTIONSTYLE
350
36C0
  3
DIMASSOC
350
67
  3
HIDETEXT
350
6B
  3
LAYEREVAL
350
36C4
  3
LAYERNOTIFY
350
36C5
  3
LIGHTINGUNITS
350
36C3
  3
MSLTSCALE
350
36C1
  3
PROJECTNAME
350
35B1
  3
XCLIPFRAME
350
36C6
  0
DICTIONARY
  5
9F
102
{ACAD_REACTORS
330
9E
102
}
330
9E
100
AcDbDictionary
281
     1
  0
XRECORD
  5
3677
102
{ACAD_REACTORS
330
3676
102
}
330
3676
100
AcDbXrecord
280
     1
290
     1
  0
XRECORD
  5
3679
102
{ACAD_REACTORS
330
3678
102
}
330
3678
100
AcDbXrecord
280
     1
290
     1
  0
XRECORD
  5
367B
102
{ACAD_REACTORS
330
367A
102
}
330
367A
100
AcDbXrecord
280
     1
290
     1
  0
XRECORD
  5
367D
102
{ACAD_REACTORS
330
367C
102
}
330
367C
100
AcDbXrecord
280
     1
290
     1
  0
XRECORD
  5
367F
102
{ACAD_REACTORS
330
367E
102
}
330
367E
100
AcDbXrecord
280
     1
290
     1
  0
XRECORD
  5
3681
102
{ACAD_REACTORS
330
3680
102
}
330
3680
100
AcDbXrecord
280
     1
290
     1
  0
ACDBDETAILVIEWSTYLE
  5
366F
102
{ACAD_XDICTIONARY
360
36FF
102
}
102
{ACAD_REACTORS
330
366E
102
}
330
366E
100
AcDbModelDocViewStyle
 70
     0
  3
Imperial24
290
     0
100
AcDbDetailViewStyle
 70
     0
 71
     0
 90
        3
 71
     1
340
11
 62
   256
 40
0.24
340
0
 62
   256
 40
0.24
300

 40
0.36
280
     3
 71
     2
340
16
 90
       25
 62
   256
 71
     3
340
11
 62
   256
 40
0.24
 90
        1
 40
0.75
 90
        1
300
%<\AcVar ViewType \f "%tc1">% %<\AcVar ViewDetailId>%\PSCALE %<\AcVar ViewScale \f "%sn">%
 71
     4
340
16
 90
       25
 62
   256
340
16
 90
       25
 62
   256
280
     0
  0
LAYOUT
  5
59
102
{ACAD_REACTORS
330
1A
102
}
330
1A
100
AcDbPlotSettings
  1

  2
None
  4

  6

 40
0.0
 41
0.0
 42
0.0
 43
0.0
 44
0.0
 45
0.0
 46
0.0
 47
0.0
 48
0.0
 49
0.0
140
0.0
141
0.0
142
1.0
143
1.0
 70
   688
 72
     0
 73
     0
 74
     5
  7
monochrome.ctb
 75
    16
147
1.0
 76
     0
 77
     2
 78
   300
148
0.0
149
0.0
100
AcDbLayout
  1
Layout1
 70
     1
 71
     1
 10
0.0
 20
0.0
 11
12.0
 21
9.0
 12
0.0
 22
0.0
 32
0.0
 14
0.0
 24
0.0
 34
0.0
 15
0.0
 25
0.0
 35
0.0
146
0.0
 13
0.0
 23
0.0
 33
0.0
 16
1.0
 26
0.0
 36
0.0
 17
0.0
 27
1.0
 37
0.0
 76
     0
330
58
  0
LAYOUT
  5
5E
102
{ACAD_REACTORS
330
1A
102
}
330
1A
100
AcDbPlotSettings
  1

  2
None
  4

  6

 40
0.0
 41
0.0
 42
0.0
 43
0.0
 44
0.0
 45
0.0
 46
0.0
 47
0.0
 48
0.0
 49
0.0
140
0.0
141
0.0
142
1.0
143
1.0
 70
   688
 72
     0
 73
     0
 74
     5
  7
monochrome.ctb
 75
    16
147
1.0
 76
     0
 77
     2
 78
   300
148
0.0
149
0.0
100
AcDbLayout
  1
Layout2
 70
     1
 71
     2
 10
0.0
 20
0.0
 11
12.0
 21
9.0
 12
0.0
 22
0.0
 32
0.0
 14
0.0
 24
0.0
 34
0.0
 15
0.0
 25
0.0
 35
0.0
146
0.0
 13
0.0
 23
0.0
 33
0.0
 16
1.0
 26
0.0
 36
0.0
 17
0.0
 27
1.0
 37
0.0
 76
     0
330
5D
  0
LAYOUT
  5
22
102
{ACAD_REACTORS
330
1A
102
}
330
1A
100
AcDbPlotSettings
  1

  2
DWG To PDF.pc3
  4
ANSI_full_bleed_A_(8.50_x_11.00_Inches)
  6

 40
0.7937499880790711
 41
0.7937499880790711
 42
0.7937469482421875
 43
0.79376220703125
 44
215.8999938964844
 45
279.3999938964844
 46
1.610872290219531
 47
0.0
 48
-64.45773132041022
 49
56.45577687131067
140
-22.59392321780004
141
111.5417315808474
142
1.0
143
2.015158359773917
 70
 11956
 72
     0
 73
     0
 74
     1
  7
monochrome.ctb
 75
     0
147
0.4962389159888114
 76
     0
 77
     2
 78
   300
148
1517.864764422315
149
-1526.169546489094
100
AcDbLayout
  1
Model
 70
     1
 71
     0
 10
0.0
 20
0.0
 11
12.0
 21
9.0
 12
0.0
 22
0.0
 32
0.0
 14
0.0
 24
0.0
 34
0.0
 15
0.0
 25
0.0
 35
0.0
146
0.0
 13
0.0
 23
0.0
 33
0.0
 16
1.0
 26
0.0
 36
0.0
 17
0.0
 27
1.0
 37
0.0
 76
     0
330
1F
331
3618
1001
ACAD_PSEXT
1000
DWG To PDF.pc3
1000
DWG To PDF
1000
File
1000

1070
     0
  0
MATERIAL
  5
362D
102
{ACAD_XDICTIONARY
360
362E
102
}
102
{ACAD_REACTORS
330
72
102
}
330
72
100
AcDbMaterial
  1
ByBlock
 72
     0
 43
0.0208333333333333
 43
0.0
 43
0.0
 43
0.0
 43
0.0
 43
0.0208333333333333
 43
0.0
 43
0.0
 43
0.0
 43
0.0
 43
1.0
 43
0.0
 43
0.0
 43
0.0
 43
0.0
 43
1.0
 77
     0
 47
0.0208333333333333
 47
0.0
 47
0.0
 47
0.0
 47
0.0
 47
0.0208333333333333
 47
0.0
 47
0.0
 47
0.0
 47
0.0
 47
1.0
 47
0.0
 47
0.0
 47
0.0
 47
0.0
 47
1.0
171
     0
 49
0.0208333333333333
 49
0.0
 49
0.0
 49
0.0
 49
0.0
 49
0.0208333333333333
 49
0.0
 49
0.0
 49
0.0
 49
0.0
 49
1.0
 49
0.0
 49
0.0
 49
0.0
 49
0.0
 49
1.0
175
     0
142
0.0208333333333333
142
0.0
142
0.0
142
0.0
142
0.0
142
0.0208333333333333
142
0.0
142
0.0
142
0.0
142
0.0
142
1.0
142
0.0
142
0.0
142
0.0
142
0.0
142
1.0
179
     0
144
0.0208333333333333
144
0.0
144
0.0
144
0.0
144
0.0
144
0.0208333333333333
144
0.0
144
0.0
144
0.0
144
0.0
144
1.0
144
0.0
144
0.0
144
0.0
144
0.0
144
1.0
147
0.0208333333333333
147
0.0
147
0.0
147
0.0
147
0.0
147
0.0208333333333333
147
0.0
147
0.0
147
0.0
147
0.0
147
1.0
147
0.0
147
0.0
147
0.0
147
0.0
147
1.0
  0
MATERIAL
  5
3625
102
{ACAD_XDICTIONARY
360
3626
102
}
102
{ACAD_REACTORS
330
72
102
}
330
72
100
AcDbMaterial
  1
ByLayer
 72
     0
 43
0.0208333333333333
 43
0.0
 43
0.0
 43
0.0
 43
0.0
 43
0.0208333333333333
 43
0.0
 43
0.0
 43
0.0
 43
0.0
 43
1.0
 43
0.0
 43
0.0
 43
0.0
 43
0.0
 43
1.0
 77
     0
 47
0.0208333333333333
 47
0.0
 47
0.0
 47
0.0
 47
0.0
 47
0.0208333333333333
 47
0.0
 47
0.0
 47
0.0
 47
0.0
 47
1.0
 47
0.0
 47
0.0
 47
0.0
 47
0.0
 47
1.0
171
     0
 49
0.0208333333333333
 49
0.0
 49
0.0
 49
0.0
 49
0.0
 49
0.0208333333333333
 49
0.0
 49
0.0
 49
0.0
 49
0.0
 49
1.0
 49
0.0
 49
0.0
 49
0.0
 49
0.0
 49
1.0
175
     0
142
0.0208333333333333
142
0.0
142
0.0
142
0.0
142
0.0
142
0.0208333333333333
142
0.0
142
0.0
142
0.0
142
0.0
142
1.0
142
0.0
142
0.0
142
0.0
142
0.0
142
1.0
179
     0
144
0.0208333333333333
144
0.0
144
0.0
144
0.0
144
0.0
144
0.0208333333333333
144
0.0
144
0.0
144
0.0
144
0.0
144
1.0
144
0.0
144
0.0
144
0.0
144
0.0
144
1.0
147
0.0208333333333333
147
0.0
147
0.0
147
0.0
147
0.0
147
0.0208333333333333
147
0.0
147
0.0
147
0.0
147
0.0
147
1.0
147
0.0
147
0.0
147
0.0
147
0.0
147
1.0
  0
MATERIAL
  5
3635
102
{ACAD_XDICTIONARY
360
3636
102
}
102
{ACAD_REACTORS
330
72
102
}
330
72
100
AcDbMaterial
  1
Global
 72
     0
 43
0.0208333333333333
 43
0.0
 43
0.0
 43
0.0
 43
0.0
 43
0.0208333333333333
 43
0.0
 43
0.0
 43
0.0
 43
0.0
 43
1.0
 43
0.0
 43
0.0
 43
0.0
 43
0.0
 43
1.0
 77
     0
 47
0.0208333333333333
 47
0.0
 47
0.0
 47
0.0
 47
0.0
 47
0.0208333333333333
 47
0.0
 47
0.0
 47
0.0
 47
0.0
 47
1.0
 47
0.0
 47
0.0
 47
0.0
 47
0.0
 47
1.0
171
     0
 49
0.0208333333333333
 49
0.0
 49
0.0
 49
0.0
 49
0.0
 49
0.0208333333333333
 49
0.0
 49
0.0
 49
0.0
 49
0.0
 49
1.0
 49
0.0
 49
0.0
 49
0.0
 49
0.0
 49
1.0
175
     0
142
0.0208333333333333
142
0.0
142
0.0
142
0.0
142
0.0
142
0.0208333333333333
142
0.0
142
0.0
142
0.0
142
0.0
142
1.0
142
0.0
142
0.0
142
0.0
142
0.0
142
1.0
179
     0
144
0.0208333333333333
144
0.0
144
0.0
144
0.0
144
0.0
144
0.0208333333333333
144
0.0
144
0.0
144
0.0
144
0.0
144
1.0
144
0.0
144
0.0
144
0.0
144
0.0
144
1.0
147
0.0208333333333333
147
0.0
147
0.0
147
0.0
147
0.0
147
0.0208333333333333
147
0.0
147
0.0
147
0.0
147
0.0
147
1.0
147
0.0
147
0.0
147
0.0
147
0.0
147
1.0
  0
MLEADERSTYLE
  5
366B
102
{ACAD_REACTORS
330
366A
102
}
330
366A
100
AcDbMLeaderStyle
170
     2
171
     1
172
     0
 90
        2
 40
0.0
 41
0.0
173
     1
 91
-1056964608
340
14
 92
       -2
290
     1
 42
0.09
291
     1
 43
0.36
  3
Standard
 44
0.18
300

342
11
174
     1
178
     6
175
     1
176
     0
 93
-1056964608
 45
0.18
292
     0
297
     0
 46
0.18
 94
-1056964608
 47
1.0
 49
1.0
140
1.0
293
     1
141
0.0
294
     1
177
     0
142
1.0
295
     0
296
     0
143
0.125
1001
ACAD_MLEADERVER
1070
     2
  0
MLINESTYLE
  5
18
102
{ACAD_REACTORS
330
17
102
}
330
17
100
AcDbMlineStyle
  2
STANDARD
 70
     0
  3

 62
   256
 51
90.0
 52
90.0
 71
     2
 49
0.5
 62
   256
  6
BYLAYER
 49
-0.5
 62
   256
  6
BYLAYER
  0
ACDBPLACEHOLDER
  5
F
102
{ACAD_REACTORS
330
E
102
}
330
E
  0
SCALE
  5
3659
102
{ACAD_REACTORS
330
3658
102
}
330
3658
100
AcDbScale
 70
     0
300
1:1
140
1.0
141
1.0
290
     1
  0
SCALE
  5
365A
102
{ACAD_REACTORS
330
3658
102
}
330
3658
100
AcDbScale
 70
     0
300
1/128" = 1'-0"
140
0.0078125
141
12.0
290
     0
  0
SCALE
  5
365B
102
{ACAD_REACTORS
330
3658
102
}
330
3658
100
AcDbScale
 70
     0
300
1/64" = 1'-0"
140
0.015625
141
12.0
290
     0
  0
SCALE
  5
365C
102
{ACAD_REACTORS
330
3658
102
}
330
3658
100
AcDbScale
 70
     0
300
1/32" = 1'-0"
140
0.03125
141
12.0
290
     0
  0
SCALE
  5
365D
102
{ACAD_REACTORS
330
3658
102
}
330
3658
100
AcDbScale
 70
     0
300
1/16" = 1'-0"
140
0.0625
141
12.0
290
     0
  0
SCALE
  5
365E
102
{ACAD_REACTORS
330
3658
102
}
330
3658
100
AcDbScale
 70
     0
300
3/32" = 1'-0"
140
0.09375
141
12.0
290
     0
  0
SCALE
  5
365F
102
{ACAD_REACTORS
330
3658
102
}
330
3658
100
AcDbScale
 70
     0
300
1/8" = 1'-0"
140
0.125
141
12.0
290
     0
  0
SCALE
  5
3660
102
{ACAD_REACTORS
330
3658
102
}
330
3658
100
AcDbScale
 70
     0
300
3/16" = 1'-0"
140
0.1875
141
12.0
290
     0
  0
SCALE
  5
3661
102
{ACAD_REACTORS
330
3658
102
}
330
3658
100
AcDbScale
 70
     0
300
1/4" = 1'-0"
140
0.25
141
12.0
290
     0
  0
SCALE
  5
3662
102
{ACAD_REACTORS
330
3658
102
}
330
3658
100
AcDbScale
 70
     0
300
3/8" = 1'-0"
140
0.375
141
12.0
290
     0
  0
SCALE
  5
3663
102
{ACAD_REACTORS
330
3658
102
}
330
3658
100
AcDbScale
 70
     0
300
1/2" = 1'-0"
140
0.5
141
12.0
290
     0
  0
SCALE
  5
3664
102
{ACAD_REACTORS
330
3658
102
}
330
3658
100
AcDbScale
 70
     0
300
3/4" = 1'-0"
140
0.75
141
12.0
290
     0
  0
SCALE
  5
3665
102
{ACAD_REACTORS
330
3658
102
}
330
3658
100
AcDbScale
 70
     0
300
1" = 1'-0"
140
1.0
141
12.0
290
     0
  0
SCALE
  5
3666
102
{ACAD_REACTORS
330
3658
102
}
330
3658
100
AcDbScale
 70
     0
300
1-1/2" = 1'-0"
140
1.5
141
12.0
290
     0
  0
SCALE
  5
3667
102
{ACAD_REACTORS
330
3658
102
}
330
3658
100
AcDbScale
 70
     0
300
3" = 1'-0"
140
3.0
141
12.0
290
     0
  0
SCALE
  5
3668
102
{ACAD_REACTORS
330
3658
102
}
330
3658
100
AcDbScale
 70
     0
300
6" = 1'-0"
140
6.0
141
12.0
290
     0
  0
SCALE
  5
3669
102
{ACAD_REACTORS
330
3658
102
}
330
3658
100
AcDbScale
 70
     0
300
1'-0" = 1'-0"
140
12.0
141
12.0
290
     0
  0
ACDBSECTIONVIEWSTYLE
  5
366D
102
{ACAD_XDICTIONARY
360
36FD
102
}
102
{ACAD_REACTORS
330
366C
102
}
330
366C
100
AcDbModelDocViewStyle
 70
     0
  3
Imperial24
290
     0
100
AcDbSectionViewStyle
 70
     0
 71
     0
 90
       78
 71
     1
340
11
 62
   256
 40
0.24
340
0
340
0
 62
   256
 40
0.24
300
I, O, Q, S, X, Z
 40
0.48
 90
        3
 40
0.18
 90
        1
 71
     2
340
16
 90
       25
 62
   256
340
16
 90
       50
 62
   256
 40
0.24
 40
0.0
 40
0.24
 71
     3
340
11
 62
   256
 40
0.24
 90
        1
 40
0.75
 90
        1
300
%<\AcVar ViewType \f "%tc1">% %<\AcVar ViewSectionStartId>%-%<\AcVar ViewSectionEndId>%\PSCALE %<\AcVar ViewScale \f "%sn">%
 71
     4
 62
   256
 62
   257
300
ANSI31
 40
1.0
 90
        0
290
     0
290
     0
 90
        6
 40
0.0
 40
1.570796326794896
 40
0.2617993877991494
 40
1.308996938995747
 40
-0.2617993877991494
 40
1.832595714594046
  0
TABLESTYLE
  5
3657
102
{ACAD_XDICTIONARY
360
36C8
102
}
102
{ACAD_REACTORS
330
3656
102
}
330
3656
100
AcDbTableStyle
  3
Standard
 70
     0
 71
     0
 40
0.06
 41
0.06
280
     0
281
     0
  7
Standard
140
0.18
170
     2
 62
     0
 63
     7
283
     0
 90
      512
 91
        0
  1

274
    -2
284
     1
 64
     0
275
    -2
285
     1
 65
     0
276
    -2
286
     1
 66
     0
277
    -2
287
     1
 67
     0
278
    -2
288
     1
 68
     0
279
    -2
289
     1
 69
     0
  7
Standard
140
0.25
170
     5
 62
     0
 63
     7
283
     0
 90
      512
 91
        0
  1

274
    -2
284
     1
 64
     0
275
    -2
285
     1
 65
     0
276
    -2
286
     1
 66
     0
277
    -2
287
     1
 67
     0
278
    -2
288
     1
 68
     0
279
    -2
289
     1
 69
     0
  7
Standard
140
0.18
170
     5
 62
     0
 63
     7
283
     0
 90
      512
 91
        0
  1

274
    -2
284
     1
 64
     0
275
    -2
285
     1
 65
     0
276
    -2
286
     1
 66
     0
277
    -2
287
     1
 67
     0
278
    -2
288
     1
 68
     0
279
    -2
289
     1
 69
     0
  0
VISUALSTYLE
  5
3643
102
{ACAD_XDICTIONARY
360
36D6
102
}
102
{ACAD_REACTORS
330
363D
102
}
330
363D
100
AcDbVisualStyle
  2
2dWireframe
 70
     4
 71
     0
 72
     2
 73
     0
 90
        0
 40
-0.6
 41
-30.0
 62
     5
 63
     7
421
 16777215
 74
     1
 91
        4
 64
     7
 65
   257
 75
     1
175
     1
 42
1.0
 92
        0
 66
   257
 43
1.0
 76
     1
 77
     6
 78
     2
 67
     7
 79
     5
170
     0
171
     0
290
     0
174
     0
 93
        1
 44
0.0
173
     0
291
     0
 45
0.0
1001
ACAD
1000
AcDbSavedByObjectVersion
1070
     0
  0
VISUALSTYLE
  5
3642
102
{ACAD_XDICTIONARY
360
36D4
102
}
102
{ACAD_REACTORS
330
363D
102
}
330
363D
100
AcDbVisualStyle
  2
Basic
 70
     7
 71
     1
 72
     0
 73
     1
 90
        0
 40
-0.6
 41
-30.0
 62
     5
 63
     7
421
 16777215
 74
     0
 91
        4
 64
     7
 65
   257
 75
     1
175
     1
 42
1.0
 92
        8
 66
     7
 43
1.0
 76
     1
 77
     6
 78
     2
 67
     7
 79
     5
170
     0
171
     0
290
     0
174
     0
 93
        1
 44
0.0
173
     0
291
     1
 45
0.0
1001
ACAD
1000
AcDbSavedByObjectVersion
1070
     0
  0
VISUALSTYLE
  5
3649
102
{ACAD_XDICTIONARY
360
36E2
102
}
102
{ACAD_REACTORS
330
363D
102
}
330
363D
100
AcDbVisualStyle
  2
Brighten
 70
    12
 71
     2
 72
     2
 73
     0
 90
        0
 40
-0.6
 41
-30.0
 62
     5
 63
     7
421
 16777215
 74
     1
 91
        4
 64
     7
 65
   257
 75
     1
175
     1
 42
1.0
 92
        8
 66
     7
 43
1.0
 76
     1
 77
     6
 78
     2
 67
     7
 79
     5
170
     0
171
     0
290
     0
174
     0
 93
        1
 44
50.0
173
     0
291
     1
 45
0.0
1001
ACAD
1000
AcDbSavedByObjectVersion
1070
     0
  0
VISUALSTYLE
  5
364D
102
{ACAD_XDICTIONARY
360
36EA
102
}
102
{ACAD_REACTORS
330
363D
102
}
330
363D
100
AcDbVisualStyle
  2
ColorChange
 70
    16
 71
     2
 72
     2
 73
     3
 90
        0
 40
-0.6
 41
-30.0
 62
     5
 63
     8
421
  8421504
 74
     1
 91
        4
 64
     7
 65
   257
 75
     1
175
     1
 42
1.0
 92
        8
 66
     8
424
  8421504
 43
1.0
 76
     1
 77
     6
 78
     2
 67
     7
 79
     5
170
     0
171
     0
290
     0
174
     0
 93
        1
 44
0.0
173
     0
291
     1
 45
0.0
1001
ACAD
1000
AcDbSavedByObjectVersion
1070
     0
  0
VISUALSTYLE
  5
3646
102
{ACAD_XDICTIONARY
360
36DC
102
}
102
{ACAD_REACTORS
330
363D
102
}
330
363D
100
AcDbVisualStyle
  2
Conceptual
 70
     9
 71
     3
 72
     2
 73
     0
 90
        0
 40
-0.6
 41
-30.0
 62
     5
 63
     7
421
 16777215
 74
     2
 91
        2
 64
     7
 65
   257
 75
     1
175
     1
 42
179.0
 92
        8
 66
     7
 43
1.0
 76
     1
 77
     6
 78
     2
 67
     7
 79
     3
170
     0
171
     0
290
     0
174
     0
 93
        1
 44
0.0
173
     0
291
     0
 45
0.0
1001
ACAD
1000
AcDbSavedByObjectVersion
1070
     0
  0
VISUALSTYLE
  5
3648
102
{ACAD_XDICTIONARY
360
36E0
102
}
102
{ACAD_REACTORS
330
363D
102
}
330
363D
100
AcDbVisualStyle
  2
Dim
 70
    11
 71
     2
 72
     2
 73
     0
 90
        0
 40
-0.6
 41
-30.0
 62
     5
 63
     7
421
 16777215
 74
     1
 91
        4
 64
     7
 65
   257
 75
     1
175
     1
 42
1.0
 92
        8
 66
     7
 43
1.0
 76
     1
 77
     6
 78
     2
 67
     7
 79
     5
170
     0
171
     0
290
     0
174
     0
 93
        1
 44
-50.0
173
     0
291
     1
 45
0.0
1001
ACAD
1000
AcDbSavedByObjectVersion
1070
     0
  0
VISUALSTYLE
  5
3655
102
{ACAD_XDICTIONARY
360
36FA
102
}
102
{ACAD_REACTORS
330
363D
102
}
330
363D
100
AcDbVisualStyle
  2
EdgeColorOff
 70
    22
 71
     2
 72
     2
 73
     0
 90
        0
 40
-0.6
 41
-30.0
 62
     5
 63
     7
421
 16777215
 74
     1
 91
        4
 64
     7
 65
   257
 75
     1
175
     1
 42
1.0
 92
        8
 66
     7
 43
1.0
 76
     1
 77
     6
 78
     2
 67
     7
 79
     5
170
     0
171
     0
290
     0
174
     0
 93
        1
 44
0.0
173
     0
291
     1
 45
0.0
1001
ACAD
1000
AcDbSavedByObjectVersion
1070
     0
  0
VISUALSTYLE
  5
364C
102
{ACAD_XDICTIONARY
360
36E8
102
}
102
{ACAD_REACTORS
330
363D
102
}
330
363D
100
AcDbVisualStyle
  2
Facepattern
 70
    15
 71
     2
 72
     2
 73
     0
 90
        0
 40
-0.6
 41
-30.0
 62
     5
 63
     7
421
 16777215
 74
     1
 91
        4
 64
     7
 65
   257
 75
     1
175
     1
 42
1.0
 92
        8
 66
     7
 43
1.0
 76
     1
 77
     6
 78
     2
 67
     7
 79
     5
170
     0
171
     0
290
     0
174
     0
 93
        1
 44
0.0
173
     0
291
     1
 45
0.0
1001
ACAD
1000
AcDbSavedByObjectVersion
1070
     0
  0
VISUALSTYLE
  5
363E
102
{ACAD_XDICTIONARY
360
36CC
102
}
102
{ACAD_REACTORS
330
363D
102
}
330
363D
100
AcDbVisualStyle
  2
Flat
 70
     0
 71
     2
 72
     1
 73
     1
 90
        2
 40
-0.6
 41
30.0
 62
     5
 63
     7
421
 16777215
 74
     0
 91
        0
 64
     7
 65
   257
 75
     1
175
     1
 42
1.0
 92
        8
 66
     7
 43
1.0
 76
     1
 77
     6
 78
     2
 67
     7
 79
     5
170
     0
171
     0
290
     0
174
     0
 93
       13
 44
0.0
173
     0
291
     1
 45
0.0
1001
ACAD
1000
AcDbSavedByObjectVersion
1070
     0
  0
VISUALSTYLE
  5
363F
102
{ACAD_XDICTIONARY
360
36CE
102
}
102
{ACAD_REACTORS
330
363D
102
}
330
363D
100
AcDbVisualStyle
  2
FlatWithEdges
 70
     1
 71
     2
 72
     1
 73
     1
 90
        2
 40
-0.6
 41
30.0
 62
     5
 63
     7
421
 16777215
 74
     1
 91
        0
 64
     7
 65
   257
 75
     1
175
     1
 42
1.0
 92
        0
 66
   257
 43
1.0
 76
     1
 77
     6
 78
     2
 67
     7
 79
     5
170
     0
171
     0
290
     0
174
     0
 93
       13
 44
0.0
173
     0
291
     1
 45
0.0
1001
ACAD
1000
AcDbSavedByObjectVersion
1070
     0
  0
VISUALSTYLE
  5
3640
102
{ACAD_XDICTIONARY
360
36D0
102
}
102
{ACAD_REACTORS
330
363D
102
}
330
363D
100
AcDbVisualStyle
  2
Gouraud
 70
     2
 71
     2
 72
     2
 73
     1
 90
        2
 40
-0.6
 41
30.0
 62
     5
 63
     7
421
 16777215
 74
     0
 91
        0
 64
     7
 65
   257
 75
     1
175
     1
 42
1.0
 92
        0
 66
     7
 43
1.0
 76
     1
 77
     6
 78
     2
 67
     7
 79
     5
170
     0
171
     0
290
     0
174
     0
 93
       13
 44
0.0
173
     0
291
     1
 45
0.0
1001
ACAD
1000
AcDbSavedByObjectVersion
1070
     0
  0
VISUALSTYLE
  5
3641
102
{ACAD_XDICTIONARY
360
36D2
102
}
102
{ACAD_REACTORS
330
363D
102
}
330
363D
100
AcDbVisualStyle
  2
GouraudWithEdges
 70
     3
 71
     2
 72
     2
 73
     1
 90
        2
 40
-0.6
 41
30.0
 62
     5
 63
     7
421
 16777215
 74
     1
 91
        0
 64
     7
 65
   257
 75
     1
175
     1
 42
1.0
 92
        0
 66
   257
 43
1.0
 76
     1
 77
     6
 78
     2
 67
     7
 79
     5
170
     0
171
     0
290
     0
174
     0
 93
       13
 44
0.0
173
     0
291
     1
 45
0.0
1001
ACAD
1000
AcDbSavedByObjectVersion
1070
     0
  0
VISUALSTYLE
  5
3645
102
{ACAD_XDICTIONARY
360
36DA
102
}
102
{ACAD_REACTORS
330
363D
102
}
330
363D
100
AcDbVisualStyle
  2
Hidden
 70
     6
 71
     1
 72
     2
 73
     2
 90
        0
 40
-0.6
 41
-30.0
 62
     5
 63
     7
421
 16777215
 74
     2
 91
        2
 64
     7
 65
   257
 75
     2
175
     1
 42
40.0
 92
        0
 66
   257
 43
1.0
 76
     1
 77
     6
 78
     2
 67
     7
 79
     3
170
     0
171
     0
290
     0
174
     0
 93
        1
 44
0.0
173
     0
291
     0
 45
0.0
1001
ACAD
1000
AcDbSavedByObjectVersion
1070
     0
  0
VISUALSTYLE
  5
3653
102
{ACAD_XDICTIONARY
360
36F6
102
}
102
{ACAD_REACTORS
330
363D
102
}
330
363D
100
AcDbVisualStyle
  2
JitterOff
 70
    20
 71
     2
 72
     2
 73
     0
 90
        0
 40
-0.6
 41
-30.0
 62
     5
 63
     7
421
 16777215
 74
     1
 91
        4
 64
     7
 65
   257
 75
     1
175
     1
 42
1.0
 92
       10
 66
     7
 43
1.0
 76
     1
 77
     6
 78
     2
 67
     7
 79
     5
170
     0
171
     0
290
     0
174
     0
 93
        1
 44
0.0
173
     0
291
     1
 45
0.0
1001
ACAD
1000
AcDbSavedByObjectVersion
1070
     0
  0
VISUALSTYLE
  5
364B
102
{ACAD_XDICTIONARY
360
36E6
102
}
102
{ACAD_REACTORS
330
363D
102
}
330
363D
100
AcDbVisualStyle
  2
Linepattern
 70
    14
 71
     2
 72
     2
 73
     0
 90
        0
 40
-0.6
 41
-30.0
 62
     5
 63
     7
421
 16777215
 74
     1
 91
        4
 64
     7
 65
   257
 75
     7
175
     7
 42
1.0
 92
        8
 66
     7
 43
1.0
 76
     1
 77
     6
 78
     2
 67
     7
 79
     5
170
     0
171
     0
290
     0
174
     0
 93
        1
 44
0.0
173
     0
291
     1
 45
0.0
1001
ACAD
1000
AcDbSavedByObjectVersion
1070
     0
  0
VISUALSTYLE
  5
3654
102
{ACAD_XDICTIONARY
360
36F8
102
}
102
{ACAD_REACTORS
330
363D
102
}
330
363D
100
AcDbVisualStyle
  2
OverhangOff
 70
    21
 71
     2
 72
     2
 73
     0
 90
        0
 40
-0.6
 41
-30.0
 62
     5
 63
     7
421
 16777215
 74
     1
 91
        4
 64
     7
 65
   257
 75
     1
175
     1
 42
1.0
 92
        9
 66
     7
 43
1.0
 76
     1
 77
     6
 78
     2
 67
     7
 79
     5
170
     0
171
     0
290
     0
174
     0
 93
        1
 44
0.0
173
     0
291
     1
 45
0.0
1001
ACAD
1000
AcDbSavedByObjectVersion
1070
     0
  0
VISUALSTYLE
  5
3647
102
{ACAD_XDICTIONARY
360
36DE
102
}
102
{ACAD_REACTORS
330
363D
102
}
330
363D
100
AcDbVisualStyle
  2
Realistic
 70
     8
 71
     2
 72
     3
 73
     0
 90
        2
 40
-0.6
 41
30.0
 62
     5
 63
     7
421
 16777215
 74
     0
 91
        0
 64
     7
 65
   257
 75
     1
175
     1
 42
1.0
 92
        8
 66
   257
 43
1.0
 76
     1
 77
     6
 78
     2
 67
     7
 79
     3
170
     0
171
     0
290
     0
174
     0
 93
       13
 44
0.0
173
     0
291
     0
 45
0.0
1001
ACAD
1000
AcDbSavedByObjectVersion
1070
     0
  0
VISUALSTYLE
  5
3652
102
{ACAD_XDICTIONARY
360
36F4
102
}
102
{ACAD_REACTORS
330
363D
102
}
330
363D
100
AcDbVisualStyle
  2
Shaded
 70
    27
 71
     2
 72
     2
 73
     1
 90
        2
 40
-0.6
 41
30.0
 62
     5
 63
     7
421
 16777215
 74
     0
 91
        4
 64
     7
 65
   257
 75
     1
175
     1
 42
1.0
 92
        8
 66
   257
 43
1.0
 76
     1
 77
     6
 78
     2
 67
     8
425
  7895160
 79
     3
170
     0
171
     0
290
     0
174
     0
 93
        5
 44
0.0
173
     0
291
     0
 45
0.0
1001
ACAD
1000
AcDbSavedByObjectVersion
1070
     0
  0
VISUALSTYLE
  5
3651
102
{ACAD_XDICTIONARY
360
36F2
102
}
102
{ACAD_REACTORS
330
363D
102
}
330
363D
100
AcDbVisualStyle
  2
Shaded with edges
 70
    26
 71
     2
 72
     2
 73
     1
 90
        2
 40
-0.6
 41
30.0
 62
     5
 63
     7
421
 16777215
 74
     1
 91
       10
 64
     7
 65
   257
 75
     2
175
     1
 42
1.0
 92
        8
 66
   257
 43
1.0
 76
     1
 77
     6
 78
     2
 67
     7
 79
     3
170
     0
171
     0
290
     0
174
     0
 93
        5
 44
0.0
173
     0
291
     0
 45
0.0
1001
ACAD
1000
AcDbSavedByObjectVersion
1070
     0
  0
VISUALSTYLE
  5
364E
102
{ACAD_XDICTIONARY
360
36EC
102
}
102
{ACAD_REACTORS
330
363D
102
}
330
363D
100
AcDbVisualStyle
  2
Shades of Gray
 70
    23
 71
     2
 72
     2
 73
     3
 90
        0
 40
-0.6
 41
-30.0
 62
     5
 63
     7
421
 16777215
 74
     2
 91
        2
 64
     7
 65
     7
 75
     1
175
     1
 42
40.0
 92
        8
 66
     7
 43
1.0
 76
     1
 77
     6
 78
     2
 67
     7
 79
     3
170
     0
171
     0
290
     0
174
     0
 93
        1
 44
0.0
173
     0
291
     0
 45
0.0
1001
ACAD
1000
AcDbSavedByObjectVersion
1070
     0
  0
VISUALSTYLE
  5
364F
102
{ACAD_XDICTIONARY
360
36EE
102
}
102
{ACAD_REACTORS
330
363D
102
}
330
363D
100
AcDbVisualStyle
  2
Sketchy
 70
    24
 71
     1
 72
     2
 73
     2
 90
        0
 40
-0.6
 41
-30.0
 62
     5
 63
     7
421
 16777215
 74
     2
 91
        2
 64
     7
 65
     7
 75
     1
175
     1
 42
40.0
 92
       11
 66
     7
 43
1.0
 76
     1
 77
     6
 78
     2
 67
     7
 79
     6
170
     0
171
     0
290
     0
174
     0
 93
        1
 44
0.0
173
     0
291
     0
 45
0.0
1001
ACAD
1000
AcDbSavedByObjectVersion
1070
     0
  0
VISUALSTYLE
  5
364A
102
{ACAD_XDICTIONARY
360
36E4
102
}
102
{ACAD_REACTORS
330
363D
102
}
330
363D
100
AcDbVisualStyle
  2
Thicken
 70
    13
 71
     2
 72
     2
 73
     0
 90
        0
 40
-0.6
 41
-30.0
 62
     5
 63
     7
421
 16777215
 74
     1
 91
        4
 64
     7
 65
   257
 75
     1
175
     1
 42
1.0
 92
       12
 66
     7
 43
1.0
 76
     1
 77
     6
 78
     2
 67
     7
 79
     5
170
     0
171
     0
290
     0
174
     0
 93
        1
 44
0.0
173
     0
291
     1
 45
0.0
1001
ACAD
1000
AcDbSavedByObjectVersion
1070
     0
  0
VISUALSTYLE
  5
3644
102
{ACAD_XDICTIONARY
360
36D8
102
}
102
{ACAD_REACTORS
330
363D
102
}
330
363D
100
AcDbVisualStyle
  2
Wireframe
 70
     5
 71
     0
 72
     2
 73
     0
 90
        0
 40
-0.6
 41
-30.0
 62
     5
 63
     7
421
 16777215
 74
     1
 91
        4
 64
     7
 65
   257
 75
     1
175
     1
 42
1.0
 92
        0
 66
   257
 43
1.0
 76
     1
 77
     6
 78
     2
 67
     7
 79
     3
170
     0
171
     0
290
     0
174
     0
 93
        1
 44
0.0
173
     0
291
     0
 45
0.0
1001
ACAD
1000
AcDbSavedByObjectVersion
1070
     0
  0
VISUALSTYLE
  5
3650
102
{ACAD_XDICTIONARY
360
36F0
102
}
102
{ACAD_REACTORS
330
363D
102
}
330
363D
100
AcDbVisualStyle
  2
X-Ray
 70
    25
 71
     2
 72
     2
 73
     1
 90
        1
 40
0.5
 41
-30.0
 62
     5
 63
     7
421
 16777215
 74
     1
 91
        0
 64
     7
 65
   257
 75
     1
175
     1
 42
1.0
 92
        8
 66
     7
 43
1.0
 76
     1
 77
     6
 78
     2
 67
     7
 79
     3
170
     0
171
     0
290
     0
174
     0
 93
       13
 44
0.0
173
     0
291
     0
 45
0.0
1001
ACAD
1000
AcDbSavedByObjectVersion
1070
     0
  0
DICTIONARYVAR
  5
36C2
102
{ACAD_REACTORS
330
66
102
}
330
66
100
DictionaryVariables
280
     0
  1
1:1
  0
DICTIONARYVAR
  5
36BE
102
{ACAD_REACTORS
330
66
102
}
330
66
100
DictionaryVariables
280
     0
  1
STANDARD
  0
DICTIONARYVAR
  5
36BD
102
{ACAD_REACTORS
330
66
102
}
330
66
100
DictionaryVariables
280
     0
  1
STANDARD
  0
DICTIONARYVAR
  5
36BF
102
{ACAD_REACTORS
330
66
102
}
330
66
100
DictionaryVariables
280
     0
  1
Imperial24
  0
DICTIONARYVAR
  5
36C0
102
{ACAD_REACTORS
330
66
102
}
330
66
100
DictionaryVariables
280
     0
  1
Imperial24
  0
DICTIONARYVAR
  5
67
102
{ACAD_REACTORS
330
66
102
}
330
66
100
DictionaryVariables
280
     0
  1
2
  0
DICTIONARYVAR
  5
6B
102
{ACAD_REACTORS
330
66
102
}
330
66
100
DictionaryVariables
280
     0
  1
1
  0
DICTIONARYVAR
  5
36C4
102
{ACAD_REACTORS
330
66
102
}
330
66
100
DictionaryVariables
280
     0
  1
1
  0
DICTIONARYVAR
  5
36C5
102
{ACAD_REACTORS
330
66
102
}
330
66
100
DictionaryVariables
280
     0
  1
15
  0
DICTIONARYVAR
  5
36C3
102
{ACAD_REACTORS
330
66
102
}
330
66
100
DictionaryVariables
280
     0
  1
0
  0
DICTIONARYVAR
  5
36C1
102
{ACAD_REACTORS
330
66
102
}
330
66
100
DictionaryVariables
280
     0
  1
0
  0
DICTIONARYVAR
  5
35B1
102
{ACAD_REACTORS
330
66
102
}
330
66
100
DictionaryVariables
280
     0
  1

  0
DICTIONARYVAR
  5
36C6
102
{ACAD_REACTORS
330
66
102
}
330
66
100
DictionaryVariables
280
     0
  1
2
  0
DICTIONARY
  5
36FF
330
366F
100
AcDbDictionary
280
     1
281
     1
  3
ACAD_XREC_ROUNDTRIP
360
3700
  0
DICTIONARY
  5
362E
330
362D
100
AcDbDictionary
280
     1
281
     1
  3
BUMPTILE
360
3630
  3
DIFFUSETILE
360
362F
  3
OPACITYTILE
360
3633
  3
REFLECTIONTILE
360
3632
  3
REFRACTIONTILE
360
3634
  3
SPECULARTILE
360
3631
  0
DICTIONARY
  5
3626
330
3625
100
AcDbDictionary
280
     1
281
     1
  3
BUMPTILE
360
3628
  3
DIFFUSETILE
360
3627
  3
OPACITYTILE
360
362B
  3
REFLECTIONTILE
360
362A
  3
REFRACTIONTILE
360
362C
  3
SPECULARTILE
360
3629
  0
DICTIONARY
  5
3636
330
3635
100
AcDbDictionary
280
     1
281
     1
  3
BUMPTILE
360
3638
  3
DIFFUSETILE
360
3637
  3
OPACITYTILE
360
363B
  3
REFLECTIONTILE
360
363A
  3
REFRACTIONTILE
360
363C
  3
SPECULARTILE
360
3639
  0
DICTIONARY
  5
36FD
330
366D
100
AcDbDictionary
280
     1
281
     1
  3
ACAD_XREC_ROUNDTRIP
360
36FE
  0
DICTIONARY
  5
36C8
330
3657
100
AcDbDictionary
280
     1
281
     1
  3
ACAD_ROUNDTRIP_2008_TABLESTYLE_CELLSTYLEMAP
360
36C9
  0
DICTIONARY
  5
36D6
330
3643
100
AcDbDictionary
280
     1
281
     1
  3
ACAD_XREC_ROUNDTRIP
360
36D7
  0
DICTIONARY
  5
36D4
330
3642
100
AcDbDictionary
280
     1
281
     1
  3
ACAD_XREC_ROUNDTRIP
360
36D5
  0
DICTIONARY
  5
36E2
330
3649
100
AcDbDictionary
280
     1
281
     1
  3
ACAD_XREC_ROUNDTRIP
360
36E3
  0
DICTIONARY
  5
36EA
330
364D
100
AcDbDictionary
280
     1
281
     1
  3
ACAD_XREC_ROUNDTRIP
360
36EB
  0
DICTIONARY
  5
36DC
330
3646
100
AcDbDictionary
280
     1
281
     1
  3
ACAD_XREC_ROUNDTRIP
360
36DD
  0
DICTIONARY
  5
36E0
330
3648
100
AcDbDictionary
280
     1
281
     1
  3
ACAD_XREC_ROUNDTRIP
360
36E1
  0
DICTIONARY
  5
36FA
330
3655
100
AcDbDictionary
280
     1
281
     1
  3
ACAD_XREC_ROUNDTRIP
360
36FB
  0
DICTIONARY
  5
36E8
330
364C
100
AcDbDictionary
280
     1
281
     1
  3
ACAD_XREC_ROUNDTRIP
360
36E9
  0
DICTIONARY
  5
36CC
330
363E
100
AcDbDictionary
280
     1
281
     1
  3
ACAD_XREC_ROUNDTRIP
360
36CD
  0
DICTIONARY
  5
36CE
330
363F
100
AcDbDictionary
280
     1
281
     1
  3
ACAD_XREC_ROUNDTRIP
360
36CF
  0
DICTIONARY
  5
36D0
330
3640
100
AcDbDictionary
280
     1
281
     1
  3
ACAD_XREC_ROUNDTRIP
360
36D1
  0
DICTIONARY
  5
36D2
330
3641
100
AcDbDictionary
280
     1
281
     1
  3
ACAD_XREC_ROUNDTRIP
360
36D3
  0
DICTIONARY
  5
36DA
330
3645
100
AcDbDictionary
280
     1
281
     1
  3
ACAD_XREC_ROUNDTRIP
360
36DB
  0
DICTIONARY
  5
36F6
330
3653
100
AcDbDictionary
280
     1
281
     1
  3
ACAD_XREC_ROUNDTRIP
360
36F7
  0
DICTIONARY
  5
36E6
330
364B
100
AcDbDictionary
280
     1
281
     1
  3
ACAD_XREC_ROUNDTRIP
360
36E7
  0
DICTIONARY
  5
36F8
330
3654
100
AcDbDictionary
280
     1
281
     1
  3
ACAD_XREC_ROUNDTRIP
360
36F9
  0
DICTIONARY
  5
36DE
330
3647
100
AcDbDictionary
280
     1
281
     1
  3
ACAD_XREC_ROUNDTRIP
360
36DF
  0
DICTIONARY
  5
36F4
330
3652
100
AcDbDictionary
280
     1
281
     1
  3
ACAD_XREC_ROUNDTRIP
360
36F5
  0
DICTIONARY
  5
36F2
330
3651
100
AcDbDictionary
280
     1
281
     1
  3
ACAD_XREC_ROUNDTRIP
360
36F3
  0
DICTIONARY
  5
36EC
330
364E
100
AcDbDictionary
280
     1
281
     1
  3
ACAD_XREC_ROUNDTRIP
360
36ED
  0
DICTIONARY
  5
36EE
330
364F
100
AcDbDictionary
280
     1
281
     1
  3
ACAD_XREC_ROUNDTRIP
360
36EF
  0
DICTIONARY
  5
36E4
330
364A
100
AcDbDictionary
280
     1
281
     1
  3
ACAD_XREC_ROUNDTRIP
360
36E5
  0
DICTIONARY
  5
36D8
330
3644
100
AcDbDictionary
280
     1
281
     1
  3
ACAD_XREC_ROUNDTRIP
360
36D9
  0
DICTIONARY
  5
36F0
330
3650
100
AcDbDictionary
280
     1
281
     1
  3
ACAD_XREC_ROUNDTRIP
360
36F1
  0
XRECORD
  5
3700
102
{ACAD_REACTORS
330
36FF
102
}
330
36FF
100
AcDbXrecord
280
     1
102
DISPLAYNAME
  1
Imperial24
102
FLAGS
 90
        0
  0
XRECORD
  5
3630
102
{ACAD_REACTORS
330
362E
102
}
330
362E
100
AcDbXrecord
280
     1
270
     1
271
     1
  0
XRECORD
  5
362F
102
{ACAD_REACTORS
330
362E
102
}
330
362E
100
AcDbXrecord
280
     1
270
     1
271
     1
  0
XRECORD
  5
3633
102
{ACAD_REACTORS
330
362E
102
}
330
362E
100
AcDbXrecord
280
     1
270
     1
271
     1
  0
XRECORD
  5
3632
102
{ACAD_REACTORS
330
362E
102
}
330
362E
100
AcDbXrecord
280
     1
270
     1
271
     1
  0
XRECORD
  5
3634
102
{ACAD_REACTORS
330
362E
102
}
330
362E
100
AcDbXrecord
280
     1
270
     1
271
     1
  0
XRECORD
  5
3631
102
{ACAD_REACTORS
330
362E
102
}
330
362E
100
AcDbXrecord
280
     1
270
     1
271
     1
  0
XRECORD
  5
3628
102
{ACAD_REACTORS
330
3626
102
}
330
3626
100
AcDbXrecord
280
     1
270
     1
271
     1
  0
XRECORD
  5
3627
102
{ACAD_REACTORS
330
3626
102
}
330
3626
100
AcDbXrecord
280
     1
270
     1
271
     1
  0
XRECORD
  5
362B
102
{ACAD_REACTORS
330
3626
102
}
330
3626
100
AcDbXrecord
280
     1
270
     1
271
     1
  0
XRECORD
  5
362A
102
{ACAD_REACTORS
330
3626
102
}
330
3626
100
AcDbXrecord
280
     1
270
     1
271
     1
  0
XRECORD
  5
362C
102
{ACAD_REACTORS
330
3626
102
}
330
3626
100
AcDbXrecord
280
     1
270
     1
271
     1
  0
XRECORD
  5
3629
102
{ACAD_REACTORS
330
3626
102
}
330
3626
100
AcDbXrecord
280
     1
270
     1
271
     1
  0
XRECORD
  5
3638
102
{ACAD_REACTORS
330
3636
102
}
330
3636
100
AcDbXrecord
280
     1
270
     1
271
     1
  0
XRECORD
  5
3637
102
{ACAD_REACTORS
330
3636
102
}
330
3636
100
AcDbXrecord
280
     1
270
     1
271
     1
  0
XRECORD
  5
363B
102
{ACAD_REACTORS
330
3636
102
}
330
3636
100
AcDbXrecord
280
     1
270
     1
271
     1
  0
XRECORD
  5
363A
102
{ACAD_REACTORS
330
3636
102
}
330
3636
100
AcDbXrecord
280
     1
270
     1
271
     1
  0
XRECORD
  5
363C
102
{ACAD_REACTORS
330
3636
102
}
330
3636
100
AcDbXrecord
280
     1
270
     1
271
     1
  0
XRECORD
  5
3639
102
{ACAD_REACTORS
330
3636
102
}
330
3636
100
AcDbXrecord
280
     1
270
     1
271
     1
  0
XRECORD
  5
36FE
102
{ACAD_REACTORS
330
36FD
102
}
330
36FD
100
AcDbXrecord
280
     1
102
DISPLAYNAME
  1
Imperial24
102
FLAGS
 90
        0
  0
CELLSTYLEMAP
  5
36C9
102
{ACAD_REACTORS
330
36C8
102
}
330
36C8
100
AcDbCellStyleMap
 90
        3
300
CELLSTYLE
  1
TABLEFORMAT_BEGIN
 90
        5
170
     1
 91
        0
 92
    32768
 62
   257
 93
        1
300
CONTENTFORMAT
  1
CONTENTFORMAT_BEGIN
 90
        0
 91
        0
 92
      512
 93
        0
300

 40
0.0
140
1.0
 94
        5
 62
     0
340
11
144
0.25
309
CONTENTFORMAT_END
171
     0
 94
        0
309
TABLEFORMAT_END
  1
CELLSTYLE_BEGIN
 90
        1
 91
        1
300
_TITLE
309
CELLSTYLE_END
300
CELLSTYLE
  1
TABLEFORMAT_BEGIN
 90
        5
170
     1
 91
        0
 92
        0
 62
   257
 93
        1
300
CONTENTFORMAT
  1
CONTENTFORMAT_BEGIN
 90
        0
 91
        0
 92
      512
 93
        0
300

 40
0.0
140
1.0
 94
        5
 62
     0
340
11
144
0.18
309
CONTENTFORMAT_END
171
     0
 94
        0
309
TABLEFORMAT_END
  1
CELLSTYLE_BEGIN
 90
        2
 91
        1
300
_HEADER
309
CELLSTYLE_END
300
CELLSTYLE
  1
TABLEFORMAT_BEGIN
 90
        5
170
     1
 91
        0
 92
        0
 62
   257
 93
        1
300
CONTENTFORMAT
  1
CONTENTFORMAT_BEGIN
 90
        0
 91
        0
 92
      512
 93
        0
300

 40
0.0
140
1.0
 94
        2
 62
     0
340
11
144
0.18
309
CONTENTFORMAT_END
171
     0
 94
        0
309
TABLEFORMAT_END
  1
CELLSTYLE_BEGIN
 90
        3
 91
        2
300
_DATA
309
CELLSTYLE_END
  0
XRECORD
  5
36D7
102
{ACAD_REACTORS
330
36D6
102
}
330
36D6
100
AcDbXrecord
280
     1
102
RTVSPost2010Prop28
280
     1
102
RTVSPost2010PropOp28
 70
     1
102
RTVSPost2010Prop29
280
     1
102
RTVSPost2010PropOp29
 70
     1
102
RTVSPost2010Prop30
280
     0
102
RTVSPost2010PropOp30
 70
     1
102
RTVSPost2010Prop31
280
     0
102
RTVSPost2010PropOp31
 70
     1
102
RTVSPost2010Prop32
280
     0
102
RTVSPost2010PropOp32
 70
     1
102
RTVSPost2010Prop33
280
     0
102
RTVSPost2010PropOp33
 70
     1
102
RTVSPost2010Prop34
280
     0
102
RTVSPost2010PropOp34
 70
     1
102
RTVSPost2010Prop35
280
     0
102
RTVSPost2010PropOp35
 70
     1
102
RTVSPost2010Prop36
280
     0
102
RTVSPost2010PropOp36
 70
     1
102
RTVSPost2010Prop37
 90
       50
102
RTVSPost2010PropOp37
 70
     1
102
RTVSPost2010Prop38
140
0.0
102
RTVSPost2010PropOp38
 70
     1
102
RTVSPost2010Prop39
140
1.0
102
RTVSPost2010PropOp39
 70
     1
102
RTVSPost2010Prop40
 90
        0
102
RTVSPost2010PropOp40
 70
     1
102
RTVSPost2010Prop41ColorIndex
 90
       18
102
RTVSPost2010Prop41ColorRGB
 90
        0
102
RTVSPost2010PropOp41
 70
     1
102
RTVSPost2010Prop42
 90
       50
102
RTVSPost2010PropOp42
 70
     1
102
RTVSPost2010Prop43
 90
        3
102
RTVSPost2010PropOp43
 70
     1
102
RTVSPost2010Prop44ColorIndex
 90
        5
102
RTVSPost2010Prop44ColorRGB
 90
      255
102
RTVSPost2010PropOp44
 70
     1
102
RTVSPost2010Prop45
280
     0
102
RTVSPost2010PropOp45
 70
     1
102
RTVSPost2010Prop46
 90
       50
102
RTVSPost2010PropOp46
 70
     1
102
RTVSPost2010Prop47
 90
       50
102
RTVSPost2010PropOp47
 70
     1
102
RTVSPost2010Prop48
 90
       50
102
RTVSPost2010PropOp48
 70
     1
102
RTVSPost2010Prop49
280
     0
102
RTVSPost2010PropOp49
 70
     1
102
RTVSPost2010Prop50
 90
       50
102
RTVSPost2010PropOp50
 70
     1
102
RTVSPost2010Prop51ColorIndex
 90
      256
102
RTVSPost2010Prop51ColorRGB
 90
-16777216
102
RTVSPost2010PropOp51
 70
     0
102
RTVSPost2010Prop52
140
1.0
102
RTVSPost2010PropOp52
 70
     0
102
RTVSPost2010Prop53
 90
        2
102
RTVSPost2010PropOp53
 70
     1
102
RTVSPost2010Prop54
  1
strokes_ogs.tif
102
RTVSPost2010PropOp54
 70
     1
102
RTVSPost2010Prop55
280
     0
102
RTVSPost2010PropOp55
 70
     1
102
RTVSPost2010Prop56
140
1.0
102
RTVSPost2010PropOp56
 70
     1
102
RTVSPost2010Prop57
140
1.0
102
RTVSPost2010PropOp57
 70
     1
102
RTVSPropertyOp0
 70
     1
102
RTVSPropertyOp1
 70
     1
102
RTVSPropertyOp2
 70
     1
102
RTVSPropertyOp3
 70
     1
102
RTVSPropertyOp4
 70
     1
102
RTVSPropertyOp5
 70
     1
102
RTVSPropertyOp6
 70
     1
102
RTVSPropertyOp7
 70
     1
102
RTVSPropertyOp8
 70
     1
102
RTVSPropertyOp9
 70
     1
102
RTVSPropertyOp10
 70
     1
102
RTVSPropertyOp11
 70
     1
102
RTVSPropertyOp12
 70
     1
102
RTVSPropertyOp13
 70
     1
102
RTVSPropertyOp14
 70
     1
102
RTVSPropertyOp15
 70
     1
102
RTVSPropertyOp16
 70
     1
102
RTVSPropertyOp17
 70
     1
102
RTVSPropertyOp18
 70
     1
102
RTVSPropertyOp19
 70
     1
102
RTVSPropertyOp20
 70
     1
102
RTVSPropertyOp21
 70
     1
102
RTVSPropertyOp22
 70
     1
102
RTVSPropertyOp23
 70
     1
102
RTVSPropertyOp24
 70
     1
102
RTVSPropertyOp25
 70
     1
102
RTVSPropertyOp26
 70
     1
102
RTVSPropertyOp27
 70
     1
102
RTVSPropertyOp28
 70
     1
102
RTVSPropertyOp29
 70
     1
102
RTVSPropertyOp30
 70
     1
102
RTVSPropertyOp31
 70
     1
102
RTVSPropertyOp32
 70
     1
102
RTVSPropertyOp33
 70
     1
102
RTVSPropertyOp34
 70
     1
102
RTVSPropertyOp35
 70
     1
102
RTVSPropertyOp36
 70
     1
102
RTVSPropertyOp37
 70
     1
102
RTVSPropertyOp38
 70
     1
102
RTVSPropertyOp39
 70
     1
102
RTVSPropertyOp40
 70
     1
102
RTVSPropertyOp41
 70
     1
102
RTVSPropertyOp42
 70
     1
102
RTVSPropertyOp43
 70
     1
102
RTVSPropertyOp44
 70
     1
102
RTVSPropertyOp45
 70
     1
102
RTVSPropertyOp46
 70
     1
102
RTVSPropertyOp47
 70
     1
102
RTVSPropertyOp48
 70
     1
102
RTVSPropertyOp49
 70
     1
102
RTVSPropertyOp50
 70
     1
102
RTVSPropertyOp51
 70
     0
102
RTVSPropertyOp52
 70
     0
102
RTVSPropertyOp53
 70
     1
102
RTVSPropertyOp54
 70
     1
102
RTVSPropertyOp55
 70
     1
102
RTVSPropertyOp56
 70
     1
102
RTVSPropertyOp57
 70
     1
102
RTVSPropertyOp58
 70
     1
102
RTVSPropertyOp59
 70
     1
102
RTVSPropertyOp60
 70
     1
102
RTVSPropertyOp61
 70
     1
102
RTVSPropertyOp62
 70
     1
  0
XRECORD
  5
36D5
102
{ACAD_REACTORS
330
36D4
102
}
330
36D4
100
AcDbXrecord
280
     1
102
RTVSPost2010Prop28
280
     0
102
RTVSPost2010PropOp28
 70
     1
102
RTVSPost2010Prop29
280
     1
102
RTVSPost2010PropOp29
 70
     1
102
RTVSPost2010Prop30
280
     1
102
RTVSPost2010PropOp30
 70
     1
102
RTVSPost2010Prop31
280
     0
102
RTVSPost2010PropOp31
 70
     1
102
RTVSPost2010Prop32
280
     0
102
RTVSPost2010PropOp32
 70
     1
102
RTVSPost2010Prop33
280
     0
102
RTVSPost2010PropOp33
 70
     1
102
RTVSPost2010Prop34
280
     0
102
RTVSPost2010PropOp34
 70
     1
102
RTVSPost2010Prop35
280
     0
102
RTVSPost2010PropOp35
 70
     1
102
RTVSPost2010Prop36
280
     0
102
RTVSPost2010PropOp36
 70
     1
102
RTVSPost2010Prop37
 90
       50
102
RTVSPost2010PropOp37
 70
     1
102
RTVSPost2010Prop38
140
0.0
102
RTVSPost2010PropOp38
 70
     1
102
RTVSPost2010Prop39
140
1.0
102
RTVSPost2010PropOp39
 70
     1
102
RTVSPost2010Prop40
 90
        0
102
RTVSPost2010PropOp40
 70
     1
102
RTVSPost2010Prop41ColorIndex
 90
       18
102
RTVSPost2010Prop41ColorRGB
 90
        0
102
RTVSPost2010PropOp41
 70
     1
102
RTVSPost2010Prop42
 90
       50
102
RTVSPost2010PropOp42
 70
     1
102
RTVSPost2010Prop43
 90
        3
102
RTVSPost2010PropOp43
 70
     1
102
RTVSPost2010Prop44ColorIndex
 90
        5
102
RTVSPost2010Prop44ColorRGB
 90
      255
102
RTVSPost2010PropOp44
 70
     1
102
RTVSPost2010Prop45
280
     0
102
RTVSPost2010PropOp45
 70
     1
102
RTVSPost2010Prop46
 90
       50
102
RTVSPost2010PropOp46
 70
     1
102
RTVSPost2010Prop47
 90
       50
102
RTVSPost2010PropOp47
 70
     1
102
RTVSPost2010Prop48
 90
       50
102
RTVSPost2010PropOp48
 70
     1
102
RTVSPost2010Prop49
280
     0
102
RTVSPost2010PropOp49
 70
     1
102
RTVSPost2010Prop50
 90
       50
102
RTVSPost2010PropOp50
 70
     1
102
RTVSPost2010Prop51ColorIndex
 90
      256
102
RTVSPost2010Prop51ColorRGB
 90
-16777216
102
RTVSPost2010PropOp51
 70
     0
102
RTVSPost2010Prop52
140
1.0
102
RTVSPost2010PropOp52
 70
     0
102
RTVSPost2010Prop53
 90
        2
102
RTVSPost2010PropOp53
 70
     1
102
RTVSPost2010Prop54
  1
strokes_ogs.tif
102
RTVSPost2010PropOp54
 70
     1
102
RTVSPost2010Prop55
280
     0
102
RTVSPost2010PropOp55
 70
     1
102
RTVSPost2010Prop56
140
1.0
102
RTVSPost2010PropOp56
 70
     1
102
RTVSPost2010Prop57
140
1.0
102
RTVSPost2010PropOp57
 70
     1
102
RTVSPropertyOp0
 70
     1
102
RTVSPropertyOp1
 70
     1
102
RTVSPropertyOp2
 70
     1
102
RTVSPropertyOp3
 70
     1
102
RTVSPropertyOp4
 70
     1
102
RTVSPropertyOp5
 70
     1
102
RTVSPropertyOp6
 70
     1
102
RTVSPropertyOp7
 70
     1
102
RTVSPropertyOp8
 70
     1
102
RTVSPropertyOp9
 70
     1
102
RTVSPropertyOp10
 70
     1
102
RTVSPropertyOp11
 70
     1
102
RTVSPropertyOp12
 70
     1
102
RTVSPropertyOp13
 70
     1
102
RTVSPropertyOp14
 70
     1
102
RTVSPropertyOp15
 70
     1
102
RTVSPropertyOp16
 70
     1
102
RTVSPropertyOp17
 70
     1
102
RTVSPropertyOp18
 70
     1
102
RTVSPropertyOp19
 70
     1
102
RTVSPropertyOp20
 70
     1
102
RTVSPropertyOp21
 70
     1
102
RTVSPropertyOp22
 70
     1
102
RTVSPropertyOp23
 70
     1
102
RTVSPropertyOp24
 70
     1
102
RTVSPropertyOp25
 70
     1
102
RTVSPropertyOp26
 70
     1
102
RTVSPropertyOp27
 70
     1
102
RTVSPropertyOp28
 70
     1
102
RTVSPropertyOp29
 70
     1
102
RTVSPropertyOp30
 70
     1
102
RTVSPropertyOp31
 70
     1
102
RTVSPropertyOp32
 70
     1
102
RTVSPropertyOp33
 70
     1
102
RTVSPropertyOp34
 70
     1
102
RTVSPropertyOp35
 70
     1
102
RTVSPropertyOp36
 70
     1
102
RTVSPropertyOp37
 70
     1
102
RTVSPropertyOp38
 70
     1
102
RTVSPropertyOp39
 70
     1
102
RTVSPropertyOp40
 70
     1
102
RTVSPropertyOp41
 70
     1
102
RTVSPropertyOp42
 70
     1
102
RTVSPropertyOp43
 70
     1
102
RTVSPropertyOp44
 70
     1
102
RTVSPropertyOp45
 70
     1
102
RTVSPropertyOp46
 70
     1
102
RTVSPropertyOp47
 70
     1
102
RTVSPropertyOp48
 70
     1
102
RTVSPropertyOp49
 70
     1
102
RTVSPropertyOp50
 70
     1
102
RTVSPropertyOp51
 70
     0
102
RTVSPropertyOp52
 70
     0
102
RTVSPropertyOp53
 70
     1
102
RTVSPropertyOp54
 70
     1
102
RTVSPropertyOp55
 70
     1
102
RTVSPropertyOp56
 70
     1
102
RTVSPropertyOp57
 70
     1
102
RTVSPropertyOp58
 70
     1
102
RTVSPropertyOp59
 70
     1
102
RTVSPropertyOp60
 70
     1
102
RTVSPropertyOp61
 70
     1
102
RTVSPropertyOp62
 70
     1
  0
XRECORD
  5
36E3
102
{ACAD_REACTORS
330
36E2
102
}
330
36E2
100
AcDbXrecord
280
     1
102
RTVSPost2010Prop28
280
     0
102
RTVSPost2010PropOp28
 70
     1
102
RTVSPost2010Prop29
280
     1
102
RTVSPost2010PropOp29
 70
     1
102
RTVSPost2010Prop30
280
     1
102
RTVSPost2010PropOp30
 70
     1
102
RTVSPost2010Prop31
280
     0
102
RTVSPost2010PropOp31
 70
     1
102
RTVSPost2010Prop32
280
     0
102
RTVSPost2010PropOp32
 70
     1
102
RTVSPost2010Prop33
280
     0
102
RTVSPost2010PropOp33
 70
     1
102
RTVSPost2010Prop34
280
     0
102
RTVSPost2010PropOp34
 70
     1
102
RTVSPost2010Prop35
280
     0
102
RTVSPost2010PropOp35
 70
     1
102
RTVSPost2010Prop36
280
     0
102
RTVSPost2010PropOp36
 70
     1
102
RTVSPost2010Prop37
 90
       50
102
RTVSPost2010PropOp37
 70
     1
102
RTVSPost2010Prop38
140
0.0
102
RTVSPost2010PropOp38
 70
     1
102
RTVSPost2010Prop39
140
1.0
102
RTVSPost2010PropOp39
 70
     1
102
RTVSPost2010Prop40
 90
        0
102
RTVSPost2010PropOp40
 70
     1
102
RTVSPost2010Prop41ColorIndex
 90
       18
102
RTVSPost2010Prop41ColorRGB
 90
        0
102
RTVSPost2010PropOp41
 70
     1
102
RTVSPost2010Prop42
 90
       50
102
RTVSPost2010PropOp42
 70
     1
102
RTVSPost2010Prop43
 90
        3
102
RTVSPost2010PropOp43
 70
     1
102
RTVSPost2010Prop44ColorIndex
 90
        5
102
RTVSPost2010Prop44ColorRGB
 90
      255
102
RTVSPost2010PropOp44
 70
     1
102
RTVSPost2010Prop45
280
     0
102
RTVSPost2010PropOp45
 70
     1
102
RTVSPost2010Prop46
 90
       50
102
RTVSPost2010PropOp46
 70
     1
102
RTVSPost2010Prop47
 90
       50
102
RTVSPost2010PropOp47
 70
     1
102
RTVSPost2010Prop48
 90
       50
102
RTVSPost2010PropOp48
 70
     1
102
RTVSPost2010Prop49
280
     0
102
RTVSPost2010PropOp49
 70
     1
102
RTVSPost2010Prop50
 90
       50
102
RTVSPost2010PropOp50
 70
     1
102
RTVSPost2010Prop51ColorIndex
 90
      256
102
RTVSPost2010Prop51ColorRGB
 90
-16777216
102
RTVSPost2010PropOp51
 70
     0
102
RTVSPost2010Prop52
140
1.0
102
RTVSPost2010PropOp52
 70
     0
102
RTVSPost2010Prop53
 90
        2
102
RTVSPost2010PropOp53
 70
     1
102
RTVSPost2010Prop54
  1
strokes_ogs.tif
102
RTVSPost2010PropOp54
 70
     1
102
RTVSPost2010Prop55
280
     0
102
RTVSPost2010PropOp55
 70
     1
102
RTVSPost2010Prop56
140
1.0
102
RTVSPost2010PropOp56
 70
     1
102
RTVSPost2010Prop57
140
1.0
102
RTVSPost2010PropOp57
 70
     1
102
RTVSPropertyOp0
 70
     1
102
RTVSPropertyOp1
 70
     1
102
RTVSPropertyOp2
 70
     1
102
RTVSPropertyOp3
 70
     1
102
RTVSPropertyOp4
 70
     1
102
RTVSPropertyOp5
 70
     1
102
RTVSPropertyOp6
 70
     1
102
RTVSPropertyOp7
 70
     1
102
RTVSPropertyOp8
 70
     1
102
RTVSPropertyOp9
 70
     1
102
RTVSPropertyOp10
 70
     1
102
RTVSPropertyOp11
 70
     1
102
RTVSPropertyOp12
 70
     1
102
RTVSPropertyOp13
 70
     1
102
RTVSPropertyOp14
 70
     1
102
RTVSPropertyOp15
 70
     1
102
RTVSPropertyOp16
 70
     1
102
RTVSPropertyOp17
 70
     1
102
RTVSPropertyOp18
 70
     1
102
RTVSPropertyOp19
 70
     1
102
RTVSPropertyOp20
 70
     1
102
RTVSPropertyOp21
 70
     1
102
RTVSPropertyOp22
 70
     1
102
RTVSPropertyOp23
 70
     1
102
RTVSPropertyOp24
 70
     1
102
RTVSPropertyOp25
 70
     1
102
RTVSPropertyOp26
 70
     1
102
RTVSPropertyOp27
 70
     1
102
RTVSPropertyOp28
 70
     1
102
RTVSPropertyOp29
 70
     1
102
RTVSPropertyOp30
 70
     1
102
RTVSPropertyOp31
 70
     1
102
RTVSPropertyOp32
 70
     1
102
RTVSPropertyOp33
 70
     1
102
RTVSPropertyOp34
 70
     1
102
RTVSPropertyOp35
 70
     1
102
RTVSPropertyOp36
 70
     1
102
RTVSPropertyOp37
 70
     1
102
RTVSPropertyOp38
 70
     1
102
RTVSPropertyOp39
 70
     1
102
RTVSPropertyOp40
 70
     1
102
RTVSPropertyOp41
 70
     1
102
RTVSPropertyOp42
 70
     1
102
RTVSPropertyOp43
 70
     1
102
RTVSPropertyOp44
 70
     1
102
RTVSPropertyOp45
 70
     1
102
RTVSPropertyOp46
 70
     1
102
RTVSPropertyOp47
 70
     1
102
RTVSPropertyOp48
 70
     1
102
RTVSPropertyOp49
 70
     1
102
RTVSPropertyOp50
 70
     1
102
RTVSPropertyOp51
 70
     0
102
RTVSPropertyOp52
 70
     0
102
RTVSPropertyOp53
 70
     1
102
RTVSPropertyOp54
 70
     1
102
RTVSPropertyOp55
 70
     1
102
RTVSPropertyOp56
 70
     1
102
RTVSPropertyOp57
 70
     1
102
RTVSPropertyOp58
 70
     1
102
RTVSPropertyOp59
 70
     1
102
RTVSPropertyOp60
 70
     1
102
RTVSPropertyOp61
 70
     1
102
RTVSPropertyOp62
 70
     1
  0
XRECORD
  5
36EB
102
{ACAD_REACTORS
330
36EA
102
}
330
36EA
100
AcDbXrecord
280
     1
102
RTVSPost2010Prop28
280
     0
102
RTVSPost2010PropOp28
 70
     1
102
RTVSPost2010Prop29
280
     1
102
RTVSPost2010PropOp29
 70
     1
102
RTVSPost2010Prop30
280
     1
102
RTVSPost2010PropOp30
 70
     1
102
RTVSPost2010Prop31
280
     0
102
RTVSPost2010PropOp31
 70
     1
102
RTVSPost2010Prop32
280
     0
102
RTVSPost2010PropOp32
 70
     1
102
RTVSPost2010Prop33
280
     0
102
RTVSPost2010PropOp33
 70
     1
102
RTVSPost2010Prop34
280
     0
102
RTVSPost2010PropOp34
 70
     1
102
RTVSPost2010Prop35
280
     0
102
RTVSPost2010PropOp35
 70
     1
102
RTVSPost2010Prop36
280
     0
102
RTVSPost2010PropOp36
 70
     1
102
RTVSPost2010Prop37
 90
       50
102
RTVSPost2010PropOp37
 70
     1
102
RTVSPost2010Prop38
140
0.0
102
RTVSPost2010PropOp38
 70
     1
102
RTVSPost2010Prop39
140
1.0
102
RTVSPost2010PropOp39
 70
     1
102
RTVSPost2010Prop40
 90
        0
102
RTVSPost2010PropOp40
 70
     1
102
RTVSPost2010Prop41ColorIndex
 90
       18
102
RTVSPost2010Prop41ColorRGB
 90
        0
102
RTVSPost2010PropOp41
 70
     1
102
RTVSPost2010Prop42
 90
       50
102
RTVSPost2010PropOp42
 70
     1
102
RTVSPost2010Prop43
 90
        3
102
RTVSPost2010PropOp43
 70
     1
102
RTVSPost2010Prop44ColorIndex
 90
        5
102
RTVSPost2010Prop44ColorRGB
 90
      255
102
RTVSPost2010PropOp44
 70
     1
102
RTVSPost2010Prop45
280
     0
102
RTVSPost2010PropOp45
 70
     1
102
RTVSPost2010Prop46
 90
       50
102
RTVSPost2010PropOp46
 70
     1
102
RTVSPost2010Prop47
 90
       50
102
RTVSPost2010PropOp47
 70
     1
102
RTVSPost2010Prop48
 90
       50
102
RTVSPost2010PropOp48
 70
     1
102
RTVSPost2010Prop49
280
     0
102
RTVSPost2010PropOp49
 70
     1
102
RTVSPost2010Prop50
 90
       50
102
RTVSPost2010PropOp50
 70
     1
102
RTVSPost2010Prop51ColorIndex
 90
      256
102
RTVSPost2010Prop51ColorRGB
 90
-16777216
102
RTVSPost2010PropOp51
 70
     0
102
RTVSPost2010Prop52
140
1.0
102
RTVSPost2010PropOp52
 70
     0
102
RTVSPost2010Prop53
 90
        2
102
RTVSPost2010PropOp53
 70
     1
102
RTVSPost2010Prop54
  1
strokes_ogs.tif
102
RTVSPost2010PropOp54
 70
     1
102
RTVSPost2010Prop55
280
     0
102
RTVSPost2010PropOp55
 70
     1
102
RTVSPost2010Prop56
140
1.0
102
RTVSPost2010PropOp56
 70
     1
102
RTVSPost2010Prop57
140
1.0
102
RTVSPost2010PropOp57
 70
     1
102
RTVSPropertyOp0
 70
     1
102
RTVSPropertyOp1
 70
     1
102
RTVSPropertyOp2
 70
     1
102
RTVSPropertyOp3
 70
     1
102
RTVSPropertyOp4
 70
     1
102
RTVSPropertyOp5
 70
     1
102
RTVSPropertyOp6
 70
     1
102
RTVSPropertyOp7
 70
     1
102
RTVSPropertyOp8
 70
     1
102
RTVSPropertyOp9
 70
     1
102
RTVSPropertyOp10
 70
     1
102
RTVSPropertyOp11
 70
     1
102
RTVSPropertyOp12
 70
     1
102
RTVSPropertyOp13
 70
     1
102
RTVSPropertyOp14
 70
     1
102
RTVSPropertyOp15
 70
     1
102
RTVSPropertyOp16
 70
     1
102
RTVSPropertyOp17
 70
     1
102
RTVSPropertyOp18
 70
     1
102
RTVSPropertyOp19
 70
     1
102
RTVSPropertyOp20
 70
     1
102
RTVSPropertyOp21
 70
     1
102
RTVSPropertyOp22
 70
     1
102
RTVSPropertyOp23
 70
     1
102
RTVSPropertyOp24
 70
     1
102
RTVSPropertyOp25
 70
     1
102
RTVSPropertyOp26
 70
     1
102
RTVSPropertyOp27
 70
     1
102
RTVSPropertyOp28
 70
     1
102
RTVSPropertyOp29
 70
     1
102
RTVSPropertyOp30
 70
     1
102
RTVSPropertyOp31
 70
     1
102
RTVSPropertyOp32
 70
     1
102
RTVSPropertyOp33
 70
     1
102
RTVSPropertyOp34
 70
     1
102
RTVSPropertyOp35
 70
     1
102
RTVSPropertyOp36
 70
     1
102
RTVSPropertyOp37
 70
     1
102
RTVSPropertyOp38
 70
     1
102
RTVSPropertyOp39
 70
     1
102
RTVSPropertyOp40
 70
     1
102
RTVSPropertyOp41
 70
     1
102
RTVSPropertyOp42
 70
     1
102
RTVSPropertyOp43
 70
     1
102
RTVSPropertyOp44
 70
     1
102
RTVSPropertyOp45
 70
     1
102
RTVSPropertyOp46
 70
     1
102
RTVSPropertyOp47
 70
     1
102
RTVSPropertyOp48
 70
     1
102
RTVSPropertyOp49
 70
     1
102
RTVSPropertyOp50
 70
     1
102
RTVSPropertyOp51
 70
     0
102
RTVSPropertyOp52
 70
     0
102
RTVSPropertyOp53
 70
     1
102
RTVSPropertyOp54
 70
     1
102
RTVSPropertyOp55
 70
     1
102
RTVSPropertyOp56
 70
     1
102
RTVSPropertyOp57
 70
     1
102
RTVSPropertyOp58
 70
     1
102
RTVSPropertyOp59
 70
     1
102
RTVSPropertyOp60
 70
     1
102
RTVSPropertyOp61
 70
     1
102
RTVSPropertyOp62
 70
     1
  0
XRECORD
  5
36DD
102
{ACAD_REACTORS
330
36DC
102
}
330
36DC
100
AcDbXrecord
280
     1
102
RTVSPost2010Prop28
280
     0
102
RTVSPost2010PropOp28
 70
     1
102
RTVSPost2010Prop29
280
     1
102
RTVSPost2010PropOp29
 70
     1
102
RTVSPost2010Prop30
280
     1
102
RTVSPost2010PropOp30
 70
     1
102
RTVSPost2010Prop31
280
     0
102
RTVSPost2010PropOp31
 70
     1
102
RTVSPost2010Prop32
280
     0
102
RTVSPost2010PropOp32
 70
     1
102
RTVSPost2010Prop33
280
     0
102
RTVSPost2010PropOp33
 70
     1
102
RTVSPost2010Prop34
280
     0
102
RTVSPost2010PropOp34
 70
     1
102
RTVSPost2010Prop35
280
     0
102
RTVSPost2010PropOp35
 70
     1
102
RTVSPost2010Prop36
280
     0
102
RTVSPost2010PropOp36
 70
     1
102
RTVSPost2010Prop37
 90
       50
102
RTVSPost2010PropOp37
 70
     1
102
RTVSPost2010Prop38
140
0.0
102
RTVSPost2010PropOp38
 70
     1
102
RTVSPost2010Prop39
140
1.0
102
RTVSPost2010PropOp39
 70
     1
102
RTVSPost2010Prop40
 90
        0
102
RTVSPost2010PropOp40
 70
     1
102
RTVSPost2010Prop41ColorIndex
 90
       18
102
RTVSPost2010Prop41ColorRGB
 90
        0
102
RTVSPost2010PropOp41
 70
     1
102
RTVSPost2010Prop42
 90
       50
102
RTVSPost2010PropOp42
 70
     1
102
RTVSPost2010Prop43
 90
        3
102
RTVSPost2010PropOp43
 70
     1
102
RTVSPost2010Prop44ColorIndex
 90
        5
102
RTVSPost2010Prop44ColorRGB
 90
      255
102
RTVSPost2010PropOp44
 70
     1
102
RTVSPost2010Prop45
280
     0
102
RTVSPost2010PropOp45
 70
     1
102
RTVSPost2010Prop46
 90
       50
102
RTVSPost2010PropOp46
 70
     1
102
RTVSPost2010Prop47
 90
       50
102
RTVSPost2010PropOp47
 70
     1
102
RTVSPost2010Prop48
 90
       50
102
RTVSPost2010PropOp48
 70
     1
102
RTVSPost2010Prop49
280
     0
102
RTVSPost2010PropOp49
 70
     1
102
RTVSPost2010Prop50
 90
       50
102
RTVSPost2010PropOp50
 70
     1
102
RTVSPost2010Prop51ColorIndex
 90
      256
102
RTVSPost2010Prop51ColorRGB
 90
-16777216
102
RTVSPost2010PropOp51
 70
     0
102
RTVSPost2010Prop52
140
1.0
102
RTVSPost2010PropOp52
 70
     0
102
RTVSPost2010Prop53
 90
        2
102
RTVSPost2010PropOp53
 70
     1
102
RTVSPost2010Prop54
  1
strokes_ogs.tif
102
RTVSPost2010PropOp54
 70
     1
102
RTVSPost2010Prop55
280
     0
102
RTVSPost2010PropOp55
 70
     1
102
RTVSPost2010Prop56
140
1.0
102
RTVSPost2010PropOp56
 70
     1
102
RTVSPost2010Prop57
140
1.0
102
RTVSPost2010PropOp57
 70
     1
102
RTVSPropertyOp0
 70
     1
102
RTVSPropertyOp1
 70
     1
102
RTVSPropertyOp2
 70
     1
102
RTVSPropertyOp3
 70
     1
102
RTVSPropertyOp4
 70
     1
102
RTVSPropertyOp5
 70
     1
102
RTVSPropertyOp6
 70
     1
102
RTVSPropertyOp7
 70
     1
102
RTVSPropertyOp8
 70
     1
102
RTVSPropertyOp9
 70
     1
102
RTVSPropertyOp10
 70
     1
102
RTVSPropertyOp11
 70
     1
102
RTVSPropertyOp12
 70
     1
102
RTVSPropertyOp13
 70
     1
102
RTVSPropertyOp14
 70
     1
102
RTVSPropertyOp15
 70
     1
102
RTVSPropertyOp16
 70
     1
102
RTVSPropertyOp17
 70
     1
102
RTVSPropertyOp18
 70
     1
102
RTVSPropertyOp19
 70
     1
102
RTVSPropertyOp20
 70
     1
102
RTVSPropertyOp21
 70
     1
102
RTVSPropertyOp22
 70
     1
102
RTVSPropertyOp23
 70
     1
102
RTVSPropertyOp24
 70
     1
102
RTVSPropertyOp25
 70
     1
102
RTVSPropertyOp26
 70
     1
102
RTVSPropertyOp27
 70
     1
102
RTVSPropertyOp28
 70
     1
102
RTVSPropertyOp29
 70
     1
102
RTVSPropertyOp30
 70
     1
102
RTVSPropertyOp31
 70
     1
102
RTVSPropertyOp32
 70
     1
102
RTVSPropertyOp33
 70
     1
102
RTVSPropertyOp34
 70
     1
102
RTVSPropertyOp35
 70
     1
102
RTVSPropertyOp36
 70
     1
102
RTVSPropertyOp37
 70
     1
102
RTVSPropertyOp38
 70
     1
102
RTVSPropertyOp39
 70
     1
102
RTVSPropertyOp40
 70
     1
102
RTVSPropertyOp41
 70
     1
102
RTVSPropertyOp42
 70
     1
102
RTVSPropertyOp43
 70
     1
102
RTVSPropertyOp44
 70
     1
102
RTVSPropertyOp45
 70
     1
102
RTVSPropertyOp46
 70
     1
102
RTVSPropertyOp47
 70
     1
102
RTVSPropertyOp48
 70
     1
102
RTVSPropertyOp49
 70
     1
102
RTVSPropertyOp50
 70
     1
102
RTVSPropertyOp51
 70
     0
102
RTVSPropertyOp52
 70
     0
102
RTVSPropertyOp53
 70
     1
102
RTVSPropertyOp54
 70
     1
102
RTVSPropertyOp55
 70
     1
102
RTVSPropertyOp56
 70
     1
102
RTVSPropertyOp57
 70
     1
102
RTVSPropertyOp58
 70
     1
102
RTVSPropertyOp59
 70
     1
102
RTVSPropertyOp60
 70
     1
102
RTVSPropertyOp61
 70
     1
102
RTVSPropertyOp62
 70
     1
  0
XRECORD
  5
36E1
102
{ACAD_REACTORS
330
36E0
102
}
330
36E0
100
AcDbXrecord
280
     1
102
RTVSPost2010Prop28
280
     0
102
RTVSPost2010PropOp28
 70
     1
102
RTVSPost2010Prop29
280
     1
102
RTVSPost2010PropOp29
 70
     1
102
RTVSPost2010Prop30
280
     1
102
RTVSPost2010PropOp30
 70
     1
102
RTVSPost2010Prop31
280
     0
102
RTVSPost2010PropOp31
 70
     1
102
RTVSPost2010Prop32
280
     0
102
RTVSPost2010PropOp32
 70
     1
102
RTVSPost2010Prop33
280
     0
102
RTVSPost2010PropOp33
 70
     1
102
RTVSPost2010Prop34
280
     0
102
RTVSPost2010PropOp34
 70
     1
102
RTVSPost2010Prop35
280
     0
102
RTVSPost2010PropOp35
 70
     1
102
RTVSPost2010Prop36
280
     0
102
RTVSPost2010PropOp36
 70
     1
102
RTVSPost2010Prop37
 90
       50
102
RTVSPost2010PropOp37
 70
     1
102
RTVSPost2010Prop38
140
0.0
102
RTVSPost2010PropOp38
 70
     1
102
RTVSPost2010Prop39
140
1.0
102
RTVSPost2010PropOp39
 70
     1
102
RTVSPost2010Prop40
 90
        0
102
RTVSPost2010PropOp40
 70
     1
102
RTVSPost2010Prop41ColorIndex
 90
       18
102
RTVSPost2010Prop41ColorRGB
 90
        0
102
RTVSPost2010PropOp41
 70
     1
102
RTVSPost2010Prop42
 90
       50
102
RTVSPost2010PropOp42
 70
     1
102
RTVSPost2010Prop43
 90
        3
102
RTVSPost2010PropOp43
 70
     1
102
RTVSPost2010Prop44ColorIndex
 90
        5
102
RTVSPost2010Prop44ColorRGB
 90
      255
102
RTVSPost2010PropOp44
 70
     1
102
RTVSPost2010Prop45
280
     0
102
RTVSPost2010PropOp45
 70
     1
102
RTVSPost2010Prop46
 90
       50
102
RTVSPost2010PropOp46
 70
     1
102
RTVSPost2010Prop47
 90
       50
102
RTVSPost2010PropOp47
 70
     1
102
RTVSPost2010Prop48
 90
       50
102
RTVSPost2010PropOp48
 70
     1
102
RTVSPost2010Prop49
280
     0
102
RTVSPost2010PropOp49
 70
     1
102
RTVSPost2010Prop50
 90
       50
102
RTVSPost2010PropOp50
 70
     1
102
RTVSPost2010Prop51ColorIndex
 90
      256
102
RTVSPost2010Prop51ColorRGB
 90
-16777216
102
RTVSPost2010PropOp51
 70
     0
102
RTVSPost2010Prop52
140
1.0
102
RTVSPost2010PropOp52
 70
     0
102
RTVSPost2010Prop53
 90
        2
102
RTVSPost2010PropOp53
 70
     1
102
RTVSPost2010Prop54
  1
strokes_ogs.tif
102
RTVSPost2010PropOp54
 70
     1
102
RTVSPost2010Prop55
280
     0
102
RTVSPost2010PropOp55
 70
     1
102
RTVSPost2010Prop56
140
1.0
102
RTVSPost2010PropOp56
 70
     1
102
RTVSPost2010Prop57
140
1.0
102
RTVSPost2010PropOp57
 70
     1
102
RTVSPropertyOp0
 70
     1
102
RTVSPropertyOp1
 70
     1
102
RTVSPropertyOp2
 70
     1
102
RTVSPropertyOp3
 70
     1
102
RTVSPropertyOp4
 70
     1
102
RTVSPropertyOp5
 70
     1
102
RTVSPropertyOp6
 70
     1
102
RTVSPropertyOp7
 70
     1
102
RTVSPropertyOp8
 70
     1
102
RTVSPropertyOp9
 70
     1
102
RTVSPropertyOp10
 70
     1
102
RTVSPropertyOp11
 70
     1
102
RTVSPropertyOp12
 70
     1
102
RTVSPropertyOp13
 70
     1
102
RTVSPropertyOp14
 70
     1
102
RTVSPropertyOp15
 70
     1
102
RTVSPropertyOp16
 70
     1
102
RTVSPropertyOp17
 70
     1
102
RTVSPropertyOp18
 70
     1
102
RTVSPropertyOp19
 70
     1
102
RTVSPropertyOp20
 70
     1
102
RTVSPropertyOp21
 70
     1
102
RTVSPropertyOp22
 70
     1
102
RTVSPropertyOp23
 70
     1
102
RTVSPropertyOp24
 70
     1
102
RTVSPropertyOp25
 70
     1
102
RTVSPropertyOp26
 70
     1
102
RTVSPropertyOp27
 70
     1
102
RTVSPropertyOp28
 70
     1
102
RTVSPropertyOp29
 70
     1
102
RTVSPropertyOp30
 70
     1
102
RTVSPropertyOp31
 70
     1
102
RTVSPropertyOp32
 70
     1
102
RTVSPropertyOp33
 70
     1
102
RTVSPropertyOp34
 70
     1
102
RTVSPropertyOp35
 70
     1
102
RTVSPropertyOp36
 70
     1
102
RTVSPropertyOp37
 70
     1
102
RTVSPropertyOp38
 70
     1
102
RTVSPropertyOp39
 70
     1
102
RTVSPropertyOp40
 70
     1
102
RTVSPropertyOp41
 70
     1
102
RTVSPropertyOp42
 70
     1
102
RTVSPropertyOp43
 70
     1
102
RTVSPropertyOp44
 70
     1
102
RTVSPropertyOp45
 70
     1
102
RTVSPropertyOp46
 70
     1
102
RTVSPropertyOp47
 70
     1
102
RTVSPropertyOp48
 70
     1
102
RTVSPropertyOp49
 70
     1
102
RTVSPropertyOp50
 70
     1
102
RTVSPropertyOp51
 70
     0
102
RTVSPropertyOp52
 70
     0
102
RTVSPropertyOp53
 70
     1
102
RTVSPropertyOp54
 70
     1
102
RTVSPropertyOp55
 70
     1
102
RTVSPropertyOp56
 70
     1
102
RTVSPropertyOp57
 70
     1
102
RTVSPropertyOp58
 70
     1
102
RTVSPropertyOp59
 70
     1
102
RTVSPropertyOp60
 70
     1
102
RTVSPropertyOp61
 70
     1
102
RTVSPropertyOp62
 70
     1
  0
XRECORD
  5
36FB
102
{ACAD_REACTORS
330
36FA
102
}
330
36FA
100
AcDbXrecord
280
     1
102
RTVSPost2010Prop28
280
     0
102
RTVSPost2010PropOp28
 70
     1
102
RTVSPost2010Prop29
280
     1
102
RTVSPost2010PropOp29
 70
     1
102
RTVSPost2010Prop30
280
     1
102
RTVSPost2010PropOp30
 70
     1
102
RTVSPost2010Prop31
280
     0
102
RTVSPost2010PropOp31
 70
     1
102
RTVSPost2010Prop32
280
     0
102
RTVSPost2010PropOp32
 70
     1
102
RTVSPost2010Prop33
280
     0
102
RTVSPost2010PropOp33
 70
     1
102
RTVSPost2010Prop34
280
     0
102
RTVSPost2010PropOp34
 70
     1
102
RTVSPost2010Prop35
280
     0
102
RTVSPost2010PropOp35
 70
     1
102
RTVSPost2010Prop36
280
     0
102
RTVSPost2010PropOp36
 70
     1
102
RTVSPost2010Prop37
 90
       50
102
RTVSPost2010PropOp37
 70
     0
102
RTVSPost2010Prop38
140
0.0
102
RTVSPost2010PropOp38
 70
     0
102
RTVSPost2010Prop39
140
1.0
102
RTVSPost2010PropOp39
 70
     0
102
RTVSPost2010Prop40
 90
        0
102
RTVSPost2010PropOp40
 70
     0
102
RTVSPost2010Prop41ColorIndex
 90
       18
102
RTVSPost2010Prop41ColorRGB
 90
        0
102
RTVSPost2010PropOp41
 70
     0
102
RTVSPost2010Prop42
 90
       50
102
RTVSPost2010PropOp42
 70
     0
102
RTVSPost2010Prop43
 90
        3
102
RTVSPost2010PropOp43
 70
     0
102
RTVSPost2010Prop44ColorIndex
 90
        5
102
RTVSPost2010Prop44ColorRGB
 90
      255
102
RTVSPost2010PropOp44
 70
     0
102
RTVSPost2010Prop45
280
     0
102
RTVSPost2010PropOp45
 70
     1
102
RTVSPost2010Prop46
 90
       50
102
RTVSPost2010PropOp46
 70
     0
102
RTVSPost2010Prop47
 90
       50
102
RTVSPost2010PropOp47
 70
     0
102
RTVSPost2010Prop48
 90
       50
102
RTVSPost2010PropOp48
 70
     0
102
RTVSPost2010Prop49
280
     0
102
RTVSPost2010PropOp49
 70
     1
102
RTVSPost2010Prop50
 90
       50
102
RTVSPost2010PropOp50
 70
     0
102
RTVSPost2010Prop51ColorIndex
 90
      256
102
RTVSPost2010Prop51ColorRGB
 90
-16777216
102
RTVSPost2010PropOp51
 70
     0
102
RTVSPost2010Prop52
140
1.0
102
RTVSPost2010PropOp52
 70
     0
102
RTVSPost2010Prop53
 90
        2
102
RTVSPost2010PropOp53
 70
     0
102
RTVSPost2010Prop54
  1
strokes_ogs.tif
102
RTVSPost2010PropOp54
 70
     0
102
RTVSPost2010Prop55
280
     0
102
RTVSPost2010PropOp55
 70
     1
102
RTVSPost2010Prop56
140
1.0
102
RTVSPost2010PropOp56
 70
     0
102
RTVSPost2010Prop57
140
1.0
102
RTVSPost2010PropOp57
 70
     0
102
RTVSPropertyOp0
 70
     0
102
RTVSPropertyOp1
 70
     0
102
RTVSPropertyOp2
 70
     0
102
RTVSPropertyOp3
 70
     0
102
RTVSPropertyOp4
 70
     0
102
RTVSPropertyOp5
 70
     0
102
RTVSPropertyOp6
 70
     0
102
RTVSPropertyOp7
 70
     0
102
RTVSPropertyOp8
 70
     0
102
RTVSPropertyOp9
 70
     0
102
RTVSPropertyOp10
 70
     0
102
RTVSPropertyOp11
 70
     0
102
RTVSPropertyOp12
 70
     0
102
RTVSPropertyOp13
 70
     0
102
RTVSPropertyOp14
 70
     2
102
RTVSPropertyOp15
 70
     0
102
RTVSPropertyOp16
 70
     0
102
RTVSPropertyOp17
 70
     0
102
RTVSPropertyOp18
 70
     0
102
RTVSPropertyOp19
 70
     0
102
RTVSPropertyOp20
 70
     0
102
RTVSPropertyOp21
 70
     0
102
RTVSPropertyOp22
 70
     0
102
RTVSPropertyOp23
 70
     0
102
RTVSPropertyOp24
 70
     0
102
RTVSPropertyOp25
 70
     0
102
RTVSPropertyOp26
 70
     0
102
RTVSPropertyOp27
 70
     0
102
RTVSPropertyOp28
 70
     1
102
RTVSPropertyOp29
 70
     1
102
RTVSPropertyOp30
 70
     1
102
RTVSPropertyOp31
 70
     1
102
RTVSPropertyOp32
 70
     1
102
RTVSPropertyOp33
 70
     1
102
RTVSPropertyOp34
 70
     1
102
RTVSPropertyOp35
 70
     1
102
RTVSPropertyOp36
 70
     1
102
RTVSPropertyOp37
 70
     0
102
RTVSPropertyOp38
 70
     0
102
RTVSPropertyOp39
 70
     0
102
RTVSPropertyOp40
 70
     0
102
RTVSPropertyOp41
 70
     0
102
RTVSPropertyOp42
 70
     0
102
RTVSPropertyOp43
 70
     0
102
RTVSPropertyOp44
 70
     0
102
RTVSPropertyOp45
 70
     1
102
RTVSPropertyOp46
 70
     0
102
RTVSPropertyOp47
 70
     0
102
RTVSPropertyOp48
 70
     0
102
RTVSPropertyOp49
 70
     1
102
RTVSPropertyOp50
 70
     0
102
RTVSPropertyOp51
 70
     0
102
RTVSPropertyOp52
 70
     0
102
RTVSPropertyOp53
 70
     0
102
RTVSPropertyOp54
 70
     0
102
RTVSPropertyOp55
 70
     1
102
RTVSPropertyOp56
 70
     0
102
RTVSPropertyOp57
 70
     0
102
RTVSPropertyOp58
 70
     0
102
RTVSPropertyOp59
 70
     0
102
RTVSPropertyOp60
 70
     0
102
RTVSPropertyOp61
 70
     0
102
RTVSPropertyOp62
 70
     0
  0
XRECORD
  5
36E9
102
{ACAD_REACTORS
330
36E8
102
}
330
36E8
100
AcDbXrecord
280
     1
102
RTVSPost2010Prop28
280
     0
102
RTVSPost2010PropOp28
 70
     1
102
RTVSPost2010Prop29
280
     1
102
RTVSPost2010PropOp29
 70
     1
102
RTVSPost2010Prop30
280
     1
102
RTVSPost2010PropOp30
 70
     1
102
RTVSPost2010Prop31
280
     0
102
RTVSPost2010PropOp31
 70
     1
102
RTVSPost2010Prop32
280
     0
102
RTVSPost2010PropOp32
 70
     1
102
RTVSPost2010Prop33
280
     0
102
RTVSPost2010PropOp33
 70
     1
102
RTVSPost2010Prop34
280
     0
102
RTVSPost2010PropOp34
 70
     1
102
RTVSPost2010Prop35
280
     0
102
RTVSPost2010PropOp35
 70
     1
102
RTVSPost2010Prop36
280
     0
102
RTVSPost2010PropOp36
 70
     1
102
RTVSPost2010Prop37
 90
       50
102
RTVSPost2010PropOp37
 70
     1
102
RTVSPost2010Prop38
140
0.0
102
RTVSPost2010PropOp38
 70
     1
102
RTVSPost2010Prop39
140
1.0
102
RTVSPost2010PropOp39
 70
     1
102
RTVSPost2010Prop40
 90
        0
102
RTVSPost2010PropOp40
 70
     1
102
RTVSPost2010Prop41ColorIndex
 90
       18
102
RTVSPost2010Prop41ColorRGB
 90
        0
102
RTVSPost2010PropOp41
 70
     1
102
RTVSPost2010Prop42
 90
       50
102
RTVSPost2010PropOp42
 70
     1
102
RTVSPost2010Prop43
 90
        3
102
RTVSPost2010PropOp43
 70
     1
102
RTVSPost2010Prop44ColorIndex
 90
        5
102
RTVSPost2010Prop44ColorRGB
 90
      255
102
RTVSPost2010PropOp44
 70
     1
102
RTVSPost2010Prop45
280
     0
102
RTVSPost2010PropOp45
 70
     1
102
RTVSPost2010Prop46
 90
       50
102
RTVSPost2010PropOp46
 70
     1
102
RTVSPost2010Prop47
 90
       50
102
RTVSPost2010PropOp47
 70
     1
102
RTVSPost2010Prop48
 90
       50
102
RTVSPost2010PropOp48
 70
     1
102
RTVSPost2010Prop49
280
     0
102
RTVSPost2010PropOp49
 70
     1
102
RTVSPost2010Prop50
 90
       50
102
RTVSPost2010PropOp50
 70
     1
102
RTVSPost2010Prop51ColorIndex
 90
      256
102
RTVSPost2010Prop51ColorRGB
 90
-16777216
102
RTVSPost2010PropOp51
 70
     0
102
RTVSPost2010Prop52
140
1.0
102
RTVSPost2010PropOp52
 70
     0
102
RTVSPost2010Prop53
 90
        2
102
RTVSPost2010PropOp53
 70
     1
102
RTVSPost2010Prop54
  1
strokes_ogs.tif
102
RTVSPost2010PropOp54
 70
     1
102
RTVSPost2010Prop55
280
     0
102
RTVSPost2010PropOp55
 70
     1
102
RTVSPost2010Prop56
140
1.0
102
RTVSPost2010PropOp56
 70
     1
102
RTVSPost2010Prop57
140
1.0
102
RTVSPost2010PropOp57
 70
     1
102
RTVSPropertyOp0
 70
     1
102
RTVSPropertyOp1
 70
     1
102
RTVSPropertyOp2
 70
     1
102
RTVSPropertyOp3
 70
     1
102
RTVSPropertyOp4
 70
     1
102
RTVSPropertyOp5
 70
     1
102
RTVSPropertyOp6
 70
     1
102
RTVSPropertyOp7
 70
     1
102
RTVSPropertyOp8
 70
     1
102
RTVSPropertyOp9
 70
     1
102
RTVSPropertyOp10
 70
     1
102
RTVSPropertyOp11
 70
     1
102
RTVSPropertyOp12
 70
     1
102
RTVSPropertyOp13
 70
     1
102
RTVSPropertyOp14
 70
     1
102
RTVSPropertyOp15
 70
     1
102
RTVSPropertyOp16
 70
     1
102
RTVSPropertyOp17
 70
     1
102
RTVSPropertyOp18
 70
     1
102
RTVSPropertyOp19
 70
     1
102
RTVSPropertyOp20
 70
     1
102
RTVSPropertyOp21
 70
     1
102
RTVSPropertyOp22
 70
     1
102
RTVSPropertyOp23
 70
     1
102
RTVSPropertyOp24
 70
     1
102
RTVSPropertyOp25
 70
     1
102
RTVSPropertyOp26
 70
     1
102
RTVSPropertyOp27
 70
     1
102
RTVSPropertyOp28
 70
     1
102
RTVSPropertyOp29
 70
     1
102
RTVSPropertyOp30
 70
     1
102
RTVSPropertyOp31
 70
     1
102
RTVSPropertyOp32
 70
     1
102
RTVSPropertyOp33
 70
     1
102
RTVSPropertyOp34
 70
     1
102
RTVSPropertyOp35
 70
     1
102
RTVSPropertyOp36
 70
     1
102
RTVSPropertyOp37
 70
     1
102
RTVSPropertyOp38
 70
     1
102
RTVSPropertyOp39
 70
     1
102
RTVSPropertyOp40
 70
     1
102
RTVSPropertyOp41
 70
     1
102
RTVSPropertyOp42
 70
     1
102
RTVSPropertyOp43
 70
     1
102
RTVSPropertyOp44
 70
     1
102
RTVSPropertyOp45
 70
     1
102
RTVSPropertyOp46
 70
     1
102
RTVSPropertyOp47
 70
     1
102
RTVSPropertyOp48
 70
     1
102
RTVSPropertyOp49
 70
     1
102
RTVSPropertyOp50
 70
     1
102
RTVSPropertyOp51
 70
     0
102
RTVSPropertyOp52
 70
     0
102
RTVSPropertyOp53
 70
     1
102
RTVSPropertyOp54
 70
     1
102
RTVSPropertyOp55
 70
     1
102
RTVSPropertyOp56
 70
     1
102
RTVSPropertyOp57
 70
     1
102
RTVSPropertyOp58
 70
     1
102
RTVSPropertyOp59
 70
     1
102
RTVSPropertyOp60
 70
     1
102
RTVSPropertyOp61
 70
     1
102
RTVSPropertyOp62
 70
     1
  0
XRECORD
  5
36CD
102
{ACAD_REACTORS
330
36CC
102
}
330
36CC
100
AcDbXrecord
280
     1
102
RTVSPost2010Prop28
280
     0
102
RTVSPost2010PropOp28
 70
     1
102
RTVSPost2010Prop29
280
     1
102
RTVSPost2010PropOp29
 70
     1
102
RTVSPost2010Prop30
280
     1
102
RTVSPost2010PropOp30
 70
     1
102
RTVSPost2010Prop31
280
     0
102
RTVSPost2010PropOp31
 70
     1
102
RTVSPost2010Prop32
280
     0
102
RTVSPost2010PropOp32
 70
     1
102
RTVSPost2010Prop33
280
     0
102
RTVSPost2010PropOp33
 70
     1
102
RTVSPost2010Prop34
280
     0
102
RTVSPost2010PropOp34
 70
     1
102
RTVSPost2010Prop35
280
     0
102
RTVSPost2010PropOp35
 70
     1
102
RTVSPost2010Prop36
280
     0
102
RTVSPost2010PropOp36
 70
     1
102
RTVSPost2010Prop37
 90
       50
102
RTVSPost2010PropOp37
 70
     1
102
RTVSPost2010Prop38
140
0.0
102
RTVSPost2010PropOp38
 70
     1
102
RTVSPost2010Prop39
140
1.0
102
RTVSPost2010PropOp39
 70
     1
102
RTVSPost2010Prop40
 90
        0
102
RTVSPost2010PropOp40
 70
     1
102
RTVSPost2010Prop41ColorIndex
 90
       18
102
RTVSPost2010Prop41ColorRGB
 90
        0
102
RTVSPost2010PropOp41
 70
     1
102
RTVSPost2010Prop42
 90
       50
102
RTVSPost2010PropOp42
 70
     1
102
RTVSPost2010Prop43
 90
        3
102
RTVSPost2010PropOp43
 70
     1
102
RTVSPost2010Prop44ColorIndex
 90
        5
102
RTVSPost2010Prop44ColorRGB
 90
      255
102
RTVSPost2010PropOp44
 70
     1
102
RTVSPost2010Prop45
280
     0
102
RTVSPost2010PropOp45
 70
     1
102
RTVSPost2010Prop46
 90
       50
102
RTVSPost2010PropOp46
 70
     1
102
RTVSPost2010Prop47
 90
       50
102
RTVSPost2010PropOp47
 70
     1
102
RTVSPost2010Prop48
 90
       50
102
RTVSPost2010PropOp48
 70
     1
102
RTVSPost2010Prop49
280
     0
102
RTVSPost2010PropOp49
 70
     1
102
RTVSPost2010Prop50
 90
       50
102
RTVSPost2010PropOp50
 70
     1
102
RTVSPost2010Prop51ColorIndex
 90
      256
102
RTVSPost2010Prop51ColorRGB
 90
-16777216
102
RTVSPost2010PropOp51
 70
     0
102
RTVSPost2010Prop52
140
1.0
102
RTVSPost2010PropOp52
 70
     0
102
RTVSPost2010Prop53
 90
        2
102
RTVSPost2010PropOp53
 70
     1
102
RTVSPost2010Prop54
  1
strokes_ogs.tif
102
RTVSPost2010PropOp54
 70
     1
102
RTVSPost2010Prop55
280
     0
102
RTVSPost2010PropOp55
 70
     1
102
RTVSPost2010Prop56
140
1.0
102
RTVSPost2010PropOp56
 70
     1
102
RTVSPost2010Prop57
140
1.0
102
RTVSPost2010PropOp57
 70
     1
102
RTVSPropertyOp0
 70
     1
102
RTVSPropertyOp1
 70
     1
102
RTVSPropertyOp2
 70
     1
102
RTVSPropertyOp3
 70
     1
102
RTVSPropertyOp4
 70
     1
102
RTVSPropertyOp5
 70
     1
102
RTVSPropertyOp6
 70
     1
102
RTVSPropertyOp7
 70
     1
102
RTVSPropertyOp8
 70
     1
102
RTVSPropertyOp9
 70
     1
102
RTVSPropertyOp10
 70
     1
102
RTVSPropertyOp11
 70
     1
102
RTVSPropertyOp12
 70
     1
102
RTVSPropertyOp13
 70
     1
102
RTVSPropertyOp14
 70
     1
102
RTVSPropertyOp15
 70
     1
102
RTVSPropertyOp16
 70
     1
102
RTVSPropertyOp17
 70
     1
102
RTVSPropertyOp18
 70
     1
102
RTVSPropertyOp19
 70
     1
102
RTVSPropertyOp20
 70
     1
102
RTVSPropertyOp21
 70
     1
102
RTVSPropertyOp22
 70
     1
102
RTVSPropertyOp23
 70
     1
102
RTVSPropertyOp24
 70
     1
102
RTVSPropertyOp25
 70
     1
102
RTVSPropertyOp26
 70
     1
102
RTVSPropertyOp27
 70
     1
102
RTVSPropertyOp28
 70
     1
102
RTVSPropertyOp29
 70
     1
102
RTVSPropertyOp30
 70
     1
102
RTVSPropertyOp31
 70
     1
102
RTVSPropertyOp32
 70
     1
102
RTVSPropertyOp33
 70
     1
102
RTVSPropertyOp34
 70
     1
102
RTVSPropertyOp35
 70
     1
102
RTVSPropertyOp36
 70
     1
102
RTVSPropertyOp37
 70
     1
102
RTVSPropertyOp38
 70
     1
102
RTVSPropertyOp39
 70
     1
102
RTVSPropertyOp40
 70
     1
102
RTVSPropertyOp41
 70
     1
102
RTVSPropertyOp42
 70
     1
102
RTVSPropertyOp43
 70
     1
102
RTVSPropertyOp44
 70
     1
102
RTVSPropertyOp45
 70
     1
102
RTVSPropertyOp46
 70
     1
102
RTVSPropertyOp47
 70
     1
102
RTVSPropertyOp48
 70
     1
102
RTVSPropertyOp49
 70
     1
102
RTVSPropertyOp50
 70
     1
102
RTVSPropertyOp51
 70
     0
102
RTVSPropertyOp52
 70
     0
102
RTVSPropertyOp53
 70
     1
102
RTVSPropertyOp54
 70
     1
102
RTVSPropertyOp55
 70
     1
102
RTVSPropertyOp56
 70
     1
102
RTVSPropertyOp57
 70
     1
102
RTVSPropertyOp58
 70
     1
102
RTVSPropertyOp59
 70
     1
102
RTVSPropertyOp60
 70
     1
102
RTVSPropertyOp61
 70
     1
102
RTVSPropertyOp62
 70
     1
  0
XRECORD
  5
36CF
102
{ACAD_REACTORS
330
36CE
102
}
330
36CE
100
AcDbXrecord
280
     1
102
RTVSPost2010Prop28
280
     0
102
RTVSPost2010PropOp28
 70
     1
102
RTVSPost2010Prop29
280
     1
102
RTVSPost2010PropOp29
 70
     1
102
RTVSPost2010Prop30
280
     1
102
RTVSPost2010PropOp30
 70
     1
102
RTVSPost2010Prop31
280
     0
102
RTVSPost2010PropOp31
 70
     1
102
RTVSPost2010Prop32
280
     0
102
RTVSPost2010PropOp32
 70
     1
102
RTVSPost2010Prop33
280
     0
102
RTVSPost2010PropOp33
 70
     1
102
RTVSPost2010Prop34
280
     0
102
RTVSPost2010PropOp34
 70
     1
102
RTVSPost2010Prop35
280
     0
102
RTVSPost2010PropOp35
 70
     1
102
RTVSPost2010Prop36
280
     0
102
RTVSPost2010PropOp36
 70
     1
102
RTVSPost2010Prop37
 90
       50
102
RTVSPost2010PropOp37
 70
     1
102
RTVSPost2010Prop38
140
0.0
102
RTVSPost2010PropOp38
 70
     1
102
RTVSPost2010Prop39
140
1.0
102
RTVSPost2010PropOp39
 70
     1
102
RTVSPost2010Prop40
 90
        0
102
RTVSPost2010PropOp40
 70
     1
102
RTVSPost2010Prop41ColorIndex
 90
       18
102
RTVSPost2010Prop41ColorRGB
 90
        0
102
RTVSPost2010PropOp41
 70
     1
102
RTVSPost2010Prop42
 90
       50
102
RTVSPost2010PropOp42
 70
     1
102
RTVSPost2010Prop43
 90
        3
102
RTVSPost2010PropOp43
 70
     1
102
RTVSPost2010Prop44ColorIndex
 90
        5
102
RTVSPost2010Prop44ColorRGB
 90
      255
102
RTVSPost2010PropOp44
 70
     1
102
RTVSPost2010Prop45
280
     0
102
RTVSPost2010PropOp45
 70
     1
102
RTVSPost2010Prop46
 90
       50
102
RTVSPost2010PropOp46
 70
     1
102
RTVSPost2010Prop47
 90
       50
102
RTVSPost2010PropOp47
 70
     1
102
RTVSPost2010Prop48
 90
       50
102
RTVSPost2010PropOp48
 70
     1
102
RTVSPost2010Prop49
280
     0
102
RTVSPost2010PropOp49
 70
     1
102
RTVSPost2010Prop50
 90
       50
102
RTVSPost2010PropOp50
 70
     1
102
RTVSPost2010Prop51ColorIndex
 90
      256
102
RTVSPost2010Prop51ColorRGB
 90
-16777216
102
RTVSPost2010PropOp51
 70
     0
102
RTVSPost2010Prop52
140
1.0
102
RTVSPost2010PropOp52
 70
     0
102
RTVSPost2010Prop53
 90
        2
102
RTVSPost2010PropOp53
 70
     1
102
RTVSPost2010Prop54
  1
strokes_ogs.tif
102
RTVSPost2010PropOp54
 70
     1
102
RTVSPost2010Prop55
280
     0
102
RTVSPost2010PropOp55
 70
     1
102
RTVSPost2010Prop56
140
1.0
102
RTVSPost2010PropOp56
 70
     1
102
RTVSPost2010Prop57
140
1.0
102
RTVSPost2010PropOp57
 70
     1
102
RTVSPropertyOp0
 70
     1
102
RTVSPropertyOp1
 70
     1
102
RTVSPropertyOp2
 70
     1
102
RTVSPropertyOp3
 70
     1
102
RTVSPropertyOp4
 70
     1
102
RTVSPropertyOp5
 70
     1
102
RTVSPropertyOp6
 70
     1
102
RTVSPropertyOp7
 70
     1
102
RTVSPropertyOp8
 70
     1
102
RTVSPropertyOp9
 70
     1
102
RTVSPropertyOp10
 70
     1
102
RTVSPropertyOp11
 70
     1
102
RTVSPropertyOp12
 70
     1
102
RTVSPropertyOp13
 70
     1
102
RTVSPropertyOp14
 70
     1
102
RTVSPropertyOp15
 70
     1
102
RTVSPropertyOp16
 70
     1
102
RTVSPropertyOp17
 70
     1
102
RTVSPropertyOp18
 70
     1
102
RTVSPropertyOp19
 70
     1
102
RTVSPropertyOp20
 70
     1
102
RTVSPropertyOp21
 70
     1
102
RTVSPropertyOp22
 70
     1
102
RTVSPropertyOp23
 70
     1
102
RTVSPropertyOp24
 70
     1
102
RTVSPropertyOp25
 70
     1
102
RTVSPropertyOp26
 70
     1
102
RTVSPropertyOp27
 70
     1
102
RTVSPropertyOp28
 70
     1
102
RTVSPropertyOp29
 70
     1
102
RTVSPropertyOp30
 70
     1
102
RTVSPropertyOp31
 70
     1
102
RTVSPropertyOp32
 70
     1
102
RTVSPropertyOp33
 70
     1
102
RTVSPropertyOp34
 70
     1
102
RTVSPropertyOp35
 70
     1
102
RTVSPropertyOp36
 70
     1
102
RTVSPropertyOp37
 70
     1
102
RTVSPropertyOp38
 70
     1
102
RTVSPropertyOp39
 70
     1
102
RTVSPropertyOp40
 70
     1
102
RTVSPropertyOp41
 70
     1
102
RTVSPropertyOp42
 70
     1
102
RTVSPropertyOp43
 70
     1
102
RTVSPropertyOp44
 70
     1
102
RTVSPropertyOp45
 70
     1
102
RTVSPropertyOp46
 70
     1
102
RTVSPropertyOp47
 70
     1
102
RTVSPropertyOp48
 70
     1
102
RTVSPropertyOp49
 70
     1
102
RTVSPropertyOp50
 70
     1
102
RTVSPropertyOp51
 70
     0
102
RTVSPropertyOp52
 70
     0
102
RTVSPropertyOp53
 70
     1
102
RTVSPropertyOp54
 70
     1
102
RTVSPropertyOp55
 70
     1
102
RTVSPropertyOp56
 70
     1
102
RTVSPropertyOp57
 70
     1
102
RTVSPropertyOp58
 70
     1
102
RTVSPropertyOp59
 70
     1
102
RTVSPropertyOp60
 70
     1
102
RTVSPropertyOp61
 70
     1
102
RTVSPropertyOp62
 70
     1
  0
XRECORD
  5
36D1
102
{ACAD_REACTORS
330
36D0
102
}
330
36D0
100
AcDbXrecord
280
     1
102
RTVSPost2010Prop28
280
     0
102
RTVSPost2010PropOp28
 70
     1
102
RTVSPost2010Prop29
280
     1
102
RTVSPost2010PropOp29
 70
     1
102
RTVSPost2010Prop30
280
     1
102
RTVSPost2010PropOp30
 70
     1
102
RTVSPost2010Prop31
280
     0
102
RTVSPost2010PropOp31
 70
     1
102
RTVSPost2010Prop32
280
     0
102
RTVSPost2010PropOp32
 70
     1
102
RTVSPost2010Prop33
280
     0
102
RTVSPost2010PropOp33
 70
     1
102
RTVSPost2010Prop34
280
     0
102
RTVSPost2010PropOp34
 70
     1
102
RTVSPost2010Prop35
280
     0
102
RTVSPost2010PropOp35
 70
     1
102
RTVSPost2010Prop36
280
     0
102
RTVSPost2010PropOp36
 70
     1
102
RTVSPost2010Prop37
 90
       50
102
RTVSPost2010PropOp37
 70
     1
102
RTVSPost2010Prop38
140
0.0
102
RTVSPost2010PropOp38
 70
     1
102
RTVSPost2010Prop39
140
1.0
102
RTVSPost2010PropOp39
 70
     1
102
RTVSPost2010Prop40
 90
        0
102
RTVSPost2010PropOp40
 70
     1
102
RTVSPost2010Prop41ColorIndex
 90
       18
102
RTVSPost2010Prop41ColorRGB
 90
        0
102
RTVSPost2010PropOp41
 70
     1
102
RTVSPost2010Prop42
 90
       50
102
RTVSPost2010PropOp42
 70
     1
102
RTVSPost2010Prop43
 90
        3
102
RTVSPost2010PropOp43
 70
     1
102
RTVSPost2010Prop44ColorIndex
 90
        5
102
RTVSPost2010Prop44ColorRGB
 90
      255
102
RTVSPost2010PropOp44
 70
     1
102
RTVSPost2010Prop45
280
     0
102
RTVSPost2010PropOp45
 70
     1
102
RTVSPost2010Prop46
 90
       50
102
RTVSPost2010PropOp46
 70
     1
102
RTVSPost2010Prop47
 90
       50
102
RTVSPost2010PropOp47
 70
     1
102
RTVSPost2010Prop48
 90
       50
102
RTVSPost2010PropOp48
 70
     1
102
RTVSPost2010Prop49
280
     0
102
RTVSPost2010PropOp49
 70
     1
102
RTVSPost2010Prop50
 90
       50
102
RTVSPost2010PropOp50
 70
     1
102
RTVSPost2010Prop51ColorIndex
 90
      256
102
RTVSPost2010Prop51ColorRGB
 90
-16777216
102
RTVSPost2010PropOp51
 70
     0
102
RTVSPost2010Prop52
140
1.0
102
RTVSPost2010PropOp52
 70
     0
102
RTVSPost2010Prop53
 90
        2
102
RTVSPost2010PropOp53
 70
     1
102
RTVSPost2010Prop54
  1
strokes_ogs.tif
102
RTVSPost2010PropOp54
 70
     1
102
RTVSPost2010Prop55
280
     0
102
RTVSPost2010PropOp55
 70
     1
102
RTVSPost2010Prop56
140
1.0
102
RTVSPost2010PropOp56
 70
     1
102
RTVSPost2010Prop57
140
1.0
102
RTVSPost2010PropOp57
 70
     1
102
RTVSPropertyOp0
 70
     1
102
RTVSPropertyOp1
 70
     1
102
RTVSPropertyOp2
 70
     1
102
RTVSPropertyOp3
 70
     1
102
RTVSPropertyOp4
 70
     1
102
RTVSPropertyOp5
 70
     1
102
RTVSPropertyOp6
 70
     1
102
RTVSPropertyOp7
 70
     1
102
RTVSPropertyOp8
 70
     1
102
RTVSPropertyOp9
 70
     1
102
RTVSPropertyOp10
 70
     1
102
RTVSPropertyOp11
 70
     1
102
RTVSPropertyOp12
 70
     1
102
RTVSPropertyOp13
 70
     1
102
RTVSPropertyOp14
 70
     1
102
RTVSPropertyOp15
 70
     1
102
RTVSPropertyOp16
 70
     1
102
RTVSPropertyOp17
 70
     1
102
RTVSPropertyOp18
 70
     1
102
RTVSPropertyOp19
 70
     1
102
RTVSPropertyOp20
 70
     1
102
RTVSPropertyOp21
 70
     1
102
RTVSPropertyOp22
 70
     1
102
RTVSPropertyOp23
 70
     1
102
RTVSPropertyOp24
 70
     1
102
RTVSPropertyOp25
 70
     1
102
RTVSPropertyOp26
 70
     1
102
RTVSPropertyOp27
 70
     1
102
RTVSPropertyOp28
 70
     1
102
RTVSPropertyOp29
 70
     1
102
RTVSPropertyOp30
 70
     1
102
RTVSPropertyOp31
 70
     1
102
RTVSPropertyOp32
 70
     1
102
RTVSPropertyOp33
 70
     1
102
RTVSPropertyOp34
 70
     1
102
RTVSPropertyOp35
 70
     1
102
RTVSPropertyOp36
 70
     1
102
RTVSPropertyOp37
 70
     1
102
RTVSPropertyOp38
 70
     1
102
RTVSPropertyOp39
 70
     1
102
RTVSPropertyOp40
 70
     1
102
RTVSPropertyOp41
 70
     1
102
RTVSPropertyOp42
 70
     1
102
RTVSPropertyOp43
 70
     1
102
RTVSPropertyOp44
 70
     1
102
RTVSPropertyOp45
 70
     1
102
RTVSPropertyOp46
 70
     1
102
RTVSPropertyOp47
 70
     1
102
RTVSPropertyOp48
 70
     1
102
RTVSPropertyOp49
 70
     1
102
RTVSPropertyOp50
 70
     1
102
RTVSPropertyOp51
 70
     0
102
RTVSPropertyOp52
 70
     0
102
RTVSPropertyOp53
 70
     1
102
RTVSPropertyOp54
 70
     1
102
RTVSPropertyOp55
 70
     1
102
RTVSPropertyOp56
 70
     1
102
RTVSPropertyOp57
 70
     1
102
RTVSPropertyOp58
 70
     1
102
RTVSPropertyOp59
 70
     1
102
RTVSPropertyOp60
 70
     1
102
RTVSPropertyOp61
 70
     1
102
RTVSPropertyOp62
 70
     1
  0
XRECORD
  5
36D3
102
{ACAD_REACTORS
330
36D2
102
}
330
36D2
100
AcDbXrecord
280
     1
102
RTVSPost2010Prop28
280
     0
102
RTVSPost2010PropOp28
 70
     1
102
RTVSPost2010Prop29
280
     1
102
RTVSPost2010PropOp29
 70
     1
102
RTVSPost2010Prop30
280
     1
102
RTVSPost2010PropOp30
 70
     1
102
RTVSPost2010Prop31
280
     0
102
RTVSPost2010PropOp31
 70
     1
102
RTVSPost2010Prop32
280
     0
102
RTVSPost2010PropOp32
 70
     1
102
RTVSPost2010Prop33
280
     0
102
RTVSPost2010PropOp33
 70
     1
102
RTVSPost2010Prop34
280
     0
102
RTVSPost2010PropOp34
 70
     1
102
RTVSPost2010Prop35
280
     0
102
RTVSPost2010PropOp35
 70
     1
102
RTVSPost2010Prop36
280
     0
102
RTVSPost2010PropOp36
 70
     1
102
RTVSPost2010Prop37
 90
       50
102
RTVSPost2010PropOp37
 70
     1
102
RTVSPost2010Prop38
140
0.0
102
RTVSPost2010PropOp38
 70
     1
102
RTVSPost2010Prop39
140
1.0
102
RTVSPost2010PropOp39
 70
     1
102
RTVSPost2010Prop40
 90
        0
102
RTVSPost2010PropOp40
 70
     1
102
RTVSPost2010Prop41ColorIndex
 90
       18
102
RTVSPost2010Prop41ColorRGB
 90
        0
102
RTVSPost2010PropOp41
 70
     1
102
RTVSPost2010Prop42
 90
       50
102
RTVSPost2010PropOp42
 70
     1
102
RTVSPost2010Prop43
 90
        3
102
RTVSPost2010PropOp43
 70
     1
102
RTVSPost2010Prop44ColorIndex
 90
        5
102
RTVSPost2010Prop44ColorRGB
 90
      255
102
RTVSPost2010PropOp44
 70
     1
102
RTVSPost2010Prop45
280
     0
102
RTVSPost2010PropOp45
 70
     1
102
RTVSPost2010Prop46
 90
       50
102
RTVSPost2010PropOp46
 70
     1
102
RTVSPost2010Prop47
 90
       50
102
RTVSPost2010PropOp47
 70
     1
102
RTVSPost2010Prop48
 90
       50
102
RTVSPost2010PropOp48
 70
     1
102
RTVSPost2010Prop49
280
     0
102
RTVSPost2010PropOp49
 70
     1
102
RTVSPost2010Prop50
 90
       50
102
RTVSPost2010PropOp50
 70
     1
102
RTVSPost2010Prop51ColorIndex
 90
      256
102
RTVSPost2010Prop51ColorRGB
 90
-16777216
102
RTVSPost2010PropOp51
 70
     0
102
RTVSPost2010Prop52
140
1.0
102
RTVSPost2010PropOp52
 70
     0
102
RTVSPost2010Prop53
 90
        2
102
RTVSPost2010PropOp53
 70
     1
102
RTVSPost2010Prop54
  1
strokes_ogs.tif
102
RTVSPost2010PropOp54
 70
     1
102
RTVSPost2010Prop55
280
     0
102
RTVSPost2010PropOp55
 70
     1
102
RTVSPost2010Prop56
140
1.0
102
RTVSPost2010PropOp56
 70
     1
102
RTVSPost2010Prop57
140
1.0
102
RTVSPost2010PropOp57
 70
     1
102
RTVSPropertyOp0
 70
     1
102
RTVSPropertyOp1
 70
     1
102
RTVSPropertyOp2
 70
     1
102
RTVSPropertyOp3
 70
     1
102
RTVSPropertyOp4
 70
     1
102
RTVSPropertyOp5
 70
     1
102
RTVSPropertyOp6
 70
     1
102
RTVSPropertyOp7
 70
     1
102
RTVSPropertyOp8
 70
     1
102
RTVSPropertyOp9
 70
     1
102
RTVSPropertyOp10
 70
     1
102
RTVSPropertyOp11
 70
     1
102
RTVSPropertyOp12
 70
     1
102
RTVSPropertyOp13
 70
     1
102
RTVSPropertyOp14
 70
     1
102
RTVSPropertyOp15
 70
     1
102
RTVSPropertyOp16
 70
     1
102
RTVSPropertyOp17
 70
     1
102
RTVSPropertyOp18
 70
     1
102
RTVSPropertyOp19
 70
     1
102
RTVSPropertyOp20
 70
     1
102
RTVSPropertyOp21
 70
     1
102
RTVSPropertyOp22
 70
     1
102
RTVSPropertyOp23
 70
     1
102
RTVSPropertyOp24
 70
     1
102
RTVSPropertyOp25
 70
     1
102
RTVSPropertyOp26
 70
     1
102
RTVSPropertyOp27
 70
     1
102
RTVSPropertyOp28
 70
     1
102
RTVSPropertyOp29
 70
     1
102
RTVSPropertyOp30
 70
     1
102
RTVSPropertyOp31
 70
     1
102
RTVSPropertyOp32
 70
     1
102
RTVSPropertyOp33
 70
     1
102
RTVSPropertyOp34
 70
     1
102
RTVSPropertyOp35
 70
     1
102
RTVSPropertyOp36
 70
     1
102
RTVSPropertyOp37
 70
     1
102
RTVSPropertyOp38
 70
     1
102
RTVSPropertyOp39
 70
     1
102
RTVSPropertyOp40
 70
     1
102
RTVSPropertyOp41
 70
     1
102
RTVSPropertyOp42
 70
     1
102
RTVSPropertyOp43
 70
     1
102
RTVSPropertyOp44
 70
     1
102
RTVSPropertyOp45
 70
     1
102
RTVSPropertyOp46
 70
     1
102
RTVSPropertyOp47
 70
     1
102
RTVSPropertyOp48
 70
     1
102
RTVSPropertyOp49
 70
     1
102
RTVSPropertyOp50
 70
     1
102
RTVSPropertyOp51
 70
     0
102
RTVSPropertyOp52
 70
     0
102
RTVSPropertyOp53
 70
     1
102
RTVSPropertyOp54
 70
     1
102
RTVSPropertyOp55
 70
     1
102
RTVSPropertyOp56
 70
     1
102
RTVSPropertyOp57
 70
     1
102
RTVSPropertyOp58
 70
     1
102
RTVSPropertyOp59
 70
     1
102
RTVSPropertyOp60
 70
     1
102
RTVSPropertyOp61
 70
     1
102
RTVSPropertyOp62
 70
     1
  0
XRECORD
  5
36DB
102
{ACAD_REACTORS
330
36DA
102
}
330
36DA
100
AcDbXrecord
280
     1
102
RTVSPost2010Prop28
280
     0
102
RTVSPost2010PropOp28
 70
     1
102
RTVSPost2010Prop29
280
     1
102
RTVSPost2010PropOp29
 70
     1
102
RTVSPost2010Prop30
280
     1
102
RTVSPost2010PropOp30
 70
     1
102
RTVSPost2010Prop31
280
     0
102
RTVSPost2010PropOp31
 70
     1
102
RTVSPost2010Prop32
280
     0
102
RTVSPost2010PropOp32
 70
     1
102
RTVSPost2010Prop33
280
     0
102
RTVSPost2010PropOp33
 70
     1
102
RTVSPost2010Prop34
280
     0
102
RTVSPost2010PropOp34
 70
     1
102
RTVSPost2010Prop35
280
     0
102
RTVSPost2010PropOp35
 70
     1
102
RTVSPost2010Prop36
280
     0
102
RTVSPost2010PropOp36
 70
     1
102
RTVSPost2010Prop37
 90
       50
102
RTVSPost2010PropOp37
 70
     1
102
RTVSPost2010Prop38
140
0.0
102
RTVSPost2010PropOp38
 70
     1
102
RTVSPost2010Prop39
140
1.0
102
RTVSPost2010PropOp39
 70
     1
102
RTVSPost2010Prop40
 90
        0
102
RTVSPost2010PropOp40
 70
     1
102
RTVSPost2010Prop41ColorIndex
 90
       18
102
RTVSPost2010Prop41ColorRGB
 90
        0
102
RTVSPost2010PropOp41
 70
     1
102
RTVSPost2010Prop42
 90
       50
102
RTVSPost2010PropOp42
 70
     1
102
RTVSPost2010Prop43
 90
        3
102
RTVSPost2010PropOp43
 70
     1
102
RTVSPost2010Prop44ColorIndex
 90
        5
102
RTVSPost2010Prop44ColorRGB
 90
      255
102
RTVSPost2010PropOp44
 70
     1
102
RTVSPost2010Prop45
280
     0
102
RTVSPost2010PropOp45
 70
     1
102
RTVSPost2010Prop46
 90
       50
102
RTVSPost2010PropOp46
 70
     1
102
RTVSPost2010Prop47
 90
       50
102
RTVSPost2010PropOp47
 70
     1
102
RTVSPost2010Prop48
 90
       50
102
RTVSPost2010PropOp48
 70
     1
102
RTVSPost2010Prop49
280
     0
102
RTVSPost2010PropOp49
 70
     1
102
RTVSPost2010Prop50
 90
       50
102
RTVSPost2010PropOp50
 70
     1
102
RTVSPost2010Prop51ColorIndex
 90
      256
102
RTVSPost2010Prop51ColorRGB
 90
-16777216
102
RTVSPost2010PropOp51
 70
     0
102
RTVSPost2010Prop52
140
1.0
102
RTVSPost2010PropOp52
 70
     0
102
RTVSPost2010Prop53
 90
        2
102
RTVSPost2010PropOp53
 70
     1
102
RTVSPost2010Prop54
  1
strokes_ogs.tif
102
RTVSPost2010PropOp54
 70
     1
102
RTVSPost2010Prop55
280
     0
102
RTVSPost2010PropOp55
 70
     1
102
RTVSPost2010Prop56
140
1.0
102
RTVSPost2010PropOp56
 70
     1
102
RTVSPost2010Prop57
140
1.0
102
RTVSPost2010PropOp57
 70
     1
102
RTVSPropertyOp0
 70
     1
102
RTVSPropertyOp1
 70
     1
102
RTVSPropertyOp2
 70
     1
102
RTVSPropertyOp3
 70
     1
102
RTVSPropertyOp4
 70
     1
102
RTVSPropertyOp5
 70
     1
102
RTVSPropertyOp6
 70
     1
102
RTVSPropertyOp7
 70
     1
102
RTVSPropertyOp8
 70
     1
102
RTVSPropertyOp9
 70
     1
102
RTVSPropertyOp10
 70
     1
102
RTVSPropertyOp11
 70
     1
102
RTVSPropertyOp12
 70
     1
102
RTVSPropertyOp13
 70
     1
102
RTVSPropertyOp14
 70
     1
102
RTVSPropertyOp15
 70
     1
102
RTVSPropertyOp16
 70
     1
102
RTVSPropertyOp17
 70
     1
102
RTVSPropertyOp18
 70
     1
102
RTVSPropertyOp19
 70
     1
102
RTVSPropertyOp20
 70
     1
102
RTVSPropertyOp21
 70
     1
102
RTVSPropertyOp22
 70
     1
102
RTVSPropertyOp23
 70
     1
102
RTVSPropertyOp24
 70
     1
102
RTVSPropertyOp25
 70
     1
102
RTVSPropertyOp26
 70
     1
102
RTVSPropertyOp27
 70
     1
102
RTVSPropertyOp28
 70
     1
102
RTVSPropertyOp29
 70
     1
102
RTVSPropertyOp30
 70
     1
102
RTVSPropertyOp31
 70
     1
102
RTVSPropertyOp32
 70
     1
102
RTVSPropertyOp33
 70
     1
102
RTVSPropertyOp34
 70
     1
102
RTVSPropertyOp35
 70
     1
102
RTVSPropertyOp36
 70
     1
102
RTVSPropertyOp37
 70
     1
102
RTVSPropertyOp38
 70
     1
102
RTVSPropertyOp39
 70
     1
102
RTVSPropertyOp40
 70
     1
102
RTVSPropertyOp41
 70
     1
102
RTVSPropertyOp42
 70
     1
102
RTVSPropertyOp43
 70
     1
102
RTVSPropertyOp44
 70
     1
102
RTVSPropertyOp45
 70
     1
102
RTVSPropertyOp46
 70
     1
102
RTVSPropertyOp47
 70
     1
102
RTVSPropertyOp48
 70
     1
102
RTVSPropertyOp49
 70
     1
102
RTVSPropertyOp50
 70
     1
102
RTVSPropertyOp51
 70
     0
102
RTVSPropertyOp52
 70
     0
102
RTVSPropertyOp53
 70
     1
102
RTVSPropertyOp54
 70
     1
102
RTVSPropertyOp55
 70
     1
102
RTVSPropertyOp56
 70
     1
102
RTVSPropertyOp57
 70
     1
102
RTVSPropertyOp58
 70
     1
102
RTVSPropertyOp59
 70
     1
102
RTVSPropertyOp60
 70
     1
102
RTVSPropertyOp61
 70
     1
102
RTVSPropertyOp62
 70
     1
  0
XRECORD
  5
36F7
102
{ACAD_REACTORS
330
36F6
102
}
330
36F6
100
AcDbXrecord
280
     1
102
RTVSPost2010Prop28
280
     0
102
RTVSPost2010PropOp28
 70
     1
102
RTVSPost2010Prop29
280
     1
102
RTVSPost2010PropOp29
 70
     1
102
RTVSPost2010Prop30
280
     1
102
RTVSPost2010PropOp30
 70
     1
102
RTVSPost2010Prop31
280
     0
102
RTVSPost2010PropOp31
 70
     1
102
RTVSPost2010Prop32
280
     0
102
RTVSPost2010PropOp32
 70
     1
102
RTVSPost2010Prop33
280
     0
102
RTVSPost2010PropOp33
 70
     1
102
RTVSPost2010Prop34
280
     0
102
RTVSPost2010PropOp34
 70
     1
102
RTVSPost2010Prop35
280
     0
102
RTVSPost2010PropOp35
 70
     1
102
RTVSPost2010Prop36
280
     0
102
RTVSPost2010PropOp36
 70
     1
102
RTVSPost2010Prop37
 90
       50
102
RTVSPost2010PropOp37
 70
     0
102
RTVSPost2010Prop38
140
0.0
102
RTVSPost2010PropOp38
 70
     0
102
RTVSPost2010Prop39
140
1.0
102
RTVSPost2010PropOp39
 70
     0
102
RTVSPost2010Prop40
 90
        0
102
RTVSPost2010PropOp40
 70
     0
102
RTVSPost2010Prop41ColorIndex
 90
       18
102
RTVSPost2010Prop41ColorRGB
 90
        0
102
RTVSPost2010PropOp41
 70
     0
102
RTVSPost2010Prop42
 90
       50
102
RTVSPost2010PropOp42
 70
     0
102
RTVSPost2010Prop43
 90
        3
102
RTVSPost2010PropOp43
 70
     0
102
RTVSPost2010Prop44ColorIndex
 90
        5
102
RTVSPost2010Prop44ColorRGB
 90
      255
102
RTVSPost2010PropOp44
 70
     0
102
RTVSPost2010Prop45
280
     0
102
RTVSPost2010PropOp45
 70
     1
102
RTVSPost2010Prop46
 90
       50
102
RTVSPost2010PropOp46
 70
     0
102
RTVSPost2010Prop47
 90
       50
102
RTVSPost2010PropOp47
 70
     0
102
RTVSPost2010Prop48
 90
       50
102
RTVSPost2010PropOp48
 70
     0
102
RTVSPost2010Prop49
280
     0
102
RTVSPost2010PropOp49
 70
     1
102
RTVSPost2010Prop50
 90
       50
102
RTVSPost2010PropOp50
 70
     0
102
RTVSPost2010Prop51ColorIndex
 90
      256
102
RTVSPost2010Prop51ColorRGB
 90
-16777216
102
RTVSPost2010PropOp51
 70
     0
102
RTVSPost2010Prop52
140
1.0
102
RTVSPost2010PropOp52
 70
     0
102
RTVSPost2010Prop53
 90
        2
102
RTVSPost2010PropOp53
 70
     0
102
RTVSPost2010Prop54
  1
strokes_ogs.tif
102
RTVSPost2010PropOp54
 70
     0
102
RTVSPost2010Prop55
280
     0
102
RTVSPost2010PropOp55
 70
     1
102
RTVSPost2010Prop56
140
1.0
102
RTVSPost2010PropOp56
 70
     0
102
RTVSPost2010Prop57
140
1.0
102
RTVSPost2010PropOp57
 70
     0
102
RTVSPropertyOp0
 70
     0
102
RTVSPropertyOp1
 70
     0
102
RTVSPropertyOp2
 70
     0
102
RTVSPropertyOp3
 70
     0
102
RTVSPropertyOp4
 70
     0
102
RTVSPropertyOp5
 70
     0
102
RTVSPropertyOp6
 70
     0
102
RTVSPropertyOp7
 70
     0
102
RTVSPropertyOp8
 70
     0
102
RTVSPropertyOp9
 70
     0
102
RTVSPropertyOp10
 70
     0
102
RTVSPropertyOp11
 70
     0
102
RTVSPropertyOp12
 70
     0
102
RTVSPropertyOp13
 70
     0
102
RTVSPropertyOp14
 70
     2
102
RTVSPropertyOp15
 70
     0
102
RTVSPropertyOp16
 70
     0
102
RTVSPropertyOp17
 70
     0
102
RTVSPropertyOp18
 70
     0
102
RTVSPropertyOp19
 70
     0
102
RTVSPropertyOp20
 70
     0
102
RTVSPropertyOp21
 70
     0
102
RTVSPropertyOp22
 70
     0
102
RTVSPropertyOp23
 70
     0
102
RTVSPropertyOp24
 70
     0
102
RTVSPropertyOp25
 70
     0
102
RTVSPropertyOp26
 70
     0
102
RTVSPropertyOp27
 70
     0
102
RTVSPropertyOp28
 70
     1
102
RTVSPropertyOp29
 70
     1
102
RTVSPropertyOp30
 70
     1
102
RTVSPropertyOp31
 70
     1
102
RTVSPropertyOp32
 70
     1
102
RTVSPropertyOp33
 70
     1
102
RTVSPropertyOp34
 70
     1
102
RTVSPropertyOp35
 70
     1
102
RTVSPropertyOp36
 70
     1
102
RTVSPropertyOp37
 70
     0
102
RTVSPropertyOp38
 70
     0
102
RTVSPropertyOp39
 70
     0
102
RTVSPropertyOp40
 70
     0
102
RTVSPropertyOp41
 70
     0
102
RTVSPropertyOp42
 70
     0
102
RTVSPropertyOp43
 70
     0
102
RTVSPropertyOp44
 70
     0
102
RTVSPropertyOp45
 70
     1
102
RTVSPropertyOp46
 70
     0
102
RTVSPropertyOp47
 70
     0
102
RTVSPropertyOp48
 70
     0
102
RTVSPropertyOp49
 70
     1
102
RTVSPropertyOp50
 70
     0
102
RTVSPropertyOp51
 70
     0
102
RTVSPropertyOp52
 70
     0
102
RTVSPropertyOp53
 70
     0
102
RTVSPropertyOp54
 70
     0
102
RTVSPropertyOp55
 70
     1
102
RTVSPropertyOp56
 70
     0
102
RTVSPropertyOp57
 70
     0
102
RTVSPropertyOp58
 70
     0
102
RTVSPropertyOp59
 70
     0
102
RTVSPropertyOp60
 70
     0
102
RTVSPropertyOp61
 70
     0
102
RTVSPropertyOp62
 70
     0
  0
XRECORD
  5
36E7
102
{ACAD_REACTORS
330
36E6
102
}
330
36E6
100
AcDbXrecord
280
     1
102
RTVSPost2010Prop28
280
     0
102
RTVSPost2010PropOp28
 70
     1
102
RTVSPost2010Prop29
280
     1
102
RTVSPost2010PropOp29
 70
     1
102
RTVSPost2010Prop30
280
     1
102
RTVSPost2010PropOp30
 70
     1
102
RTVSPost2010Prop31
280
     0
102
RTVSPost2010PropOp31
 70
     1
102
RTVSPost2010Prop32
280
     0
102
RTVSPost2010PropOp32
 70
     1
102
RTVSPost2010Prop33
280
     0
102
RTVSPost2010PropOp33
 70
     1
102
RTVSPost2010Prop34
280
     0
102
RTVSPost2010PropOp34
 70
     1
102
RTVSPost2010Prop35
280
     0
102
RTVSPost2010PropOp35
 70
     1
102
RTVSPost2010Prop36
280
     0
102
RTVSPost2010PropOp36
 70
     1
102
RTVSPost2010Prop37
 90
       50
102
RTVSPost2010PropOp37
 70
     1
102
RTVSPost2010Prop38
140
0.0
102
RTVSPost2010PropOp38
 70
     1
102
RTVSPost2010Prop39
140
1.0
102
RTVSPost2010PropOp39
 70
     1
102
RTVSPost2010Prop40
 90
        0
102
RTVSPost2010PropOp40
 70
     1
102
RTVSPost2010Prop41ColorIndex
 90
       18
102
RTVSPost2010Prop41ColorRGB
 90
        0
102
RTVSPost2010PropOp41
 70
     1
102
RTVSPost2010Prop42
 90
       50
102
RTVSPost2010PropOp42
 70
     1
102
RTVSPost2010Prop43
 90
        3
102
RTVSPost2010PropOp43
 70
     1
102
RTVSPost2010Prop44ColorIndex
 90
        5
102
RTVSPost2010Prop44ColorRGB
 90
      255
102
RTVSPost2010PropOp44
 70
     1
102
RTVSPost2010Prop45
280
     0
102
RTVSPost2010PropOp45
 70
     1
102
RTVSPost2010Prop46
 90
       50
102
RTVSPost2010PropOp46
 70
     1
102
RTVSPost2010Prop47
 90
       50
102
RTVSPost2010PropOp47
 70
     1
102
RTVSPost2010Prop48
 90
       50
102
RTVSPost2010PropOp48
 70
     1
102
RTVSPost2010Prop49
280
     0
102
RTVSPost2010PropOp49
 70
     1
102
RTVSPost2010Prop50
 90
       50
102
RTVSPost2010PropOp50
 70
     1
102
RTVSPost2010Prop51ColorIndex
 90
      256
102
RTVSPost2010Prop51ColorRGB
 90
-16777216
102
RTVSPost2010PropOp51
 70
     0
102
RTVSPost2010Prop52
140
1.0
102
RTVSPost2010PropOp52
 70
     0
102
RTVSPost2010Prop53
 90
        2
102
RTVSPost2010PropOp53
 70
     1
102
RTVSPost2010Prop54
  1
strokes_ogs.tif
102
RTVSPost2010PropOp54
 70
     1
102
RTVSPost2010Prop55
280
     0
102
RTVSPost2010PropOp55
 70
     1
102
RTVSPost2010Prop56
140
1.0
102
RTVSPost2010PropOp56
 70
     1
102
RTVSPost2010Prop57
140
1.0
102
RTVSPost2010PropOp57
 70
     1
102
RTVSPropertyOp0
 70
     1
102
RTVSPropertyOp1
 70
     1
102
RTVSPropertyOp2
 70
     1
102
RTVSPropertyOp3
 70
     1
102
RTVSPropertyOp4
 70
     1
102
RTVSPropertyOp5
 70
     1
102
RTVSPropertyOp6
 70
     1
102
RTVSPropertyOp7
 70
     1
102
RTVSPropertyOp8
 70
     1
102
RTVSPropertyOp9
 70
     1
102
RTVSPropertyOp10
 70
     1
102
RTVSPropertyOp11
 70
     1
102
RTVSPropertyOp12
 70
     1
102
RTVSPropertyOp13
 70
     1
102
RTVSPropertyOp14
 70
     1
102
RTVSPropertyOp15
 70
     1
102
RTVSPropertyOp16
 70
     1
102
RTVSPropertyOp17
 70
     1
102
RTVSPropertyOp18
 70
     1
102
RTVSPropertyOp19
 70
     1
102
RTVSPropertyOp20
 70
     1
102
RTVSPropertyOp21
 70
     1
102
RTVSPropertyOp22
 70
     1
102
RTVSPropertyOp23
 70
     1
102
RTVSPropertyOp24
 70
     1
102
RTVSPropertyOp25
 70
     1
102
RTVSPropertyOp26
 70
     1
102
RTVSPropertyOp27
 70
     1
102
RTVSPropertyOp28
 70
     1
102
RTVSPropertyOp29
 70
     1
102
RTVSPropertyOp30
 70
     1
102
RTVSPropertyOp31
 70
     1
102
RTVSPropertyOp32
 70
     1
102
RTVSPropertyOp33
 70
     1
102
RTVSPropertyOp34
 70
     1
102
RTVSPropertyOp35
 70
     1
102
RTVSPropertyOp36
 70
     1
102
RTVSPropertyOp37
 70
     1
102
RTVSPropertyOp38
 70
     1
102
RTVSPropertyOp39
 70
     1
102
RTVSPropertyOp40
 70
     1
102
RTVSPropertyOp41
 70
     1
102
RTVSPropertyOp42
 70
     1
102
RTVSPropertyOp43
 70
     1
102
RTVSPropertyOp44
 70
     1
102
RTVSPropertyOp45
 70
     1
102
RTVSPropertyOp46
 70
     1
102
RTVSPropertyOp47
 70
     1
102
RTVSPropertyOp48
 70
     1
102
RTVSPropertyOp49
 70
     1
102
RTVSPropertyOp50
 70
     1
102
RTVSPropertyOp51
 70
     0
102
RTVSPropertyOp52
 70
     0
102
RTVSPropertyOp53
 70
     1
102
RTVSPropertyOp54
 70
     1
102
RTVSPropertyOp55
 70
     1
102
RTVSPropertyOp56
 70
     1
102
RTVSPropertyOp57
 70
     1
102
RTVSPropertyOp58
 70
     1
102
RTVSPropertyOp59
 70
     1
102
RTVSPropertyOp60
 70
     1
102
RTVSPropertyOp61
 70
     1
102
RTVSPropertyOp62
 70
     1
  0
XRECORD
  5
36F9
102
{ACAD_REACTORS
330
36F8
102
}
330
36F8
100
AcDbXrecord
280
     1
102
RTVSPost2010Prop28
280
     0
102
RTVSPost2010PropOp28
 70
     1
102
RTVSPost2010Prop29
280
     1
102
RTVSPost2010PropOp29
 70
     1
102
RTVSPost2010Prop30
280
     1
102
RTVSPost2010PropOp30
 70
     1
102
RTVSPost2010Prop31
280
     0
102
RTVSPost2010PropOp31
 70
     1
102
RTVSPost2010Prop32
280
     0
102
RTVSPost2010PropOp32
 70
     1
102
RTVSPost2010Prop33
280
     0
102
RTVSPost2010PropOp33
 70
     1
102
RTVSPost2010Prop34
280
     0
102
RTVSPost2010PropOp34
 70
     1
102
RTVSPost2010Prop35
280
     0
102
RTVSPost2010PropOp35
 70
     1
102
RTVSPost2010Prop36
280
     0
102
RTVSPost2010PropOp36
 70
     1
102
RTVSPost2010Prop37
 90
       50
102
RTVSPost2010PropOp37
 70
     0
102
RTVSPost2010Prop38
140
0.0
102
RTVSPost2010PropOp38
 70
     0
102
RTVSPost2010Prop39
140
1.0
102
RTVSPost2010PropOp39
 70
     0
102
RTVSPost2010Prop40
 90
        0
102
RTVSPost2010PropOp40
 70
     0
102
RTVSPost2010Prop41ColorIndex
 90
       18
102
RTVSPost2010Prop41ColorRGB
 90
        0
102
RTVSPost2010PropOp41
 70
     0
102
RTVSPost2010Prop42
 90
       50
102
RTVSPost2010PropOp42
 70
     0
102
RTVSPost2010Prop43
 90
        3
102
RTVSPost2010PropOp43
 70
     0
102
RTVSPost2010Prop44ColorIndex
 90
        5
102
RTVSPost2010Prop44ColorRGB
 90
      255
102
RTVSPost2010PropOp44
 70
     0
102
RTVSPost2010Prop45
280
     0
102
RTVSPost2010PropOp45
 70
     1
102
RTVSPost2010Prop46
 90
       50
102
RTVSPost2010PropOp46
 70
     0
102
RTVSPost2010Prop47
 90
       50
102
RTVSPost2010PropOp47
 70
     0
102
RTVSPost2010Prop48
 90
       50
102
RTVSPost2010PropOp48
 70
     0
102
RTVSPost2010Prop49
280
     0
102
RTVSPost2010PropOp49
 70
     1
102
RTVSPost2010Prop50
 90
       50
102
RTVSPost2010PropOp50
 70
     0
102
RTVSPost2010Prop51ColorIndex
 90
      256
102
RTVSPost2010Prop51ColorRGB
 90
-16777216
102
RTVSPost2010PropOp51
 70
     0
102
RTVSPost2010Prop52
140
1.0
102
RTVSPost2010PropOp52
 70
     0
102
RTVSPost2010Prop53
 90
        2
102
RTVSPost2010PropOp53
 70
     0
102
RTVSPost2010Prop54
  1
strokes_ogs.tif
102
RTVSPost2010PropOp54
 70
     0
102
RTVSPost2010Prop55
280
     0
102
RTVSPost2010PropOp55
 70
     1
102
RTVSPost2010Prop56
140
1.0
102
RTVSPost2010PropOp56
 70
     0
102
RTVSPost2010Prop57
140
1.0
102
RTVSPost2010PropOp57
 70
     0
102
RTVSPropertyOp0
 70
     0
102
RTVSPropertyOp1
 70
     0
102
RTVSPropertyOp2
 70
     0
102
RTVSPropertyOp3
 70
     0
102
RTVSPropertyOp4
 70
     0
102
RTVSPropertyOp5
 70
     0
102
RTVSPropertyOp6
 70
     0
102
RTVSPropertyOp7
 70
     0
102
RTVSPropertyOp8
 70
     0
102
RTVSPropertyOp9
 70
     0
102
RTVSPropertyOp10
 70
     0
102
RTVSPropertyOp11
 70
     0
102
RTVSPropertyOp12
 70
     0
102
RTVSPropertyOp13
 70
     0
102
RTVSPropertyOp14
 70
     2
102
RTVSPropertyOp15
 70
     0
102
RTVSPropertyOp16
 70
     0
102
RTVSPropertyOp17
 70
     0
102
RTVSPropertyOp18
 70
     0
102
RTVSPropertyOp19
 70
     0
102
RTVSPropertyOp20
 70
     0
102
RTVSPropertyOp21
 70
     0
102
RTVSPropertyOp22
 70
     0
102
RTVSPropertyOp23
 70
     0
102
RTVSPropertyOp24
 70
     0
102
RTVSPropertyOp25
 70
     0
102
RTVSPropertyOp26
 70
     0
102
RTVSPropertyOp27
 70
     0
102
RTVSPropertyOp28
 70
     1
102
RTVSPropertyOp29
 70
     1
102
RTVSPropertyOp30
 70
     1
102
RTVSPropertyOp31
 70
     1
102
RTVSPropertyOp32
 70
     1
102
RTVSPropertyOp33
 70
     1
102
RTVSPropertyOp34
 70
     1
102
RTVSPropertyOp35
 70
     1
102
RTVSPropertyOp36
 70
     1
102
RTVSPropertyOp37
 70
     0
102
RTVSPropertyOp38
 70
     0
102
RTVSPropertyOp39
 70
     0
102
RTVSPropertyOp40
 70
     0
102
RTVSPropertyOp41
 70
     0
102
RTVSPropertyOp42
 70
     0
102
RTVSPropertyOp43
 70
     0
102
RTVSPropertyOp44
 70
     0
102
RTVSPropertyOp45
 70
     1
102
RTVSPropertyOp46
 70
     0
102
RTVSPropertyOp47
 70
     0
102
RTVSPropertyOp48
 70
     0
102
RTVSPropertyOp49
 70
     1
102
RTVSPropertyOp50
 70
     0
102
RTVSPropertyOp51
 70
     0
102
RTVSPropertyOp52
 70
     0
102
RTVSPropertyOp53
 70
     0
102
RTVSPropertyOp54
 70
     0
102
RTVSPropertyOp55
 70
     1
102
RTVSPropertyOp56
 70
     0
102
RTVSPropertyOp57
 70
     0
102
RTVSPropertyOp58
 70
     0
102
RTVSPropertyOp59
 70
     0
102
RTVSPropertyOp60
 70
     0
102
RTVSPropertyOp61
 70
     0
102
RTVSPropertyOp62
 70
     0
  0
XRECORD
  5
36DF
102
{ACAD_REACTORS
330
36DE
102
}
330
36DE
100
AcDbXrecord
280
     1
102
RTVSPost2010Prop28
280
     0
102
RTVSPost2010PropOp28
 70
     1
102
RTVSPost2010Prop29
280
     1
102
RTVSPost2010PropOp29
 70
     1
102
RTVSPost2010Prop30
280
     1
102
RTVSPost2010PropOp30
 70
     1
102
RTVSPost2010Prop31
280
     0
102
RTVSPost2010PropOp31
 70
     1
102
RTVSPost2010Prop32
280
     0
102
RTVSPost2010PropOp32
 70
     1
102
RTVSPost2010Prop33
280
     0
102
RTVSPost2010PropOp33
 70
     1
102
RTVSPost2010Prop34
280
     0
102
RTVSPost2010PropOp34
 70
     1
102
RTVSPost2010Prop35
280
     0
102
RTVSPost2010PropOp35
 70
     1
102
RTVSPost2010Prop36
280
     0
102
RTVSPost2010PropOp36
 70
     1
102
RTVSPost2010Prop37
 90
       50
102
RTVSPost2010PropOp37
 70
     1
102
RTVSPost2010Prop38
140
0.0
102
RTVSPost2010PropOp38
 70
     1
102
RTVSPost2010Prop39
140
1.0
102
RTVSPost2010PropOp39
 70
     1
102
RTVSPost2010Prop40
 90
        0
102
RTVSPost2010PropOp40
 70
     1
102
RTVSPost2010Prop41ColorIndex
 90
       18
102
RTVSPost2010Prop41ColorRGB
 90
        0
102
RTVSPost2010PropOp41
 70
     1
102
RTVSPost2010Prop42
 90
       50
102
RTVSPost2010PropOp42
 70
     1
102
RTVSPost2010Prop43
 90
        3
102
RTVSPost2010PropOp43
 70
     1
102
RTVSPost2010Prop44ColorIndex
 90
        5
102
RTVSPost2010Prop44ColorRGB
 90
      255
102
RTVSPost2010PropOp44
 70
     1
102
RTVSPost2010Prop45
280
     0
102
RTVSPost2010PropOp45
 70
     1
102
RTVSPost2010Prop46
 90
       50
102
RTVSPost2010PropOp46
 70
     1
102
RTVSPost2010Prop47
 90
       50
102
RTVSPost2010PropOp47
 70
     1
102
RTVSPost2010Prop48
 90
       50
102
RTVSPost2010PropOp48
 70
     1
102
RTVSPost2010Prop49
280
     0
102
RTVSPost2010PropOp49
 70
     1
102
RTVSPost2010Prop50
 90
       50
102
RTVSPost2010PropOp50
 70
     1
102
RTVSPost2010Prop51ColorIndex
 90
      256
102
RTVSPost2010Prop51ColorRGB
 90
-16777216
102
RTVSPost2010PropOp51
 70
     0
102
RTVSPost2010Prop52
140
1.0
102
RTVSPost2010PropOp52
 70
     0
102
RTVSPost2010Prop53
 90
        2
102
RTVSPost2010PropOp53
 70
     1
102
RTVSPost2010Prop54
  1
strokes_ogs.tif
102
RTVSPost2010PropOp54
 70
     1
102
RTVSPost2010Prop55
280
     0
102
RTVSPost2010PropOp55
 70
     1
102
RTVSPost2010Prop56
140
1.0
102
RTVSPost2010PropOp56
 70
     1
102
RTVSPost2010Prop57
140
1.0
102
RTVSPost2010PropOp57
 70
     1
102
RTVSPropertyOp0
 70
     1
102
RTVSPropertyOp1
 70
     1
102
RTVSPropertyOp2
 70
     1
102
RTVSPropertyOp3
 70
     1
102
RTVSPropertyOp4
 70
     1
102
RTVSPropertyOp5
 70
     1
102
RTVSPropertyOp6
 70
     1
102
RTVSPropertyOp7
 70
     1
102
RTVSPropertyOp8
 70
     1
102
RTVSPropertyOp9
 70
     1
102
RTVSPropertyOp10
 70
     1
102
RTVSPropertyOp11
 70
     1
102
RTVSPropertyOp12
 70
     1
102
RTVSPropertyOp13
 70
     1
102
RTVSPropertyOp14
 70
     1
102
RTVSPropertyOp15
 70
     1
102
RTVSPropertyOp16
 70
     1
102
RTVSPropertyOp17
 70
     1
102
RTVSPropertyOp18
 70
     1
102
RTVSPropertyOp19
 70
     1
102
RTVSPropertyOp20
 70
     1
102
RTVSPropertyOp21
 70
     1
102
RTVSPropertyOp22
 70
     1
102
RTVSPropertyOp23
 70
     1
102
RTVSPropertyOp24
 70
     1
102
RTVSPropertyOp25
 70
     1
102
RTVSPropertyOp26
 70
     1
102
RTVSPropertyOp27
 70
     1
102
RTVSPropertyOp28
 70
     1
102
RTVSPropertyOp29
 70
     1
102
RTVSPropertyOp30
 70
     1
102
RTVSPropertyOp31
 70
     1
102
RTVSPropertyOp32
 70
     1
102
RTVSPropertyOp33
 70
     1
102
RTVSPropertyOp34
 70
     1
102
RTVSPropertyOp35
 70
     1
102
RTVSPropertyOp36
 70
     1
102
RTVSPropertyOp37
 70
     1
102
RTVSPropertyOp38
 70
     1
102
RTVSPropertyOp39
 70
     1
102
RTVSPropertyOp40
 70
     1
102
RTVSPropertyOp41
 70
     1
102
RTVSPropertyOp42
 70
     1
102
RTVSPropertyOp43
 70
     1
102
RTVSPropertyOp44
 70
     1
102
RTVSPropertyOp45
 70
     1
102
RTVSPropertyOp46
 70
     1
102
RTVSPropertyOp47
 70
     1
102
RTVSPropertyOp48
 70
     1
102
RTVSPropertyOp49
 70
     1
102
RTVSPropertyOp50
 70
     1
102
RTVSPropertyOp51
 70
     0
102
RTVSPropertyOp52
 70
     0
102
RTVSPropertyOp53
 70
     1
102
RTVSPropertyOp54
 70
     1
102
RTVSPropertyOp55
 70
     1
102
RTVSPropertyOp56
 70
     1
102
RTVSPropertyOp57
 70
     1
102
RTVSPropertyOp58
 70
     1
102
RTVSPropertyOp59
 70
     1
102
RTVSPropertyOp60
 70
     1
102
RTVSPropertyOp61
 70
     1
102
RTVSPropertyOp62
 70
     1
  0
XRECORD
  5
36F5
102
{ACAD_REACTORS
330
36F4
102
}
330
36F4
100
AcDbXrecord
280
     1
102
RTVSPost2010Prop28
280
     0
102
RTVSPost2010PropOp28
 70
     1
102
RTVSPost2010Prop29
280
     1
102
RTVSPost2010PropOp29
 70
     1
102
RTVSPost2010Prop30
280
     1
102
RTVSPost2010PropOp30
 70
     1
102
RTVSPost2010Prop31
280
     0
102
RTVSPost2010PropOp31
 70
     1
102
RTVSPost2010Prop32
280
     0
102
RTVSPost2010PropOp32
 70
     1
102
RTVSPost2010Prop33
280
     0
102
RTVSPost2010PropOp33
 70
     1
102
RTVSPost2010Prop34
280
     0
102
RTVSPost2010PropOp34
 70
     1
102
RTVSPost2010Prop35
280
     0
102
RTVSPost2010PropOp35
 70
     1
102
RTVSPost2010Prop36
280
     0
102
RTVSPost2010PropOp36
 70
     1
102
RTVSPost2010Prop37
 90
       50
102
RTVSPost2010PropOp37
 70
     1
102
RTVSPost2010Prop38
140
0.0
102
RTVSPost2010PropOp38
 70
     1
102
RTVSPost2010Prop39
140
1.0
102
RTVSPost2010PropOp39
 70
     1
102
RTVSPost2010Prop40
 90
        0
102
RTVSPost2010PropOp40
 70
     1
102
RTVSPost2010Prop41ColorIndex
 90
       18
102
RTVSPost2010Prop41ColorRGB
 90
        0
102
RTVSPost2010PropOp41
 70
     1
102
RTVSPost2010Prop42
 90
       50
102
RTVSPost2010PropOp42
 70
     1
102
RTVSPost2010Prop43
 90
        3
102
RTVSPost2010PropOp43
 70
     1
102
RTVSPost2010Prop44ColorIndex
 90
        5
102
RTVSPost2010Prop44ColorRGB
 90
      255
102
RTVSPost2010PropOp44
 70
     1
102
RTVSPost2010Prop45
280
     0
102
RTVSPost2010PropOp45
 70
     1
102
RTVSPost2010Prop46
 90
       50
102
RTVSPost2010PropOp46
 70
     1
102
RTVSPost2010Prop47
 90
       50
102
RTVSPost2010PropOp47
 70
     1
102
RTVSPost2010Prop48
 90
       50
102
RTVSPost2010PropOp48
 70
     1
102
RTVSPost2010Prop49
280
     0
102
RTVSPost2010PropOp49
 70
     1
102
RTVSPost2010Prop50
 90
       50
102
RTVSPost2010PropOp50
 70
     1
102
RTVSPost2010Prop51ColorIndex
 90
      256
102
RTVSPost2010Prop51ColorRGB
 90
-16777216
102
RTVSPost2010PropOp51
 70
     0
102
RTVSPost2010Prop52
140
1.0
102
RTVSPost2010PropOp52
 70
     0
102
RTVSPost2010Prop53
 90
        2
102
RTVSPost2010PropOp53
 70
     1
102
RTVSPost2010Prop54
  1
strokes_ogs.tif
102
RTVSPost2010PropOp54
 70
     1
102
RTVSPost2010Prop55
280
     0
102
RTVSPost2010PropOp55
 70
     1
102
RTVSPost2010Prop56
140
1.0
102
RTVSPost2010PropOp56
 70
     1
102
RTVSPost2010Prop57
140
1.0
102
RTVSPost2010PropOp57
 70
     1
102
RTVSPropertyOp0
 70
     1
102
RTVSPropertyOp1
 70
     1
102
RTVSPropertyOp2
 70
     1
102
RTVSPropertyOp3
 70
     1
102
RTVSPropertyOp4
 70
     1
102
RTVSPropertyOp5
 70
     1
102
RTVSPropertyOp6
 70
     1
102
RTVSPropertyOp7
 70
     1
102
RTVSPropertyOp8
 70
     1
102
RTVSPropertyOp9
 70
     1
102
RTVSPropertyOp10
 70
     1
102
RTVSPropertyOp11
 70
     1
102
RTVSPropertyOp12
 70
     1
102
RTVSPropertyOp13
 70
     1
102
RTVSPropertyOp14
 70
     1
102
RTVSPropertyOp15
 70
     1
102
RTVSPropertyOp16
 70
     1
102
RTVSPropertyOp17
 70
     1
102
RTVSPropertyOp18
 70
     1
102
RTVSPropertyOp19
 70
     1
102
RTVSPropertyOp20
 70
     1
102
RTVSPropertyOp21
 70
     1
102
RTVSPropertyOp22
 70
     1
102
RTVSPropertyOp23
 70
     1
102
RTVSPropertyOp24
 70
     1
102
RTVSPropertyOp25
 70
     1
102
RTVSPropertyOp26
 70
     1
102
RTVSPropertyOp27
 70
     1
102
RTVSPropertyOp28
 70
     1
102
RTVSPropertyOp29
 70
     1
102
RTVSPropertyOp30
 70
     1
102
RTVSPropertyOp31
 70
     1
102
RTVSPropertyOp32
 70
     1
102
RTVSPropertyOp33
 70
     1
102
RTVSPropertyOp34
 70
     1
102
RTVSPropertyOp35
 70
     1
102
RTVSPropertyOp36
 70
     1
102
RTVSPropertyOp37
 70
     1
102
RTVSPropertyOp38
 70
     1
102
RTVSPropertyOp39
 70
     1
102
RTVSPropertyOp40
 70
     1
102
RTVSPropertyOp41
 70
     1
102
RTVSPropertyOp42
 70
     1
102
RTVSPropertyOp43
 70
     1
102
RTVSPropertyOp44
 70
     1
102
RTVSPropertyOp45
 70
     1
102
RTVSPropertyOp46
 70
     1
102
RTVSPropertyOp47
 70
     1
102
RTVSPropertyOp48
 70
     1
102
RTVSPropertyOp49
 70
     1
102
RTVSPropertyOp50
 70
     1
102
RTVSPropertyOp51
 70
     0
102
RTVSPropertyOp52
 70
     0
102
RTVSPropertyOp53
 70
     1
102
RTVSPropertyOp54
 70
     1
102
RTVSPropertyOp55
 70
     1
102
RTVSPropertyOp56
 70
     1
102
RTVSPropertyOp57
 70
     1
102
RTVSPropertyOp58
 70
     1
102
RTVSPropertyOp59
 70
     1
102
RTVSPropertyOp60
 70
     1
102
RTVSPropertyOp61
 70
     1
102
RTVSPropertyOp62
 70
     1
  0
XRECORD
  5
36F3
102
{ACAD_REACTORS
330
36F2
102
}
330
36F2
100
AcDbXrecord
280
     1
102
RTVSPost2010Prop28
280
     0
102
RTVSPost2010PropOp28
 70
     1
102
RTVSPost2010Prop29
280
     1
102
RTVSPost2010PropOp29
 70
     1
102
RTVSPost2010Prop30
280
     1
102
RTVSPost2010PropOp30
 70
     1
102
RTVSPost2010Prop31
280
     0
102
RTVSPost2010PropOp31
 70
     1
102
RTVSPost2010Prop32
280
     0
102
RTVSPost2010PropOp32
 70
     1
102
RTVSPost2010Prop33
280
     0
102
RTVSPost2010PropOp33
 70
     1
102
RTVSPost2010Prop34
280
     0
102
RTVSPost2010PropOp34
 70
     1
102
RTVSPost2010Prop35
280
     0
102
RTVSPost2010PropOp35
 70
     1
102
RTVSPost2010Prop36
280
     0
102
RTVSPost2010PropOp36
 70
     1
102
RTVSPost2010Prop37
 90
       50
102
RTVSPost2010PropOp37
 70
     1
102
RTVSPost2010Prop38
140
0.0
102
RTVSPost2010PropOp38
 70
     1
102
RTVSPost2010Prop39
140
1.0
102
RTVSPost2010PropOp39
 70
     1
102
RTVSPost2010Prop40
 90
        0
102
RTVSPost2010PropOp40
 70
     1
102
RTVSPost2010Prop41ColorIndex
 90
       18
102
RTVSPost2010Prop41ColorRGB
 90
        0
102
RTVSPost2010PropOp41
 70
     1
102
RTVSPost2010Prop42
 90
       50
102
RTVSPost2010PropOp42
 70
     1
102
RTVSPost2010Prop43
 90
        3
102
RTVSPost2010PropOp43
 70
     1
102
RTVSPost2010Prop44ColorIndex
 90
        5
102
RTVSPost2010Prop44ColorRGB
 90
      255
102
RTVSPost2010PropOp44
 70
     1
102
RTVSPost2010Prop45
280
     0
102
RTVSPost2010PropOp45
 70
     1
102
RTVSPost2010Prop46
 90
       50
102
RTVSPost2010PropOp46
 70
     1
102
RTVSPost2010Prop47
 90
       50
102
RTVSPost2010PropOp47
 70
     1
102
RTVSPost2010Prop48
 90
       50
102
RTVSPost2010PropOp48
 70
     1
102
RTVSPost2010Prop49
280
     0
102
RTVSPost2010PropOp49
 70
     1
102
RTVSPost2010Prop50
 90
       50
102
RTVSPost2010PropOp50
 70
     1
102
RTVSPost2010Prop51ColorIndex
 90
      256
102
RTVSPost2010Prop51ColorRGB
 90
-16777216
102
RTVSPost2010PropOp51
 70
     0
102
RTVSPost2010Prop52
140
1.0
102
RTVSPost2010PropOp52
 70
     0
102
RTVSPost2010Prop53
 90
        2
102
RTVSPost2010PropOp53
 70
     1
102
RTVSPost2010Prop54
  1
strokes_ogs.tif
102
RTVSPost2010PropOp54
 70
     1
102
RTVSPost2010Prop55
280
     0
102
RTVSPost2010PropOp55
 70
     1
102
RTVSPost2010Prop56
140
1.0
102
RTVSPost2010PropOp56
 70
     1
102
RTVSPost2010Prop57
140
1.0
102
RTVSPost2010PropOp57
 70
     1
102
RTVSPropertyOp0
 70
     1
102
RTVSPropertyOp1
 70
     1
102
RTVSPropertyOp2
 70
     1
102
RTVSPropertyOp3
 70
     1
102
RTVSPropertyOp4
 70
     1
102
RTVSPropertyOp5
 70
     1
102
RTVSPropertyOp6
 70
     1
102
RTVSPropertyOp7
 70
     1
102
RTVSPropertyOp8
 70
     1
102
RTVSPropertyOp9
 70
     1
102
RTVSPropertyOp10
 70
     1
102
RTVSPropertyOp11
 70
     1
102
RTVSPropertyOp12
 70
     1
102
RTVSPropertyOp13
 70
     1
102
RTVSPropertyOp14
 70
     1
102
RTVSPropertyOp15
 70
     1
102
RTVSPropertyOp16
 70
     1
102
RTVSPropertyOp17
 70
     1
102
RTVSPropertyOp18
 70
     1
102
RTVSPropertyOp19
 70
     1
102
RTVSPropertyOp20
 70
     1
102
RTVSPropertyOp21
 70
     1
102
RTVSPropertyOp22
 70
     1
102
RTVSPropertyOp23
 70
     1
102
RTVSPropertyOp24
 70
     1
102
RTVSPropertyOp25
 70
     1
102
RTVSPropertyOp26
 70
     1
102
RTVSPropertyOp27
 70
     1
102
RTVSPropertyOp28
 70
     1
102
RTVSPropertyOp29
 70
     1
102
RTVSPropertyOp30
 70
     1
102
RTVSPropertyOp31
 70
     1
102
RTVSPropertyOp32
 70
     1
102
RTVSPropertyOp33
 70
     1
102
RTVSPropertyOp34
 70
     1
102
RTVSPropertyOp35
 70
     1
102
RTVSPropertyOp36
 70
     1
102
RTVSPropertyOp37
 70
     1
102
RTVSPropertyOp38
 70
     1
102
RTVSPropertyOp39
 70
     1
102
RTVSPropertyOp40
 70
     1
102
RTVSPropertyOp41
 70
     1
102
RTVSPropertyOp42
 70
     1
102
RTVSPropertyOp43
 70
     1
102
RTVSPropertyOp44
 70
     1
102
RTVSPropertyOp45
 70
     1
102
RTVSPropertyOp46
 70
     1
102
RTVSPropertyOp47
 70
     1
102
RTVSPropertyOp48
 70
     1
102
RTVSPropertyOp49
 70
     1
102
RTVSPropertyOp50
 70
     1
102
RTVSPropertyOp51
 70
     0
102
RTVSPropertyOp52
 70
     0
102
RTVSPropertyOp53
 70
     1
102
RTVSPropertyOp54
 70
     1
102
RTVSPropertyOp55
 70
     1
102
RTVSPropertyOp56
 70
     1
102
RTVSPropertyOp57
 70
     1
102
RTVSPropertyOp58
 70
     1
102
RTVSPropertyOp59
 70
     1
102
RTVSPropertyOp60
 70
     1
102
RTVSPropertyOp61
 70
     1
102
RTVSPropertyOp62
 70
     1
  0
XRECORD
  5
36ED
102
{ACAD_REACTORS
330
36EC
102
}
330
36EC
100
AcDbXrecord
280
     1
102
RTVSPost2010Prop28
280
     0
102
RTVSPost2010PropOp28
 70
     1
102
RTVSPost2010Prop29
280
     1
102
RTVSPost2010PropOp29
 70
     1
102
RTVSPost2010Prop30
280
     1
102
RTVSPost2010PropOp30
 70
     1
102
RTVSPost2010Prop31
280
     0
102
RTVSPost2010PropOp31
 70
     1
102
RTVSPost2010Prop32
280
     0
102
RTVSPost2010PropOp32
 70
     1
102
RTVSPost2010Prop33
280
     0
102
RTVSPost2010PropOp33
 70
     1
102
RTVSPost2010Prop34
280
     0
102
RTVSPost2010PropOp34
 70
     1
102
RTVSPost2010Prop35
280
     0
102
RTVSPost2010PropOp35
 70
     1
102
RTVSPost2010Prop36
280
     0
102
RTVSPost2010PropOp36
 70
     1
102
RTVSPost2010Prop37
 90
       50
102
RTVSPost2010PropOp37
 70
     1
102
RTVSPost2010Prop38
140
0.0
102
RTVSPost2010PropOp38
 70
     1
102
RTVSPost2010Prop39
140
1.0
102
RTVSPost2010PropOp39
 70
     1
102
RTVSPost2010Prop40
 90
        0
102
RTVSPost2010PropOp40
 70
     1
102
RTVSPost2010Prop41ColorIndex
 90
       18
102
RTVSPost2010Prop41ColorRGB
 90
        0
102
RTVSPost2010PropOp41
 70
     1
102
RTVSPost2010Prop42
 90
       50
102
RTVSPost2010PropOp42
 70
     1
102
RTVSPost2010Prop43
 90
        3
102
RTVSPost2010PropOp43
 70
     1
102
RTVSPost2010Prop44ColorIndex
 90
        5
102
RTVSPost2010Prop44ColorRGB
 90
      255
102
RTVSPost2010PropOp44
 70
     1
102
RTVSPost2010Prop45
280
     0
102
RTVSPost2010PropOp45
 70
     1
102
RTVSPost2010Prop46
 90
       50
102
RTVSPost2010PropOp46
 70
     1
102
RTVSPost2010Prop47
 90
       50
102
RTVSPost2010PropOp47
 70
     1
102
RTVSPost2010Prop48
 90
       50
102
RTVSPost2010PropOp48
 70
     1
102
RTVSPost2010Prop49
280
     0
102
RTVSPost2010PropOp49
 70
     1
102
RTVSPost2010Prop50
 90
       50
102
RTVSPost2010PropOp50
 70
     1
102
RTVSPost2010Prop51ColorIndex
 90
      256
102
RTVSPost2010Prop51ColorRGB
 90
-16777216
102
RTVSPost2010PropOp51
 70
     0
102
RTVSPost2010Prop52
140
1.0
102
RTVSPost2010PropOp52
 70
     0
102
RTVSPost2010Prop53
 90
        2
102
RTVSPost2010PropOp53
 70
     1
102
RTVSPost2010Prop54
  1
strokes_ogs.tif
102
RTVSPost2010PropOp54
 70
     1
102
RTVSPost2010Prop55
280
     0
102
RTVSPost2010PropOp55
 70
     1
102
RTVSPost2010Prop56
140
1.0
102
RTVSPost2010PropOp56
 70
     1
102
RTVSPost2010Prop57
140
1.0
102
RTVSPost2010PropOp57
 70
     1
102
RTVSPropertyOp0
 70
     1
102
RTVSPropertyOp1
 70
     1
102
RTVSPropertyOp2
 70
     1
102
RTVSPropertyOp3
 70
     1
102
RTVSPropertyOp4
 70
     1
102
RTVSPropertyOp5
 70
     1
102
RTVSPropertyOp6
 70
     1
102
RTVSPropertyOp7
 70
     1
102
RTVSPropertyOp8
 70
     1
102
RTVSPropertyOp9
 70
     1
102
RTVSPropertyOp10
 70
     1
102
RTVSPropertyOp11
 70
     1
102
RTVSPropertyOp12
 70
     1
102
RTVSPropertyOp13
 70
     1
102
RTVSPropertyOp14
 70
     1
102
RTVSPropertyOp15
 70
     1
102
RTVSPropertyOp16
 70
     1
102
RTVSPropertyOp17
 70
     1
102
RTVSPropertyOp18
 70
     1
102
RTVSPropertyOp19
 70
     1
102
RTVSPropertyOp20
 70
     1
102
RTVSPropertyOp21
 70
     1
102
RTVSPropertyOp22
 70
     1
102
RTVSPropertyOp23
 70
     1
102
RTVSPropertyOp24
 70
     1
102
RTVSPropertyOp25
 70
     1
102
RTVSPropertyOp26
 70
     1
102
RTVSPropertyOp27
 70
     1
102
RTVSPropertyOp28
 70
     1
102
RTVSPropertyOp29
 70
     1
102
RTVSPropertyOp30
 70
     1
102
RTVSPropertyOp31
 70
     1
102
RTVSPropertyOp32
 70
     1
102
RTVSPropertyOp33
 70
     1
102
RTVSPropertyOp34
 70
     1
102
RTVSPropertyOp35
 70
     1
102
RTVSPropertyOp36
 70
     1
102
RTVSPropertyOp37
 70
     1
102
RTVSPropertyOp38
 70
     1
102
RTVSPropertyOp39
 70
     1
102
RTVSPropertyOp40
 70
     1
102
RTVSPropertyOp41
 70
     1
102
RTVSPropertyOp42
 70
     1
102
RTVSPropertyOp43
 70
     1
102
RTVSPropertyOp44
 70
     1
102
RTVSPropertyOp45
 70
     1
102
RTVSPropertyOp46
 70
     1
102
RTVSPropertyOp47
 70
     1
102
RTVSPropertyOp48
 70
     1
102
RTVSPropertyOp49
 70
     1
102
RTVSPropertyOp50
 70
     1
102
RTVSPropertyOp51
 70
     0
102
RTVSPropertyOp52
 70
     0
102
RTVSPropertyOp53
 70
     1
102
RTVSPropertyOp54
 70
     1
102
RTVSPropertyOp55
 70
     1
102
RTVSPropertyOp56
 70
     1
102
RTVSPropertyOp57
 70
     1
102
RTVSPropertyOp58
 70
     1
102
RTVSPropertyOp59
 70
     1
102
RTVSPropertyOp60
 70
     1
102
RTVSPropertyOp61
 70
     1
102
RTVSPropertyOp62
 70
     1
  0
XRECORD
  5
36EF
102
{ACAD_REACTORS
330
36EE
102
}
330
36EE
100
AcDbXrecord
280
     1
102
RTVSPost2010Prop28
280
     0
102
RTVSPost2010PropOp28
 70
     1
102
RTVSPost2010Prop29
280
     1
102
RTVSPost2010PropOp29
 70
     1
102
RTVSPost2010Prop30
280
     1
102
RTVSPost2010PropOp30
 70
     1
102
RTVSPost2010Prop31
280
     0
102
RTVSPost2010PropOp31
 70
     1
102
RTVSPost2010Prop32
280
     0
102
RTVSPost2010PropOp32
 70
     1
102
RTVSPost2010Prop33
280
     0
102
RTVSPost2010PropOp33
 70
     1
102
RTVSPost2010Prop34
280
     0
102
RTVSPost2010PropOp34
 70
     1
102
RTVSPost2010Prop35
280
     0
102
RTVSPost2010PropOp35
 70
     1
102
RTVSPost2010Prop36
280
     0
102
RTVSPost2010PropOp36
 70
     1
102
RTVSPost2010Prop37
 90
       50
102
RTVSPost2010PropOp37
 70
     1
102
RTVSPost2010Prop38
140
0.0
102
RTVSPost2010PropOp38
 70
     1
102
RTVSPost2010Prop39
140
1.0
102
RTVSPost2010PropOp39
 70
     1
102
RTVSPost2010Prop40
 90
        0
102
RTVSPost2010PropOp40
 70
     1
102
RTVSPost2010Prop41ColorIndex
 90
       18
102
RTVSPost2010Prop41ColorRGB
 90
        0
102
RTVSPost2010PropOp41
 70
     1
102
RTVSPost2010Prop42
 90
       50
102
RTVSPost2010PropOp42
 70
     1
102
RTVSPost2010Prop43
 90
        3
102
RTVSPost2010PropOp43
 70
     1
102
RTVSPost2010Prop44ColorIndex
 90
        5
102
RTVSPost2010Prop44ColorRGB
 90
      255
102
RTVSPost2010PropOp44
 70
     1
102
RTVSPost2010Prop45
280
     0
102
RTVSPost2010PropOp45
 70
     1
102
RTVSPost2010Prop46
 90
       50
102
RTVSPost2010PropOp46
 70
     1
102
RTVSPost2010Prop47
 90
       50
102
RTVSPost2010PropOp47
 70
     1
102
RTVSPost2010Prop48
 90
       50
102
RTVSPost2010PropOp48
 70
     1
102
RTVSPost2010Prop49
280
     0
102
RTVSPost2010PropOp49
 70
     1
102
RTVSPost2010Prop50
 90
       50
102
RTVSPost2010PropOp50
 70
     1
102
RTVSPost2010Prop51ColorIndex
 90
      256
102
RTVSPost2010Prop51ColorRGB
 90
-16777216
102
RTVSPost2010PropOp51
 70
     0
102
RTVSPost2010Prop52
140
1.0
102
RTVSPost2010PropOp52
 70
     0
102
RTVSPost2010Prop53
 90
        2
102
RTVSPost2010PropOp53
 70
     1
102
RTVSPost2010Prop54
  1
strokes_ogs.tif
102
RTVSPost2010PropOp54
 70
     1
102
RTVSPost2010Prop55
280
     0
102
RTVSPost2010PropOp55
 70
     1
102
RTVSPost2010Prop56
140
1.0
102
RTVSPost2010PropOp56
 70
     1
102
RTVSPost2010Prop57
140
1.0
102
RTVSPost2010PropOp57
 70
     1
102
RTVSPropertyOp0
 70
     1
102
RTVSPropertyOp1
 70
     1
102
RTVSPropertyOp2
 70
     1
102
RTVSPropertyOp3
 70
     1
102
RTVSPropertyOp4
 70
     1
102
RTVSPropertyOp5
 70
     1
102
RTVSPropertyOp6
 70
     1
102
RTVSPropertyOp7
 70
     1
102
RTVSPropertyOp8
 70
     1
102
RTVSPropertyOp9
 70
     1
102
RTVSPropertyOp10
 70
     1
102
RTVSPropertyOp11
 70
     1
102
RTVSPropertyOp12
 70
     1
102
RTVSPropertyOp13
 70
     1
102
RTVSPropertyOp14
 70
     1
102
RTVSPropertyOp15
 70
     1
102
RTVSPropertyOp16
 70
     1
102
RTVSPropertyOp17
 70
     1
102
RTVSPropertyOp18
 70
     1
102
RTVSPropertyOp19
 70
     1
102
RTVSPropertyOp20
 70
     1
102
RTVSPropertyOp21
 70
     1
102
RTVSPropertyOp22
 70
     1
102
RTVSPropertyOp23
 70
     1
102
RTVSPropertyOp24
 70
     1
102
RTVSPropertyOp25
 70
     1
102
RTVSPropertyOp26
 70
     1
102
RTVSPropertyOp27
 70
     1
102
RTVSPropertyOp28
 70
     1
102
RTVSPropertyOp29
 70
     1
102
RTVSPropertyOp30
 70
     1
102
RTVSPropertyOp31
 70
     1
102
RTVSPropertyOp32
 70
     1
102
RTVSPropertyOp33
 70
     1
102
RTVSPropertyOp34
 70
     1
102
RTVSPropertyOp35
 70
     1
102
RTVSPropertyOp36
 70
     1
102
RTVSPropertyOp37
 70
     1
102
RTVSPropertyOp38
 70
     1
102
RTVSPropertyOp39
 70
     1
102
RTVSPropertyOp40
 70
     1
102
RTVSPropertyOp41
 70
     1
102
RTVSPropertyOp42
 70
     1
102
RTVSPropertyOp43
 70
     1
102
RTVSPropertyOp44
 70
     1
102
RTVSPropertyOp45
 70
     1
102
RTVSPropertyOp46
 70
     1
102
RTVSPropertyOp47
 70
     1
102
RTVSPropertyOp48
 70
     1
102
RTVSPropertyOp49
 70
     1
102
RTVSPropertyOp50
 70
     1
102
RTVSPropertyOp51
 70
     0
102
RTVSPropertyOp52
 70
     0
102
RTVSPropertyOp53
 70
     1
102
RTVSPropertyOp54
 70
     1
102
RTVSPropertyOp55
 70
     1
102
RTVSPropertyOp56
 70
     1
102
RTVSPropertyOp57
 70
     1
102
RTVSPropertyOp58
 70
     1
102
RTVSPropertyOp59
 70
     1
102
RTVSPropertyOp60
 70
     1
102
RTVSPropertyOp61
 70
     1
102
RTVSPropertyOp62
 70
     1
  0
XRECORD
  5
36E5
102
{ACAD_REACTORS
330
36E4
102
}
330
36E4
100
AcDbXrecord
280
     1
102
RTVSPost2010Prop28
280
     0
102
RTVSPost2010PropOp28
 70
     1
102
RTVSPost2010Prop29
280
     1
102
RTVSPost2010PropOp29
 70
     1
102
RTVSPost2010Prop30
280
     1
102
RTVSPost2010PropOp30
 70
     1
102
RTVSPost2010Prop31
280
     0
102
RTVSPost2010PropOp31
 70
     1
102
RTVSPost2010Prop32
280
     0
102
RTVSPost2010PropOp32
 70
     1
102
RTVSPost2010Prop33
280
     0
102
RTVSPost2010PropOp33
 70
     1
102
RTVSPost2010Prop34
280
     0
102
RTVSPost2010PropOp34
 70
     1
102
RTVSPost2010Prop35
280
     0
102
RTVSPost2010PropOp35
 70
     1
102
RTVSPost2010Prop36
280
     0
102
RTVSPost2010PropOp36
 70
     1
102
RTVSPost2010Prop37
 90
       50
102
RTVSPost2010PropOp37
 70
     1
102
RTVSPost2010Prop38
140
0.0
102
RTVSPost2010PropOp38
 70
     1
102
RTVSPost2010Prop39
140
1.0
102
RTVSPost2010PropOp39
 70
     1
102
RTVSPost2010Prop40
 90
        0
102
RTVSPost2010PropOp40
 70
     1
102
RTVSPost2010Prop41ColorIndex
 90
       18
102
RTVSPost2010Prop41ColorRGB
 90
        0
102
RTVSPost2010PropOp41
 70
     1
102
RTVSPost2010Prop42
 90
       50
102
RTVSPost2010PropOp42
 70
     1
102
RTVSPost2010Prop43
 90
        3
102
RTVSPost2010PropOp43
 70
     1
102
RTVSPost2010Prop44ColorIndex
 90
        5
102
RTVSPost2010Prop44ColorRGB
 90
      255
102
RTVSPost2010PropOp44
 70
     1
102
RTVSPost2010Prop45
280
     0
102
RTVSPost2010PropOp45
 70
     1
102
RTVSPost2010Prop46
 90
       50
102
RTVSPost2010PropOp46
 70
     1
102
RTVSPost2010Prop47
 90
       50
102
RTVSPost2010PropOp47
 70
     1
102
RTVSPost2010Prop48
 90
       50
102
RTVSPost2010PropOp48
 70
     1
102
RTVSPost2010Prop49
280
     0
102
RTVSPost2010PropOp49
 70
     1
102
RTVSPost2010Prop50
 90
       50
102
RTVSPost2010PropOp50
 70
     1
102
RTVSPost2010Prop51ColorIndex
 90
      256
102
RTVSPost2010Prop51ColorRGB
 90
-16777216
102
RTVSPost2010PropOp51
 70
     0
102
RTVSPost2010Prop52
140
1.0
102
RTVSPost2010PropOp52
 70
     0
102
RTVSPost2010Prop53
 90
        2
102
RTVSPost2010PropOp53
 70
     1
102
RTVSPost2010Prop54
  1
strokes_ogs.tif
102
RTVSPost2010PropOp54
 70
     1
102
RTVSPost2010Prop55
280
     0
102
RTVSPost2010PropOp55
 70
     1
102
RTVSPost2010Prop56
140
1.0
102
RTVSPost2010PropOp56
 70
     1
102
RTVSPost2010Prop57
140
1.0
102
RTVSPost2010PropOp57
 70
     1
102
RTVSPropertyOp0
 70
     1
102
RTVSPropertyOp1
 70
     1
102
RTVSPropertyOp2
 70
     1
102
RTVSPropertyOp3
 70
     1
102
RTVSPropertyOp4
 70
     1
102
RTVSPropertyOp5
 70
     1
102
RTVSPropertyOp6
 70
     1
102
RTVSPropertyOp7
 70
     1
102
RTVSPropertyOp8
 70
     1
102
RTVSPropertyOp9
 70
     1
102
RTVSPropertyOp10
 70
     1
102
RTVSPropertyOp11
 70
     1
102
RTVSPropertyOp12
 70
     1
102
RTVSPropertyOp13
 70
     1
102
RTVSPropertyOp14
 70
     1
102
RTVSPropertyOp15
 70
     1
102
RTVSPropertyOp16
 70
     1
102
RTVSPropertyOp17
 70
     1
102
RTVSPropertyOp18
 70
     1
102
RTVSPropertyOp19
 70
     1
102
RTVSPropertyOp20
 70
     1
102
RTVSPropertyOp21
 70
     1
102
RTVSPropertyOp22
 70
     1
102
RTVSPropertyOp23
 70
     1
102
RTVSPropertyOp24
 70
     1
102
RTVSPropertyOp25
 70
     1
102
RTVSPropertyOp26
 70
     1
102
RTVSPropertyOp27
 70
     1
102
RTVSPropertyOp28
 70
     1
102
RTVSPropertyOp29
 70
     1
102
RTVSPropertyOp30
 70
     1
102
RTVSPropertyOp31
 70
     1
102
RTVSPropertyOp32
 70
     1
102
RTVSPropertyOp33
 70
     1
102
RTVSPropertyOp34
 70
     1
102
RTVSPropertyOp35
 70
     1
102
RTVSPropertyOp36
 70
     1
102
RTVSPropertyOp37
 70
     1
102
RTVSPropertyOp38
 70
     1
102
RTVSPropertyOp39
 70
     1
102
RTVSPropertyOp40
 70
     1
102
RTVSPropertyOp41
 70
     1
102
RTVSPropertyOp42
 70
     1
102
RTVSPropertyOp43
 70
     1
102
RTVSPropertyOp44
 70
     1
102
RTVSPropertyOp45
 70
     1
102
RTVSPropertyOp46
 70
     1
102
RTVSPropertyOp47
 70
     1
102
RTVSPropertyOp48
 70
     1
102
RTVSPropertyOp49
 70
     1
102
RTVSPropertyOp50
 70
     1
102
RTVSPropertyOp51
 70
     0
102
RTVSPropertyOp52
 70
     0
102
RTVSPropertyOp53
 70
     1
102
RTVSPropertyOp54
 70
     1
102
RTVSPropertyOp55
 70
     1
102
RTVSPropertyOp56
 70
     1
102
RTVSPropertyOp57
 70
     1
102
RTVSPropertyOp58
 70
     1
102
RTVSPropertyOp59
 70
     1
102
RTVSPropertyOp60
 70
     1
102
RTVSPropertyOp61
 70
     1
102
RTVSPropertyOp62
 70
     1
  0
XRECORD
  5
36D9
102
{ACAD_REACTORS
330
36D8
102
}
330
36D8
100
AcDbXrecord
280
     1
102
RTVSPost2010Prop28
280
     0
102
RTVSPost2010PropOp28
 70
     1
102
RTVSPost2010Prop29
280
     1
102
RTVSPost2010PropOp29
 70
     1
102
RTVSPost2010Prop30
280
     1
102
RTVSPost2010PropOp30
 70
     1
102
RTVSPost2010Prop31
280
     0
102
RTVSPost2010PropOp31
 70
     1
102
RTVSPost2010Prop32
280
     0
102
RTVSPost2010PropOp32
 70
     1
102
RTVSPost2010Prop33
280
     0
102
RTVSPost2010PropOp33
 70
     1
102
RTVSPost2010Prop34
280
     0
102
RTVSPost2010PropOp34
 70
     1
102
RTVSPost2010Prop35
280
     0
102
RTVSPost2010PropOp35
 70
     1
102
RTVSPost2010Prop36
280
     0
102
RTVSPost2010PropOp36
 70
     1
102
RTVSPost2010Prop37
 90
       50
102
RTVSPost2010PropOp37
 70
     1
102
RTVSPost2010Prop38
140
0.0
102
RTVSPost2010PropOp38
 70
     1
102
RTVSPost2010Prop39
140
1.0
102
RTVSPost2010PropOp39
 70
     1
102
RTVSPost2010Prop40
 90
        0
102
RTVSPost2010PropOp40
 70
     1
102
RTVSPost2010Prop41ColorIndex
 90
       18
102
RTVSPost2010Prop41ColorRGB
 90
        0
102
RTVSPost2010PropOp41
 70
     1
102
RTVSPost2010Prop42
 90
       50
102
RTVSPost2010PropOp42
 70
     1
102
RTVSPost2010Prop43
 90
        3
102
RTVSPost2010PropOp43
 70
     1
102
RTVSPost2010Prop44ColorIndex
 90
        5
102
RTVSPost2010Prop44ColorRGB
 90
      255
102
RTVSPost2010PropOp44
 70
     1
102
RTVSPost2010Prop45
280
     0
102
RTVSPost2010PropOp45
 70
     1
102
RTVSPost2010Prop46
 90
       50
102
RTVSPost2010PropOp46
 70
     1
102
RTVSPost2010Prop47
 90
       50
102
RTVSPost2010PropOp47
 70
     1
102
RTVSPost2010Prop48
 90
       50
102
RTVSPost2010PropOp48
 70
     1
102
RTVSPost2010Prop49
280
     0
102
RTVSPost2010PropOp49
 70
     1
102
RTVSPost2010Prop50
 90
       50
102
RTVSPost2010PropOp50
 70
     1
102
RTVSPost2010Prop51ColorIndex
 90
      256
102
RTVSPost2010Prop51ColorRGB
 90
-16777216
102
RTVSPost2010PropOp51
 70
     0
102
RTVSPost2010Prop52
140
1.0
102
RTVSPost2010PropOp52
 70
     0
102
RTVSPost2010Prop53
 90
        2
102
RTVSPost2010PropOp53
 70
     1
102
RTVSPost2010Prop54
  1
strokes_ogs.tif
102
RTVSPost2010PropOp54
 70
     1
102
RTVSPost2010Prop55
280
     0
102
RTVSPost2010PropOp55
 70
     1
102
RTVSPost2010Prop56
140
1.0
102
RTVSPost2010PropOp56
 70
     1
102
RTVSPost2010Prop57
140
1.0
102
RTVSPost2010PropOp57
 70
     1
102
RTVSPropertyOp0
 70
     1
102
RTVSPropertyOp1
 70
     1
102
RTVSPropertyOp2
 70
     1
102
RTVSPropertyOp3
 70
     1
102
RTVSPropertyOp4
 70
     1
102
RTVSPropertyOp5
 70
     1
102
RTVSPropertyOp6
 70
     1
102
RTVSPropertyOp7
 70
     1
102
RTVSPropertyOp8
 70
     1
102
RTVSPropertyOp9
 70
     1
102
RTVSPropertyOp10
 70
     1
102
RTVSPropertyOp11
 70
     1
102
RTVSPropertyOp12
 70
     1
102
RTVSPropertyOp13
 70
     1
102
RTVSPropertyOp14
 70
     1
102
RTVSPropertyOp15
 70
     1
102
RTVSPropertyOp16
 70
     1
102
RTVSPropertyOp17
 70
     1
102
RTVSPropertyOp18
 70
     1
102
RTVSPropertyOp19
 70
     1
102
RTVSPropertyOp20
 70
     1
102
RTVSPropertyOp21
 70
     1
102
RTVSPropertyOp22
 70
     1
102
RTVSPropertyOp23
 70
     1
102
RTVSPropertyOp24
 70
     1
102
RTVSPropertyOp25
 70
     1
102
RTVSPropertyOp26
 70
     1
102
RTVSPropertyOp27
 70
     1
102
RTVSPropertyOp28
 70
     1
102
RTVSPropertyOp29
 70
     1
102
RTVSPropertyOp30
 70
     1
102
RTVSPropertyOp31
 70
     1
102
RTVSPropertyOp32
 70
     1
102
RTVSPropertyOp33
 70
     1
102
RTVSPropertyOp34
 70
     1
102
RTVSPropertyOp35
 70
     1
102
RTVSPropertyOp36
 70
     1
102
RTVSPropertyOp37
 70
     1
102
RTVSPropertyOp38
 70
     1
102
RTVSPropertyOp39
 70
     1
102
RTVSPropertyOp40
 70
     1
102
RTVSPropertyOp41
 70
     1
102
RTVSPropertyOp42
 70
     1
102
RTVSPropertyOp43
 70
     1
102
RTVSPropertyOp44
 70
     1
102
RTVSPropertyOp45
 70
     1
102
RTVSPropertyOp46
 70
     1
102
RTVSPropertyOp47
 70
     1
102
RTVSPropertyOp48
 70
     1
102
RTVSPropertyOp49
 70
     1
102
RTVSPropertyOp50
 70
     1
102
RTVSPropertyOp51
 70
     0
102
RTVSPropertyOp52
 70
     0
102
RTVSPropertyOp53
 70
     1
102
RTVSPropertyOp54
 70
     1
102
RTVSPropertyOp55
 70
     1
102
RTVSPropertyOp56
 70
     1
102
RTVSPropertyOp57
 70
     1
102
RTVSPropertyOp58
 70
     1
102
RTVSPropertyOp59
 70
     1
102
RTVSPropertyOp60
 70
     1
102
RTVSPropertyOp61
 70
     1
102
RTVSPropertyOp62
 70
     1
  0
XRECORD
  5
36F1
102
{ACAD_REACTORS
330
36F0
102
}
330
36F0
100
AcDbXrecord
280
     1
102
RTVSPost2010Prop28
280
     0
102
RTVSPost2010PropOp28
 70
     1
102
RTVSPost2010Prop29
280
     1
102
RTVSPost2010PropOp29
 70
     1
102
RTVSPost2010Prop30
280
     1
102
RTVSPost2010PropOp30
 70
     1
102
RTVSPost2010Prop31
280
     0
102
RTVSPost2010PropOp31
 70
     1
102
RTVSPost2010Prop32
280
     0
102
RTVSPost2010PropOp32
 70
     1
102
RTVSPost2010Prop33
280
     0
102
RTVSPost2010PropOp33
 70
     1
102
RTVSPost2010Prop34
280
     0
102
RTVSPost2010PropOp34
 70
     1
102
RTVSPost2010Prop35
280
     0
102
RTVSPost2010PropOp35
 70
     1
102
RTVSPost2010Prop36
280
     0
102
RTVSPost2010PropOp36
 70
     1
102
RTVSPost2010Prop37
 90
       50
102
RTVSPost2010PropOp37
 70
     1
102
RTVSPost2010Prop38
140
0.0
102
RTVSPost2010PropOp38
 70
     1
102
RTVSPost2010Prop39
140
1.0
102
RTVSPost2010PropOp39
 70
     1
102
RTVSPost2010Prop40
 90
        0
102
RTVSPost2010PropOp40
 70
     1
102
RTVSPost2010Prop41ColorIndex
 90
       18
102
RTVSPost2010Prop41ColorRGB
 90
        0
102
RTVSPost2010PropOp41
 70
     1
102
RTVSPost2010Prop42
 90
       50
102
RTVSPost2010PropOp42
 70
     1
102
RTVSPost2010Prop43
 90
        3
102
RTVSPost2010PropOp43
 70
     1
102
RTVSPost2010Prop44ColorIndex
 90
        5
102
RTVSPost2010Prop44ColorRGB
 90
      255
102
RTVSPost2010PropOp44
 70
     1
102
RTVSPost2010Prop45
280
     0
102
RTVSPost2010PropOp45
 70
     1
102
RTVSPost2010Prop46
 90
       50
102
RTVSPost2010PropOp46
 70
     1
102
RTVSPost2010Prop47
 90
       50
102
RTVSPost2010PropOp47
 70
     1
102
RTVSPost2010Prop48
 90
       50
102
RTVSPost2010PropOp48
 70
     1
102
RTVSPost2010Prop49
280
     0
102
RTVSPost2010PropOp49
 70
     1
102
RTVSPost2010Prop50
 90
       50
102
RTVSPost2010PropOp50
 70
     1
102
RTVSPost2010Prop51ColorIndex
 90
      256
102
RTVSPost2010Prop51ColorRGB
 90
-16777216
102
RTVSPost2010PropOp51
 70
     0
102
RTVSPost2010Prop52
140
1.0
102
RTVSPost2010PropOp52
 70
     0
102
RTVSPost2010Prop53
 90
        2
102
RTVSPost2010PropOp53
 70
     1
102
RTVSPost2010Prop54
  1
strokes_ogs.tif
102
RTVSPost2010PropOp54
 70
     1
102
RTVSPost2010Prop55
280
     0
102
RTVSPost2010PropOp55
 70
     1
102
RTVSPost2010Prop56
140
1.0
102
RTVSPost2010PropOp56
 70
     1
102
RTVSPost2010Prop57
140
1.0
102
RTVSPost2010PropOp57
 70
     1
102
RTVSPropertyOp0
 70
     1
102
RTVSPropertyOp1
 70
     1
102
RTVSPropertyOp2
 70
     1
102
RTVSPropertyOp3
 70
     1
102
RTVSPropertyOp4
 70
     1
102
RTVSPropertyOp5
 70
     1
102
RTVSPropertyOp6
 70
     1
102
RTVSPropertyOp7
 70
     1
102
RTVSPropertyOp8
 70
     1
102
RTVSPropertyOp9
 70
     1
102
RTVSPropertyOp10
 70
     1
102
RTVSPropertyOp11
 70
     1
102
RTVSPropertyOp12
 70
     1
102
RTVSPropertyOp13
 70
     1
102
RTVSPropertyOp14
 70
     1
102
RTVSPropertyOp15
 70
     1
102
RTVSPropertyOp16
 70
     1
102
RTVSPropertyOp17
 70
     1
102
RTVSPropertyOp18
 70
     1
102
RTVSPropertyOp19
 70
     1
102
RTVSPropertyOp20
 70
     1
102
RTVSPropertyOp21
 70
     1
102
RTVSPropertyOp22
 70
     1
102
RTVSPropertyOp23
 70
     1
102
RTVSPropertyOp24
 70
     1
102
RTVSPropertyOp25
 70
     1
102
RTVSPropertyOp26
 70
     1
102
RTVSPropertyOp27
 70
     1
102
RTVSPropertyOp28
 70
     1
102
RTVSPropertyOp29
 70
     1
102
RTVSPropertyOp30
 70
     1
102
RTVSPropertyOp31
 70
     1
102
RTVSPropertyOp32
 70
     1
102
RTVSPropertyOp33
 70
     1
102
RTVSPropertyOp34
 70
     1
102
RTVSPropertyOp35
 70
     1
102
RTVSPropertyOp36
 70
     1
102
RTVSPropertyOp37
 70
     1
102
RTVSPropertyOp38
 70
     1
102
RTVSPropertyOp39
 70
     1
102
RTVSPropertyOp40
 70
     1
102
RTVSPropertyOp41
 70
     1
102
RTVSPropertyOp42
 70
     1
102
RTVSPropertyOp43
 70
     1
102
RTVSPropertyOp44
 70
     1
102
RTVSPropertyOp45
 70
     1
102
RTVSPropertyOp46
 70
     1
102
RTVSPropertyOp47
 70
     1
102
RTVSPropertyOp48
 70
     1
102
RTVSPropertyOp49
 70
     1
102
RTVSPropertyOp50
 70
     1
102
RTVSPropertyOp51
 70
     0
102
RTVSPropertyOp52
 70
     0
102
RTVSPropertyOp53
 70
     1
102
RTVSPropertyOp54
 70
     1
102
RTVSPropertyOp55
 70
     1
102
RTVSPropertyOp56
 70
     1
102
RTVSPropertyOp57
 70
     1
102
RTVSPropertyOp58
 70
     1
102
RTVSPropertyOp59
 70
     1
102
RTVSPropertyOp60
 70
     1
102
RTVSPropertyOp61
 70
     1
102
RTVSPropertyOp62
 70
     1
  0
ENDSEC
  0
EOF
